<?xml version="1.0" standalone="no"?>
<!DOCTYPE svg PUBLIC "-//W3C//DTD SVG 1.1//EN" "http://www.w3.org/Graphics/SVG/1.1/DTD/svg11.dtd" >
<svg xmlns="http://www.w3.org/2000/svg">
<metadata>
Created by FontPrep 20130207 at Thu Sep  1 11:04:31 2016
 By MkTyrtle
Copyright (c) 2015 by Cadillac and Letters from Sweden. All rights reserved.
</metadata>
<defs>
<font id="361593b1c9f39414b21037d0fa1463ec" horiz-adv-x='1024' >
  <font-face 
    font-family="CadillacSansA-Book"
    font-weight="400"
    font-stretch="normal"
    units-per-em="2048"
    panose-1="0 0 5 0 0 0 0 0 0 0"
    ascent="1536"
    descent="-512"
    x-height="1102"
    cap-height="1434"
    bbox="-549 -453 2499 1855"
    underline-thickness="102"
    underline-position="-102"
    unicode-range="U+000D-FB02"
  />
<missing-glyph horiz-adv-x="1226" 
d="M920 1509h-613v-1585h613v1585zM1067 1638v-1843h-907v1843h907z" />
    <glyph glyph-name="fi" unicode="fi" horiz-adv-x="1163" 
d="M1024 1102v-1102h-188v1102h188zM526 1477q92 0 160 -19v-133q-55 6 -96 6q-170 0 -219 -106v-123h274v-141h-274v-961h-187v961h-139v141h139v186q82 189 342 189zM928 1489q84 0 110 -53v-107q-28 -51 -112 -51t-105 51v107q23 53 107 53z" />
    <glyph glyph-name="fl" unicode="fl" horiz-adv-x="1146" 
d="M1016 1434v-1434h-189v1434h189zM526 1477q92 0 160 -19v-133q-55 6 -96 6q-170 0 -219 -106v-123h274v-141h-274v-961h-187v961h-139v141h139v186q82 189 342 189z" />
    <glyph glyph-name="f_f" unicode="ff" horiz-adv-x="1316" 
d="M1212 1331q-168 0 -221 -106v-123h275v-141h-275v-961h-186v961h-434v-961h-187v961h-139v141h139v186q82 188 342 189q92 0 160 -19v-133q-55 6 -96 6q-166 0 -219 -106v-123h434v186q82 188 342 189q98 0 160 -19v-133q-50 6 -95 6z" />
    <glyph glyph-name=".notdef" horiz-adv-x="1226" 
d="M920 1509h-613v-1585h613v1585zM1067 1638v-1843h-907v1843h907z" />
    <glyph glyph-name=".null" horiz-adv-x="0" 
 />
    <glyph glyph-name="nonmarkingreturn" horiz-adv-x="681" 
 />
    <glyph glyph-name="CR" unicode="&#xd;" horiz-adv-x="401" 
 />
    <glyph glyph-name="CR" horiz-adv-x="401" 
 />
    <glyph glyph-name="space" unicode=" " horiz-adv-x="421" 
 />
    <glyph glyph-name="exclam" unicode="!" horiz-adv-x="548" 
d="M274 -18q-80 0 -108 53v117q26 53 110 53t107 -53v-117q-8 -21 -38 -37t-71 -16zM170 1434h211v-230l-25 -874h-161l-25 874v230z" />
    <glyph glyph-name="quotedbl" unicode="&#x22;" horiz-adv-x="688" 
d="M604 1434v-174l-24 -261h-117l-25 261v174h166zM250 1434v-174l-25 -261h-116l-25 261v174h166z" />
    <glyph glyph-name="numbersign" unicode="#" horiz-adv-x="1187" 
d="M741 549l54 328h-351l-53 -328h350zM1120 877h-176l-51 -328h151v-135h-174l-67 -414h-133v102l49 312h-348l-68 -414h-133v102l49 312h-151v135h174l53 328h-154v137h174l68 420h135v-103l-51 -317h350l68 420h133v-103l-51 -317h153v-137z" />
    <glyph glyph-name="dollar" unicode="$" horiz-adv-x="1196" 
d="M676 -193h-156v168q-170 15 -272 95t-152 172v110h174q27 -92 113 -155t205 -63q118 0 192 48q74 49 107 117v184q-47 106 -240 156l-133 33q-170 43 -247 91t-134 136v326q47 81 145 149t242 84v168h156v-170q143 -16 240 -84t143 -147v-111h-172q-29 84 -104 136
t-179 52t-174 -38q-70 -39 -100 -97v-196q24 -41 66 -69t147 -56l133 -37q188 -51 273 -111t130 -141v-313q-47 -92 -145 -170t-258 -97v-170z" />
    <glyph glyph-name="percent" unicode="%" horiz-adv-x="1816" 
d="M1395 614q-66 0 -114 -26t-69 -66v-340q20 -40 70 -66t114 -26t112 27t69 65v340q-20 40 -68 66t-114 26zM1395 721q127 0 211 -52t114 -124v-387q-30 -70 -114 -122t-210 -52t-211 52t-114 122v387q29 70 113 123t211 53zM420 1346q-66 0 -115 -28t-67 -67v-340
q18 -37 67 -63t115 -27q66 0 114 26t68 64v340q-20 39 -68 67t-114 28zM1456 1434v-86l-1001 -1348h-93v86l1002 1348h92zM421 1452q126 0 210 -53t112 -123v-387q-29 -70 -113 -122t-210 -52q-127 0 -211 52t-115 122v387q31 70 116 123t211 53z" />
    <glyph glyph-name="ampersand" unicode="&#x26;" horiz-adv-x="1366" 
d="M631 121q203 0 317 151l-422 408q-74 -16 -133 -60t-82 -100v-231q35 -78 121 -123t199 -45zM1335 0h-106l-162 156q-176 -184 -438 -185q-199 0 -328 81t-176 192v311q82 174 287 238l-41 41q-98 94 -138 153v268q43 72 154 139q111 66 273 66t270 -66q109 -66 155 -139
v-100h-163q-25 59 -93 109t-170 49q-147 0 -239 -99v-174q23 -49 106 -129l461 -446v297h166v-457l182 -178v-127z" />
    <glyph glyph-name="quotesingle" unicode="'" horiz-adv-x="333" 
d="M250 1434v-174l-25 -261h-116l-25 261v174h166z" />
    <glyph glyph-name="parenleft" unicode="(" horiz-adv-x="751" 
d="M674 1434v-142h-17q-127 0 -205 -70t-110 -175v-998q78 -252 315 -252h17v-141h-17q-207 0 -338 96t-184 230v1126q53 133 184 229t338 97h17z" />
    <glyph glyph-name="parenright" unicode=")" horiz-adv-x="751" 
d="M94 1434q207 0 337 -96t183 -230v-1126q-53 -134 -183 -230t-337 -96h-16v141h16q238 0 316 252v998q-33 104 -111 175t-205 70h-16v142h16z" />
    <glyph glyph-name="asterisk" unicode="*" horiz-adv-x="1013" 
d="M507 1536q52 0 81 -20l-37 -349l321 144q28 -21 48 -72q12 -53 4 -84l-346 -74l237 -262q-12 -33 -51 -65t-82 -31l-174 301l-174 -301q-43 0 -84 33t-49 63l237 262l-348 74q-10 35 5 83t46 73l320 -142l-35 347q29 20 81 20z" />
    <glyph glyph-name="plus" unicode="+" horiz-adv-x="1196" 
d="M1108 766v-150h-434v-438h-154v438h-434v150h434v436h154v-436h434z" />
    <glyph glyph-name="comma" unicode="," horiz-adv-x="380" 
d="M188 205q41 -1 72 -17t37 -36v-277q-10 -33 -49 -67t-94 -33h-56v86h43q31 0 47 30v82q-78 0 -106 54v125q26 53 106 53z" />
    <glyph glyph-name="hyphen" unicode="-" horiz-adv-x="745" 
d="M657 766v-150h-571v150h571z" />
    <glyph glyph-name="period" unicode="." horiz-adv-x="380" 
d="M188 205q43 -1 73 -17t36 -36v-117q-6 -21 -36 -37t-73 -16q-78 0 -106 53v117q26 53 106 53z" />
    <glyph glyph-name="slash" unicode="/" horiz-adv-x="800" 
d="M700 1497v-102l-442 -1620h-158v102l443 1620h157z" />
    <glyph glyph-name="zero" unicode="0" horiz-adv-x="1196" 
d="M597 1311q-101 0 -177 -47t-105 -115v-862q29 -68 105 -115t177 -47t177 47t105 115v862q-29 68 -105 115t-177 47zM598 1462q180 0 304 -83t169 -185v-952q-45 -102 -168 -186t-304 -85q-181 0 -305 84t-169 187v952q45 102 169 185t304 83z" />
    <glyph glyph-name="one" unicode="1" horiz-adv-x="911" 
d="M578 1434v-1297h233v-137h-668v137h244v1082l-246 -109v152l320 172h117z" />
    <glyph glyph-name="two" unicode="2" horiz-adv-x="1150" 
d="M567 1462q178 0 302 -83t169 -185v-289q-32 -78 -100 -141t-231 -168l-158 -100q-213 -135 -254 -230v-106h758v-160h-951v315q49 85 114 147t226 167l162 100q215 139 244 223v197q-31 68 -107 115q-75 47 -181 47q-106 -1 -186 -55t-98 -152h-172v110q47 90 166 169
t297 79z" />
    <glyph glyph-name="three" unicode="3" horiz-adv-x="1163" 
d="M563 1462q174 0 288 -77t161 -164v-289q-68 -119 -230 -176q94 -31 162 -90t94 -123v-301q-45 -102 -169 -186t-303 -85q-179 0 -304 81t-166 169v111h172q23 -88 104 -148t188 -59q107 0 182 47t106 115v221q-29 70 -105 119t-178 49h-147v147h133q96 0 167 42t103 96
v215q-82 135 -260 135q-113 1 -183 -55t-87 -126h-174v111q43 77 157 149t289 72z" />
    <glyph glyph-name="four" unicode="4" horiz-adv-x="1171" 
d="M758 1266h-6l-500 -762h506v762zM942 1434v-930h188v-154h-188v-350h-184v350h-701v150l617 934h268z" />
    <glyph glyph-name="five" unicode="5" horiz-adv-x="1153" 
d="M1022 1434v-160h-698v-445q119 109 287 109q167 0 277 -73t150 -167v-477q-44 -92 -162 -171t-296 -79t-301 79t-168 171v111h174q16 -82 98 -144q83 -62 189 -63q106 0 183 47t105 115v336q-30 71 -106 117t-176 46q-162 0 -254 -118h-177v766h875z" />
    <glyph glyph-name="six" unicode="6" horiz-adv-x="1177" 
d="M596 745q-172 0 -279 -120v-338q29 -68 106 -115t177 -47t177 47t104 115v305q-27 66 -105 110t-180 43zM608 1311q-108 0 -184 -48t-107 -114v-369q127 117 324 117q157 0 267 -73t153 -167v-436q-45 -90 -165 -170t-298 -80t-302 84t-169 187v952q45 102 169 185
t302 83t298 -78t165 -170v-110h-172q-18 94 -96 150q-77 56 -185 57z" />
    <glyph glyph-name="seven" unicode="7" horiz-adv-x="1001" 
d="M944 1434v-146l-577 -1288h-154v123l539 1151h-721v160h913z" />
    <glyph glyph-name="eight" unicode="8" horiz-adv-x="1189" 
d="M598 127q110 -1 188 49t107 111v229q-53 109 -262 160l-47 12q-117 -23 -191 -74t-96 -98v-229q27 -59 109 -109t192 -51zM596 1309q-90 0 -158 -38t-100 -89v-205q49 -82 201 -123l69 -18q86 18 156 59t88 82v205q-30 51 -98 89t-158 38zM596 -29q-133 1 -242 51
q-110 50 -160 104t-85 116v327q63 119 251 187q-129 59 -198 170v321q55 84 165 150q109 65 269 65t268 -66t166 -149v-321q-62 -99 -203 -154q109 -43 163 -91t91 -112v-327q-43 -96 -165 -184t-320 -87z" />
    <glyph glyph-name="nine" unicode="9" horiz-adv-x="1177" 
d="M582 674q170 0 278 123v350q-29 68 -105 115q-77 47 -177 47t-176 -47t-105 -115v-318q29 -67 106 -111t179 -44zM580 1462q178 0 303 -84t168 -186v-952q-43 -102 -168 -186t-303 -83q-178 0 -297 78t-164 170v111h170q18 -94 96 -150q77 -56 185 -57q108 0 184 48
t106 114v356q-129 -119 -304 -119t-285 73t-152 169v448q41 90 162 170t299 80z" />
    <glyph glyph-name="colon" unicode=":" horiz-adv-x="415" 
d="M209 205q84 0 106 -53v-117q-7 -21 -37 -37t-71 -16q-80 0 -109 53v117q27 53 111 53zM209 1018q84 0 106 -53v-117q-7 -20 -37 -36t-71 -17q-80 0 -109 53v117q27 53 111 53z" />
    <glyph glyph-name="semicolon" unicode=";" horiz-adv-x="415" 
d="M207 205q41 -1 71 -17t37 -36v-277q-12 -33 -52 -67t-93 -33h-53v86h41q31 0 49 30v82q-80 0 -109 54v125q27 53 109 53zM209 1018q84 0 106 -53v-117q-7 -20 -37 -36t-71 -17q-80 0 -109 53v117q27 53 111 53z" />
    <glyph glyph-name="less" unicode="&#x3c;" horiz-adv-x="1196" 
d="M1130 1102v-107l-845 -385l845 -381v-106h-135l-932 426v127l932 426h135z" />
    <glyph glyph-name="equal" unicode="=" horiz-adv-x="1196" 
d="M1108 555v-152h-1022v152h1022zM1108 979v-152h-1022v152h1022z" />
    <glyph glyph-name="greater" unicode="&#x3e;" horiz-adv-x="1196" 
d="M63 123v106l846 381l-846 385v107h136l931 -426v-127l-931 -426h-136z" />
    <glyph glyph-name="question" unicode="?" horiz-adv-x="1081" 
d="M443 -18q-83 0 -107 53v117q24 53 108 53t107 -53v-117q-25 -53 -108 -53zM346 344v231l324 232q117 80 147 139v223q-96 133 -282 134q-111 1 -189 -49t-106 -121h-170v110q154 219 465 219q182 0 299 -72t176 -165v-346q-33 -61 -164 -160l-307 -223v-152h-193z" />
    <glyph glyph-name="at" unicode="@" horiz-adv-x="1927" 
d="M942 199q176 0 266 112v506q-88 115 -266 115q-94 0 -156 -38t-86 -83v-492q28 -45 88 -83t154 -37zM967 1462q141 0 270 -37q227 -65 377 -212q151 -147 198 -281v-711q-88 -153 -284 -153t-291 137q-127 -139 -332 -139q-147 0 -242 68t-133 149v563q40 80 132 150
t237 69q184 0 309 -121v94h168v-772q40 -84 142 -84t157 80v645q-48 113 -167 230t-312 173q-111 32 -233 31q-238 1 -426 -115t-279 -323v-674q92 -201 280 -321t414 -119q226 0 406 105l72 -95q-214 -129 -484 -129t-500 142t-327 387v735q99 242 333 385t515 143z" />
    <glyph glyph-name="A" unicode="A" horiz-adv-x="1247" 
d="M393 561h447l-219 703h-7zM1188 0h-172l-127 403h-545l-127 -403h-156v123l426 1311h273l428 -1311v-123z" />
    <glyph glyph-name="B" unicode="B" horiz-adv-x="1208" 
d="M668 668h-318v-508h299q193 0 275 145v225q-35 62 -106 100t-150 38zM350 1274v-453h305q69 0 133 38t105 99v172q-35 68 -102 106q-68 38 -154 38h-287zM692 0h-542v1434h530q134 0 238 -69t161 -173v-270q-59 -105 -182 -168q143 -55 213 -174v-336q-56 -102 -160 -173
t-258 -71z" />
    <glyph glyph-name="C" unicode="C" horiz-adv-x="1239" 
d="M640 1462q204 0 329 -90t182 -209v-110h-170q-33 109 -119 179.5t-212 70.5t-208 -55.5t-116 -139.5v-782q35 -84 116.5 -139.5t207.5 -55.5t212 70.5t119 179.5h170v-111q-57 -119 -182 -209t-329 -90t-332 93.5t-183 218.5v868q55 125 183 218t332 93z" />
    <glyph glyph-name="D" unicode="D" horiz-adv-x="1280" 
d="M639 1274h-289v-1114h289q121 0 203 48t114 128v762q-33 80 -114 128q-82 48 -203 48zM674 1434q190 0 311 -82t172 -201v-868q-51 -119 -172 -201t-311 -82h-524v1434h524z" />
    <glyph glyph-name="E" unicode="E" horiz-adv-x="1103" 
d="M991 1434v-160h-641v-457h598v-158h-598v-499h660v-160h-860v1434h841z" />
    <glyph glyph-name="F" unicode="F" horiz-adv-x="1052" 
d="M971 1434v-160h-621v-461h590v-160h-590v-653h-200v1434h821z" />
    <glyph glyph-name="G" unicode="G" horiz-adv-x="1296" 
d="M650 1303q-126 0 -208 -55.5t-116 -139.5v-780q33 -84 116.5 -139.5t202.5 -55.5t200 53.5t118 135.5v276h-291v158h479v-756h-170v123q-133 -152 -367 -152q-188 0 -312 94.5t-177 219.5v866q55 125 183 218t332 93t329 -90t182 -209v-110h-170q-33 109 -119 179.5
t-212 70.5z" />
    <glyph glyph-name="H" unicode="H" horiz-adv-x="1325" 
d="M1174 1434v-1434h-201v659h-623v-659h-200v1434h200v-615h623v615h201z" />
    <glyph glyph-name="I" unicode="I" horiz-adv-x="499" 
d="M350 1434v-1434h-200v1434h200z" />
    <glyph glyph-name="J" unicode="J" horiz-adv-x="792" 
d="M651 1434v-1149q-133 -289 -506 -289q-51 0 -104 4v156h92q117 0 200 47t118 131v1100h200z" />
    <glyph glyph-name="K" unicode="K" horiz-adv-x="1214" 
d="M1151 0h-150l-471 711l-180 -191v-520h-200v1434h200v-672l625 672h119v-123l-432 -459l489 -729v-123z" />
    <glyph glyph-name="L" unicode="L" horiz-adv-x="929" 
d="M350 1434v-1274h533v-160h-733v1434h200z" />
    <glyph glyph-name="M" unicode="M" horiz-adv-x="1630" 
d="M1481 1434v-1434h-189v1212h-6l-397 -866h-148l-397 866h-6v-1212h-188v1434h286l381 -830h6l375 830h283z" />
    <glyph glyph-name="N" unicode="N" horiz-adv-x="1353" 
d="M1204 1434v-1434h-254l-606 1167h-6v-1167h-188v1434h253l607 -1168h6v1168h188z" />
    <glyph glyph-name="O" unicode="O" horiz-adv-x="1282" 
d="M642 1303q-118 1 -201 -55t-115 -140v-780q33 -84 115 -140q83 -55 201 -55t200 55t114 140v780q-32 84 -114 140t-200 55zM641 1462q205 0 333 -93t183 -218v-866q-55 -127 -183 -220t-333 -93t-333 92q-128 94 -183 221v866q55 125 183 218t333 93z" />
    <glyph glyph-name="P" unicode="P" horiz-adv-x="1171" 
d="M627 1274h-277v-551h277q182 0 260 147v256q-78 148 -260 148zM672 1434q128 0 238 -64t173 -178v-387q-59 -106 -165 -174t-246 -68h-322v-563h-200v1434h522z" />
    <glyph glyph-name="Q" unicode="Q" horiz-adv-x="1282" 
d="M642 133q118 0 200 55t114 140v780q-33 84 -114 139q-82 55 -200 55t-201 -54q-83 -56 -115 -140v-780q33 -84 115 -140q83 -55 201 -55zM1040 -154h123v-147h-131q-120 0 -234 81t-159 191q-205 1 -332 95t-182 219v866q55 125 183 218t333 93t333 -93t183 -218v-866
q-39 -92 -123 -173t-213 -116q35 -68 101 -109t118 -41z" />
    <glyph glyph-name="R" unicode="R" horiz-adv-x="1214" 
d="M350 1274v-508h293q178 0 262 147v213q-80 147 -262 148h-293zM1120 0h-153l-392 606h-225v-606h-200v1434h536q129 0 237.5 -64.5t172.5 -177.5v-340q-103 -189 -308 -234l332 -495v-123z" />
    <glyph glyph-name="S" unicode="S" horiz-adv-x="1200" 
d="M596 1462q176 0 298 -72.5t173 -164.5v-111h-172q-31 84 -106.5 136.5t-183 52.5t-180.5 -39t-103 -97v-196q25 -43 68.5 -70t152.5 -55l137 -37q188 -49 274 -109.5t136 -142.5v-313q-51 -91 -168 -182t-325 -91t-331 84t-176 187v110h174q27 -92 115 -155.5t209 -63.5
t197.5 49t109.5 117v182q-53 109 -248 156l-135 33q-172 43 -249 91t-136 136v328q53 92 173 164.5t296 72.5z" />
    <glyph glyph-name="T" unicode="T" horiz-adv-x="1085" 
d="M1034 1434v-160h-391v-1274h-201v1274h-391v160h983z" />
    <glyph glyph-name="U" unicode="U" horiz-adv-x="1314" 
d="M1174 1434v-1149q-56 -127 -184 -220t-333 -93t-333 94t-183 219v1149h201v-1104q33 -82 116 -138q82 -56 200 -57q118 0 200 56t115 139v1104h201z" />
    <glyph glyph-name="V" unicode="V" horiz-adv-x="1259" 
d="M1198 1434v-123l-432 -1311h-277l-426 1311v123h170l394 -1256h6l395 1256h170z" />
    <glyph glyph-name="W" unicode="W" horiz-adv-x="1841" 
d="M1767 1434v-123l-270 -1311h-287l-292 1135h-7l-293 -1135h-274l-270 1311v123h178l244 -1248h6l317 1248h203l319 -1248h7l245 1248h174z" />
    <glyph glyph-name="X" unicode="X" horiz-adv-x="1196" 
d="M1092 1434v-123l-359 -576l373 -612v-123h-162l-348 602h-6l-352 -602h-150v123l373 610l-357 578v123h160l338 -576h6l334 576h150z" />
    <glyph glyph-name="Y" unicode="Y" horiz-adv-x="1144" 
d="M1075 1434v-123l-405 -701v-610h-203v629l-397 682v123h149l354 -627h7l350 627h145z" />
    <glyph glyph-name="Z" unicode="Z" horiz-adv-x="1153" 
d="M1059 1434v-136l-731 -1138h731v-160h-969v135l733 1139h-717v160h953z" />
    <glyph glyph-name="bracketleft" unicode="[" horiz-adv-x="751" 
d="M651 1434v-142h-291v-1495h291v-141h-491v1778h491z" />
    <glyph glyph-name="backslash" unicode="\" horiz-adv-x="800" 
d="M700 -225h-157l-443 1620v102h158l442 -1620v-102z" />
    <glyph glyph-name="bracketright" unicode="]" horiz-adv-x="751" 
d="M592 1434v-1778h-492v141h291v1495h-291v142h492z" />
    <glyph glyph-name="asciicircum" unicode="^" horiz-adv-x="1050" 
d="M950 700h-125l-286 555h-33l-289 -555h-117v109l328 625h193l329 -623v-111z" />
    <glyph glyph-name="underscore" unicode="_" horiz-adv-x="1024" 
d="M1034 -137v-127h-1044v127h1044z" />
    <glyph glyph-name="grave" unicode="`" 
d="M596 1247h-139l-166 232v88h172l133 -289v-31z" />
    <glyph glyph-name="a" unicode="a" horiz-adv-x="1112" 
d="M524 119q96 0 169 38t110 91v270h-287q-154 0 -231 -94v-203q77 -102 239 -102zM537 1130q179 0 293 -82t159 -188v-860h-180v96q-121 -125 -330 -125q-262 0 -379 172v340q20 35 56 70t122 71q87 36 199 35h326v162q-29 68 -97 114q-69 46 -169 46q-182 0 -258 -147
h-156v96q142 200 414 200z" />
    <glyph glyph-name="b" unicode="b" horiz-adv-x="1122" 
d="M580 977q-172 0 -263 -109v-632q92 -111 262 -111t246 123v608q-73 121 -245 121zM611 1126q174 0 268 -70t135 -157v-696q-41 -86 -135 -157q-93 -71 -271 -71t-297 115v-90h-180v1434h186v-416q120 108 294 108z" />
    <glyph glyph-name="c" unicode="c" horiz-adv-x="1081" 
d="M560 1130q179 0 291 -78.5t153 -172.5v-97h-156q-84 199 -287 199q-98 0 -166.5 -46t-99.5 -114v-540q31 -68 99.5 -114t166.5 -46q201 0 287 198h156v-96q-43 -94 -155 -173t-290 -79t-291.5 83t-156.5 190v616q43 106 156.5 188t292.5 82z" />
    <glyph glyph-name="d" unicode="d" horiz-adv-x="1122" 
d="M545 125q172 0 260 111v632q-86 109 -260 109t-248 -121v-608q76 -123 248 -123zM805 1434h186v-1434h-180v90q-119 -115 -296 -115t-269 71t-135 157v696q41 86 134 157q93 70 267 70t293 -108v416z" />
    <glyph glyph-name="e" unicode="e" horiz-adv-x="1105" 
d="M562 981q-99 0 -167.5 -46t-99.5 -116v-160h534v160q-29 70 -98.5 116t-168.5 46zM559 1130q178 0 290 -78.5t155 -172.5v-361h-709v-235q31 -70 99.5 -116t166.5 -46q203 0 287 198h156v-96q-43 -94 -155 -173t-290 -79t-291.5 83t-156.5 190v616q43 106 156.5 188
t291.5 82z" />
    <glyph glyph-name="f" unicode="f" horiz-adv-x="696" 
d="M526 1477q92 0 160 -19v-133q-55 6 -96 6q-170 0 -219 -106v-123h274v-141h-274v-961h-187v961h-139v141h139v186q82 189 342 189z" />
    <glyph glyph-name="g" unicode="g" horiz-adv-x="1122" 
d="M544 193q173 0 261 114v559q-88 111 -262 111t-248 -121v-541q76 -122 249 -122zM811 1102h180v-1215q-45 -104 -159 -180t-290 -76q-177 0 -289 71t-157 148v99h156q92 -168 291 -168t262 145v226q-123 -109 -294 -109t-265 72t-135 157v627q41 86 135 157q94 70 266 70
t299 -112v88z" />
    <glyph glyph-name="h" unicode="h" horiz-adv-x="1138" 
d="M615 1126q172 0 265 -70t134 -157v-899h-187v856q-75 121 -249 121t-261 -109v-868h-186v1434h186v-414q126 106 298 106z" />
    <glyph glyph-name="i" unicode="i" horiz-adv-x="466" 
d="M328 1102v-1102h-189v1102h189zM231 1489q84 0 111 -53v-107q-27 -51 -112 -51t-105 51v107q22 53 106 53z" />
    <glyph glyph-name="j" unicode="j" horiz-adv-x="448" 
d="M317 1102v-1198q-43 -106 -157 -190q-115 -83 -295 -83v148q100 0 168 48t96 122v1153h188zM223 1489q84 0 111 -53v-107q-27 -51 -112 -51t-105 51v107q22 53 106 53z" />
    <glyph glyph-name="k" unicode="k" horiz-adv-x="1052" 
d="M1014 0h-137l-383 530l-177 -176v-354h-186v1434h186v-865l521 533h118v-113l-340 -336l398 -542v-111z" />
    <glyph glyph-name="l" unicode="l" horiz-adv-x="450" 
d="M319 1434v-1434h-188v1434h188z" />
    <glyph glyph-name="m" unicode="m" horiz-adv-x="1656" 
d="M1192 1126q248 0 340 -213v-913h-186v870q-54 106 -200 106t-222 -102v-874h-185v870q-59 106 -203 106t-219 -99v-877h-186v1102h176v-84q104 108 289 108t287 -139q116 139 309 139z" />
    <glyph glyph-name="n" unicode="n" horiz-adv-x="1136" 
d="M610 1126q175 0 268 -70.5t134 -156.5v-899h-187v856q-74 121 -246.5 121t-261.5 -107v-870h-186v1102h176v-88q128 112 303 112z" />
    <glyph glyph-name="o" unicode="o" horiz-adv-x="1124" 
d="M562 981q-99 0 -169 -46t-98 -114v-540q29 -68 99 -114t168 -46q99 0 169 46t98 114v540q-29 68 -98 114q-70 46 -169 46zM563 1130q180 0 294 -82t157 -188v-616q-43 -106 -157 -190t-294 -83q-180 0 -295 83t-157 190v616q43 106 157 189q115 81 295 81z" />
    <glyph glyph-name="p" unicode="p" horiz-adv-x="1122" 
d="M580 977q-172 0 -263 -109v-632q92 -111 262 -111t246 123v608q-73 121 -245 121zM608 1126q176 0 271 -70q94 -70 135 -157v-696q-41 -86 -135 -157t-268 -71t-294 109v-424h-186v1442h180v-88q121 112 297 112z" />
    <glyph glyph-name="q" unicode="q" horiz-adv-x="1122" 
d="M545 125q172 0 260 111v632q-86 109 -260 109t-248 -121v-608q76 -123 248 -123zM811 1102h180v-1442h-186v424q-119 -109 -293 -109t-266 71t-135 157v696q41 86 134 157t251 70q195 0 315 -112v88z" />
    <glyph glyph-name="r" unicode="r" horiz-adv-x="727" 
d="M637 1104q20 0 43 -2v-170q-25 2 -49 2q-213 0 -314 -119v-815h-188v1102h178v-144q111 146 330 146z" />
    <glyph glyph-name="s" unicode="s" horiz-adv-x="997" 
d="M498 1130q150 0 250 -56t145 -120v-96h-156q-61 125 -239 125q-141 0 -217 -86v-149q41 -66 188 -99l113 -26q266 -61 331 -179v-272q-29 -43 -70.5 -82t-136 -79t-208.5 -40q-272 0 -414 201v98h156q78 -152 258 -151q86 0 148.5 33.5t90.5 78.5v140q-39 68 -190 102
l-117 27q-244 53 -326 176v278q136 176 394 176z" />
    <glyph glyph-name="t" unicode="t" horiz-adv-x="720" 
d="M590 127q41 0 96 6v-135q-59 -18 -160 -18q-260 0 -342 188v793h-139v141h139v235h187v-235h274v-141h-274v-730q55 -104 219 -104z" />
    <glyph glyph-name="u" unicode="u" horiz-adv-x="1120" 
d="M803 1102h186v-1102h-174v88q-121 -113 -311 -113q-266 0 -381 224v903h186v-856q76 -121 241 -121t253 108v869z" />
    <glyph glyph-name="v" unicode="v" horiz-adv-x="1056" 
d="M985 1102v-113l-340 -989h-233l-338 989v113h159l299 -918h7l295 918h151z" />
    <glyph glyph-name="w" unicode="w" horiz-adv-x="1591" 
d="M1522 1102v-113l-258 -989h-226l-233 840h-6l-236 -840h-225l-260 989v113h160l221 -905h6l250 905h184l246 -905h6l219 905h152z" />
    <glyph glyph-name="x" unicode="x" horiz-adv-x="997" 
d="M903 1102v-113l-276 -424l293 -452v-113h-146l-270 455h-6l-283 -455h-137v113l293 452l-275 424v113h144l258 -428h6l260 428h139z" />
    <glyph glyph-name="y" unicode="y" horiz-adv-x="1038" 
d="M971 1102v-111l-406 -1190q-111 -156 -350 -155q-86 0 -133 14v135q49 -4 80 -4q174 0 250 94l30 107l-366 995v115h160l296 -877h7l282 877h150z" />
    <glyph glyph-name="z" unicode="z" horiz-adv-x="966" 
d="M903 1102v-123l-629 -838h629v-141h-840v131l619 830h-602v141h823z" />
    <glyph glyph-name="braceleft" unicode="{" horiz-adv-x="790" 
d="M719 -358q-207 0 -338 96t-184 229v393q-23 106 -156 107v141q133 0 156 109v391q53 133 184 229t338 97v-142q-127 0 -206 -66t-110 -167v-375q-35 -96 -124 -145q92 -55 124 -148v-375q31 -102 110 -168t206 -65v-141z" />
    <glyph glyph-name="bar" unicode="|" horiz-adv-x="667" 
d="M434 1618v-1884h-198v1884h198z" />
    <glyph glyph-name="braceright" unicode="}" horiz-adv-x="790" 
d="M748 608v-141q-131 0 -156 -107v-393q-53 -133 -183 -229t-337 -96v141q124 1 204 67t111 166v375q33 92 125 148q-90 49 -125 145v375q-31 100 -111 167t-204 66v142q207 0 337 -96t183 -230v-391q25 -109 156 -109z" />
    <glyph glyph-name="asciitilde" unicode="~" horiz-adv-x="1193" 
d="M362 881q90 -1 270 -53t252 -52q74 0 132 23t86 45l26 22v-174q-86 -70 -211 -70t-301 53q-176 52 -259 52t-153 -26t-102 -52l-34 -26v163q43 36 124 65q80 30 170 30z" />
    <glyph glyph-name="uni00A0" unicode="&#xa0;" horiz-adv-x="421" 
 />
    <glyph glyph-name="exclamdown" unicode="&#xa1;" horiz-adv-x="548" 
d="M168 -322v230l25 872h161l25 -872v-230h-211zM271 907q-85 0 -105 51v117q24 53 106 53t111 -53v-117q-27 -51 -112 -51z" />
    <glyph glyph-name="cent" unicode="&#xa2;" horiz-adv-x="1081" 
d="M561 981q-98 0 -167 -46t-99 -114v-540q31 -68 99 -114t167 -46q201 0 287 198h156v-96q-37 -83 -127 -155t-232 -91v-170h-160v168q-147 19 -241 97t-133 172v616q39 94 133 171t241 95v170h160v-172q141 -18 231 -91t128 -154v-97h-156q-84 199 -287 199z" />
    <glyph glyph-name="sterling" unicode="&#xa3;" horiz-adv-x="1243" 
d="M688 1311q-108 0 -185 -47t-106 -115v-373h523v-137h-523v-375q-33 -66 -78 -110h820v-154h-1047v135q29 6 63 34t52 75v395h-123v137h123v418q45 102 169 185t302 83t300 -80t161 -168v-110h-170q-18 92 -96 150q-77 58 -185 57z" />
    <glyph glyph-name="currency" unicode="&#xa4;" horiz-adv-x="1208" 
d="M605 365q99 0 169 46t98 115v328q-29 70 -98 116q-70 46 -169 46t-169 -47t-98 -115v-328q28 -68 98 -114t169 -47zM1073 1163v-94l-78 -78q37 -45 62 -98v-406q-25 -55 -60 -96l76 -78v-94h-123l-69 70q-119 -72 -276 -72t-275 70l-70 -68h-127v94l76 76q-35 43 -57 98
v406q20 49 59 98l-78 78v94h127l70 -69q120 70 276 70t273 -72l71 71h123z" />
    <glyph glyph-name="yen" unicode="&#xa5;" horiz-adv-x="1169" 
d="M684 504h416v-121h-416v-383h-203v383h-409v121h409v125l-18 33h-391v120h319l-307 529v123h149l355 -629h6l350 629h146v-123l-308 -529h318v-120h-387l-29 -52v-106z" />
    <glyph glyph-name="brokenbar" unicode="&#xa6;" horiz-adv-x="667" 
d="M434 565v-827h-198v827h198zM434 1618v-801h-198v801h198z" />
    <glyph glyph-name="section" unicode="&#xa7;" horiz-adv-x="1054" 
d="M764 709q-37 68 -191 102l-49 12q-86 -2 -147 -36t-90 -76v-156q37 -63 192 -102l47 -11q86 0 148 34t90 77v156zM524 1325q-160 0 -237 -111v-131q39 -61 192 -100l127 -31q262 -57 334 -176v-270q-57 -84 -160 -135q119 -53 160 -125v-244q-27 -43 -70 -82t-137 -79
q-95 -40 -233 -40t-243 66t-144 135v82h163q16 -55 84 -100t166 -45q162 0 238 112v129q-37 66 -191 101l-129 32q-260 55 -331 174v271q53 84 159 137q-119 53 -159 123v244q33 57 136 129q103 73 272 72t275 -67t144 -134v-82h-166q-14 55 -82 100t-168 45z" />
    <glyph glyph-name="dieresis" unicode="&#xa8;" 
d="M649 1489q72 0 107 -41v-131q-35 -41 -107 -41t-100 41v131q28 41 100 41zM238 1489q72 0 100 -41v-131q-28 -41 -100 -41t-107 41v131q35 41 107 41z" />
    <glyph glyph-name="copyright" unicode="&#xa9;" horiz-adv-x="1660" 
d="M829 1184q154 0 248 -60t135 -127v-84h-137q-18 57 -83 101t-161 43q-160 0 -231 -109v-467q29 -43 88 -77t149 -34t154 45q63 44 84 101h137v-84q-41 -66 -135 -126t-248 -60q-153 0 -251 64t-138 136v537q41 73 138 137t251 64zM829 1372q-270 0 -458 -192
q-189 -192 -189 -463q0 -270 188 -463t459 -193q270 0 460 193q189 193 190 463q0 271 -190 463t-460 192zM830 1462q308 0 528 -218t221 -527q0 -309 -220 -527q-221 -218 -529 -219q-308 0 -528 218q-220 217 -220 527t220 528t528 218z" />
    <glyph glyph-name="ordfeminine" unicode="&#xaa;" horiz-adv-x="792" 
d="M396 821q124 0 169 74v160h-188q-104 0 -152 -64v-106q47 -64 171 -64zM391 1452q119 0 195 -54t102 -126v-533h-121v54q-84 -70 -207 -70q-74 0 -145 27t-111 81v199q80 117 254 117h207v98q-45 107 -167 107t-179 -99h-100v66q82 133 272 133z" />
    <glyph glyph-name="guillemotleft" unicode="&#xab;" horiz-adv-x="1214" 
d="M1116 1102v-101l-350 -399l350 -397v-101h-135l-371 431v139l371 428h135zM592 1102v-101l-348 -399l348 -397v-101h-135l-371 431v139l371 428h135z" />
    <glyph glyph-name="logicalnot" unicode="&#xac;" horiz-adv-x="1196" 
d="M1108 766v-588h-154v438h-868v150h1022z" />
    <glyph glyph-name="uni00AD" unicode="&#xad;" horiz-adv-x="745" 
d="M657 766v-150h-571v150h571z" />
    <glyph glyph-name="registered" unicode="&#xae;" horiz-adv-x="1060" 
d="M559 1419h-127v-215h127q75 1 100 56v102q-25 57 -100 57zM580 1495q51 0 99 -30t73 -79v-151q-37 -78 -123 -98l112 -154v-61h-75l-129 206h-105v-206h-90v573h238zM117 1198q1 -174 121 -297t293 -123t294 123t121 297t-121 297t-294 123t-293 -123t-121 -297z
M530 1688q200 0 346 -144t146 -346q0 -201 -145 -345t-347 -144t-346 144q-145 144 -145 345q0 202 145 346t346 144z" />
    <glyph glyph-name="macron" unicode="&#xaf;" 
d="M766 1462v-135h-645v135h645z" />
    <glyph glyph-name="degree" unicode="&#xb0;" horiz-adv-x="774" 
d="M384 1536q-126 0 -179 -88v-186q53 -88 179 -88t183 88v186q-57 88 -183 88zM388 1653q124 0 203 -52t111 -114v-264q-33 -61 -111 -114q-79 -52 -203 -52t-205 52t-111 114v264q31 61 111 114q81 52 205 52z" />
    <glyph glyph-name="plusminus" unicode="&#xb1;" horiz-adv-x="1196" 
d="M86 53v154h1022v-154h-1022zM674 885h434v-154h-434v-389h-154v389h-434v154h434v387h154v-387z" />
    <glyph glyph-name="acute" unicode="&#xb4;" 
d="M594 1567v-88l-164 -232h-141v31l131 289h174z" />
    <glyph glyph-name="paragraph" unicode="&#xb6;" horiz-adv-x="1359" 
d="M1196 1434v-1639h-147v1639h147zM782 1434v-1639h-147v719h-123q-139 0 -246 67q-106 67 -166 173v438q61 115 172 178t240 64h270z" />
    <glyph glyph-name="periodcentered" unicode="&#xb7;" horiz-adv-x="380" 
d="M188 809q43 0 73 -16t36 -37v-117q-6 -19 -36 -35t-73 -16q-78 0 -106 51v117q26 53 106 53z" />
    <glyph glyph-name="cedilla" unicode="&#xb8;" 
d="M649 -346q-51 -107 -235 -107q-102 0 -174 47l34 95q82 -39 156 -39t94 49v61q-20 43 -96 43h-123l72 207h123l-45 -116h20q131 0 174 -95v-145z" />
    <glyph glyph-name="ordmasculine" unicode="&#xba;" horiz-adv-x="808" 
d="M403 1350q-133 0 -174 -103v-323q19 -43 65 -71t109 -28q131 0 177 99v323q-44 103 -177 103zM404 1452q118 0 195 -54t103 -126v-371q-28 -72 -104 -125t-194 -53t-194 53t-106 125v371q30 72 106 126t194 54z" />
    <glyph glyph-name="guillemotright" unicode="&#xbb;" horiz-adv-x="1214" 
d="M623 104v101l350 397l-350 399v101h137l370 -428v-139l-370 -431h-137zM100 104v101l349 397l-349 399v101h136l370 -428v-139l-370 -431h-136z" />
    <glyph glyph-name="onequarter" unicode="&#xbc;" horiz-adv-x="1783" 
d="M1436 739h-6l-324 -430h330v430zM1573 860v-551h125v-106h-125v-203h-137v203h-473v104l421 553h189zM1434 1434v-86l-1002 -1348h-90v86l1001 1348h91zM393 1434v-762h146v-99h-443v99h154v643l-156 -17v88l187 48h112z" />
    <glyph glyph-name="onehalf" unicode="&#xbd;" horiz-adv-x="1908" 
d="M1471 879q124 1 208 -51t115 -115v-154q-25 -51 -73 -94t-154 -109l-115 -69q-137 -84 -166 -144v-26h520v-117h-653v170q37 63 81 106t144 105l115 70q135 84 158 143v86q-47 84 -181 84q-80 0 -130 -34t-68 -79h-119v82q33 55 113 101t205 45zM1434 1434v-86
l-1002 -1348h-90v86l1001 1348h91zM395 1434v-762h146v-99h-443v99h154v643l-156 -17v88l187 48h112z" />
    <glyph glyph-name="threequarters" unicode="&#xbe;" horiz-adv-x="1900" 
d="M1528 739h-6l-324 -430h330v430zM1665 860v-551h125v-106h-125v-203h-137v203h-473v104l422 553h188zM1528 1434v-86l-1002 -1348h-92v86l1002 1348h92zM109 1319q99 133 321 133q100 0 178 -47t111 -100v-179q-33 -66 -144 -102q119 -33 164 -123v-182
q-33 -59 -119 -111t-209 -51q-122 0 -207 47t-116 98v93h113q16 -51 72 -87q55 -36 129 -36t124 26t70 60v121q-18 37 -68 61t-116 25h-101v110h95q121 0 174 72v119q-47 72 -173 72t-190 -111h-108v92z" />
    <glyph glyph-name="questiondown" unicode="&#xbf;" horiz-adv-x="1081" 
d="M549 -348q-324 0 -477 235v349q39 72 166 157l307 223v154h190v-233l-323 -232q-117 -80 -146 -137v-223q98 -135 283 -135q111 0 189 50t104 122h170v-111q-57 -87 -173 -153t-290 -66zM636 909q-85 0 -106 52v116q8 21 38 37t71 16q80 0 109 -53v-116q-27 -52 -112 -52
z" />
    <glyph glyph-name="Agrave" unicode="&#xc0;" horiz-adv-x="1247" 
d="M393 561h447l-219 703h-7zM1188 0h-172l-127 403h-545l-127 -403h-156v123l426 1311h273l428 -1311v-123zM702 1542h-137l-164 225v88h168l133 -280v-33z" />
    <glyph glyph-name="Aacute" unicode="&#xc1;" horiz-adv-x="1247" 
d="M393 561h447l-219 703h-7zM1188 0h-172l-127 403h-545l-127 -403h-156v123l426 1311h273l428 -1311v-123zM537 1542v33l131 280h172v-88l-166 -225h-137z" />
    <glyph glyph-name="Acircumflex" unicode="&#xc2;" horiz-adv-x="1247" 
d="M393 561h447l-219 703h-7zM1188 0h-172l-127 403h-545l-127 -403h-156v123l426 1311h273l428 -1311v-123zM322 1542v33l182 280h244l180 -280v-33h-129l-174 217l-174 -217h-129z" />
    <glyph glyph-name="Atilde" unicode="&#xc3;" horiz-adv-x="1247" 
d="M393 561h447l-219 703h-7zM1188 0h-172l-127 403h-545l-127 -403h-156v123l426 1311h273l428 -1311v-123zM414 1556h-117v91q19 61 67 97t118 36t152 -54q81 -54 118 -55q66 0 84 58v38h116v-90q-18 -57 -66 -94t-121 -37t-152 56t-115 55q-59 -1 -84 -60v-41z" />
    <glyph glyph-name="Adieresis" unicode="&#xc4;" horiz-adv-x="1247" 
d="M393 561h447l-219 703h-7zM1188 0h-172l-127 403h-545l-127 -403h-156v123l426 1311h273l428 -1311v-123zM829 1575q-72 0 -100 41v131q29 41 101 41t106 -41v-131q-35 -41 -107 -41zM418 1575q-72 0 -107 41v131q35 41 107 41t100 -41v-131q-28 -41 -100 -41z" />
    <glyph glyph-name="Aring" unicode="&#xc5;" horiz-adv-x="1247" 
d="M393 561h447l-219 707h-7zM624 1491q85 0 117 51v117q-33 51 -117 51t-118 -51v-117q33 -51 118 -51zM1188 0h-172l-127 403h-545l-127 -403h-156v123l424 1309q-55 27 -82 77v183q27 46 86 78t135 32t136 -32q59 -32 84 -78v-183q-27 -48 -84 -79l428 -1307v-123z" />
    <glyph glyph-name="AE" unicode="&#xc6;" horiz-adv-x="1753" 
d="M799 594v684h-8l-310 -684h318zM1001 160h656v-160h-858v436h-389l-197 -436h-152v123l607 1311h972v-160h-639v-457h598v-158h-598v-499z" />
    <glyph glyph-name="Ccedilla" unicode="&#xc7;" horiz-adv-x="1239" 
d="M834 -346q-52 -107 -236 -107q-102 0 -174 47l35 95q82 -39 155.5 -39t94.5 49v61q-20 43 -97 43h-123l62 174q-166 20 -272.5 108.5t-153.5 197.5v868q55 125 183 218t332 93t329 -90t182 -209v-110h-170q-33 109 -119 179.5t-212 70.5t-208 -55.5t-116 -139.5v-782
q35 -84 116.5 -139.5t207.5 -55.5t212 70.5t119 179.5h170v-111q-53 -115 -172 -202.5t-309 -96.5l-31 -77h20q131 0 175 -95v-145z" />
    <glyph glyph-name="Egrave" unicode="&#xc8;" horiz-adv-x="1103" 
d="M991 1434v-160h-641v-457h598v-158h-598v-499h660v-160h-860v1434h841zM657 1542h-137l-164 225v88h168l133 -280v-33z" />
    <glyph glyph-name="Eacute" unicode="&#xc9;" horiz-adv-x="1103" 
d="M991 1434v-160h-641v-457h598v-158h-598v-499h660v-160h-860v1434h841zM795 1855v-88l-166 -225h-137v33l131 280h172z" />
    <glyph glyph-name="Ecircumflex" unicode="&#xca;" horiz-adv-x="1103" 
d="M991 1434v-160h-641v-457h598v-158h-598v-499h660v-160h-860v1434h841zM883 1542h-129l-174 217l-174 -217h-130v33l183 280h243l181 -280v-33z" />
    <glyph glyph-name="Edieresis" unicode="&#xcb;" horiz-adv-x="1103" 
d="M991 1434v-160h-641v-457h598v-158h-598v-499h660v-160h-860v1434h841zM784 1788q72 0 107 -41v-131q-35 -41 -107 -41t-100 41v131q28 41 100 41zM373 1788q72 0 100 -41v-131q-29 -41 -100.5 -41t-106.5 41v131q35 41 107 41z" />
    <glyph glyph-name="Igrave" unicode="&#xcc;" horiz-adv-x="499" 
d="M350 1434v-1434h-200v1434h200zM330 1542h-137l-164 225v88h168l133 -280v-33z" />
    <glyph glyph-name="Iacute" unicode="&#xcd;" horiz-adv-x="499" 
d="M350 1434v-1434h-200v1434h200zM467 1855v-88l-166 -225h-137v33l131 280h172z" />
    <glyph glyph-name="Icircumflex" unicode="&#xce;" horiz-adv-x="499" 
d="M350 1434v-1434h-200v1434h200zM555 1542h-129l-174 217l-174 -217h-129v33l182 280h244l180 -280v-33z" />
    <glyph glyph-name="Idieresis" unicode="&#xcf;" horiz-adv-x="499" 
d="M350 1434v-1434h-200v1434h200zM457 1788q72 0 106 -41v-131q-35 -41 -107 -41t-100 41v131q29 41 101 41zM45 1788q72 0 100 -41v-131q-29 -41 -101 -41t-105 41v131q34 41 106 41z" />
    <glyph glyph-name="Eth" unicode="&#xd0;" horiz-adv-x="1335" 
d="M686 1274h-289v-467h338v-156h-338v-491h289q121 0 203 48q81 48 112 128v762q-31 80 -112 128q-82 48 -203 48zM721 1434q188 0 309 -82t172 -201v-868q-51 -119 -172 -201t-309 -82h-524v651h-115v156h115v627h524z" />
    <glyph glyph-name="Ntilde" unicode="&#xd1;" horiz-adv-x="1353" 
d="M1204 1434v-1434h-254l-606 1167h-6v-1167h-188v1434h253l607 -1168h6v1168h188zM538 1780q71 0 151.5 -54.5t117.5 -54.5q66 0 84 58v38h117v-90q-18 -57 -66.5 -94t-121.5 -37t-151.5 55.5t-115.5 55.5q-59 0 -84 -60v-41h-117v91q18 61 66.5 97t119.5 36z" />
    <glyph glyph-name="Ograve" unicode="&#xd2;" horiz-adv-x="1282" 
d="M642 1303q-118 1 -201 -55t-115 -140v-780q33 -84 115 -140q83 -55 201 -55t200 55t114 140v780q-32 84 -114 140t-200 55zM641 1462q205 0 333 -93t183 -218v-866q-55 -127 -183 -220t-333 -93t-333 92q-128 94 -183 221v866q55 125 183 218t333 93zM719 1542h-137
l-164 225v88h168l133 -280v-33z" />
    <glyph glyph-name="Oacute" unicode="&#xd3;" horiz-adv-x="1282" 
d="M642 1303q-118 1 -201 -55t-115 -140v-780q33 -84 115 -140q83 -55 201 -55t200 55t114 140v780q-32 84 -114 140t-200 55zM641 1462q205 0 333 -93t183 -218v-866q-55 -127 -183 -220t-333 -93t-333 92q-128 94 -183 221v866q55 125 183 218t333 93zM856 1855v-88
l-166 -225h-137v33l131 280h172z" />
    <glyph glyph-name="Ocircumflex" unicode="&#xd4;" horiz-adv-x="1282" 
d="M642 1303q-118 1 -201 -55t-115 -140v-780q33 -84 115 -140q83 -55 201 -55t200 55t114 140v780q-32 84 -114 140t-200 55zM641 1462q205 0 333 -93t183 -218v-866q-55 -127 -183 -220t-333 -93t-333 92q-128 94 -183 221v866q55 125 183 218t333 93zM944 1542h-129
l-174 217l-174 -217h-129v33l182 280h244l180 -280v-33z" />
    <glyph glyph-name="Otilde" unicode="&#xd5;" horiz-adv-x="1282" 
d="M642 1303q-118 1 -201 -55t-115 -140v-780q33 -84 115 -140q83 -55 201 -55t200 55t114 140v780q-32 84 -114 140t-200 55zM641 1462q205 0 333 -93t183 -218v-866q-55 -127 -183 -220t-333 -93t-333 92q-128 94 -183 221v866q55 125 183 218t333 93zM499 1780
q71 0 151 -54t118 -55q66 0 84 58v38h117v-90q-19 -57 -67 -94t-121 -37t-151 56t-116 55q-59 0 -84 -60v-41h-117v91q19 61 67 97t119 36z" />
    <glyph glyph-name="Odieresis" unicode="&#xd6;" horiz-adv-x="1282" 
d="M642 1303q-118 1 -201 -55t-115 -140v-780q33 -84 115 -140q83 -55 201 -55t200 55t114 140v780q-32 84 -114 140t-200 55zM641 1462q205 0 333 -93t183 -218v-866q-55 -127 -183 -220t-333 -93t-333 92q-128 94 -183 221v866q55 125 183 218t333 93zM846 1788
q72 0 106 -41v-131q-34 -41 -106 -41t-101 41v131q29 41 101 41zM434 1788q72 0 101 -41v-131q-29 -41 -101 -41t-106 41v131q34 41 106 41z" />
    <glyph glyph-name="multiply" unicode="&#xd7;" horiz-adv-x="1196" 
d="M1073 1163v-102l-368 -371l368 -373v-98h-112l-365 363l-363 -363h-116v98l370 373l-370 371v102h116l363 -364l365 364h112z" />
    <glyph glyph-name="Oslash" unicode="&#xd8;" horiz-adv-x="1282" 
d="M624 133q136 0 218 55q81 56 114 140v727l-567 -824q99 -98 235 -98zM326 1108v-729l569 825q-99 98 -235 98t-218 -54q-82 -56 -116 -140zM1157 1434v-88l-61 -91q37 -47 61 -104v-866q-55 -127 -183 -220t-334 -93t-355 110l-56 -82h-104v88l61 90q-41 57 -61 107v866
q55 125 183 218t336 93t353 -110l56 82h104z" />
    <glyph glyph-name="Ugrave" unicode="&#xd9;" horiz-adv-x="1314" 
d="M1174 1434v-1149q-56 -127 -184 -220t-333 -93t-333 94t-183 219v1149h201v-1104q33 -82 116 -138q82 -56 200 -57q118 0 200 56t115 139v1104h201zM735 1542h-137l-164 225v88h168l133 -280v-33z" />
    <glyph glyph-name="Uacute" unicode="&#xda;" horiz-adv-x="1314" 
d="M1174 1434v-1149q-56 -127 -184 -220t-333 -93t-333 94t-183 219v1149h201v-1104q33 -82 116 -138q82 -56 200 -57q118 0 200 56t115 139v1104h201zM872 1855v-88l-165 -225h-138v33l131 280h172z" />
    <glyph glyph-name="Ucircumflex" unicode="&#xdb;" horiz-adv-x="1314" 
d="M1174 1434v-1149q-56 -127 -184 -220t-333 -93t-333 94t-183 219v1149h201v-1104q33 -82 116 -138q82 -56 200 -57q118 0 200 56t115 139v1104h201zM961 1542h-130l-174 217l-174 -217h-129v33l183 280h243l181 -280v-33z" />
    <glyph glyph-name="Udieresis" unicode="&#xdc;" horiz-adv-x="1314" 
d="M1174 1434v-1149q-56 -127 -184 -220t-333 -93t-333 94t-183 219v1149h201v-1104q33 -82 116 -138q82 -56 200 -57q118 0 200 56t115 139v1104h201zM862 1788q72 0 107 -41v-131q-35 -41 -107 -41t-100 41v131q28 41 100 41zM451 1788q72 0 100 -41v-131
q-29 -41 -101 -41t-106 41v131q35 41 107 41z" />
    <glyph glyph-name="Yacute" unicode="&#xdd;" horiz-adv-x="1144" 
d="M1075 1434v-123l-405 -701v-610h-203v629l-397 682v123h149l354 -627h7l350 627h145zM786 1855v-88l-165 -225h-138v33l131 280h172z" />
    <glyph glyph-name="Thorn" unicode="&#xde;" horiz-adv-x="1171" 
d="M627 1032h-277v-555h277q182 0 260 150v258q-78 147 -260 147zM672 1192q128 0 238 -64t173 -178v-391q-59 -106 -165 -173t-246 -67h-322v-319h-200v1434h200v-242h322z" />
    <glyph glyph-name="germandbls" unicode="&#xdf;" horiz-adv-x="1134" 
d="M567 1462q164 0 274 -68t156 -153v-344q-66 -98 -174 -139q156 -66 213 -211v-303q-57 -128 -170 -186t-307 -58v150q175 0 239 64q30 30 52 79v221q-35 82 -108 122t-158 40v145q78 0 142 32t97 85v242q-35 59 -101 97t-155 38q-172 0 -250 -135v-1180h-186v1221
q51 97 161 169t275 72z" />
    <glyph glyph-name="agrave" unicode="&#xe0;" horiz-adv-x="1112" 
d="M524 119q96 0 169 38t110 91v270h-287q-154 0 -231 -94v-203q77 -102 239 -102zM537 1130q179 0 293 -82t159 -188v-860h-180v96q-121 -125 -330 -125q-262 0 -379 172v340q20 35 56 70t122 71q87 36 199 35h326v162q-29 68 -97 114q-69 46 -169 46q-182 0 -258 -147
h-156v96q142 200 414 200zM635 1247h-139l-166 232v88h172l133 -289v-31z" />
    <glyph glyph-name="aacute" unicode="&#xe1;" horiz-adv-x="1112" 
d="M524 119q96 0 169 38t110 91v270h-287q-154 0 -231 -94v-203q77 -102 239 -102zM537 1130q179 0 293 -82t159 -188v-860h-180v96q-121 -125 -330 -125q-262 0 -379 172v340q20 35 56 70t122 71q87 36 199 35h326v162q-29 68 -97 114q-69 46 -169 46q-182 0 -258 -147
h-156v96q142 200 414 200zM477 1247v31l131 289h174v-88l-164 -232h-141z" />
    <glyph glyph-name="acircumflex" unicode="&#xe2;" horiz-adv-x="1112" 
d="M524 119q96 0 169 38t110 91v270h-287q-154 0 -231 -94v-203q77 -102 239 -102zM537 1130q179 0 293 -82t159 -188v-860h-180v96q-121 -125 -330 -125q-262 0 -379 172v340q20 35 56 70t122 71q87 36 199 35h326v162q-29 68 -97 114q-69 46 -169 46q-182 0 -258 -147
h-156v96q142 200 414 200zM254 1243v33l182 287h244l180 -287v-33h-129l-174 223l-174 -223h-129z" />
    <glyph glyph-name="atilde" unicode="&#xe3;" horiz-adv-x="1112" 
d="M524 119q96 0 169 38t110 91v270h-287q-154 0 -231 -94v-203q77 -102 239 -102zM537 1130q179 0 293 -82t159 -188v-860h-180v96q-121 -125 -330 -125q-262 0 -379 172v340q20 35 56 70t122 71q87 36 199 35h326v162q-29 68 -97 114q-69 46 -169 46q-182 0 -258 -147
h-156v96q142 200 414 200zM346 1280h-117v90q19 59 67 95t119 36t151 -54t118 -54q66 0 84 59v39h117v-90q-17 -57 -65 -95t-121 -38t-153 55t-126 55q-47 0 -74 -57v-41z" />
    <glyph glyph-name="adieresis" unicode="&#xe4;" horiz-adv-x="1112" 
d="M524 119q96 0 169 38t110 91v270h-287q-154 0 -231 -94v-203q77 -102 239 -102zM537 1130q179 0 293 -82t159 -188v-860h-180v96q-121 -125 -330 -125q-262 0 -379 172v340q20 35 56 70t122 71q87 36 199 35h326v162q-29 68 -97 114q-69 46 -169 46q-182 0 -258 -147
h-156v96q142 200 414 200zM762 1276q-72 0 -100 41v131q28 41 100 41t106 -41v-131q-34 -41 -106 -41zM350 1276q-72 0 -106 41v131q34 41 106 41t101 -41v-131q-29 -41 -101 -41z" />
    <glyph glyph-name="aring" unicode="&#xe5;" horiz-adv-x="1112" 
d="M524 119q96 0 169 38t110 91v270h-287q-154 0 -231 -94v-203q77 -102 239 -102zM537 1130q179 0 293 -82t159 -188v-860h-180v96q-121 -125 -330 -125q-262 0 -379 172v340q20 35 56 70t122 71q87 36 199 35h326v162q-29 68 -97 114q-69 46 -169 46q-182 0 -258 -147
h-156v96q142 200 414 200zM556 1317q83 0 116 51v117q-33 51 -116 51t-120 -51v-117q37 -51 120 -51zM555 1225q-78 1 -136 31t-85 79v183q27 50 85 80t136 30t136 -32t83 -78v-183q-25 -47 -83 -79t-136 -31z" />
    <glyph glyph-name="ae" unicode="&#xe6;" horiz-adv-x="1798" 
d="M803 518h-287q-154 0 -231 -94v-207q84 -102 231 -102q205 0 287 135v268zM989 659h535v160q-29 70 -98.5 116t-169 46t-168 -46t-99.5 -116v-160zM1698 518h-709v-235q31 -70 99.5 -116t166.5 -46q203 0 287 198h156v-96q-43 -94 -154.5 -173t-288.5 -79
q-233 0 -372 152q-133 -152 -399 -152t-384 172v340q20 35 55 70t122.5 70.5t199.5 35.5h326v162q-29 68 -97.5 114t-168.5 46q-180 0 -258 -147h-156v96q141 201 414 200q219 0 360 -137q137 137 358 137q176 0 288 -78.5t155 -172.5v-361z" />
    <glyph glyph-name="ccedilla" unicode="&#xe7;" horiz-adv-x="1081" 
d="M748 -346q-52 -107 -236 -107q-102 0 -174 47l35 95q82 -39 155.5 -39t94.5 49v61q-20 43 -95 43h-125l62 177q-139 20 -228.5 97t-125.5 167v616q43 106 156.5 188t292.5 82t291 -78.5t153 -172.5v-97h-156q-84 199 -287 199q-98 0 -166.5 -46t-99.5 -114v-540
q31 -68 99.5 -114t166.5 -46q201 0 287 198h156v-96q-39 -90 -145.5 -168t-274.5 -84l-31 -77h22q66 0 110 -28t63 -67v-145z" />
    <glyph glyph-name="egrave" unicode="&#xe8;" horiz-adv-x="1105" 
d="M562 981q-99 0 -167.5 -46t-99.5 -116v-160h534v160q-29 70 -98.5 116t-168.5 46zM559 1130q178 0 290 -78.5t155 -172.5v-361h-709v-235q31 -70 99.5 -116t166.5 -46q203 0 287 198h156v-96q-43 -94 -155 -173t-290 -79t-291.5 83t-156.5 190v616q43 106 156.5 188
t291.5 82zM651 1247h-139l-166 232v88h172l133 -289v-31z" />
    <glyph glyph-name="eacute" unicode="&#xe9;" horiz-adv-x="1105" 
d="M562 981q-99 0 -167.5 -46t-99.5 -116v-160h534v160q-29 70 -98.5 116t-168.5 46zM559 1130q178 0 290 -78.5t155 -172.5v-361h-709v-235q31 -70 99.5 -116t166.5 -46q203 0 287 198h156v-96q-43 -94 -155 -173t-290 -79t-291.5 83t-156.5 190v616q43 106 156.5 188
t291.5 82zM799 1567v-88l-164 -232h-141v31l131 289h174z" />
    <glyph glyph-name="ecircumflex" unicode="&#xea;" horiz-adv-x="1105" 
d="M562 981q-99 0 -167.5 -46t-99.5 -116v-160h534v160q-29 70 -98.5 116t-168.5 46zM559 1130q178 0 290 -78.5t155 -172.5v-361h-709v-235q31 -70 99.5 -116t166.5 -46q203 0 287 198h156v-96q-43 -94 -155 -173t-290 -79t-291.5 83t-156.5 190v616q43 106 156.5 188
t291.5 82zM877 1243h-129l-175 223l-174 -223h-129v33l183 287h243l181 -287v-33z" />
    <glyph glyph-name="edieresis" unicode="&#xeb;" horiz-adv-x="1105" 
d="M562 981q-99 0 -167.5 -46t-99.5 -116v-160h534v160q-29 70 -98.5 116t-168.5 46zM559 1130q178 0 290 -78.5t155 -172.5v-361h-709v-235q31 -70 99.5 -116t166.5 -46q203 0 287 198h156v-96q-43 -94 -155 -173t-290 -79t-291.5 83t-156.5 190v616q43 106 156.5 188
t291.5 82zM778 1489q72 0 107 -41v-131q-35 -41 -107 -41t-100 41v131q28 41 100 41zM367 1489q72 0 100 -41v-131q-29 -41 -100.5 -41t-106.5 41v131q35 41 107 41z" />
    <glyph glyph-name="igrave" unicode="&#xec;" horiz-adv-x="466" 
d="M328 1102v-1102h-189v1102h189zM311 1247h-139l-166 232v88h172l133 -289v-31z" />
    <glyph glyph-name="iacute" unicode="&#xed;" horiz-adv-x="466" 
d="M328 1102v-1102h-189v1102h189zM459 1567v-88l-164 -232h-141v31l131 289h174z" />
    <glyph glyph-name="icircumflex" unicode="&#xee;" horiz-adv-x="466" 
d="M328 1102v-1102h-189v1102h189zM537 1243h-129l-175 223l-174 -223h-129v33l183 287h243l181 -287v-33z" />
    <glyph glyph-name="idieresis" unicode="&#xef;" horiz-adv-x="466" 
d="M328 1102v-1102h-189v1102h189zM438 1489q72 0 107 -41v-131q-35 -41 -107 -41t-100 41v131q28 41 100 41zM27 1489q72 0 100 -41v-131q-29 -41 -101 -41t-106 41v131q35 41 107 41z" />
    <glyph glyph-name="eth" unicode="&#xf0;" horiz-adv-x="1122" 
d="M567 844q-100 0 -171 -44t-99 -112v-407q29 -68 99 -114t168 -46q99 0 169 46q69 46 98 114v448q-98 115 -264 115zM566 -29q-179 0 -294 83t-159 190v485q37 104 145 185t276 81t297 -98v117q-35 76 -116 147l-342 -110v120l227 74q-143 86 -307 141l104 113
q215 -66 396 -192l223 73v-120l-119 -39q84 -78 119 -166v-811q-43 -106 -157 -190t-293 -83z" />
    <glyph glyph-name="ntilde" unicode="&#xf1;" horiz-adv-x="1136" 
d="M610 1126q175 0 268 -70.5t134 -156.5v-899h-187v856q-74 121 -246.5 121t-261.5 -107v-870h-186v1102h176v-88q128 112 303 112zM356 1280h-116v90q18 59 66 95t119 36t151.5 -54t117.5 -54q66 0 84 59v39h117v-90q-18 -57 -65.5 -95t-120 -38t-152.5 55t-127 55
t-74 -57v-41z" />
    <glyph glyph-name="ograve" unicode="&#xf2;" horiz-adv-x="1124" 
d="M562 981q-99 0 -169 -46t-98 -114v-540q29 -68 99 -114t168 -46q99 0 169 46t98 114v540q-29 68 -98 114q-70 46 -169 46zM563 1130q180 0 294 -82t157 -188v-616q-43 -106 -157 -190t-294 -83q-180 0 -295 83t-157 190v616q43 106 157 189q115 81 295 81zM639 1247h-139
l-166 232v88h172l133 -289v-31z" />
    <glyph glyph-name="oacute" unicode="&#xf3;" horiz-adv-x="1124" 
d="M562 981q-99 0 -169 -46t-98 -114v-540q29 -68 99 -114t168 -46q99 0 169 46t98 114v540q-29 68 -98 114q-70 46 -169 46zM563 1130q180 0 294 -82t157 -188v-616q-43 -106 -157 -190t-294 -83q-180 0 -295 83t-157 190v616q43 106 157 189q115 81 295 81zM786 1567v-88
l-163 -232h-142v31l131 289h174z" />
    <glyph glyph-name="ocircumflex" unicode="&#xf4;" horiz-adv-x="1124" 
d="M562 981q-99 0 -169 -46t-98 -114v-540q29 -68 99 -114t168 -46q99 0 169 46t98 114v540q-29 68 -98 114q-70 46 -169 46zM563 1130q180 0 294 -82t157 -188v-616q-43 -106 -157 -190t-294 -83q-180 0 -295 83t-157 190v616q43 106 157 189q115 81 295 81zM864 1243h-129
l-174 223l-174 -223h-129v33l182 287h244l180 -287v-33z" />
    <glyph glyph-name="otilde" unicode="&#xf5;" horiz-adv-x="1124" 
d="M562 981q-99 0 -169 -46t-98 -114v-540q29 -68 99 -114t168 -46q99 0 169 46t98 114v540q-29 68 -98 114q-70 46 -169 46zM563 1130q180 0 294 -82t157 -188v-616q-43 -106 -157 -190t-294 -83q-180 0 -295 83t-157 190v616q43 106 157 189q115 81 295 81zM419 1501
q71 0 151 -54t118 -54q66 0 84 59v39h117v-90q-17 -57 -65 -95t-120 -38t-153 55q-80 55 -127 55t-74 -57v-41h-117v90q19 59 67 95t119 36z" />
    <glyph glyph-name="odieresis" unicode="&#xf6;" horiz-adv-x="1124" 
d="M562 981q-99 0 -169 -46t-98 -114v-540q29 -68 99 -114t168 -46q99 0 169 46t98 114v540q-29 68 -98 114q-70 46 -169 46zM563 1130q180 0 294 -82t157 -188v-616q-43 -106 -157 -190t-294 -83q-180 0 -295 83t-157 190v616q43 106 157 189q115 81 295 81zM766 1489
q72 0 106 -41v-131q-34 -41 -106 -41t-100 41v131q28 41 100 41zM354 1489q72 0 101 -41v-131q-29 -41 -101 -41t-106 41v131q34 41 106 41z" />
    <glyph glyph-name="divide" unicode="&#xf7;" horiz-adv-x="1196" 
d="M597 438q87 0 108 -51v-117q-25 -53 -108 -53t-108 53v117q21 51 108 51zM1108 766v-150h-1022v150h1022zM597 1171q85 0 108 -53v-117q-25 -53 -108 -53t-108 53v117q23 53 108 53z" />
    <glyph glyph-name="oslash" unicode="&#xf8;" horiz-adv-x="1122" 
d="M550 121q110 0 181 46q69 46 98 114v510l-473 -596q84 -74 194 -74zM576 981q-112 0 -182 -46t-99 -114v-508l473 594q-80 74 -192 74zM1014 1102v-78l-56 -70q35 -47 56 -94v-616q-43 -106 -157 -190t-296 -83q-182 0 -307 95l-51 -66h-92v78l55 72q-35 43 -55 94v616
q43 106 157 189q115 81 295 81t307 -92l52 64h92z" />
    <glyph glyph-name="ugrave" unicode="&#xf9;" horiz-adv-x="1120" 
d="M803 1102h186v-1102h-174v88q-121 -113 -311 -113q-266 0 -381 224v903h186v-856q76 -121 241 -121t253 108v869zM639 1247h-139l-166 232v88h172l133 -289v-31z" />
    <glyph glyph-name="uacute" unicode="&#xfa;" horiz-adv-x="1120" 
d="M803 1102h186v-1102h-174v88q-121 -113 -311 -113q-266 0 -381 224v903h186v-856q76 -121 241 -121t253 108v869zM481 1247v31l131 289h174v-88l-163 -232h-142z" />
    <glyph glyph-name="ucircumflex" unicode="&#xfb;" horiz-adv-x="1120" 
d="M803 1102h186v-1102h-174v88q-121 -113 -311 -113q-266 0 -381 224v903h186v-856q76 -121 241 -121t253 108v869zM258 1243v33l182 287h244l180 -287v-33h-129l-174 223l-174 -223h-129z" />
    <glyph glyph-name="udieresis" unicode="&#xfc;" horiz-adv-x="1120" 
d="M803 1102h186v-1102h-174v88q-121 -113 -311 -113q-266 0 -381 224v903h186v-856q76 -121 241 -121t253 108v869zM766 1276q-72 0 -100 41v131q28 41 100 41t106 -41v-131q-34 -41 -106 -41zM354 1276q-72 0 -106 41v131q34 41 106 41t101 -41v-131q-29 -41 -101 -41z
" />
    <glyph glyph-name="yacute" unicode="&#xfd;" horiz-adv-x="1038" 
d="M971 1102v-111l-406 -1190q-111 -156 -350 -155q-86 0 -133 14v135q49 -4 80 -4q174 0 250 94l30 107l-366 995v115h160l296 -877h7l282 877h150zM743 1567v-88l-163 -232h-142v31l131 289h174z" />
    <glyph glyph-name="thorn" unicode="&#xfe;" horiz-adv-x="1122" 
d="M580 977q-172 0 -263 -109v-632q92 -111 262 -111t246 123v608q-73 121 -245 121zM611 1126q174 0 268 -70t135 -157v-696q-41 -86 -135 -157t-268 -71t-294 109v-424h-186v1774h186v-416q120 108 294 108z" />
    <glyph glyph-name="ydieresis" unicode="&#xff;" horiz-adv-x="1038" 
d="M971 1102v-111l-406 -1190q-111 -156 -350 -155q-86 0 -133 14v135q49 -4 80 -4q174 0 250 94l30 107l-366 995v115h160l296 -877h7l282 877h150zM725 1489q72 0 106 -41v-131q-35 -41 -107 -41t-99 41v131q28 41 100 41zM313 1489q72 0 101 -41v-131q-29 -41 -101 -41
t-106 41v131q34 41 106 41z" />
    <glyph glyph-name="Amacron" unicode="&#x100;" horiz-adv-x="1247" 
d="M393 561h447l-219 703h-7zM1188 0h-172l-127 403h-545l-127 -403h-156v123l426 1311h273l428 -1311v-123zM946 1718v-137h-645v137h645z" />
    <glyph glyph-name="amacron" unicode="&#x101;" horiz-adv-x="1112" 
d="M524 119q96 0 169 38t110 91v270h-287q-154 0 -231 -94v-203q77 -102 239 -102zM537 1130q179 0 293 -82t159 -188v-860h-180v96q-121 -125 -330 -125q-262 0 -379 172v340q20 35 56 70t122 71q87 36 199 35h326v162q-29 68 -97 114q-69 46 -169 46q-182 0 -258 -147
h-156v96q142 200 414 200zM879 1462v-135h-646v135h646z" />
    <glyph glyph-name="Abreve" unicode="&#x102;" horiz-adv-x="1247" 
d="M393 561h447l-219 703h-7zM1188 0h-172l-127 403h-545l-127 -403h-156v123l426 1311h273l428 -1311v-123zM625 1520q-119 0 -193 46t-106 111v115h141v-76q12 -30 51 -56t106 -26q68 0 106 28t50 54v76h142v-115q-76 -157 -297 -157z" />
    <glyph glyph-name="abreve" unicode="&#x103;" horiz-adv-x="1112" 
d="M524 119q96 0 169 38t110 91v270h-287q-154 0 -231 -94v-203q77 -102 239 -102zM537 1130q179 0 293 -82t159 -188v-860h-180v96q-121 -125 -330 -125q-262 0 -379 172v340q20 35 56 70t122 71q87 36 199 35h326v162q-29 68 -97 114q-69 46 -169 46q-182 0 -258 -147
h-156v96q142 200 414 200zM556 1235q-222 0 -298 156v114h141v-75q11 -29 51 -56q40 -26 106 -26t106 28q39 28 51 54v75h141v-114q-76 -156 -298 -156z" />
    <glyph glyph-name="Aogonek" unicode="&#x104;" horiz-adv-x="1247" 
d="M393 561h447l-219 703h-7zM1070 -317q70 0 120 20v-115q-58 -30 -138 -30q-169 1 -214 98v143q53 111 176 205l-125 399h-545l-127 -403h-156v123l426 1311h273l428 -1311v-123q-168 -129 -209 -215v-64q21 -38 91 -38z" />
    <glyph glyph-name="aogonek" unicode="&#x105;" horiz-adv-x="1112" 
d="M524 119q96 0 169 38t110 91v270h-287q-154 0 -231 -94v-203q77 -102 239 -102zM902 -317q68 0 118 20v-115q-57 -30 -136 -30t-136 26t-78 72v143q45 104 170 201h-31v96q-121 -125 -330 -125q-262 0 -379 172v340q20 35 56 70t122 71q87 36 199 35h326v162
q-29 68 -97 114q-69 46 -169 46q-182 0 -258 -147h-156v96q141 201 414 200q179 0 293 -82t159 -188v-860q-131 -111 -178 -215v-64q23 -38 91 -38z" />
    <glyph glyph-name="Cacute" unicode="&#x106;" horiz-adv-x="1239" 
d="M640 1462q204 0 329 -90t182 -209v-110h-170q-33 109 -119 179.5t-212 70.5t-208 -55.5t-116 -139.5v-782q35 -84 116.5 -139.5t207.5 -55.5t212 70.5t119 179.5h170v-111q-57 -119 -182 -209t-329 -90t-332 93.5t-183 218.5v868q55 125 183 218t332 93zM860 1855v-88
l-166 -225h-137v33l131 280h172z" />
    <glyph glyph-name="cacute" unicode="&#x107;" horiz-adv-x="1081" 
d="M560 1130q179 0 291 -78.5t153 -172.5v-97h-156q-84 199 -287 199q-98 0 -166.5 -46t-99.5 -114v-540q31 -68 99.5 -114t166.5 -46q201 0 287 198h156v-96q-43 -94 -155 -173t-290 -79t-291.5 83t-156.5 190v616q43 106 156.5 188t292.5 82zM793 1567v-88l-164 -232h-142
v31l131 289h175z" />
    <glyph glyph-name="Ccircumflex" unicode="&#x108;" horiz-adv-x="1239" 
d="M640 1462q204 0 329 -90t182 -209v-110h-170q-33 109 -119 179.5t-212 70.5t-208 -55.5t-116 -139.5v-782q35 -84 116.5 -139.5t207.5 -55.5t212 70.5t119 179.5h170v-111q-57 -119 -182 -209t-329 -90t-332 93.5t-183 218.5v868q55 125 183 218t332 93zM948 1542h-129
l-174 217l-174 -217h-129v33l182 280h244l180 -280v-33z" />
    <glyph glyph-name="ccircumflex" unicode="&#x109;" horiz-adv-x="1081" 
d="M560 1130q179 0 291 -78.5t153 -172.5v-97h-156q-84 199 -287 199q-98 0 -166.5 -46t-99.5 -114v-540q31 -68 99.5 -114t166.5 -46q201 0 287 198h156v-96q-43 -94 -155 -173t-290 -79t-291.5 83t-156.5 190v616q43 106 156.5 188t292.5 82zM870 1243h-129l-174 223
l-174 -223h-129v33l182 287h244l180 -287v-33z" />
    <glyph glyph-name="Cdotaccent" unicode="&#x10a;" horiz-adv-x="1239" 
d="M640 1462q204 0 329 -90t182 -209v-110h-170q-33 109 -119 179.5t-212 70.5t-208 -55.5t-116 -139.5v-782q35 -84 116.5 -139.5t207.5 -55.5t212 70.5t119 179.5h170v-111q-57 -119 -182 -209t-329 -90t-332 93.5t-183 218.5v868q55 125 183 218t332 93zM643 1798
q84 0 111 -53v-107q-25 -51 -111 -51t-106 51v107q22 53 106 53z" />
    <glyph glyph-name="cdotaccent" unicode="&#x10b;" horiz-adv-x="1081" 
d="M560 1130q179 0 291 -78.5t153 -172.5v-97h-156q-84 199 -287 199q-98 0 -166.5 -46t-99.5 -114v-540q31 -68 99.5 -114t166.5 -46q201 0 287 198h156v-96q-43 -94 -155 -173t-290 -79t-291.5 83t-156.5 190v616q43 106 156.5 188t292.5 82zM565 1489q84 0 111 -53v-107
q-25 -51 -111 -51t-106 51v107q22 53 106 53z" />
    <glyph glyph-name="Ccaron" unicode="&#x10c;" horiz-adv-x="1239" 
d="M640 1462q204 0 329 -90t182 -209v-110h-170q-33 109 -119 179.5t-212 70.5t-208 -55.5t-116 -139.5v-782q35 -84 116.5 -139.5t207.5 -55.5t212 70.5t119 179.5h170v-111q-57 -119 -182 -209t-329 -90t-332 93.5t-183 218.5v868q55 125 183 218t332 93zM948 1855v-32
l-180 -281h-244l-182 281v32h129l174 -217l174 217h129z" />
    <glyph glyph-name="ccaron" unicode="&#x10d;" horiz-adv-x="1081" 
d="M560 1130q179 0 291 -78.5t153 -172.5v-97h-156q-84 199 -287 199q-98 0 -166.5 -46t-99.5 -114v-540q31 -68 99.5 -114t166.5 -46q201 0 287 198h156v-96q-43 -94 -155 -173t-290 -79t-291.5 83t-156.5 190v616q43 106 156.5 188t292.5 82zM870 1563v-33l-180 -287h-244
l-182 287v33h129l174 -224l174 224h129z" />
    <glyph glyph-name="Dcaron" unicode="&#x10e;" horiz-adv-x="1280" 
d="M639 1274h-289v-1114h289q121 0 203 48t114 128v762q-33 80 -114 128q-82 48 -203 48zM674 1434q190 0 311 -82t172 -201v-868q-51 -119 -172 -201t-311 -82h-524v1434h524zM944 1855v-32l-180 -281h-244l-182 281v32h129l174 -217l174 217h129z" />
    <glyph glyph-name="dcaron" unicode="&#x10f;" horiz-adv-x="1122" 
d="M545 125q172 0 260 111v632q-86 109 -260 109t-248 -121v-608q76 -123 248 -123zM1360 1434v-101l-76 -266h-121v31l39 336h158zM805 1434h186v-1434h-180v90q-119 -115 -296 -115t-269 71t-135 157v696q41 86 134 157t267 71t293 -109v416z" />
    <glyph glyph-name="Dcroat" unicode="&#x110;" horiz-adv-x="1335" 
d="M686 1274h-289v-467h338v-156h-338v-491h289q121 0 203 48q81 48 112 128v762q-31 80 -112 128q-82 48 -203 48zM721 1434q188 0 309 -82t172 -201v-868q-51 -119 -172 -201t-309 -82h-524v651h-115v156h115v627h524z" />
    <glyph glyph-name="dcroat" unicode="&#x111;" horiz-adv-x="1175" 
d="M541 954q-93 0 -155 -38t-89 -85v-585q76 -123 248 -123t260 110v611q-90 110 -264 110zM993 1434v-107h119v-108h-119v-1219h-180v90q-121 -115 -298 -115t-269 71t-135 157v671q41 86 134 157t267 71t293 -109v226h-354v108h354v107h188z" />
    <glyph glyph-name="Emacron" unicode="&#x112;" horiz-adv-x="1103" 
d="M991 1434v-160h-641v-457h598v-158h-598v-499h660v-160h-860v1434h841zM901 1718v-137h-645v137h645z" />
    <glyph glyph-name="emacron" unicode="&#x113;" horiz-adv-x="1105" 
d="M562 981q-99 0 -167.5 -46t-99.5 -116v-160h534v160q-29 70 -98.5 116t-168.5 46zM559 1130q178 0 290 -78.5t155 -172.5v-361h-709v-235q31 -70 99.5 -116t166.5 -46q203 0 287 198h156v-96q-43 -94 -155 -173t-290 -79t-291.5 83t-156.5 190v616q43 106 156.5 188
t291.5 82zM895 1462v-135h-645v135h645z" />
    <glyph glyph-name="Ebreve" unicode="&#x114;" horiz-adv-x="1103" 
d="M991 1434v-160h-641v-457h598v-158h-598v-499h660v-160h-860v1434h841zM877 1792v-115q-76 -158 -297 -157q-119 0 -193 46t-106 111v115h141v-76q12 -29 51 -55.5t106 -26.5t105.5 28t50.5 54v76h142z" />
    <glyph glyph-name="ebreve" unicode="&#x115;" horiz-adv-x="1105" 
d="M562 981q-99 0 -167.5 -46t-99.5 -116v-160h534v160q-29 70 -98.5 116t-168.5 46zM559 1130q178 0 290 -78.5t155 -172.5v-361h-709v-235q31 -70 99.5 -116t166.5 -46q203 0 287 198h156v-96q-43 -94 -155 -173t-290 -79t-291.5 83t-156.5 190v616q43 106 156.5 188
t291.5 82zM870 1505v-114q-76 -156 -298 -156t-298 156v114h142v-75q12 -29 51 -55.5t105.5 -26.5t105.5 27.5t51 54.5v75h141z" />
    <glyph glyph-name="Edotaccent" unicode="&#x116;" horiz-adv-x="1103" 
d="M991 1434v-160h-641v-457h598v-158h-598v-499h660v-160h-860v1434h841zM578 1798q84 0 110 -53v-107q-25 -51 -110.5 -51t-106.5 51v107q23 53 107 53z" />
    <glyph glyph-name="edotaccent" unicode="&#x117;" horiz-adv-x="1105" 
d="M562 981q-99 0 -167.5 -46t-99.5 -116v-160h534v160q-29 70 -98.5 116t-168.5 46zM559 1130q178 0 290 -78.5t155 -172.5v-361h-709v-235q31 -70 99.5 -116t166.5 -46q203 0 287 198h156v-96q-43 -94 -155 -173t-290 -79t-291.5 83t-156.5 190v616q43 106 156.5 188
t291.5 82zM571 1489q84 0 111 -53v-107q-27 -51 -112 -51t-105 51v107q22 53 106 53z" />
    <glyph glyph-name="Eogonek" unicode="&#x118;" horiz-adv-x="1103" 
d="M150 0v1434h841v-160h-641v-457h598v-158h-598v-499h660v-160q-184 -133 -211 -215v-64q23 -39 92 -38.5t119 20.5v-115q-61 -31 -139.5 -30.5t-135.5 26t-78 72.5v143q45 102 174 201h-681z" />
    <glyph glyph-name="eogonek" unicode="&#x119;" horiz-adv-x="1105" 
d="M562 981q-99 0 -167.5 -46t-99.5 -116v-160h534v160q-29 70 -98.5 116t-168.5 46zM559 1130q178 0 290 -78.5t155 -172.5v-361h-709v-235q31 -70 99.5 -116t166.5 -46q203 0 287 198h156v-96q-10 -25 -115 -201t-121 -237v-64q23 -39 92 -38.5t119 20.5v-115
q-61 -31 -139 -30.5t-135.5 26t-77.5 72.5v143q29 82 121 203q-88 -31 -187 -31q-180 0 -293.5 83t-156.5 190v616q43 106 156.5 188t291.5 82z" />
    <glyph glyph-name="Ecaron" unicode="&#x11a;" horiz-adv-x="1103" 
d="M991 1434v-160h-641v-457h598v-158h-598v-499h660v-160h-860v1434h841zM883 1855v-32l-181 -281h-243l-183 281v32h130l174 -217l174 217h129z" />
    <glyph glyph-name="ecaron" unicode="&#x11b;" horiz-adv-x="1105" 
d="M562 981q-99 0 -167.5 -46t-99.5 -116v-160h534v160q-29 70 -98.5 116t-168.5 46zM559 1130q178 0 290 -78.5t155 -172.5v-361h-709v-235q31 -70 99.5 -116t166.5 -46q203 0 287 198h156v-96q-43 -94 -155 -173t-290 -79t-291.5 83t-156.5 190v616q43 106 156.5 188
t291.5 82zM877 1563v-33l-181 -287h-243l-183 287v33h129l174 -224l175 224h129z" />
    <glyph glyph-name="Gcircumflex" unicode="&#x11c;" horiz-adv-x="1296" 
d="M650 1303q-126 0 -208 -55.5t-116 -139.5v-780q33 -84 116.5 -139.5t202.5 -55.5t200 53.5t118 135.5v276h-291v158h479v-756h-170v123q-133 -152 -367 -152q-188 0 -312 94.5t-177 219.5v866q55 125 183 218t332 93t329 -90t182 -209v-110h-170q-33 109 -119 179.5
t-212 70.5zM346 1542v33l182 280h244l180 -280v-33h-129l-174 217l-174 -217h-129z" />
    <glyph glyph-name="gcircumflex" unicode="&#x11d;" horiz-adv-x="1122" 
d="M544 193q173 0 261 114v559q-88 111 -262 111t-248 -121v-541q76 -122 249 -122zM811 1102h180v-1215q-45 -104 -159 -180t-290 -76q-177 0 -289 71t-157 148v99h156q92 -168 291 -168t262 145v226q-123 -109 -294 -109t-265 72t-135 157v627q41 86 135 157q94 70 266 70
t299 -112v88zM258 1243v33l182 287h244l180 -287v-33h-129l-174 223l-174 -223h-129z" />
    <glyph glyph-name="Gbreve" unicode="&#x11e;" horiz-adv-x="1296" 
d="M650 1303q-126 0 -208 -55.5t-116 -139.5v-780q33 -84 116.5 -139.5t202.5 -55.5t200 53.5t118 135.5v276h-291v158h479v-756h-170v123q-133 -152 -367 -152q-188 0 -312 94.5t-177 219.5v866q55 125 183 218t332 93t329 -90t182 -209v-110h-170q-33 109 -119 179.5
t-212 70.5zM649 1520q-119 0 -192.5 46t-106.5 111v115h142v-76q12 -29 51 -55.5t105.5 -26.5t105.5 28t51 54v76h141v-115q-76 -157 -297 -157z" />
    <glyph glyph-name="gbreve" unicode="&#x11f;" horiz-adv-x="1122" 
d="M544 193q173 0 261 114v559q-88 111 -262 111t-248 -121v-541q76 -122 249 -122zM811 1102h180v-1215q-45 -104 -159 -180t-290 -76q-177 0 -289 71t-157 148v99h156q92 -168 291 -168t262 145v226q-123 -109 -294 -109t-265 72t-135 157v627q41 86 135 157q94 70 266 70
t299 -112v88zM560 1235q-222 0 -298 156v114h141v-75q11 -29 51 -56q40 -26 106 -26t106 28q39 28 51 54v75h141v-114q-76 -156 -298 -156z" />
    <glyph glyph-name="Gdotaccent" unicode="&#x120;" horiz-adv-x="1296" 
d="M650 1303q-126 0 -208 -55.5t-116 -139.5v-780q33 -84 116.5 -139.5t202.5 -55.5t200 53.5t118 135.5v276h-291v158h479v-756h-170v123q-133 -152 -367 -152q-188 0 -312 94.5t-177 219.5v866q55 125 183 218t332 93t329 -90t182 -209v-110h-170q-33 109 -119 179.5
t-212 70.5zM647 1587q-86 0 -106 51v107q23 53 106.5 53t110.5 -53v-107q-25 -51 -111 -51z" />
    <glyph glyph-name="gdotaccent" unicode="&#x121;" horiz-adv-x="1122" 
d="M544 193q173 0 261 114v559q-88 111 -262 111t-248 -121v-541q76 -122 249 -122zM811 1102h180v-1215q-45 -104 -159 -180t-290 -76q-177 0 -289 71t-157 148v99h156q92 -168 291 -168t262 145v226q-123 -109 -294 -109t-265 72t-135 157v627q41 86 135 157q94 70 266 70
t299 -112v88zM558 1278q-85 0 -105 51v107q23 53 107 53t110 -53v-107q-27 -51 -112 -51z" />
    <glyph glyph-name="Gcommaaccent" unicode="&#x122;" horiz-adv-x="1296" 
d="M647 -125q80 0 103 -31v-192q-10 -29 -43 -54.5t-86 -25.5h-64v68h47q37 0 49 20v57h-4q-82 0 -100 29v98q18 31 98 31zM650 1303q-126 0 -208 -55.5t-116 -139.5v-780q33 -84 116.5 -139.5t202.5 -55.5t200 53.5t118 135.5v276h-291v158h479v-756h-170v123
q-133 -152 -367 -152q-188 0 -312 94.5t-177 219.5v866q55 125 183 218t332 93t329 -90t182 -209v-110h-170q-33 109 -119 179.5t-212 70.5z" />
    <glyph glyph-name="gcommaaccent" unicode="&#x123;" horiz-adv-x="1122" 
d="M544 193q173 0 261 114v559q-88 111 -262 111t-248 -121v-541q76 -122 249 -122zM811 1102h180v-1215q-45 -104 -159 -180t-290 -76q-177 0 -289 71t-157 148v99h156q92 -168 291 -168t262 145v226q-123 -109 -294 -109t-265 72t-135 157v627q41 86 135 157q94 70 266 70
t299 -112v88zM560 1233q-40 0 -70 16t-35 35v207q8 29 48 55t95 27h53v-78h-35q-47 0 -59 -18v-62h4q39 0 69 -16t38 -35v-80q-8 -18 -38 -34t-70 -17z" />
    <glyph glyph-name="Hcircumflex" unicode="&#x124;" horiz-adv-x="1325" 
d="M1174 1434v-1434h-201v659h-623v-659h-200v1434h200v-615h623v615h201zM965 1542h-129l-174 217l-175 -217h-129v33l183 280h243l181 -280v-33z" />
    <glyph glyph-name="hcircumflex" unicode="&#x125;" horiz-adv-x="1138" 
d="M615 1126q172 0 265 -70t134 -157v-899h-187v856q-75 121 -249 121t-261 -109v-868h-186v1434h186v-414q126 106 298 106zM281 1528v33l182 280h244l180 -280v-33h-129l-174 217l-174 -217h-129z" />
    <glyph glyph-name="Hbar" unicode="&#x126;" horiz-adv-x="1325" 
d="M973 819v316h-623v-316h623zM1274 1262v-127h-100v-1135h-201v659h-623v-659h-200v1135h-89v127h89v172h200v-172h623v172h201v-172h100z" />
    <glyph glyph-name="hbar" unicode="&#x127;" horiz-adv-x="1167" 
d="M348 1434v-107h377v-108h-377v-226q123 109 295 109t265 -71t134 -157v-874h-186v829q-76 123 -248 123t-260 -110v-842h-186v1219h-99v108h99v107h186z" />
    <glyph glyph-name="Itilde" unicode="&#x128;" horiz-adv-x="499" 
d="M350 1434v-1434h-200v1434h200zM110 1780q72 0 152 -54t117 -55q66 0 84 58v38h117v-90q-18 -57 -66 -94t-122 -37t-152 56t-115 55q-59 0 -84 -60v-41h-117v91q18 61 66 97t120 36z" />
    <glyph glyph-name="itilde" unicode="&#x129;" horiz-adv-x="466" 
d="M328 1102v-1102h-189v1102h189zM91 1501q71 0 152 -54t117 -54q66 0 84 59v39h117v-90q-18 -57 -65 -95t-120 -38t-153 55t-127 55t-73 -57v-41h-117v90q18 59 66 95t119 36z" />
    <glyph glyph-name="Imacron" unicode="&#x12a;" horiz-adv-x="499" 
d="M350 1434v-1434h-200v1434h200zM573 1718v-137h-645v137h645z" />
    <glyph glyph-name="imacron" unicode="&#x12b;" horiz-adv-x="466" 
d="M328 1102v-1102h-189v1102h189zM555 1462v-135h-645v135h645z" />
    <glyph glyph-name="Ibreve" unicode="&#x12c;" horiz-adv-x="499" 
d="M350 1434v-1434h-200v1434h200zM549 1792v-115q-76 -158 -297 -157q-119 0 -193 46t-106 111v115h141v-76q12 -30 51 -56t106 -26t105 28t52 54v76h141z" />
    <glyph glyph-name="ibreve" unicode="&#x12d;" horiz-adv-x="466" 
d="M328 1102v-1102h-189v1102h189zM530 1505v-114q-76 -156 -298 -156t-298 156v114h142v-75q12 -29 51 -56q39 -26 105 -26t106 28q39 28 51 54v75h141z" />
    <glyph glyph-name="Iogonek" unicode="&#x12e;" horiz-adv-x="499" 
d="M150 0v1434h200v-1434q-88 -66 -141 -125t-68 -90v-64q23 -39 91 -39t118 21v-115q-57 -30 -136 -30q-168 1 -216 98v143q49 104 174 201h-22z" />
    <glyph glyph-name="iogonek" unicode="&#x12f;" horiz-adv-x="466" 
d="M139 0v1102h189v-1102q-176 -135 -209 -215v-64q23 -39 92 -39t119 21v-115q-58 -30 -138 -30q-168 1 -215 98v143q49 102 181 201h-19zM231 1489q84 0 111 -53v-101q-27 -51 -112 -51t-105 51v101q22 53 106 53z" />
    <glyph glyph-name="Idotaccent" unicode="&#x130;" horiz-adv-x="499" 
d="M350 1434v-1434h-200v1434h200zM250 1798q84 0 110 -53v-107q-24 -51 -110 -51t-107 51v107q23 53 107 53z" />
    <glyph glyph-name="dotlessi" unicode="&#x131;" horiz-adv-x="466" 
d="M328 1102v-1102h-189v1102h189z" />
    <glyph glyph-name="IJ" unicode="&#x132;" horiz-adv-x="1292" 
d="M1151 1434v-1149q-133 -289 -506 -289q-51 0 -104 4v156h92q117 0 200 47t117 131v1100h201zM350 1434v-1434h-200v1434h200z" />
    <glyph glyph-name="ij" unicode="&#x133;" horiz-adv-x="915" 
d="M784 1102v-1198q-43 -106 -157 -190q-115 -83 -295 -83v148q100 0 168 48t96 122v1153h188zM328 1102v-1102h-189v1102h189zM690 1489q84 0 111 -53v-107q-27 -51 -112 -51t-105 51v107q22 53 106 53zM231 1489q84 0 111 -53v-107q-27 -51 -112 -51t-105 51v107
q22 53 106 53z" />
    <glyph glyph-name="Jcircumflex" unicode="&#x134;" horiz-adv-x="792" 
d="M651 1434v-1149q-133 -289 -506 -289q-51 0 -104 4v156h92q117 0 200 47t118 131v1100h200zM854 1542h-129l-174 217l-174 -217h-129v33l182 280h244l180 -280v-33z" />
    <glyph glyph-name="jcircumflex" unicode="&#x135;" horiz-adv-x="448" 
d="M317 1102v-1198q-43 -106 -157 -190q-115 -83 -295 -83v148q100 0 168 48t96 122v1153h188zM528 1243h-129l-174 223l-174 -223h-129v33l182 287h244l180 -287v-33z" />
    <glyph glyph-name="Kcommaaccent" unicode="&#x136;" horiz-adv-x="1214" 
d="M606 -125q80 0 103 -31v-192q-10 -29 -43 -54.5t-86 -25.5h-64v68h47q37 0 49 20v57h-4q-82 0 -100 29v98q18 31 98 31zM1151 0h-150l-471 711l-180 -191v-520h-200v1434h200v-672l625 672h119v-123l-432 -459l489 -729v-123z" />
    <glyph glyph-name="kcommaaccent" unicode="&#x137;" horiz-adv-x="1052" 
d="M524 -125q80 0 103 -31v-192q-10 -29 -43 -54.5t-86 -25.5h-64v68h47q37 0 49 20v57h-4q-82 0 -100 29v98q18 31 98 31zM1014 0h-137l-383 530l-177 -176v-354h-186v1434h186v-865l521 533h118v-113l-340 -336l398 -542v-111z" />
    <glyph glyph-name="Lacute" unicode="&#x139;" horiz-adv-x="929" 
d="M350 1434v-1274h533v-160h-733v1434h200zM481 1855v-88l-166 -225h-137v33l131 280h172z" />
    <glyph glyph-name="lacute" unicode="&#x13a;" horiz-adv-x="450" 
d="M319 1434v-1434h-188v1434h188zM438 1855v-88l-166 -225h-137v33l131 280h172z" />
    <glyph glyph-name="Lcommaaccent" unicode="&#x13b;" horiz-adv-x="929" 
d="M465 -125q80 0 102 -31v-192q-10 -29 -42.5 -54.5t-86.5 -25.5h-63v68h47q37 0 49 20v57h-4q-82 0 -100 29v98q18 31 98 31zM350 160h533v-160h-733v1434h200v-1274z" />
    <glyph glyph-name="lcommaaccent" unicode="&#x13c;" horiz-adv-x="450" 
d="M221 -125q80 0 103 -31v-192q-10 -29 -43 -54.5t-86 -25.5h-64v68h47q37 0 49 20v57h-4q-82 0 -100 29v98q18 31 98 31zM319 1434v-1434h-188v1434h188z" />
    <glyph glyph-name="Lcaron" unicode="&#x13d;" horiz-adv-x="929" 
d="M748 1434v-101l-74 -266h-121v31l39 336h156zM350 1434v-1274h533v-160h-733v1434h200z" />
    <glyph glyph-name="lcaron" unicode="&#x13e;" horiz-adv-x="450" 
d="M684 1434v-101l-76 -266h-121v31l39 336h158zM319 1434v-1434h-188v1434h188z" />
    <glyph glyph-name="Ldot" unicode="&#x13f;" horiz-adv-x="929" 
d="M727 903q43 0 72.5 -16.5t36.5 -36.5v-117q-6 -20 -36 -36.5t-73 -16.5q-78 0 -106 53v117q26 53 106 53zM350 1434v-1274h533v-160h-733v1434h200z" />
    <glyph glyph-name="ldot" unicode="&#x140;" horiz-adv-x="450" 
d="M623 850q84 0 106 -53v-107q-20 -51 -106 -51t-111 51v107q27 53 111 53zM319 1434v-1434h-188v1434h188z" />
    <glyph glyph-name="Lslash" unicode="&#x141;" horiz-adv-x="997" 
d="M418 160h532v-160h-733v453l-164 -84v155l164 84v826h201v-721l362 188v-156l-362 -188v-397z" />
    <glyph glyph-name="lslash" unicode="&#x142;" horiz-adv-x="698" 
d="M440 0h-184v643l-195 -111v158l195 111v633h184v-525l197 113v-158l-197 -112v-752z" />
    <glyph glyph-name="Nacute" unicode="&#x143;" horiz-adv-x="1353" 
d="M1204 1434v-1434h-254l-606 1167h-6v-1167h-188v1434h253l607 -1168h6v1168h188zM895 1855v-88l-166 -225h-137v33l131 280h172z" />
    <glyph glyph-name="nacute" unicode="&#x144;" horiz-adv-x="1136" 
d="M610 1126q175 0 268 -70.5t134 -156.5v-899h-187v856q-74 121 -246.5 121t-261.5 -107v-870h-186v1102h176v-88q128 112 303 112zM487 1247v31l131 289h175v-88l-164 -232h-142z" />
    <glyph glyph-name="Ncommaaccent" unicode="&#x145;" horiz-adv-x="1353" 
d="M676 -125q80 0 102 -31v-192q-10 -29 -43 -54.5t-86 -25.5h-63v68h47q37 0 49 20v57h-4q-82 0 -100 29v98q18 31 98 31zM1016 1434h188v-1434h-254l-606 1167h-6v-1167h-188v1434h253l607 -1168h6v1168z" />
    <glyph glyph-name="ncommaaccent" unicode="&#x146;" horiz-adv-x="1136" 
d="M565 -125q80 0 103 -31v-192q-10 -29 -43 -54.5t-86 -25.5h-64v68h47q37 0 49 20v57h-4q-82 0 -100 29v98q18 31 98 31zM610 1126q175 0 268 -70.5t134 -156.5v-899h-187v856q-74 121 -246.5 121t-261.5 -107v-870h-186v1102h176v-88q128 112 303 112z" />
    <glyph glyph-name="Ncaron" unicode="&#x147;" horiz-adv-x="1353" 
d="M1204 1434v-1434h-254l-606 1167h-6v-1167h-188v1434h253l607 -1168h6v1168h188zM983 1855v-32l-180 -281h-244l-182 281v32h129l174 -217l174 217h129z" />
    <glyph glyph-name="ncaron" unicode="&#x148;" horiz-adv-x="1136" 
d="M610 1126q175 0 268 -70.5t134 -156.5v-899h-187v856q-74 121 -246.5 121t-261.5 -107v-870h-186v1102h176v-88q128 112 303 112zM264 1563h129l174 -224l174 224h129v-33l-180 -287h-244l-182 287v33z" />
    <glyph glyph-name="napostrophe" unicode="&#x149;" horiz-adv-x="1136" 
d="M610 1126q175 0 268 -70.5t134 -156.5v-899h-187v856q-74 121 -246.5 121t-261.5 -107v-870h-186v1102h176v-88q128 112 303 112zM109 1204h-64v68h47q37 0 49 20v58h-4q-76 0 -100 28v99q23 31 99.5 30.5t103.5 -30.5v-193q-10 -29 -44 -54.5t-87 -25.5z" />
    <glyph glyph-name="Eng" unicode="&#x14a;" horiz-adv-x="1353" 
d="M1016 1434h188v-1485q-55 -129 -188 -216t-328 -87q-51 0 -88 4v153q29 -4 84 -4q201 0 295 146l-635 1222h-6v-1167h-188v1434h253l607 -1168h6v1168z" />
    <glyph glyph-name="eng" unicode="&#x14b;" horiz-adv-x="1138" 
d="M629 1126q158 0 251 -70t134 -157v-985q-43 -106 -157 -189t-294 -83v149q98 0 167 47t97 121v897q-75 121 -247 121t-261 -111v-866h-188v1102h176v-94q123 118 322 118z" />
    <glyph glyph-name="Omacron" unicode="&#x14c;" horiz-adv-x="1282" 
d="M642 1303q-118 1 -201 -55t-115 -140v-780q33 -84 115 -140q83 -55 201 -55t200 55t114 140v780q-32 84 -114 140t-200 55zM641 1462q205 0 333 -93t183 -218v-866q-55 -127 -183 -220t-333 -93t-333 92q-128 94 -183 221v866q55 125 183 218t333 93zM963 1718v-137h-646
v137h646z" />
    <glyph glyph-name="omacron" unicode="&#x14d;" horiz-adv-x="1124" 
d="M562 981q-99 0 -169 -46t-98 -114v-540q29 -68 99 -114t168 -46q99 0 169 46t98 114v540q-29 68 -98 114q-70 46 -169 46zM563 1130q180 0 294 -82t157 -188v-616q-43 -106 -157 -190t-294 -83q-180 0 -295 83t-157 190v616q43 106 157 189q115 81 295 81zM883 1462v-135
h-645v135h645z" />
    <glyph glyph-name="Obreve" unicode="&#x14e;" horiz-adv-x="1282" 
d="M642 1303q-118 1 -201 -55t-115 -140v-780q33 -84 115 -140q83 -55 201 -55t200 55t114 140v780q-32 84 -114 140t-200 55zM641 1462q205 0 333 -93t183 -218v-866q-55 -127 -183 -220t-333 -93t-333 92q-128 94 -183 221v866q55 125 183 218t333 93zM938 1792v-115
q-76 -158 -297 -157q-119 0 -193 46t-106 111v115h141v-76q11 -30 51 -56t106 -26t106 28q38 28 51 54v76h141z" />
    <glyph glyph-name="obreve" unicode="&#x14f;" horiz-adv-x="1124" 
d="M562 981q-99 0 -169 -46t-98 -114v-540q29 -68 99 -114t168 -46q99 0 169 46t98 114v540q-29 68 -98 114q-70 46 -169 46zM563 1130q180 0 294 -82t157 -188v-616q-43 -106 -157 -190t-294 -83q-180 0 -295 83t-157 190v616q43 106 157 189q115 81 295 81zM858 1505v-114
q-76 -156 -298 -156t-298 156v114h141v-75q11 -29 51 -56q40 -26 106 -26t106 28q39 28 51 54v75h141z" />
    <glyph glyph-name="Ohungarumlaut" unicode="&#x150;" horiz-adv-x="1282" 
d="M642 1303q-118 1 -201 -55t-115 -140v-780q33 -84 115 -140q83 -55 201 -55t200 55t114 140v780q-32 84 -114 140t-200 55zM641 1462q205 0 333 -93t183 -218v-866q-55 -127 -183 -220t-333 -93t-333 92q-128 94 -183 221v866q55 125 183 218t333 93zM1010 1853v-75
l-123 -236h-121v31l94 280h150zM643 1853v-75l-123 -236h-121v31l97 280h147z" />
    <glyph glyph-name="ohungarumlaut" unicode="&#x151;" horiz-adv-x="1124" 
d="M562 981q-99 0 -169 -46t-98 -114v-540q29 -68 99 -114t168 -46q99 0 169 46t98 114v540q-29 68 -98 114q-70 46 -169 46zM563 1130q180 0 294 -82t157 -188v-616q-43 -106 -157 -190t-294 -83q-180 0 -295 83t-157 190v616q43 106 157 189q115 81 295 81zM920 1554v-75
l-123 -246h-121v33l94 288h150zM553 1554v-75l-123 -246h-121v33l97 288h147z" />
    <glyph glyph-name="OE" unicode="&#x152;" horiz-adv-x="1908" 
d="M640 133q118 0 199 55t115 140v780q-33 84 -114 139q-82 55 -200 55t-200 -54q-82 -56 -116 -140v-780q33 -84 115 -140q83 -55 201 -55zM1155 160h660v-160h-861v55q-136 -84 -328 -84q-192 -1 -320 93t-183 221v866q55 125 183 218t320 93t328 -84v56h842v-160h-641
v-457h598v-158h-598v-499z" />
    <glyph glyph-name="oe" unicode="&#x153;" horiz-adv-x="1822" 
d="M1282 981q-98 0 -166.5 -45t-101.5 -115v-162h534v160q-29 70 -98.5 116t-167.5 46zM562.5 981q-99.5 0 -169 -46t-98.5 -114v-540q29 -68 98.5 -114t168.5 -46t168.5 46t98.5 114v540q-29 68 -98 114t-168.5 46zM1722 518h-708v-237q33 -70 101.5 -115t164.5 -45
q205 0 287 198h155v-96q-43 -94 -153.5 -173t-288.5 -79q-221 0 -358 138q-137 -137 -359 -138q-180 0 -294.5 83t-157.5 190v616q43 106 157.5 188t294.5 82q219 0 359 -135q139 135 358 135q178 0 288.5 -78.5t153.5 -172.5v-361z" />
    <glyph glyph-name="Racute" unicode="&#x154;" horiz-adv-x="1214" 
d="M350 1274v-508h293q178 0 262 147v213q-80 147 -262 148h-293zM1120 0h-153l-392 606h-225v-606h-200v1434h536q129 0 237.5 -64.5t172.5 -177.5v-340q-103 -189 -308 -234l332 -495v-123zM518 1542v33l131 280h172v-88l-166 -225h-137z" />
    <glyph glyph-name="racute" unicode="&#x155;" horiz-adv-x="727" 
d="M637 1104q20 0 43 -2v-170q-25 2 -49 2q-213 0 -314 -119v-815h-188v1102h178v-144q111 146 330 146zM635 1567v-88l-164 -232h-141v31l131 289h174z" />
    <glyph glyph-name="Rcommaaccent" unicode="&#x156;" horiz-adv-x="1214" 
d="M604 -125q80 0 103 -31v-192q-10 -29 -43 -54.5t-86 -25.5h-64v68h47q37 0 49 20v57h-4q-82 0 -100 29v98q18 31 98 31zM350 1274v-508h293q178 0 262 147v213q-80 147 -262 148h-293zM1120 0h-153l-392 606h-225v-606h-200v1434h536q129 0 237.5 -64.5t172.5 -177.5
v-340q-103 -189 -308 -234l332 -495v-123z" />
    <glyph glyph-name="rcommaaccent" unicode="&#x157;" horiz-adv-x="727" 
d="M219 -125q80 0 103 -31v-192q-10 -29 -43 -54.5t-86 -25.5h-64v68h47q37 0 49 20v57h-4q-82 0 -100 29v98q18 31 98 31zM637 1104q20 0 43 -2v-170q-25 2 -49 2q-213 0 -314 -119v-815h-188v1102h178v-144q111 146 330 146z" />
    <glyph glyph-name="Rcaron" unicode="&#x158;" horiz-adv-x="1214" 
d="M350 1274v-508h293q178 0 262 147v213q-80 147 -262 148h-293zM1120 0h-153l-392 606h-225v-606h-200v1434h536q129 0 237.5 -64.5t172.5 -177.5v-340q-103 -189 -308 -234l332 -495v-123zM303 1855h129l174 -217l174 217h129v-32l-180 -281h-244l-182 281v32z" />
    <glyph glyph-name="rcaron" unicode="&#x159;" horiz-adv-x="727" 
d="M637 1104q20 0 43 -2v-170q-25 2 -49 2q-213 0 -314 -119v-815h-188v1102h178v-144q111 146 330 146zM713 1563v-33l-181 -287h-243l-183 287v33h130l174 -224l174 224h129z" />
    <glyph glyph-name="Sacute" unicode="&#x15a;" horiz-adv-x="1200" 
d="M596 1462q176 0 298 -72.5t173 -164.5v-111h-172q-31 84 -106.5 136.5t-183 52.5t-180.5 -39t-103 -97v-196q25 -43 68.5 -70t152.5 -55l137 -37q188 -49 274 -109.5t136 -142.5v-313q-51 -91 -168 -182t-325 -91t-331 84t-176 187v110h174q27 -92 115 -155.5t209 -63.5
t197.5 49t109.5 117v182q-53 109 -248 156l-135 33q-172 43 -249 91t-136 136v328q53 92 173 164.5t296 72.5zM827 1855v-88l-165 -225h-138v33l131 280h172z" />
    <glyph glyph-name="sacute" unicode="&#x15b;" horiz-adv-x="997" 
d="M498 1130q150 0 250 -56t145 -120v-96h-156q-61 125 -239 125q-141 0 -217 -86v-149q41 -66 188 -99l113 -26q266 -61 331 -179v-272q-29 -43 -70.5 -82t-136 -79t-208.5 -40q-272 0 -414 201v98h156q78 -152 258 -151q86 0 148.5 33.5t90.5 78.5v140q-39 68 -190 102
l-117 27q-244 53 -326 176v278q136 176 394 176zM739 1567v-88l-164 -232h-141v31l131 289h174z" />
    <glyph glyph-name="Scircumflex" unicode="&#x15c;" horiz-adv-x="1200" 
d="M596 1462q176 0 298 -72.5t173 -164.5v-111h-172q-31 84 -106.5 136.5t-183 52.5t-180.5 -39t-103 -97v-196q25 -43 68.5 -70t152.5 -55l137 -37q188 -49 274 -109.5t136 -142.5v-313q-51 -91 -168 -182t-325 -91t-331 84t-176 187v110h174q27 -92 115 -155.5t209 -63.5
t197.5 49t109.5 117v182q-53 109 -248 156l-135 33q-172 43 -249 91t-136 136v328q53 92 173 164.5t296 72.5zM915 1542h-129l-174 217l-174 -217h-129v33l183 280h243l180 -280v-33z" />
    <glyph glyph-name="scircumflex" unicode="&#x15d;" horiz-adv-x="997" 
d="M498 1130q150 0 250 -56t145 -120v-96h-156q-61 125 -239 125q-141 0 -217 -86v-149q41 -66 188 -99l113 -26q266 -61 331 -179v-272q-29 -43 -70.5 -82t-136 -79t-208.5 -40q-272 0 -414 201v98h156q78 -152 258 -151q86 0 148.5 33.5t90.5 78.5v140q-39 68 -190 102
l-117 27q-244 53 -326 176v278q136 176 394 176zM817 1243h-129l-174 223l-174 -223h-129v33l182 287h244l180 -287v-33z" />
    <glyph glyph-name="Scedilla" unicode="&#x15e;" horiz-adv-x="1200" 
d="M799 -346q-45 -107 -233 -107q-102 0 -175 47l35 95q82 -39 156 -39t94 49v61q-20 43 -96 43h-123l59 172q-170 18 -274.5 97.5t-151.5 169.5v110h174q27 -92 115 -155.5t209 -63.5t197.5 49t109.5 117v184q-53 109 -248 156l-135 33q-172 43 -249 91t-136 136v326
q53 92 173 164.5t296 72.5t298 -72.5t173 -164.5v-111h-172q-31 84 -106.5 136.5t-183 52.5t-180.5 -39t-103 -97v-196q25 -43 68.5 -70t152.5 -55l137 -37q188 -49 274 -109.5t136 -142.5v-313q-141 -254 -453 -271l-33 -79h23q129 0 172 -95v-145z" />
    <glyph glyph-name="scedilla" unicode="&#x15f;" horiz-adv-x="997" 
d="M715 -346q-45 -107 -233 -107q-102 0 -175 47l35 95q82 -39 156 -39t94 49v61q-20 43 -96 43h-123l59 172q-225 23 -348 197v98h156q78 -152 258 -151q86 0 148.5 33.5t90.5 78.5v140q-39 68 -190 102l-117 27q-244 53 -326 176v278q135 176 394 176q150 0 250 -56
t145 -120v-96h-156q-61 125 -239 125q-141 0 -217 -86v-149q41 -66 188 -99l113 -26q266 -61 331 -179v-272q-127 -178 -360 -199l-33 -79h23q129 0 172 -95v-145z" />
    <glyph glyph-name="Scaron" unicode="&#x160;" horiz-adv-x="1200" 
d="M596 1462q176 0 298 -72.5t173 -164.5v-111h-172q-31 84 -106.5 136.5t-183 52.5t-180.5 -39t-103 -97v-196q25 -43 68.5 -70t152.5 -55l137 -37q188 -49 274 -109.5t136 -142.5v-313q-51 -91 -168 -182t-325 -91t-331 84t-176 187v110h174q27 -92 115 -155.5t209 -63.5
t197.5 49t109.5 117v182q-53 109 -248 156l-135 33q-172 43 -249 91t-136 136v328q53 92 173 164.5t296 72.5zM915 1855v-32l-180 -281h-243l-183 281v32h129l174 -217l174 217h129z" />
    <glyph glyph-name="scaron" unicode="&#x161;" horiz-adv-x="997" 
d="M498 1130q150 0 250 -56t145 -120v-96h-156q-61 125 -239 125q-141 0 -217 -86v-149q41 -66 188 -99l113 -26q266 -61 331 -179v-272q-29 -43 -70.5 -82t-136 -79t-208.5 -40q-272 0 -414 201v98h156q78 -152 258 -151q86 0 148.5 33.5t90.5 78.5v140q-39 68 -190 102
l-117 27q-244 53 -326 176v278q136 176 394 176zM817 1563v-33l-180 -287h-244l-182 287v33h129l174 -224l174 224h129z" />
    <glyph glyph-name="uni0162" unicode="&#x162;" horiz-adv-x="1085" 
d="M758 -346q-52 -107 -236 -107q-102 0 -174 47l35 95q82 -39 155.5 -39t94.5 49v61q-20 43 -94 43h-125l69 197h-41v1274h-391v160h983v-160h-391v-1274h-39l-41 -106h21q131 0 174 -95v-145z" />
    <glyph glyph-name="uni0163" unicode="&#x163;" horiz-adv-x="720" 
d="M649 -346q-51 -107 -235 -107q-102 0 -174 47l34 95q82 -39 156 -39t94 49v61q-20 43 -94 43h-125l70 197q-135 43 -191 168v793h-139v141h139v235h187v-235h274v-141h-274v-730q55 -104 219 -104q41 0 96 6v-135q-60 -18 -160 -18l-37 2l-34 -88h22q66 0 110 -28t62 -67
v-145z" />
    <glyph glyph-name="Tcaron" unicode="&#x164;" horiz-adv-x="1085" 
d="M1034 1434v-160h-391v-1274h-201v1274h-391v160h983zM846 1855v-32l-180 -281h-244l-182 281v32h129l174 -217l174 217h129z" />
    <glyph glyph-name="tcaron" unicode="&#x165;" horiz-adv-x="804" 
d="M590 127q41 0 96 6v-135q-74 -18 -160 -18q-260 0 -342 188v793h-139v141h139v235h187v-235h274v-141h-274v-730q55 -104 219 -104zM729 1620v-100l-74 -267h-120v33l38 334h156z" />
    <glyph glyph-name="Tbar" unicode="&#x166;" horiz-adv-x="1085" 
d="M1034 1274h-391v-440h283v-127h-283v-707h-201v707h-280v127h280v440h-391v160h983v-160z" />
    <glyph glyph-name="tbar" unicode="&#x167;" horiz-adv-x="720" 
d="M590 127q41 0 96 6v-135q-74 -18 -160 -18q-260 0 -342 188v348h-139v141h139v304h-139v141h139v235h187v-235h274v-141h-274v-304h274v-141h-274v-285q55 -104 219 -104z" />
    <glyph glyph-name="Utilde" unicode="&#x168;" horiz-adv-x="1314" 
d="M1174 1434v-1149q-56 -127 -184 -220t-333 -93t-333 94t-183 219v1149h201v-1104q33 -82 116 -138q82 -56 200 -57q118 0 200 56t115 139v1104h201zM515 1780q71 0 152 -54t117 -55q66 0 84 58v38h117v-90q-18 -57 -66 -94t-121 -37t-152 56t-116 55q-59 0 -84 -60v-41
h-116v91q18 61 66 97t119 36z" />
    <glyph glyph-name="utilde" unicode="&#x169;" horiz-adv-x="1120" 
d="M803 1102h186v-1102h-174v88q-121 -113 -311 -113q-266 0 -381 224v903h186v-856q76 -121 241 -121t253 108v869zM350 1280h-117v90q19 59 67 95t119 36t151 -54t118 -54q66 0 84 59v39h117v-90q-17 -57 -65 -95t-120 -38t-153 55q-80 55 -127 55t-74 -57v-41z" />
    <glyph glyph-name="Umacron" unicode="&#x16a;" horiz-adv-x="1314" 
d="M1174 1434v-1149q-56 -127 -184 -220t-333 -93t-333 94t-183 219v1149h201v-1104q33 -82 116 -138q82 -56 200 -57q118 0 200 56t115 139v1104h201zM979 1718v-137h-645v137h645z" />
    <glyph glyph-name="umacron" unicode="&#x16b;" horiz-adv-x="1120" 
d="M803 1102h186v-1102h-174v88q-121 -113 -311 -113q-266 0 -381 224v903h186v-856q76 -121 241 -121t253 108v869zM883 1462v-135h-645v135h645z" />
    <glyph glyph-name="Ubreve" unicode="&#x16c;" horiz-adv-x="1314" 
d="M1174 1434v-1149q-56 -127 -184 -220t-333 -93t-333 94t-183 219v1149h201v-1104q33 -82 116 -138q82 -56 200 -57q118 0 200 56t115 139v1104h201zM954 1792v-115q-76 -158 -297 -157q-119 0 -193 46t-106 111v115h142v-76q12 -30 51 -56t105 -26t106 28q39 28 51 54v76
h141z" />
    <glyph glyph-name="ubreve" unicode="&#x16d;" horiz-adv-x="1120" 
d="M803 1102h186v-1102h-174v88q-121 -113 -311 -113q-266 0 -381 224v903h186v-856q76 -121 241 -121t253 108v869zM560 1235q-222 0 -298 156v114h141v-75q11 -29 51 -56q40 -26 106 -26t106 28q39 28 51 54v75h141v-114q-76 -156 -298 -156z" />
    <glyph glyph-name="Uring" unicode="&#x16e;" horiz-adv-x="1314" 
d="M1174 1434v-1149q-56 -127 -184 -220t-333 -93t-333 94t-183 219v1149h201v-1104q33 -82 116 -138q82 -56 200 -57q118 0 200 56t115 139v1104h201zM658 1710q-83 0 -119 -51v-117q37 -51 119 -51t116 51v117q-33 51 -116 51zM657 1802q75 0 135 -32t85 -78v-183
q-25 -49 -83 -81t-136 -32t-136 32q-59 32 -86 81v183q27 46 86 78t135 32z" />
    <glyph glyph-name="uring" unicode="&#x16f;" horiz-adv-x="1120" 
d="M803 1102h186v-1102h-174v88q-121 -113 -311 -113q-266 0 -381 224v903h186v-856q76 -121 241 -121t253 108v869zM560 1317q83 0 116 51v117q-33 51 -116 51t-120 -51v-117q37 -51 120 -51zM559 1225q-78 1 -136 31t-85 79v183q27 50 85 80t136 30t136 -32t83 -78v-183
q-25 -47 -83 -79t-136 -31z" />
    <glyph glyph-name="Uhungarumlaut" unicode="&#x170;" horiz-adv-x="1314" 
d="M1174 1434v-1149q-56 -127 -184 -220t-333 -93t-333 94t-183 219v1149h201v-1104q33 -82 116 -138q82 -56 200 -57q118 0 200 56t115 139v1104h201zM1026 1853v-75l-123 -236h-121v31l95 280h149zM659 1853v-75l-122 -236h-121v31l96 280h147z" />
    <glyph glyph-name="uhungarumlaut" unicode="&#x171;" horiz-adv-x="1120" 
d="M803 1102h186v-1102h-174v88q-121 -113 -311 -113q-266 0 -381 224v903h186v-856q76 -121 241 -121t253 108v869zM676 1233v33l94 288h150v-75l-123 -246h-121zM309 1233v33l97 288h147v-75l-123 -246h-121z" />
    <glyph glyph-name="Uogonek" unicode="&#x172;" horiz-adv-x="1314" 
d="M1174 1434v-1149q-42 -103 -146 -193t-176 -182t-86 -125v-64q23 -39 92 -39t119 21v-115q-61 -30 -139 -30t-136 26q-57 26 -77 72v143q41 90 145 183q-57 -10 -113 -11q-205 1 -333 95t-183 219v1149h201v-1104q33 -82 116 -138q82 -56 200 -57q118 0 200 56t115 139
v1104h201z" />
    <glyph glyph-name="uogonek" unicode="&#x173;" horiz-adv-x="1120" 
d="M504 -25q-266 0 -381 224v903h186v-856q76 -121 241 -121t253 108v869h186v-1102q-176 -133 -209 -215v-64q24 -39 92 -39t117 21v-115q-57 -30 -136 -30q-168 1 -216 98v143q49 104 178 203v86q-121 -113 -311 -113z" />
    <glyph glyph-name="Wcircumflex" unicode="&#x174;" horiz-adv-x="1841" 
d="M1767 1434v-123l-270 -1311h-287l-292 1135h-7l-293 -1135h-274l-270 1311v123h178l244 -1248h6l317 1248h203l319 -1248h7l245 1248h174zM1225 1542h-129l-174 217l-174 -217h-130v33l183 280h243l181 -280v-33z" />
    <glyph glyph-name="wcircumflex" unicode="&#x175;" horiz-adv-x="1591" 
d="M1522 1102v-113l-258 -989h-226l-233 840h-6l-236 -840h-225l-260 989v113h160l221 -905h6l250 905h184l246 -905h6l219 905h152zM1100 1243h-129l-174 223l-174 -223h-129v33l182 287h244l180 -287v-33z" />
    <glyph glyph-name="Ycircumflex" unicode="&#x176;" horiz-adv-x="1144" 
d="M1075 1434v-123l-405 -701v-610h-203v629l-397 682v123h149l354 -627h7l350 627h145zM874 1542h-129l-174 217l-174 -217h-129v33l183 280h243l180 -280v-33z" />
    <glyph glyph-name="ycircumflex" unicode="&#x177;" horiz-adv-x="1038" 
d="M971 1102v-111l-406 -1190q-111 -156 -350 -155q-86 0 -133 14v135q49 -4 80 -4q174 0 250 94l30 107l-366 995v115h160l296 -877h7l282 877h150zM823 1243h-129l-174 223l-174 -223h-129v33l182 287h244l180 -287v-33z" />
    <glyph glyph-name="Ydieresis" unicode="&#x178;" horiz-adv-x="1144" 
d="M1075 1434v-123l-405 -701v-610h-203v629l-397 682v123h149l354 -627h7l350 627h145zM776 1788q72 0 107 -41v-131q-35 -41 -107 -41t-100 41v131q28 41 100 41zM364 1788q72 0 101 -41v-131q-29 -41 -101 -41t-106 41v131q34 41 106 41z" />
    <glyph glyph-name="Zacute" unicode="&#x179;" horiz-adv-x="1153" 
d="M1059 1434v-136l-731 -1138h731v-160h-969v135l733 1139h-717v160h953zM791 1855v-88l-166 -225h-138v33l131 280h173z" />
    <glyph glyph-name="zacute" unicode="&#x17a;" horiz-adv-x="966" 
d="M903 1102v-123l-629 -838h629v-141h-840v131l619 830h-602v141h823zM702 1567v-88l-163 -232h-142v31l131 289h174z" />
    <glyph glyph-name="Zdotaccent" unicode="&#x17b;" horiz-adv-x="1153" 
d="M1059 1434v-136l-731 -1138h731v-160h-969v135l733 1139h-717v160h953zM573 1798q84 0 111 -53v-107q-25 -51 -111 -51t-106 51v107q22 53 106 53z" />
    <glyph glyph-name="zdotaccent" unicode="&#x17c;" horiz-adv-x="966" 
d="M903 1102v-123l-629 -838h629v-141h-840v131l619 830h-602v141h823zM475 1489q84 0 111 -53v-107q-25 -51 -111 -51t-106 51v107q22 53 106 53z" />
    <glyph glyph-name="Zcaron" unicode="&#x17d;" horiz-adv-x="1153" 
d="M1059 1434v-136l-731 -1138h731v-160h-969v135l733 1139h-717v160h953zM879 1855v-32l-181 -281h-243l-183 281v32h129l174 -217l175 217h129z" />
    <glyph glyph-name="zcaron" unicode="&#x17e;" horiz-adv-x="966" 
d="M903 1102v-123l-629 -838h629v-141h-840v131l619 830h-602v141h823zM780 1563v-33l-180 -287h-244l-182 287v33h129l174 -224l174 224h129z" />
    <glyph glyph-name="longs" unicode="&#x17f;" horiz-adv-x="667" 
d="M473 1462q96 0 158 -18v-135q-33 8 -94 8q-162 0 -220 -107v-1210h-188v1274q82 188 344 188z" />
    <glyph glyph-name="florin" unicode="&#x192;" horiz-adv-x="886" 
d="M721 1315q-160 0 -213 -111v-149h295v-140h-295v-1099q-80 -188 -336 -189q-109 0 -164 19v127h103q160 0 213 108v1034h-158v140h158v215q80 190 333 190q100 0 168 -20v-125h-104z" />
    <glyph glyph-name="Scommaaccent" unicode="&#x218;" horiz-adv-x="1200" 
d="M592 -125q80 0 102 -31v-192q-10 -29 -43 -54.5t-86 -25.5h-63v68h47q37 0 49 20v57h-4q-82 0 -100 29v98q18 31 98 31zM90 352h174q27 -92 115 -155.5t209 -63.5t197.5 49t109.5 117v182q-53 109 -248 156l-135 33q-172 43 -249 91t-136 136v328q53 92 173 164.5
t296 72.5t298 -72.5t173 -164.5v-111h-172q-31 84 -106.5 136.5t-183 52.5t-180.5 -39t-103 -97v-196q25 -43 68.5 -70t152.5 -55l137 -37q188 -49 274 -109.5t136 -142.5v-313q-51 -91 -168 -182t-325 -91t-331 84t-176 187v110z" />
    <glyph glyph-name="scommaaccent" unicode="&#x219;" horiz-adv-x="997" 
d="M508 -125q80 0 102 -31v-192q-10 -29 -42.5 -54.5t-86.5 -25.5h-63v68h47q37 0 49 20v57h-4q-82 0 -100 29v98q18 31 98 31zM498 -29q-272 0 -414 201v98h156q78 -152 258 -151q86 0 148.5 33.5t90.5 78.5v140q-39 68 -190 102l-117 27q-244 53 -326 176v278
q135 176 394 176q150 0 250 -56t145 -120v-96h-156q-61 125 -239 125q-141 0 -217 -86v-149q41 -66 188 -99l113 -26q266 -61 331 -179v-272q-29 -43 -70.5 -82t-136 -79t-208.5 -40z" />
    <glyph glyph-name="uni021A" unicode="&#x21a;" horiz-adv-x="1085" 
d="M541 -125q80 0 102 -31v-192q-10 -29 -43 -54.5t-86 -25.5h-63v68h47q37 0 49 20v57h-4q-82 0 -101 29v98q19 31 99 31zM51 1434h983v-160h-391v-1274h-201v1274h-391v160z" />
    <glyph glyph-name="uni021B" unicode="&#x21b;" horiz-adv-x="720" 
d="M440 -125q80 0 103 -31v-192q-10 -29 -43 -54.5t-86 -25.5h-64v68h47q37 0 49 20v57h-4q-82 0 -100 29v98q18 31 98 31zM590 127q41 0 96 6v-135q-59 -18 -160 -18q-260 0 -342 188v793h-139v141h139v235h187v-235h274v-141h-274v-730q55 -104 219 -104z" />
    <glyph glyph-name="uni0237" unicode="&#x237;" horiz-adv-x="448" 
d="M317 1102v-1198q-43 -106 -157 -190q-115 -83 -295 -83v148q100 0 168 48t96 122v1153h188z" />
    <glyph glyph-name="circumflex" unicode="&#x2c6;" 
d="M745 1243h-129l-174 223l-174 -223h-129v33l183 287h243l180 -287v-33z" />
    <glyph glyph-name="caron" unicode="&#x2c7;" 
d="M745 1563v-33l-180 -287h-243l-183 287v33h129l174 -224l174 224h129z" />
    <glyph glyph-name="breve" unicode="&#x2d8;" 
d="M739 1505v-114q-76 -156 -298 -156t-298 156v114h142v-75q12 -29 51 -56q40 -26 106 -26t105 28t51 54v75h141z" />
    <glyph glyph-name="dotaccent" unicode="&#x2d9;" 
d="M440 1489q84 0 111 -53v-107q-27 -51 -112 -51t-105 51v107q22 53 106 53z" />
    <glyph glyph-name="ring" unicode="&#x2da;" 
d="M443 1536q-83 0 -119 -51v-117q38 -51 120 -51t115 51v117q-33 51 -116 51zM442 1628q78 0 136 -32t84 -78v-183q-25 -47 -83 -79q-59 -32 -137 -32t-136 32q-58 30 -85 79v183q27 50 85 80t136 30z" />
    <glyph glyph-name="ogonek" unicode="&#x2db;" 
d="M535 37l96 -37q-131 -115 -178 -215v-64q23 -39 92 -39t119 21v-115q-58 -30 -138 -30q-168 1 -215 98v143q58 125 224 238z" />
    <glyph glyph-name="tilde" unicode="&#x2dc;" 
d="M300 1501q71 0 152 -54t117 -54q66 0 84 59v39h117v-90q-18 -57 -65 -95t-120 -38t-153 55t-127 55t-74 -57v-41h-116v90q18 59 66 95t119 36z" />
    <glyph glyph-name="hungarumlaut" unicode="&#x2dd;" 
d="M752 1554v-75l-123 -246h-121v33l94 288h150zM385 1554v-75l-123 -246h-121v33l97 288h147z" />
    <glyph glyph-name="uni0326" unicode="&#x326;" horiz-adv-x="0" 
d="M-444 -125q80 0 102 -31v-192q-10 -29 -43 -54.5t-86 -25.5h-64v68h48q37 0 49 20v57h-4q-82 0 -101 29v98q19 31 99 31z" />
    <glyph glyph-name="uni037E" unicode="&#x37e;" horiz-adv-x="415" 
d="M207 203q41 -1 72 -17t38 -36v-281q-12 -33 -52 -66t-93 -32h-55v86h43q33 0 47 28v92q-80 0 -107 54v119q27 53 107 53zM211 944q84 0 106 -53v-115q-7 -20 -37 -36t-73 -15q-78 0 -107 51v115q27 53 111 53z" />
    <glyph glyph-name="tonos" unicode="&#x384;" 
d="M594 1563v-88l-164 -242h-139v33l135 297h168z" />
    <glyph glyph-name="dieresistonos" unicode="&#x385;" horiz-adv-x="972" 
d="M838 1460q53 0 88 -35v-106q-25 -35 -88 -35t-88 35v106q35 35 88 35zM229 1460q53 0 88 -35v-106q-25 -35 -88 -35t-88 35v106q35 35 88 35zM666 1563v-88l-129 -201h-115v33l102 256h142z" />
    <glyph glyph-name="Alphatonos" unicode="&#x386;" horiz-adv-x="1247" 
d="M393 561h447l-219 703h-7zM1188 0h-172l-127 403h-545l-127 -403h-156v123l426 1311h273l428 -1311v-123zM-74 1104v33l135 297h168v-88l-163 -242h-140z" />
    <glyph glyph-name="anoteleia" unicode="&#x387;" horiz-adv-x="380" 
d="M188 831q43 0 73 -16t36 -35v-114q-6 -20 -36 -36t-73 -18q-80 0 -106 54v114q29 51 106 51z" />
    <glyph glyph-name="Epsilontonos" unicode="&#x388;" horiz-adv-x="1103" 
d="M991 1434v-160h-641v-457h598v-158h-598v-499h660v-160h-860v1434h841zM2 1434v-88l-164 -242h-139v33l135 297h168z" />
    <glyph glyph-name="Etatonos" unicode="&#x389;" horiz-adv-x="1325" 
d="M1174 1434v-1434h-201v659h-623v-659h-200v1434h200v-615h623v615h201zM2 1434v-88l-164 -242h-139v33l135 297h168z" />
    <glyph glyph-name="Iotatonos" unicode="&#x38a;" horiz-adv-x="499" 
d="M350 1434v-1434h-200v1434h200zM2 1434v-88l-164 -242h-139v33l135 297h168z" />
    <glyph glyph-name="Omicrontonos" unicode="&#x38c;" horiz-adv-x="1282" 
d="M642 1303q-118 1 -201 -55t-115 -140v-780q33 -84 115 -140q83 -55 201 -55t200 55t114 140v780q-32 84 -114 140t-200 55zM39 1434v-88l-164 -242h-139v33l135 297h168zM641 1462q205 0 333 -93t183 -218v-866q-55 -127 -183 -220t-333 -93t-333 92q-128 94 -183 221
v866q55 125 183 218t333 93z" />
    <glyph glyph-name="Upsilontonos" unicode="&#x38e;" horiz-adv-x="1144" 
d="M1075 1434v-123l-405 -701v-610h-203v629l-397 682v123h149l354 -627h7l350 627h145zM-20 1434v-88l-164 -242h-140v33l136 297h168z" />
    <glyph glyph-name="Omegatonos" unicode="&#x38f;" horiz-adv-x="1290" 
d="M39 1434v-88l-164 -242h-139v33l135 297h168zM1161 160v-160h-438v225q88 13 149 69t89 122v690q-33 82 -116 138t-200 56t-200 -56t-115 -138v-690q25 -66 85 -120t152 -71v-225h-438v160h272q-197 76 -272 256v735q55 125 183 218t333 93t333 -93t183 -218v-735
q-33 -80 -103 -149t-171 -107h274z" />
    <glyph glyph-name="iotadieresistonos" unicode="&#x390;" horiz-adv-x="466" 
d="M328 1102v-1102h-189v1102h189zM575 1460q53 0 89 -35v-106q-24 -35 -88 -35t-89 35v106q35 35 88 35zM-33 1460q53 0 88 -35v-106q-25 -35 -88 -35t-88 35v106q35 35 88 35zM403 1563v-88l-129 -201h-114v33l102 256h141z" />
    <glyph glyph-name="Alpha" unicode="&#x391;" horiz-adv-x="1247" 
d="M393 561h447l-219 703h-7zM1188 0h-172l-127 403h-545l-127 -403h-156v123l426 1311h273l428 -1311v-123z" />
    <glyph glyph-name="Beta" unicode="&#x392;" horiz-adv-x="1208" 
d="M668 668h-318v-508h299q193 0 275 145v225q-35 62 -106 100t-150 38zM350 1274v-453h305q69 0 133 38t105 99v172q-35 68 -102 106q-68 38 -154 38h-287zM692 0h-542v1434h530q134 0 238 -69t161 -173v-270q-59 -105 -182 -168q143 -55 213 -174v-336q-56 -102 -160 -173
t-258 -71z" />
    <glyph glyph-name="Gamma" unicode="&#x393;" horiz-adv-x="946" 
d="M895 1434v-160h-545v-1274h-200v1434h745z" />
    <glyph glyph-name="uni0394" unicode="&#x394;" horiz-adv-x="1247" 
d="M268 160h699l-346 1104h-7zM1188 0h-1127v123l426 1311h273l428 -1311v-123z" />
    <glyph glyph-name="Epsilon" unicode="&#x395;" horiz-adv-x="1103" 
d="M991 1434v-160h-641v-457h598v-158h-598v-499h660v-160h-860v1434h841z" />
    <glyph glyph-name="Zeta" unicode="&#x396;" horiz-adv-x="1153" 
d="M1059 1434v-136l-731 -1138h731v-160h-969v135l733 1139h-717v160h953z" />
    <glyph glyph-name="Eta" unicode="&#x397;" horiz-adv-x="1325" 
d="M1174 1434v-1434h-201v659h-623v-659h-200v1434h200v-615h623v615h201z" />
    <glyph glyph-name="Theta" unicode="&#x398;" horiz-adv-x="1282" 
d="M438 805h406v-133h-406v133zM642 1303q-118 1 -201 -55t-115 -140v-780q33 -84 115 -140q83 -55 201 -55t200 55t114 140v780q-32 84 -114 140t-200 55zM641 1462q205 0 333 -93t183 -218v-866q-55 -127 -183 -220t-333 -93t-333 92q-128 94 -183 221v866q55 125 183 218
t333 93z" />
    <glyph glyph-name="Iota" unicode="&#x399;" horiz-adv-x="499" 
d="M350 1434v-1434h-200v1434h200z" />
    <glyph glyph-name="Kappa" unicode="&#x39a;" horiz-adv-x="1214" 
d="M1151 0h-150l-471 711l-180 -191v-520h-200v1434h200v-672l625 672h119v-123l-432 -459l489 -729v-123z" />
    <glyph glyph-name="Lambda" unicode="&#x39b;" horiz-adv-x="1245" 
d="M1184 0h-187l-381 1231h-6l-379 -1231h-170v123l422 1311h277l424 -1311v-123z" />
    <glyph glyph-name="Mu" unicode="&#x39c;" horiz-adv-x="1630" 
d="M1481 1434v-1434h-189v1212h-6l-397 -866h-148l-397 866h-6v-1212h-188v1434h286l381 -830h6l375 830h283z" />
    <glyph glyph-name="Nu" unicode="&#x39d;" horiz-adv-x="1353" 
d="M1204 1434v-1434h-254l-606 1167h-6v-1167h-188v1434h253l607 -1168h6v1168h188z" />
    <glyph glyph-name="Xi" unicode="&#x39e;" horiz-adv-x="1167" 
d="M1053 1434v-160h-371v-457h301v-160h-301v-497h381v-160h-963v160h385v497h-303v160h303v457h-374v160h942z" />
    <glyph glyph-name="Omicron" unicode="&#x39f;" horiz-adv-x="1282" 
d="M642 1303q-118 1 -201 -55t-115 -140v-780q33 -84 115 -140q83 -55 201 -55t200 55t114 140v780q-32 84 -114 140t-200 55zM641 1462q205 0 333 -93t183 -218v-866q-55 -127 -183 -220t-333 -93t-333 92q-128 94 -183 221v866q55 125 183 218t333 93z" />
    <glyph glyph-name="Pi" unicode="&#x3a0;" horiz-adv-x="1312" 
d="M1163 1434v-1434h-200v1274h-613v-1274h-200v1434h1013z" />
    <glyph glyph-name="Rho" unicode="&#x3a1;" horiz-adv-x="1171" 
d="M627 1274h-277v-551h277q182 0 260 147v256q-78 148 -260 148zM672 1434q128 0 238 -64t173 -178v-387q-59 -106 -165 -174t-246 -68h-322v-563h-200v1434h522z" />
    <glyph glyph-name="Sigma" unicode="&#x3a3;" horiz-adv-x="1155" 
d="M1042 1434v-160h-700l385 -533l-401 -581h733v-160h-969v137l412 598l-391 545v154h931z" />
    <glyph glyph-name="Tau" unicode="&#x3a4;" horiz-adv-x="1085" 
d="M1034 1434v-160h-391v-1274h-201v1274h-391v160h983z" />
    <glyph glyph-name="Upsilon" unicode="&#x3a5;" horiz-adv-x="1144" 
d="M1075 1434v-123l-405 -701v-610h-203v629l-397 682v123h149l354 -627h7l350 627h145z" />
    <glyph glyph-name="Phi" unicode="&#x3a6;" horiz-adv-x="1552" 
d="M915 1190h-49v-934h49q97 0 191 52t135 126v578q-41 74 -135 126t-191 52zM639 256h47v934h-47q-99 0 -193 -52t-135 -126v-578q41 -74 135 -126t193 -52zM930 1346q156 0 296 -85t201 -208v-660q-61 -123 -201 -208t-296 -85h-64v-141h-180v141h-61q-156 0 -296 85
t-204 208v660q63 123 203 208t297 85h61v129h180v-129h64z" />
    <glyph glyph-name="Chi" unicode="&#x3a7;" horiz-adv-x="1196" 
d="M1092 1434v-123l-359 -576l373 -612v-123h-162l-348 602h-6l-352 -602h-150v123l373 610l-357 578v123h160l338 -576h6l334 576h150z" />
    <glyph glyph-name="Psi" unicode="&#x3a8;" horiz-adv-x="1513" 
d="M1194 1434h190v-869q-59 -113 -185 -193t-308 -81h-45v-291h-182v291h-39q-184 0 -310 81q-125 81 -186 193v869h188v-818q35 -66 117 -116t199 -51h31v985h182v-985h33q117 0 199 51t116 116v818z" />
    <glyph glyph-name="uni03A9" unicode="&#x3a9;" horiz-adv-x="1290" 
d="M1161 160v-160h-438v225q88 13 149 69t89 122v690q-33 82 -116 138t-200 56t-200 -56t-115 -138v-690q25 -66 85 -120t152 -71v-225h-438v160h272q-197 76 -272 256v735q55 125 183 218t333 93t333 -93t183 -218v-735q-33 -80 -103 -149t-171 -107h274z" />
    <glyph glyph-name="Iotadieresis" unicode="&#x3aa;" horiz-adv-x="499" 
d="M350 1434v-1434h-200v1434h200zM457 1788q72 0 106 -41v-131q-35 -41 -107 -41t-100 41v131q29 41 101 41zM45 1788q72 0 100 -41v-131q-29 -41 -101 -41t-105 41v131q34 41 106 41z" />
    <glyph glyph-name="Upsilondieresis" unicode="&#x3ab;" horiz-adv-x="1144" 
d="M1075 1434v-123l-405 -701v-610h-203v629l-397 682v123h149l354 -627h7l350 627h145zM776 1788q72 0 107 -41v-131q-35 -41 -107 -41t-100 41v131q28 41 100 41zM364 1788q72 0 101 -41v-131q-29 -41 -101 -41t-106 41v131q34 41 106 41z" />
    <glyph glyph-name="alphatonos" unicode="&#x3ac;" horiz-adv-x="1120" 
d="M543 125q170 0 260 108v637q-88 106 -260 106t-246 -120v-608q76 -123 246 -123zM809 1102h180v-1102h-180v88q-121 -113 -296 -113t-267 71t-135 157v696q41 86 134 157q93 70 269 70t295 -112v88zM487 1233v33l136 297h168v-88l-164 -242h-140z" />
    <glyph glyph-name="epsilontonos" unicode="&#x3ad;" horiz-adv-x="1073" 
d="M995 258v-86q-154 -201 -446 -201q-172 -1 -283 63t-166 140v219q72 133 199 178q-117 43 -184 158v189q51 82 157 148t278 64q172 0 284 -68q111 -68 157 -142v-80h-164q-29 59 -101 100t-173 41q-174 0 -256 -123v-98q74 -123 238 -123h145v-139h-145q-82 0 -149 -35
t-99 -96v-131q100 -115 268 -115q100 0 176 43t105 94h159zM475 1233v33l135 297h168v-88l-164 -242h-139z" />
    <glyph glyph-name="etatonos" unicode="&#x3ae;" horiz-adv-x="1136" 
d="M610 1126q175 0 268 -70t134 -157v-1239h-187v1196q-75 121 -247 121t-261 -107v-870h-186v1102h176v-88q128 112 303 112zM489 1233v33l134 297h168v-88l-164 -242h-138z" />
    <glyph glyph-name="iotatonos" unicode="&#x3af;" horiz-adv-x="466" 
d="M328 1102v-1102h-189v1102h189zM463 1563v-88l-164 -242h-139v33l135 297h168z" />
    <glyph glyph-name="upsilondieresistonos" unicode="&#x3b0;" horiz-adv-x="1114" 
d="M989 1102v-895q-41 -84 -149 -160t-283 -76q-121 0 -219 45q-98 44 -143 92t-72 99v895h186v-846q27 -45 89 -86t158 -41t160 41q62 41 89 86v846h184zM867 1460q52 0 87 -35v-106q-25 -35 -87 -35t-87 35v106q35 35 87 35zM259 1460q52 0 87 -35v-106q-25 -35 -87 -35
t-87 35v106q35 35 87 35zM696 1563v-88l-129 -201h-114v33l102 256h141z" />
    <glyph glyph-name="alpha" unicode="&#x3b1;" horiz-adv-x="1120" 
d="M543 125q170 0 260 108v637q-88 106 -260 106t-246 -120v-608q76 -123 246 -123zM809 1102h180v-1102h-180v88q-121 -113 -296 -113t-267 71t-135 157v696q41 86 134 157q93 70 269 70t295 -112v88z" />
    <glyph glyph-name="beta" unicode="&#x3b2;" horiz-adv-x="1134" 
d="M586 709h-66v139h49q156 0 232 117v221q-84 125 -240 125q-84 0 -146 -40t-98 -97v-908q33 -55 104 -96t167 -41t166 47q69 47 96 115v256q-35 82 -108 122t-156 40zM612 -25q-178 0 -295 111v-426h-186v1561q55 98 163 170q108 71 264 71t261 -63q104 -63 162 -148v-323
q-61 -95 -178 -140q174 -61 233 -210v-334q-39 -106 -142 -188q-104 -82 -282 -81z" />
    <glyph glyph-name="gamma" unicode="&#x3b3;" horiz-adv-x="1052" 
d="M981 1102v-113l-363 -985v-344h-184v340l-364 989v113h159l295 -866h6l299 866h152z" />
    <glyph glyph-name="delta" unicode="&#x3b4;" horiz-adv-x="1122" 
d="M562 860q-99 0 -169 -47t-98 -115v-411q29 -68 99 -115t168 -47q99 0 169 46q69 46 98 116v411q-29 70 -98 116q-70 46 -169 46zM563 -29q-180 0 -295 83t-157 190v467q72 168 264 221q-135 49 -189 141v221q139 168 384 168t388 -168v-77h-159q-81 104 -219 104
t-222 -84v-129q59 -84 177 -100l114 -21q143 -25 237 -99q93 -75 128 -163v-481q-43 -106 -157 -190t-294 -83z" />
    <glyph glyph-name="epsilon" unicode="&#x3b5;" horiz-adv-x="1073" 
d="M995 258v-86q-154 -201 -446 -201q-172 -1 -283 63t-166 140v219q72 133 199 178q-117 43 -184 158v189q51 82 157 148t278 64q172 0 284 -68q111 -68 157 -142v-80h-164q-29 59 -101 100t-173 41q-174 0 -256 -123v-98q74 -123 238 -123h145v-139h-145q-82 0 -149 -35
t-99 -96v-131q100 -115 268 -115q100 0 176 43t105 94h159z" />
    <glyph glyph-name="zeta" unicode="&#x3b6;" horiz-adv-x="997" 
d="M909 152v-408h-164v256h-247q-152 0 -249 66t-149 149v330q45 119 136 215l483 528h-576v146h795v-140l-549 -614q-74 -84 -102 -168v-246q100 -115 266 -114h356z" />
    <glyph glyph-name="eta" unicode="&#x3b7;" horiz-adv-x="1136" 
d="M610 1126q175 0 268 -70t134 -157v-1239h-187v1196q-75 121 -247 121t-261 -107v-870h-186v1102h176v-88q128 112 303 112z" />
    <glyph glyph-name="theta" unicode="&#x3b8;" horiz-adv-x="1126" 
d="M562 133q97 0 164 41t93 92v430h-512v-430q27 -51 93 -92t162 -41zM562 1303q-97 0 -163 -42t-92 -94v-333h512v333q-27 53 -93 95q-67 41 -164 41zM562 1462q171 0 279 -72t160 -165v-1016q-53 -92 -161 -165t-278 -73t-278 73t-159 165v1016q51 93 159 165t278 72z" />
    <glyph glyph-name="iota" unicode="&#x3b9;" horiz-adv-x="466" 
d="M328 1102v-1102h-189v1102h189z" />
    <glyph glyph-name="kappa" unicode="&#x3ba;" horiz-adv-x="1052" 
d="M1014 0h-140l-382 526l-175 -172v-354h-186v1102h186v-533l527 533h117v-113l-345 -338l398 -540v-111z" />
    <glyph glyph-name="lambda" unicode="&#x3bb;" horiz-adv-x="1042" 
d="M979 0h-156l-288 858l-297 -858h-158v115l362 964l-63 185q-72 68 -189 67q-51 0 -77 -4v135q53 14 123 15q194 0 305 -127l438 -1239v-111z" />
    <glyph glyph-name="uni03BC" unicode="&#x3bc;" horiz-adv-x="1126" 
d="M811 1102h184v-1102h-174v92q-113 -117 -282 -117q-129 0 -222 66v-381h-186v1442h186v-860q29 -43 91 -80t143 -37q162 0 260 106v871z" />
    <glyph glyph-name="nu" unicode="&#x3bd;" horiz-adv-x="1056" 
d="M985 1102v-113l-340 -989h-233l-338 989v113h159l299 -918h7l295 918h151z" />
    <glyph glyph-name="xi" unicode="&#x3be;" horiz-adv-x="1005" 
d="M543 1462q256 0 407 -184v-104h-162q-78 135 -240 135t-241 -123v-223q84 -129 232 -129h172v-140h-158q-86 0 -159 -40t-107 -122v-266q100 -115 266 -114h356v-408h-164v256h-247q-152 0 -249 66t-149 149v348q27 59 93 119t151 88q-147 47 -223 168v295q59 93 165 161
t257 68z" />
    <glyph glyph-name="omicron" unicode="&#x3bf;" horiz-adv-x="1124" 
d="M562 981q-99 0 -169 -46t-98 -114v-540q29 -68 99 -114t168 -46q99 0 169 46t98 114v540q-29 68 -98 114q-70 46 -169 46zM563 1130q180 0 294 -82t157 -188v-616q-43 -106 -157 -190t-294 -83q-180 0 -295 83t-157 190v616q43 106 157 189q115 81 295 81z" />
    <glyph glyph-name="pi" unicode="&#x3c0;" horiz-adv-x="1259" 
d="M1204 1102v-141h-145v-961h-185v961h-491v-961h-186v961h-142v141h1149z" />
    <glyph glyph-name="rho" unicode="&#x3c1;" horiz-adv-x="1105" 
d="M557 977q-178 0 -256 -137v-600q94 -115 263 -115t249 125v588q-78 139 -256 139zM556 1130q175 0 286 -78t155 -171v-678q-39 -82 -135 -155t-267 -73t-294 109v-424h-184v1221q45 94 154 172q110 77 285 77z" />
    <glyph glyph-name="uni03C2" unicode="&#x3c2;" horiz-adv-x="1036" 
d="M548 1130q167 0 265 -58t143 -124v-88h-159q-25 49 -88 83t-155 34t-160 -46q-69 -46 -99 -116v-502q29 -69 99 -115t167 -46h330v-408h-164v256h-186q-174 0 -281 81q-106 81 -149 189v590q43 106 156 189q114 81 281 81z" />
    <glyph glyph-name="sigma" unicode="&#x3c3;" horiz-adv-x="1165" 
d="M563 961q-98 -1 -168 -51t-100 -122v-501q31 -70 99 -116t168 -46q99 0 169 47t98 115v501q-51 127 -151 173h-115zM1108 1102v-141h-217q90 -63 123 -164v-553q-43 -106 -157 -190t-294 -83q-180 0 -295 83t-157 190v581q43 106 158 192q116 85 294 85h545z" />
    <glyph glyph-name="tau" unicode="&#x3c4;" horiz-adv-x="942" 
d="M893 961h-334v-723q53 -106 221 -107q70 0 94 6v-139q-55 -18 -159 -18q-258 0 -340 188v793h-330v141h848v-141z" />
    <glyph glyph-name="upsilon" unicode="&#x3c5;" horiz-adv-x="1114" 
d="M989 1102v-895q-41 -84 -149 -160t-283 -76q-121 0 -219 45q-98 44 -143 92t-72 99v895h186v-846q27 -45 89 -86t158 -41t160 41q62 41 89 86v846h184z" />
    <glyph glyph-name="phi" unicode="&#x3c6;" horiz-adv-x="1517" 
d="M1022 985q-64 0 -112 -33t-62 -75v-732h47q232 0 328 162v574q-68 104 -201 104zM1034 1130q142 0 235 -60t138 -136v-664q-47 -110 -175 -190t-317 -80h-67v-340h-178v340h-66q-188 0 -317 81t-176 189v559q29 84 92 165t147 118h111v-131q-102 -37 -166 -188v-486
q92 -162 328 -162h47v783q31 72 126 137q96 65 238 65z" />
    <glyph glyph-name="chi" unicode="&#x3c7;" horiz-adv-x="1058" 
d="M98 1116q160 0 252 -106l199 -478h6l256 570h164v-113l-309 -594l258 -545q53 -57 143 -57v-135q-25 -6 -66 -6q-164 0 -253 117l-207 491h-6l-273 -600h-162v113l322 624l-246 521q-53 57 -143 57v131q40 10 65 10z" />
    <glyph glyph-name="psi" unicode="&#x3c8;" horiz-adv-x="1546" 
d="M1235 1102h188v-813q-43 -111 -169 -200t-326 -89h-64v-340h-178v340h-68q-200 0 -328 89t-167 200v813h186v-776q31 -72 115 -126t213 -55h49v1201h178v-1201h45q129 -1 212 53t114 128v776z" />
    <glyph glyph-name="omega" unicode="&#x3c9;" horiz-adv-x="1515" 
d="M1053 -25q-193 0 -295 140q-102 -139 -295 -140q-141 0 -233 79q-91 79 -119 159v616q29 84 92 165t147 118h111v-131q-102 -37 -166 -188v-541q61 -131 194 -131q63 0 114 33q50 33 65 73v508h178v-504q14 -43 64 -77t114 -33q135 0 197 131v541q-23 57 -66 112t-100 76
v131h112q83 -37 145 -118t93 -165v-616q-31 -82 -121 -160t-231 -78z" />
    <glyph glyph-name="iotadieresis" unicode="&#x3ca;" horiz-adv-x="466" 
d="M328 1102v-1102h-189v1102h189zM438 1489q72 0 107 -41v-131q-35 -41 -107 -41t-100 41v131q28 41 100 41zM27 1489q72 0 100 -41v-131q-29 -41 -101 -41t-106 41v131q35 41 107 41z" />
    <glyph glyph-name="upsilondieresis" unicode="&#x3cb;" horiz-adv-x="1114" 
d="M989 1102v-895q-41 -84 -149 -160t-283 -76q-121 0 -219 45q-98 44 -143 92t-72 99v895h186v-846q27 -45 89 -86t158 -41t160 41q62 41 89 86v846h184zM762 1489q72 0 106 -41v-131q-34 -41 -106 -41t-100 41v131q28 41 100 41zM350 1489q72 0 101 -41v-131
q-29 -41 -101 -41t-106 41v131q34 41 106 41z" />
    <glyph glyph-name="omicrontonos" unicode="&#x3cc;" horiz-adv-x="1124" 
d="M562 981q-99 0 -169 -46t-98 -114v-540q29 -68 99 -114t168 -46q99 0 169 46t98 114v540q-29 68 -98 114q-70 46 -169 46zM563 1130q180 0 294 -82t157 -188v-616q-43 -106 -157 -190t-294 -83q-180 0 -295 83t-157 190v616q43 106 157 189q115 81 295 81zM791 1563v-88
l-164 -242h-140v33l136 297h168z" />
    <glyph glyph-name="upsilontonos" unicode="&#x3cd;" horiz-adv-x="1114" 
d="M989 1102v-895q-41 -84 -149 -160t-283 -76q-121 0 -219 45q-98 44 -143 92t-72 99v895h186v-846q27 -45 89 -86t158 -41t160 41q62 41 89 86v846h184zM786 1563v-88l-163 -242h-140v33l135 297h168z" />
    <glyph glyph-name="omegatonos" unicode="&#x3ce;" horiz-adv-x="1515" 
d="M1053 -25q-193 0 -295 140q-102 -139 -295 -140q-141 0 -233 79q-91 79 -119 159v616q29 84 92 165t147 118h111v-131q-102 -37 -166 -188v-541q61 -131 194 -131q63 0 114 33q50 33 65 73v508h178v-504q14 -43 64 -77t114 -33q135 0 197 131v541q-23 57 -66 112t-100 76
v131h112q83 -37 145 -118t93 -165v-616q-31 -82 -121 -160t-231 -78zM686 1233v33l135 297h168v-88l-164 -242h-139z" />
    <glyph glyph-name="uni0401" unicode="&#x401;" horiz-adv-x="1103" 
d="M991 1434v-160h-641v-457h598v-158h-598v-499h660v-160h-860v1434h841zM784 1788q72 0 107 -41v-131q-35 -41 -107 -41t-100 41v131q28 41 100 41zM373 1788q72 0 100 -41v-131q-29 -41 -100.5 -41t-106.5 41v131q35 41 107 41z" />
    <glyph glyph-name="uni0402" unicode="&#x402;" horiz-adv-x="1435" 
d="M884 915q186 -1 301 -65q116 -64 165 -143v-502q-49 -80 -165 -145t-286 -64h-51v156q114 0 192 38t109 80v367q-31 45 -105 82t-184 37q-193 0 -301 -109v-647h-201v1274h-307v160h905v-160h-397v-459q139 100 325 100z" />
    <glyph glyph-name="uni0403" unicode="&#x403;" horiz-adv-x="1017" 
d="M967 1434v-160h-617v-1274h-200v1434h817zM725 1855v-88l-166 -225h-137v33l131 280h172z" />
    <glyph glyph-name="uni0404" unicode="&#x404;" horiz-adv-x="1259" 
d="M650 1303q-126 1 -208 -55t-116 -140v-291h495v-160h-495v-331q35 -84 116 -140q82 -55 208 -55t212 71t119 179h170v-111q-57 -119 -182 -209t-329 -90q-204 -1 -332 93t-183 219v868q55 125 183 218t332 93t329 -90t182 -209v-110h-170q-33 109 -119 179t-212 71z" />
    <glyph glyph-name="uni0405" unicode="&#x405;" horiz-adv-x="1200" 
d="M596 1462q176 0 298 -72.5t173 -164.5v-111h-172q-31 84 -106.5 136.5t-183 52.5t-180.5 -39t-103 -97v-196q25 -43 68.5 -70t152.5 -55l137 -37q188 -49 274 -109.5t136 -142.5v-313q-51 -91 -168 -182t-325 -91t-331 84t-176 187v110h174q27 -92 115 -155.5t209 -63.5
t197.5 49t109.5 117v182q-53 109 -248 156l-135 33q-172 43 -249 91t-136 136v328q53 92 173 164.5t296 72.5z" />
    <glyph glyph-name="uni0406" unicode="&#x406;" horiz-adv-x="499" 
d="M350 1434v-1434h-200v1434h200z" />
    <glyph glyph-name="uni0407" unicode="&#x407;" horiz-adv-x="499" 
d="M350 1434v-1434h-200v1434h200zM433 1757q67 0 102 -41v-110q-35 -41 -102 -41t-101 41v110q34 41 101 41zM70 1757q72 0 100 -41v-110q-28 -41 -100 -41t-101 41v110q29 41 101 41z" />
    <glyph glyph-name="uni0408" unicode="&#x408;" horiz-adv-x="792" 
d="M651 1434v-1149q-133 -289 -506 -289q-51 0 -104 4v156h92q117 0 200 47t118 131v1100h200z" />
    <glyph glyph-name="uni0409" unicode="&#x409;" horiz-adv-x="2015" 
d="M1481 717h-312v-557h295q189 -1 273 149v269q-37 61 -108 100t-148 39zM1511 874q125 0 240 -64t172 -165v-401q-53 -100 -159 -172t-257 -72h-538v1274h-422l-125 -1110q-102 -172 -381 -172v162q74 0 128 30t75 74l133 1176h792v-560h342z" />
    <glyph glyph-name="uni040A" unicode="&#x40a;" horiz-adv-x="1986" 
d="M1450 717h-309v-557h295q186 -1 270 149v269q-37 61 -108 100t-148 39zM1481 874q125 0 239 -64t172 -165v-401q-53 -100 -158 -172t-255 -72h-539v721h-590v-721h-200v1434h200v-560h590v560h201v-560h340z" />
    <glyph glyph-name="uni040B" unicode="&#x40b;" horiz-adv-x="1378" 
d="M956 1434v-160h-397v-412h313q125 0 240 -64t172 -167v-631h-186v565q-37 59 -108 99t-148 41h-283v-705h-201v1274h-307v160h905z" />
    <glyph glyph-name="uni040C" unicode="&#x40c;" horiz-adv-x="1173" 
d="M1092 1434v-123l-392 -555l410 -633v-123h-158l-420 670h-188v-670h-201v1434h201v-607h188l414 607h146zM803 1855v-88l-166 -225h-137v33l131 280h172z" />
    <glyph glyph-name="uni040E" unicode="&#x40e;" horiz-adv-x="1142" 
d="M74 1434h155l371 -856l322 856h153v-123l-469 -1180q-109 -141 -334 -141q-53 0 -98 8v149l76 -4q141 0 199 76l51 135l-426 957v123zM580 1520q-119 0 -193 46t-106 111v115h143v-76q12 -30 50 -56t106 -26t106 27t49 55v76h142v-115q-76 -157 -297 -157z" />
    <glyph glyph-name="uni040F" unicode="&#x40f;" horiz-adv-x="1308" 
d="M1161 1434v-1434h-420v-270h-174v270h-417v1434h200v-1274h611v1274h200z" />
    <glyph glyph-name="uni0410" unicode="&#x410;" horiz-adv-x="1247" 
d="M393 561h447l-219 703h-7zM1188 0h-172l-127 403h-545l-127 -403h-156v123l426 1311h273l428 -1311v-123z" />
    <glyph glyph-name="uni0411" unicode="&#x411;" horiz-adv-x="1189" 
d="M662 709h-312v-549h295q189 -1 273 149v260q-37 61 -108 101t-148 39zM692 868q123 0 238 -64t174 -167v-393q-54 -100 -160 -172t-256 -72h-538v1434h927v-160h-727v-406h342z" />
    <glyph glyph-name="uni0412" unicode="&#x412;" horiz-adv-x="1208" 
d="M668 668h-318v-508h299q193 0 275 145v225q-35 62 -106 100t-150 38zM350 1274v-453h305q69 0 133 38t105 99v172q-35 68 -102 106q-68 38 -154 38h-287zM692 0h-542v1434h530q134 0 238 -69t161 -173v-270q-59 -105 -182 -168q143 -55 213 -174v-336q-56 -102 -160 -173
t-258 -71z" />
    <glyph glyph-name="uni0413" unicode="&#x413;" horiz-adv-x="1017" 
d="M967 1434v-160h-617v-1274h-200v1434h817z" />
    <glyph glyph-name="uni0414" unicode="&#x414;" horiz-adv-x="1411" 
d="M981 160v1114h-424l-111 -995q-34 -72 -124 -119h659zM1182 160h166v-436h-174v276h-947v-276h-174v436q66 16 128 63t81 92l129 1119h791v-1274z" />
    <glyph glyph-name="uni0415" unicode="&#x415;" horiz-adv-x="1103" 
d="M991 1434v-160h-641v-457h598v-158h-598v-499h660v-160h-860v1434h841z" />
    <glyph glyph-name="uni0416" unicode="&#x416;" horiz-adv-x="1757" 
d="M1675 1434v-123l-336 -553l351 -635v-123h-158l-356 670h-201v-670h-193v670h-202l-357 -670h-160v123l353 637l-334 551v123h145l355 -607h200v607h193v-607h201l352 607h147z" />
    <glyph glyph-name="uni0417" unicode="&#x417;" horiz-adv-x="1222" 
d="M603 -29q-200 0 -320.5 85t-176.5 186v110h173q27 -92 111.5 -156.5t205.5 -64.5t198.5 50t110.5 116v192q-33 66 -111.5 119.5t-191.5 48.5h-160v158h160q113 -4 191.5 47t111.5 117v158q-33 66 -110.5 116t-198.5 50t-206 -64.5t-111 -157.5h-173v111q55 100 176 185
t321 85t320.5 -84t176.5 -186v-244q-84 -147 -226 -213q143 -68 226 -211v-282q-55 -102 -176 -186.5t-321 -84.5z" />
    <glyph glyph-name="uni0418" unicode="&#x418;" horiz-adv-x="1353" 
d="M1204 1434v-1434h-188v1145h-6l-645 -1145h-215v1434h188v-1145h6l645 1145h215z" />
    <glyph glyph-name="uni0419" unicode="&#x419;" horiz-adv-x="1353" 
d="M1204 1434v-1434h-188v1145h-6l-645 -1145h-215v1434h188v-1145h6l645 1145h215zM975 1792v-115q-76 -158 -297 -157q-119 0 -193 46t-106 111v115h141v-76q12 -30 51 -56t106 -26t105 28t52 54v76h141z" />
    <glyph glyph-name="uni041A" unicode="&#x41a;" horiz-adv-x="1173" 
d="M1092 1434v-123l-392 -555l410 -633v-123h-158l-420 670h-188v-670h-201v1434h201v-607h188l414 607h146z" />
    <glyph glyph-name="uni041B" unicode="&#x41b;" horiz-adv-x="1320" 
d="M1169 1434v-1434h-200v1274h-422l-125 -1110q-102 -172 -381 -172v162q74 0 128 30t75 74l133 1176h792z" />
    <glyph glyph-name="uni041C" unicode="&#x41c;" horiz-adv-x="1552" 
d="M1405 1434v-1434h-191v1163h-6l-358 -790h-148l-358 790h-6v-1163h-188v1434h260l368 -805h6l363 805h258z" />
    <glyph glyph-name="uni041D" unicode="&#x41d;" horiz-adv-x="1325" 
d="M1174 1434v-1434h-201v659h-623v-659h-200v1434h200v-615h623v615h201z" />
    <glyph glyph-name="uni041E" unicode="&#x41e;" horiz-adv-x="1282" 
d="M642 1303q-118 1 -201 -55t-115 -140v-780q33 -84 115 -140q83 -55 201 -55t200 55t114 140v780q-32 84 -114 140t-200 55zM641 1462q205 0 333 -93t183 -218v-866q-55 -127 -183 -220t-333 -93t-333 92q-128 94 -183 221v866q55 125 183 218t333 93z" />
    <glyph glyph-name="uni041F" unicode="&#x41f;" horiz-adv-x="1312" 
d="M1163 1434v-1434h-200v1274h-613v-1274h-200v1434h1013z" />
    <glyph glyph-name="uni0420" unicode="&#x420;" horiz-adv-x="1171" 
d="M627 1274h-277v-551h277q182 0 260 147v256q-78 148 -260 148zM672 1434q128 0 238 -64t173 -178v-387q-59 -106 -165 -174t-246 -68h-322v-563h-200v1434h522z" />
    <glyph glyph-name="uni0421" unicode="&#x421;" horiz-adv-x="1239" 
d="M640 1462q204 0 329 -90t182 -209v-110h-170q-33 109 -119 179.5t-212 70.5t-208 -55.5t-116 -139.5v-782q35 -84 116.5 -139.5t207.5 -55.5t212 70.5t119 179.5h170v-111q-57 -119 -182 -209t-329 -90t-332 93.5t-183 218.5v868q55 125 183 218t332 93z" />
    <glyph glyph-name="uni0422" unicode="&#x422;" horiz-adv-x="1085" 
d="M1034 1434v-160h-391v-1274h-201v1274h-391v160h983z" />
    <glyph glyph-name="uni0423" unicode="&#x423;" horiz-adv-x="1146" 
d="M74 1434h155l371 -856l322 856h153v-123l-469 -1180q-109 -141 -334 -141q-53 0 -98 8v149l76 -4q141 0 199 76l51 135l-426 957v123z" />
    <glyph glyph-name="uni0424" unicode="&#x424;" horiz-adv-x="1509" 
d="M893 1165h-47v-897h47q90 0 179 46t128 118v569q-39 72 -128 118t-179 46zM618 268h48v897h-48q-90 0 -178 -46t-129 -118v-569q41 -72 129 -118t178 -46zM913 1321q143 0 279 -79t194 -198v-655q-59 -119 -194 -198t-279 -78h-67v-195h-180v195h-68q-143 1 -277 79
t-196 197v655q61 119 195 198t278 79h68v195h180v-195h67z" />
    <glyph glyph-name="uni0425" unicode="&#x425;" horiz-adv-x="1196" 
d="M1092 1434v-123l-359 -576l373 -612v-123h-162l-348 602h-6l-352 -602h-150v123l373 610l-357 578v123h160l338 -576h6l334 576h150z" />
    <glyph glyph-name="uni0426" unicode="&#x426;" horiz-adv-x="1382" 
d="M1155 1434v-1274h166v-436h-174v276h-997v1434h200v-1274h604v1274h201z" />
    <glyph glyph-name="uni0427" unicode="&#x427;" horiz-adv-x="1277" 
d="M926 1434h200v-1434h-200v604q-142 -102 -326 -102t-300 64t-167 145v723h201v-658q30 -45 104 -84t185 -39q193 0 303 111v670z" />
    <glyph glyph-name="uni0428" unicode="&#x428;" horiz-adv-x="1863" 
d="M1714 1434v-1434h-1564v1434h200v-1274h481v1274h201v-1274h481v1274h201z" />
    <glyph glyph-name="uni0429" unicode="&#x429;" horiz-adv-x="1941" 
d="M1714 1434v-1274h168v-436h-174v276h-1558v1434h200v-1274h481v1274h201v-1274h481v1274h201z" />
    <glyph glyph-name="uni042A" unicode="&#x42a;" horiz-adv-x="1384" 
d="M848 717h-309v-557h295q186 0 270 149v269q-38 61 -108 100t-148 39zM539 1434v-560h340q125 0 239 -64t172 -165v-401q-53 -100 -158 -172t-255 -72h-539v1278h-287v156h488z" />
    <glyph glyph-name="uni042B" unicode="&#x42b;" horiz-adv-x="1632" 
d="M629 717h-279v-557h262q186 0 275 149v269q-35 59 -107 99t-151 40zM1483 1434v-1434h-201v1434h201zM350 1434v-560h307q127 0 242 -64t172 -165v-401q-53 -100 -159 -172t-257 -72h-505v1434h200z" />
    <glyph glyph-name="uni042C" unicode="&#x42c;" horiz-adv-x="1196" 
d="M662 717h-312v-557h295q188 0 273 149v269q-38 61 -108 100t-148 39zM350 1434v-560h342q123 0 238 -64t174 -165v-401q-54 -100 -160 -172t-256 -72h-538v1434h200z" />
    <glyph glyph-name="uni042D" unicode="&#x42d;" horiz-adv-x="1259" 
d="M619 1462q204 0 332 -93t184 -218v-868q-55 -125 -183 -218t-333 -93t-329 89q-124 90 -181 209v111h172q33 -109 117 -179t211 -71q126 0 208 55t117 140v331h-496v160h496v291q-35 84 -117 139t-208 55t-211 -70q-85 -71 -117 -179h-172v110q57 119 181 209t329 90z
" />
    <glyph glyph-name="uni042E" unicode="&#x42e;" horiz-adv-x="1777" 
d="M1154 133q110 -1 188 55t110 140v780q-33 84 -111 139q-79 55 -189 55t-188 -54q-78 -56 -110 -140v-780q33 -84 111 -140q79 -56 189 -55zM1154 1462q200 0 322 -92t177 -219v-866q-55 -127 -177 -220t-322 -93t-323 92q-123 94 -178 221v374h-303v-659h-200v1434h200
v-617h303v334q55 127 178 219t323 92z" />
    <glyph glyph-name="uni042F" unicode="&#x42f;" horiz-adv-x="1216" 
d="M868 756v518h-299q-184 0 -262 -148v-221q82 -150 262 -149h299zM524 1434h545v-1434h-201v598h-245l-355 -598h-157v123l307 487q-197 45 -301 232v350q61 114 169 178t238 64z" />
    <glyph glyph-name="uni0430" unicode="&#x430;" horiz-adv-x="1112" 
d="M524 119q96 0 169 38t110 91v270h-287q-154 0 -231 -94v-203q77 -102 239 -102zM537 1130q179 0 293 -82t159 -188v-860h-180v96q-121 -125 -330 -125q-262 0 -379 172v340q20 35 56 70t122 71q87 36 199 35h326v162q-29 68 -97 114q-69 46 -169 46q-182 0 -258 -147
h-156v96q142 200 414 200z" />
    <glyph glyph-name="uni0431" unicode="&#x431;" horiz-adv-x="1114" 
d="M551 850q-172 0 -260 -109v-460q31 -68 99 -114t168 -46q99 0 169 46q69 46 96 114v409q-27 68 -97 114q-71 46 -175 46zM592 999q170 -1 272 -81t146 -185v-489q-47 -111 -157 -192t-289 -81t-292 82t-155 191v874q100 178 434 242q158 31 215 49t88 53h127v-143
q-53 -41 -129 -65t-227 -46q-260 -39 -334 -143v-172q131 106 301 106z" />
    <glyph glyph-name="uni0432" unicode="&#x432;" horiz-adv-x="1081" 
d="M317 489v-346h273q146 0 209 109v135q-23 45 -74 74t-119 28h-289zM317 961v-332h289q129 0 180 98v127q-63 106 -196 107h-273zM641 0h-510v1102h510q195 0 315 -184v-230q-51 -80 -147 -119q117 -47 162 -125v-256q-111 -188 -330 -188z" />
    <glyph glyph-name="uni0433" unicode="&#x433;" 
d="M831 1102v-141h-514v-961h-186v1102h700z" />
    <glyph glyph-name="uni0434" unicode="&#x434;" horiz-adv-x="1214" 
d="M817 141v820h-348l-78 -711q-31 -63 -112 -109h538zM1004 141h153v-391h-162v250h-805v-250h-159v391q61 17 116 59t74 83l92 819h691v-961z" />
    <glyph glyph-name="uni0435" unicode="&#x435;" horiz-adv-x="1105" 
d="M562 981q-99 0 -167.5 -46t-99.5 -116v-160h534v160q-29 70 -98.5 116t-168.5 46zM559 1130q178 0 290 -78.5t155 -172.5v-361h-709v-235q31 -70 99.5 -116t166.5 -46q203 0 287 198h156v-96q-43 -94 -155 -173t-290 -79t-291.5 83t-156.5 190v616q43 106 156.5 188
t291.5 82z" />
    <glyph glyph-name="uni0436" unicode="&#x436;" horiz-adv-x="1470" 
d="M1391 1102v-111l-250 -407l268 -471v-113h-141l-283 500h-158v-500h-180v500h-160l-282 -500h-142v113l269 473l-252 405v111h133l274 -461h160v461h180v-461h156l274 461h134z" />
    <glyph glyph-name="uni0437" unicode="&#x437;" horiz-adv-x="1052" 
d="M522 1130q287 0 422 -212v-209q-55 -94 -164 -144q106 -45 164 -143v-236q-137 -215 -422 -215q-172 0 -273.5 67.5t-148.5 147.5v105h156q68 -170 266 -170q90 0 153.5 38t88.5 85v143q-59 109 -236 109h-116v141h116q176 0 236 108v113q-25 47 -88.5 85t-153.5 38
q-197 0 -266 -168h-156v105q47 80 148.5 146t273.5 66z" />
    <glyph glyph-name="uni0438" unicode="&#x438;" horiz-adv-x="1183" 
d="M1051 1102v-1102h-174v860h-7l-542 -860h-197v1102h176v-860h6l539 860h199z" />
    <glyph glyph-name="uni0439" unicode="&#x439;" horiz-adv-x="1183" 
d="M1051 1102v-1102h-174v860h-7l-542 -860h-197v1102h176v-860h6l539 860h199zM889 1505v-114q-76 -156 -298 -156t-298 156v114h141v-75q12 -29 51 -56q39 -26 106 -26t105 28t52 54v75h141z" />
    <glyph glyph-name="uni043A" unicode="&#x43a;" horiz-adv-x="1019" 
d="M958 1102v-111l-329 -409l346 -469v-113h-137l-361 500h-160v-500h-186v1102h186v-461h160l361 461h120z" />
    <glyph glyph-name="uni043B" unicode="&#x43b;" horiz-adv-x="1132" 
d="M999 1102v-1102h-186v961h-348l-88 -809q-86 -160 -346 -160v147q65 0 113 29t65 68l100 866h690z" />
    <glyph glyph-name="uni043C" unicode="&#x43c;" horiz-adv-x="1353" 
d="M1223 1102v-1102h-176v872h-7l-313 -593h-102l-312 593h-6v-872h-176v1102h236l309 -588h6l309 588h232z" />
    <glyph glyph-name="uni043D" unicode="&#x43d;" horiz-adv-x="1175" 
d="M1042 1102v-1102h-186v498h-539v-498h-186v1102h186v-463h539v463h186z" />
    <glyph glyph-name="uni043E" unicode="&#x43e;" horiz-adv-x="1124" 
d="M562 981q-99 0 -169 -46t-98 -114v-540q29 -68 99 -114t168 -46q99 0 169 46t98 114v540q-29 68 -98 114q-70 46 -169 46zM563 1130q180 0 294 -82t157 -188v-616q-43 -106 -157 -190t-294 -83q-180 0 -295 83t-157 190v616q43 106 157 189q115 81 295 81z" />
    <glyph glyph-name="uni043F" unicode="&#x43f;" horiz-adv-x="1132" 
d="M1001 1102v-1102h-186v961h-498v-961h-186v1102h870z" />
    <glyph glyph-name="uni0440" unicode="&#x440;" horiz-adv-x="1122" 
d="M580 977q-172 0 -263 -109v-632q92 -111 262 -111t246 123v608q-73 121 -245 121zM608 1126q176 0 271 -70q94 -70 135 -157v-696q-41 -86 -135 -157t-268 -71t-294 109v-424h-186v1442h180v-88q121 112 297 112z" />
    <glyph glyph-name="uni0441" unicode="&#x441;" horiz-adv-x="1081" 
d="M560 1130q179 0 291 -78.5t153 -172.5v-97h-156q-84 199 -287 199q-98 0 -166.5 -46t-99.5 -114v-540q31 -68 99.5 -114t166.5 -46q201 0 287 198h156v-96q-43 -94 -155 -173t-290 -79t-291.5 83t-156.5 190v616q43 106 156.5 188t292.5 82z" />
    <glyph glyph-name="uni0442" unicode="&#x442;" horiz-adv-x="970" 
d="M393 0v961h-342v141h869v-141h-340v-961h-187z" />
    <glyph glyph-name="uni0443" unicode="&#x443;" horiz-adv-x="1038" 
d="M971 1102v-111l-406 -1190q-111 -156 -350 -155q-86 0 -133 14v135q49 -4 80 -4q174 0 250 94l30 107l-366 995v115h160l296 -877h7l282 877h150z" />
    <glyph glyph-name="uni0444" unicode="&#x444;" horiz-adv-x="1515" 
d="M1012 979q-94 0 -164 -43v-768q78 -45 164 -45q143 0 211 102v652q-70 102 -211 102zM504 123q94 0 166 47v764q-63 45 -166 45q-139 0 -209 -102v-652q68 -102 209 -102zM1067 1126q133 0 217 -64t123 -144v-732q-39 -80 -123 -146t-215 -65q-131 0 -221 62v-377h-178
v379q-84 -63 -219 -63t-221 65q-85 66 -119 145v732q37 78 121 144t216 64q134 0 222 -63v371h178v-369q86 61 219 61z" />
    <glyph glyph-name="uni0445" unicode="&#x445;" horiz-adv-x="997" 
d="M903 1102v-113l-276 -424l293 -452v-113h-146l-270 455h-6l-283 -455h-137v113l293 452l-275 424v113h144l258 -428h6l260 428h139z" />
    <glyph glyph-name="uni0446" unicode="&#x446;" horiz-adv-x="1210" 
d="M1001 1102v-961h152v-391h-162v250h-860v1102h186v-961h498v961h186z" />
    <glyph glyph-name="uni0447" unicode="&#x447;" horiz-adv-x="1081" 
d="M764 1102h184v-1102h-184v444q-109 -57 -260 -57q-262 0 -385 160v555h184v-477q77 -90 225 -90t236 59v508z" />
    <glyph glyph-name="uni0448" unicode="&#x448;" horiz-adv-x="1601" 
d="M1468 1102v-1102h-1337v1102h186v-961h390v961h186v-961h391v961h184z" />
    <glyph glyph-name="uni0449" unicode="&#x449;" horiz-adv-x="1681" 
d="M1468 1102v-961h152v-391h-162v250h-1327v1102h186v-961h390v961h186v-961h391v961h184z" />
    <glyph glyph-name="uni044A" unicode="&#x44a;" horiz-adv-x="1206" 
d="M754 549h-262v-408h262q59 0 114 32t86 79v184q-30 45 -82 79t-118 34zM492 1102v-412h315q201 0 323 -186v-318q-125 -186 -319 -186h-504v961h-256v141h441z" />
    <glyph glyph-name="uni044B" unicode="&#x44b;" horiz-adv-x="1429" 
d="M559 549h-240v-408h240q61 0 115 32t84 79v184q-29 45 -81 79t-118 34zM1298 1102v-1102h-186v1102h186zM317 1102v-412h295q203 0 324 -186v-318q-125 -186 -320 -186h-485v1102h186z" />
    <glyph glyph-name="uni044C" unicode="&#x44c;" horiz-adv-x="1032" 
d="M580 549h-261v-408h261q59 0 113 32t85 79v184q-28 45 -80 79t-118 34zM317 1102v-412h316q203 0 321 -186v-318q-121 -186 -317 -186h-506v1102h186z" />
    <glyph glyph-name="uni044D" unicode="&#x44d;" horiz-adv-x="1081" 
d="M521 1130q179 0 293 -82t159 -188v-616q-45 -106 -160 -190t-292 -83q-177 0 -289 79t-154 173v96h155q86 -199 287 -198q98 0 167 46t99 114v208h-419v142h419v190q-31 68 -99 114q-69 46 -167 46q-203 0 -287 -199h-155v97q41 94 152 173q112 78 291 78z" />
    <glyph glyph-name="uni044E" unicode="&#x44e;" horiz-adv-x="1585" 
d="M1023 981q-99 0 -169 -46t-98 -114v-540q28 -68 98 -114t169 -46t169 46q69 46 98 114v540q-29 68 -98 114q-70 46 -169 46zM1024 1130q180 0 294 -82t159 -188v-616q-45 -106 -160 -190t-294 -83q-179 0 -294 83t-158 190v252h-254v-496h-186v1102h186v-465h254v223
q43 106 158 188t295 82z" />
    <glyph glyph-name="uni044F" unicode="&#x44f;" horiz-adv-x="1091" 
d="M774 567v394h-276q-58 0 -112 -32t-87 -77v-174q72 -111 199 -111h276zM438 1102h523v-1102h-187v426h-221l-297 -426h-145v109l249 327q-145 33 -239 176v306q118 184 317 184z" />
    <glyph glyph-name="uni0451" unicode="&#x451;" horiz-adv-x="1105" 
d="M562 981q-99 0 -167.5 -46t-99.5 -116v-160h534v160q-29 70 -98.5 116t-168.5 46zM559 1130q178 0 290 -78.5t155 -172.5v-361h-709v-235q31 -70 99.5 -116t166.5 -46q203 0 287 198h156v-96q-43 -94 -155 -173t-290 -79t-291.5 83t-156.5 190v616q43 106 156.5 188
t291.5 82zM778 1489q72 0 107 -41v-131q-35 -41 -107 -41t-100 41v131q28 41 100 41zM367 1489q72 0 100 -41v-131q-29 -41 -100.5 -41t-106.5 41v131q35 41 107 41z" />
    <glyph glyph-name="uni0452" unicode="&#x452;" horiz-adv-x="1167" 
d="M348 1434v-107h377v-108h-377v-226q123 109 295 109t265 -71t134 -157v-952q-44 -106 -158 -188t-294 -82v145q100 0 169 49t97 123v860q-76 123 -248 123t-260 -110v-842h-186v1219h-99v108h99v107h186z" />
    <glyph glyph-name="uni0453" unicode="&#x453;" 
d="M831 1102v-141h-514v-961h-186v1102h700zM668 1567v-88l-164 -232h-142v31l132 289h174z" />
    <glyph glyph-name="uni0454" unicode="&#x454;" horiz-adv-x="1081" 
d="M561 981q-98 0 -167 -46t-99 -114v-190h420v-142h-420v-208q31 -68 99 -114t167 -46q201 0 287 198h156v-96q-43 -94 -155 -173t-290 -79t-292 83t-156 190v616q43 106 156 189q114 81 293 81t291 -78t153 -173v-97h-156q-84 199 -287 199z" />
    <glyph glyph-name="uni0455" unicode="&#x455;" horiz-adv-x="997" 
d="M498 1130q150 0 250 -56t145 -120v-96h-156q-61 125 -239 125q-141 0 -217 -86v-149q41 -66 188 -99l113 -26q266 -61 331 -179v-272q-29 -43 -70.5 -82t-136 -79t-208.5 -40q-272 0 -414 201v98h156q78 -152 258 -151q86 0 148.5 33.5t90.5 78.5v140q-39 68 -190 102
l-117 27q-244 53 -326 176v278q136 176 394 176z" />
    <glyph glyph-name="uni0456" unicode="&#x456;" horiz-adv-x="466" 
d="M328 1102v-1102h-189v1102h189z" />
    <glyph glyph-name="uni0457" unicode="&#x457;" horiz-adv-x="524" 
d="M352 1102v-1102h-184v1102h184zM431 1483q67 0 101 -41v-115q-36 -41 -102 -41t-100 41v115q34 41 101 41zM93 1483q67 0 102 -41v-115q-35 -41 -102 -41t-101 41v115q34 41 101 41z" />
    <glyph glyph-name="uni0458" unicode="&#x458;" horiz-adv-x="448" 
d="M317 1102v-1198q-43 -106 -157 -190q-115 -83 -295 -83v148q100 0 168 48t96 122v1153h188zM223 1489q84 0 111 -53v-107q-27 -51 -112 -51t-105 51v107q22 53 106 53z" />
    <glyph glyph-name="uni0459" unicode="&#x459;" horiz-adv-x="1714" 
d="M1262 549h-261v-408h261q59 0 113 32t85 79v184q-29 45 -81 79t-117 34zM1315 690q203 0 321 -186v-318q-121 -186 -317 -186h-506v961h-346l-90 -809q-86 -160 -346 -160v147q65 0 113 29t65 68l100 866h690v-412h316z" />
    <glyph glyph-name="uni045A" unicode="&#x45a;" horiz-adv-x="1710" 
d="M1262 549h-258v-408h258q59 0 114 32t86 79v184q-29 45 -82 79t-118 34zM1317 690q199 0 321 -186v-318q-121 -186 -319 -186h-504v549h-498v-549h-186v1102h186v-412h498v412h186v-412h316z" />
    <glyph glyph-name="uni045B" unicode="&#x45b;" horiz-adv-x="1167" 
d="M348 1434v-107h377v-108h-377v-226q123 109 295 109t265 -71t134 -157v-874h-186v829q-76 123 -248 123t-260 -110v-842h-186v1219h-99v108h99v107h186z" />
    <glyph glyph-name="uni045C" unicode="&#x45c;" horiz-adv-x="1019" 
d="M958 1102v-111l-329 -409l346 -469v-113h-137l-361 500h-160v-500h-186v1102h186v-461h160l361 461h120zM735 1567v-88l-164 -232h-141v31l131 289h174z" />
    <glyph glyph-name="uni045E" unicode="&#x45e;" horiz-adv-x="1038" 
d="M971 1102v-111l-406 -1190q-111 -156 -350 -155q-86 0 -133 14v135q49 -4 80 -4q174 0 250 94l30 107l-366 995v115h160l296 -877h7l282 877h150zM817 1505v-114q-76 -156 -298 -156t-298 156v114h141v-75q12 -29 52 -56q40 -26 106 -26t105 28t51 54v75h141z" />
    <glyph glyph-name="uni045F" unicode="&#x45f;" horiz-adv-x="1148" 
d="M1018 1102v-1102h-361v-250h-159v250h-367v1102h186v-961h514v961h187z" />
    <glyph glyph-name="uni0490" unicode="&#x490;" horiz-adv-x="983" 
d="M934 1679v-405h-584v-1274h-200v1434h610v245h174z" />
    <glyph glyph-name="uni0491" unicode="&#x491;" horiz-adv-x="890" 
d="M829 1288v-327h-512v-961h-186v1102h537v186h161z" />
    <glyph glyph-name="uni04D8" unicode="&#x4d8;" horiz-adv-x="1261" 
d="M618 133q119 0 203 55t117 140v262h-639v-268q35 -80 117 -134t202 -55zM623 1462q205 0 333 -93t183 -218v-866q-55 -125 -183 -219t-334 -94q-204 0 -329 89q-125 90 -182 211v478h827v358q-35 84 -117 139q-81 55 -207 55t-212 -70q-86 -71 -119 -179h-172v110
q57 119 182 209t330 90z" />
    <glyph glyph-name="uni04D9" unicode="&#x4d9;" horiz-adv-x="1105" 
d="M544 121q99 0 167.5 46t97.5 116v159h-533v-159q29 -70 99 -116t169 -46zM545 -29q-178 0 -289 79t-156 173v363h709v233q-29 70 -97.5 116t-166.5 46q-205 0 -289 -199h-156v97q45 94 156 172.5t290 78.5t291.5 -81.5t157.5 -188.5v-616q-45 -109 -158.5 -191
t-291.5 -82z" />
    <glyph glyph-name="Wgrave" unicode="&#x1e80;" horiz-adv-x="1841" 
d="M1767 1434v-123l-270 -1311h-287l-292 1135h-7l-293 -1135h-274l-270 1311v123h178l244 -1248h6l317 1248h203l319 -1248h7l245 1248h174zM999 1542h-137l-164 225v88h168l133 -280v-33z" />
    <glyph glyph-name="wgrave" unicode="&#x1e81;" horiz-adv-x="1591" 
d="M1522 1102v-113l-258 -989h-226l-233 840h-6l-236 -840h-225l-260 989v113h160l221 -905h6l250 905h184l246 -905h6l219 905h152zM872 1247h-139l-166 232v88h172l133 -289v-31z" />
    <glyph glyph-name="Wacute" unicode="&#x1e82;" horiz-adv-x="1841" 
d="M1767 1434v-123l-270 -1311h-287l-292 1135h-7l-293 -1135h-274l-270 1311v123h178l244 -1248h6l317 1248h203l319 -1248h7l245 1248h174zM1137 1855v-88l-166 -225h-137v33l131 280h172z" />
    <glyph glyph-name="wacute" unicode="&#x1e83;" horiz-adv-x="1591" 
d="M1522 1102v-113l-258 -989h-226l-233 840h-6l-236 -840h-225l-260 989v113h160l221 -905h6l250 905h184l246 -905h6l219 905h152zM1020 1567v-88l-164 -232h-141v31l131 289h174z" />
    <glyph glyph-name="Wdieresis" unicode="&#x1e84;" horiz-adv-x="1841" 
d="M1767 1434v-123l-270 -1311h-287l-292 1135h-7l-293 -1135h-274l-270 1311v123h178l244 -1248h6l317 1248h203l319 -1248h7l245 1248h174zM1126 1788q72 0 107 -41v-131q-35 -41 -107 -41t-100 41v131q28 41 100 41zM715 1788q72 0 100 -41v-131q-29 -41 -101 -41
t-106 41v131q35 41 107 41z" />
    <glyph glyph-name="wdieresis" unicode="&#x1e85;" horiz-adv-x="1591" 
d="M1522 1102v-113l-258 -989h-226l-233 840h-6l-236 -840h-225l-260 989v113h160l221 -905h6l250 905h184l246 -905h6l219 905h152zM999 1489q72 0 107 -41v-131q-35 -41 -107 -41t-100 41v131q28 41 100 41zM588 1489q72 0 100 -41v-131q-28 -41 -100 -41t-107 41v131
q35 41 107 41z" />
    <glyph glyph-name="Ygrave" unicode="&#x1ef2;" horiz-adv-x="1144" 
d="M1075 1434v-123l-405 -701v-610h-203v629l-397 682v123h149l354 -627h7l350 627h145zM649 1542h-137l-164 225v88h168l133 -280v-33z" />
    <glyph glyph-name="ygrave" unicode="&#x1ef3;" horiz-adv-x="1038" 
d="M971 1102v-111l-406 -1190q-111 -156 -350 -155q-86 0 -133 14v135q49 -4 80 -4q174 0 250 94l30 107l-366 995v115h160l296 -877h7l282 877h150zM596 1247h-139l-166 232v88h172l133 -289v-31z" />
    <glyph glyph-name="endash" unicode="&#x2013;" horiz-adv-x="1155" 
d="M1067 766v-150h-981v150h981z" />
    <glyph glyph-name="emdash" unicode="&#x2014;" horiz-adv-x="1769" 
d="M1681 766v-150h-1595v150h1595z" />
    <glyph glyph-name="quoteleft" unicode="&#x2018;" horiz-adv-x="387" 
d="M195 1024q-41 0 -71 16t-38 37v277q12 32 52 66t93 34h54v-86h-43q-29 0 -47 -31v-82q39 0 69 -16t37 -37v-125q-22 -53 -106 -53z" />
    <glyph glyph-name="quoteright" unicode="&#x2019;" horiz-adv-x="387" 
d="M190 1462q41 0 72 -16t39 -37v-276q-12 -33 -52 -67t-93 -34h-56v86h43q33 0 47 31v82q-78 0 -106 53v125q26 53 106 53z" />
    <glyph glyph-name="quotesinglbase" unicode="&#x201a;" horiz-adv-x="387" 
d="M190 205q41 -1 72 -17t39 -36v-277q-12 -33 -52 -67t-93 -33h-56v86h43q33 0 47 30v82q-78 0 -106 54v125q26 53 106 53z" />
    <glyph glyph-name="quotedblleft" unicode="&#x201c;" horiz-adv-x="747" 
d="M555 1026q-41 0 -71 16t-38 37v277q12 32 52 66t94 34h53v-86h-41q-31 0 -49 -31v-82q80 0 109 -53v-125q-27 -53 -109 -53zM195 1026q-41 0 -71 16t-38 37v277q12 32 52 66t93 34h54v-86h-43q-29 0 -47 -31v-82q39 0 69 -16t37 -37v-125q-22 -53 -106 -53z" />
    <glyph glyph-name="quotedblright" unicode="&#x201d;" horiz-adv-x="747" 
d="M553 1462q41 0 71 -16t38 -37v-276q-12 -33 -52 -67t-94 -34h-53v86h41q31 0 49 31v82q-80 0 -109 53v125q27 53 109 53zM190 1462q41 0 72 -16t39 -37v-276q-12 -33 -52 -67t-93 -34h-56v86h43q33 0 47 31v82q-78 0 -106 53v125q26 53 106 53z" />
    <glyph glyph-name="quotedblbase" unicode="&#x201e;" horiz-adv-x="749" 
d="M555 205q41 -1 71 -17t38 -36v-277q-12 -33 -52 -67t-94 -33h-53v86h43q29 0 47 30v82q-80 0 -109 54v125q27 53 109 53zM190 205q41 -1 72 -17t39 -36v-277q-12 -33 -52 -67t-93 -33h-56v86h43q33 0 47 30v82q-78 0 -106 54v125q26 53 106 53z" />
    <glyph glyph-name="dagger" unicode="&#x2020;" horiz-adv-x="1292" 
d="M1212 954v-172h-178l-297 21l-16 -1147h-154l-18 1147l-293 -21h-176v172h176l291 -18l-4 268v230h202v-230l-4 -268l293 18h178z" />
    <glyph glyph-name="daggerdbl" unicode="&#x2021;" horiz-adv-x="1333" 
d="M1212 401v-172h-178l-305 21l-8 -594h-154l-10 594l-301 -21h-176v172h176l299 -18l-8 479l-291 -18h-176v172h176l289 -19l-2 207v230h202v-230l-4 -207l293 19h178v-172h-178l-295 18l-8 -479l303 18h178z" />
    <glyph glyph-name="bullet" unicode="&#x2022;" horiz-adv-x="673" 
d="M336 938q139 0 209 -98v-226q-70 -102 -211 -102q-70 0 -123 29t-82 73v226q68 98 207 98z" />
    <glyph glyph-name="ellipsis" unicode="&#x2026;" horiz-adv-x="1126" 
d="M936 199q43 -1 73 -17t35 -37v-110q-6 -20 -35 -37q-30 -16 -73 -16q-82 0 -107 53v110q23 54 107 54zM563 199q43 -1 73 -17t36 -37v-110q-6 -21 -36 -37t-73 -16q-82 0 -106 53v110q22 54 106 54zM188 199q43 -1 73 -17t36 -37v-110q-6 -21 -36 -37t-73 -16
q-78 0 -106 53v110q26 54 106 54z" />
    <glyph glyph-name="perthousand" unicode="&#x2030;" horiz-adv-x="2594" 
d="M2175 614q-66 0 -116 -26t-66 -66v-340q16 -36 66 -64t116 -28t114 27t66 65v340q-18 40 -66 66t-114 26zM1395 614q-66 0 -114 -26t-69 -66v-340q20 -40 70 -66t114 -26t112 27t69 65v340q-20 40 -68 66t-114 26zM2174 721q126 0 210 -52t115 -124v-387
q-31 -70 -115 -122t-209 -52t-210 52t-116 122v387q31 70 115 123t210 53zM1395 721q127 0 211 -52t114 -124v-387q-30 -70 -114 -122t-210 -52t-211 52t-114 122v387q29 70 113 123t211 53zM420 1346q-66 0 -115 -28t-67 -67v-340q18 -37 67 -63t115 -27q66 0 114 26t68 64
v340q-20 39 -68 67t-114 28zM1456 1434v-86l-1001 -1348h-93v86l1002 1348h92zM421 1452q126 0 210 -53t112 -123v-387q-29 -70 -113 -122t-210 -52q-127 0 -211 52t-115 122v387q31 70 116 123t211 53z" />
    <glyph glyph-name="guilsinglleft" unicode="&#x2039;" horiz-adv-x="692" 
d="M592 1102v-101l-348 -397l348 -399v-101h-135l-371 431v137l371 430h135z" />
    <glyph glyph-name="guilsinglright" unicode="&#x203a;" horiz-adv-x="692" 
d="M100 104v101l349 399l-349 397v101h133l373 -430v-137l-373 -431h-133z" />
    <glyph glyph-name="fraction" unicode="&#x2044;" horiz-adv-x="344" 
d="M719 1434v-86l-1002 -1348h-92v86l1002 1348h92z" />
    <glyph glyph-name="uni20A8" unicode="&#x20a8;" horiz-adv-x="1062" 
d="M1032 1434v-121h-258q70 -63 103 -139v-105h155v-123h-155v-100q-49 -115 -164 -189t-226 -73h-112l504 -482v-102h-170l-584 584v129h313q68 0 143 45t105 123v65h-561v123h561v55q-31 76 -105 122q-75 46 -143 46h-313v142h907z" />
    <glyph glyph-name="Euro" unicode="&#x20ac;" horiz-adv-x="1216" 
d="M666 1311q-108 0 -184 -47q-77 -47 -105 -115v-215h506v-119h-506v-162h506v-121h-506v-247q29 -68 105 -115t184 -47t186 57t96 150h172v-111q-43 -88 -163 -168t-299 -80t-303 83t-169 186v292h-123v121h123v162h-123v119h123v260q45 102 169 185t303 83t299 -80
t163 -168v-110h-172q-18 92 -96 150t-186 57z" />
    <glyph glyph-name="uni20BA" unicode="&#x20ba;" horiz-adv-x="1167" 
d="M1057 358v-110q-41 -90 -162 -169t-299 -79h-391v477l-137 -65v135l137 65v189l-137 -66v137l137 66v496h190v-404l414 201v-137l-414 -201v-186l414 198v-137l-414 -199v-417h201q119 0 195 56t96 150h170z" />
    <glyph glyph-name="uni20BD" unicode="&#x20bd;" horiz-adv-x="1185" 
d="M362 1278v-543h277q84 0 154 39q69 39 108 111v245q-82 147 -262 148h-277zM684 1434q129 0 238 -64t172 -178v-356q-58 -104 -164 -169t-246 -65h-322v-143h560v-121h-560v-338h-200v338h-121v121h121v143h-121v133h121v699h522z" />
    <glyph glyph-name="uni2116" unicode="&#x2116;" horiz-adv-x="1990" 
d="M1929 584v-123h-694v123h694zM1580 1331q-142 0 -198 -117v-286q58 -117 198 -117t204 117v286q-62 117 -204 117zM1061 1434v-1434h-227l-490 1110h-6v-1110h-188v1434h227l489 -1110h6v1110h189zM1581 1448q141 0 225 -62t123 -141v-350q-41 -78 -125 -139t-223 -62
q-244 0 -346 201v350q98 203 346 203z" />
    <glyph glyph-name="uni2117" unicode="&#x2117;" horiz-adv-x="1660" 
d="M901 1057h-215v-391h215q115 0 170 108v176q-53 107 -170 107zM930 1169q88 0 164 -49t116 -133v-250q-40 -86 -116 -135t-164 -49h-244v-320h-141v936h385zM829 1372q-270 0 -458 -192q-189 -192 -189 -463q0 -270 188 -463t459 -193q270 0 460 193q189 193 190 463
q0 271 -190 463t-460 192zM830 1462q308 0 528 -218t221 -527q0 -309 -220 -527q-221 -218 -529 -219q-308 0 -528 218q-220 217 -220 527t220 528t528 218z" />
    <glyph glyph-name="trademark" unicode="&#x2122;" horiz-adv-x="1622" 
d="M1505 1434v-799h-121v616h-4l-223 -616h-84l-225 616h-4v-616h-121v799h180l213 -580h4l211 580h174zM639 1434v-103h-227v-696h-129v696h-230v103h586z" />
    <glyph glyph-name="uni2154" unicode="&#x2154;" horiz-adv-x="2091" 
d="M1368 745q100 134 322 134q100 1 179 -47t111 -101v-178q-39 -68 -145 -102q123 -33 164 -123v-183q-33 -61 -119 -111t-209 -50t-208 47t-113 98v92h110q16 -51 72 -87t130 -36q73 0 124 26t72 60v121q-47 86 -185 86h-100v111h92q121 0 174 71v119q-47 72 -173 72
t-189 -111h-109v92zM1624 1434v-86l-1001 -1348h-93v86l1002 1348h92zM414 1452q123 0 207 -51t114 -115v-153q-25 -53 -72 -97q-48 -43 -153 -106l-115 -70q-137 -84 -166 -143v-27h519v-117h-652v170q35 61 79 105t147 106l114 70q133 82 158 143v86q-47 84 -182 84
q-78 1 -128 -33t-69 -79h-119v82q31 55 113 100t205 45z" />
    <glyph glyph-name="oneeighth" unicode="&#x215b;" horiz-adv-x="1966" 
d="M1526 90q66 0 115 26t67 62v135q-18 37 -68 62t-114 25q-66 0 -116 -26t-69 -61v-135q19 -36 69 -62t116 -26zM1529 770q-114 0 -175 -72v-131q55 -69 174 -69t166 69v131q-51 72 -165 72zM1524 -16q-125 0 -210 50t-114 111v181q37 76 135 123q-78 39 -114 94v202
q98 133 304 133t304 -133v-202q-43 -57 -117 -94q96 -43 137 -123v-181q-33 -61 -117 -111t-208 -50zM1470 1434v-86l-1001 -1348h-92v86l1003 1348h90zM104 672h154v643l-156 -17v88l185 48h112v-762h146v-99h-441v99z" />
    <glyph glyph-name="threeeighths" unicode="&#x215c;" horiz-adv-x="2023" 
d="M1598 90q66 0 116 26t66 62v135q-16 35 -66 61t-117 26t-115 -26q-48 -24 -67 -61v-135q17 -36 67 -62t116 -26zM1599 770q-117 0 -172 -72v-131q51 -69 172 -69t168 69v131q-51 72 -168 72zM1596 -16q-124 0 -208 50t-116 111v181q41 80 137 123q-78 39 -115 94v202
q98 133 303 133t304 -133v-202q-43 -57 -117 -94q98 -43 139 -123v-181q-31 -61 -117 -111t-210 -50zM1546 1434v-86l-1001 -1348h-92v86l1001 1348h92zM408 557q-122 0 -208 47q-85 47 -114 98v93h113q14 -51 70 -87q55 -36 129 -36t124 26t72 60v121q-47 86 -184 86h-101
v110h94q61 0 107 23t65 49v119q-16 28 -60 50t-105 21q-137 0 -195 -110h-111v92q20 27 52 53t102 54q70 26 170 26t178 -47t111 -100v-179q-33 -66 -144 -102q121 -35 162 -123v-182q-33 -61 -119 -111t-208 -51z" />
    <glyph glyph-name="fiveeighths" unicode="&#x215d;" horiz-adv-x="2035" 
d="M1612 90q66 0 116 26t66 62v135q-16 35 -66 61t-116 26t-115 -26q-49 -24 -67 -61v-135q18 -36 67 -62t115 -26zM1615 770q-116 0 -173 -72v-131q51 -69 172 -69t168 69v131q-51 72 -167 72zM1611 -16q-124 0 -209 50t-116 111v181q41 80 137 123q-78 39 -114 94v202
q98 133 303 133t303 -133v-202q-43 -57 -117 -94q98 -43 139 -123v-181q-31 -61 -117 -111t-209 -50zM1559 1434v-86l-1002 -1348h-92v86l1001 1348h93zM402 557q-124 0 -204 46t-114 99v93h113q18 -53 72 -88t127 -35t124 26t72 60v190q-49 86 -182 86q-58 0 -104 -26
t-64 -52h-131v478h602v-117h-471v-238q78 57 191 57t187 -42q74 -43 103 -99v-293q-31 -51 -114 -98t-207 -47z" />
    <glyph glyph-name="seveneighths" unicode="&#x215e;" horiz-adv-x="1878" 
d="M1470 90q66 0 116 26t67 62v135q-17 37 -67 62t-116 25t-114 -26q-48 -24 -70 -61v-135q20 -36 70 -62q48 -26 114 -26zM1470 770q-115 0 -170 -72v-131q51 -69 170 -69t170 69v131q-55 72 -170 72zM1469 -16q-123 0 -207 50t-117 111v181q41 80 137 123q-72 35 -117 94
v202q98 133 304 133t305 -133v-202q-43 -57 -117 -94q98 -43 139 -123v-181q-31 -61 -117 -111t-210 -50zM1395 1434v-86l-1002 -1348h-90v86l1002 1348h90zM551 1317h-479v117h622v-103l-375 -758h-110v84l342 654v6z" />
    <glyph glyph-name="arrowleft" unicode="&#x2190;" horiz-adv-x="1556" 
d="M784 1434v-117l-532 -522h1304v-158h-1302l530 -520v-117h-122l-662 662v108l662 664h122z" />
    <glyph glyph-name="arrowup" unicode="&#x2191;" horiz-adv-x="1556" 
d="M1495 786h-117l-510 517v-1303h-176v1303l-514 -517h-117v107l664 663h109l661 -663v-107z" />
    <glyph glyph-name="arrowright" unicode="&#x2192;" horiz-adv-x="1556" 
d="M772 0v117l531 520h-1303v158h1305l-533 522v117h123l661 -664v-108l-661 -662h-123z" />
    <glyph glyph-name="arrowdown" unicode="&#x2193;" horiz-adv-x="1556" 
d="M61 647h117l514 -516v1303h176v-1303l510 516h117v-106l-661 -664h-109l-664 664v106z" />
    <glyph glyph-name="partialdiff" unicode="&#x2202;" horiz-adv-x="1122" 
d="M567 844q-100 0 -171 -44t-99 -112v-407q29 -68 99 -114t168 -46q99 0 169 46t98 114v448q-98 115 -264 115zM566 -29q-179 0 -294 83t-159 190v485q37 104 145 185t276 81t297 -98v117q-51 117 -206 215q-156 98 -332 157l104 113q205 -63 385 -185t234 -259v-811
q-43 -106 -157 -190t-293 -83z" />
    <glyph glyph-name="product" unicode="&#x220f;" horiz-adv-x="1320" 
d="M1163 1434v-1639h-200v1485h-603v-1485h-200v1639h1003z" />
    <glyph glyph-name="summation" unicode="&#x2211;" horiz-adv-x="1136" 
d="M1044 1434v-154h-706l385 -598v-131l-387 -602h708v-154h-954v131l440 690l-440 687v131h954z" />
    <glyph glyph-name="minus" unicode="&#x2212;" horiz-adv-x="1196" 
d="M1108 766v-150h-1022v150h1022z" />
    <glyph glyph-name="radical" unicode="&#x221a;" horiz-adv-x="1200" 
d="M43 958v144h264l285 -881h6l383 1213h164v-103l-438 -1331h-228l-317 958h-119z" />
    <glyph glyph-name="infinity" unicode="&#x221e;" horiz-adv-x="1607" 
d="M1120 961q-66 0 -118 -27t-72 -64l-56 -143l56 -145q20 -37 72 -64q52 -26 118 -26t114 26t64 64v288q-16 37 -64 64t-114 27zM489 492q66 0 116 26t71 66l57 143l-57 141q-20 39 -70 66t-117 27q-65 0 -113 -27t-69 -66v-284q20 -40 68 -66t114 -26zM1120 1075
q123 0 208 -52t116 -122v-350q-31 -70 -116 -122t-208 -52q-124 0 -194 47t-123 125q-53 -78 -124 -125t-194 -47t-207 53t-114 123v346q31 70 115 123q85 53 207 53t193 -47t124 -125q53 78 123 125t194 47z" />
    <glyph glyph-name="integral" unicode="&#x222b;" horiz-adv-x="899" 
d="M690 1460q100 0 168 -20v-125h-104q-164 0 -211 -111v-1388q-80 -188 -336 -189q-106 0 -166 19v127h104q162 0 211 108v1389q80 190 334 190z" />
    <glyph glyph-name="approxequal" unicode="&#x2248;" horiz-adv-x="1196" 
d="M362 612q90 0 270 -52t252 -52q74 0 132 22t86 45l26 23v-174q-86 -70 -211 -70t-301 52t-259 53q-83 0 -153 -27t-102 -51l-34 -27v164q43 36 124 65q80 29 170 29zM362 1038q90 0 270 -52t252 -52q74 0 132 22t86 45l26 23v-174q-86 -70 -211 -70t-301 52t-259 53
q-83 0 -153 -27t-102 -51l-34 -27v164q43 36 124 65q80 29 170 29z" />
    <glyph glyph-name="notequal" unicode="&#x2260;" horiz-adv-x="1196" 
d="M1108 827h-379l-108 -272h487v-152h-547l-92 -225h-154l91 225h-320v152h379l110 272h-489v152h549l90 223h154l-88 -223h317v-152z" />
    <glyph glyph-name="lessequal" unicode="&#x2264;" horiz-adv-x="1196" 
d="M1108 207v-154h-1022v154h1022zM1108 1157v-108l-766 -308l766 -295v-108h-133l-889 344v100l889 375h133z" />
    <glyph glyph-name="greaterequal" unicode="&#x2265;" horiz-adv-x="1196" 
d="M1108 207v-154h-1022v154h1022zM86 338v108l758 293l-758 310v108h135l887 -375v-100l-887 -344h-135z" />
    <glyph glyph-name="lozenge" unicode="&#x25ca;" horiz-adv-x="1189" 
d="M604 1237l-301 -520l301 -520l301 520zM705 1434l405 -717l-405 -717h-203l-404 717l404 717h203z" />
    <glyph glyph-name="uniE000" unicode="&#xe000;" horiz-adv-x="2074" 
d="M1621 90q65 0 115 26t66 62v135q-16 35 -66 61t-116 26t-115 -26t-67 -61v-135q18 -36 68 -62t115 -26zM1623 770q-116 0 -173 -72v-131q51 -69 172 -69t168 69v131q-51 72 -167 72zM1620 -16q-123 0 -209 50t-117 111v181q41 80 138 123q-78 39 -115 94v202
q98 133 303 133t303 -133v-202q-43 -57 -117 -94q98 -45 140 -123v-181q-31 -61 -117 -111t-209 -50zM432 1012q-106 0 -182 -66v-196q16 -35 66 -62q50 -26 116 -26t116 26t68 62v176q-18 38 -68 62t-116 24zM1567 1434v-86l-1002 -1348h-92v86l1002 1348h92zM432 557
q-123 0 -209 50t-117 112v571q33 62 118 112t208 50t205 -47t113 -100v-80h-121q-19 53 -71 85t-122 32t-120 -26t-66 -63v-204q86 65 202 65t192 -42t106 -97v-273q-35 -53 -115 -99t-203 -46z" />
    <glyph glyph-name="uniE001" unicode="&#xe001;" horiz-adv-x="2545" 
d="M2144 438q-109 0 -182 -67v-195q18 -36 68 -62t114 -26q66 0 116 27t69 61v176q-19 38 -69 62t-116 24zM1528 860v-762h145v-98h-440v98h151v643l-153 -16v88l184 47h113zM2147 768q-69 0 -117 -26t-68 -62v-207q88 68 204 68t190 -42t106 -98v-272q-31 -51 -113 -98
t-205 -47t-207 50t-116 111v572q33 61 117 111t206 50q123 0 207 -46q84 -48 111 -101v-80h-119q-19 53 -73 85t-123 32zM1427 1434v-86l-1001 -1348h-92v86l1001 1348h92zM86 672h154v643l-156 -17v88l186 48h111v-762h145v-99h-440v99z" />
    <glyph glyph-name="NULL" horiz-adv-x="0" 
 />
    <glyph glyph-name="acute.case" 
d="M596 1855v-88l-166 -225h-137v33l131 280h172z" />
    <glyph glyph-name="breve.case" 
d="M739 1792v-115q-76 -158 -297 -157q-118 0 -192 46t-107 111v115h142v-76q12 -30 51 -56q40 -26 106 -26t105 28t51 54v76h141z" />
    <glyph glyph-name="caron.alt" 
d="M541 1434v-101l-74 -266h-121v31l39 336h156z" />
    <glyph glyph-name="caron.case" 
d="M745 1855v-32l-180 -281h-243l-183 281v32h129l174 -217l174 217h129z" />
    <glyph glyph-name="circumflex.case" 
d="M745 1542h-129l-174 217l-174 -217h-129v33l183 280h243l180 -280v-33z" />
    <glyph glyph-name="dieresis.case" 
d="M649 1788q72 0 107 -41v-131q-35 -41 -107 -41t-100 41v131q28 41 100 41zM238 1788q72 0 100 -41v-131q-28 -41 -100 -41t-107 41v131q35 41 107 41z" />
    <glyph glyph-name="dotaccent.case" 
d="M440 1798q84 0 111 -53v-107q-27 -51 -112 -51t-105 51v107q22 53 106 53z" />
    <glyph glyph-name="eight.sups" horiz-adv-x="868" 
d="M434 973q-66 0 -116 -26t-68 -60v-135q18 -35 68 -62q50 -26 116 -26t115 26t67 62v135q-18 37 -67 61t-115 25zM435 1071q118 0 169 70v131q-55 72 -168 72t-174 -72v-131q55 -70 173 -70zM432 557q-125 0 -210 50t-113 112v180q35 76 135 123q-70 35 -115 94v203
q98 133 304 133t304 -133v-203q-42 -57 -116 -94q98 -45 137 -123v-180q-33 -61 -117 -111t-209 -51z" />
    <glyph glyph-name="eight.tf" horiz-adv-x="1187" 
d="M598 127q110 -1 188 49t107 111v229q-53 109 -262 160l-45 12q-117 -23 -193 -74t-94 -98v-229q27 -59 108 -109t191 -51zM596 1309q-88 0 -156 -38t-102 -89v-205q49 -82 203 -123l69 -18q84 18 154 59t90 82v205q-34 51 -102 89t-156 38zM596 -29q-133 1 -242 51
q-110 50 -160 104t-85 116v327q68 121 253 187q-129 57 -200 170v321q55 84 165 150q109 65 269 65t270 -66t164 -149v-321q-58 -97 -205 -154q111 -41 165 -89t93 -114v-327q-45 -96 -167 -184t-320 -87z" />
    <glyph glyph-name="five.sups" horiz-adv-x="845" 
d="M729 1434v-117h-471v-238q78 57 192 57t187 -42q74 -43 102 -99v-293q-31 -51 -113 -98t-207 -47q-124 0 -205 46t-114 99v93h113q19 -53 73 -88t127 -35t124 26t71 60v190q-49 86 -182 86q-59 0 -104 -26t-64 -52h-131v478h602z" />
    <glyph glyph-name="five.tf" horiz-adv-x="1187" 
d="M1038 1434v-160h-698v-445q119 109 287 109q167 0 277 -73t151 -167v-477q-43 -92 -163 -171t-297 -79t-300 79t-168 171v111h174q16 -82 98 -144q83 -62 189 -63q106 0 183 47t106 115v336q-29 71 -106 117t-177 46q-162 0 -254 -118h-176v766h874z" />
    <glyph glyph-name="four.sups" horiz-adv-x="862" 
d="M541 1313h-6l-324 -430h330v430zM676 1434v-551h127v-107h-127v-203h-135v203h-473v105l419 553h189z" />
    <glyph glyph-name="four.tf" horiz-adv-x="1187" 
d="M766 1266h-6l-498 -762h504v762zM950 1434v-930h189v-154h-189v-350h-184v350h-700v150l616 934h268z" />
    <glyph glyph-name="grave.case" 
d="M592 1542h-137l-164 225v88h168l133 -280v-33z" />
    <glyph glyph-name="hungarumlaut.case" 
d="M752 1853v-75l-123 -236h-121v31l94 280h150zM385 1853v-75l-123 -236h-121v31l97 280h147z" />
    <glyph glyph-name="i.TRK" horiz-adv-x="466" 
d="M328 1102v-1102h-189v1102h189zM231 1489q84 0 111 -53v-107q-27 -51 -112 -51t-105 51v107q22 53 106 53z" />
    <glyph glyph-name="macron.case" 
d="M766 1718v-137h-645v137h645z" />
    <glyph glyph-name="nine.sups" horiz-adv-x="862" 
d="M424 985q109 0 182 68v207q-18 36 -67 62t-115 26t-116 -27t-68 -61v-189q18 -35 68 -61t116 -25zM425 1452q124 0 209 -50t114 -112v-571q-31 -59 -116 -111t-208 -51q-123 0 -207 47t-111 101v79h119q19 -53 73 -85q54 -31 123 -31t118 26t67 62v194q-88 -68 -204 -68
t-190 43q-74 42 -106 97v285q31 51 113 98t206 47z" />
    <glyph glyph-name="nine.tf" horiz-adv-x="1187" 
d="M588 674q170 0 278 123v350q-29 68 -105 115q-77 47 -177 47t-176 -47t-105 -115v-318q29 -67 106 -111t179 -44zM586 1462q178 0 303 -84t170 -186v-952q-45 -102 -170 -186t-303 -83q-178 0 -297 78t-164 170v111h172q16 -94 93 -150q78 -56 186 -57q108 0 185 48
t105 114v354q-127 -117 -303 -117q-175 0 -285 73t-153 169v448q41 90 162 170t299 80z" />
    <glyph glyph-name="one.sups" horiz-adv-x="620" 
d="M395 1434v-762h146v-99h-441v99h154v643l-156 -17v88l187 48h110z" />
    <glyph glyph-name="one.tf" horiz-adv-x="1187" 
d="M727 1434v-1287h340v-147h-891v147h359v1084l-361 -166v152l420 217h133z" />
    <glyph glyph-name="ring.case" 
d="M443 1710q-83 0 -119 -51v-117q38 -51 120 -51t115 51v117q-33 51 -116 51zM442 1802q76 0 136 -32t84 -78v-183q-25 -49 -83 -81q-57 -32 -135 -32t-137 32t-86 81v183q27 46 86 78t135 32z" />
    <glyph glyph-name="seven.sups" horiz-adv-x="743" 
d="M676 1434v-103l-377 -758h-109v84l342 654v6h-479v117h623z" />
    <glyph glyph-name="seven.tf" horiz-adv-x="1187" 
d="M1042 1434v-146l-577 -1288h-154v123l539 1151h-721v160h913z" />
    <glyph glyph-name="six.sups" horiz-adv-x="864" 
d="M438 1012q-109 0 -182 -68v-194q16 -35 66 -62q50 -26 116 -26t116 26t67 62v176q-17 34 -67 60t-116 26zM442 1341q-70 1 -120 -25t-66 -63v-204q88 65 203 65t191 -42t104 -97v-273q-31 -51 -113 -98t-204 -47t-208 50t-116 112v571q33 62 117 112t208 50
q123 0 206 -47t110 -100v-80h-119q-19 53 -71 85t-122 31z" />
    <glyph glyph-name="six.tf" horiz-adv-x="1187" 
d="M606 745q-174 0 -280 -122v-336q30 -68 106 -115t176 -47t177 47t106 115v305q-27 66 -105 110t-180 43zM616 1311q-108 0 -184 -48t-106 -114v-371q125 119 323 119q157 0 267 -72t153 -168v-436q-41 -90 -162 -170t-300 -80t-303 84t-169 187v952q45 102 169 185
t303 83t298 -78t164 -170v-110h-172q-16 94 -94 150q-79 56 -187 57z" />
    <glyph glyph-name="three.sups" horiz-adv-x="860" 
d="M440 1452q100 0 178 -47t111 -100v-179q-33 -66 -143 -102q121 -35 162 -123v-182q-31 -59 -118 -111t-210 -51q-123 0 -208 47t-114 98v93h113q15 -51 71 -87t129 -36t125 26t70 60v121q-18 37 -67 61t-117 25h-100v110h94q61 0 107 23t65 49v119q-16 28 -60 50t-106 21
q-137 0 -195 -110h-110v92q20 27 51 53q32 26 102 54q70 26 170 26z" />
    <glyph glyph-name="three.tf" horiz-adv-x="1187" 
d="M571 1462q174 0 287 -77t160 -164v-289q-68 -119 -230 -176q94 -31 162 -90t94 -123v-301q-45 -102 -168 -187q-124 -84 -302 -84t-305 81q-126 81 -167 169v111h174q20 -88 102 -148t189 -59q106 0 182 47q75 47 105 115v221q-29 70 -104 119q-76 49 -177 49h-147v147
h131q96 0 167 42t103 96v215q-82 135 -258 135q-115 -1 -185 -57t-87 -124h-172v111q45 77 159 149t287 72z" />
    <glyph glyph-name="tilde.case" 
d="M300 1780q71 0 152 -54t117 -55q66 0 84 58v38h117v-90q-18 -57 -66 -94t-122 -37q-72 0 -151 56t-116 55q-59 0 -84 -60v-41h-116v91q18 61 66 97t119 36z" />
    <glyph glyph-name="two.sups" horiz-adv-x="843" 
d="M418 1452q123 0 207 -51t114 -115v-153q-25 -53 -72 -97q-48 -43 -153 -106l-115 -70q-137 -84 -166 -143v-27h519v-117h-652v170q35 61 79 105t147 106l114 70q133 82 158 143v86q-47 84 -182 84q-78 1 -128 -33t-69 -79h-119v82q31 55 113 100t205 45z" />
    <glyph glyph-name="two.tf" horiz-adv-x="1187" 
d="M584 1462q178 0 302 -84t167 -184v-289q-31 -78 -99 -141t-233 -168l-158 -100q-213 -135 -254 -230v-106h760v-160h-950v315q49 88 113 150q65 61 227 164l159 100q113 74 170 124t74 99v197q-31 68 -105 115q-75 47 -181 47q-106 -1 -185 -55q-80 -54 -100 -152h-170
v110q47 90 166 169t297 79z" />
    <glyph glyph-name="uni0326.alt" horiz-adv-x="0" 
d="M-442 1415q39 0 68.5 -16.5t37.5 -34.5v-80q-8 -18 -37.5 -34.5t-69.5 -16.5t-70 16.5t-36 34.5v207q8 29 48 55.5t95 26.5h54v-78h-35q-47 0 -59 -18v-62h4z" />
    <glyph glyph-name="zero.sups" horiz-adv-x="876" 
d="M440 1343q-66 1 -116 -25t-68 -63v-503q18 -37 68 -63q50 -25 116 -25t115 26t66 62v503q-15 37 -65 63t-116 25zM438 1452q123 0 208 -50t118 -112v-571q-31 -61 -117 -111t-209 -51q-123 0 -209 50t-116 112v571q33 62 117 112t208 50z" />
    <glyph glyph-name="zero.tf" horiz-adv-x="1187" 
d="M594 1311q-100 0 -176 -47t-105 -115v-862q29 -68 105 -115t176 -47t177 47t106 115v862q-29 68 -106 115t-177 47zM596 1462q180 0 304 -84t167 -184v-952q-43 -102 -167 -186t-304 -85q-180 0 -306 84t-169 187v952q45 102 170 185t305 83z" />
    </font>
</defs>
</svg>
