<?xml version="1.0" standalone="no"?>
<!DOCTYPE svg PUBLIC "-//W3C//DTD SVG 1.1//EN" "http://www.w3.org/Graphics/SVG/1.1/DTD/svg11.dtd" >
<svg xmlns="http://www.w3.org/2000/svg">
<metadata>
Created by FontPrep 20130207 at Thu Sep  1 11:04:33 2016
 By MkTyrtle
Copyright (c) 2015 by Cadillac and Letters from Sweden. All rights reserved.
</metadata>
<defs>
<font id="0400747f846f5a60426450fb64287020" horiz-adv-x='1024' >
  <font-face 
    font-family="CadillacSansA-Light"
    font-weight="300"
    font-stretch="normal"
    units-per-em="2048"
    panose-1="0 0 4 0 0 0 0 0 0 0"
    ascent="1536"
    descent="-512"
    x-height="1098"
    cap-height="1434"
    bbox="-500 -444.034 2470 1847"
    underline-thickness="102"
    underline-position="-102"
    unicode-range="U+000D-FB02"
  />
<missing-glyph horiz-adv-x="1222" 
d="M938 1548h-651v-1663h651v1663zM1038 1638v-1843h-854v1843h854z" />
    <glyph glyph-name="fi" unicode="fi" horiz-adv-x="1118" 
d="M961 1098v-1098h-117v1098h117zM903 1464q59 0 76 -34v-87q-15 -35 -75 -35t-79 35v87q19 34 78 34zM532 1468q94 0 144 -16v-90q-61 6 -107 6q-190 0 -252 -129v-141h318v-94h-318v-1004h-116v1004h-154v94h154v184q87 186 331 186z" />
    <glyph glyph-name="fl" unicode="fl" horiz-adv-x="1101" 
d="M952 1434v-1434h-116v1434h116zM532 1468q94 0 144 -16v-90q-61 6 -107 6q-190 0 -252 -129v-141h318v-94h-318v-1004h-116v1004h-154v94h154v184q87 186 331 186z" />
    <glyph glyph-name="f_f" unicode="ff" horiz-adv-x="1294" 
d="M1176 1368q-188 0 -250 -129v-141h317v-94h-317v-1004h-117v1004h-492v-1004h-116v1004h-154v94h154v184q88 186 331 186q94 0 144 -16v-90q-61 6 -107 6q-190 0 -252 -129v-141h492v184q88 186 330 186q96 0 145 -16v-90q-61 6 -108 6z" />
    <glyph glyph-name=".notdef" horiz-adv-x="1222" 
d="M938 1548h-651v-1663h651v1663zM1038 1638v-1843h-854v1843h854z" />
    <glyph glyph-name=".null" horiz-adv-x="0" 
 />
    <glyph glyph-name="nonmarkingreturn" horiz-adv-x="681" 
 />
    <glyph glyph-name="CR" unicode="&#xd;" horiz-adv-x="401" 
 />
    <glyph glyph-name="CR" horiz-adv-x="401" 
 />
    <glyph glyph-name="space" unicode=" " horiz-adv-x="425" 
 />
    <glyph glyph-name="exclam" unicode="!" horiz-adv-x="528" 
d="M266 -14q-59 0 -80 34v93q18 35 80 35t74 -35v-93q-15 -34 -74 -34zM197 1434h135v-193l-17 -948h-102l-16 948v193z" />
    <glyph glyph-name="quotedbl" unicode="&#x22;" horiz-adv-x="610" 
d="M516 1434v-131l-16 -244h-74l-18 244v131h108zM203 1434v-131l-19 -244h-73l-17 244v131h109z" />
    <glyph glyph-name="numbersign" unicode="#" horiz-adv-x="1200" 
d="M774 518l62 381h-410l-61 -381h409zM1126 899h-190l-62 -381h175v-90h-191l-67 -428h-91v68l60 360h-410l-69 -428h-91v68l60 360h-174v90h188l62 381h-176v90h190l72 445h88v-68l-60 -377h410l72 445h88v-68l-60 -377h176v-90z" />
    <glyph glyph-name="dollar" unicode="$" horiz-adv-x="1185" 
d="M645 -197h-104v172q-174 9 -283 91t-158 176v80h107q37 -98 136 -170t237 -72t227 60q90 60 127 139v208q-27 59 -87 103t-188 78l-149 39q-162 43 -239 92t-128 131v297q127 211 398 231v172h104v-172q145 -12 243 -79t146 -152v-80h-104q-39 94 -127 150
q-88 57 -207 57t-202 -47t-126 -119v-213q51 -102 262 -158l150 -39q178 -49 257 -107t122 -139v-290q-131 -240 -414 -267v-172z" />
    <glyph glyph-name="percent" unicode="%" horiz-adv-x="1789" 
d="M1379 639q-77 0 -135 -32t-81 -77v-360q23 -45 81 -77t135 -32t133 32t79 77v360q-19 45 -77 77t-135 32zM1377 717q120 0 202 -51t113 -117v-397q-31 -66 -112 -116t-202 -50q-122 0 -202 50t-109 116v397q29 66 109 117t201 51zM412 1374q-78 0 -136 -33t-79 -77v-361
q20 -45 78 -76q59 -31 137 -31t135 32q57 30 78 75v361q-19 46 -77 78t-136 32zM1438 1434v-60l-1020 -1374h-64v59l1018 1375h66zM413 1450q121 0 201 -51t109 -117v-397q-29 -66 -110 -116t-201 -50t-202 50q-81 50 -112 116v397q31 66 113 117t202 51z" />
    <glyph glyph-name="ampersand" unicode="&#x26;" horiz-adv-x="1345" 
d="M618 74q231 0 365 188l-465 453q-90 -21 -161 -71t-99 -120v-252q41 -94 137 -146t223 -52zM1315 0h-64l-188 182q-174 -209 -445 -209q-186 0 -309 78t-170 189v311q88 182 301 240l-49 47q-96 96 -139 161v277q39 62 143 122q105 60 253 60t250 -58t151 -124v-72h-101
q-31 61 -108 109q-78 47 -191 47q-170 0 -278 -115v-209q23 -53 106 -131l531 -518v356h108v-460l199 -195v-88z" />
    <glyph glyph-name="quotesingle" unicode="'" horiz-adv-x="296" 
d="M203 1434v-131l-19 -244h-73l-17 244v131h109z" />
    <glyph glyph-name="parenleft" unicode="(" horiz-adv-x="757" 
d="M672 1434v-97h-13q-141 1 -238 -75t-134 -185v-1061q39 -112 134 -188t238 -76h13v-96h-13q-199 0 -325 94t-178 223v1143q53 129 179 223t324 95h13z" />
    <glyph glyph-name="parenright" unicode=")" horiz-adv-x="757" 
d="M98 1434q199 0 325 -94t179 -224v-1143q-53 -129 -179 -223t-325 -94h-12v96h12q143 0 240 77q96 77 135 187v1061q-39 109 -136 185t-239 75h-12v97h12z" />
    <glyph glyph-name="asterisk" unicode="*" horiz-adv-x="1017" 
d="M510 1532q35 0 55 -14l-26 -373l346 141q21 -12 32 -47t3 -57l-367 -90l244 -289q-8 -25 -36 -46t-54 -20l-197 316l-197 -316q-27 -2 -55 20t-35 46l244 289l-369 90q-8 26 4 58t31 46l348 -139l-26 371q20 14 55 14z" />
    <glyph glyph-name="plus" unicode="+" horiz-adv-x="1191" 
d="M1096 745v-100h-451v-452h-100v452h-451v100h451v449h100v-449h451z" />
    <glyph glyph-name="comma" unicode="," horiz-adv-x="335" 
d="M168 147q28 0 50 -11t26 -23v-248q-6 -20 -35 -45t-68 -25h-39v60h31q20 0 35 22v100q-57 0 -78 35v101q17 34 78 34z" />
    <glyph glyph-name="hyphen" unicode="-" horiz-adv-x="741" 
d="M645 745v-100h-551v100h551z" />
    <glyph glyph-name="period" unicode="." horiz-adv-x="335" 
d="M169 147q62 0 75 -34v-93q-14 -34 -74 -34t-80 34v93q17 34 79 34z" />
    <glyph glyph-name="slash" unicode="/" horiz-adv-x="776" 
d="M664 1497v-67l-451 -1655h-100v67l450 1655h101z" />
    <glyph glyph-name="zero" unicode="0" horiz-adv-x="1185" 
d="M592 1358q-119 0 -209 -58t-123 -137v-891q33 -82 123 -139t210 -57t209 57t122 139v891q-33 79 -123 137t-209 58zM592 1460q172 0 292 -81t160 -183v-956q-41 -102 -160 -185q-120 -82 -292 -82t-291 82t-162 185v956q43 102 162 183t291 81z" />
    <glyph glyph-name="one" unicode="1" horiz-adv-x="880" 
d="M522 1434v-1342h244v-92h-621v92h256v1200l-258 -121v101l310 162h69z" />
    <glyph glyph-name="two" unicode="2" horiz-adv-x="1140" 
d="M561 1460q170 0 289 -82t164 -182v-283q-31 -70 -98 -130t-197 -144l-199 -125q-238 -150 -287 -262v-148h799v-104h-919v287q49 86 111 146t231 167l196 125q209 135 242 221v217q-33 80 -123 137q-90 58 -213 58t-217 -66t-121 -166h-104v78q43 96 159 176
q117 80 287 80z" />
    <glyph glyph-name="three" unicode="3" horiz-adv-x="1153" 
d="M549 1460q167 0 277 -74t153 -157v-283q-27 -49 -90 -103t-154 -83q102 -30 175 -94t104 -136v-290q-45 -102 -164 -184t-289 -83q-170 0 -290 81t-160 175v78h104q31 -98 124 -165q93 -66 217 -66t214 57t123 139v236q-33 82 -123 140t-209 59h-139v96h121q115 0 197 51
t118 113v229q-35 62 -115 112q-79 50 -199 50t-205 -60t-114 -137h-104v78q43 77 153 149t275 72z" />
    <glyph glyph-name="four" unicode="4" horiz-adv-x="1146" 
d="M778 1327h-6l-582 -844h588v844zM897 1434v-951h205v-102h-205v-381h-119v381h-717v98l660 955h176z" />
    <glyph glyph-name="five" unicode="5" horiz-adv-x="1155" 
d="M1006 1434v-107h-725v-510q121 121 299 121t290 -77t154 -175v-457q-41 -96 -159 -176q-117 -80 -287 -80t-288 80t-161 176v78h104q29 -94 122 -163q93 -68 217 -68t214 57t123 139v369q-33 80 -123 137t-208 58q-190 0 -297 -138h-113v736h838z" />
    <glyph glyph-name="six" unicode="6" horiz-adv-x="1171" 
d="M598 791q-115 -1 -202 -49t-134 -121v-349q33 -82 123 -139t209 -57t209 58t123 138v326q-33 80 -123 136t-205 57zM600 1358q-125 0 -215 -58t-123 -137v-422q131 150 350 150q162 0 274 -76t154 -176v-410q-40 -96 -158 -176t-289 -80t-291 82t-161 185v956
q43 102 162 183t290 81t288 -80t159 -176v-78h-104q-27 100 -119 166t-217 66z" />
    <glyph glyph-name="seven" unicode="7" horiz-adv-x="980" 
d="M920 1434v-99l-607 -1335h-90v88l574 1239h-766v107h889z" />
    <glyph glyph-name="eight" unicode="8" horiz-adv-x="1183" 
d="M593 78q132 0 226 60t129 136v234q-66 127 -295 188l-69 19q-272 -61 -348 -207v-234q35 -74 130 -135t227 -61zM592 1358q-110 0 -191 -46q-80 -46 -120 -116v-211q57 -104 245 -156l80 -20q238 61 299 176v211q-41 68 -122 115t-191 47zM592 -27q-260 0 -416 183
q-35 41 -59 86v301q39 70 104 121q66 51 201 94q-180 66 -254 194v285q54 90 160 157q106 66 264 66t264 -66t162 -157v-287q-76 -123 -254 -184q138 -45 200 -97t105 -126v-301q-51 -100 -169 -184t-308 -85z" />
    <glyph glyph-name="nine" unicode="9" horiz-adv-x="1171" 
d="M574 635q114 0 200 48t135 124v354q-33 82 -123 139q-90 58 -208 58t-209 -58q-90 -58 -123 -139v-334q33 -80 123 -136t205 -56zM579 1460q171 0 291 -82t160 -184v-956q-43 -102 -162 -184q-120 -82 -290 -81q-170 0 -287 80t-160 176v78h105q26 -100 118 -166
q92 -65 218 -65t214 57q90 57 123 137v412q-135 -150 -350 -150q-161 0 -273 77t-155 175v420q41 96 159 176t289 80z" />
    <glyph glyph-name="colon" unicode=":" horiz-adv-x="372" 
d="M188 147q61 0 74 -34v-93q-14 -34 -74 -34t-79 34v93q18 34 79 34zM188 997q61 0 74 -34v-91q-12 -34 -74 -34t-79 34v91q18 34 79 34z" />
    <glyph glyph-name="semicolon" unicode=";" horiz-adv-x="372" 
d="M186 147q27 0 50 -11t26 -23v-248q-6 -20 -35 -45t-67 -25h-39v60h31q20 0 34 22v100q-57 0 -77 35v101q18 34 77 34zM188 997q61 0 74 -34v-91q-12 -34 -74 -34t-79 34v91q18 34 79 34z" />
    <glyph glyph-name="less" unicode="&#x3c;" horiz-adv-x="1191" 
d="M1122 1098v-74l-903 -410l903 -405v-74h-84l-970 443v77l970 443h84z" />
    <glyph glyph-name="equal" unicode="=" horiz-adv-x="1191" 
d="M1096 537v-101h-1002v101h1002zM1096 952v-100h-1002v100h1002z" />
    <glyph glyph-name="greater" unicode="&#x3e;" horiz-adv-x="1191" 
d="M68 135v74l903 405l-903 410v74h86l968 -443v-77l-968 -443h-86z" />
    <glyph glyph-name="question" unicode="?" horiz-adv-x="1069" 
d="M436 -14q-59 0 -80 34v93q16 35 78 35t76 -35v-93q-15 -34 -74 -34zM373 309v236l342 250q119 84 147 139v264q-117 158 -332 158q-123 0 -215 -56t-129 -135h-104v78q150 217 452 217t451 -225v-344q-31 -61 -166 -162l-323 -240v-180h-123z" />
    <glyph glyph-name="at" unicode="@" horiz-adv-x="1947" 
d="M958 154q203 0 306 137v551q-102 137 -314 137q-110 0 -182 -45t-104 -100v-535q91 -145 294 -145zM975 1460q173 0 325 -55q246 -89 414 -309q63 -84 92 -162v-707q-80 -151 -260 -151t-262 131q-125 -145 -350 -146q-152 0 -245 67t-134 142v590q41 78 132 145t243 66
q213 0 334 -131v107h110v-789q50 -100 162 -100t176 98v659q-47 116 -158 225q-238 234 -581 234q-248 0 -445 -123t-290 -338v-694q96 -213 292 -338t430 -125t418 109l60 -64q-214 -129 -480 -129t-490 142t-325 383v739q101 242 327 383t505 141z" />
    <glyph glyph-name="A" unicode="A" horiz-adv-x="1226" 
d="M346 549h524l-258 774h-6zM1159 0h-104l-148 442h-596l-147 -442h-96v88l456 1346h176l459 -1346v-88z" />
    <glyph glyph-name="B" unicode="B" horiz-adv-x="1189" 
d="M666 688h-371v-582h350q222 1 320 177v241q-41 72 -125 118t-174 46zM295 1327v-534h358q78 0 156 45t125 116v199q-43 80 -123 127t-178 47h-338zM672 0h-504v1434h491q131 0 233 -67t161 -173v-266q-66 -117 -205 -180q68 -25 136 -76t101 -113v-317
q-141 -242 -413 -242z" />
    <glyph glyph-name="C" unicode="C" horiz-adv-x="1241" 
d="M641 1460q197 0 319.5 -90t178.5 -213v-78h-105q-41 121 -142 199q-102 78 -246 78t-241.5 -67.5t-138.5 -168.5v-805q41 -100 138.5 -167.5t241.5 -67.5t245.5 76.5t142.5 199.5h105v-77q-55 -123 -178 -214.5t-321 -91.5t-322.5 92.5t-178.5 219.5v866q53 125 179 217
t323 92z" />
    <glyph glyph-name="D" unicode="D" horiz-adv-x="1275" 
d="M635 1327h-340v-1221h340q141 0 238 58t137 153v799q-38 94 -136 152t-239 59zM651 1434q191 0 313 -82t173 -201v-868q-51 -119 -173 -201t-313 -82h-483v1434h483z" />
    <glyph glyph-name="E" unicode="E" horiz-adv-x="1110" 
d="M987 1434v-107h-692v-534h645v-105h-645v-582h711v-106h-838v1434h819z" />
    <glyph glyph-name="F" unicode="F" horiz-adv-x="1054" 
d="M967 1434v-107h-672v-534h635v-107h-635v-686h-127v1434h799z" />
    <glyph glyph-name="G" unicode="G" horiz-adv-x="1298" 
d="M646.5 1356q-144.5 0 -242 -67.5t-138.5 -168.5v-805q41 -98 139.5 -166.5t237.5 -68.5t235.5 66.5t139.5 166.5v314h-338v104h459v-731h-113v154q-137 -180 -397 -181q-190 0 -313 93.5t-177 218.5v866q53 125 179 217t323 92t319.5 -90t178.5 -213v-78h-105
q-41 121 -142 199t-245.5 78z" />
    <glyph glyph-name="H" unicode="H" horiz-adv-x="1312" 
d="M1145 1434v-1434h-127v686h-723v-686h-127v1434h127v-641h723v641h127z" />
    <glyph glyph-name="I" unicode="I" horiz-adv-x="462" 
d="M295 1434v-1434h-127v1434h127z" />
    <glyph glyph-name="J" unicode="J" horiz-adv-x="790" 
d="M41 104h90q135 0 235 58t140 157v1115h127v-1149q-57 -129 -181 -208t-315 -79l-96 2v104z" />
    <glyph glyph-name="K" unicode="K" horiz-adv-x="1185" 
d="M1118 0h-88l-526 764l-209 -217v-547h-127v1434h127v-729l692 729h72v-88l-471 -494l530 -764v-88z" />
    <glyph glyph-name="L" unicode="L" horiz-adv-x="925" 
d="M295 1434v-1328h582v-106h-709v1434h127z" />
    <glyph glyph-name="M" unicode="M" horiz-adv-x="1617" 
d="M1450 1434v-1434h-121v1298h-6l-459 -919h-112l-457 919h-6v-1298h-121v1434h190l449 -902h6l449 902h188z" />
    <glyph glyph-name="N" unicode="N" horiz-adv-x="1345" 
d="M1178 1434v-1434h-174l-709 1278h-6v-1278h-121v1434h174l709 -1278h6v1278h121z" />
    <glyph glyph-name="O" unicode="O" horiz-adv-x="1282" 
d="M641 1356q-139 0 -237 -68t-138 -168v-805q41 -100 138 -168q96 -67 236 -67t238 67q97 68 138 168v805q-41 100 -138 168q-98 68 -237 68zM641 1460q197 0 323 -92t179 -217v-866q-53 -127 -178 -219t-324 -92t-324 92t-178 219v866q53 125 179 217t323 92z" />
    <glyph glyph-name="P" unicode="P" horiz-adv-x="1148" 
d="M621 1327h-326v-641h326q96 0 177 46t126 130v289q-49 90 -131 133t-172 43zM647 1434q125 0 233 -65t167 -175v-375q-59 -106 -163 -173t-237 -66h-352v-580h-127v1434h479z" />
    <glyph glyph-name="Q" unicode="Q" horiz-adv-x="1282" 
d="M642 1356q-140 0 -238 -68t-138 -168v-805q41 -100 138 -168q96 -67 236 -67t238 67q97 68 138 168v805q-41 100 -138 168q-96 68 -236 68zM1028 -199h117v-98h-129q-110 0 -222 82t-153 188q-199 1 -324 93t-178 219v866q53 125 179 217t323 92t323 -92t179 -217v-866
q-45 -105 -141 -189t-238 -110q39 -82 120 -134t144 -51z" />
    <glyph glyph-name="R" unicode="R" horiz-adv-x="1193" 
d="M295 1327v-588h344q203 0 303 174v238q-47 86 -127 131t-176 45h-344zM1085 0h-90l-426 633h-274v-633h-127v1434h498q125 0 231.5 -64.5t167.5 -175.5v-320q-53 -98 -145 -162.5t-209 -76.5l374 -547v-88z" />
    <glyph glyph-name="S" unicode="S" horiz-adv-x="1171" 
d="M584 1460q170 0 284.5 -69.5t169.5 -163.5v-80h-106q-41 94 -130 150.5t-220 56.5q-223 0 -326 -166v-213q29 -53 87 -89t181 -69l152 -39q182 -49 262 -107.5t123 -138.5v-290q-35 -63 -84 -116.5t-155.5 -103t-241.5 -49.5q-195 0 -318 84t-174 185v80h107
q37 -98 138 -170t241 -72t232.5 61.5t131.5 137.5v206q-27 59 -89.5 103.5t-193.5 79.5l-153 39q-162 41 -240 91t-131 132v297q144 233 453 233z" />
    <glyph glyph-name="T" unicode="T" horiz-adv-x="1075" 
d="M1024 1434v-107h-424v-1327h-127v1327h-422v107h973z" />
    <glyph glyph-name="U" unicode="U" horiz-adv-x="1318" 
d="M1161 1434v-1149q-53 -127 -178 -219t-324 -92t-323 92t-176 219v1149h127v-1117q39 -99 136 -167t236 -68t237 68q97 68 138 167v1117h127z" />
    <glyph glyph-name="V" unicode="V" horiz-adv-x="1230" 
d="M1165 1434v-88l-460 -1346h-179l-458 1346v88h104l442 -1319h7l440 1319h104z" />
    <glyph glyph-name="W" unicode="W" horiz-adv-x="1808" 
d="M1731 1434v-88l-291 -1346h-185l-352 1262h-6l-350 -1262h-178l-291 1346v88h110l275 -1313h6l362 1313h146l362 -1313h7l276 1313h109z" />
    <glyph glyph-name="X" unicode="X" horiz-adv-x="1177" 
d="M1067 1434v-88l-387 -615l399 -643v-88h-94l-395 651h-6l-398 -651h-88v88l400 641l-385 617v88h94l383 -627h6l383 627h88z" />
    <glyph glyph-name="Y" unicode="Y" horiz-adv-x="1118" 
d="M1040 1434v-88l-419 -711v-635h-127v645l-416 701v88h88l393 -672h4l391 672h86z" />
    <glyph glyph-name="Z" unicode="Z" horiz-adv-x="1159" 
d="M1055 1434v-91l-799 -1237h799v-106h-953v90l801 1237h-782v107h934z" />
    <glyph glyph-name="bracketleft" unicode="[" horiz-adv-x="749" 
d="M637 1434v-97h-326v-1585h326v-96h-453v1778h453z" />
    <glyph glyph-name="backslash" unicode="\" horiz-adv-x="776" 
d="M664 -225h-101l-450 1655v67h100l451 -1655v-67z" />
    <glyph glyph-name="bracketright" unicode="]" horiz-adv-x="749" 
d="M565 1434v-1778h-452v96h325v1585h-325v97h452z" />
    <glyph glyph-name="asciicircum" unicode="^" horiz-adv-x="1060" 
d="M948 700h-80l-325 625h-29l-326 -625h-75v72l346 662h141l348 -660v-74z" />
    <glyph glyph-name="underscore" unicode="_" horiz-adv-x="1003" 
d="M1014 -156v-88h-1024v88h1024z" />
    <glyph glyph-name="grave" unicode="`" horiz-adv-x="849" 
d="M551 1243h-86l-166 254v64h107l145 -287v-31z" />
    <glyph glyph-name="a" unicode="a" horiz-adv-x="1095" 
d="M504 74q119 0 207 47t129 115v313h-340q-174 0 -271 -115v-241q99 -119 275 -119zM524 1124q172 0 281 -80t151 -186v-858h-114v119q-125 -145 -366 -145t-363 171v326q27 48 87 92q114 82 281 82h359v184q-35 83 -116 139t-196 56q-114 0 -190 -48t-107 -112h-98v68
q135 192 391 192z" />
    <glyph glyph-name="b" unicode="b" 
d="M580 1022q-209 0 -314 -135v-676q109 -135 314 -135q113 0 183 45t103 100v656q-34 55 -104 100t-182 45zM600 1122q268 0 385 -215v-717q-117 -215 -385 -215q-209 0 -336 127v-102h-114v1434h116v-437q125 125 334 125z" />
    <glyph glyph-name="c" unicode="c" horiz-adv-x="1067" 
d="M553 1124q170 0 278.5 -78.5t149.5 -179.5v-65h-98q-90 223 -330 223q-117 0 -198 -55.5t-115 -139.5v-561q35 -84 115.5 -139t197.5 -55q240 0 330 225h98v-68q-41 -100 -149.5 -179t-278.5 -79t-278.5 80t-151.5 187v618q43 106 151.5 186t278.5 80z" />
    <glyph glyph-name="d" unicode="d" 
d="M528 76q205 0 314 135v676q-104 135 -314 135q-114 0 -184 -45t-102 -100v-656q33 -55 103 -100t183 -45zM842 1434h116v-1434h-114v102q-127 -127 -338 -127q-266 0 -383 215v717q117 215 383 215q207 0 336 -125v437z" />
    <glyph glyph-name="e" unicode="e" horiz-adv-x="1093" 
d="M554 1024q-118 0 -199 -56.5t-115 -140.5v-182h628v182q-33 84 -114.5 140.5t-199.5 56.5zM553 1124q170 0 277.5 -78.5t150.5 -179.5v-317h-741v-279q35 -84 115.5 -140t197.5 -56q242 0 330 225h98v-68q-43 -100 -150.5 -179t-277.5 -79t-278.5 80t-151.5 187v618
q43 106 151.5 186t278.5 80z" />
    <glyph glyph-name="f" unicode="f" horiz-adv-x="686" 
d="M532 1468q94 0 144 -16v-90q-61 6 -107 6q-190 0 -252 -129v-141h318v-94h-318v-1004h-116v1004h-154v94h154v184q87 186 331 186z" />
    <glyph glyph-name="g" unicode="g" 
d="M531 139q204 0 311 137v609q-106 137 -308 137t-294 -145v-592q87 -146 291 -146zM844 1098h114v-1215q-42 -102 -152 -175t-279 -73t-275 68t-148 143v70h99q37 -76 121 -128t200 -52q240 0 318 176v250q-133 -125 -334 -125q-156 -1 -249 67t-136 148v655q27 47 64 89
q38 42 125 84t196 42q207 0 336 -125v101z" />
    <glyph glyph-name="h" unicode="h" horiz-adv-x="1126" 
d="M600 1122q268 0 385 -215v-907h-117v877q-92 145 -294 145t-308 -135v-887h-116v1434h116v-435q131 123 334 123z" />
    <glyph glyph-name="i" unicode="i" horiz-adv-x="432" 
d="M274 1098v-1098h-116v1098h116zM215 1464q59 0 78 -34v-87q-17 -35 -77 -35t-77 35v87q17 34 76 34z" />
    <glyph glyph-name="j" unicode="j" horiz-adv-x="415" 
d="M266 1098v-1198q-43 -106 -151 -187q-109 -80 -277 -80v101q117 0 197 56t112 142v1166h119zM207 1464q59 0 78 -34v-87q-17 -35 -77 -35t-77 35v87q17 34 76 34z" />
    <glyph glyph-name="k" unicode="k" horiz-adv-x="1021" 
d="M981 0h-80l-434 569l-201 -196v-373h-116v1434h116v-920l584 584h72v-82l-373 -367l432 -569v-80z" />
    <glyph glyph-name="l" unicode="l" horiz-adv-x="415" 
d="M266 1434v-1434h-116v1434h116z" />
    <glyph glyph-name="m" unicode="m" horiz-adv-x="1630" 
d="M1161 1122q231 0 330 -196v-926h-119v895q-66 127 -236 127t-257 -129v-893h-119v895q-66 127 -234 127t-260 -127v-895h-116v1098h112v-94q106 118 296 118t290 -145q112 145 313 145z" />
    <glyph glyph-name="n" unicode="n" horiz-adv-x="1124" 
d="M600 1122q268 0 385 -215v-907h-119v877q-33 55 -104.5 100t-181.5 45q-209 0 -314 -135v-887h-116v1098h112v-103q127 127 338 127z" />
    <glyph glyph-name="o" unicode="o" 
d="M554 1024q-118 0 -200 -56t-114 -139v-561q32 -82 114 -138t200 -56t200 56t114 138v561q-33 82 -114 139q-82 56 -200 56zM555 1124q170 0 279 -80t151 -186v-618q-43 -106 -151 -187q-109 -80 -279 -80t-280 81t-152 186v618q43 104 152 185q110 81 280 81z" />
    <glyph glyph-name="p" unicode="p" 
d="M580 1022q-209 0 -314 -135v-676q109 -135 314 -135q113 0 183 45t103 100v656q-34 55 -104 100t-182 45zM600 1122q268 0 385 -215v-717q-117 -215 -385 -215q-209 0 -334 125v-440h-116v1438h114v-103q123 127 336 127z" />
    <glyph glyph-name="q" unicode="q" 
d="M528 76q205 0 314 135v676q-104 135 -314 135q-114 0 -184 -45t-102 -100v-656q33 -55 103 -100t183 -45zM844 1098h114v-1438h-116v440q-129 -125 -336 -125q-266 0 -383 215v717q117 215 383 215q215 0 338 -127v103z" />
    <glyph glyph-name="r" unicode="r" horiz-adv-x="698" 
d="M606 1100q20 0 43 -2v-113q-25 2 -47 2q-227 0 -336 -139v-848h-119v1098h115v-142q117 144 344 144z" />
    <glyph glyph-name="s" unicode="s" horiz-adv-x="972" 
d="M484 1124q138 0 233.5 -52t140.5 -116v-67h-98q-29 57 -102.5 96t-172.5 39q-160 0 -258 -106v-175q51 -78 211 -114l131 -33q240 -57 310 -172v-258q-131 -193 -390.5 -193t-394.5 193v67h99q35 -70 110.5 -114.5t181.5 -44.5q186 0 281 131v174q-49 80 -221 119
l-135 32q-219 51 -295 168v258q47 63 139 115.5t230 52.5z" />
    <glyph glyph-name="t" unicode="t" horiz-adv-x="708" 
d="M569 82q66 0 107 8v-92q-47 -14 -144 -14q-246 0 -331 184v836h-154v94h154v235h116v-235h318v-94h-318v-793q62 -129 252 -129z" />
    <glyph glyph-name="u" unicode="u" horiz-adv-x="1105" 
d="M840 1098h118v-1098h-112v98q-127 -123 -330 -123q-256 0 -377 203v920h117v-885q102 -137 289 -137t295 129v893z" />
    <glyph glyph-name="v" unicode="v" horiz-adv-x="1028" 
d="M952 1098v-82l-360 -1016h-156l-358 1016v82h98l338 -981h6l338 981h94z" />
    <glyph glyph-name="w" unicode="w" horiz-adv-x="1566" 
d="M1485 1098v-82l-266 -1016h-152l-276 946h-7l-280 -946h-152l-266 1016v82h98l248 -977h6l285 977h133l283 -977h6l246 977h94z" />
    <glyph glyph-name="x" unicode="x" horiz-adv-x="960" 
d="M858 1098v-82l-297 -455l313 -479v-82h-83l-308 487h-6l-311 -487h-80v82l313 479l-297 455v82h84l291 -463h6l293 463h82z" />
    <glyph glyph-name="y" unicode="y" horiz-adv-x="1017" 
d="M946 1098v-80l-422 -1219q-102 -152 -331 -151q-74 0 -103 8v94q27 -4 76 -4q178 0 258 109l43 127l-377 1032v84h96l336 -961h6l326 961h92z" />
    <glyph glyph-name="z" unicode="z" horiz-adv-x="948" 
d="M883 1098v-84l-678 -920h678v-94h-815v88l671 916h-653v94h797z" />
    <glyph glyph-name="braceleft" unicode="{" horiz-adv-x="796" 
d="M719 -258v-96q-199 0 -325 94t-179 223v420q-29 109 -180 109v96q152 0 180 108v420q53 129 179 223t325 95v-97q-141 0 -238 -72q-96 -73 -137 -182v-411q-35 -92 -119 -131q86 -43 119 -131v-414q41 -110 137 -182t238 -72z" />
    <glyph glyph-name="bar" unicode="|" horiz-adv-x="669" 
d="M397 1618v-1884h-125v1884h125z" />
    <glyph glyph-name="braceright" unicode="}" horiz-adv-x="796" 
d="M760 492q-150 0 -180 -109v-420q-54 -129 -180 -223t-322 -94v96q141 0 237 73t136 181v414q33 86 118 131q-84 41 -118 131v411q-39 109 -135 182t-238 72v97q196 0 322 -94t180 -224v-420q31 -109 180 -108v-96z" />
    <glyph glyph-name="asciitilde" unicode="~" horiz-adv-x="1189" 
d="M360 854q90 0 270 -52t252 -52q74 0 132 22t84 45l28 23v-121q-86 -70 -211 -70t-301 52q-176 53 -259 53t-153 -27t-104 -51l-32 -27v111q41 34 122 64q82 30 172 30z" />
    <glyph glyph-name="uni00A0" unicode="&#xa0;" horiz-adv-x="425" 
 />
    <glyph glyph-name="exclamdown" unicode="&#xa1;" horiz-adv-x="528" 
d="M197 -326v193l16 950h100l17 -950v-193h-133zM266 961q-61 0 -80 34v92q20 35 80 35t74 -35v-92q-13 -34 -74 -34z" />
    <glyph glyph-name="cent" unicode="&#xa2;" horiz-adv-x="1067" 
d="M553 1024q-117 0 -198 -55t-115 -140v-561q36 -84 116 -139t197 -55q240 0 330 225h98v-68q-37 -91 -130 -165t-237 -89v-174h-108v172q-150 13 -247 91t-136 174v618q39 96 136 175t247 89v172h108v-174q142 -14 236 -89t131 -165v-65h-98q-90 223 -330 223z" />
    <glyph glyph-name="sterling" unicode="&#xa3;" horiz-adv-x="1241" 
d="M687 1358q-124 0 -214 -56t-125 -139v-401h551v-92h-551v-457q-45 -76 -86 -113h864v-100h-1028v92q33 8 72 41t57 86v451h-133v92h133v434q43 102 163 183t291 81t289 -81t156 -175v-76h-104q-29 100 -120 165t-215 65z" />
    <glyph glyph-name="currency" unicode="&#xa4;" horiz-adv-x="1208" 
d="M605 338q118 0 200 56t115 141v317q-33 84 -115 140t-200 56q-117 0 -199 -56t-115 -140v-317q33 -85 115 -141t199 -56zM1059 1149v-66l-92 -90q45 -51 69 -110v-377q-25 -61 -69 -111l92 -92v-63h-82l-86 84q-121 -86 -285 -86t-287 86l-86 -84h-83v63l90 92
q-43 49 -68 111v377q25 59 70 110l-92 90v66h83l86 -86q123 86 287 86t285 -86l86 86h82z" />
    <glyph glyph-name="yen" unicode="&#xa5;" horiz-adv-x="1140" 
d="M633 471h430v-84h-430v-387h-127v387h-428v84h428v174l-8 14h-420v82h368l-356 605v88h88l391 -674h6l390 674h88v-88l-357 -605h367v-82h-416l-14 -24v-164z" />
    <glyph glyph-name="brokenbar" unicode="&#xa6;" horiz-adv-x="669" 
d="M397 559v-823h-125v823h125zM397 1618v-789h-125v789h125z" />
    <glyph glyph-name="section" unicode="&#xa7;" horiz-adv-x="1042" 
d="M801 719q-45 74 -223 119l-58 14q-186 0 -278 -131v-180q43 -76 223 -121l57 -14q100 2 172 42t107 91v180zM526 1366q-108 0 -179 -39t-105 -92v-150q45 -74 223 -118l135 -35q244 -57 313 -170v-258q-68 -102 -198 -150q154 -59 198 -139v-225q-131 -193 -393 -193
q-152 1 -251 63t-140 130v63h100q23 -59 102 -110t189 -52q186 0 281 134v147q-49 78 -223 119l-138 35q-242 57 -311 172v256q63 100 199 151q-152 55 -199 139v224q131 193 391 192q154 0 253 -62t140 -130v-64h-102q-20 62 -99 112q-78 50 -186 50z" />
    <glyph glyph-name="dieresis" unicode="&#xa8;" horiz-adv-x="849" 
d="M623 1462q53 0 75 -28v-103q-24 -29 -76 -29t-75 29v103q23 28 76 28zM231 1462q53 0 76 -28v-103q-23 -29 -76 -29t-75 29v103q22 28 75 28z" />
    <glyph glyph-name="copyright" unicode="&#xa9;" horiz-adv-x="1677" 
d="M838 1180q147 0 241 -60t138 -127v-61h-91q-25 61 -100 111q-76 50 -186 51q-182 0 -277 -133v-494q94 -133 277 -133q112 0 188 50t98 112h91v-62q-43 -68 -137 -127t-242 -59q-146 0 -242 61t-137 131v547q41 69 137 131t242 62zM170 716q0 -278 196 -476t474 -197
q278 0 472 198q196 199 196 477t-196 476q-194 198 -472 197q-278 0 -474 -198q-196 -199 -196 -477zM839 1460q308 0 527 -217t219 -526t-219 -527t-527 -217q-308 0 -528 218q-219 217 -219 525t219 526q220 218 528 218z" />
    <glyph glyph-name="ordfeminine" unicode="&#xaa;" horiz-adv-x="788" 
d="M373 801q156 0 213 94v180h-213q-106 0 -172 -71v-132q59 -71 172 -71zM387 1450q115 0 189 -52t98 -122v-533h-86v64q-86 -78 -238 -78t-235 107v196q80 113 245 113h226v110q-50 121 -188 121t-199 -104h-72v51q82 127 260 127z" />
    <glyph glyph-name="guillemotleft" unicode="&#xab;" horiz-adv-x="1177" 
d="M1067 1098v-68l-362 -420l362 -417v-68h-86l-381 446v82l381 445h86zM561 1098v-68l-362 -420l362 -417v-68h-86l-381 446v82l381 445h86z" />
    <glyph glyph-name="logicalnot" unicode="&#xac;" horiz-adv-x="1191" 
d="M1096 745v-552h-101v452h-901v100h1002z" />
    <glyph glyph-name="uni00AD" unicode="&#xad;" horiz-adv-x="741" 
d="M645 745v-100h-551v100h551z" />
    <glyph glyph-name="registered" unicode="&#xae;" horiz-adv-x="1060" 
d="M563 1440h-145v-242h145q86 0 117 66v110q-31 66 -117 66zM578 1499q51 0 98 -29t72 -77v-148q-43 -86 -142 -104l127 -178v-45h-51l-145 221h-119v-221h-68v581h228zM530 766q178 0 303 127q124 127 123 305q0 178 -123 305q-125 127 -303 127t-302 -127t-124 -305
t124 -305t302 -127zM530 1688q202 0 346 -144t144 -346q0 -201 -144 -345t-346 -144t-345 144q-144 144 -144 345q0 202 144 346t345 144z" />
    <glyph glyph-name="macron" unicode="&#xaf;" horiz-adv-x="849" 
d="M729 1448v-92h-606v92h606z" />
    <glyph glyph-name="degree" unicode="&#xb0;" horiz-adv-x="755" 
d="M377 1569q-147 0 -209 -103v-202q61 -104 210 -104t210 104v202q-25 41 -79 72t-132 31zM379 1653q117 0 193 -50t108 -108v-262q-31 -57 -108 -107q-78 -50 -194 -49q-116 0 -194 50t-106 106v262q29 57 106 108q78 50 195 50z" />
    <glyph glyph-name="plusminus" unicode="&#xb1;" horiz-adv-x="1191" 
d="M94 66v100h1002v-100h-1002zM645 831h451v-100h-451v-407h-100v407h-451v100h451v408h100v-408z" />
    <glyph glyph-name="acute" unicode="&#xb4;" horiz-adv-x="849" 
d="M551 1561v-64l-166 -254h-86v31l145 287h107z" />
    <glyph glyph-name="paragraph" unicode="&#xb6;" horiz-adv-x="1349" 
d="M1165 1434v-1639h-102v1639h102zM756 1434v-1639h-101v740h-143q-133 0 -238 66q-104 67 -161 173v420q59 112 167 176t232 64h244z" />
    <glyph glyph-name="periodcentered" unicode="&#xb7;" horiz-adv-x="335" 
d="M169 778q62 0 75 -35v-92q-14 -35 -74 -35t-80 35v92q17 35 79 35z" />
    <glyph glyph-name="cedilla" unicode="&#xb8;" horiz-adv-x="849" 
d="M455 -119q123 0 166 -90v-139q-21 -41 -69 -69t-114 -27q-115 0 -190 51l24 67q80 -45 161 -45t102 52v83q-20 51 -103 52h-119l68 196h86l-49 -131h37z" />
    <glyph glyph-name="ordmasculine" unicode="&#xba;" horiz-adv-x="804" 
d="M401 1374q-150 0 -198 -117v-339q51 -113 198 -113q74 0 126 33t73 80v339q-20 51 -72 84t-127 33zM402 1450q114 0 188 -52t100 -122v-377q-28 -68 -102 -119t-187 -51t-187 51t-99 119v377q27 70 100 122t187 52z" />
    <glyph glyph-name="guillemotright" unicode="&#xbb;" horiz-adv-x="1177" 
d="M616 125v68l363 417l-363 420v68h89l378 -445v-82l-378 -446h-89zM113 125v68l360 417l-360 420v68h86l379 -445v-82l-379 -446h-86z" />
    <glyph glyph-name="onequarter" unicode="&#xbc;" horiz-adv-x="1718" 
d="M1417 776h-4l-377 -479h381v479zM1513 860v-563h136v-76h-136v-221h-96v221h-483v74l446 565h133zM1405 1434v-60l-1020 -1374h-63v59l1017 1375h66zM358 1434v-789h152v-72h-410v72h160v703l-162 -21v64l189 43h71z" />
    <glyph glyph-name="onehalf" unicode="&#xbd;" horiz-adv-x="1851" 
d="M1437 877q117 1 199 -49t113 -113v-154q-39 -84 -205 -188l-139 -88q-152 -96 -182 -164v-37h538v-84h-633v141q25 41 43 66q41 57 187 147l135 86q135 88 158 146v106q-23 43 -79 74t-140 31t-144 -40t-80 -87h-80v59q31 55 111 101t198 47zM1405 1434v-60l-1020 -1374
h-63v59l1017 1375h66zM360 1434v-789h152v-72h-410v72h160v703l-162 -21v64l189 43h71z" />
    <glyph glyph-name="threequarters" unicode="&#xbe;" horiz-adv-x="1847" 
d="M1526 776h-6l-375 -479h381v479zM1620 860v-563h137v-76h-137v-221h-94v221h-484v74l447 565h131zM1513 1434v-60l-1019 -1374h-66v59l1020 1375h65zM404 1450q114 0 189 -44t103 -95v-174q-39 -74 -153 -109q127 -33 176 -133v-178q-31 -59 -113 -109t-200 -49
q-118 0 -202 47q-83 47 -112 103v65h78q20 -55 84 -95t146 -40q84 0 142 31t81 75v134q-23 45 -81 75t-136 31h-93v78h84q72 0 126 28t77 60v133q-61 86 -205 86t-209 -119h-73v66q31 47 104 90t187 43z" />
    <glyph glyph-name="questiondown" unicode="&#xbf;" horiz-adv-x="1069" 
d="M536 -350q-302 0 -454 225v344q35 66 168 162l323 240v180h123v-236l-344 -250q-117 -86 -145 -139v-262q49 -68 134 -113t204 -45t210 56t128 133h104v-78q-149 -217 -451 -217zM636 963q-62 0 -79 34v93q19 34 79 34t75 -34v-93q-13 -34 -75 -34z" />
    <glyph glyph-name="Agrave" unicode="&#xc0;" horiz-adv-x="1226" 
d="M346 549h524l-258 774h-6zM1159 0h-104l-148 442h-596l-147 -442h-96v88l456 1346h176l459 -1346v-88zM655 1544h-84l-165 242v61h104l145 -270v-33z" />
    <glyph glyph-name="Aacute" unicode="&#xc1;" horiz-adv-x="1226" 
d="M346 549h524l-258 774h-6zM1159 0h-104l-148 442h-596l-147 -442h-96v88l456 1346h176l459 -1346v-88zM559 1544v33l143 270h107v-61l-166 -242h-84z" />
    <glyph glyph-name="Acircumflex" unicode="&#xc2;" horiz-adv-x="1226" 
d="M346 549h524l-258 774h-6zM1159 0h-104l-148 442h-596l-147 -442h-96v88l456 1346h176l459 -1346v-88zM340 1544v33l195 270h157l195 -270v-33h-80l-195 236l-192 -236h-80z" />
    <glyph glyph-name="Atilde" unicode="&#xc3;" horiz-adv-x="1226" 
d="M346 549h524l-258 774h-6zM1159 0h-104l-148 442h-596l-147 -442h-96v88l456 1346h176l459 -1346v-88zM387 1569h-82v71q45 115 168 115q68 0 151 -56t124 -57q70 0 92 64v37h82v-72q-43 -115 -168 -115q-68 0 -150 58t-123 57q-63 0 -94 -63v-39z" />
    <glyph glyph-name="Adieresis" unicode="&#xc4;" horiz-adv-x="1226" 
d="M346 549h524l-258 774h-6zM1159 0h-104l-148 442h-596l-147 -442h-96v88l456 1346h176l459 -1346v-88zM809 1593q-53 0 -76 29v100q17 29 75 29t77 -29v-100q-23 -29 -76 -29zM418 1593q-53 0 -76 29v100q18 29 76 29t76 -29v-100q-23 -29 -76 -29z" />
    <glyph glyph-name="Aring" unicode="&#xc5;" horiz-adv-x="1226" 
d="M346 549h524l-258 774h-6zM614 1479q82 0 121 53v123q-35 53 -122 53t-121 -53v-123q40 -53 122 -53zM1159 0h-104l-148 442h-596l-147 -442h-96v88l452 1335q-74 27 -106 84v172q22 41 76 71t123 30t124 -30t76 -71v-172q-30 -55 -108 -84l454 -1335v-88z" />
    <glyph glyph-name="AE" unicode="&#xc6;" horiz-adv-x="1740" 
d="M799 590v739h-6l-353 -739h359zM926 106h710v-106h-837v483h-410l-229 -483h-92v88l647 1346h903v-107h-692v-534h645v-105h-645v-582z" />
    <glyph glyph-name="Ccedilla" unicode="&#xc7;" horiz-adv-x="1241" 
d="M821 -348q-47 -96 -207 -96q-90 0 -165 51l24 67q80 -45 161 -45t101 52v83q-20 51 -102 52h-119l57 161q-168 16 -275.5 104.5t-156.5 203.5v866q53 125 179 217t323 92t319.5 -90t178.5 -213v-78h-105q-41 121 -142 199t-245.5 78t-242 -67.5t-138.5 -168.5v-805
q41 -100 138.5 -167.5t242 -67.5t245.5 76.5t142 199.5h105v-77q-53 -121 -173 -211.5t-313 -94.5l-35 -92h37q123 0 166 -90v-139z" />
    <glyph glyph-name="Egrave" unicode="&#xc8;" horiz-adv-x="1110" 
d="M987 1434v-107h-692v-534h645v-105h-645v-582h711v-106h-838v1434h819zM610 1544h-84l-166 242v61h105l145 -270v-33z" />
    <glyph glyph-name="Eacute" unicode="&#xc9;" horiz-adv-x="1110" 
d="M987 1434v-107h-692v-534h645v-105h-645v-582h711v-106h-838v1434h819zM764 1847v-61l-166 -242h-84v33l143 270h107z" />
    <glyph glyph-name="Ecircumflex" unicode="&#xca;" horiz-adv-x="1110" 
d="M987 1434v-107h-692v-534h645v-105h-645v-582h711v-106h-838v1434h819zM842 1544h-80l-195 236l-192 -236h-80v33l194 270h158l195 -270v-33z" />
    <glyph glyph-name="Edieresis" unicode="&#xcb;" horiz-adv-x="1110" 
d="M987 1434v-107h-692v-534h645v-105h-645v-582h711v-106h-838v1434h819zM764 1751q57 0 76 -29v-100q-23 -29 -76 -29t-76 29v100q19 29 76 29zM372.5 1751q57.5 0 76.5 -29v-100q-23 -29 -76.5 -29t-75.5 29v100q18 29 75.5 29z" />
    <glyph glyph-name="Igrave" unicode="&#xcc;" horiz-adv-x="462" 
d="M295 1434v-1434h-127v1434h127zM274 1544h-84l-165 242v61h104l145 -270v-33z" />
    <glyph glyph-name="Iacute" unicode="&#xcd;" horiz-adv-x="462" 
d="M295 1434v-1434h-127v1434h127zM428 1847v-61l-166 -242h-84v33l144 270h106z" />
    <glyph glyph-name="Icircumflex" unicode="&#xce;" horiz-adv-x="462" 
d="M295 1434v-1434h-127v1434h127zM506 1544h-80l-195 236l-192 -236h-80v33l195 270h157l195 -270v-33z" />
    <glyph glyph-name="Idieresis" unicode="&#xcf;" horiz-adv-x="462" 
d="M295 1434v-1434h-127v1434h127zM426 1751q57 0 76 -29v-100q-23 -29 -76 -29t-76 29v100q19 29 76 29zM35 1751q57 0 76 -29v-100q-23 -29 -76 -29t-76 29v100q19 29 76 29z" />
    <glyph glyph-name="Eth" unicode="&#xd0;" horiz-adv-x="1333" 
d="M690 1327h-340v-545h398v-104h-398v-572h340q140 0 238 58t135 153v799q-37 94 -134 152t-239 59zM707 1434q190 0 311 -81t172 -202v-868q-51 -121 -172 -202t-311 -81h-484v678h-131v104h131v652h484z" />
    <glyph glyph-name="Ntilde" unicode="&#xd1;" horiz-adv-x="1345" 
d="M1178 1434v-1434h-174l-709 1278h-6v-1278h-121v1434h174l709 -1278h6v1278h121zM535 1755q68 0 150.5 -56.5t123.5 -56.5q70 0 92 64v37h82v-72q-43 -115 -168 -115q-68 0 -149.5 57.5t-122.5 57.5q-63 0 -94 -63v-39h-82v71q45 115 168 115z" />
    <glyph glyph-name="Ograve" unicode="&#xd2;" horiz-adv-x="1282" 
d="M641 1356q-139 0 -237 -68t-138 -168v-805q41 -100 138 -168q96 -67 236 -67t238 67q97 68 138 168v805q-41 100 -138 168q-98 68 -237 68zM641 1460q197 0 323 -92t179 -217v-866q-53 -127 -178 -219t-324 -92t-324 92t-178 219v866q53 125 179 217t323 92zM684 1544
h-84l-166 242v61h105l145 -270v-33z" />
    <glyph glyph-name="Oacute" unicode="&#xd3;" horiz-adv-x="1282" 
d="M641 1356q-139 0 -237 -68t-138 -168v-805q41 -100 138 -168q96 -67 236 -67t238 67q97 68 138 168v805q-41 100 -138 168q-98 68 -237 68zM641 1460q197 0 323 -92t179 -217v-866q-53 -127 -178 -219t-324 -92t-324 92t-178 219v866q53 125 179 217t323 92zM836 1847
v-61l-166 -242h-84v33l143 270h107z" />
    <glyph glyph-name="Ocircumflex" unicode="&#xd4;" horiz-adv-x="1282" 
d="M641 1356q-139 0 -237 -68t-138 -168v-805q41 -100 138 -168q96 -67 236 -67t238 67q97 68 138 168v805q-41 100 -138 168q-98 68 -237 68zM641 1460q197 0 323 -92t179 -217v-866q-53 -127 -178 -219t-324 -92t-324 92t-178 219v866q53 125 179 217t323 92zM915 1544
h-79l-195 236l-192 -236h-80v33l194 270h158l194 -270v-33z" />
    <glyph glyph-name="Otilde" unicode="&#xd5;" horiz-adv-x="1282" 
d="M641 1356q-139 0 -237 -68t-138 -168v-805q41 -100 138 -168q96 -67 236 -67t238 67q97 68 138 168v805q-41 100 -138 168q-98 68 -237 68zM641 1460q197 0 323 -92t179 -217v-866q-53 -127 -178 -219t-324 -92t-324 92t-178 219v866q53 125 179 217t323 92zM502 1755
q68 0 150 -56t124 -57q70 0 92 64v37h82v-72q-43 -115 -168 -115q-68 0 -150 58t-122 57q-63 0 -94 -63v-39h-82v71q45 115 168 115z" />
    <glyph glyph-name="Odieresis" unicode="&#xd6;" horiz-adv-x="1282" 
d="M641 1356q-139 0 -237 -68t-138 -168v-805q41 -100 138 -168q96 -67 236 -67t238 67q97 68 138 168v805q-41 100 -138 168q-98 68 -237 68zM641 1460q197 0 323 -92t179 -217v-866q-53 -127 -178 -219t-324 -92t-324 92t-178 219v866q53 125 179 217t323 92zM836 1751
q57 0 75 -29v-100q-23 -29 -75 -29t-76 29v100q19 29 76 29zM444 1751q57 0 76 -29v-100q-23 -29 -76 -29t-75 29v100q18 29 75 29z" />
    <glyph glyph-name="multiply" unicode="&#xd7;" horiz-adv-x="1191" 
d="M1053 1149v-68l-387 -387l387 -389v-65h-76l-383 381l-381 -381h-78v65l387 389l-387 387v68h78l381 -383l383 383h76z" />
    <glyph glyph-name="Oslash" unicode="&#xd8;" horiz-adv-x="1282" 
d="M641 80q139 0 237 67q97 68 138 168v805l-19 39l-651 -962q117 -117 295 -117zM641 1356q-139 0 -237 -68t-138 -168v-805q10 -23 21 -39l651 961q-115 119 -297 119zM1143 1434v-62l-72 -104q45 -57 72 -117v-866q-53 -127 -178 -219t-333 -92t-353 124l-68 -98h-72v61
l72 105q-47 59 -72 119v866q53 125 179 217t333 92t353 -123l67 97h72z" />
    <glyph glyph-name="Ugrave" unicode="&#xd9;" horiz-adv-x="1318" 
d="M1161 1434v-1149q-53 -127 -178 -219t-324 -92t-323 92t-176 219v1149h127v-1117q39 -99 136 -167t236 -68t237 68q97 68 138 167v1117h127zM702 1544h-84l-165 242v61h104l145 -270v-33z" />
    <glyph glyph-name="Uacute" unicode="&#xda;" horiz-adv-x="1318" 
d="M1161 1434v-1149q-53 -127 -178 -219t-324 -92t-323 92t-176 219v1149h127v-1117q39 -99 136 -167t236 -68t237 68q97 68 138 167v1117h127zM854 1847v-61l-166 -242h-84v33l144 270h106z" />
    <glyph glyph-name="Ucircumflex" unicode="&#xdb;" horiz-adv-x="1318" 
d="M1161 1434v-1149q-53 -127 -178 -219t-324 -92t-323 92t-176 219v1149h127v-1117q39 -99 136 -167t236 -68t237 68q97 68 138 167v1117h127zM934 1544h-80l-195 236l-192 -236h-80v33l195 270h157l195 -270v-33z" />
    <glyph glyph-name="Udieresis" unicode="&#xdc;" horiz-adv-x="1318" 
d="M1161 1434v-1149q-53 -127 -178 -219t-324 -92t-323 92t-176 219v1149h127v-1117q39 -99 136 -167t236 -68t237 68q97 68 138 167v1117h127zM854 1751q57 0 76 -29v-100q-23 -29 -76 -29t-76 29v100q19 29 76 29zM463 1751q57 0 76 -29v-100q-23 -29 -76 -29t-76 29v100
q19 29 76 29z" />
    <glyph glyph-name="Yacute" unicode="&#xdd;" horiz-adv-x="1118" 
d="M1040 1434v-88l-419 -711v-635h-127v645l-416 701v88h88l393 -672h4l391 672h86zM754 1847v-61l-166 -242h-84v33l143 270h107z" />
    <glyph glyph-name="Thorn" unicode="&#xde;" horiz-adv-x="1148" 
d="M621 1077h-326v-631h326q96 0 177 46t126 131v280q-96 174 -303 174zM647 1184q125 0 233 -65t167 -175v-364q-59 -106 -163 -173t-237 -67h-352v-340h-127v1434h127v-250h352z" />
    <glyph glyph-name="germandbls" unicode="&#xdf;" horiz-adv-x="1124" 
d="M562 1460q153 0 257 -66t154 -151v-334q-70 -104 -195 -149q172 -61 234 -223v-297q-57 -132 -165 -186t-290 -54v102q123 0 183 20q107 37 155 152v236q-41 100 -127 148t-186 49v96q90 0 164 38t114 99v260q-41 72 -119 117t-181 45t-179 -47t-115 -115v-1200h-116
v1233q53 95 156 161t256 66z" />
    <glyph glyph-name="agrave" unicode="&#xe0;" horiz-adv-x="1095" 
d="M504 74q119 0 207 47t129 115v313h-340q-174 0 -271 -115v-241q99 -119 275 -119zM524 1124q172 0 281 -80t151 -186v-858h-114v119q-125 -145 -366 -145t-363 171v326q27 48 87 92q114 82 281 82h359v184q-35 83 -116 139t-196 56q-114 0 -190 -48t-107 -112h-98v68
q135 192 391 192zM594 1243h-86l-166 254v64h107l145 -287v-31z" />
    <glyph glyph-name="aacute" unicode="&#xe1;" horiz-adv-x="1095" 
d="M504 74q119 0 207 47t129 115v313h-340q-174 0 -271 -115v-241q99 -119 275 -119zM524 1124q172 0 281 -80t151 -186v-858h-114v119q-125 -145 -366 -145t-363 171v326q27 48 87 92q114 82 281 82h359v184q-35 83 -116 139t-196 56q-114 0 -190 -48t-107 -112h-98v68
q135 192 391 192zM508 1243v31l145 287h107v-64l-166 -254h-86z" />
    <glyph glyph-name="acircumflex" unicode="&#xe2;" horiz-adv-x="1095" 
d="M504 74q119 0 207 47t129 115v313h-340q-174 0 -271 -115v-241q99 -119 275 -119zM524 1124q172 0 281 -80t151 -186v-858h-114v119q-125 -145 -366 -145t-363 171v326q27 48 87 92q114 82 281 82h359v184q-35 83 -116 139t-196 56q-114 0 -190 -48t-107 -112h-98v68
q135 192 391 192zM274 1241v33l195 285h158l194 -285v-33h-80l-194 252l-193 -252h-80z" />
    <glyph glyph-name="atilde" unicode="&#xe3;" horiz-adv-x="1095" 
d="M504 74q119 0 207 47t129 115v313h-340q-174 0 -271 -115v-241q99 -119 275 -119zM524 1124q172 0 281 -80t151 -186v-858h-114v119q-125 -145 -366 -145t-363 171v326q27 48 87 92q114 82 281 82h359v184q-35 83 -116 139t-196 56q-114 0 -190 -48t-107 -112h-98v68
q135 192 391 192zM322 1298h-82v72q45 115 168 115q68 -1 150 -57t124 -56q70 0 92 64v37h82v-70q-41 -117 -168 -117q-68 0 -150 56t-132 56q-51 0 -84 -59v-41z" />
    <glyph glyph-name="adieresis" unicode="&#xe4;" horiz-adv-x="1095" 
d="M504 74q119 0 207 47t129 115v313h-340q-174 0 -271 -115v-241q99 -119 275 -119zM524 1124q172 0 281 -80t151 -186v-858h-114v119q-125 -145 -366 -145t-363 171v326q27 48 87 92q114 82 281 82h359v184q-35 83 -116 139t-196 56q-114 0 -190 -48t-107 -112h-98v68
q135 192 391 192zM743 1303q-53 0 -75 28v103q24 28 76 28t75 -28v-103q-23 -28 -76 -28zM352 1303q-53 0 -76 28v103q23 28 76 28t76 -28v-103q-23 -28 -76 -28z" />
    <glyph glyph-name="aring" unicode="&#xe5;" horiz-adv-x="1095" 
d="M504 74q119 0 207 47t129 115v313h-340q-174 0 -271 -115v-241q99 -119 275 -119zM524 1124q172 0 281 -80t151 -186v-858h-114v119q-125 -145 -366 -145t-363 171v326q27 48 87 92q114 82 281 82h359v184q-35 83 -116 139t-196 56q-114 0 -190 -48t-107 -112h-98v68
q135 192 391 192zM548 1530q-83 0 -122 -53v-123q37 -56 122 -56t122 56v123q-39 53 -122 53zM548 1229q-69 -1 -124 29t-76 71v170q20 43 74 72t125 29q70 0 125 -30q55 -28 76 -71v-170q-20 -41 -76 -71t-124 -29z" />
    <glyph glyph-name="ae" unicode="&#xe6;" horiz-adv-x="1810" 
d="M840 549h-340q-174 0 -271 -115v-244q98 -119 271 -118q123 0 212 50t128 122v305zM956 645h629v182q-33 84 -114.5 140.5t-199.5 56.5t-199 -56.5t-116 -140.5v-182zM1698 549h-742v-279q35 -84 116 -140t198 -56q242 0 329 225h99v-68q-43 -100 -150.5 -179t-277.5 -79
q-244 0 -379 179q-131 -178 -396.5 -178.5t-381.5 171.5v326q28 50 87 92q114 82 281 82h359v184q-35 84 -116 139.5t-200 55.5q-203 0 -293 -160h-98v68q135 193 384 192.5t380 -174.5q135 174 373 174q170 0 277.5 -78.5t150.5 -179.5v-317z" />
    <glyph glyph-name="ccedilla" unicode="&#xe7;" horiz-adv-x="1067" 
d="M553 1024q-117 0 -198 -55.5t-115 -139.5v-561q35 -84 115.5 -139t197.5 -55q240 0 330 225h98v-68q-41 -98 -147.5 -177t-272.5 -81l-35 -92h37q61 0 105.5 -26.5t60.5 -63.5v-139q-49 -96 -172 -96t-201 51l25 67q78 -45 160 -45t102 52v83q-20 51 -102 52h-119l57 161
q-139 18 -228 94t-128 169v618q43 106 151.5 186t278.5 80t278.5 -78.5t149.5 -179.5v-65h-98q-90 223 -330 223z" />
    <glyph glyph-name="egrave" unicode="&#xe8;" horiz-adv-x="1093" 
d="M554 1024q-118 0 -199 -56.5t-115 -140.5v-182h628v182q-33 84 -114.5 140.5t-199.5 56.5zM553 1124q170 0 277.5 -78.5t150.5 -179.5v-317h-741v-279q35 -84 115.5 -140t197.5 -56q242 0 330 225h98v-68q-43 -100 -150.5 -179t-277.5 -79t-278.5 80t-151.5 187v618
q43 106 151.5 186t278.5 80zM612 1243h-86l-166 254v64h107l145 -287v-31z" />
    <glyph glyph-name="eacute" unicode="&#xe9;" horiz-adv-x="1093" 
d="M554 1024q-118 0 -199 -56.5t-115 -140.5v-182h628v182q-33 84 -114.5 140.5t-199.5 56.5zM553 1124q170 0 277.5 -78.5t150.5 -179.5v-317h-741v-279q35 -84 115.5 -140t197.5 -56q242 0 330 225h98v-68q-43 -100 -150.5 -179t-277.5 -79t-278.5 80t-151.5 187v618
q43 106 151.5 186t278.5 80zM778 1561v-64l-166 -254h-86v31l146 287h106z" />
    <glyph glyph-name="ecircumflex" unicode="&#xea;" horiz-adv-x="1093" 
d="M554 1024q-118 0 -199 -56.5t-115 -140.5v-182h628v182q-33 84 -114.5 140.5t-199.5 56.5zM553 1124q170 0 277.5 -78.5t150.5 -179.5v-317h-741v-279q35 -84 115.5 -140t197.5 -56q242 0 330 225h98v-68q-43 -100 -150.5 -179t-277.5 -79t-278.5 80t-151.5 187v618
q43 106 151.5 186t278.5 80zM840 1241h-80l-195 252l-192 -252h-80v33l194 285h158l195 -285v-33z" />
    <glyph glyph-name="edieresis" unicode="&#xeb;" horiz-adv-x="1093" 
d="M554 1024q-118 0 -199 -56.5t-115 -140.5v-182h628v182q-33 84 -114.5 140.5t-199.5 56.5zM553 1124q170 0 277.5 -78.5t150.5 -179.5v-317h-741v-279q35 -84 115.5 -140t197.5 -56q242 0 330 225h98v-68q-43 -100 -150.5 -179t-277.5 -79t-278.5 80t-151.5 187v618
q43 106 151.5 186t278.5 80zM762 1462q53 0 76 -28v-103q-23 -29 -76 -28.5t-76 28.5v103q23 28 76 28zM370.5 1462q53.5 0 75.5 -28v-103q-23 -29 -76 -28.5t-75 28.5v103q22 28 75.5 28z" />
    <glyph glyph-name="igrave" unicode="&#xec;" horiz-adv-x="432" 
d="M274 1098v-1098h-116v1098h116zM262 1243h-86l-166 254v64h107l145 -287v-31z" />
    <glyph glyph-name="iacute" unicode="&#xed;" horiz-adv-x="432" 
d="M274 1098v-1098h-116v1098h116zM428 1561v-64l-166 -254h-86v31l146 287h106z" />
    <glyph glyph-name="icircumflex" unicode="&#xee;" horiz-adv-x="432" 
d="M274 1098v-1098h-116v1098h116zM489 1241h-79l-195 252l-192 -252h-80v33l194 285h158l194 -285v-33z" />
    <glyph glyph-name="idieresis" unicode="&#xef;" horiz-adv-x="432" 
d="M274 1098v-1098h-116v1098h116zM410 1462q53 0 75 -28v-103q-23 -29 -75 -29t-76 29v103q23 28 76 28zM18 1462q53 0 76 -28v-103q-23 -29 -76 -29t-75 29v103q22 28 75 28z" />
    <glyph glyph-name="eth" unicode="&#xf0;" 
d="M557 905q-117 0 -200 -55t-115 -137v-445q32 -82 114 -138t200 -56t200 56q81 56 114 138v463q-100 174 -313 174zM557 -27q-169 0 -279 81t-153 186v501q39 105 145 185t288 80t312 -136v140q-41 98 -155 192l-338 -110v86l258 84q-141 96 -330 161l74 72
q207 -68 379 -195l229 76v-86l-153 -49q117 -100 153 -201v-800q-43 -106 -151 -187q-109 -80 -279 -80z" />
    <glyph glyph-name="ntilde" unicode="&#xf1;" horiz-adv-x="1124" 
d="M600 1122q268 0 385 -215v-907h-119v877q-33 55 -104.5 100t-181.5 45q-209 0 -314 -135v-887h-116v1098h112v-103q127 127 338 127zM336 1298h-82v72q45 115 168 115q68 0 150.5 -56.5t123.5 -56.5q70 0 92 64v37h82v-70q-41 -117 -168 -117q-68 0 -149.5 56.5
t-132.5 56t-84 -59.5v-41z" />
    <glyph glyph-name="ograve" unicode="&#xf2;" 
d="M554 1024q-118 0 -200 -56t-114 -139v-561q32 -82 114 -138t200 -56t200 56t114 138v561q-33 82 -114 139q-82 56 -200 56zM555 1124q170 0 279 -80t151 -186v-618q-43 -106 -151 -187q-109 -80 -279 -80t-280 81t-152 186v618q43 104 152 185q110 81 280 81zM600 1243
h-86l-166 254v64h107l145 -287v-31z" />
    <glyph glyph-name="oacute" unicode="&#xf3;" 
d="M554 1024q-118 0 -200 -56t-114 -139v-561q32 -82 114 -138t200 -56t200 56t114 138v561q-33 82 -114 139q-82 56 -200 56zM555 1124q170 0 279 -80t151 -186v-618q-43 -106 -151 -187q-109 -80 -279 -80t-280 81t-152 186v618q43 104 152 185q110 81 280 81zM764 1561
v-64l-166 -254h-86v31l145 287h107z" />
    <glyph glyph-name="ocircumflex" unicode="&#xf4;" 
d="M554 1024q-118 0 -200 -56t-114 -139v-561q32 -82 114 -138t200 -56t200 56t114 138v561q-33 82 -114 139q-82 56 -200 56zM555 1124q170 0 279 -80t151 -186v-618q-43 -106 -151 -187q-109 -80 -279 -80t-280 81t-152 186v618q43 104 152 185q110 81 280 81zM827 1241
h-79l-195 252l-193 -252h-79v33l194 285h158l194 -285v-33z" />
    <glyph glyph-name="otilde" unicode="&#xf5;" 
d="M554 1024q-118 0 -200 -56t-114 -139v-561q32 -82 114 -138t200 -56t200 56t114 138v561q-33 82 -114 139q-82 56 -200 56zM555 1124q170 0 279 -80t151 -186v-618q-43 -106 -151 -187q-109 -80 -279 -80t-280 81t-152 186v618q43 104 152 185q110 81 280 81zM414 1485
q68 -1 150 -57t124 -56q70 0 92 64v37h82v-70q-41 -117 -168 -117q-68 0 -150 56t-132 56q-51 0 -84 -59v-41h-82v72q45 115 168 115z" />
    <glyph glyph-name="odieresis" unicode="&#xf6;" 
d="M554 1024q-118 0 -200 -56t-114 -139v-561q32 -82 114 -138t200 -56t200 56t114 138v561q-33 82 -114 139q-82 56 -200 56zM555 1124q170 0 279 -80t151 -186v-618q-43 -106 -151 -187q-109 -80 -279 -80t-280 81t-152 186v618q43 104 152 185q110 81 280 81zM748 1462
q53 0 75 -28v-103q-23 -29 -75 -29t-76 29v103q23 28 76 28zM356 1462q53 0 76 -28v-103q-23 -29 -76 -29t-75 29v103q22 28 75 28z" />
    <glyph glyph-name="divide" unicode="&#xf7;" horiz-adv-x="1191" 
d="M598 434q62 0 74 -35v-92q-14 -35 -74 -35t-80 35v92q18 35 80 35zM1096 745v-100h-1002v100h1002zM598 1122q59 0 74 -35v-92q-14 -35 -74 -35t-80 35v92q21 35 80 35z" />
    <glyph glyph-name="oslash" unicode="&#xf8;" 
d="M540 74q132 0 214 56t114 138v561q-6 20 -18 35l-537 -700q95 -90 227 -90zM568 1024q-132 0 -214 -56t-114 -139v-561q14 -29 18 -35l537 701q-95 90 -227 90zM985 1098v-56l-61 -81q43 -51 61 -103v-618q-43 -106 -151 -187q-109 -80 -287 -80t-301 103l-58 -76h-65v57
l61 80q-43 51 -61 103v618q43 104 152 185q110 81 287 81t300 -102l58 76h65z" />
    <glyph glyph-name="ugrave" unicode="&#xf9;" horiz-adv-x="1105" 
d="M840 1098h118v-1098h-112v98q-127 -123 -330 -123q-256 0 -377 203v920h117v-885q102 -137 289 -137t295 129v893zM600 1243h-86l-166 254v64h107l145 -287v-31z" />
    <glyph glyph-name="uacute" unicode="&#xfa;" horiz-adv-x="1105" 
d="M840 1098h118v-1098h-112v98q-127 -123 -330 -123q-256 0 -377 203v920h117v-885q102 -137 289 -137t295 129v893zM512 1243v31l145 287h107v-64l-166 -254h-86z" />
    <glyph glyph-name="ucircumflex" unicode="&#xfb;" horiz-adv-x="1105" 
d="M840 1098h118v-1098h-112v98q-127 -123 -330 -123q-256 0 -377 203v920h117v-885q102 -137 289 -137t295 129v893zM281 1241v33l194 285h158l194 -285v-33h-79l-195 252l-193 -252h-79z" />
    <glyph glyph-name="udieresis" unicode="&#xfc;" horiz-adv-x="1105" 
d="M840 1098h118v-1098h-112v98q-127 -123 -330 -123q-256 0 -377 203v920h117v-885q102 -137 289 -137t295 129v893zM748 1303q-53 0 -76 28v103q23 28 76 28t75 -28v-103q-22 -28 -75 -28zM356 1303q-53 0 -75 28v103q23 28 75 28t76 -28v-103q-23 -28 -76 -28z" />
    <glyph glyph-name="yacute" unicode="&#xfd;" horiz-adv-x="1017" 
d="M946 1098v-80l-422 -1219q-102 -152 -331 -151q-74 0 -103 8v94q27 -4 76 -4q178 0 258 109l43 127l-377 1032v84h96l336 -961h6l326 961h92zM721 1561v-64l-166 -254h-86v31l145 287h107z" />
    <glyph glyph-name="thorn" unicode="&#xfe;" 
d="M580 1022q-209 0 -314 -135v-676q109 -135 314 -135q113 0 183 45t103 100v656q-34 55 -104 100t-182 45zM600 1122q268 0 385 -215v-717q-117 -215 -385 -215q-209 0 -334 125v-440h-116v1774h116v-437q125 125 334 125z" />
    <glyph glyph-name="ydieresis" unicode="&#xff;" horiz-adv-x="1017" 
d="M946 1098v-80l-422 -1219q-102 -152 -331 -151q-74 0 -103 8v94q27 -4 76 -4q178 0 258 109l43 127l-377 1032v84h96l336 -961h6l326 961h92zM705 1462q53 0 75 -28v-103q-24 -29 -76 -29t-75 29v103q23 28 76 28zM313 1462q53 0 76 -28v-103q-23 -29 -76 -29t-75 29v103
q22 28 75 28z" />
    <glyph glyph-name="Amacron" unicode="&#x100;" horiz-adv-x="1226" 
d="M346 549h524l-258 774h-6zM1159 0h-104l-148 442h-596l-147 -442h-96v88l456 1346h176l459 -1346v-88zM918 1692v-93h-607v93h607z" />
    <glyph glyph-name="amacron" unicode="&#x101;" horiz-adv-x="1095" 
d="M504 74q119 0 207 47t129 115v313h-340q-174 0 -271 -115v-241q99 -119 275 -119zM524 1124q172 0 281 -80t151 -186v-858h-114v119q-125 -145 -366 -145t-363 171v326q27 48 87 92q114 82 281 82h359v184q-35 83 -116 139t-196 56q-114 0 -190 -48t-107 -112h-98v68
q135 192 391 192zM852 1448v-92h-606v92h606z" />
    <glyph glyph-name="Abreve" unicode="&#x102;" horiz-adv-x="1226" 
d="M346 549h524l-258 774h-6zM1159 0h-104l-148 442h-596l-147 -442h-96v88l456 1346h176l459 -1346v-88zM615 1530q-196 0 -269 141v101h96v-72q12 -31 54 -61q42 -29 116 -29t116 30t54 60v72h97v-101q-68 -141 -264 -141z" />
    <glyph glyph-name="abreve" unicode="&#x103;" horiz-adv-x="1095" 
d="M504 74q119 0 207 47t129 115v313h-340q-174 0 -271 -115v-241q99 -119 275 -119zM524 1124q172 0 281 -80t151 -186v-858h-114v119q-125 -145 -366 -145t-363 171v326q27 48 87 92q114 82 281 82h359v184q-35 83 -116 139t-196 56q-114 0 -190 -48t-107 -112h-98v68
q135 192 391 192zM550 1249q-196 0 -269 142v100h96v-72q12 -31 54 -61t116 -29q74 0 116 30t54 60v72h96v-100q-67 -142 -263 -142z" />
    <glyph glyph-name="Aogonek" unicode="&#x104;" horiz-adv-x="1226" 
d="M346 549h524l-258 774h-6zM1070 -344q50 0 101 25v-82q-57 -29 -127 -29t-119 26q-50 26 -69 66v133q49 109 195 217l-144 430h-596l-147 -442h-96v88l456 1346h176l459 -1346v-88q-172 -131 -209 -219v-78q8 -19 39 -33t81 -14z" />
    <glyph glyph-name="aogonek" unicode="&#x105;" horiz-adv-x="1095" 
d="M504 74q119 0 207 47t129 115v313h-340q-174 0 -271 -115v-241q99 -119 275 -119zM881 -344q50 0 102 25v-82q-57 -29 -127 -29t-120 26q-52 26 -70 66v133q49 104 180 205h-4v119q-125 -145 -366 -145t-363 171v326q27 48 87 92q114 82 281 82h359v184q-35 83 -116 139
t-196 56q-114 0 -190 -48t-107 -112h-98v68q135 193 391 192q172 0 281 -80t151 -186v-858q-156 -125 -194 -219v-78q8 -19 38 -33t81 -14z" />
    <glyph glyph-name="Cacute" unicode="&#x106;" horiz-adv-x="1241" 
d="M641 1460q197 0 319.5 -90t178.5 -213v-78h-105q-41 121 -142 199q-102 78 -246 78t-241.5 -67.5t-138.5 -168.5v-805q41 -100 138.5 -167.5t241.5 -67.5t245.5 76.5t142.5 199.5h105v-77q-55 -123 -178 -214.5t-321 -91.5t-322.5 92.5t-178.5 219.5v866q53 125 179 217
t323 92zM836 1847v-61l-166 -242h-84v33l143 270h107z" />
    <glyph glyph-name="cacute" unicode="&#x107;" horiz-adv-x="1067" 
d="M553 1124q170 0 278.5 -78.5t149.5 -179.5v-65h-98q-90 223 -330 223q-117 0 -198 -55.5t-115 -139.5v-561q35 -84 115.5 -139t197.5 -55q240 0 330 225h98v-68q-41 -100 -149.5 -179t-278.5 -79t-278.5 80t-151.5 187v618q43 106 151.5 186t278.5 80zM766 1561v-64
l-166 -254h-86v31l145 287h107z" />
    <glyph glyph-name="Ccircumflex" unicode="&#x108;" horiz-adv-x="1241" 
d="M641 1460q197 0 319.5 -90t178.5 -213v-78h-105q-41 121 -142 199t-245.5 78t-242 -67.5t-138.5 -168.5v-805q41 -100 138.5 -167.5t242 -67.5t245.5 76.5t142 199.5h105v-77q-55 -123 -178 -214.5t-321 -91.5t-322.5 92.5t-178.5 219.5v866q53 125 179 217t323 92z
M915 1544h-79l-195 236l-192 -236h-80v33l194 270h158l194 -270v-33z" />
    <glyph glyph-name="ccircumflex" unicode="&#x109;" horiz-adv-x="1067" 
d="M553 1124q170 0 278.5 -78.5t149.5 -179.5v-65h-98q-90 223 -330 223q-117 0 -198 -55.5t-115 -139.5v-561q35 -84 115.5 -139t197.5 -55q240 0 330 225h98v-68q-41 -100 -149.5 -179t-278.5 -79t-278.5 80t-151.5 187v618q43 106 151.5 186t278.5 80zM827 1241h-79
l-195 252l-193 -252h-79v33l194 285h158l194 -285v-33z" />
    <glyph glyph-name="Cdotaccent" unicode="&#x10a;" horiz-adv-x="1241" 
d="M641 1460q197 0 319.5 -90t178.5 -213v-78h-105q-41 121 -142 199q-102 78 -246 78t-241.5 -67.5t-138.5 -168.5v-805q41 -100 138.5 -167.5t241.5 -67.5t245.5 76.5t142.5 199.5h105v-77q-55 -123 -178 -214.5t-321 -91.5t-322.5 92.5t-178.5 219.5v866q53 125 179 217
t323 92zM641 1767q59 0 78 -34v-88q-17 -33 -77 -33t-77 33v88q17 34 76 34z" />
    <glyph glyph-name="cdotaccent" unicode="&#x10b;" horiz-adv-x="1067" 
d="M553 1124q170 0 278.5 -78.5t149.5 -179.5v-65h-98q-90 223 -330 223q-117 0 -198 -55.5t-115 -139.5v-561q35 -84 115.5 -139t197.5 -55q240 0 330 225h98v-68q-41 -100 -149.5 -179t-278.5 -79t-278.5 80t-151.5 187v618q43 106 151.5 186t278.5 80zM555 1464
q59 0 76 -34v-87q-16 -35 -75.5 -34.5t-78.5 34.5v87q19 34 78 34z" />
    <glyph glyph-name="Ccaron" unicode="&#x10c;" horiz-adv-x="1241" 
d="M641 1460q197 0 319.5 -90t178.5 -213v-78h-105q-41 121 -142 199q-102 78 -246 78t-241.5 -67.5t-138.5 -168.5v-805q41 -100 138.5 -167.5t241.5 -67.5t245.5 76.5t142.5 199.5h105v-77q-55 -123 -178 -214.5t-321 -91.5t-322.5 92.5t-178.5 219.5v866q53 125 179 217
t323 92zM915 1847v-32l-194 -271h-158l-194 271v32h80l192 -237l195 237h79z" />
    <glyph glyph-name="ccaron" unicode="&#x10d;" horiz-adv-x="1067" 
d="M553 1124q170 0 278.5 -78.5t149.5 -179.5v-65h-98q-90 223 -330 223q-117 0 -198 -55.5t-115 -139.5v-561q35 -84 115.5 -139t197.5 -55q240 0 330 225h98v-68q-41 -100 -149.5 -179t-278.5 -79t-278.5 80t-151.5 187v618q43 106 151.5 186t278.5 80zM827 1559v-33
l-194 -285h-158l-194 285v33h79l193 -250l195 250h79z" />
    <glyph glyph-name="Dcaron" unicode="&#x10e;" horiz-adv-x="1275" 
d="M635 1327h-340v-1221h340q141 0 238 58t137 153v799q-38 94 -136 152t-239 59zM651 1434q191 0 313 -82t173 -201v-868q-51 -119 -173 -201t-313 -82h-483v1434h483zM911 1847v-32l-194 -271h-158l-194 271v32h79l193 -237l194 237h80z" />
    <glyph glyph-name="dcaron" unicode="&#x10f;" 
d="M528 76q205 0 314 135v676q-104 135 -314 135q-114 0 -184 -45t-102 -100v-656q33 -55 103 -100t183 -45zM1307 1434v-70l-60 -260h-80v31l37 299h103zM842 1434h116v-1434h-114v102q-127 -127 -338 -127q-266 0 -383 215v717q117 215 383 215q207 0 336 -125v437z" />
    <glyph glyph-name="Dcroat" unicode="&#x110;" horiz-adv-x="1333" 
d="M690 1327h-340v-545h398v-104h-398v-572h340q140 0 238 58t135 153v799q-37 94 -134 152t-239 59zM707 1434q190 0 311 -81t172 -202v-868q-51 -121 -172 -202t-311 -81h-484v678h-131v104h131v652h484z" />
    <glyph glyph-name="dcroat" unicode="&#x111;" horiz-adv-x="1167" 
d="M529 1010q-204 0 -287 -146v-643q34 -55 104 -100t182 -45q209 0 314 135v663q-109 136 -313 136zM961 1434v-111h133v-78h-133v-1245h-117v102q-123 -127 -338 -127q-266 0 -383 215v705q36 71 116 134q99 81 267 81q209 0 336 -123v258h-385v78h385v111h119z" />
    <glyph glyph-name="Emacron" unicode="&#x112;" horiz-adv-x="1110" 
d="M987 1434v-107h-692v-534h645v-105h-645v-582h711v-106h-838v1434h819zM872 1692v-93h-606v93h606z" />
    <glyph glyph-name="emacron" unicode="&#x113;" horiz-adv-x="1093" 
d="M554 1024q-118 0 -199 -56.5t-115 -140.5v-182h628v182q-33 84 -114.5 140.5t-199.5 56.5zM553 1124q170 0 277.5 -78.5t150.5 -179.5v-317h-741v-279q35 -84 115.5 -140t197.5 -56q242 0 330 225h98v-68q-43 -100 -150.5 -179t-277.5 -79t-278.5 80t-151.5 187v618
q43 106 151.5 186t278.5 80zM870 1448v-92h-606v92h606z" />
    <glyph glyph-name="Ebreve" unicode="&#x114;" horiz-adv-x="1110" 
d="M987 1434v-107h-692v-534h645v-105h-645v-582h711v-106h-838v1434h819zM834 1772v-101q-68 -141 -264 -141t-269 141v101h96v-72q12 -31 54.5 -60.5t116 -29.5t115.5 29.5t54 60.5v72h97z" />
    <glyph glyph-name="ebreve" unicode="&#x115;" horiz-adv-x="1093" 
d="M554 1024q-118 0 -199 -56.5t-115 -140.5v-182h628v182q-33 84 -114.5 140.5t-199.5 56.5zM553 1124q170 0 277.5 -78.5t150.5 -179.5v-317h-741v-279q35 -84 115.5 -140t197.5 -56q242 0 330 225h98v-68q-43 -100 -150.5 -179t-277.5 -79t-278.5 80t-151.5 187v618
q43 106 151.5 186t278.5 80zM831 1491v-100q-68 -141 -263.5 -141.5t-268.5 141.5v100h96v-72q12 -31 54.5 -60.5t116 -29.5t115.5 30t54 60v72h96z" />
    <glyph glyph-name="Edotaccent" unicode="&#x116;" horiz-adv-x="1110" 
d="M987 1434v-107h-692v-534h645v-105h-645v-582h711v-106h-838v1434h819zM567.5 1767q59.5 0 77.5 -34v-88q-17 -33 -77 -33t-76 33v88q16 34 75.5 34z" />
    <glyph glyph-name="edotaccent" unicode="&#x117;" horiz-adv-x="1093" 
d="M554 1024q-118 0 -199 -56.5t-115 -140.5v-182h628v182q-33 84 -114.5 140.5t-199.5 56.5zM553 1124q170 0 277.5 -78.5t150.5 -179.5v-317h-741v-279q35 -84 115.5 -140t197.5 -56q242 0 330 225h98v-68q-43 -100 -150.5 -179t-277.5 -79t-278.5 80t-151.5 187v618
q43 106 151.5 186t278.5 80zM567 1464q59 0 76 -34v-87q-16 -35 -75.5 -34.5t-78.5 34.5v87q19 34 78 34z" />
    <glyph glyph-name="Eogonek" unicode="&#x118;" horiz-adv-x="1110" 
d="M904 -344q50 0 102 25v-82q-57 -29 -128.5 -29t-121 25.5t-68.5 66.5v133q49 102 191 205h-711v1434h819v-107h-692v-534h645v-105h-645v-582h711v-106q-188 -135 -222 -219v-78q8 -18 39 -32.5t81 -14.5z" />
    <glyph glyph-name="eogonek" unicode="&#x119;" horiz-adv-x="1093" 
d="M554 1024q-118 0 -199 -56.5t-115 -140.5v-182h628v182q-33 84 -114.5 140.5t-199.5 56.5zM553 1124q170 0 277.5 -78.5t150.5 -179.5v-317h-741v-279q35 -84 115.5 -140t197.5 -56q242 0 330 225h98v-68q-14 -33 -122.5 -204.5t-131.5 -245.5v-78q27 -47 100 -47t123 25
v-82q-57 -29 -126.5 -29t-121 25.5t-69.5 66.5v133q31 86 125 219q-96 -41 -205 -41q-170 0 -278.5 80t-151.5 187v618q43 106 151.5 186t278.5 80z" />
    <glyph glyph-name="Ecaron" unicode="&#x11a;" horiz-adv-x="1110" 
d="M987 1434v-107h-692v-534h645v-105h-645v-582h711v-106h-838v1434h819zM842 1847v-32l-195 -271h-158l-194 271v32h80l192 -237l195 237h80z" />
    <glyph glyph-name="ecaron" unicode="&#x11b;" horiz-adv-x="1093" 
d="M554 1024q-118 0 -199 -56.5t-115 -140.5v-182h628v182q-33 84 -114.5 140.5t-199.5 56.5zM553 1124q170 0 277.5 -78.5t150.5 -179.5v-317h-741v-279q35 -84 115.5 -140t197.5 -56q242 0 330 225h98v-68q-43 -100 -150.5 -179t-277.5 -79t-278.5 80t-151.5 187v618
q43 106 151.5 186t278.5 80zM840 1559v-33l-195 -285h-158l-194 285v33h80l192 -250l195 250h80z" />
    <glyph glyph-name="Gcircumflex" unicode="&#x11c;" horiz-adv-x="1298" 
d="M646.5 1356q-144.5 0 -242 -67.5t-138.5 -168.5v-805q41 -98 139.5 -166.5t237.5 -68.5t235.5 66.5t139.5 166.5v314h-338v104h459v-731h-113v154q-137 -180 -397 -181q-190 0 -313 93.5t-177 218.5v866q53 125 179 217t323 92t319.5 -90t178.5 -213v-78h-105
q-41 121 -142 199t-245.5 78zM377 1544v33l194 270h158l195 -270v-33h-80l-195 236l-192 -236h-80z" />
    <glyph glyph-name="gcircumflex" unicode="&#x11d;" 
d="M531 139q204 0 311 137v609q-106 137 -308 137t-294 -145v-592q87 -146 291 -146zM844 1098h114v-1215q-42 -102 -152 -175t-279 -73t-275 68t-148 143v70h99q37 -76 121 -128t200 -52q240 0 318 176v250q-133 -125 -334 -125q-156 -1 -249 67t-136 148v655q27 47 64 89
q38 42 125 84t196 42q207 0 336 -125v101zM281 1241v33l194 285h158l194 -285v-33h-79l-195 252l-193 -252h-79z" />
    <glyph glyph-name="Gbreve" unicode="&#x11e;" horiz-adv-x="1298" 
d="M646.5 1356q-144.5 0 -242 -67.5t-138.5 -168.5v-805q41 -98 139.5 -166.5t237.5 -68.5t235.5 66.5t139.5 166.5v314h-338v104h459v-731h-113v154q-137 -180 -397 -181q-190 0 -313 93.5t-177 218.5v866q53 125 179 217t323 92t319.5 -90t178.5 -213v-78h-105
q-41 121 -142 199t-245.5 78zM652 1530q-196 0 -269 141v101h96v-72q12 -31 54 -60.5t116 -29.5t116 29.5t54 60.5v72h96v-101q-67 -141 -263 -141z" />
    <glyph glyph-name="gbreve" unicode="&#x11f;" 
d="M531 139q204 0 311 137v609q-106 137 -308 137t-294 -145v-592q87 -146 291 -146zM844 1098h114v-1215q-42 -102 -152 -175t-279 -73t-275 68t-148 143v70h99q37 -76 121 -128t200 -52q240 0 318 176v250q-133 -125 -334 -125q-156 -1 -249 67t-136 148v655q27 47 64 89
q38 42 125 84t196 42q207 0 336 -125v101zM556 1249q-196 0 -269 142v100h96v-72q12 -31 54 -61t116 -29q74 0 116 30t54 60v72h96v-100q-67 -142 -263 -142z" />
    <glyph glyph-name="Gdotaccent" unicode="&#x120;" horiz-adv-x="1298" 
d="M646.5 1356q-144.5 0 -242 -67.5t-138.5 -168.5v-805q41 -98 139.5 -166.5t237.5 -68.5t235.5 66.5t139.5 166.5v314h-338v104h459v-731h-113v154q-137 -180 -397 -181q-190 0 -313 93.5t-177 218.5v866q53 125 179 217t323 92t319.5 -90t178.5 -213v-78h-105
q-41 121 -142 199t-245.5 78zM650 1612q-60 0 -77 33v88q16 35 76 34.5t78 -34.5v-88q-17 -33 -77 -33z" />
    <glyph glyph-name="gdotaccent" unicode="&#x121;" 
d="M531 139q204 0 311 137v609q-106 137 -308 137t-294 -145v-592q87 -146 291 -146zM844 1098h114v-1215q-42 -102 -152 -175t-279 -73t-275 68t-148 143v70h99q37 -76 121 -128t200 -52q240 0 318 176v250q-133 -125 -334 -125q-156 -1 -249 67t-136 148v655q27 47 64 89
q38 42 125 84t196 42q207 0 336 -125v101zM555 1309q-59 0 -78 34v87q17 34 77 34t77 -34v-87q-17 -34 -76 -34z" />
    <glyph glyph-name="Gcommaaccent" unicode="&#x122;" horiz-adv-x="1298" 
d="M650 -137q54 0 69 -25v-176q-6 -20 -29.5 -39.5t-60.5 -19.5h-41v51h30q23 0 33 16v64h-2q-53 0 -67 22v82q14 25 68 25zM646.5 1356q-144.5 0 -242 -67.5t-138.5 -168.5v-805q41 -98 139.5 -166.5t237.5 -68.5t235.5 66.5t139.5 166.5v314h-338v104h459v-731h-113v154
q-137 -180 -397 -181q-190 0 -313 93.5t-177 218.5v866q53 125 179 217t323 92t319.5 -90t178.5 -213v-78h-105q-41 121 -142 199t-245.5 78z" />
    <glyph glyph-name="gcommaaccent" unicode="&#x123;" 
d="M531 139q204 0 311 137v609q-106 137 -308 137t-294 -145v-592q87 -146 291 -146zM844 1098h114v-1215q-42 -102 -152 -175t-279 -73t-275 68t-148 143v70h99q37 -76 121 -128t200 -52q240 0 318 176v250q-133 -125 -334 -125q-156 -1 -249 67t-136 148v655q27 47 64 89
q38 42 125 84t196 42q207 0 336 -125v101zM553 1247q-25 0 -47 10t-27 23v180q6 20 34 40t67 22h38v-56h-28q-31 0 -37 -16v-68q63 0 76 -32v-70q-15 -33 -76 -33z" />
    <glyph glyph-name="Hcircumflex" unicode="&#x124;" horiz-adv-x="1312" 
d="M1145 1434v-1434h-127v686h-723v-686h-127v1434h127v-641h723v641h127zM930 1544h-80l-195 236l-192 -236h-80v33l195 270h157l195 -270v-33z" />
    <glyph glyph-name="hcircumflex" unicode="&#x125;" horiz-adv-x="1126" 
d="M600 1122q268 0 385 -215v-907h-117v877q-92 145 -294 145t-308 -135v-887h-116v1434h116v-435q131 123 334 123zM301 1526v33l195 270h157l195 -270v-33h-80l-195 235l-192 -235h-80z" />
    <glyph glyph-name="Hbar" unicode="&#x126;" horiz-adv-x="1312" 
d="M1018 793v362h-723v-362h723zM1262 1243v-88h-117v-1155h-127v686h-723v-686h-127v1155h-100v88h100v191h127v-191h723v191h127v-191h117z" />
    <glyph glyph-name="hbar" unicode="&#x127;" horiz-adv-x="1155" 
d="M297 1434v-111h414v-78h-414v-258q127 123 334 123q158 0 250 -67t135 -148v-895h-119v864q-33 54 -103 100t-184 46q-209 0 -313 -136v-874h-117v1245h-106v78h106v111h117z" />
    <glyph glyph-name="Itilde" unicode="&#x128;" horiz-adv-x="462" 
d="M295 1434v-1434h-127v1434h127zM92 1755q68 0 151 -56t124 -57q70 0 92 64v37h82v-72q-43 -115 -168 -115q-68 0 -150 58t-123 57q-63 0 -94 -63v-39h-82v71q45 115 168 115z" />
    <glyph glyph-name="itilde" unicode="&#x129;" horiz-adv-x="432" 
d="M274 1098v-1098h-116v1098h116zM76 1485q68 -1 150 -57t124 -56q70 0 92 64v37h82v-70q-41 -117 -168 -117q-68 0 -150 56t-132 56q-51 0 -84 -59v-41h-82v72q45 115 168 115z" />
    <glyph glyph-name="Imacron" unicode="&#x12a;" horiz-adv-x="462" 
d="M295 1434v-1434h-127v1434h127zM535 1692v-93h-607v93h607z" />
    <glyph glyph-name="imacron" unicode="&#x12b;" horiz-adv-x="432" 
d="M274 1098v-1098h-116v1098h116zM520 1448v-92h-606v92h606z" />
    <glyph glyph-name="Ibreve" unicode="&#x12c;" horiz-adv-x="462" 
d="M295 1434v-1434h-127v1434h127zM498 1772v-101q-68 -141 -264 -141t-269 141v101h96v-72q13 -31 55 -61q42 -29 116 -29t115 30q42 30 54 60v72h97z" />
    <glyph glyph-name="ibreve" unicode="&#x12d;" horiz-adv-x="432" 
d="M274 1098v-1098h-116v1098h116zM481 1491v-100q-67 -141 -263 -141t-269 141v100h96v-72q12 -31 54 -61t116 -29q74 0 116 30t54 60v72h96z" />
    <glyph glyph-name="Iogonek" unicode="&#x12e;" horiz-adv-x="462" 
d="M193 -344q51 0 102 25v-82q-57 -29 -127 -29t-120 26q-52 26 -71 66v133q49 102 191 205v1434h127v-1434q-93 -68 -151 -130t-70 -89v-78q8 -19 38 -33t81 -14z" />
    <glyph glyph-name="iogonek" unicode="&#x12f;" horiz-adv-x="432" 
d="M166 -344q72 0 123 25v-82q-57 -29 -128 -29t-121 26t-69 66v133q51 104 187 205v1098h116v-1098q-166 -127 -208 -219v-78q28 -47 100 -47zM215 1464q59 0 78 -34v-84q-19 -33 -77 -33t-77 33v84q17 34 76 34z" />
    <glyph glyph-name="Idotaccent" unicode="&#x130;" horiz-adv-x="462" 
d="M295 1434v-1434h-127v1434h127zM231 1767q59 0 78 -34v-88q-17 -33 -77 -33t-76 33v88q16 34 75 34z" />
    <glyph glyph-name="dotlessi" unicode="&#x131;" horiz-adv-x="432" 
d="M274 1098v-1098h-116v1098h116z" />
    <glyph glyph-name="IJ" unicode="&#x132;" horiz-adv-x="1255" 
d="M504 104h90q135 0 234 58t141 157v1115h127v-1149q-58 -129 -182 -208t-314 -79l-96 2v104zM295 1434v-1434h-127v1434h127z" />
    <glyph glyph-name="ij" unicode="&#x133;" horiz-adv-x="847" 
d="M698 1098v-1198q-43 -106 -151 -187q-109 -80 -277 -80v101q117 0 197 56t113 142v1166h118zM274 1098v-1098h-116v1098h116zM641 1464q59 0 76 -34v-87q-15 -35 -75 -35t-79 35v87q19 34 78 34zM215 1464q59 0 78 -34v-87q-17 -35 -77 -35t-77 35v87q17 34 76 34z" />
    <glyph glyph-name="Jcircumflex" unicode="&#x134;" horiz-adv-x="790" 
d="M41 104h90q135 0 235 58t140 157v1115h127v-1149q-57 -129 -181 -208t-315 -79l-96 2v104zM842 1544h-80l-195 236l-192 -236h-80v33l194 270h158l195 -270v-33z" />
    <glyph glyph-name="jcircumflex" unicode="&#x135;" horiz-adv-x="415" 
d="M266 1098v-1198q-43 -106 -151 -187q-109 -80 -277 -80v101q117 0 197 56t112 142v1166h119zM481 1241h-80l-194 252l-193 -252h-80v33l195 285h158l194 -285v-33z" />
    <glyph glyph-name="Kcommaaccent" unicode="&#x136;" horiz-adv-x="1185" 
d="M595 -137q54 0 69 -25v-176q-6 -20 -30 -39.5t-61 -19.5h-41v51h31q23 0 33 16v64h-2q-53 0 -68 22v82q15 25 69 25zM1118 0h-88l-526 764l-209 -217v-547h-127v1434h127v-729l692 729h72v-88l-471 -494l530 -764v-88z" />
    <glyph glyph-name="kcommaaccent" unicode="&#x137;" horiz-adv-x="1021" 
d="M511 -137q54 0 69 -25v-176q-6 -20 -30 -39.5t-61 -19.5h-40v51h30q23 0 33 16v64h-2q-53 0 -68 22v82q15 25 69 25zM981 0h-80l-434 569l-201 -196v-373h-116v1434h116v-920l584 584h72v-82l-373 -367l432 -569v-80z" />
    <glyph glyph-name="Lacute" unicode="&#x139;" horiz-adv-x="925" 
d="M295 1434v-1328h582v-106h-709v1434h127zM434 1847v-61l-166 -242h-84v33l144 270h106z" />
    <glyph glyph-name="lacute" unicode="&#x13a;" horiz-adv-x="415" 
d="M266 1434v-1434h-116v1434h116zM401 1843v-61l-165 -242h-84v33l143 270h106z" />
    <glyph glyph-name="Lcommaaccent" unicode="&#x13b;" horiz-adv-x="925" 
d="M464 -137q54 0 68 -25v-176q-6 -20 -29.5 -39.5t-60.5 -19.5h-41v51h31q23 0 33 16v64h-2q-53 0 -68 22v82q15 25 69 25zM295 106h582v-106h-709v1434h127v-1328z" />
    <glyph glyph-name="lcommaaccent" unicode="&#x13c;" horiz-adv-x="415" 
d="M208 -137q54 0 68 -25v-176q-6 -20 -29.5 -39.5t-60.5 -19.5h-41v51h31q23 0 33 16v64h-2q-53 0 -68 22v82q15 25 69 25zM266 1434v-1434h-116v1434h116z" />
    <glyph glyph-name="Lcaron" unicode="&#x13d;" horiz-adv-x="925" 
d="M674 1434v-70l-62 -260h-77v31l36 299h103zM295 1434v-1328h582v-106h-709v1434h127z" />
    <glyph glyph-name="lcaron" unicode="&#x13e;" horiz-adv-x="415" 
d="M616 1434v-70l-61 -260h-80v31l37 299h104zM266 1434v-1434h-116v1434h116z" />
    <glyph glyph-name="Ldot" unicode="&#x13f;" horiz-adv-x="925" 
d="M704 877q61 0 74 -35v-92q-14 -35 -73.5 -35t-79.5 35v92q18 35 79 35zM295 1434v-1328h582v-106h-709v1434h127z" />
    <glyph glyph-name="ldot" unicode="&#x140;" horiz-adv-x="415" 
d="M575 825q59 0 76 -34v-89q-16 -33 -76.5 -32.5t-76.5 32.5v89q18 34 77 34zM266 1434v-1434h-116v1434h116z" />
    <glyph glyph-name="Lslash" unicode="&#x141;" horiz-adv-x="989" 
d="M358 106h582v-106h-709v492l-174 -93v107l174 92v836h127v-770l416 217v-109l-416 -215v-451z" />
    <glyph glyph-name="lslash" unicode="&#x142;" horiz-adv-x="688" 
d="M403 0h-118v700l-222 -127v107l222 129v625h118v-557l222 127v-107l-222 -129v-768z" />
    <glyph glyph-name="Nacute" unicode="&#x143;" horiz-adv-x="1345" 
d="M1178 1434v-1434h-174l-709 1278h-6v-1278h-121v1434h174l709 -1278h6v1278h121zM870 1847v-61l-165 -242h-84v33l143 270h106z" />
    <glyph glyph-name="nacute" unicode="&#x144;" horiz-adv-x="1124" 
d="M600 1122q268 0 385 -215v-907h-119v877q-33 55 -104.5 100t-181.5 45q-209 0 -314 -135v-887h-116v1098h112v-103q127 127 338 127zM522 1243v31l146 287h106v-64l-166 -254h-86z" />
    <glyph glyph-name="Ncommaaccent" unicode="&#x145;" horiz-adv-x="1345" 
d="M673 -137q54 0 68 -25v-176q-6 -20 -29.5 -39.5t-60.5 -19.5h-41v51h31q23 0 33 16v64h-2q-53 0 -68 22v82q15 25 69 25zM1057 1434h121v-1434h-174l-709 1278h-6v-1278h-121v1434h174l709 -1278h6v1278z" />
    <glyph glyph-name="ncommaaccent" unicode="&#x146;" horiz-adv-x="1124" 
d="M562 -137q54 0 69 -25v-176q-6 -20 -29.5 -39.5t-60.5 -19.5h-41v51h30q23 0 33 16v64h-2q-53 0 -67 22v82q14 25 68 25zM600 1122q268 0 385 -215v-907h-119v877q-33 55 -104.5 100t-181.5 45q-209 0 -314 -135v-887h-116v1098h112v-103q127 127 338 127z" />
    <glyph glyph-name="Ncaron" unicode="&#x147;" horiz-adv-x="1345" 
d="M1178 1434v-1434h-174l-709 1278h-6v-1278h-121v1434h174l709 -1278h6v1278h121zM948 1847v-32l-194 -271h-158l-195 271v32h80l193 -237l194 237h80z" />
    <glyph glyph-name="ncaron" unicode="&#x148;" horiz-adv-x="1124" 
d="M600 1122q268 0 385 -215v-907h-119v877q-33 55 -104.5 100t-181.5 45q-209 0 -314 -135v-887h-116v1098h112v-103q127 127 338 127zM289 1559h80l192 -250l195 250h80v-33l-195 -285h-158l-194 285v33z" />
    <glyph glyph-name="napostrophe" unicode="&#x149;" horiz-adv-x="1124" 
d="M600 1122q268 0 385 -215v-907h-119v877q-33 55 -104.5 100t-181.5 45q-209 0 -314 -135v-887h-116v1098h112v-103q127 127 338 127zM88 1219h-41v49h31q23 0 33 16v64h-2q-53 0 -70 22v84q14 23 67.5 23t71.5 -23v-176q-25 -59 -90 -59z" />
    <glyph glyph-name="Eng" unicode="&#x14a;" horiz-adv-x="1345" 
d="M1057 1434h121v-1479q-58 -131 -186 -218t-316 -87q-51 0 -88 4v104q29 -4 86 -4q119 0 213 52t145 141l-737 1331h-6v-1278h-121v1434h174l709 -1278h6v1278z" />
    <glyph glyph-name="eng" unicode="&#x14b;" horiz-adv-x="1126" 
d="M602 1122q266 0 383 -215v-995q-43 -106 -151 -186t-279 -80v100q117 0 198 56t115 143v932q-92 145 -292 145t-310 -135v-887h-116v1098h112v-105q125 129 340 129z" />
    <glyph glyph-name="Omacron" unicode="&#x14c;" horiz-adv-x="1282" 
d="M641 1356q-139 0 -237 -68t-138 -168v-805q41 -100 138 -168q96 -67 236 -67t238 67q97 68 138 168v805q-41 100 -138 168q-98 68 -237 68zM641 1460q197 0 323 -92t179 -217v-866q-53 -127 -178 -219t-324 -92t-324 92t-178 219v866q53 125 179 217t323 92zM944 1692
v-93h-606v93h606z" />
    <glyph glyph-name="omacron" unicode="&#x14d;" 
d="M554 1024q-118 0 -200 -56t-114 -139v-561q32 -82 114 -138t200 -56t200 56t114 138v561q-33 82 -114 139q-82 56 -200 56zM555 1124q170 0 279 -80t151 -186v-618q-43 -106 -151 -187q-109 -80 -279 -80t-280 81t-152 186v618q43 104 152 185q110 81 280 81zM856 1448
v-92h-606v92h606z" />
    <glyph glyph-name="Obreve" unicode="&#x14e;" horiz-adv-x="1282" 
d="M641 1356q-139 0 -237 -68t-138 -168v-805q41 -100 138 -168q96 -67 236 -67t238 67q97 68 138 168v805q-41 100 -138 168q-98 68 -237 68zM641 1460q197 0 323 -92t179 -217v-866q-53 -127 -178 -219t-324 -92t-324 92t-178 219v866q53 125 179 217t323 92zM907 1772
v-101q-67 -141 -263 -141t-269 141v101h96v-72q12 -31 54 -61q42 -29 116 -29t116 30t54 60v72h96z" />
    <glyph glyph-name="obreve" unicode="&#x14f;" 
d="M554 1024q-118 0 -200 -56t-114 -139v-561q32 -82 114 -138t200 -56t200 56t114 138v561q-33 82 -114 139q-82 56 -200 56zM555 1124q170 0 279 -80t151 -186v-618q-43 -106 -151 -187q-109 -80 -279 -80t-280 81t-152 186v618q43 104 152 185q110 81 280 81zM819 1491
v-100q-67 -141 -263 -141t-269 141v100h96v-72q12 -31 54 -61t116 -29q74 0 116 30t54 60v72h96z" />
    <glyph glyph-name="Ohungarumlaut" unicode="&#x150;" horiz-adv-x="1282" 
d="M641 1356q-139 0 -237 -68t-138 -168v-805q41 -100 138 -168q96 -67 236 -67t238 67q97 68 138 168v805q-41 100 -138 168q-98 68 -237 68zM641 1460q197 0 323 -92t179 -217v-866q-53 -127 -178 -219t-324 -92t-324 92t-178 219v866q53 125 179 217t323 92zM979 1847
v-57l-125 -246h-76v33l107 270h94zM633 1847v-57l-123 -246h-78v33l107 270h94z" />
    <glyph glyph-name="ohungarumlaut" unicode="&#x151;" 
d="M554 1024q-118 0 -200 -56t-114 -139v-561q32 -82 114 -138t200 -56t200 56t114 138v561q-33 82 -114 139q-82 56 -200 56zM555 1124q170 0 279 -80t151 -186v-618q-43 -106 -151 -187q-109 -80 -279 -80t-280 81t-152 186v618q43 104 152 185q110 81 280 81zM879 1554
v-57l-125 -260h-76v33l106 284h95zM532 1554v-57l-122 -260h-78v33l106 284h94z" />
    <glyph glyph-name="OE" unicode="&#x152;" horiz-adv-x="1955" 
d="M639 80q139 0 237 67q97 68 138 168v805q-41 100 -138 168q-96 68 -236 68t-238 -68t-138 -168v-805q41 -100 138 -168q98 -67 237 -67zM1141 106h710v-106h-837v111q-146 -137 -360 -137t-339 92t-178 219v866q53 125 179 217t339 92t359 -135v109h819v-107h-692v-534
h643v-105h-643v-582z" />
    <glyph glyph-name="oe" unicode="&#x153;" horiz-adv-x="1839" 
d="M554 1024q-118 0 -200 -56.5t-114 -138.5v-561q33 -82 114.5 -138t199.5 -56t199.5 56t114.5 138v561q-33 82 -114.5 138.5t-199.5 56.5zM1300.5 1024q-116.5 0 -197.5 -55.5t-118 -139.5v-184h629v182q-33 84 -115 140.5t-198.5 56.5zM1726 549h-741v-281
q37 -84 118 -139t197 -55q240 0 328 225h98v-68q-43 -100 -150.5 -179t-275.5 -79q-240 0 -372 168q-137 -168 -373 -168q-170 0 -279.5 81t-152.5 186v618q43 104 152.5 185t279.5 81q236 0 373 -168q133 168 372 168q168 0 275.5 -78.5t150.5 -179.5v-317z" />
    <glyph glyph-name="Racute" unicode="&#x154;" horiz-adv-x="1193" 
d="M295 1327v-588h344q203 0 303 174v238q-47 86 -127 131t-176 45h-344zM1085 0h-90l-426 633h-274v-633h-127v1434h498q125 0 231.5 -64.5t167.5 -175.5v-320q-53 -98 -145 -162.5t-209 -76.5l374 -547v-88zM541 1544v33l143 270h107v-61l-166 -242h-84z" />
    <glyph glyph-name="racute" unicode="&#x155;" horiz-adv-x="698" 
d="M606 1100q20 0 43 -2v-113q-25 2 -47 2q-227 0 -336 -139v-848h-119v1098h115v-142q117 144 344 144zM616 1561v-64l-165 -254h-86v31l145 287h106z" />
    <glyph glyph-name="Rcommaaccent" unicode="&#x156;" horiz-adv-x="1193" 
d="M597 -137q54 0 69 -25v-176q-6 -20 -30 -39.5t-61 -19.5h-40v51h30q23 0 33 16v64h-2q-53 0 -68 22v82q15 25 69 25zM295 1327v-588h344q203 0 303 174v238q-47 86 -127 131t-176 45h-344zM1085 0h-90l-426 633h-274v-633h-127v1434h498q125 0 231.5 -64.5t167.5 -175.5
v-320q-53 -98 -145 -162.5t-209 -76.5l374 -547v-88z" />
    <glyph glyph-name="rcommaaccent" unicode="&#x157;" horiz-adv-x="698" 
d="M206 -137q54 0 68 -25v-176q-6 -20 -29.5 -39.5t-60.5 -19.5h-41v51h31q23 0 33 16v64h-2q-53 0 -68 22v82q15 25 69 25zM606 1100q20 0 43 -2v-113q-25 2 -47 2q-227 0 -336 -139v-848h-119v1098h115v-142q117 144 344 144z" />
    <glyph glyph-name="Rcaron" unicode="&#x158;" horiz-adv-x="1193" 
d="M295 1327v-588h344q203 0 303 174v238q-47 86 -127 131t-176 45h-344zM1085 0h-90l-426 633h-274v-633h-127v1434h498q125 0 231.5 -64.5t167.5 -175.5v-320q-53 -98 -145 -162.5t-209 -76.5l374 -547v-88zM324 1847h79l193 -237l195 237h79v-32l-194 -271h-158l-194 271
v32z" />
    <glyph glyph-name="rcaron" unicode="&#x159;" horiz-adv-x="698" 
d="M606 1100q20 0 43 -2v-113q-25 2 -47 2q-227 0 -336 -139v-848h-119v1098h115v-142q117 144 344 144zM678 1559v-33l-195 -285h-157l-195 285v33h80l192 -250l195 250h80z" />
    <glyph glyph-name="Sacute" unicode="&#x15a;" horiz-adv-x="1171" 
d="M584 1460q170 0 284.5 -69.5t169.5 -163.5v-80h-106q-41 94 -130 150.5t-220 56.5q-223 0 -326 -166v-213q29 -53 87 -89t181 -69l152 -39q182 -49 262 -107.5t123 -138.5v-290q-35 -63 -84 -116.5t-155.5 -103t-241.5 -49.5q-195 0 -318 84t-174 185v80h107
q37 -98 138 -170t241 -72t232.5 61.5t131.5 137.5v206q-27 59 -89.5 103.5t-193.5 79.5l-153 39q-162 41 -240 91t-131 132v297q144 233 453 233zM797 1847v-61l-166 -242h-84v33l143 270h107z" />
    <glyph glyph-name="sacute" unicode="&#x15b;" horiz-adv-x="972" 
d="M484 1124q138 0 233.5 -52t140.5 -116v-67h-98q-29 57 -102.5 96t-172.5 39q-160 0 -258 -106v-175q51 -78 211 -114l131 -33q240 -57 310 -172v-258q-131 -193 -390.5 -193t-394.5 193v67h99q35 -70 110.5 -114.5t181.5 -44.5q186 0 281 131v174q-49 80 -221 119
l-135 32q-219 51 -295 168v258q47 63 139 115.5t230 52.5zM711 1561v-64l-166 -254h-86v31l145 287h107z" />
    <glyph glyph-name="Scircumflex" unicode="&#x15c;" horiz-adv-x="1171" 
d="M584 1460q170 0 284.5 -69.5t169.5 -163.5v-80h-106q-41 94 -130 150.5t-220 56.5q-223 0 -326 -166v-213q29 -53 87 -89t181 -69l152 -39q182 -49 262 -107.5t123 -138.5v-290q-35 -63 -84 -116.5t-155.5 -103t-241.5 -49.5q-195 0 -318 84t-174 185v80h107
q37 -98 138 -170t240.5 -72t232.5 61.5t132 137.5v206q-27 59 -89.5 103.5t-193.5 79.5l-153 39q-162 41 -240 91t-131 132v297q144 233 453 233zM874 1544h-79l-195 236l-192 -236h-80v33l194 270h158l194 -270v-33z" />
    <glyph glyph-name="scircumflex" unicode="&#x15d;" horiz-adv-x="972" 
d="M484 1124q138 0 233.5 -52t140.5 -116v-67h-98q-29 57 -102.5 96t-172.5 39q-160 0 -258 -106v-175q51 -78 211 -114l131 -33q240 -57 310 -172v-258q-131 -193 -390.5 -193t-394.5 193v67h99q35 -70 110.5 -114.5t181.5 -44.5q186 0 281 131v174q-49 80 -221 119
l-135 32q-219 51 -295 168v258q47 63 139 115.5t230 52.5zM772 1241h-80l-194 252l-193 -252h-80v33l195 285h158l194 -285v-33z" />
    <glyph glyph-name="Scedilla" unicode="&#x15e;" horiz-adv-x="1171" 
d="M612 -119q123 0 166 -90v-139q-49 -96 -171 -96t-201 51l26 67q78 -45 157 -45t105 52v83q-27 51 -104 52h-119l55 159q-172 12 -281.5 93.5t-156.5 173.5v80h107q37 -98 138 -170t240.5 -72t232.5 61.5t132 137.5v208q-29 61 -90.5 104.5t-192.5 76.5l-153 39
q-164 41 -241 91t-130 132v297q143 233 453 233q170 0 284.5 -69.5t169.5 -163.5v-80h-106q-41 94 -130 150.5t-220 56.5q-223 0 -326 -166v-213q29 -53 87 -89t181 -69l152 -39q182 -49 262 -107.5t123 -138.5v-290q-137 -254 -451 -269l-35 -92h37z" />
    <glyph glyph-name="scedilla" unicode="&#x15f;" horiz-adv-x="972" 
d="M694 -348q-46 -96 -204 -96q-88 0 -168 51l26 67q78 -45 158 -45t104 52v83q-25 51 -104 52h-119l55 159q-223 16 -348 191v67h99q35 -70 110.5 -114.5t181.5 -44.5q186 0 281 131v174q-49 80 -221 119l-135 32q-219 51 -295 168v258q47 63 139 115.5t230 52.5t233.5 -52
t140.5 -116v-67h-98q-29 57 -102.5 96t-172.5 39q-160 0 -258 -106v-175q51 -78 211 -114l131 -33q240 -57 310 -172v-258q-121 -174 -351 -191l-36 -94h36q123 0 166 -90v-139z" />
    <glyph glyph-name="Scaron" unicode="&#x160;" horiz-adv-x="1171" 
d="M584 1460q170 0 284.5 -69.5t169.5 -163.5v-80h-106q-41 94 -130 150.5t-220 56.5q-223 0 -326 -166v-213q29 -53 87 -89t181 -69l152 -39q182 -49 262 -107.5t123 -138.5v-290q-35 -63 -84 -116.5t-155.5 -103t-241.5 -49.5q-195 0 -318 84t-174 185v80h107
q37 -98 138 -170t241 -72t232.5 61.5t131.5 137.5v206q-27 59 -89.5 103.5t-193.5 79.5l-153 39q-162 41 -240 91t-131 132v297q144 233 453 233zM874 1847v-32l-194 -271h-158l-194 271v32h80l192 -237l195 237h79z" />
    <glyph glyph-name="scaron" unicode="&#x161;" horiz-adv-x="972" 
d="M484 1124q138 0 233.5 -52t140.5 -116v-67h-98q-29 57 -102.5 96t-172.5 39q-160 0 -258 -106v-175q51 -78 211 -114l131 -33q240 -57 310 -172v-258q-131 -193 -390.5 -193t-394.5 193v67h99q35 -70 110.5 -114.5t181.5 -44.5q186 0 281 131v174q-49 80 -221 119
l-135 32q-219 51 -295 168v258q47 63 139 115.5t230 52.5zM772 1559v-33l-194 -285h-158l-195 285v33h80l193 -250l194 250h80z" />
    <glyph glyph-name="uni0162" unicode="&#x162;" horiz-adv-x="1075" 
d="M737 -348q-43 -96 -205 -96q-90 0 -165 51l24 67q80 -45 158 -45t104 52v83q-27 51 -102 52h-119l64 184h-23v1327h-422v107h973v-107h-424v-1327h-20l-43 -119h34q123 0 166 -90v-139z" />
    <glyph glyph-name="uni0163" unicode="&#x163;" horiz-adv-x="708" 
d="M639 -348q-47 -96 -207 -96q-88 0 -166 51l25 67q78 -45 158 -45t104 52v83q-25 51 -102 52h-119l63 184q-135 39 -194 168v836h-154v94h154v235h116v-235h318v-94h-318v-793q61 -129 252 -129q66 0 107 8v-92q-48 -14 -115.5 -14t-85.5 2l-39 -105h37q61 0 105.5 -26.5
t60.5 -63.5v-139z" />
    <glyph glyph-name="Tcaron" unicode="&#x164;" horiz-adv-x="1075" 
d="M1024 1434v-107h-424v-1327h-127v1327h-422v107h973zM811 1847v-32l-195 -271h-157l-195 271v32h80l193 -237l194 237h80z" />
    <glyph glyph-name="tcaron" unicode="&#x165;" horiz-adv-x="749" 
d="M569 82q66 0 107 8v-92q-72 -14 -144 -14q-246 0 -331 184v836h-154v94h154v235h116v-235h318v-94h-318v-793q62 -129 252 -129zM516 1270v33l37 296h102v-69l-61 -260h-78z" />
    <glyph glyph-name="Tbar" unicode="&#x166;" horiz-adv-x="1075" 
d="M1024 1327h-424v-502h307v-88h-307v-737h-127v737h-305v88h305v502h-422v107h973v-107z" />
    <glyph glyph-name="tbar" unicode="&#x167;" horiz-adv-x="708" 
d="M569 82q66 0 107 8v-92q-72 -14 -144 -14q-246 0 -331 184v379h-154v94h154v363h-154v94h154v235h116v-235h318v-94h-318v-363h318v-94h-318v-336q62 -129 252 -129z" />
    <glyph glyph-name="Utilde" unicode="&#x168;" horiz-adv-x="1318" 
d="M1161 1434v-1149q-53 -127 -178 -219t-324 -92t-323 92t-176 219v1149h127v-1117q39 -99 136 -167t236 -68t237 68q97 68 138 167v1117h127zM520 1755q68 0 151 -56t124 -57q70 0 92 64v37h82v-72q-43 -115 -168 -115q-68 0 -150 58t-133 57q-51 0 -84 -63v-39h-82v71
q45 115 168 115z" />
    <glyph glyph-name="utilde" unicode="&#x169;" horiz-adv-x="1105" 
d="M840 1098h118v-1098h-112v98q-127 -123 -330 -123q-256 0 -377 203v920h117v-885q102 -137 289 -137t295 129v893zM328 1298h-82v72q45 115 168 115q68 -1 150 -57t124 -56q70 0 92 64v37h82v-70q-41 -117 -168 -117q-68 0 -150 56t-132 56q-51 0 -84 -59v-41z" />
    <glyph glyph-name="Umacron" unicode="&#x16a;" horiz-adv-x="1318" 
d="M1161 1434v-1149q-53 -127 -178 -219t-324 -92t-323 92t-176 219v1149h127v-1117q39 -99 136 -167t236 -68t237 68q97 68 138 167v1117h127zM963 1692v-93h-607v93h607z" />
    <glyph glyph-name="umacron" unicode="&#x16b;" horiz-adv-x="1105" 
d="M840 1098h118v-1098h-112v98q-127 -123 -330 -123q-256 0 -377 203v920h117v-885q102 -137 289 -137t295 129v893zM856 1448v-92h-606v92h606z" />
    <glyph glyph-name="Ubreve" unicode="&#x16c;" horiz-adv-x="1318" 
d="M1161 1434v-1149q-53 -127 -178 -219t-324 -92t-323 92t-176 219v1149h127v-1117q39 -99 136 -167t236 -68t237 68q97 68 138 167v1117h127zM926 1772v-101q-68 -141 -264 -141t-269 141v101h96v-72q13 -31 55 -61q42 -29 116 -29t115 30q42 30 54 60v72h97z" />
    <glyph glyph-name="ubreve" unicode="&#x16d;" horiz-adv-x="1105" 
d="M840 1098h118v-1098h-112v98q-127 -123 -330 -123q-256 0 -377 203v920h117v-885q102 -137 289 -137t295 129v893zM556 1249q-196 0 -269 142v100h96v-72q12 -31 54 -61t116 -29q74 0 116 30t54 60v72h96v-100q-67 -142 -263 -142z" />
    <glyph glyph-name="Uring" unicode="&#x16e;" horiz-adv-x="1318" 
d="M1161 1434v-1149q-53 -127 -178 -219t-324 -92t-323 92t-176 219v1149h127v-1117q39 -99 136 -167t236 -68t237 68q97 68 138 167v1117h127zM660 1708q-87 0 -121 -53v-123q39 -53 121 -53t122 53v123q-35 53 -122 53zM660 1780q69 0 124 -30t76 -71v-172
q-20 -41 -76 -71t-124 -29q-70 0 -124 30t-75 70v172q20 41 75 71t124 30z" />
    <glyph glyph-name="uring" unicode="&#x16f;" horiz-adv-x="1105" 
d="M840 1098h118v-1098h-112v98q-127 -123 -330 -123q-256 0 -377 203v920h117v-885q102 -137 289 -137t295 129v893zM552 1530q-83 0 -122 -53v-123q37 -56 122 -56t122 56v123q-39 53 -122 53zM552 1229q-69 -1 -124 29t-76 71v170q20 43 74 72t125 29q70 0 125 -30
q55 -28 76 -71v-170q-20 -41 -76 -71t-124 -29z" />
    <glyph glyph-name="Uhungarumlaut" unicode="&#x170;" horiz-adv-x="1318" 
d="M1161 1434v-1149q-53 -127 -178 -219t-324 -92t-323 92t-176 219v1149h127v-1117q39 -99 136 -167t236 -68t237 68q97 68 138 167v1117h127zM997 1847v-57l-125 -246h-75v33l106 270h94zM651 1847v-57l-123 -246h-77v33l106 270h94z" />
    <glyph glyph-name="uhungarumlaut" unicode="&#x171;" horiz-adv-x="1105" 
d="M840 1098h118v-1098h-112v98q-127 -123 -330 -123q-256 0 -377 203v920h117v-885q102 -137 289 -137t295 129v893zM678 1237v33l106 284h95v-57l-125 -260h-76zM332 1237v33l106 284h94v-57l-122 -260h-78z" />
    <glyph glyph-name="Uogonek" unicode="&#x172;" horiz-adv-x="1318" 
d="M1161 1434v-1149q-47 -111 -155 -200t-183 -182q-76 -93 -88 -122v-78q8 -19 39 -33t81 -14t101 25v-82q-57 -29 -128 -29q-70 0 -120 26t-69 66v133q41 86 156 193q-72 -14 -136 -15q-199 1 -323 93t-176 219v1149h127v-1117q39 -99 136 -167t236 -68t237 68
q97 68 138 167v1117h127z" />
    <glyph glyph-name="uogonek" unicode="&#x173;" horiz-adv-x="1105" 
d="M835 -344q73 0 123 25v-82q-56 -29 -126 -29t-121 26t-70 66v133q43 96 205 213v90q-127 -123 -330 -123q-256 0 -377 203v920h117v-885q102 -137 288 -137t298 129l-2 10v883h118v-1098q-96 -72 -153 -132t-70 -87v-78q27 -47 100 -47z" />
    <glyph glyph-name="Wcircumflex" unicode="&#x174;" horiz-adv-x="1808" 
d="M1731 1434v-88l-291 -1346h-185l-352 1262h-6l-350 -1262h-178l-291 1346v88h110l275 -1313h6l362 1313h146l362 -1313h7l276 1313h109zM1178 1544h-80l-195 236l-192 -236h-80v33l194 270h158l195 -270v-33z" />
    <glyph glyph-name="wcircumflex" unicode="&#x175;" horiz-adv-x="1566" 
d="M1485 1098v-82l-266 -1016h-152l-276 946h-7l-280 -946h-152l-266 1016v82h98l248 -977h6l285 977h133l283 -977h6l246 977h94zM1057 1241h-80l-195 252l-192 -252h-80v33l195 285h157l195 -285v-33z" />
    <glyph glyph-name="Ycircumflex" unicode="&#x176;" horiz-adv-x="1118" 
d="M1040 1434v-88l-419 -711v-635h-127v645l-416 701v88h88l393 -672h4l391 672h86zM831 1544h-79l-195 236l-192 -236h-80v33l194 270h158l194 -270v-33z" />
    <glyph glyph-name="ycircumflex" unicode="&#x177;" horiz-adv-x="1017" 
d="M946 1098v-80l-422 -1219q-102 -152 -331 -151q-74 0 -103 8v94q27 -4 76 -4q178 0 258 109l43 127l-377 1032v84h96l336 -961h6l326 961h92zM782 1241h-80l-194 252l-193 -252h-79v33l194 285h158l194 -285v-33z" />
    <glyph glyph-name="Ydieresis" unicode="&#x178;" horiz-adv-x="1118" 
d="M1040 1434v-88l-419 -711v-635h-127v645l-416 701v88h88l393 -672h4l391 672h86zM754 1751q57 0 75 -29v-100q-23 -29 -75 -29t-76 29v100q19 29 76 29zM362 1751q57 0 76 -29v-100q-23 -29 -76 -29t-75 29v100q18 29 75 29z" />
    <glyph glyph-name="Zacute" unicode="&#x179;" horiz-adv-x="1159" 
d="M1055 1434v-91l-799 -1237h799v-106h-953v90l801 1237h-782v107h934zM774 1847v-61l-166 -242h-84v33l144 270h106z" />
    <glyph glyph-name="zacute" unicode="&#x17a;" horiz-adv-x="948" 
d="M883 1098v-84l-678 -920h678v-94h-815v88l671 916h-653v94h797zM682 1561v-64l-166 -254h-86v31l145 287h107z" />
    <glyph glyph-name="Zdotaccent" unicode="&#x17b;" horiz-adv-x="1159" 
d="M1055 1434v-91l-799 -1237h799v-106h-953v90l801 1237h-782v107h934zM580 1767q59 0 75 -34v-88q-16 -33 -76 -33t-77 33v88q19 34 78 34z" />
    <glyph glyph-name="zdotaccent" unicode="&#x17c;" horiz-adv-x="948" 
d="M883 1098v-84l-678 -920h678v-94h-815v88l671 916h-653v94h797zM469 1464q59 0 78 -34v-87q-17 -35 -77 -35t-77 35v87q17 34 76 34z" />
    <glyph glyph-name="Zcaron" unicode="&#x17d;" horiz-adv-x="1159" 
d="M1055 1434v-91l-799 -1237h799v-106h-953v90l801 1237h-782v107h934zM852 1847v-32l-195 -271h-157l-195 271v32h80l193 -237l194 237h80z" />
    <glyph glyph-name="zcaron" unicode="&#x17e;" horiz-adv-x="948" 
d="M883 1098v-84l-678 -920h678v-94h-815v88l671 916h-653v94h797zM743 1559v-33l-194 -285h-158l-194 285v33h79l193 -250l195 250h79z" />
    <glyph glyph-name="longs" unicode="&#x17f;" horiz-adv-x="657" 
d="M479 1460q100 0 144 -14v-92q-41 8 -107 8q-188 0 -250 -129v-1233h-119v1276q86 184 332 184z" />
    <glyph glyph-name="florin" unicode="&#x192;" horiz-adv-x="899" 
d="M725 1360q-193 0 -246 -131v-176h336v-90h-336v-1153q-86 -184 -327 -185q-106 0 -148 17v82h111q190 0 245 131v1108h-170v90h170v221q86 184 328 184q104 0 150 -16v-82h-113z" />
    <glyph glyph-name="Scommaaccent" unicode="&#x218;" horiz-adv-x="1171" 
d="M583 -137q54 0 68 -25v-176q-6 -20 -29.5 -39.5t-60.5 -19.5h-41v51h31q23 0 33 16v64h-2q-53 0 -68 22v82q15 25 69 25zM580 -27q-195 0 -318 84t-174 185v80h107q37 -98 138 -170t240.5 -72t232.5 61.5t132 137.5v206q-27 59 -89.5 103.5t-193.5 79.5l-153 39
q-162 41 -240 91t-131 132v297q143 233 453 233q170 0 284.5 -69.5t169.5 -163.5v-80h-106q-41 94 -130 150.5t-220 56.5q-223 0 -326 -166v-213q29 -53 87 -89t181 -69l152 -39q182 -49 262 -107.5t123 -138.5v-290q-35 -63 -84 -116.5t-155.5 -103t-241.5 -49.5z" />
    <glyph glyph-name="scommaaccent" unicode="&#x219;" horiz-adv-x="972" 
d="M499 -137q54 0 68 -25v-176q-6 -20 -29.5 -39.5t-60.5 -19.5h-41v51h31q23 0 33 16v64h-2q-53 0 -68 22v82q15 25 69 25zM488.5 -27q-259.5 0 -394.5 193v67h99q35 -70 110.5 -114.5t181.5 -44.5q186 0 281 131v174q-49 80 -221 119l-135 32q-219 51 -295 168v258
q47 63 139 115.5t230 52.5t233.5 -52t140.5 -116v-67h-98q-29 57 -102.5 96t-172.5 39q-160 0 -258 -106v-175q51 -78 211 -114l131 -33q240 -57 310 -172v-258q-131 -193 -390.5 -193z" />
    <glyph glyph-name="uni021A" unicode="&#x21a;" horiz-adv-x="1075" 
d="M538 -137q54 0 68 -25v-176q-6 -20 -29.5 -39.5t-60.5 -19.5h-41v51h31q23 0 33 16v64h-2q-53 0 -68 22v82q15 25 69 25zM51 1434h973v-107h-424v-1327h-127v1327h-422v107z" />
    <glyph glyph-name="uni021B" unicode="&#x21b;" horiz-adv-x="708" 
d="M443 -137q54 0 69 -25v-176q-6 -20 -29.5 -39.5t-60.5 -19.5h-41v51h31q23 0 32 16v64h-2q-53 0 -67 22v82q14 25 68 25zM569 82q66 0 107 8v-92q-47 -14 -144 -14q-246 0 -331 184v836h-154v94h154v235h116v-235h318v-94h-318v-793q62 -129 252 -129z" />
    <glyph glyph-name="uni0237" unicode="&#x237;" horiz-adv-x="415" 
d="M266 1098v-1198q-43 -106 -151 -187q-109 -80 -277 -80v101q117 0 197 56t112 142v1166h119z" />
    <glyph glyph-name="circumflex" unicode="&#x2c6;" horiz-adv-x="849" 
d="M698 1241h-80l-194 252l-193 -252h-79v33l194 285h158l194 -285v-33z" />
    <glyph glyph-name="caron" unicode="&#x2c7;" horiz-adv-x="849" 
d="M698 1559v-33l-194 -285h-158l-194 285v33h79l193 -250l194 250h80z" />
    <glyph glyph-name="breve" unicode="&#x2d8;" horiz-adv-x="849" 
d="M690 1491v-100q-68 -141 -264 -141t-268 141v100h96v-72q12 -31 54 -61t116 -29q74 0 116 30t54 60v72h96z" />
    <glyph glyph-name="dotaccent" unicode="&#x2d9;" horiz-adv-x="849" 
d="M424 1464q59 0 78 -34v-87q-18 -35 -78 -35t-76 35v87q17 34 76 34z" />
    <glyph glyph-name="ring" unicode="&#x2da;" horiz-adv-x="849" 
d="M425 1530q-83 0 -122 -53v-123q37 -56 122 -56t122 56v123q-39 53 -122 53zM424 1599q70 -1 125 -29t76 -71v-170q-19 -41 -75 -71t-125 -30t-124 30t-76 71v170q21 43 75 71t124 29z" />
    <glyph glyph-name="ogonek" unicode="&#x2db;" horiz-adv-x="849" 
d="M528 -344q52 0 103 25v-82q-61 -29 -129 -29t-118 26q-52 26 -71 66v133q58 121 222 236l67 -31q-156 -127 -194 -219v-78q8 -19 38 -33t82 -14z" />
    <glyph glyph-name="tilde" unicode="&#x2dc;" horiz-adv-x="849" 
d="M285 1485q69 -1 151 -57t123 -56q70 0 92 64v37h82v-70q-41 -117 -168 -117q-67 0 -149 56t-133 56t-84 -59v-41h-82v72q45 115 168 115z" />
    <glyph glyph-name="hungarumlaut" unicode="&#x2dd;" horiz-adv-x="849" 
d="M700 1554v-57l-125 -260h-75v33l106 284h94zM354 1554v-57l-123 -260h-77v33l106 284h94z" />
    <glyph glyph-name="uni0326" unicode="&#x326;" horiz-adv-x="0" 
d="M-425 -137q54 0 69 -25v-176q-6 -20 -30 -39.5t-60 -19.5h-41v51h30q23 0 33 16v64h-2q-53 0 -68 22v82q15 25 69 25z" />
    <glyph glyph-name="uni037E" unicode="&#x37e;" horiz-adv-x="372" 
d="M172 147q41 0 64 -11t28 -23v-250q-8 -23 -37 -47t-65 -25h-41v62h33q20 0 32 20v107q-59 0 -75 34v99q20 34 61 34zM173 899q78 0 91 -35v-92q-14 -33 -74 -33t-79 33v92q20 35 62 35z" />
    <glyph glyph-name="tonos" unicode="&#x384;" horiz-adv-x="849" 
d="M551 1559v-64l-166 -258h-86v33l147 289h105z" />
    <glyph glyph-name="dieresistonos" unicode="&#x385;" horiz-adv-x="890" 
d="M778 1448q49 0 70 -27v-88q-20 -27 -70 -27t-65 27v88q16 27 65 27zM229 1448q47 0 68 -27v-88q-19 -27 -67 -27t-68 27v88q20 27 67 27zM621 1559v-64l-132 -207h-73v33l112 238h93z" />
    <glyph glyph-name="Alphatonos" unicode="&#x386;" horiz-adv-x="1226" 
d="M346 549h524l-258 774h-6zM1159 0h-104l-148 442h-596l-147 -442h-96v88l456 1346h176l459 -1346v-88zM-12 1112v33l147 289h105v-64l-166 -258h-86z" />
    <glyph glyph-name="anoteleia" unicode="&#x387;" horiz-adv-x="335" 
d="M170 629q-62 0 -80 35v90q16 34 78 34t76 -34v-90q-12 -35 -74 -35z" />
    <glyph glyph-name="Epsilontonos" unicode="&#x388;" horiz-adv-x="1110" 
d="M987 1434v-107h-692v-534h645v-105h-645v-582h711v-106h-838v1434h819zM2 1434v-64l-166 -258h-86v33l148 289h104z" />
    <glyph glyph-name="Etatonos" unicode="&#x389;" horiz-adv-x="1312" 
d="M1145 1434v-1434h-127v686h-723v-686h-127v1434h127v-641h723v641h127zM2 1434v-64l-166 -258h-86v33l148 289h104z" />
    <glyph glyph-name="Iotatonos" unicode="&#x38a;" horiz-adv-x="462" 
d="M295 1434v-1434h-127v1434h127zM2 1434v-64l-166 -258h-86v33l148 289h104z" />
    <glyph glyph-name="Omicrontonos" unicode="&#x38c;" horiz-adv-x="1282" 
d="M641 1356q-139 0 -237 -68t-138 -168v-805q41 -100 138 -168q96 -67 236 -67t238 67q97 68 138 168v805q-41 100 -138 168q-98 68 -237 68zM41 1434v-64l-166 -258h-86v33l148 289h104zM641 1460q197 0 323 -92t179 -217v-866q-53 -127 -178 -219t-324 -92t-324 92
t-178 219v866q53 125 179 217t323 92z" />
    <glyph glyph-name="Upsilontonos" unicode="&#x38e;" horiz-adv-x="1118" 
d="M1040 1434v-88l-419 -711v-635h-127v645l-416 701v88h88l393 -672h4l391 672h86zM-20 1434v-64l-166 -258h-86v33l147 289h105z" />
    <glyph glyph-name="Omegatonos" unicode="&#x38f;" horiz-adv-x="1286" 
d="M41 1434v-64l-166 -258h-86v33l148 289h104zM1143 106v-106h-416v156q111 18 183 85t106 148v729q-39 98 -136 167q-96 69 -236 69t-237 -68t-139 -168v-729q33 -81 107 -147t184 -86v-156h-418v106h291q-106 37 -181 111t-110 160v774q53 125 179 217t324 92
q196 0 320 -92t179 -217v-774q-78 -195 -293 -271h293z" />
    <glyph glyph-name="iotadieresistonos" unicode="&#x390;" horiz-adv-x="432" 
d="M274 1098v-1098h-116v1098h116zM526 1448q49 0 70 -27v-88q-20 -27 -70 -27t-65 27v88q16 27 65 27zM-23 1448q47 0 68 -27v-88q-19 -27 -67 -27t-68 27v88q20 27 67 27zM369 1559v-64l-131 -207h-74v33l112 238h93z" />
    <glyph glyph-name="Alpha" unicode="&#x391;" horiz-adv-x="1226" 
d="M346 549h524l-258 774h-6zM1159 0h-104l-148 442h-596l-147 -442h-96v88l456 1346h176l459 -1346v-88z" />
    <glyph glyph-name="Beta" unicode="&#x392;" horiz-adv-x="1189" 
d="M666 688h-371v-582h350q222 1 320 177v241q-41 72 -125 118t-174 46zM295 1327v-534h358q78 0 156 45t125 116v199q-43 80 -123 127t-178 47h-338zM672 0h-504v1434h491q131 0 233 -67t161 -173v-266q-66 -117 -205 -180q68 -25 136 -76t101 -113v-317
q-141 -242 -413 -242z" />
    <glyph glyph-name="Gamma" unicode="&#x393;" horiz-adv-x="933" 
d="M883 1434v-107h-588v-1327h-127v1434h715z" />
    <glyph glyph-name="uni0394" unicode="&#x394;" horiz-adv-x="1226" 
d="M199 106h821l-408 1217h-6zM1159 0h-1091v88l456 1346h176l459 -1346v-88z" />
    <glyph glyph-name="Epsilon" unicode="&#x395;" horiz-adv-x="1110" 
d="M987 1434v-107h-692v-534h645v-105h-645v-582h711v-106h-838v1434h819z" />
    <glyph glyph-name="Zeta" unicode="&#x396;" horiz-adv-x="1159" 
d="M1055 1434v-91l-799 -1237h799v-106h-953v90l801 1237h-782v107h934z" />
    <glyph glyph-name="Eta" unicode="&#x397;" horiz-adv-x="1312" 
d="M1145 1434v-1434h-127v686h-723v-686h-127v1434h127v-641h723v641h127z" />
    <glyph glyph-name="Theta" unicode="&#x398;" horiz-adv-x="1282" 
d="M401 784h480v-92h-480v92zM641 1356q-139 0 -237 -68t-138 -168v-805q41 -100 138 -168q96 -67 236 -67t238 67q97 68 138 168v805q-41 100 -138 168q-98 68 -237 68zM641 1460q197 0 323 -92t179 -217v-866q-53 -127 -178 -219t-324 -92t-324 92t-178 219v866
q53 125 179 217t323 92z" />
    <glyph glyph-name="Iota" unicode="&#x399;" horiz-adv-x="462" 
d="M295 1434v-1434h-127v1434h127z" />
    <glyph glyph-name="Kappa" unicode="&#x39a;" horiz-adv-x="1185" 
d="M1118 0h-88l-526 764l-209 -217v-547h-127v1434h127v-729l692 729h72v-88l-471 -494l530 -764v-88z" />
    <glyph glyph-name="Lambda" unicode="&#x39b;" horiz-adv-x="1224" 
d="M1157 0h-110l-437 1307h-6l-434 -1307h-102v88l454 1346h178l457 -1346v-88z" />
    <glyph glyph-name="Mu" unicode="&#x39c;" horiz-adv-x="1617" 
d="M1450 1434v-1434h-121v1298h-6l-459 -919h-112l-457 919h-6v-1298h-121v1434h190l449 -902h6l449 902h188z" />
    <glyph glyph-name="Nu" unicode="&#x39d;" horiz-adv-x="1345" 
d="M1178 1434v-1434h-174l-709 1278h-6v-1278h-121v1434h174l709 -1278h6v1278h121z" />
    <glyph glyph-name="Xi" unicode="&#x39e;" horiz-adv-x="1163" 
d="M1038 1434v-107h-393v-536h324v-107h-324v-578h404v-106h-936v106h405v578h-323v107h323v536h-395v107h915z" />
    <glyph glyph-name="Omicron" unicode="&#x39f;" horiz-adv-x="1282" 
d="M641 1356q-139 0 -237 -68t-138 -168v-805q41 -100 138 -168q96 -67 236 -67t238 67q97 68 138 168v805q-41 100 -138 168q-98 68 -237 68zM641 1460q197 0 323 -92t179 -217v-866q-53 -127 -178 -219t-324 -92t-324 92t-178 219v866q53 125 179 217t323 92z" />
    <glyph glyph-name="Pi" unicode="&#x3a0;" horiz-adv-x="1302" 
d="M1135 1434v-1434h-127v1327h-713v-1327h-127v1434h967z" />
    <glyph glyph-name="Rho" unicode="&#x3a1;" horiz-adv-x="1148" 
d="M621 1327h-326v-641h326q96 0 177 46t126 130v289q-49 90 -131 133t-172 43zM647 1434q125 0 233 -65t167 -175v-375q-59 -106 -163 -173t-237 -66h-352v-580h-127v1434h479z" />
    <glyph glyph-name="Sigma" unicode="&#x3a3;" horiz-adv-x="1159" 
d="M1036 1434v-107h-764l422 -588l-440 -633h801v-106h-953v92l447 645l-426 596v101h913z" />
    <glyph glyph-name="Tau" unicode="&#x3a4;" horiz-adv-x="1075" 
d="M1024 1434v-107h-424v-1327h-127v1327h-422v107h973z" />
    <glyph glyph-name="Upsilon" unicode="&#x3a5;" horiz-adv-x="1118" 
d="M1040 1434v-88l-419 -711v-635h-127v645l-416 701v88h88l393 -672h4l391 672h86z" />
    <glyph glyph-name="Phi" unicode="&#x3a6;" horiz-adv-x="1497" 
d="M854 1239h-47v-1032h47q112 1 224 63t159 150v606q-47 88 -160 150t-223 63zM643 207h47v1032h-47q-111 0 -223 -62t-160 -151v-606q48 -88 160 -150t223 -63zM864 1343q154 1 293 -83t201 -203v-668q-60 -119 -200 -203t-294 -84h-57v-143h-117v143h-55q-154 0 -294 84
t-202 203v668q61 119 201 203t295 83h55v132h117v-132h57z" />
    <glyph glyph-name="Chi" unicode="&#x3a7;" horiz-adv-x="1177" 
d="M1067 1434v-88l-387 -615l399 -643v-88h-94l-395 651h-6l-398 -651h-88v88l400 641l-385 617v88h94l383 -627h6l383 627h88z" />
    <glyph glyph-name="Psi" unicode="&#x3a8;" horiz-adv-x="1452" 
d="M1188 1434h121v-867q-55 -109 -174 -189t-306 -81h-45v-297h-118v297h-43q-184 0 -304 80q-119 80 -178 190v867h123v-832q39 -76 133 -137t230 -62h39v1031h118v-1031h39q135 -1 231 61t134 138v832z" />
    <glyph glyph-name="uni03A9" unicode="&#x3a9;" horiz-adv-x="1286" 
d="M1143 106v-106h-416v156q111 18 183 85t106 148v729q-39 98 -136 167q-96 69 -236 69t-237 -68t-139 -168v-729q33 -81 107 -147t184 -86v-156h-418v106h291q-106 37 -181 111t-110 160v774q53 125 179 217t324 92q196 0 320 -92t179 -217v-774q-78 -195 -293 -271h293z
" />
    <glyph glyph-name="Iotadieresis" unicode="&#x3aa;" horiz-adv-x="462" 
d="M295 1434v-1434h-127v1434h127zM426 1751q57 0 76 -29v-100q-23 -29 -76 -29t-76 29v100q19 29 76 29zM35 1751q57 0 76 -29v-100q-23 -29 -76 -29t-76 29v100q19 29 76 29z" />
    <glyph glyph-name="Upsilondieresis" unicode="&#x3ab;" horiz-adv-x="1118" 
d="M1040 1434v-88l-419 -711v-635h-127v645l-416 701v88h88l393 -672h4l391 672h86zM754 1751q57 0 75 -29v-100q-23 -29 -75 -29t-76 29v100q19 29 76 29zM362 1751q57 0 76 -29v-100q-23 -29 -76 -29t-75 29v100q18 29 75 29z" />
    <glyph glyph-name="alphatonos" unicode="&#x3ac;" horiz-adv-x="1105" 
d="M528 76q207 0 312 135v678q-102 133 -312 133q-114 0 -184 -45t-102 -100v-656q33 -55 103 -100t183 -45zM842 1098h116v-1098h-116v102q-123 -127 -336 -127q-266 0 -383 215v717q117 215 383 215q213 0 336 -127v103zM502 1237v33l147 289h105v-64l-166 -258h-86z" />
    <glyph glyph-name="epsilontonos" unicode="&#x3ad;" horiz-adv-x="1056" 
d="M971 229v-63q-153 -193 -431 -193t-427 195v213q78 147 225 190q-131 39 -211 172v172q51 81 153 145t264 64q163 0 269 -66t154 -143v-57h-103q-33 68 -116 117q-84 49 -203 49q-199 0 -301 -145v-115q90 -147 276 -148h139v-94h-139q-96 0 -174 -44t-115 -120v-149
q121 -135 314 -135q115 0 203 49t124 106h99zM494 1237v33l147 289h104v-64l-165 -258h-86z" />
    <glyph glyph-name="etatonos" unicode="&#x3ae;" horiz-adv-x="1124" 
d="M600 1122q268 0 385 -215v-1247h-119v1217q-32 55 -104 100t-182 45q-209 0 -314 -135v-887h-116v1098h112v-103q127 127 338 127zM512 1237v33l147 289h103v-64l-164 -258h-86z" />
    <glyph glyph-name="iotatonos" unicode="&#x3af;" horiz-adv-x="432" 
d="M274 1098v-1098h-116v1098h116zM422 1559v-64l-166 -258h-86v33l147 289h105z" />
    <glyph glyph-name="upsilondieresistonos" unicode="&#x3b0;" horiz-adv-x="1099" 
d="M958 1098v-903q-41 -80 -142 -151t-266 -71t-267 72t-144 150v903h117v-869q30 -53 104 -102t189 -49t189 49t104 102v869h116zM830 1448q48 0 69 -27v-88q-21 -27 -69 -27t-68 27v88q20 27 68 27zM278 1448q50 0 70 -27v-88q-20 -27 -69 -27t-66 27v88q15 27 65 27z
M672 1559v-64l-131 -207h-74v33l113 238h92z" />
    <glyph glyph-name="alpha" unicode="&#x3b1;" horiz-adv-x="1105" 
d="M528 76q207 0 312 135v678q-102 133 -312 133q-114 0 -184 -45t-102 -100v-656q33 -55 103 -100t183 -45zM842 1098h116v-1098h-116v102q-123 -127 -336 -127q-266 0 -383 215v717q117 215 383 215q213 0 336 -127v103z" />
    <glyph glyph-name="beta" unicode="&#x3b2;" horiz-adv-x="1124" 
d="M584 737h-76v92h57q88 0 161 38t112 100v245q-96 147 -281 148q-100 0 -175 -47t-116 -119v-948q37 -68 121 -118t198 -50q113 0 195 56t115 138v271q-41 98 -127 146t-184 48zM600 -25q-215 0 -334 138v-453h-116v1571q55 96 158 163q104 66 246 66t242 -59t158 -146
v-315q-69 -104 -198 -149q98 -31 164 -93t92 -131v-327q-40 -104 -144 -184t-268 -81z" />
    <glyph glyph-name="gamma" unicode="&#x3b3;" horiz-adv-x="1026" 
d="M950 1098v-82l-379 -1014v-342h-116v340l-379 1016v82h98l338 -938h6l338 938h94z" />
    <glyph glyph-name="delta" unicode="&#x3b4;" 
d="M554 901q-118 0 -200 -56t-114 -138v-435q32 -84 114 -140t200 -56t200 56q81 56 114 140v435q-33 82 -114 138q-82 56 -200 56zM555 -27q-170 0 -280 81t-152 186v483q74 182 278 229q-133 47 -194 146v211q141 151 358 151t363 -151v-58h-101q-96 113 -251 113
t-259 -96v-144q74 -100 205 -118l111 -19q137 -20 227 -94t125 -164v-489q-43 -106 -151 -187q-109 -80 -279 -80z" />
    <glyph glyph-name="epsilon" unicode="&#x3b5;" horiz-adv-x="1056" 
d="M971 229v-63q-153 -193 -431 -193t-427 195v213q78 147 225 190q-131 39 -211 172v172q51 81 153 145t264 64q163 0 269 -66t154 -143v-57h-103q-33 68 -116 117q-84 49 -203 49q-199 0 -301 -145v-115q90 -147 276 -148h139v-94h-139q-96 0 -174 -44t-115 -120v-149
q121 -135 314 -135q115 0 203 49t124 106h99z" />
    <glyph glyph-name="zeta" unicode="&#x3b6;" horiz-adv-x="974" 
d="M879 98v-354h-107v256h-254q-152 0 -252 60t-153 139v344q47 123 143 225l512 567h-614v99h759v-95l-561 -626q-88 -98 -121 -197v-278q123 -139 314 -140h334z" />
    <glyph glyph-name="eta" unicode="&#x3b7;" horiz-adv-x="1124" 
d="M600 1122q268 0 385 -215v-1247h-119v1217q-32 55 -104 100t-182 45q-209 0 -314 -135v-887h-116v1098h112v-103q127 127 338 127z" />
    <glyph glyph-name="theta" unicode="&#x3b8;" horiz-adv-x="1114" 
d="M556 80q114 0 192 50t110 114v479h-602v-479q34 -60 110 -112t190 -52zM556 1356q-114 0 -190 -51t-110 -113v-377h602v377q-33 63 -110 114q-78 50 -192 50zM556 1460q163 0 266 -70t153 -159v-1026q-49 -88 -153 -160t-267 -72q-164 0 -265 72t-151 160v1026
q49 89 151 159t266 70z" />
    <glyph glyph-name="iota" unicode="&#x3b9;" horiz-adv-x="432" 
d="M274 1098v-1098h-116v1098h116z" />
    <glyph glyph-name="kappa" unicode="&#x3ba;" horiz-adv-x="1021" 
d="M981 0h-82l-432 569l-201 -196v-373h-116v1098h116v-584l586 584h72v-82l-375 -367l432 -569v-80z" />
    <glyph glyph-name="lambda" unicode="&#x3bb;" horiz-adv-x="1019" 
d="M950 0h-96l-330 938l-336 -938h-96v84l375 999l-76 211q-78 74 -201 74q-47 0 -75 -4v94q41 10 98 10q183 1 281 -116l456 -1272v-80z" />
    <glyph glyph-name="uni03BC" unicode="&#x3bc;" horiz-adv-x="1114" 
d="M848 1098h119v-1098h-113v100q-121 -125 -317 -125q-158 0 -271 101v-416h-116v1438h116v-885q39 -51 112 -94t165 -43q195 0 305 127v895z" />
    <glyph glyph-name="nu" unicode="&#x3bd;" horiz-adv-x="1028" 
d="M952 1098v-82l-360 -1016h-156l-358 1016v82h98l338 -981h6l338 981h94z" />
    <glyph glyph-name="xi" unicode="&#x3be;" horiz-adv-x="978" 
d="M530 1460q240 0 390 -184v-72h-101q-89 154 -279 154t-288 -146v-247q94 -152 272 -152h168v-92h-149q-99 0 -185 -48t-127 -149v-286q123 -139 314 -140h334v-354h-107v256h-254q-152 0 -252 60t-153 139v352q29 68 97 130q69 62 163 89q-154 41 -240 178v299
q59 89 159 151t238 62z" />
    <glyph glyph-name="omicron" unicode="&#x3bf;" 
d="M554 1024q-118 0 -200 -56t-114 -139v-561q32 -82 114 -138t200 -56t200 56t114 138v561q-33 82 -114 139q-82 56 -200 56zM555 1124q170 0 279 -80t151 -186v-618q-43 -106 -151 -187q-109 -80 -279 -80t-280 81t-152 186v618q43 104 152 185q110 81 280 81z" />
    <glyph glyph-name="pi" unicode="&#x3c0;" horiz-adv-x="1247" 
d="M1188 1098v-94h-158v-1004h-117v1004h-581v-1004h-117v1004h-156v94h1129z" />
    <glyph glyph-name="rho" unicode="&#x3c1;" horiz-adv-x="1087" 
d="M549 1022q-209 0 -301 -166v-643q110 -137 310 -137t292 147v631q-92 168 -301 168zM548 1124q167 0 271 -74t148 -165v-695q-41 -78 -135 -146t-248 -69q-207 0 -336 125v-440h-117v1225q45 91 147 165t270 74z" />
    <glyph glyph-name="uni03C2" unicode="&#x3c2;" horiz-adv-x="1011" 
d="M538 1124q154 0 248 -53t140 -117v-63h-101q-29 53 -103 92t-180 39t-187 -56t-115 -141v-528q36 -84 116 -141t197 -58h301v-354h-106v256h-203q-168 0 -274 80q-105 80 -148 186v592q43 106 151 186q110 80 264 80z" />
    <glyph glyph-name="sigma" unicode="&#x3c3;" horiz-adv-x="1140" 
d="M555 1004q-117 0 -198 -58t-117 -145v-529q36 -84 116 -140t198 -56t200 56t114 140v529q-61 152 -184 203h-129zM1081 1098v-94h-247q113 -72 151 -189v-575q-43 -106 -151 -187q-109 -80 -279 -80t-280 81t-152 186v589q43 106 152 188q110 81 280 81h526z" />
    <glyph glyph-name="tau" unicode="&#x3c4;" horiz-adv-x="917" 
d="M762 84q68 0 108 8v-94q-47 -14 -145 -14q-244 0 -330 184v836h-348v94h819v-94h-354v-791q62 -129 250 -129z" />
    <glyph glyph-name="upsilon" unicode="&#x3c5;" horiz-adv-x="1099" 
d="M958 1098v-903q-41 -80 -142 -151t-266 -71t-267 72t-144 150v903h117v-869q30 -53 104 -102t189 -49t189 49t104 102v869h116z" />
    <glyph glyph-name="phi" unicode="&#x3c6;" horiz-adv-x="1474" 
d="M997 1026q-74 0 -131 -40t-71 -89v-799h47q280 0 393 195v610q-80 123 -238 123zM999 1124q236 0 353 -184v-676q-54 -108 -182 -186t-316 -78h-59v-340h-115v340h-57q-190 0 -319 78q-128 78 -181 186v567q29 80 92 162t143 117h74v-88q-66 -25 -116 -87t-76 -130v-512
q113 -195 393 -195h47v834q24 66 110 129t209 63z" />
    <glyph glyph-name="chi" unicode="&#x3c7;" horiz-adv-x="1015" 
d="M66 1106q145 0 235 -100l221 -510h6l295 602h99v-82l-326 -623l268 -575q63 -68 162 -68v-92q-12 -2 -33 -2q-152 0 -237 104l-236 537h-6l-313 -637h-97v82l342 655l-253 547q-63 68 -164 68v90q21 4 37 4z" />
    <glyph glyph-name="psi" unicode="&#x3c8;" horiz-adv-x="1509" 
d="M1251 1098h119v-811q-43 -111 -170 -199t-330 -88h-57v-340h-115v340h-59q-205 0 -332 88t-168 199v811h117v-783q37 -89 137 -153t256 -64h49v1239h115v-1239h47q156 0 256 65t135 152v783z" />
    <glyph glyph-name="omega" unicode="&#x3c9;" horiz-adv-x="1472" 
d="M432 1110v-88q-66 -25 -116 -87t-76 -130v-574q14 -33 36 -63t75 -63q52 -31 122 -31t129 39t76 88v522h115v-520q14 -49 74 -89q59 -40 145 -40t141 50t80 107v574q-27 66 -78 129t-115 88v88h74q80 -35 143 -117t93 -162v-630q-18 -43 -52 -88t-110 -91
q-78 -46 -172 -47q-188 0 -281 142q-88 -141 -278 -142q-96 1 -173 47t-111 91t-50 88v630q29 80 92 162t143 117h74z" />
    <glyph glyph-name="iotadieresis" unicode="&#x3ca;" horiz-adv-x="432" 
d="M274 1098v-1098h-116v1098h116zM410 1462q53 0 75 -28v-103q-23 -29 -75 -29t-76 29v103q23 28 76 28zM18 1462q53 0 76 -28v-103q-23 -29 -76 -29t-75 29v103q22 28 75 28z" />
    <glyph glyph-name="upsilondieresis" unicode="&#x3cb;" horiz-adv-x="1099" 
d="M958 1098v-903q-41 -80 -142 -151t-266 -71t-267 72t-144 150v903h117v-869q30 -53 104 -102t189 -49t189 49t104 102v869h116zM743 1462q53 0 76 -28v-103q-23 -29 -76 -29t-75 29v103q22 28 75 28zM352 1462q53 0 76 -28v-103q-23 -29 -76 -29t-76 29v103q23 28 76 28z
" />
    <glyph glyph-name="omicrontonos" unicode="&#x3cc;" 
d="M554 1024q-118 0 -200 -56t-114 -139v-561q32 -82 114 -138t200 -56t200 56t114 138v561q-33 82 -114 139q-82 56 -200 56zM555 1124q170 0 279 -80t151 -186v-618q-43 -106 -151 -187q-109 -80 -279 -80t-280 81t-152 186v618q43 104 152 185q110 81 280 81zM758 1559
v-64l-166 -258h-86v33l147 289h105z" />
    <glyph glyph-name="upsilontonos" unicode="&#x3cd;" horiz-adv-x="1099" 
d="M958 1098v-903q-41 -80 -142 -151t-266 -71t-267 72t-144 150v903h117v-869q30 -53 104 -102t189 -49t189 49t104 102v869h116zM754 1559v-64l-166 -258h-86v33l147 289h105z" />
    <glyph glyph-name="omegatonos" unicode="&#x3ce;" horiz-adv-x="1472" 
d="M432 1110v-88q-66 -25 -116 -87t-76 -130v-574q14 -33 36 -63t75 -63q52 -31 122 -31t129 39t76 88v522h115v-520q14 -49 74 -89q59 -40 145 -40t141 50t80 107v574q-27 66 -78 129t-115 88v88h74q80 -35 143 -117t93 -162v-630q-18 -43 -52 -88t-110 -91
q-78 -46 -172 -47q-188 0 -281 142q-88 -141 -278 -142q-96 1 -173 47t-111 91t-50 88v630q29 80 92 162t143 117h74zM690 1237v33l148 289h104v-64l-166 -258h-86z" />
    <glyph glyph-name="uni0401" unicode="&#x401;" horiz-adv-x="1110" 
d="M987 1434v-107h-692v-534h645v-105h-645v-582h711v-106h-838v1434h819zM764 1751q57 0 76 -29v-100q-23 -29 -76 -29t-76 29v100q19 29 76 29zM372.5 1751q57.5 0 76.5 -29v-100q-23 -29 -76.5 -29t-75.5 29v100q18 29 75.5 29z" />
    <glyph glyph-name="uni0402" unicode="&#x402;" horiz-adv-x="1421" 
d="M881 905q171 0 283 -63t161 -140v-503q-49 -77 -162 -139t-282 -62h-35v104q135 0 226 45t126 95v415q-35 51 -120 97t-208 45q-123 0 -218 -39t-146 -96v-664h-127v1327h-328v107h875v-107h-420v-545q150 123 375 123z" />
    <glyph glyph-name="uni0403" unicode="&#x403;" horiz-adv-x="997" 
d="M946 1434v-107h-651v-1327h-127v1434h778zM694 1847v-61l-166 -242h-84v33l144 270h106z" />
    <glyph glyph-name="uni0404" unicode="&#x404;" horiz-adv-x="1261" 
d="M646 1356q-144 0 -242 -68t-138 -168v-327h541v-107h-541v-371q41 -100 138 -168q97 -67 242 -67t246 77t142 199h105v-77q-55 -123 -178 -214t-321 -91t-323 92t-178 219v866q53 125 179 217t323 92t320 -90t178 -213v-78h-105q-41 121 -142 199q-102 78 -246 78z" />
    <glyph glyph-name="uni0405" unicode="&#x405;" horiz-adv-x="1171" 
d="M584 1460q170 0 284.5 -69.5t169.5 -163.5v-80h-106q-41 94 -130 150.5t-220 56.5q-223 0 -326 -166v-213q29 -53 87 -89t181 -69l152 -39q182 -49 262 -107.5t123 -138.5v-290q-35 -63 -84 -116.5t-155.5 -103t-241.5 -49.5q-195 0 -318 84t-174 185v80h107
q37 -98 138 -170t241 -72t232.5 61.5t131.5 137.5v206q-27 59 -89.5 103.5t-193.5 79.5l-153 39q-162 41 -240 91t-131 132v297q144 233 453 233z" />
    <glyph glyph-name="uni0406" unicode="&#x406;" horiz-adv-x="462" 
d="M295 1434v-1434h-127v1434h127z" />
    <glyph glyph-name="uni0407" unicode="&#x407;" horiz-adv-x="462" 
d="M295 1434v-1434h-127v1434h127zM401 1729q49 0 72 -29v-86q-23 -29 -72 -29t-77 29v86q28 29 77 29zM67 1729q52 0 74 -29v-86q-23 -29 -75 -29t-74 29v86q23 29 75 29z" />
    <glyph glyph-name="uni0408" unicode="&#x408;" horiz-adv-x="790" 
d="M41 104h90q135 0 235 58t140 157v1115h127v-1149q-57 -129 -181 -208t-315 -79l-96 2v104z" />
    <glyph glyph-name="uni0409" unicode="&#x409;" horiz-adv-x="2019" 
d="M1133 748v-642h344q217 1 319 179v299q-43 72 -126 118t-173 46h-364zM1509 854q121 0 236 -66t170 -161v-385q-55 -100 -157 -171t-255 -71h-497v1327h-504l-129 -1169q-94 -164 -332 -164v106q80 0 137 35t78 82l137 1217h740v-580h376z" />
    <glyph glyph-name="uni040A" unicode="&#x40a;" horiz-adv-x="1990" 
d="M1104 748v-642h344q221 1 319 179v299q-41 72 -125 118t-174 46h-364zM1483 854q121 0 235 -66t168 -161v-385q-135 -242 -411 -242h-498v750h-682v-750h-127v1434h127v-580h682v580h127v-580h379z" />
    <glyph glyph-name="uni040B" unicode="&#x40b;" horiz-adv-x="1363" 
d="M926 1434v-107h-420v-479h348q121 0 236 -66t170 -161v-621h-119v578q-43 72 -126 118t-173 45h-336v-741h-127v1327h-328v107h875z" />
    <glyph glyph-name="uni040C" unicode="&#x40c;" horiz-adv-x="1144" 
d="M1059 1434v-88l-432 -590l450 -668v-88h-92l-465 698h-229v-698h-127v1434h127v-629h229l453 629h86zM768 1847v-61l-166 -242h-84v33l144 270h106z" />
    <glyph glyph-name="uni040E" unicode="&#x40e;" horiz-adv-x="1122" 
d="M80 1434h94l412 -947l366 947h95v-88l-486 -1221q-94 -133 -299 -133q-16 0 -84 6v102l15 -2l61 -2q145 0 207 86l61 160l-442 1004v88zM576 1530q-196 0 -269 141v101h96v-72q13 -31 55 -61q42 -29 116 -29t116 30q41 30 53 60v72h97v-101q-68 -141 -264 -141z" />
    <glyph glyph-name="uni040F" unicode="&#x40f;" horiz-adv-x="1302" 
d="M1137 1434v-1434h-428v-274h-115v274h-426v1434h127v-1328h715v1328h127z" />
    <glyph glyph-name="uni0410" unicode="&#x410;" horiz-adv-x="1226" 
d="M346 549h524l-258 774h-6zM1159 0h-104l-148 442h-596l-147 -442h-96v88l456 1346h176l459 -1346v-88z" />
    <glyph glyph-name="uni0411" unicode="&#x411;" horiz-adv-x="1173" 
d="M659 745h-364v-639h344q221 1 319 179v295q-44 72 -126 118t-173 47zM674 850q122 0 236 -65t169 -162v-381q-55 -100 -157 -171t-254 -71h-500v1434h885v-107h-758v-477h379z" />
    <glyph glyph-name="uni0412" unicode="&#x412;" horiz-adv-x="1189" 
d="M666 688h-371v-582h350q222 1 320 177v241q-41 72 -125 118t-174 46zM295 1327v-534h358q78 0 156 45t125 116v199q-43 80 -123 127t-178 47h-338zM672 0h-504v1434h491q131 0 233 -67t161 -173v-266q-66 -117 -205 -180q68 -25 136 -76t101 -113v-317
q-141 -242 -413 -242z" />
    <glyph glyph-name="uni0413" unicode="&#x413;" horiz-adv-x="997" 
d="M946 1434v-107h-651v-1327h-127v1434h778z" />
    <glyph glyph-name="uni0414" unicode="&#x414;" horiz-adv-x="1376" 
d="M1014 106v1221h-504l-119 -1085q-34 -85 -145 -136h768zM1141 106h168v-389h-115v283h-1022v-283h-115v389q71 20 135 68t80 96l131 1164h738v-1328z" />
    <glyph glyph-name="uni0415" unicode="&#x415;" horiz-adv-x="1110" 
d="M987 1434v-107h-692v-534h645v-105h-645v-582h711v-106h-838v1434h819z" />
    <glyph glyph-name="uni0416" unicode="&#x416;" horiz-adv-x="1720" 
d="M1632 1434v-88l-366 -588l385 -670v-88h-92l-398 698h-239v-698h-123v698h-242l-395 -698h-94v88l385 672l-365 586v88h84l385 -629h242v629h123v-629h239l387 629h84z" />
    <glyph glyph-name="uni0417" unicode="&#x417;" horiz-adv-x="1220" 
d="M602 -27q-266 0 -424 185q-35 41 -57 84v77h104q35 -96 134.5 -167.5t237.5 -71.5t230.5 60.5t130.5 138.5v208q-39 78 -132 141.5t-226 57.5h-141v107h141q133 -6 226.5 56t131.5 140v168q-41 76 -132 137.5t-230 61.5t-237.5 -73t-133.5 -169h-104v80q55 100 172 183
t309.5 83t308 -82t170.5 -184v-229q-86 -162 -254 -226q168 -63 254 -225v-272q-55 -104 -170.5 -186.5t-308.5 -82.5z" />
    <glyph glyph-name="uni0418" unicode="&#x418;" horiz-adv-x="1345" 
d="M1178 1434v-1434h-121v1266h-6l-729 -1266h-154v1434h121v-1266h6l727 1266h156z" />
    <glyph glyph-name="uni0419" unicode="&#x419;" horiz-adv-x="1345" 
d="M1178 1434v-1434h-121v1266h-6l-729 -1266h-154v1434h121v-1266h6l727 1266h156zM938 1772v-101q-68 -141 -264 -141t-268 141v101h96v-72q12 -31 54 -61q42 -29 116 -29t116 30t54 60v72h96z" />
    <glyph glyph-name="uni041A" unicode="&#x41a;" horiz-adv-x="1144" 
d="M1059 1434v-88l-432 -590l450 -668v-88h-92l-465 698h-229v-698h-127v1434h127v-629h229l453 629h86z" />
    <glyph glyph-name="uni041B" unicode="&#x41b;" horiz-adv-x="1300" 
d="M1133 1434v-1434h-127v1327h-504l-129 -1169q-94 -164 -332 -164v106q80 0 137 35t78 82l137 1217h740z" />
    <glyph glyph-name="uni041C" unicode="&#x41c;" horiz-adv-x="1538" 
d="M1372 1434v-1434h-123v1274h-6l-418 -864h-112l-418 864h-6v-1274h-121v1434h178l422 -873h6l420 873h178z" />
    <glyph glyph-name="uni041D" unicode="&#x41d;" horiz-adv-x="1312" 
d="M1145 1434v-1434h-127v686h-723v-686h-127v1434h127v-641h723v641h127z" />
    <glyph glyph-name="uni041E" unicode="&#x41e;" horiz-adv-x="1282" 
d="M641 1356q-139 0 -237 -68t-138 -168v-805q41 -100 138 -168q96 -67 236 -67t238 67q97 68 138 168v805q-41 100 -138 168q-98 68 -237 68zM641 1460q197 0 323 -92t179 -217v-866q-53 -127 -178 -219t-324 -92t-324 92t-178 219v866q53 125 179 217t323 92z" />
    <glyph glyph-name="uni041F" unicode="&#x41f;" horiz-adv-x="1302" 
d="M1135 1434v-1434h-127v1327h-713v-1327h-127v1434h967z" />
    <glyph glyph-name="uni0420" unicode="&#x420;" horiz-adv-x="1148" 
d="M621 1327h-326v-641h326q96 0 177 46t126 130v289q-49 90 -131 133t-172 43zM647 1434q125 0 233 -65t167 -175v-375q-59 -106 -163 -173t-237 -66h-352v-580h-127v1434h479z" />
    <glyph glyph-name="uni0421" unicode="&#x421;" horiz-adv-x="1241" 
d="M641 1460q197 0 319.5 -90t178.5 -213v-78h-105q-41 121 -142 199q-102 78 -246 78t-241.5 -67.5t-138.5 -168.5v-805q41 -100 138.5 -167.5t241.5 -67.5t245.5 76.5t142.5 199.5h105v-77q-55 -123 -178 -214.5t-321 -91.5t-322.5 92.5t-178.5 219.5v866q53 125 179 217
t323 92z" />
    <glyph glyph-name="uni0422" unicode="&#x422;" horiz-adv-x="1075" 
d="M1024 1434v-107h-424v-1327h-127v1327h-422v107h973z" />
    <glyph glyph-name="uni0423" unicode="&#x423;" horiz-adv-x="1126" 
d="M80 1434h94l412 -947l366 947h95v-88l-486 -1221q-94 -133 -299 -133q-16 0 -84 6v102l15 -2l61 -2q145 0 207 86l61 160l-442 1004v88z" />
    <glyph glyph-name="uni0424" unicode="&#x424;" horiz-adv-x="1456" 
d="M840 1212h-54v-991h54q102 -1 206 53t150 140v606q-47 86 -150 139t-206 53zM616 221h54v991h-54q-102 0 -205 -53t-151 -139v-606q46 -86 150 -140t206 -53zM854 1317q141 0 272 -76t191 -190v-668q-59 -115 -191 -191t-272 -75h-68v-199h-116v199h-68q-139 0 -271 76
t-192 190v668q59 115 191 191t272 75h68v199h116v-199h68z" />
    <glyph glyph-name="uni0425" unicode="&#x425;" horiz-adv-x="1177" 
d="M1067 1434v-88l-387 -615l399 -643v-88h-94l-395 651h-6l-398 -651h-88v88l400 641l-385 617v88h94l383 -627h6l383 627h88z" />
    <glyph glyph-name="uni0426" unicode="&#x426;" horiz-adv-x="1361" 
d="M1128 1434v-1328h168v-389h-114v283h-1014v1434h127v-1328h706v1328h127z" />
    <glyph glyph-name="uni0427" unicode="&#x427;" horiz-adv-x="1265" 
d="M971 1434h127v-1434h-127v643q-152 -121 -377 -121q-170 0 -283 62t-161 139v711h126v-668q35 -51 120 -96t209 -45t219 39t147 98v672z" />
    <glyph glyph-name="uni0428" unicode="&#x428;" horiz-adv-x="1845" 
d="M1677 1434v-1434h-1509v1434h127v-1328h565v1328h127v-1328h563v1328h127z" />
    <glyph glyph-name="uni0429" unicode="&#x429;" horiz-adv-x="1912" 
d="M1677 1434v-1328h170v-389h-114v283h-1565v1434h127v-1328h565v1328h127v-1328h563v1328h127z" />
    <glyph glyph-name="uni042A" unicode="&#x42a;" horiz-adv-x="1372" 
d="M850 748h-365v-642h344q221 0 320 179v299q-41 72 -125 118t-174 46zM485 1434v-580h379q119 0 235 -66t171 -161v-385q-54 -100 -158 -171t-256 -71h-498v1329h-307v105h434z" />
    <glyph glyph-name="uni042B" unicode="&#x42b;" horiz-adv-x="1579" 
d="M625 748h-330v-642h309q217 0 320 179v299q-41 72 -126 118t-173 46zM1411 1434v-1434h-127v1434h127zM295 1434v-580h342q121 0 235 -66t170 -161v-385q-55 -100 -157 -171t-254 -71h-463v1434h127z" />
    <glyph glyph-name="uni042C" unicode="&#x42c;" horiz-adv-x="1181" 
d="M659 748h-364v-642h344q221 0 319 179v299q-41 72 -125 118t-174 46zM295 1434v-580h379q122 0 236 -66t169 -161v-385q-55 -100 -157 -171t-254 -71h-500v1434h127z" />
    <glyph glyph-name="uni042D" unicode="&#x42d;" horiz-adv-x="1261" 
d="M621 1460q197 0 321 -92t178 -217v-866q-53 -127 -177 -219q-123 -92 -321 -92t-322 90q-124 92 -179 215v77h106q41 -124 141 -200t246 -76q144 0 241 68t138 167v371h-538v107h538v327q-41 98 -138 167t-241 69t-245 -78q-100 -78 -142 -199h-106v78q55 123 179 213
t321 90z" />
    <glyph glyph-name="uni042E" unicode="&#x42e;" horiz-adv-x="1753" 
d="M1133 1356q-129 0 -223 -68t-134 -168v-805q41 -100 134 -168q92 -67 222 -67t222 68t133 167v805q-41 100 -133 168t-221 68zM1133 1460q190 0 308 -91t173 -218v-866q-55 -127 -173 -219q-117 -92 -309 -92t-310 92t-173 219v403h-354v-688h-127v1434h127v-641h354v358
q55 127 174 218q120 91 310 91z" />
    <glyph glyph-name="uni042F" unicode="&#x42f;" horiz-adv-x="1196" 
d="M901 735v592h-346q-96 0 -177 -45t-126 -131v-242q96 -174 303 -174h346zM526 1434h502v-1434h-127v629h-297l-389 -629h-92v88l346 545q-113 12 -201 77t-139 160v324q59 112 165 176t232 64z" />
    <glyph glyph-name="uni0430" unicode="&#x430;" horiz-adv-x="1095" 
d="M504 74q119 0 207 47t129 115v313h-340q-174 0 -271 -115v-241q99 -119 275 -119zM524 1124q172 0 281 -80t151 -186v-858h-114v119q-125 -145 -366 -145t-363 171v326q27 48 87 92q114 82 281 82h359v184q-35 83 -116 139t-196 56q-114 0 -190 -48t-107 -112h-98v68
q135 192 391 192z" />
    <glyph glyph-name="uni0431" unicode="&#x431;" horiz-adv-x="1103" 
d="M562 913q-110 -1 -192 -37q-83 -36 -128 -96v-512q34 -82 114 -138t199 -56t199 56q79 56 114 138v451q-35 84 -115 139q-81 55 -191 55zM578 1014q158 0 262 -80t147 -182v-512q-45 -106 -152 -187q-108 -80 -278 -80q-169 0 -277 80t-151 187v886q92 168 434 232
q164 31 222 50t89 52h82v-96q-46 -36 -120 -58t-232 -49q-285 -45 -362 -163v-201q127 121 336 121z" />
    <glyph glyph-name="uni0432" unicode="&#x432;" horiz-adv-x="1069" 
d="M610 510h-344v-414h326q162 0 244 129v164q-30 51 -92 86t-134 35zM266 1004v-400h344q68 0 124 34t85 85v151q-82 129 -227 130h-326zM621 0h-471v1098h471q190 0 309 -185v-217q-64 -90 -166 -131q129 -47 182 -139v-240q-117 -186 -325 -186z" />
    <glyph glyph-name="uni0433" unicode="&#x433;" horiz-adv-x="864" 
d="M811 1098v-94h-545v-1004h-116v1098h661z" />
    <glyph glyph-name="uni0434" unicode="&#x434;" horiz-adv-x="1171" 
d="M836 94v910h-416l-84 -789q-33 -76 -129 -121h629zM954 94h152v-348h-107v254h-862v-254h-106v348q66 20 122 64t72 84l94 856h635v-1004z" />
    <glyph glyph-name="uni0435" unicode="&#x435;" horiz-adv-x="1093" 
d="M554 1024q-118 0 -199 -56.5t-115 -140.5v-182h628v182q-33 84 -114.5 140.5t-199.5 56.5zM553 1124q170 0 277.5 -78.5t150.5 -179.5v-317h-741v-279q35 -84 115.5 -140t197.5 -56q242 0 330 225h98v-68q-43 -100 -150.5 -179t-277.5 -79t-278.5 80t-151.5 187v618
q43 106 151.5 186t278.5 80z" />
    <glyph glyph-name="uni0436" unicode="&#x436;" horiz-adv-x="1415" 
d="M1327 1098v-80l-274 -436l295 -500v-82h-84l-310 526h-188v-526h-115v526h-190l-309 -526h-84v82l294 500l-276 436v80h80l295 -477h190v477h115v-477h188l295 477h78z" />
    <glyph glyph-name="uni0437" unicode="&#x437;" horiz-adv-x="1036" 
d="M509.5 1124q274.5 0 405.5 -211v-194q-66 -109 -190 -150q125 -43 190 -151v-234q-131 -211 -405.5 -211t-396.5 211v70h98q31 -74 107.5 -127t190.5 -53t186.5 45t105.5 102v172q-74 129 -279 129h-98v94h98q207 0 279 129v132q-33 57 -105.5 102t-186.5 45t-190.5 -53
t-107.5 -127h-98v69q122 211 396.5 211z" />
    <glyph glyph-name="uni0438" unicode="&#x438;" horiz-adv-x="1165" 
d="M1018 1098v-1098h-113v950h-6l-612 -950h-137v1098h112v-951h6l609 951h141z" />
    <glyph glyph-name="uni0439" unicode="&#x439;" horiz-adv-x="1165" 
d="M1018 1098v-1098h-113v950h-6l-612 -950h-137v1098h112v-951h6l609 951h141zM848 1491v-100q-68 -141 -264 -141t-269 141v100h97v-72q12 -31 54 -61t116 -29q74 0 116 30t54 60v72h96z" />
    <glyph glyph-name="uni043A" unicode="&#x43a;" horiz-adv-x="983" 
d="M922 1098v-80l-361 -440l381 -496v-82h-82l-397 526h-197v-526h-116v1098h116v-477h197l387 477h72z" />
    <glyph glyph-name="uni043B" unicode="&#x43b;" horiz-adv-x="1103" 
d="M954 1098v-1098h-116v1004h-416l-92 -857q-78 -156 -299 -155v100q72 0 123 32t67 75l101 899h632z" />
    <glyph glyph-name="uni043C" unicode="&#x43c;" horiz-adv-x="1329" 
d="M1180 1098v-1098h-113v958h-6l-354 -655h-86l-353 655h-6v-958h-112v1098h161l351 -654h6l352 654h160z" />
    <glyph glyph-name="uni043D" unicode="&#x43d;" horiz-adv-x="1157" 
d="M1010 1098v-1098h-119v518h-625v-518h-116v1098h116v-486h625v486h119z" />
    <glyph glyph-name="uni043E" unicode="&#x43e;" 
d="M554 1024q-118 0 -200 -56t-114 -139v-561q32 -82 114 -138t200 -56t200 56t114 138v561q-33 82 -114 139q-82 56 -200 56zM555 1124q170 0 279 -80t151 -186v-618q-43 -106 -151 -187q-109 -80 -279 -80t-280 81t-152 186v618q43 104 152 185q110 81 280 81z" />
    <glyph glyph-name="uni043F" unicode="&#x43f;" horiz-adv-x="1118" 
d="M971 1098v-1098h-119v1004h-586v-1004h-116v1098h821z" />
    <glyph glyph-name="uni0440" unicode="&#x440;" 
d="M580 1022q-209 0 -314 -135v-676q109 -135 314 -135q113 0 183 45t103 100v656q-34 55 -104 100t-182 45zM600 1122q268 0 385 -215v-717q-117 -215 -385 -215q-209 0 -334 125v-440h-116v1438h114v-103q123 127 336 127z" />
    <glyph glyph-name="uni0441" unicode="&#x441;" horiz-adv-x="1067" 
d="M553 1124q170 0 278.5 -78.5t149.5 -179.5v-65h-98q-90 223 -330 223q-117 0 -198 -55.5t-115 -139.5v-561q35 -84 115.5 -139t197.5 -55q240 0 330 225h98v-68q-41 -100 -149.5 -179t-278.5 -79t-278.5 80t-151.5 187v618q43 106 151.5 186t278.5 80z" />
    <glyph glyph-name="uni0442" unicode="&#x442;" horiz-adv-x="954" 
d="M420 0v1004h-369v94h852v-94h-366v-1004h-117z" />
    <glyph glyph-name="uni0443" unicode="&#x443;" horiz-adv-x="1017" 
d="M946 1098v-80l-422 -1219q-102 -152 -331 -151q-74 0 -103 8v94q27 -4 76 -4q178 0 258 109l43 127l-377 1032v84h96l336 -961h6l326 961h92z" />
    <glyph glyph-name="uni0444" unicode="&#x444;" horiz-adv-x="1472" 
d="M991 1022q-115 0 -196 -57v-832q86 -57 196 -57q166 0 244 121v704q-82 121 -244 121zM483 76q117 0 197 59v828q-76 59 -197 59q-166 0 -243 -121v-704q77 -121 243 -121zM1016 1122q231 0 336 -190v-766q-104 -190 -336 -191q-129 0 -221 66v-381h-115v383
q-86 -68 -221 -68q-231 0 -336 191v766q104 190 336 190q133 0 221 -69v381h115v-379q94 67 221 67z" />
    <glyph glyph-name="uni0445" unicode="&#x445;" horiz-adv-x="960" 
d="M858 1098v-82l-297 -455l313 -479v-82h-83l-308 487h-6l-311 -487h-80v82l313 479l-297 455v82h84l291 -463h6l293 463h82z" />
    <glyph glyph-name="uni0446" unicode="&#x446;" horiz-adv-x="1185" 
d="M971 1098v-1004h151v-348h-106v254h-866v1098h116v-1004h586v1004h119z" />
    <glyph glyph-name="uni0447" unicode="&#x447;" horiz-adv-x="1060" 
d="M795 1098h116v-1098h-116v475q-121 -74 -289 -74q-252 0 -375 156v541h119v-494q82 -104 261 -104t284 78v520z" />
    <glyph glyph-name="uni0448" unicode="&#x448;" horiz-adv-x="1562" 
d="M1413 1098v-1098h-1263v1098h116v-1004h455v1004h119v-1004h456v1004h117z" />
    <glyph glyph-name="uni0449" unicode="&#x449;" horiz-adv-x="1632" 
d="M1413 1098v-1004h152v-348h-107v254h-1308v1098h116v-1004h455v1004h119v-1004h456v1004h117z" />
    <glyph glyph-name="uni044A" unicode="&#x44a;" horiz-adv-x="1173" 
d="M748 569h-312v-475h312q66 0 129 38t98 93v213q-33 51 -94 91t-133 40zM436 1098v-434h342q190 0 309 -185v-295q-117 -184 -307 -184h-461v1004h-268v94h385z" />
    <glyph glyph-name="uni044B" unicode="&#x44b;" horiz-adv-x="1361" 
d="M557 569h-291v-475h291q68 0 131 38t96 93v213q-33 51 -94 91t-133 40zM1214 1098v-1098h-118v1098h118zM266 1098v-434h322q193 0 311 -185v-295q-121 -184 -309 -184h-440v1098h116z" />
    <glyph glyph-name="uni044C" unicode="&#x44c;" horiz-adv-x="1003" 
d="M578 569h-312v-475h312q66 0 129 38t98 93v213q-33 51 -94 91t-133 40zM266 1098v-434h342q190 0 310 -185v-295q-117 -184 -308 -184h-460v1098h116z" />
    <glyph glyph-name="uni044D" unicode="&#x44d;" horiz-adv-x="1067" 
d="M513 1124q171 0 280 -80t151 -186v-618q-43 -106 -151 -187q-109 -80 -280 -80t-279 79t-148 179v68h98q86 -225 328 -225q119 0 200 55t115 139v248h-458v94h458v219q-35 84 -115 140q-81 55 -200 55q-242 0 -328 -223h-98v65q41 100 148 180q108 78 279 78z" />
    <glyph glyph-name="uni044E" unicode="&#x44e;" horiz-adv-x="1544" 
d="M990 1024q-118 0 -198 -55t-116 -140v-561q35 -84 116 -139q80 -55 198 -55t200 56t115 138v561q-33 83 -115 139t-200 56zM991 1124q170 0 279 -80t153 -186v-618q-45 -106 -153 -187q-109 -80 -279 -80q-169 0 -279 81t-153 186v280h-293v-520h-116v1098h116v-486h293
v246q43 104 153 185t279 81z" />
    <glyph glyph-name="uni044F" unicode="&#x44f;" horiz-adv-x="1064" 
d="M799 547v457h-330q-66 0 -129 -39t-98 -93v-196q33 -51 94 -90t133 -39h330zM434 1098h481v-1098h-116v453h-271l-319 -453h-86v78l278 377q-166 16 -274 182v276q117 185 307 185z" />
    <glyph glyph-name="uni0451" unicode="&#x451;" horiz-adv-x="1093" 
d="M554 1024q-118 0 -199 -56.5t-115 -140.5v-182h628v182q-33 84 -114.5 140.5t-199.5 56.5zM553 1124q170 0 277.5 -78.5t150.5 -179.5v-317h-741v-279q35 -84 115.5 -140t197.5 -56q242 0 330 225h98v-68q-43 -100 -150.5 -179t-277.5 -79t-278.5 80t-151.5 187v618
q43 106 151.5 186t278.5 80zM762 1462q53 0 76 -28v-103q-23 -29 -76 -28.5t-76 28.5v103q23 28 76 28zM370.5 1462q53.5 0 75.5 -28v-103q-23 -29 -76 -28.5t-75 28.5v103q22 28 75.5 28z" />
    <glyph glyph-name="uni0452" unicode="&#x452;" horiz-adv-x="1155" 
d="M297 1434v-111h414v-78h-414v-258q127 123 334 123q158 0 250 -67t135 -148v-979q-43 -104 -153 -185t-279 -81v100q118 0 198 57t115 142v915q-33 54 -103 100t-184 46q-209 0 -313 -136v-874h-117v1245h-106v78h106v111h117z" />
    <glyph glyph-name="uni0453" unicode="&#x453;" horiz-adv-x="864" 
d="M811 1098v-94h-545v-1004h-116v1098h661zM643 1561v-64l-166 -254h-86v31l146 287h106z" />
    <glyph glyph-name="uni0454" unicode="&#x454;" horiz-adv-x="1067" 
d="M553 1024q-117 0 -198 -55t-115 -140v-219h456v-94h-456v-248q36 -84 116 -139t197 -55q240 0 330 225h98v-68q-41 -100 -150 -179t-279 -79t-278 80q-109 80 -151 187v618q43 106 151 186q109 80 279 80q171 0 279 -78t149 -180v-65h-98q-90 223 -330 223z" />
    <glyph glyph-name="uni0455" unicode="&#x455;" horiz-adv-x="972" 
d="M484 1124q138 0 233.5 -52t140.5 -116v-67h-98q-29 57 -102.5 96t-172.5 39q-160 0 -258 -106v-175q51 -78 211 -114l131 -33q240 -57 310 -172v-258q-131 -193 -390.5 -193t-394.5 193v67h99q35 -70 110.5 -114.5t181.5 -44.5q186 0 281 131v174q-49 80 -221 119
l-135 32q-219 51 -295 168v258q47 63 139 115.5t230 52.5z" />
    <glyph glyph-name="uni0456" unicode="&#x456;" horiz-adv-x="432" 
d="M274 1098v-1098h-116v1098h116z" />
    <glyph glyph-name="uni0457" unicode="&#x457;" horiz-adv-x="483" 
d="M299 1098v-1098h-117v1098h117zM389 1458q53 0 78 -28v-89q-29 -29 -78 -29t-72 29v89q19 28 72 28zM90 1458q53 0 78 -28v-89q-29 -29 -78 -29t-72 29v89q19 28 72 28z" />
    <glyph glyph-name="uni0458" unicode="&#x458;" horiz-adv-x="415" 
d="M266 1098v-1198q-43 -106 -151 -187q-109 -80 -277 -80v101q117 0 197 56t112 142v1166h119zM207 1464q59 0 78 -34v-87q-17 -35 -77 -35t-77 35v87q17 34 76 34z" />
    <glyph glyph-name="uni0459" unicode="&#x459;" horiz-adv-x="1691" 
d="M1266 569h-310v-475h310q66 0 129 38t98 93v213q-33 51 -94 91t-133 40zM1296 664q190 0 310 -185v-295q-117 -184 -308 -184h-460v1004h-416l-92 -857q-78 -156 -299 -155v100q72 0 123 32t67 75l101 899h632v-434h342z" />
    <glyph glyph-name="uni045A" unicode="&#x45a;" horiz-adv-x="1689" 
d="M1266 569h-303v-475h303q68 0 131 38t96 93v213q-33 51 -94 91t-133 40zM1296 664q190 0 312 -185v-295q-121 -184 -310 -184h-454v569h-578v-569h-116v1098h116v-434h578v434h117v-434h335z" />
    <glyph glyph-name="uni045B" unicode="&#x45b;" horiz-adv-x="1155" 
d="M297 1434v-111h414v-78h-414v-258q127 123 334 123q158 0 250 -67t135 -148v-895h-119v864q-33 54 -103 100t-184 46q-209 0 -313 -136v-874h-117v1245h-106v78h106v111h117z" />
    <glyph glyph-name="uni045C" unicode="&#x45c;" horiz-adv-x="983" 
d="M922 1098v-80l-361 -440l381 -496v-82h-82l-397 526h-197v-526h-116v1098h116v-477h197l387 477h72zM705 1561v-64l-166 -254h-86v31l145 287h107z" />
    <glyph glyph-name="uni045E" unicode="&#x45e;" horiz-adv-x="1017" 
d="M946 1098v-80l-422 -1219q-102 -152 -331 -151q-74 0 -103 8v94q27 -4 76 -4q178 0 258 109l43 127l-377 1032v84h96l336 -961h6l326 961h92zM774 1491v-100q-68 -141 -264 -141t-268 141v100h96v-72q12 -31 54 -61t116 -29q74 0 116 30t54 60v72h96z" />
    <glyph glyph-name="uni045F" unicode="&#x45f;" horiz-adv-x="1136" 
d="M989 1098v-1098h-364v-254h-107v254h-368v1098h116v-1004h604v1004h119z" />
    <glyph glyph-name="uni0490" unicode="&#x490;" horiz-adv-x="958" 
d="M909 1688v-361h-614v-1327h-127v1434h627v254h114z" />
    <glyph glyph-name="uni0491" unicode="&#x491;" horiz-adv-x="864" 
d="M803 1290v-286h-537v-1004h-116v1098h546v192h107z" />
    <glyph glyph-name="uni04D8" unicode="&#x4d8;" horiz-adv-x="1261" 
d="M621 80q139 0 236 68t138 167v308h-751v-310q41 -98 139 -166q99 -67 238 -67zM621 1460q197 0 323 -92t178 -217v-866q-53 -127 -178 -219q-124 -92 -322 -92t-321 90q-123 92 -178 215v450h872v391q-41 100 -138 168t-241 68t-245 -78q-100 -78 -142 -199h-106v78
q55 123 178 213t320 90z" />
    <glyph glyph-name="uni04D9" unicode="&#x4d9;" horiz-adv-x="1093" 
d="M540 74q118 0 198.5 56t115.5 140v183h-629v-183q33 -84 115 -140t200 -56zM541 -27q-170 0 -277.5 79t-150.5 179v318h741v278q-35 84 -116 140.5t-197 56.5q-242 0 -330 -223h-98v65q43 100 150.5 179t277.5 79t278.5 -79.5t151.5 -186.5v-618q-43 -106 -151.5 -186.5
t-278.5 -80.5z" />
    <glyph glyph-name="Wgrave" unicode="&#x1e80;" horiz-adv-x="1808" 
d="M1731 1434v-88l-291 -1346h-185l-352 1262h-6l-350 -1262h-178l-291 1346v88h110l275 -1313h6l362 1313h146l362 -1313h7l276 1313h109zM946 1544h-84l-166 242v61h105l145 -270v-33z" />
    <glyph glyph-name="wgrave" unicode="&#x1e81;" horiz-adv-x="1566" 
d="M1485 1098v-82l-266 -1016h-152l-276 946h-7l-280 -946h-152l-266 1016v82h98l248 -977h6l285 977h133l283 -977h6l246 977h94zM829 1243h-86l-165 254v64h106l145 -287v-31z" />
    <glyph glyph-name="Wacute" unicode="&#x1e82;" horiz-adv-x="1808" 
d="M1731 1434v-88l-291 -1346h-185l-352 1262h-6l-350 -1262h-178l-291 1346v88h110l275 -1313h6l362 1313h146l362 -1313h7l276 1313h109zM1100 1847v-61l-166 -242h-84v33l143 270h107z" />
    <glyph glyph-name="wacute" unicode="&#x1e83;" horiz-adv-x="1566" 
d="M1485 1098v-82l-266 -1016h-152l-276 946h-7l-280 -946h-152l-266 1016v82h98l248 -977h6l285 977h133l283 -977h6l246 977h94zM995 1561v-64l-166 -254h-86v31l146 287h106z" />
    <glyph glyph-name="Wdieresis" unicode="&#x1e84;" horiz-adv-x="1808" 
d="M1731 1434v-88l-291 -1346h-185l-352 1262h-6l-350 -1262h-178l-291 1346v88h110l275 -1313h6l362 1313h146l362 -1313h7l276 1313h109zM1098 1751q57 0 76 -29v-100q-23 -29 -76 -29t-76 29v100q19 29 76 29zM707 1751q57 0 75 -29v-100q-24 -29 -76 -29t-75 29v100
q19 29 76 29z" />
    <glyph glyph-name="wdieresis" unicode="&#x1e85;" horiz-adv-x="1566" 
d="M1485 1098v-82l-266 -1016h-152l-276 946h-7l-280 -946h-152l-266 1016v82h98l248 -977h6l285 977h133l283 -977h6l246 977h94zM977 1462q53 0 76 -28v-103q-23 -29 -76 -29t-76 29v103q23 28 76 28zM586 1462q53 0 76 -28v-103q-23 -29 -76 -29t-76 29v103q23 28 76 28z
" />
    <glyph glyph-name="Ygrave" unicode="&#x1ef2;" horiz-adv-x="1118" 
d="M1040 1434v-88l-419 -711v-635h-127v645l-416 701v88h88l393 -672h4l391 672h86zM600 1544h-84l-166 242v61h105l145 -270v-33z" />
    <glyph glyph-name="ygrave" unicode="&#x1ef3;" horiz-adv-x="1017" 
d="M946 1098v-80l-422 -1219q-102 -152 -331 -151q-74 0 -103 8v94q27 -4 76 -4q178 0 258 109l43 127l-377 1032v84h96l336 -961h6l326 961h92zM555 1243h-86l-166 254v64h107l145 -287v-31z" />
    <glyph glyph-name="endash" unicode="&#x2013;" horiz-adv-x="1150" 
d="M1055 745v-100h-961v100h961z" />
    <glyph glyph-name="emdash" unicode="&#x2014;" horiz-adv-x="1765" 
d="M1669 745v-100h-1575v100h1575z" />
    <glyph glyph-name="quoteleft" unicode="&#x2018;" horiz-adv-x="342" 
d="M172 1100q-61 0 -78 35v247q8 22 37 46t68 24h39v-59h-33q-20 0 -33 -23v-100q26 0 48 -12t28 -23v-100q-4 -11 -26 -23t-50 -12z" />
    <glyph glyph-name="quoteright" unicode="&#x2019;" horiz-adv-x="342" 
d="M155 1462q82 0 93 -35v-247q-8 -22 -37 -46t-66 -24h-41v61h33q23 0 33 21v100q-55 0 -76 35v100q17 35 61 35z" />
    <glyph glyph-name="quotesinglbase" unicode="&#x201a;" horiz-adv-x="342" 
d="M155 147q45 0 67 -11t26 -23v-248q-8 -23 -37 -47t-66 -23h-41v60h33q23 0 33 22v100q-55 0 -76 35v101q17 34 61 34z" />
    <glyph glyph-name="quotedblleft" unicode="&#x201c;" horiz-adv-x="663" 
d="M478 1102q-43 0 -62 33v247q8 23 37 48t67 24h39v-61h-33q-20 0 -32 -21v-102q28 0 50 -12t25 -23v-100q-11 -33 -91 -33zM156 1102q-43 0 -62 33v247q8 23 37 48t68 24h39v-61h-33q-20 0 -33 -21v-102q28 0 50 -12t26 -23v-100q-11 -33 -92 -33z" />
    <glyph glyph-name="quotedblright" unicode="&#x201d;" horiz-adv-x="663" 
d="M495 1460q60 0 74 -33v-247q-7 -24 -35 -48t-67 -24h-41v61h33q20 0 33 21v102q-57 0 -76 35v100q19 33 79 33zM173 1460q60 0 75 -33v-247q-8 -24 -36 -48t-67 -24h-41v61h33q20 0 33 21v102q-59 0 -76 35v100q19 33 79 33z" />
    <glyph glyph-name="quotedblbase" unicode="&#x201e;" horiz-adv-x="667" 
d="M496 147q28 0 50 -11t25 -23v-248q-7 -20 -35 -45t-67 -25h-39v60h33q20 0 33 22v100q-57 0 -78 35v101q17 34 78 34zM155 147q45 0 67 -11t26 -23v-248q-8 -23 -37 -47t-66 -23h-41v60h33q23 0 33 22v100q-55 0 -76 35v101q17 34 61 34z" />
    <glyph glyph-name="dagger" unicode="&#x2020;" horiz-adv-x="1275" 
d="M1184 940v-113h-168l-320 15l-12 -1186h-96l-13 1186l-315 -15h-168v113h168l313 -14l-2 315v193h129v-193l-4 -315l320 14h168z" />
    <glyph glyph-name="daggerdbl" unicode="&#x2021;" horiz-adv-x="1316" 
d="M1184 387v-113h-168l-326 15l-6 -633h-96l-6 633l-322 -15h-168v113h168l320 -14l-7 530l-313 -14h-168v112h168l313 -14l-2 254v193h129v-193l-2 -254l318 14h168v-112h-168l-320 14l-4 -530l324 14h168z" />
    <glyph glyph-name="bullet" unicode="&#x2022;" horiz-adv-x="647" 
d="M323 918q122 0 177 -84v-191q-55 -88 -177 -88t-176 88v191q54 84 176 84z" />
    <glyph glyph-name="ellipsis" unicode="&#x2026;" horiz-adv-x="999" 
d="M832 141q62 0 75 -35v-86q-13 -34 -73 -34t-80 34v86q16 35 78 35zM499 141q62 0 79 -35v-86q-20 -34 -80 -34t-74 34v86q13 35 75 35zM169 141q62 0 75 -35v-86q-14 -34 -74 -34t-80 34v86q17 35 79 35z" />
    <glyph glyph-name="perthousand" unicode="&#x2030;" horiz-adv-x="2557" 
d="M2146 639q-78 0 -136 -32t-79 -77v-360q23 -45 80 -77t135 -32t134 32t79 77v360q-19 45 -77 77t-136 32zM1379 639q-77 0 -135 -32t-81 -77v-360q23 -45 81 -77t135 -32t133 32t79 77v360q-19 45 -77 77t-135 32zM2146 717q121 0 202 -51t110 -117v-397
q-29 -66 -110 -116t-202 -50q-122 0 -202 50t-109 116v397q29 66 109 117t202 51zM1377 717q120 0 202 -51t113 -117v-397q-31 -66 -112 -116t-202 -50q-122 0 -202 50t-109 116v397q29 66 109 117t201 51zM412 1374q-78 0 -136 -33t-79 -77v-361q20 -45 78 -76
q59 -31 137 -31t135 32q57 30 78 75v361q-19 46 -77 78t-136 32zM1438 1434v-60l-1020 -1374h-64v59l1018 1375h66zM413 1450q121 0 201 -51t109 -117v-397q-29 -66 -110 -116t-201 -50t-202 50q-81 50 -112 116v397q31 66 113 117t202 51z" />
    <glyph glyph-name="guilsinglleft" unicode="&#x2039;" horiz-adv-x="671" 
d="M561 1098v-68l-362 -418l362 -419v-68h-86l-381 446v80l381 447h86z" />
    <glyph glyph-name="guilsinglright" unicode="&#x203a;" horiz-adv-x="671" 
d="M113 125v68l360 419l-360 418v68h84l381 -447v-80l-381 -446h-84z" />
    <glyph glyph-name="fraction" unicode="&#x2044;" horiz-adv-x="319" 
d="M700 1434v-60l-1017 -1374h-66v59l1020 1375h63z" />
    <glyph glyph-name="uni20A8" unicode="&#x20a8;" horiz-adv-x="1069" 
d="M1040 1434v-84h-311q106 -76 150 -181v-104h161v-84h-161v-104q-45 -113 -159 -189t-214 -76h-203l578 -544v-68h-105l-637 612v90h336q72 0 160 56t123 145v78h-619v84h619v70q-35 90 -123 145t-160 55h-336v99h901z" />
    <glyph glyph-name="Euro" unicode="&#x20ac;" horiz-adv-x="1212" 
d="M660 1358q-124 0 -214 -58t-122 -137v-254h538v-82h-538v-184h538v-82h-538v-291q32 -80 122 -137t214 -57t217 64q92 65 120 165h105v-76q-41 -96 -159 -176t-289 -80q-170 0 -290 82t-161 183v323h-135v82h135v184h-135v82h135v287q41 100 161 182t290 82t289 -80
q118 -80 159 -176v-76h-105q-29 100 -120 165q-93 65 -217 65z" />
    <glyph glyph-name="uni20BA" unicode="&#x20ba;" horiz-adv-x="1146" 
d="M1028 332v-76q-41 -96 -159 -176t-287 -80h-365v518l-141 -69v92l141 69v203l-141 -68v93l141 67v529h119v-471l444 215v-93l-444 -215v-202l444 213v-93l-444 -213v-473h246q133 0 221 63t121 167h104z" />
    <glyph glyph-name="uni20BD" unicode="&#x20bd;" horiz-adv-x="1155" 
d="M627 1331h-326v-616h326q96 0 177 46t126 130v262q-49 90 -132 134t-171 44zM653 1434q125 0 231 -64t167 -176v-338q-57 -106 -161 -168t-237 -63h-352v-176h592v-82h-592v-367h-127v367h-133v82h133v176h-133v90h133v719h479z" />
    <glyph glyph-name="uni2116" unicode="&#x2116;" horiz-adv-x="1935" 
d="M1874 571v-86h-660v86h660zM1542 1364q-162 0 -227 -137v-312q69 -135 229 -135t232 135v312q-72 137 -234 137zM1016 1434v-1434h-162l-559 1249h-6v-1249h-121v1434h164l559 -1250h4v1250h121zM1544 1446q233 0 330 -195v-360q-102 -195 -330 -195t-330 195v360
q97 195 330 195z" />
    <glyph glyph-name="uni2117" unicode="&#x2117;" horiz-adv-x="1677" 
d="M913 1094h-254v-445h254q139 0 203 129v187q-64 129 -203 129zM936 1178q86 0 161 -50t117 -135v-243q-43 -86 -117 -136q-75 -49 -161 -49h-277v-348h-98v961h375zM170 716q0 -278 196 -476t474 -197q278 0 472 198q196 199 196 477t-196 476q-194 198 -472 197
q-278 0 -474 -198q-196 -199 -196 -477zM839 1460q308 0 527 -217t219 -526t-219 -527t-527 -217q-308 0 -528 218q-219 217 -219 525t219 526q220 218 528 218z" />
    <glyph glyph-name="trademark" unicode="&#x2122;" horiz-adv-x="1603" 
d="M1475 1434v-799h-84v686h-5l-249 -686h-68l-250 686h-4v-686h-82v799h131l240 -658h4l238 658h129zM639 1434v-70h-248v-729h-86v729h-248v70h582z" />
    <glyph glyph-name="uni2154" unicode="&#x2154;" horiz-adv-x="2066" 
d="M1668 877q114 0 186 -44t106 -96v-174q-39 -74 -154 -108q127 -33 176 -133v-179q-30 -59 -112 -108t-201 -49t-202 47t-111 102v66h76q20 -55 85 -95t147 -40t140 30q59 30 82 76v133q-23 45 -81 76t-136 31h-92v77h82q72 0 126 28t79 61v133q-60 86 -202 86t-214 -119
h-72v65q30 47 104 91t188 43zM1606 1434v-60l-1018 -1374h-66v59l1020 1375h64zM410 1450q116 0 198 -49t113 -113v-153q-39 -84 -205 -189l-139 -88q-152 -96 -182 -164v-37h538v-84h-631v142q33 59 75 101t153 112l135 86q135 88 158 145v107q-23 44 -79 74t-140 30
t-144 -40t-78 -87h-82v60q31 55 112 101t198 46z" />
    <glyph glyph-name="oneeighth" unicode="&#x215b;" horiz-adv-x="1884" 
d="M1466 414q-78 0 -136 -31t-79 -74v-141q23 -43 80 -75t135 -32t135 32t80 75v141q-20 43 -78 74q-59 31 -137 31zM1468 487q141 0 197 86v140q-61 86 -197 86t-200 -86v-140q59 -86 200 -86zM1466 -14q-118 0 -200 48t-111 109v174q39 86 156 134q-84 35 -137 104v188
q34 47 106 91t186 43q114 0 188 -43q73 -43 105 -91v-188q-47 -67 -137 -104q115 -45 158 -134v-174q-31 -61 -113 -109t-201 -48zM1423 1434v-60l-1017 -1374h-66v59l1020 1375h63zM104 645h160v703l-162 -21v64l189 43h71v-789h152v-72h-410v72z" />
    <glyph glyph-name="threeeighths" unicode="&#x215c;" horiz-adv-x="1966" 
d="M1569 414q-78 0 -136 -31t-79 -74v-141q23 -43 80 -75t135 -32q77 0 135 32t78 75v141q-20 43 -78 74t-135 31zM1570 487q142 0 197 86v140q-61 86 -197 86t-202 -86v-140q60 -86 202 -86zM1568 -14q-118 0 -201 49t-112 108v174q39 86 156 134q-88 37 -135 104v188
q34 47 106 91t187 43q115 0 187 -43t104 -91v-188q-48 -67 -136 -104q117 -47 156 -134v-174q-29 -61 -111 -109q-83 -48 -201 -48zM1528 1434v-60l-1020 -1374h-64v59l1018 1375h66zM408 559q-118 0 -202 47q-83 47 -112 103v65h78q20 -55 84 -95t146 -40q84 0 142 31
t81 75v134q-23 45 -81 75t-136 31h-93v78h84q139 0 203 88v133q-60 86 -204 86t-210 -119h-73v66q31 47 105 90t187 43q115 0 187 -44t104 -95v-174q-39 -74 -153 -109q127 -33 176 -133v-178q-31 -59 -113 -109t-200 -49z" />
    <glyph glyph-name="fiveeighths" unicode="&#x215d;" horiz-adv-x="1998" 
d="M1583 414q-78 0 -136 -31t-79 -74v-141q23 -43 81 -75t135 -32q76 0 134 32t78 75v141q-20 43 -78 74t-135 31zM1584 487q142 0 198 86v140q-62 86 -198 86t-202 -86v-140q60 -86 202 -86zM1583 -14q-119 0 -202 49t-111 108v174q39 86 155 134q-88 37 -135 104v188
q33 47 106 91q74 44 188 43q114 0 186 -43t104 -91v-188q-47 -67 -135 -104q117 -47 155 -134v-174q-28 -61 -110 -109t-201 -48zM1540 1434v-60l-1018 -1374h-65v59l1020 1375h63zM404 559q-118 0 -199 46q-80 46 -111 104v65h76q23 -59 86 -97q64 -38 146 -38t141 31
t80 75v211q-23 43 -80 75t-135 32q-125 0 -193 -86h-92v457h579v-84h-487v-281q83 68 201 68t194 -45t105 -103v-280q-31 -55 -112 -103t-199 -47z" />
    <glyph glyph-name="seveneighths" unicode="&#x215e;" horiz-adv-x="1857" 
d="M1462 414q-78 0 -136 -31t-79 -74v-141q23 -43 80 -75t135 -32t135 32t80 75v141q-21 43 -79 74t-136 31zM1464 487q141 0 197 86v140q-61 86 -197 86t-200 -86v-140q59 -86 200 -86zM1462 -14q-118 0 -200 48t-111 109v174q39 86 156 134q-84 35 -138 104v188
q33 47 106 91t187 43q114 0 188 -43q73 -43 105 -91v-188q-47 -67 -137 -104q115 -45 158 -134v-174q-31 -61 -113 -109t-201 -48zM1382 1434v-60l-1017 -1374h-66v59l1020 1375h63zM588 1350h-508v84h608v-74l-389 -787h-74v64l363 709v4z" />
    <glyph glyph-name="arrowleft" unicode="&#x2190;" horiz-adv-x="1556" 
d="M748 1434v-84l-586 -582h1394v-104h-1392l584 -580v-84h-74l-674 674v84l674 676h74z" />
    <glyph glyph-name="arrowup" unicode="&#x2191;" horiz-adv-x="1556" 
d="M1495 815h-82l-575 580v-1395h-115v1395l-580 -580h-82v66l676 675h84l674 -675v-66z" />
    <glyph glyph-name="arrowright" unicode="&#x2192;" horiz-adv-x="1556" 
d="M809 0v84l584 580h-1393v104h1395l-586 582v84h74l673 -676v-84l-673 -674h-74z" />
    <glyph glyph-name="arrowdown" unicode="&#x2193;" horiz-adv-x="1556" 
d="M61 618h82l580 -579v1395h115v-1395l575 579h82v-65l-674 -676h-84l-676 676v65z" />
    <glyph glyph-name="partialdiff" unicode="&#x2202;" 
d="M557 905q-117 0 -200 -55t-115 -137v-445q32 -82 114 -138t200 -56t200 56t114 138v463q-100 174 -313 174zM557 -27q-169 0 -279 81t-153 186v501q39 105 145 185t288 80t312 -136v140q-51 122 -214 236t-351 177l74 72q205 -68 381 -196t227 -259v-800
q-43 -106 -151 -187q-109 -80 -279 -80z" />
    <glyph glyph-name="product" unicode="&#x220f;" horiz-adv-x="1333" 
d="M1151 1434v-1639h-127v1538h-713v-1538h-127v1639h967z" />
    <glyph glyph-name="summation" unicode="&#x2211;" horiz-adv-x="1140" 
d="M1036 1434v-101h-778l440 -671v-91l-442 -675h780v-101h-934v88l478 733l-478 730v88h934z" />
    <glyph glyph-name="minus" unicode="&#x2212;" horiz-adv-x="1191" 
d="M1096 745v-100h-1002v100h1002z" />
    <glyph glyph-name="radical" unicode="&#x221a;" horiz-adv-x="1191" 
d="M41 1004v94h215l332 -955h6l436 1291h103v-68l-471 -1366h-146l-350 1004h-125z" />
    <glyph glyph-name="infinity" unicode="&#x221e;" horiz-adv-x="1613" 
d="M1139 987q-147 0 -221 -108l-64 -160l64 -158q76 -111 221 -110q75 -1 133 31t78 79v318q-20 45 -78 77t-133 31zM694 561l64 158l-64 158q-72 111 -217 110q-78 0 -136 -32t-79 -78v-316q20 -45 78 -78t137 -32q141 -1 217 110zM1156 1067q100 0 182 -51t112 -117v-360
q-31 -66 -113 -117t-182 -51q-100 1 -165 29q-64 28 -96 60t-65 79l-24 59l-23 -59q-32 -47 -64 -79t-96 -61t-166 -29q-100 0 -182 52q-82 51 -110 117v360q29 66 110 117q82 51 182 51t166 -29q64 -28 96 -60t64 -79l23 -59l24 59q33 47 65 79t96 60q66 28 166 29z" />
    <glyph glyph-name="integral" unicode="&#x222b;" horiz-adv-x="915" 
d="M727 1458q102 0 147 -16v-82h-112q-193 0 -246 -131v-1419q-86 -184 -328 -185q-102 0 -147 17v82h113q190 0 245 131v1419q86 184 328 184z" />
    <glyph glyph-name="approxequal" unicode="&#x2248;" horiz-adv-x="1191" 
d="M360 594q90 0 270 -52t252 -52q74 0 132 22q58 23 84 45l28 23v-119q-86 -70 -211 -70t-301 52q-176 53 -259 53t-153 -27t-104 -51l-32 -27v109q41 34 122 64q82 30 172 30zM360 1012q90 0 270 -52t252 -53q74 0 132 23t84 45l28 22v-120q-86 -70 -211 -70t-301 52
t-259 52q-83 1 -153 -25t-104 -52l-32 -27v111q41 34 122 64q82 30 172 30z" />
    <glyph glyph-name="notequal" unicode="&#x2260;" horiz-adv-x="1191" 
d="M1096 852h-385l-129 -315h514v-101h-555l-101 -243h-100l98 243h-344v101h385l129 315h-514v100h555l101 242h100l-98 -242h344v-100z" />
    <glyph glyph-name="lessequal" unicode="&#x2264;" horiz-adv-x="1191" 
d="M1096 166v-100h-1002v100h1002zM1096 1124v-75l-826 -334l826 -328v-76h-84l-918 367v65l918 381h84z" />
    <glyph glyph-name="greaterequal" unicode="&#x2265;" horiz-adv-x="1191" 
d="M1096 166v-100h-1002v100h1002zM94 311v76l821 328l-821 334v75h86l916 -381v-65l-916 -367h-86z" />
    <glyph glyph-name="lozenge" unicode="&#x25ca;" horiz-adv-x="1169" 
d="M594 1315l-350 -598l350 -598l350 598zM657 1434l420 -717l-420 -717h-129l-417 717l417 717h129z" />
    <glyph glyph-name="uniE000" unicode="&#xe000;" horiz-adv-x="2043" 
d="M1592 414q-77 0 -135 -30t-81 -75v-141q23 -43 81 -75t134 -32t134 32t81 75v141q-20 43 -78 74t-136 31zM1592 487q140 0 200 86v140q-66 86 -200 86t-199 -86v-140q59 -86 199 -86zM1591 -14q-119 0 -201 48t-110 109v174q39 86 156 134q-84 35 -138 104v188
q33 47 106 91q74 44 188 43q114 0 187 -43t105 -91v-188q-47 -67 -137 -104q115 -45 158 -134v-174q-31 -61 -113 -109t-201 -48zM430 633q78 -1 135 31t80 77v189q-21 45 -79 76t-136 30q-135 0 -215 -90v-205q23 -45 80 -77t135 -31zM1548 1434v-60l-1018 -1374h-65v59
l1020 1375h63zM429 559q-118 0 -200 48t-112 110v575q33 58 113 108t200 50q119 0 199 -47t108 -103v-57h-82q-21 55 -81 92t-141 37t-138 -32t-80 -74v-238q88 82 214 82t203 -44t105 -101v-256q-31 -55 -111 -103t-197 -47z" />
    <glyph glyph-name="uniE001" unicode="&#xe001;" horiz-adv-x="2564" 
d="M2163 463q-135 0 -215 -90v-205q23 -45 80 -77t135 -32t135 32t80 77v188q-20 45 -78 76t-137 31zM1509 860v-788h154v-72h-410v72h160v702l-162 -20v63l189 43h69zM2167 799q-80 0 -138 -32t-81 -75v-237q88 82 214 82t202 -44t106 -102v-256q-29 -55 -110 -102
q-80 -47 -198 -47t-200 48t-111 109v576q31 59 112 108t200 49t199 -46q80 -48 108 -103v-57h-80q-23 57 -83 93t-140 36zM1419 1434v-60l-1020 -1374h-63v59l1018 1375h65zM96 645h160v703l-162 -21v64l189 43h69v-789h154v-72h-410v72z" />
    <glyph glyph-name="NULL" horiz-adv-x="0" 
 />
    <glyph glyph-name="acute.case" horiz-adv-x="849" 
d="M551 1847v-61l-166 -242h-84v33l143 270h107z" />
    <glyph glyph-name="breve.case" horiz-adv-x="849" 
d="M690 1772v-101q-68 -141 -264 -141t-268 141v101h96v-72q12 -31 54 -61q42 -29 116 -29t116 30t54 60v72h96z" />
    <glyph glyph-name="caron.alt" horiz-adv-x="849" 
d="M496 1434v-70l-62 -260h-78v31l37 299h103z" />
    <glyph glyph-name="caron.case" horiz-adv-x="849" 
d="M698 1847v-32l-194 -271h-158l-194 271v32h79l193 -237l194 237h80z" />
    <glyph glyph-name="circumflex.case" horiz-adv-x="849" 
d="M698 1544h-80l-194 236l-193 -236h-79v33l194 270h158l194 -270v-33z" />
    <glyph glyph-name="dieresis.case" horiz-adv-x="849" 
d="M623 1751q57 0 75 -29v-100q-24 -29 -76 -29t-75 29v100q19 29 76 29zM231 1751q57 0 76 -29v-100q-23 -29 -76 -29t-75 29v100q18 29 75 29z" />
    <glyph glyph-name="dotaccent.case" horiz-adv-x="849" 
d="M424 1767q59 0 78 -34v-88q-16 -33 -76 -33t-78 33v88q17 34 76 34z" />
    <glyph glyph-name="eight.sups" horiz-adv-x="866" 
d="M432 987q-78 0 -136 -31t-79 -73v-142q23 -43 81 -75t134 -31q76 -1 134 31t81 75v142q-21 43 -79 73t-136 31zM432 1061q140 0 201 86v139q-66 86 -200 86t-200 -86v-139q59 -86 199 -86zM432 559q-119 0 -201 48t-110 110v174q39 86 155 133q-84 35 -137 104v189
q33 47 106 90t187 43t188 -43q73 -43 105 -90v-189q-47 -67 -137 -104q113 -45 157 -133v-174q-31 -61 -113 -109t-200 -49z" />
    <glyph glyph-name="eight.tf" horiz-adv-x="1187" 
d="M596 78q131 0 226 61t130 135v234q-66 127 -295 188l-67 17q-281 -61 -350 -205v-234q35 -74 130 -135t226 -61zM596 1358q-110 0 -190 -46t-121 -116v-211q53 -104 245 -156l78 -20q236 57 299 176v211q-41 70 -121 116t-190 46zM596 -27q-186 0 -303 83t-174 186v301
q41 72 105 122q65 50 202 93q-176 61 -256 194v285q56 90 162 157q106 66 264 66t264 -66t162 -157v-287q-74 -123 -256 -184q136 -45 200 -97t107 -126v-301q-49 -91 -148 -169q-57 -44 -143 -72t-186 -28z" />
    <glyph glyph-name="five.sups" horiz-adv-x="847" 
d="M719 1434v-84h-488v-281q83 68 201 68t194 -45t105 -103v-280q-31 -55 -111 -103t-200 -47q-119 0 -199 46t-110 104v65h75q23 -59 86 -97q64 -38 146 -38t141 31t80 75v211q-23 43 -80 75t-135 32q-125 0 -193 -86h-92v457h580z" />
    <glyph glyph-name="five.tf" horiz-adv-x="1187" 
d="M1022 1434v-107h-725v-510q121 121 299 121t291 -77t153 -175v-457q-40 -96 -158 -176t-288 -80t-288 80t-161 176v78h105q29 -94 122 -163q93 -68 217 -68t214 57t123 139v369q-33 80 -123 137t-209 58q-190 0 -297 -138h-113v736h838z" />
    <glyph glyph-name="four.sups" horiz-adv-x="847" 
d="M553 1350h-4l-377 -480h381v480zM647 1434v-564h137v-75h-137v-222h-94v222h-483v73l446 566h131z" />
    <glyph glyph-name="four.tf" horiz-adv-x="1187" 
d="M797 1327h-6l-582 -844h588v844zM913 1434v-951h207v-102h-207v-381h-116v381h-717v98l659 955h174z" />
    <glyph glyph-name="grave.case" horiz-adv-x="849" 
d="M549 1544h-84l-166 242v61h104l146 -270v-33z" />
    <glyph glyph-name="hungarumlaut.case" horiz-adv-x="849" 
d="M700 1847v-57l-125 -246h-75v33l106 270h94zM354 1847v-57l-123 -246h-77v33l106 270h94z" />
    <glyph glyph-name="i.TRK" horiz-adv-x="432" 
d="M274 1098v-1098h-116v1098h116zM215 1464q59 0 78 -34v-87q-17 -35 -77 -35t-77 35v87q17 34 76 34z" />
    <glyph glyph-name="macron.case" horiz-adv-x="849" 
d="M729 1692v-93h-606v93h606z" />
    <glyph glyph-name="nine.sups" horiz-adv-x="858" 
d="M424 961q135 0 215 92v215q-23 45 -80 77q-57 31 -135 31t-135 -32t-80 -76v-201q23 -43 81 -75t134 -31zM425 1450q118 0 200 -48t110 -110v-575q-31 -59 -111 -109t-200 -49q-119 0 -199 47t-108 103v57h80q23 -57 83 -93t141 -36t138 32t80 74v226q-92 -82 -216 -82
t-201 45t-105 102v266q29 54 109 102t199 48z" />
    <glyph glyph-name="nine.tf" horiz-adv-x="1187" 
d="M588 635q219 0 332 172v354q-35 82 -125 139q-90 58 -209 58t-209 -58t-123 -139v-334q33 -80 123 -136t211 -56zM587 1460q171 0 291 -82t160 -184v-956q-43 -102 -161 -184q-119 -81 -290 -81t-288 80t-160 176v78h105q26 -100 118 -166q92 -65 218 -65t215 57
q90 57 125 137v414q-133 -152 -353 -152q-161 0 -273 77t-155 175v420q43 96 160 176t288 80z" />
    <glyph glyph-name="one.sups" horiz-adv-x="604" 
d="M367 1434v-789h153v-72h-409v72h159v703l-161 -21v64l188 43h70z" />
    <glyph glyph-name="one.tf" horiz-adv-x="1187" 
d="M692 1434v-1336h361v-98h-856v98h374v1200l-376 -180v101l419 215h78z" />
    <glyph glyph-name="ring.case" horiz-adv-x="849" 
d="M425 1708q-87 0 -122 -53v-123q39 -53 122 -53t122 53v123q-35 53 -122 53zM425 1780q69 0 124 -30t76 -71v-172q-19 -41 -75 -71t-125 -29q-69 0 -124 30t-76 70v172q19 41 75 71t125 30z" />
    <glyph glyph-name="seven.sups" horiz-adv-x="731" 
d="M662 1434v-74l-392 -787h-73v64l362 709v4h-508v84h611z" />
    <glyph glyph-name="seven.tf" horiz-adv-x="1187" 
d="M1018 1434v-99l-606 -1335h-90v88l573 1239h-766v107h889z" />
    <glyph glyph-name="six.sups" horiz-adv-x="860" 
d="M434 1036q-137 0 -215 -92v-203q23 -45 80 -77t135 -31q78 0 136 32t79 76v189q-21 42 -79 74t-136 32zM437 1372q-81 0 -138 -32t-80 -74v-238q93 82 217 82t200 -44t105 -101v-256q-29 -55 -109 -103t-198 -47q-117 0 -200 49t-111 109v575q29 58 111 108t201 50
q118 0 198 -47t108 -103v-57h-79q-23 57 -83 93q-61 36 -142 36z" />
    <glyph glyph-name="six.tf" horiz-adv-x="1187" 
d="M608 791q-114 -1 -200 -49t-136 -121v-349q33 -82 123 -139t209 -57t209 58t123 138v326q-33 80 -123 136t-205 57zM610 1358q-125 0 -215 -58t-123 -137v-420q133 147 351 148q161 0 273 -76t155 -176v-410q-41 -96 -159 -176t-289 -80t-291 82t-160 185v956
q43 102 161 183q119 81 290 81t288 -80t160 -176v-78h-105q-27 100 -119 166t-217 66z" />
    <glyph glyph-name="three.sups" horiz-adv-x="858" 
d="M421 1450q115 0 189 -44t103 -95v-174q-39 -74 -154 -109q127 -33 176 -133v-178q-31 -59 -113 -109t-200 -49q-119 0 -202 47t-111 103v65h77q20 -55 84 -95t146 -40q84 0 143 31t80 75v134q-21 45 -79 75t-136 31h-94v78h84q72 0 126 28t76 60v133q-60 86 -204 86
t-209 -119h-74v66q31 47 105 90t187 43z" />
    <glyph glyph-name="three.tf" horiz-adv-x="1187" 
d="M558 1460q165 0 276 -74t153 -157v-283q-27 -49 -90 -103t-154 -83q102 -29 176 -93q73 -65 103 -137v-290q-43 -100 -163 -184t-290 -83q-169 0 -289 81t-161 175v78h104q31 -98 125 -165q94 -66 217 -66t213 57t123 139v236q-33 82 -123 140t-209 59h-139v96h121
q115 0 197 50t120 114v229q-36 62 -116 112t-200 50t-205 -60t-114 -137h-104v78q43 77 153 149t276 72z" />
    <glyph glyph-name="tilde.case" horiz-adv-x="849" 
d="M285 1755q69 0 151 -56t123 -57q70 0 92 64v37h82v-72q-43 -115 -168 -115q-67 0 -149 58t-123 57q-63 0 -94 -63v-39h-82v71q45 115 168 115z" />
    <glyph glyph-name="two.sups" horiz-adv-x="837" 
d="M414 1450q116 0 198 -49t113 -113v-153q-39 -84 -205 -189l-139 -88q-152 -96 -182 -164v-37h538v-84h-631v142q33 59 75 101t153 112l135 86q135 88 158 145v107q-23 44 -79 74t-140 30t-144 -40t-78 -87h-82v60q31 55 112 101t198 46z" />
    <glyph glyph-name="two.tf" horiz-adv-x="1187" 
d="M581 1460q171 0 289 -82t162 -182v-283q-30 -70 -96 -130t-197 -144l-200 -125q-129 -82 -195 -142t-90 -120v-148h797v-104h-918v287q49 86 111 146t229 167l197 125q209 135 241 221v217q-33 80 -123 137q-90 58 -212 58t-216 -65t-122 -167h-105v78q43 96 160 176
t288 80z" />
    <glyph glyph-name="uni0326.alt" horiz-adv-x="0" 
d="M-426 1382q63 0 76 -32v-70q-14 -33 -76 -33q-25 0 -47.5 10.5t-26.5 22.5v180q6 20 34 41t67 21h39v-56h-29q-31 0 -37 -16v-68z" />
    <glyph glyph-name="zero.sups" horiz-adv-x="870" 
d="M436 1372q-78 0 -136 -31t-81 -75v-525q23 -45 81 -75t136 -31q78 0 135 31t78 75v525q-19 46 -77 76t-136 30zM435 1450q118 0 201 -49t112 -109v-575q-29 -59 -112 -109t-201 -49q-118 0 -201 49t-111 109v575q29 58 111 108t201 50z" />
    <glyph glyph-name="zero.tf" horiz-adv-x="1187" 
d="M594 1358q-119 0 -209 -58t-123 -137v-891q33 -82 123 -139t210 -57t209 57t122 139v891q-33 79 -123 137t-209 58zM594 1460q172 0 292 -81t161 -183v-956q-41 -102 -161 -184t-292 -83q-172 0 -291 82t-162 185v956q43 102 162 183t291 81z" />
    </font>
</defs>
</svg>
