<?xml version="1.0" standalone="no"?>
<!DOCTYPE svg PUBLIC "-//W3C//DTD SVG 1.1//EN" "http://www.w3.org/Graphics/SVG/1.1/DTD/svg11.dtd" >
<svg xmlns="http://www.w3.org/2000/svg">
<metadata>
Created by FontPrep 20130207 at Thu Sep  1 11:04:34 2016
 By MkTyrtle
Copyright (c) 2015 by Cadillac and Letters from Sweden. All rights reserved.
</metadata>
<defs>
<font id="4b97e5155830a0785dc3b8ad2ad18c19" horiz-adv-x='1024' >
  <font-face 
    font-family="CadillacSansA-Medium"
    font-weight="500"
    font-stretch="normal"
    units-per-em="2048"
    panose-1="0 0 6 0 0 0 0 0 0 0"
    ascent="1536"
    descent="-512"
    x-height="1108"
    cap-height="1434"
    bbox="-598 -463 2540 1858"
    underline-thickness="102"
    underline-position="-102"
    unicode-range="U+000D-FB02"
  />
<missing-glyph horiz-adv-x="1232" 
d="M901 1470h-571v-1507h571v1507zM1096 1638v-1843h-961v1843h961z" />
    <glyph glyph-name="fi" unicode="fi" horiz-adv-x="1204" 
d="M1083 1108v-1108h-256v1108h256zM500 1485q134 0 196 -21v-178q-43 6 -82 6q-152 0 -192 -84v-100h237v-188h-237v-920h-254v920h-123v188h123v186q30 78 114 134t218 57zM954 1511q109 0 140 -69v-121q-31 -70 -140 -70t-139 70v121q30 69 139 69z" />
    <glyph glyph-name="fl" unicode="fl" horiz-adv-x="1189" 
d="M1075 1434v-1434h-256v1434h256zM500 1485q134 0 196 -21v-178q-43 6 -82 6q-152 0 -192 -84v-100h237v-188h-237v-920h-254v920h-123v188h123v186q30 78 114 134t218 57z" />
    <glyph glyph-name="f_f" unicode="ff" horiz-adv-x="1341" 
d="M1247 1292q-139 0 -190 -84v-100h237v-188h-237v-920h-254v920h-381v-920h-254v920h-123v188h123v186q31 78 115 134t218 56t195 -20v-178q-43 6 -82 6q-141 0 -192 -84v-100h381v186q76 190 352 191q115 0 176 -21v-178q-43 6 -84 6z" />
    <glyph glyph-name=".notdef" horiz-adv-x="1232" 
d="M901 1470h-571v-1507h571v1507zM1096 1638v-1843h-961v1843h961z" />
    <glyph glyph-name=".null" horiz-adv-x="0" 
 />
    <glyph glyph-name="nonmarkingreturn" horiz-adv-x="681" 
 />
    <glyph glyph-name="CR" unicode="&#xd;" horiz-adv-x="401" 
 />
    <glyph glyph-name="CR" horiz-adv-x="401" 
 />
    <glyph glyph-name="space" unicode=" " horiz-adv-x="419" 
 />
    <glyph glyph-name="exclam" unicode="!" horiz-adv-x="571" 
d="M288 -20q-106 0 -141 69v141q31 70 140 70t139 -70v-141q-32 -69 -138 -69zM143 1434h287v-269l-33 -794h-221l-33 794v269z" />
    <glyph glyph-name="quotedbl" unicode="&#x22;" horiz-adv-x="763" 
d="M688 1434v-217l-33 -277h-157l-33 274v220h223zM299 1434v-217l-33 -277h-160l-30 274v220h223z" />
    <glyph glyph-name="numbersign" unicode="#" horiz-adv-x="1173" 
d="M709 582l45 272h-291l-43 -272h289zM1114 854h-160l-43 -272h129v-183h-159l-64 -399h-180v137l43 262h-289l-65 -399h-179v137l41 262h-129v183h160l43 272h-129v184h160l63 396h179v-138l-41 -258h288l64 396h180v-138l-43 -258h131v-184z" />
    <glyph glyph-name="dollar" unicode="$" horiz-adv-x="1206" 
d="M709 -190h-211v167q-164 21 -264 99t-144 166v135h238q22 -84 94 -138q72 -55 171 -55t160 39q60 39 87 94v166q-41 86 -201 125l-113 29q-184 47 -268 99t-139 138v343q43 77 139 147t240 92v168h211v-168q143 -22 239 -92t137 -147v-134h-235q-23 74 -86 121
q-64 47 -152 47q-88 1 -145 -31t-82 -77v-172q16 -35 52 -58t124 -47l113 -28q199 -54 292 -116t138 -142v-336q-121 -225 -395 -267v-167z" />
    <glyph glyph-name="percent" unicode="%" horiz-adv-x="1841" 
d="M1411 590q-53 0 -94 -22t-55 -54v-321q14 -31 55 -53t94 -21q113 0 152 74v321q-39 76 -152 76zM1412 727q132 0 219 -55t120 -129v-379q-33 -72 -120 -126t-219 -54t-219 54t-118 126v379q31 74 118 129t219 55zM428 1315q-53 -1 -94 -21t-55 -53v-321q14 -31 55 -53
t94 -21q113 0 152 74v321q-37 74 -152 74zM1475 1434v-111l-988 -1323h-116v111l985 1323h119zM429 1452q132 0 219 -54t118 -128v-379q-31 -74 -118 -128t-219 -54t-219 54t-118 128v379q31 74 118 128t219 54z" />
    <glyph glyph-name="ampersand" unicode="&#x26;" horiz-adv-x="1386" 
d="M643 168q166 0 268 113l-376 362q-59 -14 -107 -48t-66 -77v-215q29 -61 107 -98t174 -37zM1354 0h-150l-137 133q-168 -162 -430 -162q-211 0 -345 82t-183 193v315q80 162 274 230q-135 127 -168 184v262q43 80 160 152q117 71 293 71t290 -70t164 -153v-117h-229
q-19 58 -77 102t-148 44q-131 0 -199 -82v-148q18 -39 100 -121l396 -378v239h223v-454l166 -160v-162z" />
    <glyph glyph-name="quotesingle" unicode="'" horiz-adv-x="372" 
d="M299 1434v-217l-33 -277h-160l-30 274v220h223z" />
    <glyph glyph-name="parenleft" unicode="(" horiz-adv-x="745" 
d="M674 1434v-187h-19q-197 0 -256 -205v-991q59 -209 256 -209h19v-186h-19q-215 0 -351 98t-187 236v1110q51 137 187 235t351 99h19z" />
    <glyph glyph-name="parenright" unicode=")" horiz-adv-x="745" 
d="M88 1434q217 0 353 -98t188 -236v-1110q-51 -138 -187 -236t-354 -98h-18v186h18q106 0 170 60t88 149v991q-59 205 -258 205h-18v187h18z" />
    <glyph glyph-name="asterisk" unicode="*" horiz-adv-x="1009" 
d="M862 1335q40 -33 59 -95t9 -110l-324 -59l228 -235q-18 -43 -70 -85t-105 -42l-153 284l-154 -284q-51 0 -104 41t-72 86l227 235l-321 59q-12 43 10 110t58 95l290 -139l-43 320q47 26 109 26t106 -26l-43 -322z" />
    <glyph glyph-name="plus" unicode="+" horiz-adv-x="1198" 
d="M1122 788v-202h-420v-422h-206v422h-418v202h418v422h206v-422h420z" />
    <glyph glyph-name="comma" unicode="," horiz-adv-x="425" 
d="M214 260q108 0 138 -70v-309q-14 -43 -65 -86t-123 -43h-68v111h54q43 0 61 41v69q-51 0 -88 22t-49 48v147q32 70 140 70z" />
    <glyph glyph-name="hyphen" unicode="-" horiz-adv-x="747" 
d="M672 788v-202h-594v202h594z" />
    <glyph glyph-name="period" unicode="." horiz-adv-x="425" 
d="M214 260q108 0 138 -70v-141q-33 -70 -141 -69q-51 0 -88 22t-49 47v141q32 70 140 70z" />
    <glyph glyph-name="slash" unicode="/" horiz-adv-x="825" 
d="M735 1497v-137l-432 -1585h-215v137l432 1585h215z" />
    <glyph glyph-name="zero" unicode="0" horiz-adv-x="1206" 
d="M602 1262q-82 0 -145 -38t-86 -91v-832q23 -53 86 -90t145 -37t146 37q63 37 86 90v832q-23 53 -86 91q-64 38 -146 38zM604 1462q190 0 318 -84t174 -186v-950q-45 -102 -173 -186q-129 -84 -319 -85q-190 0 -319 84t-176 187v950q47 102 176 186t319 84z" />
    <glyph glyph-name="one" unicode="1" horiz-adv-x="927" 
d="M623 1434v-1254h219v-180h-713v180h231v979l-233 -98v199l319 174h177z" />
    <glyph glyph-name="two" unicode="2" horiz-adv-x="1159" 
d="M571 1462q189 0 317 -84t173 -186v-297q-31 -76 -95 -138t-227 -163l-151 -94q-201 -125 -234 -203v-84h719v-213h-981v360q43 84 111 146t215 156l164 100q195 121 217 201v172q-25 51 -86 89t-149 38t-156 -46q-66 -46 -82 -135h-232v142q47 87 168 163t309 76z" />
    <glyph glyph-name="three" unicode="3" horiz-adv-x="1167" 
d="M567 1462q184 0 305 -80t168 -170v-297q-24 -39 -80 -86t-133 -77q83 -33 145 -88t87 -111v-311q-45 -100 -174 -186t-317 -85q-188 0 -315 80q-128 80 -169 162v141h233q16 -80 85 -130t158 -50t152 37q62 37 85 90v207q-19 57 -83 97t-147 40h-164v195h152q78 0 138 36
t85 78v199q-66 109 -213 109q-98 0 -157 -50t-72 -112h-234v141q47 77 164 149t301 72z" />
    <glyph glyph-name="four" unicode="4" horiz-adv-x="1196" 
d="M733 1202h-6l-418 -676h424v676zM985 1434v-908h170v-204h-170v-322h-252v322h-678v196l566 916h364z" />
    <glyph glyph-name="five" unicode="5" horiz-adv-x="1153" 
d="M1040 1434v-215h-673v-385q115 100 273 100t265 -70q106 -70 148 -159v-492q-45 -88 -167 -165t-307 -77t-309 77t-172 165v141h234q14 -74 82 -127t158 -53t152 37t87 90v307q-25 55 -87 93t-144 38q-137 0 -213 -100h-240v795h913z" />
    <glyph glyph-name="six" unicode="6" horiz-adv-x="1183" 
d="M600 709q-131 0 -227 -86v-322q25 -53 87 -90t145 -37t147 38q63 38 84 89v285q-20 51 -85 87t-151 36zM614 1262q-90 0 -153 -38t-88 -91v-332q123 102 288 102q165 1 271 -67t147 -162v-461q-45 -84 -167 -163t-309 -79t-316 84t-176 187v950q49 104 177 187t315 83
t308 -76t168 -163v-142h-233q-14 85 -78 133t-154 48z" />
    <glyph glyph-name="seven" unicode="7" horiz-adv-x="1026" 
d="M973 1434v-193l-549 -1241h-219v158l504 1063h-676v213h940z" />
    <glyph glyph-name="eight" unicode="8" horiz-adv-x="1200" 
d="M601 174q89 0 154 39q64 39 89 90v217q-47 88 -219 131l-45 11q-88 -18 -148 -62t-74 -80v-217q20 -49 87 -89t156 -40zM389 1157v-186q41 -68 168 -101l64 -16q67 14 121 49t69 68v186q-66 104 -211 105q-74 0 -129 -32t-82 -73zM603 -29q-204 0 -327 84t-180 187v344
q55 102 213 166q-111 57 -170 153v330q55 88 171 158q116 69 291 69t291 -70t169 -157v-330q-49 -80 -170 -135q143 -66 213 -184v-344q-49 -98 -173 -184t-328 -87z" />
    <glyph glyph-name="nine" unicode="9" horiz-adv-x="1183" 
d="M582 709q133 0 229 86v338q-25 53 -87 90t-145 37t-147 -38t-84 -89v-304q20 -49 85 -85t149 -35zM580 1462q186 0 316 -84t177 -186v-950q-49 -104 -177 -188t-316 -83q-188 0 -310 77t-166 163v141h232q16 -84 80 -132t154 -48t153 38t88 91v315q-123 -102 -288 -102
t-271 68t-148 161v478q46 85 168 163t308 78z" />
    <glyph glyph-name="colon" unicode=":" horiz-adv-x="456" 
d="M227 260q55 0 92 -20t48 -50v-141q-9 -27 -47 -49t-93 -20q-102 0 -139 69v141q35 70 139 70zM227 1036q55 0 92 -22t48 -49v-140q-9 -27 -47 -49t-93 -22q-100 0 -139 71v140q35 71 139 71z" />
    <glyph glyph-name="semicolon" unicode=";" horiz-adv-x="456" 
d="M227 260q55 0 92 -22t48 -48v-309q-15 -43 -65 -86t-122 -43h-67v111h53q39 0 61 41v69q-102 0 -139 70v147q35 70 139 70zM227 1036q55 0 92 -20t48 -49v-142q-9 -27 -47 -49t-93 -20q-102 0 -139 69v142q35 69 139 69z" />
    <glyph glyph-name="less" unicode="&#x3c;" horiz-adv-x="1198" 
d="M1139 1108v-141l-801 -359l801 -358v-141h-185l-897 409v180l897 410h185z" />
    <glyph glyph-name="equal" unicode="=" horiz-adv-x="1198" 
d="M1122 573v-202h-1044v202h1044zM1122 1006v-203h-1044v203h1044z" />
    <glyph glyph-name="greater" unicode="&#x3e;" horiz-adv-x="1198" 
d="M57 109v141l801 358l-801 359v141h187l895 -410v-180l-895 -409h-187z" />
    <glyph glyph-name="question" unicode="?" horiz-adv-x="1095" 
d="M454 -20q-54 0 -92 22t-49 47v141q31 70 140 70q55 0 92 -20t47 -50v-141q-10 -27 -47 -48t-91 -21zM322 379v229l305 213q121 86 143 135v183q-76 111 -231 110q-92 0 -158 -42t-88 -103h-234v139q59 86 177 153q118 66 308 66q188 0 310 -76t180 -172v-348
q-37 -68 -162 -155l-290 -205v-127h-260z" />
    <glyph glyph-name="at" unicode="@" horiz-adv-x="1904" 
d="M938 242q139 0 217 92v461q-78 90 -219 90q-76 0 -127 -31t-72 -66v-450q62 -96 201 -96zM961 1462q141 0 271 -36q224 -62 378 -206t205 -288v-715q-94 -152 -320 -151q-197 0 -301 137q-125 -133 -320 -133q-141 0 -236 72t-130 155v534q37 84 127 156q91 72 247 72
t273 -117v88h225v-754q35 -70 124 -70t138 66v627q-61 137 -207 258q-81 68 -206 111t-273 43q-231 0 -412 -110t-270 -308v-653q90 -195 272 -308q182 -112 401 -112q218 0 388 100l88 -121q-213 -129 -485 -129t-505 142q-232 142 -331 387v735q100 244 338 386t521 142z
" />
    <glyph glyph-name="A" unicode="A" horiz-adv-x="1269" 
d="M440 575h369l-180 642h-6zM1214 0h-243l-103 362h-489l-103 -362h-221v158l389 1276h379l391 -1276v-158z" />
    <glyph glyph-name="B" unicode="B" horiz-adv-x="1224" 
d="M670 647h-264v-438h249q162 0 228 119v207q-29 49 -87 81t-126 31zM406 1225v-385h249q131 0 201 110v158q-63 117 -213 117h-237zM715 0h-584v1434h574q139 0 243 -70t160 -172v-281q-60 -102 -162 -155q125 -51 191 -160v-352q-55 -100 -163 -172t-259 -72z" />
    <glyph glyph-name="C" unicode="C" horiz-adv-x="1241" 
d="M640 1462q212 0 340 -89t183 -204v-135h-235q-27 94 -99.5 154.5t-176 60.5t-171 -44t-98.5 -109v-758q31 -66 98.5 -110t171 -44t176 60.5t99.5 154.5h235v-135q-55 -115 -183 -204t-340 -89t-344 93.5t-187 218.5v868q55 125 187 218t344 93z" />
    <glyph glyph-name="D" unicode="D" horiz-adv-x="1286" 
d="M645 1223h-239v-1012h239q96 0 164 39t92 102v729q-25 63 -92 103q-68 39 -164 39zM696 1434q186 0 308 -82t172 -201v-868q-51 -119 -172 -201t-308 -82h-565v1434h565z" />
    <glyph glyph-name="E" unicode="E" horiz-adv-x="1101" 
d="M1001 1434v-213h-595v-379h555v-213h-555v-416h610v-213h-885v1434h870z" />
    <glyph glyph-name="F" unicode="F" horiz-adv-x="1054" 
d="M979 1434v-213h-573v-390h544v-213h-544v-618h-275v1434h848z" />
    <glyph glyph-name="G" unicode="G" horiz-adv-x="1290" 
d="M652.5 1249q-103.5 0 -171 -44t-98.5 -109v-756q27 -66 96.5 -110t165.5 -44q190 0 262 148v239h-243v209h499v-782h-221v109q-127 -137 -330.5 -137.5t-325.5 94t-177 219.5v866q55 125 187 218t344 93t340 -89t183 -204v-135h-235q-27 94 -99.5 154.5t-176 60.5z" />
    <glyph glyph-name="H" unicode="H" horiz-adv-x="1335" 
d="M1204 1434v-1434h-274v633h-524v-633h-275v1434h275v-588h524v588h274z" />
    <glyph glyph-name="I" unicode="I" horiz-adv-x="536" 
d="M406 1434v-1434h-275v1434h275z" />
    <glyph glyph-name="J" unicode="J" horiz-adv-x="792" 
d="M668 1434v-1149q-135 -289 -514 -289q-63 0 -113 4v209h92q201 0 260 143v1082h275z" />
    <glyph glyph-name="K" unicode="K" horiz-adv-x="1245" 
d="M1184 0h-215l-416 651l-147 -159v-492h-275v1434h275v-607l544 607h178v-158l-395 -428l451 -690v-158z" />
    <glyph glyph-name="L" unicode="L" horiz-adv-x="935" 
d="M406 1434v-1221h483v-213h-758v1434h275z" />
    <glyph glyph-name="M" unicode="M" horiz-adv-x="1642" 
d="M1511 1434v-1434h-258v1100h-6l-340 -787h-172l-342 787h-6v-1100h-256v1434h373l321 -746h6l312 746h368z" />
    <glyph glyph-name="N" unicode="N" horiz-adv-x="1361" 
d="M1231 1434v-1434h-322l-516 1040h-6v-1040h-256v1434h324l514 -1041h6v1041h256z" />
    <glyph glyph-name="O" unicode="O" horiz-adv-x="1282" 
d="M641 1249q-96 0 -163 -44t-95 -109v-756q29 -66 95 -110t163 -44q96 0 163 44t95 110v756q-29 66 -95 110t-163 43zM641 1462q213 0 345 -93t188 -218v-866q-56 -125 -188 -219t-345 -94t-345 94t-187 219v866q55 125 187 218t345 93z" />
    <glyph glyph-name="P" unicode="P" horiz-adv-x="1196" 
d="M633 1223h-227v-473h227q158 0 219 120v232q-65 121 -219 121zM696 1434q133 0 245 -64t177 -178v-410q-59 -106 -169 -175t-253 -68h-290v-539h-275v1434h565z" />
    <glyph glyph-name="Q" unicode="Q" horiz-adv-x="1282" 
d="M641 186q96 0 163 44t95 110v756q-29 66 -95 110t-163 43q-96 0 -163 -44t-95 -109v-756q29 -66 95 -110t163 -44zM1055 -111h127v-192h-148q-118 0 -234 80t-163 194q-211 1 -342 95t-186 219v866q55 125 187 218t345 93t345 -93t188 -218v-866q-88 -199 -300 -275
q30 -55 84 -88t97 -33z" />
    <glyph glyph-name="R" unicode="R" horiz-adv-x="1232" 
d="M406 1223v-439h239q156 0 221 121v197q-61 121 -221 121h-239zM1151 0h-217l-350 582h-178v-582h-275v1434h576q133 0 244.5 -64.5t174.5 -177.5v-365q-88 -162 -264 -221l289 -448v-158z" />
    <glyph glyph-name="S" unicode="S" horiz-adv-x="1210" 
d="M602.5 1462q188.5 0 313 -76.5t176.5 -168.5v-136h-236q-57 168 -258 168q-78 0 -137.5 -32.5t-83.5 -77.5v-168q18 -35 55 -57.5t127 -47.5l117 -28q199 -51 293 -113.5t141 -144.5v-336q-52 -91 -158 -172q-134 -101 -348.5 -101t-341.5 84t-180 187v137h237
q23 -84 96.5 -138.5t175 -54.5t165 40t90.5 93v162q-45 86 -207 127l-115 29q-186 45 -270 96t-143 139v345q55 94 179 169.5t312.5 75.5z" />
    <glyph glyph-name="T" unicode="T" horiz-adv-x="1101" 
d="M1051 1434v-213h-363v-1221h-274v1221h-363v213h1000z" />
    <glyph glyph-name="U" unicode="U" horiz-adv-x="1312" 
d="M1188 1434v-1149q-56 -127 -188 -220t-345 -93t-344 92q-131 94 -186 221v1149h274v-1090q27 -66 94 -110t162 -44q188 0 258 154v1090h275z" />
    <glyph glyph-name="V" unicode="V" horiz-adv-x="1277" 
d="M1223 1434v-158l-398 -1276h-374l-394 1276v158h248l336 -1178h6l338 1178h238z" />
    <glyph glyph-name="W" unicode="W" horiz-adv-x="1867" 
d="M1800 1434v-158l-258 -1276h-364l-246 1001h-6l-244 -1001h-358l-256 1276v158h251l211 -1145h7l272 1145h256l276 -1145h7l208 1145h244z" />
    <glyph glyph-name="X" unicode="X" horiz-adv-x="1212" 
d="M1120 1434v-158l-332 -543l345 -575v-158h-234l-297 553h-6l-303 -553h-215v158l346 573l-332 545v158h232l288 -529h6l289 529h213z" />
    <glyph glyph-name="Y" unicode="Y" horiz-adv-x="1171" 
d="M1110 1434v-158l-391 -690v-586h-277v610l-381 666v158h224l305 -578h6l301 578h213z" />
    <glyph glyph-name="Z" unicode="Z" horiz-adv-x="1146" 
d="M1065 1434v-181l-662 -1040h662v-213h-985v180l659 1041h-647v213h973z" />
    <glyph glyph-name="bracketleft" unicode="[" horiz-adv-x="751" 
d="M666 1434v-187h-256v-1405h256v-186h-531v1778h531z" />
    <glyph glyph-name="backslash" unicode="\" horiz-adv-x="825" 
d="M735 -225h-215l-432 1585v137h215l432 -1585v-137z" />
    <glyph glyph-name="bracketright" unicode="]" horiz-adv-x="751" 
d="M616 1434v-1778h-530v186h256v1405h-256v187h530z" />
    <glyph glyph-name="asciicircum" unicode="^" horiz-adv-x="1040" 
d="M952 700h-168l-249 484h-35l-250 -484h-162v148l309 586h246l309 -584v-150z" />
    <glyph glyph-name="underscore" unicode="_" horiz-adv-x="1046" 
d="M1057 -121v-166h-1067v166h1067z" />
    <glyph glyph-name="grave" unicode="`" 
d="M637 1241h-188l-166 217v113h235l119 -299v-31z" />
    <glyph glyph-name="a" unicode="a" horiz-adv-x="1128" 
d="M546 156q142 0 222 100v236h-236q-131 0 -192 -78v-172q64 -86 206 -86zM549 1137q188 0 307 -83t166 -192v-862h-246v88q-121 -117 -311 -117q-111 0 -198 35t-122 69t-55 66v348q31 55 90 99q110 80 283 82h305v141q-25 55 -82 91t-137 36q-156 0 -219 -131h-217v123
q153 207 436 207z" />
    <glyph glyph-name="b" unicode="b" horiz-adv-x="1136" 
d="M584 932q-141 0 -217 -86v-584q78 -86 217 -86q78 0 128 30t72 70v555q-22 39 -72 70t-128 31zM649 1133q166 0 259 -75t132 -167v-674q-39 -92 -132 -167t-261 -75t-289 113v-88h-245v1434h254v-408q116 107 282 107z" />
    <glyph glyph-name="c" unicode="c" horiz-adv-x="1097" 
d="M566 1137q187 0 302 -78t158 -166v-123h-217q-70 168 -240 168q-80 0 -136 -37t-83 -90v-514q25 -53 82 -90t137 -37q170 0 240 166h217v-121q-43 -88 -157.5 -166t-302 -78t-305.5 83t-165 192v616q47 109 165 192t305 83z" />
    <glyph glyph-name="d" unicode="d" horiz-adv-x="1136" 
d="M555 176q139 0 215 86v584q-76 86 -217 86q-78 0 -128 -31t-73 -70v-555q23 -40 74 -70t129 -30zM770 1434h254v-1434h-246v88q-117 -113 -287 -113t-263 75t-132 167v674q39 92 132 167t259 75t283 -107v408z" />
    <glyph glyph-name="e" unicode="e" horiz-adv-x="1116" 
d="M569 940q-160 0 -219 -129v-141h438v141q-20 55 -78.5 92t-140.5 37zM566 1137q187 0 302 -78t158 -166v-401h-676v-195q25 -55 82 -92t137 -37q170 0 242 166h215v-119q-43 -88 -157.5 -166t-302 -78t-305.5 83t-165 192v616q47 109 165 192t305 83z" />
    <glyph glyph-name="f" unicode="f" horiz-adv-x="706" 
d="M500 1485q134 0 196 -21v-178q-43 6 -82 6q-152 0 -192 -84v-100h237v-188h-237v-920h-254v920h-123v188h123v186q30 78 114 134t218 57z" />
    <glyph glyph-name="g" unicode="g" horiz-adv-x="1136" 
d="M555 252q139 0 215 88v504q-76 88 -217 88q-78 0 -129 -32t-74 -69v-479q23 -36 75 -68t130 -32zM778 1108h246v-1214q-47 -106 -165 -184t-305 -79q-187 0 -303 73t-163 153v112h221q76 -139 240 -139t221 115v213q-123 -104 -284 -104t-256 74q-95 75 -134 165v598
q39 92 134 167t260 75t288 -115v90z" />
    <glyph glyph-name="h" unicode="h" horiz-adv-x="1150" 
d="M654 1133q161 0 255 -75t133 -167v-891h-256v831q-24 37 -74 69t-128 32q-141 0 -217 -86v-846h-254v1434h254v-406q126 105 287 105z" />
    <glyph glyph-name="i" unicode="i" horiz-adv-x="497" 
d="M377 1108v-1108h-256v1108h256zM248 1511q109 0 139 -69v-121q-31 -70 -139 -70t-139 70v121q30 69 139 69z" />
    <glyph glyph-name="j" unicode="j" horiz-adv-x="481" 
d="M367 1108v-1204q-43 -106 -162 -190t-311 -83v197q82 0 139 40t80 101v1139h254zM242 1511q109 0 139 -69v-121q-31 -70 -139 -70t-140 70v121q31 69 140 69z" />
    <glyph glyph-name="k" unicode="k" horiz-adv-x="1085" 
d="M1047 0h-199l-334 483l-147 -149v-334h-254v1434h254v-801l456 475h166v-145l-303 -308l361 -512v-143z" />
    <glyph glyph-name="l" unicode="l" horiz-adv-x="483" 
d="M369 1434v-1434h-256v1434h256z" />
    <glyph glyph-name="m" unicode="m" horiz-adv-x="1681" 
d="M1229 1133q145 0 228 -72t116 -162v-899h-254v844q-47 88 -165 88t-183 -78v-854h-254v844q-47 88 -165 88t-185 -78v-854h-254v1108h237v-88q108 113 288 113t286 -144q117 144 305 144z" />
    <glyph glyph-name="n" unicode="n" horiz-adv-x="1146" 
d="M645 1133q168 0 262 -75t131 -167v-891h-254v831q-23 39 -72.5 70t-127.5 31q-141 0 -217 -84v-848h-254v1108h237v-94q127 119 295 119z" />
    <glyph glyph-name="o" unicode="o" horiz-adv-x="1138" 
d="M569 938q-80 0 -137 -37t-82 -90v-514q23 -53 80 -90t139 -37t140 37q57 37 79 90v514q-23 53 -80 90q-59 37 -139 37zM570 1137q188 0 308 -83t164 -192v-616q-46 -109 -164 -192t-308 -83t-308 83q-119 83 -166 192v616q47 109 166 192t308 83z" />
    <glyph glyph-name="p" unicode="p" horiz-adv-x="1136" 
d="M584 932q-141 0 -217 -86v-584q78 -86 217 -86q78 0 128 30t72 70v555q-22 39 -72 70t-128 31zM646 1133q169 0 262 -75t132 -167v-674q-39 -92 -132 -167t-259 -75t-282 107v-422h-254v1448h245v-90q119 115 288 115z" />
    <glyph glyph-name="q" unicode="q" horiz-adv-x="1136" 
d="M555 176q139 0 215 86v584q-76 86 -217 86q-78 0 -128 -31t-73 -70v-555q23 -40 74 -70t129 -30zM778 1108h246v-1448h-254v420q-119 -104 -284 -104t-258 74q-93 75 -132 167v674q39 92 132 167t264 75t286 -115v90z" />
    <glyph glyph-name="r" unicode="r" horiz-adv-x="757" 
d="M668 1110q20 0 43 -2v-234q-23 2 -49 3q-209 0 -295 -99v-778h-254v1108h237v-150q107 152 318 152z" />
    <glyph glyph-name="s" unicode="s" horiz-adv-x="1021" 
d="M533.5 1137q140.5 0 245 -60.5t149.5 -128.5v-114h-215q-53 113 -203 112q-121 0 -180 -74v-120q31 -49 159 -82l105 -23q283 -61 352 -180v-289q-31 -45 -73 -84t-142 -81t-221 -42t-221.5 42t-142.5 81t-72 84v115h217q68 -131 213 -131t207 92v111q-35 61 -162 86
l-109 22q-268 57 -348 182v293q27 39 69 76t137 75t235.5 38z" />
    <glyph glyph-name="t" unicode="t" horiz-adv-x="735" 
d="M614 174q53 0 82 4v-180q-82 -20 -206 -20t-207.5 56t-114.5 134v752h-123v188h123v231h254v-231h237v-188h-237v-664q57 -82 192 -82z" />
    <glyph glyph-name="u" unicode="u" horiz-adv-x="1134" 
d="M768 1108h254v-1108h-238v92q-121 -117 -288 -117q-168 0 -258 74t-132 164v895h254v-832q62 -100 198 -100t210 86v846z" />
    <glyph glyph-name="v" unicode="v" horiz-adv-x="1083" 
d="M1016 1108v-145l-318 -963h-315l-317 963v145h229l254 -848h6l250 848h211z" />
    <glyph glyph-name="w" unicode="w" horiz-adv-x="1615" 
d="M1554 1108v-145l-251 -963h-289l-195 737h-6l-199 -737h-292l-252 963v145h229l188 -834h7l215 834h229l213 -834h6l186 834h211z" />
    <glyph glyph-name="x" unicode="x" horiz-adv-x="1034" 
d="M948 1108v-145l-256 -396l273 -424v-143h-213l-232 420h-6l-240 -420h-206v143l272 424l-254 396v145h211l217 -395h6l223 395h205z" />
    <glyph glyph-name="y" unicode="y" horiz-adv-x="1064" 
d="M1004 1108v-143l-392 -1164q-117 -158 -372 -157q-104 0 -158 16v182q49 -4 84 -4q164 0 231 80l23 84l-354 961v145h229l250 -789h6l237 789h216z" />
    <glyph glyph-name="z" unicode="z" horiz-adv-x="985" 
d="M926 1108v-166l-578 -752h578v-190h-867v176l564 742h-547v190h850z" />
    <glyph glyph-name="braceleft" unicode="{" horiz-adv-x="784" 
d="M719 -176v-186q-217 0 -353 99t-188 236v363q-18 106 -131 106v187q113 0 131 106v365q52 137 188 235t353 99v-187q-207 0 -258 -213v-336q-35 -98 -133 -161q98 -63 133 -162v-340q51 -211 258 -211z" />
    <glyph glyph-name="bar" unicode="|" horiz-adv-x="665" 
d="M469 1618v-1884h-272v1884h272z" />
    <glyph glyph-name="braceright" unicode="}" horiz-adv-x="784" 
d="M737 629v-187q-113 0 -131 -106v-363q-51 -137 -188 -236t-352 -99v186q203 0 258 211v340q35 100 131 162q-96 61 -131 161v336q-53 213 -258 213v187q215 0 352 -98t188 -236v-365q18 -106 131 -106z" />
    <glyph glyph-name="asciitilde" unicode="~" horiz-adv-x="1196" 
d="M362 907q90 0 270 -52t252 -52q74 1 132 23t86 44l26 23v-227q-86 -70 -211 -70t-301 52t-259 52t-153 -26t-102 -51l-34 -27v217q43 36 124 65q80 29 170 29z" />
    <glyph glyph-name="uni00A0" unicode="&#xa0;" horiz-adv-x="419" 
 />
    <glyph glyph-name="exclamdown" unicode="&#xa1;" horiz-adv-x="571" 
d="M141 -319v266l33 796h221l33 -796v-266h-287zM287 852q-55 0 -92 22t-48 50v139q9 27 47 49t93 23q100 0 139 -72v-139q-37 -72 -139 -72z" />
    <glyph glyph-name="cent" unicode="&#xa2;" horiz-adv-x="1097" 
d="M569 938q-80 0 -136 -37t-83 -90v-514q25 -53 82 -90t137 -37q170 0 240 166h217v-121q-37 -73 -124 -143t-224 -92v-170h-211v167q-145 23 -239 101q-93 78 -132 168v616q39 90 132 167t239 99v170h211v-170q137 -22 224 -92t124 -143v-123h-217q-70 168 -240 168z" />
    <glyph glyph-name="sterling" unicode="&#xa3;" horiz-adv-x="1243" 
d="M686 1262q-90 0 -152 -38t-88 -91v-342h492v-170h-492v-308q-29 -59 -69 -106h776v-207h-1067v178q24 4 54 27t44 63v353h-110v170h110v401q45 102 174 186q130 84 318 84t311 -79t166 -160v-142h-233q-14 81 -79 131t-155 50z" />
    <glyph glyph-name="currency" unicode="&#xa4;" horiz-adv-x="1208" 
d="M604 983q-82 0 -139 -37t-80 -92v-336q25 -53 82 -91t138 -38t138 38t80 91v336q-21 55 -79 92t-140 37zM1090 1178v-125l-64 -64q29 -35 51 -86v-434q-20 -45 -51 -84l64 -63v-125h-164l-58 57q-113 -59 -262 -59t-264 57l-55 -55h-170v125l63 63q-33 43 -49 84v434
q16 41 51 86l-65 64v125h170l57 -56q115 56 261 56t261 -58l60 58h164z" />
    <glyph glyph-name="yen" unicode="&#xa5;" horiz-adv-x="1200" 
d="M733 535h402v-148h-402v-387h-276v387h-391v148h391v75l-35 64h-356v147h270l-258 455v158h221l305 -578h6l303 578h211v-158l-256 -455h267v-147h-351l-51 -88v-51z" />
    <glyph glyph-name="brokenbar" unicode="&#xa6;" horiz-adv-x="665" 
d="M469 590v-852h-272v852h272zM469 1618v-813h-272v813h272z" />
    <glyph glyph-name="section" unicode="&#xa7;" horiz-adv-x="1064" 
d="M729 698q-31 57 -160 86l-41 9q-139 -2 -194 -93v-129q29 -53 162 -86l41 -8q71 2 121 30t71 62v129zM96 1255q140 207 464 207q148 0 256 -68t151 -139v-96h-226q-12 49 -69 87q-58 38 -142 38q-135 0 -196 -92v-111q31 -51 162 -82l118 -28q281 -59 353 -180v-285
q-45 -68 -129 -119q92 -47 129 -108v-265q-35 -54 -139 -130q-105 -77 -289 -77q-183 0 -291 68t-152 139v97h228q12 -49 68 -87t133 -38t128 28t76 64v110q-29 51 -162 82l-116 29q-276 57 -355 180v285q47 72 129 121q-92 47 -129 106v264z" />
    <glyph glyph-name="dieresis" unicode="&#xa8;" 
d="M679 1509q85 0 130 -51v-155q-39 -51 -127 -51t-133 51v155q45 51 130 51zM243 1509q85 0 130 -51v-155q-39 -51 -127 -51t-133 51v155q45 51 130 51z" />
    <glyph glyph-name="copyright" unicode="&#xa9;" horiz-adv-x="1644" 
d="M1210 430q-118 -184 -414 -184q-136 0 -235 66q-100 66 -137 141v524q37 73 137 141t259 68t254 -60t136 -127v-98h-184q-16 47 -70 84t-133 37q-129 0 -188 -88v-438q59 -88 188 -88q82 0 134 36t69 86h184v-100zM1450 716q0 266 -182 452t-446 186q-263 0 -446 -186
t-183 -451t183 -451t446 -186t446 185q182 185 182 451zM821 1462q309 0 531 -217t221 -528q0 -311 -221 -529q-220 -218 -530 -217q-310 0 -530 217q-220 216 -220 528t220 529t529 217z" />
    <glyph glyph-name="ordfeminine" unicode="&#xaa;" horiz-adv-x="802" 
d="M396 838q110 0 149 59v143h-162q-86 0 -131 -57v-88q34 -57 144 -57zM416 1454q104 0 183 -56t106 -132v-533h-154v49q-83 -66 -193 -66t-172 37q-62 36 -88 72v203q78 121 252 121h195v90q-39 92 -145 92t-156 -88h-131v74q16 27 43 53t92 56q64 28 168 28z" />
    <glyph glyph-name="guillemotleft" unicode="&#xab;" horiz-adv-x="1253" 
d="M1167 1108v-137l-338 -377l338 -375v-137h-186l-360 416v194l360 416h186zM625 1108v-137l-338 -377l338 -375v-137h-187l-360 416v194l360 416h187z" />
    <glyph glyph-name="logicalnot" unicode="&#xac;" horiz-adv-x="1198" 
d="M1122 788v-624h-207v422h-837v202h1044z" />
    <glyph glyph-name="uni00AD" unicode="&#xad;" horiz-adv-x="747" 
d="M672 788v-202h-594v202h594z" />
    <glyph glyph-name="registered" unicode="&#xae;" horiz-adv-x="1060" 
d="M449 1397v-187h108q61 0 84 47v93q-23 47 -84 47h-108zM582 1489q53 0 102 -30t74 -79v-155q-33 -63 -109 -92l101 -132v-73h-101l-112 190h-88v-190h-115v561h248zM127 1198q-1 -170 117 -290t287 -120t287 120t118 290t-118 290t-287 120t-287 -120t-117 -290z
M530 1688q200 0 346 -144t146 -346q0 -201 -145 -345t-347 -144t-346 144q-145 144 -145 345q0 202 145 346t346 144z" />
    <glyph glyph-name="macron" unicode="&#xaf;" 
d="M801 1477v-177h-680v177h680z" />
    <glyph glyph-name="degree" unicode="&#xb0;" horiz-adv-x="790" 
d="M394 1503q-108 0 -150 -73v-168q42 -74 150 -74t151 74v168q-43 73 -151 73zM395 1653q131 -1 214 -55t116 -119v-267q-33 -66 -116 -120t-214 -54t-215 54t-114 120v267q30 66 114 120t215 54z" />
    <glyph glyph-name="plusminus" unicode="&#xb1;" horiz-adv-x="1198" 
d="M78 43v205h1044v-205h-1044zM702 936h420v-205h-420v-371h-206v371h-418v205h418v371h206v-371z" />
    <glyph glyph-name="acute" unicode="&#xb4;" 
d="M637 1571v-113l-164 -217h-192v31l118 299h238z" />
    <glyph glyph-name="paragraph" unicode="&#xb6;" horiz-adv-x="1368" 
d="M1227 1434v-1639h-193v1639h193zM809 1434v-1639h-193v697h-104q-143 0 -253 68t-169 175v457q63 115 176 178t246 64h297z" />
    <glyph glyph-name="periodcentered" unicode="&#xb7;" horiz-adv-x="425" 
d="M212 840q54 0 91 -22t49 -50v-139q-12 -27 -49 -49t-90 -23q-53 0 -90 23t-49 49v139q12 28 48 50t90 22z" />
    <glyph glyph-name="cedilla" unicode="&#xb8;" 
d="M682 -346q-56 -115 -259 -115q-110 0 -181 41l41 117q81 -31 153 -31t92 43v51q-18 37 -94 37h-125l74 213h143l-41 -104h19q70 0 114 -30t64 -71v-151z" />
    <glyph glyph-name="ordmasculine" unicode="&#xba;" horiz-adv-x="817" 
d="M408 1327q-113 0 -150 -88v-309q37 -84 153 -84t148 84v309q-14 39 -54 63t-97 25zM409 1454q123 0 203 -56t107 -132v-365q-27 -74 -107 -129t-204 -55t-202 55q-79 55 -108 129v365q29 76 108 132t203 56z" />
    <glyph glyph-name="guillemotright" unicode="&#xbb;" horiz-adv-x="1253" 
d="M629 82v137l338 375l-338 377v137h186l363 -416v-194l-363 -416h-186zM88 82v137l336 375l-336 377v137h186l361 -416v-194l-361 -416h-186z" />
    <glyph glyph-name="onequarter" unicode="&#xbc;" horiz-adv-x="1832" 
d="M1452 702h-6l-272 -378h278v378zM1632 860v-536h115v-140h-115v-184h-180v184h-461v135l393 541h248zM1462 1434v-111l-985 -1323h-117v111l986 1323h116zM428 1434v-736h139v-125h-475v125h148v582l-148 -12v112l182 54h154z" />
    <glyph glyph-name="onehalf" unicode="&#xbd;" horiz-adv-x="1949" 
d="M1502 879q128 1 216 -51t119 -115v-162q-23 -51 -70 -92t-151 -103l-109 -65q-131 -80 -151 -125v-16h491v-150h-671v193q31 57 77 101q47 44 140 101l116 70q117 72 142 127v76q-37 66 -157 66t-159 -97h-159v102q30 49 114 95t212 45zM1462 1434v-111l-985 -1323h-117
v111l986 1323h116zM430 1434v-736h139v-125h-473v125h146v582l-148 -12v112l182 54h154z" />
    <glyph glyph-name="threequarters" unicode="&#xbe;" horiz-adv-x="1935" 
d="M1536 702h-6l-275 -378h281v378zM1714 860v-536h115v-140h-115v-184h-178v184h-463v135l393 541h248zM1548 1434v-111l-985 -1323h-117v111l986 1323h116zM438 1452q106 0 190 -49q83 -49 113 -105v-182q-31 -55 -133 -94q111 -35 148 -113v-190q-33 -59 -123 -111
t-218 -51q-128 0 -213 46t-116 93v109h152q12 -43 60 -73t108 -30t104 20q43 20 59 48v109q-33 68 -151 67h-109v139h103q102 0 145 58v108q-41 55 -149 55t-156 -94h-150v109q47 65 138 98q92 33 198 33z" />
    <glyph glyph-name="questiondown" unicode="&#xbf;" horiz-adv-x="1095" 
d="M552 -348q-188 0 -310 76t-181 174v348q37 68 162 156l291 204v127h260v-229l-303 -215q-119 -78 -145 -133v-183q76 -111 233 -110q92 0 158 41t86 102h233v-137q-59 -85 -177 -153q-119 -68 -307 -68zM644 854q-54 0 -92 22t-48 50v141q10 27 48 49t91 21q53 0 90 -22
t49 -48v-141q-12 -28 -48 -50t-90 -22z" />
    <glyph glyph-name="Agrave" unicode="&#xc0;" horiz-adv-x="1269" 
d="M440 575h369l-180 642h-6zM1214 0h-243l-103 362h-489l-103 -362h-221v158l389 1276h379l391 -1276v-158zM743 1536h-184l-164 209v113h228l120 -291v-31z" />
    <glyph glyph-name="Aacute" unicode="&#xc1;" horiz-adv-x="1269" 
d="M440 575h369l-180 642h-6zM1214 0h-243l-103 362h-489l-103 -362h-221v158l389 1276h379l391 -1276v-158zM516 1536v31l117 291h233v-113l-166 -209h-184z" />
    <glyph glyph-name="Acircumflex" unicode="&#xc2;" horiz-adv-x="1269" 
d="M440 575h369l-180 642h-6zM1214 0h-243l-103 362h-489l-103 -362h-221v158l389 1276h379l391 -1276v-158zM301 1536v31l172 291h328l170 -291v-31h-180l-156 203l-156 -203h-178z" />
    <glyph glyph-name="Atilde" unicode="&#xc3;" horiz-adv-x="1269" 
d="M440 575h369l-180 642h-6zM1214 0h-243l-103 362h-489l-103 -362h-221v158l389 1276h379l391 -1276v-158zM438 1546h-151v109q16 63 70 106t132 43t157 -53t112 -53q59 0 73 53v41h152v-109q-15 -61 -69 -104t-126 -43t-119 27q-48 27 -85 53t-70 26q-53 0 -76 -55v-41z
" />
    <glyph glyph-name="Adieresis" unicode="&#xc4;" horiz-adv-x="1269" 
d="M440 575h369l-180 642h-6zM1214 0h-243l-103 362h-489l-103 -362h-221v158l389 1276h379l391 -1276v-158zM852 1554q-84 0 -129 52v151q41 53 129 53t129 -53v-151q-45 -52 -129 -52zM418 1554q-84 0 -129 52v151q41 53 129 53t129 -53v-151q-45 -52 -129 -52z" />
    <glyph glyph-name="Aring" unicode="&#xc5;" horiz-adv-x="1269" 
d="M440 575h369l-180 646h-6zM635 1503q84 0 117 51v109q-33 51 -117 51t-117 -51v-109q33 -51 117 -51zM1214 0h-243l-103 362h-489l-103 -362h-221v158l389 1276h31q-57 31 -82 82v186q29 53 93 87t149 34t149 -34t93 -87v-186q-25 -51 -82 -82h28l391 -1276v-158z" />
    <glyph glyph-name="AE" unicode="&#xc6;" horiz-adv-x="1761" 
d="M795 600v625h-9l-262 -625h271zM1071 213h606v-213h-882v387h-361l-162 -387h-217v158l557 1276h1049v-213h-590v-379h553v-213h-553v-416z" />
    <glyph glyph-name="Ccedilla" unicode="&#xc7;" horiz-adv-x="1241" 
d="M652.5 1249q-103.5 0 -171 -44t-98.5 -109v-758q31 -66 98.5 -110t171 -44t176 60.5t99.5 154.5h235v-135q-53 -109 -172 -195.5t-311 -97.5l-25 -65h17q135 0 178 -101v-151q-55 -115 -234 -115q-133 0 -206 41l41 117q80 -31 152.5 -31t92.5 43v51q-18 37 -94 37h-125
l64 180q-168 23 -275.5 110t-156.5 196v868q55 125 187 218t344 93t340 -89t183 -204v-135h-235q-27 94 -99.5 154.5t-176 60.5z" />
    <glyph glyph-name="Egrave" unicode="&#xc8;" horiz-adv-x="1101" 
d="M1001 1434v-213h-595v-379h555v-213h-555v-416h610v-213h-885v1434h870zM684 1536h-184l-164 209v113h227l121 -291v-31z" />
    <glyph glyph-name="Eacute" unicode="&#xc9;" horiz-adv-x="1101" 
d="M1001 1434v-213h-595v-379h555v-213h-555v-416h610v-213h-885v1434h870zM807 1858v-113l-166 -209h-184v31l116 291h234z" />
    <glyph glyph-name="Ecircumflex" unicode="&#xca;" horiz-adv-x="1101" 
d="M1001 1434v-213h-595v-379h555v-213h-555v-416h610v-213h-885v1434h870zM911 1536h-180l-156 203l-155 -203h-178v31l172 291h327l170 -291v-31z" />
    <glyph glyph-name="Edieresis" unicode="&#xcb;" horiz-adv-x="1101" 
d="M1001 1434v-213h-595v-379h555v-213h-555v-416h610v-213h-885v1434h870zM793 1810q88 0 129 -53v-151q-45 -51 -129 -51.5t-129 51.5v151q41 53 129 53zM358 1810q88 0 129 -53v-151q-45 -51 -129 -51.5t-129 51.5v151q41 53 129 53z" />
    <glyph glyph-name="Igrave" unicode="&#xcc;" horiz-adv-x="536" 
d="M406 1434v-1434h-275v1434h275zM379 1536h-184l-164 209v113h227l121 -291v-31z" />
    <glyph glyph-name="Iacute" unicode="&#xcd;" horiz-adv-x="536" 
d="M406 1434v-1434h-275v1434h275zM502 1858v-113l-166 -209h-184v31l116 291h234z" />
    <glyph glyph-name="Icircumflex" unicode="&#xce;" horiz-adv-x="536" 
d="M406 1434v-1434h-275v1434h275zM604 1536h-180l-156 203l-155 -203h-179v31l172 291h328l170 -291v-31z" />
    <glyph glyph-name="Idieresis" unicode="&#xcf;" horiz-adv-x="536" 
d="M406 1434v-1434h-275v1434h275zM485 1810q88 0 129 -53v-151q-45 -52 -129 -52t-129 52v151q41 53 129 53zM51 1810q88 0 129 -53v-151q-45 -52 -129 -52t-129 52v151q41 53 129 53z" />
    <glyph glyph-name="Eth" unicode="&#xd0;" horiz-adv-x="1335" 
d="M684 1223h-238v-392h275v-206h-275v-414h238q98 0 165 39q66 39 93 102v729q-27 63 -93 103q-67 39 -165 39zM737 1434q184 0 305 -82t175 -201v-868q-53 -119 -175 -201t-305 -82h-565v625h-100v206h100v603h565z" />
    <glyph glyph-name="Ntilde" unicode="&#xd1;" horiz-adv-x="1361" 
d="M1231 1434v-1434h-322l-516 1040h-6v-1040h-256v1434h324l514 -1041h6v1041h256zM543 1804q78 0 156.5 -53t111.5 -53q59 0 74 53v41h151v-109q-14 -61 -68 -104t-126 -43t-120 26.5t-85 53t-70 26.5q-53 0 -75 -55v-41h-152v109q16 63 70.5 106t132.5 43z" />
    <glyph glyph-name="Ograve" unicode="&#xd2;" horiz-adv-x="1282" 
d="M641 1249q-96 0 -163 -44t-95 -109v-756q29 -66 95 -110t163 -44q96 0 163 44t95 110v756q-29 66 -95 110t-163 43zM641 1462q213 0 345 -93t188 -218v-866q-56 -125 -188 -219t-345 -94t-345 94t-187 219v866q55 125 187 218t345 93zM750 1536h-185l-164 209v113h228
l121 -291v-31z" />
    <glyph glyph-name="Oacute" unicode="&#xd3;" horiz-adv-x="1282" 
d="M641 1249q-96 0 -163 -44t-95 -109v-756q29 -66 95 -110t163 -44q96 0 163 44t95 110v756q-29 66 -95 110t-163 43zM641 1462q213 0 345 -93t188 -218v-866q-56 -125 -188 -219t-345 -94t-345 94t-187 219v866q55 125 187 218t345 93zM872 1858v-113l-165 -209h-185v31
l117 291h233z" />
    <glyph glyph-name="Ocircumflex" unicode="&#xd4;" horiz-adv-x="1282" 
d="M641 1249q-96 0 -163 -44t-95 -109v-756q29 -66 95 -110t163 -44q96 0 163 44t95 110v756q-29 66 -95 110t-163 43zM641 1462q213 0 345 -93t188 -218v-866q-56 -125 -188 -219t-345 -94t-345 94t-187 219v866q55 125 187 218t345 93zM977 1536h-180l-156 203l-156 -203
h-178v31l172 291h328l170 -291v-31z" />
    <glyph glyph-name="Otilde" unicode="&#xd5;" horiz-adv-x="1282" 
d="M641 1249q-96 0 -163 -44t-95 -109v-756q29 -66 95 -110t163 -44q96 0 163 44t95 110v756q-29 66 -95 110t-163 43zM641 1462q213 0 345 -93t188 -218v-866q-56 -125 -188 -219t-345 -94t-345 94t-187 219v866q55 125 187 218t345 93zM496 1804q78 0 156 -53t112 -53
q59 0 74 53v41h151v-109q-14 -61 -68 -104t-126 -43t-120 27t-85 53t-70 26q-53 0 -76 -55v-41h-151v109q17 63 71 106t132 43z" />
    <glyph glyph-name="Odieresis" unicode="&#xd6;" horiz-adv-x="1282" 
d="M641 1249q-96 0 -163 -44t-95 -109v-756q29 -66 95 -110t163 -44q96 0 163 44t95 110v756q-29 66 -95 110t-163 43zM641 1462q213 0 345 -93t188 -218v-866q-56 -125 -188 -219t-345 -94t-345 94t-187 219v866q55 125 187 218t345 93zM858 1810q88 0 129 -53v-151
q-45 -52 -129 -52t-129 52v151q41 53 129 53zM424 1810q88 0 129 -53v-151q-45 -52 -129 -52t-129 52v151q41 53 129 53z" />
    <glyph glyph-name="multiply" unicode="&#xd7;" horiz-adv-x="1198" 
d="M1098 1178v-136l-355 -354l355 -356v-135h-154l-344 344l-344 -344h-158v135l355 356l-355 354v136h158l344 -344l344 344h154z" />
    <glyph glyph-name="Oslash" unicode="&#xd8;" horiz-adv-x="1282" 
d="M641 186q96 0 163 44q66 44 95 110v604l-473 -672q82 -86 215 -86zM641 1249q-97 1 -163 -43t-95 -110v-607l473 672q-78 88 -215 88zM1174 1434v-101l-60 -84q35 -47 60 -98v-866q-56 -125 -188 -219t-344 -94t-357 100l-52 -72h-124v100l59 84q-37 49 -59 101v866
q55 125 187 218t344 93t357 -100l52 72h125z" />
    <glyph glyph-name="Ugrave" unicode="&#xd9;" horiz-adv-x="1312" 
d="M1188 1434v-1149q-56 -127 -188 -220t-345 -93t-344 92q-131 94 -186 221v1149h274v-1090q27 -66 94 -110t162 -44q188 0 258 154v1090h275zM766 1536h-184l-164 209v113h227l121 -291v-31z" />
    <glyph glyph-name="Uacute" unicode="&#xda;" horiz-adv-x="1312" 
d="M1188 1434v-1149q-56 -127 -188 -220t-345 -93t-344 92q-131 94 -186 221v1149h274v-1090q27 -66 94 -110t162 -44q188 0 258 154v1090h275zM889 1858v-113l-166 -209h-184v31l116 291h234z" />
    <glyph glyph-name="Ucircumflex" unicode="&#xdb;" horiz-adv-x="1312" 
d="M1188 1434v-1149q-56 -127 -188 -220t-345 -93t-344 92q-131 94 -186 221v1149h274v-1090q27 -66 94 -110t162 -44q188 0 258 154v1090h275zM991 1536h-180l-156 203l-155 -203h-178v31l172 291h327l170 -291v-31z" />
    <glyph glyph-name="Udieresis" unicode="&#xdc;" horiz-adv-x="1312" 
d="M1188 1434v-1149q-56 -127 -188 -220t-345 -93t-344 92q-131 94 -186 221v1149h274v-1090q27 -66 94 -110t162 -44q188 0 258 154v1090h275zM872 1810q88 0 129 -53v-151q-45 -52 -129 -52t-129 52v151q41 53 129 53zM438 1810q88 0 129 -53v-151q-45 -52 -129 -52
t-129 52v151q41 53 129 53z" />
    <glyph glyph-name="Yacute" unicode="&#xdd;" horiz-adv-x="1171" 
d="M1110 1434v-158l-391 -690v-586h-277v610l-381 666v158h224l305 -578h6l301 578h213zM817 1858v-113l-166 -209h-184v31l117 291h233z" />
    <glyph glyph-name="Thorn" unicode="&#xde;" horiz-adv-x="1196" 
d="M633 989h-227v-475h227q158 0 219 121v233q-66 121 -219 121zM696 1200q133 0 245 -63t177 -181v-409q-59 -106 -169 -175t-253 -69h-290v-303h-275v1434h275v-234h290z" />
    <glyph glyph-name="germandbls" unicode="&#xdf;" horiz-adv-x="1144" 
d="M572 1462q175 0 288 -70t162 -151v-354q-57 -88 -156 -131q135 -70 195 -199v-311q-57 -126 -174 -186t-324 -60v201q98 0 153 19q54 19 91 93v203q-57 129 -223 129v195q143 0 202 98v217q-62 111 -208 111t-211 -111v-1155h-254v1210q53 100 169 176t290 76z" />
    <glyph glyph-name="agrave" unicode="&#xe0;" horiz-adv-x="1128" 
d="M546 156q142 0 222 100v236h-236q-131 0 -192 -78v-172q64 -86 206 -86zM549 1137q188 0 307 -83t166 -192v-862h-246v88q-121 -117 -311 -117q-111 0 -198 35t-122 69t-55 66v348q31 55 90 99q110 80 283 82h305v141q-25 55 -82 91t-137 36q-156 0 -219 -131h-217v123
q153 207 436 207zM668 1241h-189l-166 217v113h236l119 -299v-31z" />
    <glyph glyph-name="aacute" unicode="&#xe1;" horiz-adv-x="1128" 
d="M546 156q142 0 222 100v236h-236q-131 0 -192 -78v-172q64 -86 206 -86zM549 1137q188 0 307 -83t166 -192v-862h-246v88q-121 -117 -311 -117q-111 0 -198 35t-122 69t-55 66v348q31 55 90 99q110 80 283 82h305v141q-25 55 -82 91t-137 36q-156 0 -219 -131h-217v123
q153 207 436 207zM461 1241v31l119 299h237v-113l-164 -217h-192z" />
    <glyph glyph-name="acircumflex" unicode="&#xe2;" horiz-adv-x="1128" 
d="M546 156q142 0 222 100v236h-236q-131 0 -192 -78v-172q64 -86 206 -86zM549 1137q188 0 307 -83t166 -192v-862h-246v88q-121 -117 -311 -117q-111 0 -198 35t-122 69t-55 66v348q31 55 90 99q110 80 283 82h305v141q-25 55 -82 91t-137 36q-156 0 -219 -131h-217v123
q153 207 436 207zM233 1237v31l173 297h327l170 -297v-31h-180l-156 209l-155 -209h-179z" />
    <glyph glyph-name="atilde" unicode="&#xe3;" horiz-adv-x="1128" 
d="M546 156q142 0 222 100v236h-236q-131 0 -192 -78v-172q64 -86 206 -86zM549 1137q188 0 307 -83t166 -192v-862h-246v88q-121 -117 -311 -117q-111 0 -198 35t-122 69t-55 66v348q31 55 90 99q110 80 283 82h305v141q-25 55 -82 91t-137 36q-156 0 -219 -131h-217v123
q153 207 436 207zM371 1262h-152v108q15 66 69 107t133 41t158 -52t111 -53q59 0 74 55v39h151v-106q-14 -63 -67 -107t-134 -43t-158 53q-78 52 -120 52t-65 -51v-43z" />
    <glyph glyph-name="adieresis" unicode="&#xe4;" horiz-adv-x="1128" 
d="M546 156q142 0 222 100v236h-236q-131 0 -192 -78v-172q64 -86 206 -86zM549 1137q188 0 307 -83t166 -192v-862h-246v88q-121 -117 -311 -117q-111 0 -198 35t-122 69t-55 66v348q31 55 90 99q110 80 283 82h305v141q-25 55 -82 91t-137 36q-156 0 -219 -131h-217v123
q153 207 436 207zM788 1251q-88 0 -133 52v155q45 51 130 51t130 -51v-155q-39 -52 -127 -52zM352 1251q-88 0 -133 52v155q45 51 130 51t130 -51v-155q-39 -52 -127 -52z" />
    <glyph glyph-name="aring" unicode="&#xe5;" horiz-adv-x="1128" 
d="M546 156q142 0 222 100v236h-236q-131 0 -192 -78v-172q64 -86 206 -86zM549 1137q188 0 307 -83t166 -192v-862h-246v88q-121 -117 -311 -117q-111 0 -198 35t-122 69t-55 66v348q31 55 90 99q110 80 283 82h305v141q-25 55 -82 91t-137 36q-156 0 -219 -131h-217v123
q153 207 436 207zM566 1327q84 0 116 51v113q-32 51 -116 51t-117 -51v-113q33 -51 117 -51zM565 1217q-85 1 -149 35t-92 87v191q30 53 94 87t148 34t148 -34q65 -34 93 -87v-191q-29 -53 -93 -87t-149 -35z" />
    <glyph glyph-name="ae" unicode="&#xe6;" horiz-adv-x="1785" 
d="M768 492h-236q-131 0 -192 -78v-176q66 -84 192 -84q164 0 236 102v236zM1022 670h438v141q-23 55 -81 92t-139 37t-138 -37t-80 -92v-141zM1696 492h-674v-195q23 -55 80 -92t139 -37q166 0 242 166h213v-119q-43 -88 -158 -166t-299 -78q-227 0 -373 135
q-133 -135 -383 -135q-115 0 -207 35t-128.5 69t-57.5 66v348q29 52 90 97q113 84 283 84h305v141q-25 55 -82 91t-137 36q-156 0 -219 -131h-217v123q154 207 436 207q205 0 346 -115q137 115 332.5 115t310.5 -78t158 -166v-401z" />
    <glyph glyph-name="ccedilla" unicode="&#xe7;" horiz-adv-x="1097" 
d="M772 -346q-56 -115 -258 -115q-110 0 -182 41l41 117q80 -31 152.5 -31t92.5 43v51q-18 37 -94 37h-125l64 183q-143 23 -235.5 99.5t-131.5 166.5v616q47 109 165 192t305 83t302 -78t158 -166v-123h-217q-70 168 -240 168q-80 0 -136 -37t-83 -90v-514q25 -53 82 -90
t137 -37q170 0 240 166h217v-121q-43 -84 -148.5 -159.5t-275.5 -84.5l-27 -65h19q70 0 115 -30t63 -71v-151z" />
    <glyph glyph-name="egrave" unicode="&#xe8;" horiz-adv-x="1116" 
d="M569 940q-160 0 -219 -129v-141h438v141q-20 55 -78.5 92t-140.5 37zM566 1137q187 0 302 -78t158 -166v-401h-676v-195q25 -55 82 -92t137 -37q170 0 242 166h215v-119q-43 -88 -157.5 -166t-302 -78t-305.5 83t-165 192v616q47 109 165 192t305 83zM680 1241h-188
l-166 217v113h235l119 -299v-31z" />
    <glyph glyph-name="eacute" unicode="&#xe9;" horiz-adv-x="1116" 
d="M569 940q-160 0 -219 -129v-141h438v141q-20 55 -78.5 92t-140.5 37zM566 1137q187 0 302 -78t158 -166v-401h-676v-195q25 -55 82 -92t137 -37q170 0 242 166h215v-119q-43 -88 -157.5 -166t-302 -78t-305.5 83t-165 192v616q47 109 165 192t305 83zM829 1571v-113
l-163 -217h-193v31l119 299h237z" />
    <glyph glyph-name="ecircumflex" unicode="&#xea;" horiz-adv-x="1116" 
d="M569 940q-160 0 -219 -129v-141h438v141q-20 55 -78.5 92t-140.5 37zM566 1137q187 0 302 -78t158 -166v-401h-676v-195q25 -55 82 -92t137 -37q170 0 242 166h215v-119q-43 -88 -157.5 -166t-302 -78t-305.5 83t-165 192v616q47 109 165 192t305 83zM915 1237h-180
l-155 209l-156 -209h-178v31l172 297h327l170 -297v-31z" />
    <glyph glyph-name="edieresis" unicode="&#xeb;" horiz-adv-x="1116" 
d="M569 940q-160 0 -219 -129v-141h438v141q-20 55 -78.5 92t-140.5 37zM566 1137q187 0 302 -78t158 -166v-401h-676v-195q25 -55 82 -92t137 -37q170 0 242 166h215v-119q-43 -88 -157.5 -166t-302 -78t-305.5 83t-165 192v616q47 109 165 192t305 83zM798 1509
q85 0 130 -51v-155q-39 -51 -127 -51.5t-133 51.5v155q45 51 130 51zM361 1509q85 0 131 -51v-155q-39 -51 -127.5 -51.5t-133.5 51.5v155q45 51 130 51z" />
    <glyph glyph-name="igrave" unicode="&#xec;" horiz-adv-x="497" 
d="M377 1108v-1108h-256v1108h256zM348 1241h-188l-166 217v113h235l119 -299v-31z" />
    <glyph glyph-name="iacute" unicode="&#xed;" horiz-adv-x="497" 
d="M377 1108v-1108h-256v1108h256zM498 1571v-113l-164 -217h-193v31l119 299h238z" />
    <glyph glyph-name="icircumflex" unicode="&#xee;" horiz-adv-x="497" 
d="M377 1108v-1108h-256v1108h256zM584 1237h-181l-155 209l-156 -209h-178v31l172 297h328l170 -297v-31z" />
    <glyph glyph-name="idieresis" unicode="&#xef;" horiz-adv-x="497" 
d="M377 1108v-1108h-256v1108h256zM466 1509q85 0 130 -51v-155q-39 -51 -127 -51t-133 51v155q45 51 130 51zM30 1509q85 0 130 -51v-155q-39 -51 -127 -51t-133 51v155q45 51 130 51z" />
    <glyph glyph-name="eth" unicode="&#xf0;" horiz-adv-x="1138" 
d="M573 780q-82 0 -141 -35t-80 -88v-360q23 -53 80 -90t138 -37t140 37q58 37 81 90v397q-82 86 -218 86zM572 -29q-188 0 -308 83q-119 83 -166 192v465q35 104 143 187q107 83 267 83t283 -86v113q-27 61 -93 120l-327 -106v145l190 62q-135 80 -280 127l133 145
q219 -61 405 -188l225 73v-145l-100 -33q66 -66 100 -145v-817q-48 -109 -166 -192t-306 -83z" />
    <glyph glyph-name="ntilde" unicode="&#xf1;" horiz-adv-x="1146" 
d="M645 1133q168 0 262 -75t131 -167v-891h-254v831q-23 39 -72.5 70t-127.5 31q-141 0 -217 -84v-848h-254v1108h237v-94q127 119 295 119zM377 1262h-152v108q16 66 69.5 107t132.5 41t158 -52.5t111 -52.5q59 0 74 55v39h152v-106q-14 -63 -67.5 -106.5t-134.5 -43.5
t-158 52.5t-119.5 52.5t-65.5 -51v-43z" />
    <glyph glyph-name="ograve" unicode="&#xf2;" horiz-adv-x="1138" 
d="M569 938q-80 0 -137 -37t-82 -90v-514q23 -53 80 -90t139 -37t140 37q57 37 79 90v514q-23 53 -80 90q-59 37 -139 37zM570 1137q188 0 308 -83t164 -192v-616q-46 -109 -164 -192t-308 -83t-308 83q-119 83 -166 192v616q47 109 166 192t308 83zM670 1241h-189l-166 217
v113h236l119 -299v-31z" />
    <glyph glyph-name="oacute" unicode="&#xf3;" horiz-adv-x="1138" 
d="M569 938q-80 0 -137 -37t-82 -90v-514q23 -53 80 -90t139 -37t140 37q57 37 79 90v514q-23 53 -80 90q-59 37 -139 37zM570 1137q188 0 308 -83t164 -192v-616q-46 -109 -164 -192t-308 -83t-308 83q-119 83 -166 192v616q47 109 166 192t308 83zM819 1571v-113
l-164 -217h-192v31l119 299h237z" />
    <glyph glyph-name="ocircumflex" unicode="&#xf4;" horiz-adv-x="1138" 
d="M569 938q-80 0 -137 -37t-82 -90v-514q23 -53 80 -90t139 -37t140 37q57 37 79 90v514q-23 53 -80 90q-59 37 -139 37zM570 1137q188 0 308 -83t164 -192v-616q-46 -109 -164 -192t-308 -83t-308 83q-119 83 -166 192v616q47 109 166 192t308 83zM903 1237h-180l-156 209
l-155 -209h-179v31l173 297h327l170 -297v-31z" />
    <glyph glyph-name="otilde" unicode="&#xf5;" horiz-adv-x="1138" 
d="M569 938q-80 0 -137 -37t-82 -90v-514q23 -53 80 -90t139 -37t140 37q57 37 79 90v514q-23 53 -80 90q-59 37 -139 37zM570 1137q188 0 308 -83t164 -192v-616q-46 -109 -164 -192t-308 -83t-308 83q-119 83 -166 192v616q47 109 166 192t308 83zM421 1518q79 0 158 -52
t111 -53q59 0 74 55v39h151v-106q-14 -63 -67 -107t-134 -43t-158 53t-120 52t-65 -51v-43h-152v108q15 66 69 107t133 41z" />
    <glyph glyph-name="odieresis" unicode="&#xf6;" horiz-adv-x="1138" 
d="M569 938q-80 0 -137 -37t-82 -90v-514q23 -53 80 -90t139 -37t140 37q57 37 79 90v514q-23 53 -80 90q-59 37 -139 37zM570 1137q188 0 308 -83t164 -192v-616q-46 -109 -164 -192t-308 -83t-308 83q-119 83 -166 192v616q47 109 166 192t308 83zM785 1509q85 0 130 -51
v-155q-39 -51 -127 -51t-133 51v155q45 51 130 51zM349 1509q85 0 130 -51v-155q-39 -51 -127 -51t-133 51v155q45 51 130 51z" />
    <glyph glyph-name="divide" unicode="&#xf7;" horiz-adv-x="1198" 
d="M598 442q55 0 92 -22t47 -47v-142q-10 -27 -47 -49t-92 -22q-100 0 -139 71v142q37 69 139 69zM1122 788v-202h-1044v202h1044zM598 1221q55 0 92 -22t47 -50v-141q-10 -27 -47 -49t-92 -21q-102 0 -139 70v141q37 72 139 72z" />
    <glyph glyph-name="oslash" unicode="&#xf8;" horiz-adv-x="1138" 
d="M557 162q94 0 153 37q58 37 78 90v416l-393 -482q68 -61 162 -61zM581 946q-94 0 -151 -36t-80 -91v-416l393 480q-68 63 -162 63zM1042 1108v-92l-53 -66q31 -37 53 -88v-616q-46 -109 -164 -192t-304 -83t-316 86l-45 -57h-117v92l54 66q-37 51 -54 88v616
q47 109 166 192t305 83t314 -86l47 57h114z" />
    <glyph glyph-name="ugrave" unicode="&#xf9;" horiz-adv-x="1134" 
d="M768 1108h254v-1108h-238v92q-121 -117 -288 -117q-168 0 -258 74t-132 164v895h254v-832q62 -100 198 -100t210 86v846zM670 1241h-189l-166 217v113h236l119 -299v-31z" />
    <glyph glyph-name="uacute" unicode="&#xfa;" horiz-adv-x="1134" 
d="M768 1108h254v-1108h-238v92q-121 -117 -288 -117q-168 0 -258 74t-132 164v895h254v-832q62 -100 198 -100t210 86v846zM461 1241v31l119 299h237v-113l-164 -217h-192z" />
    <glyph glyph-name="ucircumflex" unicode="&#xfb;" horiz-adv-x="1134" 
d="M768 1108h254v-1108h-238v92q-121 -117 -288 -117q-168 0 -258 74t-132 164v895h254v-832q62 -100 198 -100t210 86v846zM233 1237v31l173 297h327l170 -297v-31h-180l-156 209l-155 -209h-179z" />
    <glyph glyph-name="udieresis" unicode="&#xfc;" horiz-adv-x="1134" 
d="M768 1108h254v-1108h-238v92q-121 -117 -288 -117q-168 0 -258 74t-132 164v895h254v-832q62 -100 198 -100t210 86v846zM788 1251q-88 0 -133 52v155q45 51 130 51t130 -51v-155q-39 -52 -127 -52zM352 1251q-88 0 -133 52v155q45 51 130 51t130 -51v-155
q-39 -52 -127 -52z" />
    <glyph glyph-name="yacute" unicode="&#xfd;" horiz-adv-x="1064" 
d="M1004 1108v-143l-392 -1164q-117 -158 -372 -157q-104 0 -158 16v182q49 -4 84 -4q164 0 231 80l23 84l-354 961v145h229l250 -789h6l237 789h216zM780 1571v-113l-164 -217h-192v31l119 299h237z" />
    <glyph glyph-name="thorn" unicode="&#xfe;" horiz-adv-x="1136" 
d="M584 932q-141 0 -217 -86v-584q78 -86 217 -86q78 0 128 30t72 70v555q-22 39 -72 70t-128 31zM649 1133q166 0 259 -75t132 -167v-674q-39 -92 -132 -167t-259 -75t-282 107v-422h-254v1774h254v-408q116 107 282 107z" />
    <glyph glyph-name="ydieresis" unicode="&#xff;" horiz-adv-x="1064" 
d="M1004 1108v-143l-392 -1164q-117 -158 -372 -157q-104 0 -158 16v182q49 -4 84 -4q164 0 231 80l23 84l-354 961v145h229l250 -789h6l237 789h216zM749 1509q85 0 130 -51v-155q-39 -51 -127 -51t-134 51v155q46 51 131 51zM312 1509q85 0 130 -51v-155q-39 -51 -127 -51
t-133 51v155q45 51 130 51z" />
    <glyph glyph-name="Amacron" unicode="&#x100;" horiz-adv-x="1269" 
d="M440 575h369l-180 642h-6zM1214 0h-243l-103 362h-489l-103 -362h-221v158l389 1276h379l391 -1276v-158zM975 1743v-176h-680v176h680z" />
    <glyph glyph-name="amacron" unicode="&#x101;" horiz-adv-x="1128" 
d="M546 156q142 0 222 100v236h-236q-131 0 -192 -78v-172q64 -86 206 -86zM549 1137q188 0 307 -83t166 -192v-862h-246v88q-121 -117 -311 -117q-111 0 -198 35t-122 69t-55 66v348q31 55 90 99q110 80 283 82h305v141q-25 55 -82 91t-137 36q-156 0 -219 -131h-217v123
q153 207 436 207zM907 1477v-177h-680v177h680z" />
    <glyph glyph-name="Abreve" unicode="&#x102;" horiz-adv-x="1269" 
d="M440 575h369l-180 642h-6zM1214 0h-243l-103 362h-489l-103 -362h-221v158l389 1276h379l391 -1276v-158zM635 1516q-127 0 -211 48t-119 124v120h187v-77q12 -25 48 -50t95 -25t94 26q35 24 47 49v77h189v-120q-84 -172 -330 -172z" />
    <glyph glyph-name="abreve" unicode="&#x103;" horiz-adv-x="1128" 
d="M546 156q142 0 222 100v236h-236q-131 0 -192 -78v-172q64 -86 206 -86zM549 1137q188 0 307 -83t166 -192v-862h-246v88q-121 -117 -311 -117q-111 0 -198 35t-122 69t-55 66v348q31 55 90 99q110 80 283 82h305v141q-25 55 -82 91t-137 36q-156 0 -219 -131h-217v123
q153 207 436 207zM567 1225q-127 0 -211 48t-118 124v121h186v-78q10 -26 47 -50t96 -24t96 24q36 24 46 50v78h188v-121q-84 -172 -330 -172z" />
    <glyph glyph-name="Aogonek" unicode="&#x104;" horiz-adv-x="1269" 
d="M440 575h369l-180 642h-6zM1105 -299q62 0 109 18v-143q-57 -29 -151 -29q-182 0 -229 103v153q45 100 167 197h-30l-103 362h-489l-103 -362h-221v158l389 1276h379l391 -1276v-158q-162 -133 -194 -209v-55q23 -35 85 -35z" />
    <glyph glyph-name="aogonek" unicode="&#x105;" horiz-adv-x="1128" 
d="M546 156q142 0 222 100v236h-236q-131 0 -192 -78v-172q64 -86 206 -86zM940 -299q62 0 111 18v-143q-57 -29 -152 -29q-182 0 -229 103v153q45 100 168 197h-62v88q-121 -117 -311 -117q-111 0 -198 35t-122 69t-55 66v348q31 55 90 99q110 80 283 82h305v141
q-25 55 -82 91t-137 36q-156 0 -219 -131h-217v123q154 207 436 207q188 0 307 -83t166 -192v-862q-125 -113 -166 -209v-55q22 -35 84 -35z" />
    <glyph glyph-name="Cacute" unicode="&#x106;" horiz-adv-x="1241" 
d="M640 1462q212 0 340 -89t183 -204v-135h-235q-27 94 -99.5 154.5t-176 60.5t-171 -44t-98.5 -109v-758q31 -66 98.5 -110t171 -44t176 60.5t99.5 154.5h235v-135q-55 -115 -183 -204t-340 -89t-344 93.5t-187 218.5v868q55 125 187 218t344 93zM879 1858v-113l-166 -209
h-185v31l117 291h234z" />
    <glyph glyph-name="cacute" unicode="&#x107;" horiz-adv-x="1097" 
d="M566 1137q187 0 302 -78t158 -166v-123h-217q-70 168 -240 168q-80 0 -136 -37t-83 -90v-514q25 -53 82 -90t137 -37q170 0 240 166h217v-121q-43 -88 -157.5 -166t-302 -78t-305.5 83t-165 192v616q47 109 165 192t305 83zM825 1571v-113l-163 -217h-193v31l119 299h237
z" />
    <glyph glyph-name="Ccircumflex" unicode="&#x108;" horiz-adv-x="1241" 
d="M640 1462q212 0 340 -89t183 -204v-135h-235q-27 94 -99.5 154.5t-176 60.5t-171 -44t-98.5 -109v-758q31 -66 98.5 -110t171 -44t176 60.5t99.5 154.5h235v-135q-55 -115 -183 -204t-340 -89t-344 93.5t-187 218.5v868q55 125 187 218t344 93zM981 1536h-180l-156 203
l-156 -203h-178v31l172 291h328l170 -291v-31z" />
    <glyph glyph-name="ccircumflex" unicode="&#x109;" horiz-adv-x="1097" 
d="M566 1137q187 0 302 -78t158 -166v-123h-217q-70 168 -240 168q-80 0 -136 -37t-83 -90v-514q25 -53 82 -90t137 -37q170 0 240 166h217v-121q-43 -88 -157.5 -166t-302 -78t-305.5 83t-165 192v616q47 109 165 192t305 83zM911 1237h-180l-156 209l-155 -209h-178v31
l172 297h327l170 -297v-31z" />
    <glyph glyph-name="Cdotaccent" unicode="&#x10a;" horiz-adv-x="1241" 
d="M640 1462q212 0 340 -89t183 -204v-135h-235q-27 94 -99.5 154.5t-176 60.5t-171 -44t-98.5 -109v-758q31 -66 98.5 -110t171 -44t176 60.5t99.5 154.5h235v-135q-55 -115 -183 -204t-340 -89t-344 93.5t-187 218.5v868q55 125 187 218t344 93zM645 1825q104 0 141 -72
v-121q-35 -70 -142.5 -69.5t-137.5 69.5v121q12 29 49 50.5t90 21.5z" />
    <glyph glyph-name="cdotaccent" unicode="&#x10b;" horiz-adv-x="1097" 
d="M566 1137q187 0 302 -78t158 -166v-123h-217q-70 168 -240 168q-80 0 -136 -37t-83 -90v-514q25 -53 82 -90t137 -37q170 0 240 166h217v-121q-43 -88 -157.5 -166t-302 -78t-305.5 83t-165 192v616q47 109 165 192t305 83zM575.5 1511q108.5 0 139.5 -69v-121
q-31 -70 -139.5 -70t-139.5 70v121q31 69 139.5 69z" />
    <glyph glyph-name="Ccaron" unicode="&#x10c;" horiz-adv-x="1241" 
d="M640 1462q212 0 340 -89t183 -204v-135h-235q-27 94 -99.5 154.5t-176 60.5t-171 -44t-98.5 -109v-758q31 -66 98.5 -110t171 -44t176 60.5t99.5 154.5h235v-135q-55 -115 -183 -204t-340 -89t-344 93.5t-187 218.5v868q55 125 187 218t344 93zM981 1858v-33l-170 -289
h-328l-172 289v33h178l156 -205l156 205h180z" />
    <glyph glyph-name="ccaron" unicode="&#x10d;" horiz-adv-x="1097" 
d="M566 1137q187 0 302 -78t158 -166v-123h-217q-70 168 -240 168q-80 0 -136 -37t-83 -90v-514q25 -53 82 -90t137 -37q170 0 240 166h217v-121q-43 -88 -157.5 -166t-302 -78t-305.5 83t-165 192v616q47 109 165 192t305 83zM911 1565v-33l-170 -295h-327l-172 295v33h178
l155 -209l156 209h180z" />
    <glyph glyph-name="Dcaron" unicode="&#x10e;" horiz-adv-x="1286" 
d="M645 1223h-239v-1012h239q96 0 164 39t92 102v729q-25 63 -92 103q-68 39 -164 39zM696 1434q186 0 308 -82t172 -201v-868q-51 -119 -172 -201t-308 -82h-565v1434h565zM979 1858v-33l-170 -289h-328l-172 289v33h178l156 -205l156 205h180z" />
    <glyph glyph-name="dcaron" unicode="&#x10f;" horiz-adv-x="1136" 
d="M555 176q139 0 215 86v584q-76 86 -217 86q-78 0 -128 -31t-73 -70v-555q23 -40 74 -70t129 -30zM1411 1434v-134l-88 -270h-158v31l41 373h205zM770 1434h254v-1434h-246v88q-117 -113 -287 -113t-263 75t-132 167v674q39 92 132 167q93 74 259 74t283 -106v408z" />
    <glyph glyph-name="Dcroat" unicode="&#x110;" horiz-adv-x="1335" 
d="M684 1223h-238v-392h275v-206h-275v-414h238q98 0 165 39q66 39 93 102v729q-27 63 -93 103q-67 39 -165 39zM737 1434q184 0 305 -82t175 -201v-868q-53 -119 -175 -201t-305 -82h-565v625h-100v206h100v603h565z" />
    <glyph glyph-name="dcroat" unicode="&#x111;" horiz-adv-x="1183" 
d="M553 895q-78 0 -129 -31t-72 -67v-525q58 -98 202 -98t216 86v549q-78 86 -217 86zM1024 1434v-101h104v-139h-104v-1194h-244v86q-121 -111 -290 -111t-262 75t-132 167v635q39 92 132 167t255 75t287 -103v203h-328v139h328v101h254z" />
    <glyph glyph-name="Emacron" unicode="&#x112;" horiz-adv-x="1101" 
d="M1001 1434v-213h-595v-379h555v-213h-555v-416h610v-213h-885v1434h870zM915 1743v-176h-679v176h679z" />
    <glyph glyph-name="emacron" unicode="&#x113;" horiz-adv-x="1116" 
d="M569 940q-160 0 -219 -129v-141h438v141q-20 55 -78.5 92t-140.5 37zM566 1137q187 0 302 -78t158 -166v-401h-676v-195q25 -55 82 -92t137 -37q170 0 242 166h215v-119q-43 -88 -157.5 -166t-302 -78t-305.5 83t-165 192v616q47 109 165 192t305 83zM920 1477v-177h-680
v177h680z" />
    <glyph glyph-name="Ebreve" unicode="&#x114;" horiz-adv-x="1101" 
d="M1001 1434v-213h-595v-379h555v-213h-555v-416h610v-213h-885v1434h870zM905 1808v-120q-84 -172 -330 -172q-127 0 -210.5 48t-118.5 124v120h186v-77q12 -25 48 -49.5t95.5 -24.5t94.5 24.5t47 49.5v77h188z" />
    <glyph glyph-name="ebreve" unicode="&#x115;" horiz-adv-x="1116" 
d="M569 940q-160 0 -219 -129v-141h438v141q-20 55 -78.5 92t-140.5 37zM566 1137q187 0 302 -78t158 -166v-401h-676v-195q25 -55 82 -92t137 -37q170 0 242 166h215v-119q-43 -88 -157.5 -166t-302 -78t-305.5 83t-165 192v616q47 109 165 192t305 83zM909 1518v-121
q-84 -172 -329 -172q-127 0 -211 48t-119 124v121h186v-78q10 -27 47 -50.5t96.5 -23.5t95.5 23.5t46 50.5v78h188z" />
    <glyph glyph-name="Edotaccent" unicode="&#x116;" horiz-adv-x="1101" 
d="M1001 1434v-213h-595v-379h555v-213h-555v-416h610v-213h-885v1434h870zM575 1825q104 0 142 -72v-121q-35 -70 -143 -70t-138 70v121q12 29 49 50.5t90 21.5z" />
    <glyph glyph-name="edotaccent" unicode="&#x117;" horiz-adv-x="1116" 
d="M569 940q-160 0 -219 -129v-141h438v141q-20 55 -78.5 92t-140.5 37zM566 1137q187 0 302 -78t158 -166v-401h-676v-195q25 -55 82 -92t137 -37q170 0 242 166h215v-119q-43 -88 -157.5 -166t-302 -78t-305.5 83t-165 192v616q47 109 165 192t305 83zM579.5 1511
q108.5 0 139.5 -69v-121q-31 -70 -139.5 -70t-139.5 70v121q31 69 139.5 69z" />
    <glyph glyph-name="Eogonek" unicode="&#x118;" horiz-adv-x="1101" 
d="M906 -299q62 0 110 18v-143q-57 -29 -152 -29q-182 0 -229 103v153q45 100 168 197h-672v1434h870v-213h-595v-379h555v-213h-555v-416h610v-213q-172 -133 -195 -209v-55q23 -35 85 -35z" />
    <glyph glyph-name="eogonek" unicode="&#x119;" horiz-adv-x="1116" 
d="M569 940q-160 0 -219 -129v-141h438v141q-20 55 -78.5 92t-140.5 37zM566 1137q187 0 302 -78t158 -166v-401h-676v-195q25 -55 82 -92t137 -37q170 0 242 166h215v-119q-18 -37 -112 -202t-105 -222v-55q23 -35 84 -35t111 18v-143q-57 -29 -152 -29q-182 0 -229 103
v153q31 86 114 191q-78 -23 -168 -23q-190 0 -308 83t-165 192v616q47 109 165 192t305 83z" />
    <glyph glyph-name="Ecaron" unicode="&#x11a;" horiz-adv-x="1101" 
d="M1001 1434v-213h-595v-379h555v-213h-555v-416h610v-213h-885v1434h870zM911 1858v-33l-170 -289h-327l-172 289v33h178l155 -205l156 205h180z" />
    <glyph glyph-name="ecaron" unicode="&#x11b;" horiz-adv-x="1116" 
d="M569 940q-160 0 -219 -129v-141h438v141q-20 55 -78.5 92t-140.5 37zM566 1137q187 0 302 -78t158 -166v-401h-676v-195q25 -55 82 -92t137 -37q170 0 242 166h215v-119q-43 -88 -157.5 -166t-302 -78t-305.5 83t-165 192v616q47 109 165 192t305 83zM915 1565v-33
l-170 -295h-327l-172 295v33h178l156 -209l155 209h180z" />
    <glyph glyph-name="Gcircumflex" unicode="&#x11c;" horiz-adv-x="1290" 
d="M652.5 1249q-103.5 0 -171 -44t-98.5 -109v-756q27 -66 96.5 -110t165.5 -44q190 0 262 148v239h-243v209h499v-782h-221v109q-127 -137 -330.5 -137.5t-325.5 94t-177 219.5v866q55 125 187 218t344 93t340 -89t183 -204v-135h-235q-27 94 -99.5 154.5t-176 60.5z
M311 1536v31l172 291h328l170 -291v-31h-180l-156 203l-156 -203h-178z" />
    <glyph glyph-name="gcircumflex" unicode="&#x11d;" horiz-adv-x="1136" 
d="M555 252q139 0 215 88v504q-76 88 -217 88q-78 0 -129 -32t-74 -69v-479q23 -36 75 -68t130 -32zM778 1108h246v-1214q-47 -106 -165 -184t-305 -79q-187 0 -303 73t-163 153v112h221q76 -139 240 -139t221 115v213q-123 -104 -284 -104t-256 74q-95 75 -134 165v598
q39 92 134 167t260 75t288 -115v90zM233 1237v31l173 297h327l170 -297v-31h-180l-156 209l-155 -209h-179z" />
    <glyph glyph-name="Gbreve" unicode="&#x11e;" horiz-adv-x="1290" 
d="M652.5 1249q-103.5 0 -171 -44t-98.5 -109v-756q27 -66 96.5 -110t165.5 -44q190 0 262 148v239h-243v209h499v-782h-221v109q-127 -137 -330.5 -137.5t-325.5 94t-177 219.5v866q55 125 187 218t344 93t340 -89t183 -204v-135h-235q-27 94 -99.5 154.5t-176 60.5z
M645 1516q-127 0 -211 48t-119 124v120h187v-77q12 -25 48 -49.5t95.5 -24.5t94 24.5t46.5 49.5v77h189v-120q-84 -172 -330 -172z" />
    <glyph glyph-name="gbreve" unicode="&#x11f;" horiz-adv-x="1136" 
d="M555 252q139 0 215 88v504q-76 88 -217 88q-78 0 -129 -32t-74 -69v-479q23 -36 75 -68t130 -32zM778 1108h246v-1214q-47 -106 -165 -184t-305 -79q-187 0 -303 73t-163 153v112h221q76 -139 240 -139t221 115v213q-123 -104 -284 -104t-256 74q-95 75 -134 165v598
q39 92 134 167t260 75t288 -115v90zM567 1225q-127 0 -211 48t-118 124v121h186v-78q10 -26 47 -50t96 -24t96 24q36 24 46 50v78h188v-121q-84 -172 -330 -172z" />
    <glyph glyph-name="Gdotaccent" unicode="&#x120;" horiz-adv-x="1290" 
d="M652.5 1249q-103.5 0 -171 -44t-98.5 -109v-756q27 -66 96.5 -110t165.5 -44q190 0 262 148v239h-243v209h499v-782h-221v109q-127 -137 -330.5 -137.5t-325.5 94t-177 219.5v866q55 125 187 218t344 93t340 -89t183 -204v-135h-235q-27 94 -99.5 154.5t-176 60.5z
M643.5 1563q-107.5 0 -137.5 69v121q12 29 49 50.5t90 21.5q104 0 141 -72v-121q-35 -69 -142.5 -69z" />
    <glyph glyph-name="gdotaccent" unicode="&#x121;" horiz-adv-x="1136" 
d="M555 252q139 0 215 88v504q-76 88 -217 88q-78 0 -129 -32t-74 -69v-479q23 -36 75 -68t130 -32zM778 1108h246v-1214q-47 -106 -165 -184t-305 -79q-187 0 -303 73t-163 153v112h221q76 -139 240 -139t221 115v213q-123 -104 -284 -104t-256 74q-95 75 -134 165v598
q39 92 134 167t260 75t288 -115v90zM567 1251q-109 0 -139 70v121q32 70 140 70t139 -70v-121q-31 -70 -140 -70z" />
    <glyph glyph-name="Gcommaaccent" unicode="&#x122;" horiz-adv-x="1290" 
d="M643 -111q100 0 135 -39v-208q-12 -37 -55 -69t-115 -32h-84v84h62q51 0 65 25v49h-6q-106 0 -131 37v114q29 39 129 39zM652.5 1249q-103.5 0 -171 -44t-98.5 -109v-756q27 -66 96.5 -110t165.5 -44q190 0 262 148v239h-243v209h499v-782h-221v109
q-127 -137 -330.5 -137.5t-325.5 94t-177 219.5v866q55 125 187 218t344 93t340 -89t183 -204v-135h-235q-27 94 -99.5 154.5t-176 60.5z" />
    <glyph glyph-name="gcommaaccent" unicode="&#x123;" horiz-adv-x="1136" 
d="M555 252q139 0 215 88v504q-76 88 -217 88q-78 0 -129 -32t-74 -69v-479q23 -36 75 -68t130 -32zM778 1108h246v-1214q-47 -106 -165 -184t-305 -79q-187 0 -303 73t-163 153v112h221q76 -139 240 -139t221 115v213q-123 -104 -284 -104t-256 74q-95 75 -134 165v598
q39 92 134 167t260 75t288 -115v90zM569 1219q-53 0 -91 20t-48 47v236q10 38 62 70t124 32h68v-98h-43q-66 0 -78 -25v-53h6q51 0 88 -22t50 -48v-92q-13 -27 -49 -47t-89 -20z" />
    <glyph glyph-name="Hcircumflex" unicode="&#x124;" horiz-adv-x="1335" 
d="M1204 1434v-1434h-274v633h-524v-633h-275v1434h275v-588h524v588h274zM1004 1536h-181l-155 203l-156 -203h-178v31l172 291h328l170 -291v-31z" />
    <glyph glyph-name="hcircumflex" unicode="&#x125;" horiz-adv-x="1150" 
d="M654 1133q161 0 255 -75t133 -167v-891h-256v831q-24 37 -74 69t-128 32q-141 0 -217 -86v-846h-254v1434h254v-406q126 105 287 105zM254 1524v30l172 291h328l170 -291v-30h-181l-155 202l-156 -202h-178z" />
    <glyph glyph-name="Hbar" unicode="&#x126;" horiz-adv-x="1335" 
d="M930 846v266h-524v-266h524zM1288 1280v-168h-84v-1112h-274v633h-524v-633h-275v1112h-76v168h76v154h275v-154h524v154h274v-154h84z" />
    <glyph glyph-name="hbar" unicode="&#x127;" horiz-adv-x="1177" 
d="M397 1434v-101h342v-139h-342v-203q121 103 285 103t257 -75t130 -167v-852h-254v793q-23 39 -73 69t-128 31q-141 0 -217 -88v-805h-254v1194h-88v139h88v101h254z" />
    <glyph glyph-name="Itilde" unicode="&#x128;" horiz-adv-x="536" 
d="M406 1434v-1434h-275v1434h275zM123 1804q78 0 157 -53t111 -53q59 0 74 53v41h151v-109q-14 -61 -68 -104t-126 -43t-120 27t-85 53t-70 26q-53 0 -75 -55v-41h-152v109q16 63 70 106t133 43z" />
    <glyph glyph-name="itilde" unicode="&#x129;" horiz-adv-x="497" 
d="M377 1108v-1108h-256v1108h256zM101 1518q79 0 158 -52t112 -53q59 0 73 55v39h152v-106q-14 -63 -68 -107t-134 -43q-82 1 -158 53t-119 52t-66 -51v-43h-151v108q16 66 69 107t132 41z" />
    <glyph glyph-name="Imacron" unicode="&#x12a;" horiz-adv-x="536" 
d="M406 1434v-1434h-275v1434h275zM608 1743v-176h-680v176h680z" />
    <glyph glyph-name="imacron" unicode="&#x12b;" horiz-adv-x="497" 
d="M377 1108v-1108h-256v1108h256zM588 1477v-177h-680v177h680z" />
    <glyph glyph-name="Ibreve" unicode="&#x12c;" horiz-adv-x="536" 
d="M406 1434v-1434h-275v1434h275zM598 1808v-120q-84 -172 -330 -172q-127 0 -211 48t-118 124v120h186v-77q12 -25 48 -50t95 -25t94 26q35 24 48 49v77h188z" />
    <glyph glyph-name="ibreve" unicode="&#x12d;" horiz-adv-x="497" 
d="M377 1108v-1108h-256v1108h256zM578 1518v-121q-84 -172 -330 -172q-127 0 -211 48t-119 124v121h186v-78q10 -26 48 -50t96 -24q59 0 95 24t46 50v78h189z" />
    <glyph glyph-name="Iogonek" unicode="&#x12e;" horiz-adv-x="536" 
d="M296 -299q62 0 110 18v-143q-57 -29 -152 -29q-182 0 -229 103v153q45 100 168 197h-62v1434h275v-1434q-160 -129 -195 -209v-55q23 -35 85 -35z" />
    <glyph glyph-name="iogonek" unicode="&#x12f;" horiz-adv-x="497" 
d="M121 0v1108h256v-1108q-164 -131 -197 -209v-55q23 -35 85 -35t112 18v-143q-61 -29 -152 -29q-182 0 -231 103v153q47 100 176 197h-49zM248 1511q109 0 139 -69v-115q-31 -70 -139 -70t-139 70v115q30 69 139 69z" />
    <glyph glyph-name="Idotaccent" unicode="&#x130;" horiz-adv-x="536" 
d="M406 1434v-1434h-275v1434h275zM268 1825q104 0 142 -72v-121q-35 -70 -143 -70t-138 70v121q12 29 49 51t90 21z" />
    <glyph glyph-name="dotlessi" unicode="&#x131;" horiz-adv-x="497" 
d="M377 1108v-1108h-256v1108h256z" />
    <glyph glyph-name="IJ" unicode="&#x132;" horiz-adv-x="1329" 
d="M1204 1434v-1149q-135 -289 -514 -289q-63 0 -112 4v209h92q201 0 260 143v1082h274zM406 1434v-1434h-275v1434h275z" />
    <glyph glyph-name="ij" unicode="&#x133;" horiz-adv-x="978" 
d="M377 1108v-1108h-256v1108h256zM864 1108v-1204q-43 -106 -162 -190t-311 -83v197q82 0 139 40t80 101v1139h254zM739 1511q109 0 140 -69v-121q-31 -70 -140 -70t-139 70v121q30 69 139 69zM248 1511q109 0 139 -69v-121q-31 -70 -139 -70t-139 70v121q30 69 139 69z
" />
    <glyph glyph-name="Jcircumflex" unicode="&#x134;" horiz-adv-x="792" 
d="M668 1434v-1149q-135 -289 -514 -289q-63 0 -113 4v209h92q201 0 260 143v1082h275zM866 1536h-180l-156 203l-155 -203h-178v31l172 291h327l170 -291v-31z" />
    <glyph glyph-name="jcircumflex" unicode="&#x135;" horiz-adv-x="481" 
d="M367 1108v-1204q-43 -106 -162 -190t-311 -83v197q82 0 139 40t80 101v1139h254zM578 1237h-181l-155 209l-156 -209h-178v31l172 297h328l170 -297v-31z" />
    <glyph glyph-name="Kcommaaccent" unicode="&#x136;" horiz-adv-x="1245" 
d="M621 -111q100 0 135 -39v-208q-12 -37 -55.5 -69t-114.5 -32h-84v84h61q51 0 66 25v49h-6q-106 0 -131 37v114q29 39 129 39zM1184 0h-215l-416 651l-147 -159v-492h-275v1434h275v-607l544 607h178v-158l-395 -428l451 -690v-158z" />
    <glyph glyph-name="kcommaaccent" unicode="&#x137;" horiz-adv-x="1085" 
d="M541 -111q100 0 135 -39v-208q-12 -37 -55 -69t-115 -32h-84v84h61q51 0 66 25v49h-6q-106 0 -131 37v114q29 39 129 39zM1047 0h-199l-334 483l-147 -149v-334h-254v1434h254v-801l456 475h166v-145l-303 -308l361 -512v-143z" />
    <glyph glyph-name="Lacute" unicode="&#x139;" horiz-adv-x="935" 
d="M406 1434v-1221h483v-213h-758v1434h275zM522 1858v-113l-166 -209h-184v31l117 291h233z" />
    <glyph glyph-name="lacute" unicode="&#x13a;" horiz-adv-x="483" 
d="M369 1434v-1434h-256v1434h256zM477 1855v-112l-166 -209h-184v31l117 290h233z" />
    <glyph glyph-name="Lcommaaccent" unicode="&#x13b;" horiz-adv-x="935" 
d="M467 -111q100 0 135 -39v-208q-12 -37 -55 -69t-115 -32h-84v84h62q51 0 65 25v49h-6q-106 0 -131 37v114q29 39 129 39zM406 213h483v-213h-758v1434h275v-1221z" />
    <glyph glyph-name="lcommaaccent" unicode="&#x13c;" horiz-adv-x="483" 
d="M238 -111q100 0 135 -39v-208q-12 -37 -55.5 -69t-114.5 -32h-84v84h61q51 0 66 25v49h-6q-106 0 -131 37v114q29 39 129 39zM369 1434v-1434h-256v1434h256z" />
    <glyph glyph-name="Lcaron" unicode="&#x13d;" horiz-adv-x="935" 
d="M817 1434v-134l-88 -270h-158v31l41 373h205zM406 1434v-1221h483v-213h-758v1434h275z" />
    <glyph glyph-name="lcaron" unicode="&#x13e;" horiz-adv-x="483" 
d="M754 1434v-134l-86 -270h-160v31l41 373h205zM369 1434v-1434h-256v1434h256z" />
    <glyph glyph-name="Ldot" unicode="&#x13f;" horiz-adv-x="960" 
d="M760.5 936q108.5 0 138.5 -70v-141q-33 -70 -141 -70q-51 0 -88 21.5t-49 48.5v141q31 70 139.5 70zM406 1434v-1221h483v-213h-758v1434h275z" />
    <glyph glyph-name="ldot" unicode="&#x140;" horiz-adv-x="483" 
d="M669.5 872q107.5 0 137.5 -69v-121q-31 -70 -138 -70t-143 70v121q36 69 143.5 69zM369 1434v-1434h-256v1434h256z" />
    <glyph glyph-name="Lslash" unicode="&#x141;" horiz-adv-x="1005" 
d="M475 213h486v-213h-760v414l-150 -80v207l150 77v816h274v-672l313 162v-207l-313 -162v-342z" />
    <glyph glyph-name="lslash" unicode="&#x142;" horiz-adv-x="706" 
d="M479 0h-254v588l-166 -96v208l166 97v637h254v-492l168 98v-209l-168 -96v-735z" />
    <glyph glyph-name="Nacute" unicode="&#x143;" horiz-adv-x="1361" 
d="M1231 1434v-1434h-322l-516 1040h-6v-1040h-256v1434h324l514 -1041h6v1041h256zM922 1858v-113l-166 -209h-185v31l117 291h234z" />
    <glyph glyph-name="nacute" unicode="&#x144;" horiz-adv-x="1146" 
d="M645 1133q168 0 262 -75t131 -167v-891h-254v831q-23 39 -72.5 70t-127.5 31q-141 0 -217 -84v-848h-254v1108h237v-94q127 119 295 119zM467 1241v31l119 299h237v-113l-164 -217h-192z" />
    <glyph glyph-name="Ncommaaccent" unicode="&#x145;" horiz-adv-x="1361" 
d="M678 -111q100 0 135 -39v-208q-12 -37 -55 -69t-115 -32h-84v84h62q51 0 65 25v49h-6q-106 0 -131 37v114q29 39 129 39zM975 1434h256v-1434h-322l-516 1040h-6v-1040h-256v1434h324l514 -1041h6v1041z" />
    <glyph glyph-name="ncommaaccent" unicode="&#x146;" horiz-adv-x="1146" 
d="M571 -111q100 0 136 -39v-208q-12 -37 -55.5 -69t-114.5 -32h-84v84h61q51 0 66 25v49h-7q-106 0 -131 37v114q29 39 129 39zM645 1133q168 0 262 -75t131 -167v-891h-254v831q-23 39 -72.5 70t-127.5 31q-141 0 -217 -84v-848h-254v1108h237v-94q127 119 295 119z" />
    <glyph glyph-name="Ncaron" unicode="&#x147;" horiz-adv-x="1361" 
d="M1231 1434v-1434h-322l-516 1040h-6v-1040h-256v1434h324l514 -1041h6v1041h256zM1024 1858v-33l-170 -289h-328l-172 289v33h178l156 -205l156 205h180z" />
    <glyph glyph-name="ncaron" unicode="&#x148;" horiz-adv-x="1146" 
d="M645 1133q168 0 262 -75t131 -167v-891h-254v831q-23 39 -72.5 70t-127.5 31q-141 0 -217 -84v-848h-254v1108h237v-94q127 119 295 119zM240 1565h178l155 -209l156 209h180v-33l-170 -295h-327l-172 295v33z" />
    <glyph glyph-name="napostrophe" unicode="&#x149;" horiz-adv-x="1146" 
d="M645 1133q168 0 262 -75t131 -167v-891h-254v831q-23 39 -72.5 70t-127.5 31q-141 0 -217 -84v-848h-254v1108h237v-94q127 119 295 119zM106 1274q53 0 66 26v50h-4q-111 0 -133 34v115q29 39 129 39t135 -39v-207q-12 -39 -55 -70.5t-113 -31.5h-86v84h61z" />
    <glyph glyph-name="Eng" unicode="&#x14a;" horiz-adv-x="1361" 
d="M975 1434h256v-1491q-55 -129 -193 -215t-340 -86q-51 0 -84 4v204q29 -4 80 -4q162 0 240 109l-541 1085h-6v-1040h-256v1434h324l514 -1041h6v1041z" />
    <glyph glyph-name="eng" unicode="&#x14b;" horiz-adv-x="1150" 
d="M646 1133q172 0 264 -75t132 -167v-973q-46 -108 -164 -192t-309 -84v198q82 0 139 40q56 40 78 100v851q-24 39 -74 70t-128 31q-141 0 -215 -88v-844h-256v1108h239v-96q122 121 294 121z" />
    <glyph glyph-name="Omacron" unicode="&#x14c;" horiz-adv-x="1282" 
d="M641 1249q-96 0 -163 -44t-95 -109v-756q29 -66 95 -110t163 -44q96 0 163 44t95 110v756q-29 66 -95 110t-163 43zM641 1462q213 0 345 -93t188 -218v-866q-56 -125 -188 -219t-345 -94t-345 94t-187 219v866q55 125 187 218t345 93zM981 1743v-176h-680v176h680z" />
    <glyph glyph-name="omacron" unicode="&#x14d;" horiz-adv-x="1138" 
d="M569 938q-80 0 -137 -37t-82 -90v-514q23 -53 80 -90t139 -37t140 37q57 37 79 90v514q-23 53 -80 90q-59 37 -139 37zM570 1137q188 0 308 -83t164 -192v-616q-46 -109 -164 -192t-308 -83t-308 83q-119 83 -166 192v616q47 109 166 192t308 83zM909 1477v-177h-680v177
h680z" />
    <glyph glyph-name="Obreve" unicode="&#x14e;" horiz-adv-x="1282" 
d="M641 1249q-96 0 -163 -44t-95 -109v-756q29 -66 95 -110t163 -44q96 0 163 44t95 110v756q-29 66 -95 110t-163 43zM641 1462q213 0 345 -93t188 -218v-866q-56 -125 -188 -219t-345 -94t-345 94t-187 219v866q55 125 187 218t345 93zM971 1808v-120q-84 -172 -330 -172
q-127 0 -211 48t-119 124v120h187v-77q12 -25 48 -50t95 -25t94 26q35 24 47 49v77h189z" />
    <glyph glyph-name="obreve" unicode="&#x14f;" horiz-adv-x="1138" 
d="M569 938q-80 0 -137 -37t-82 -90v-514q23 -53 80 -90t139 -37t140 37q57 37 79 90v514q-23 53 -80 90q-59 37 -139 37zM570 1137q188 0 308 -83t164 -192v-616q-46 -109 -164 -192t-308 -83t-308 83q-119 83 -166 192v616q47 109 166 192t308 83zM897 1518v-121
q-84 -172 -330 -172q-127 0 -211 48t-118 124v121h186v-78q10 -26 47 -50t96 -24t96 24q36 24 46 50v78h188z" />
    <glyph glyph-name="Ohungarumlaut" unicode="&#x150;" horiz-adv-x="1282" 
d="M641 1249q-96 0 -163 -44t-95 -109v-756q29 -66 95 -110t163 -44q96 0 163 44t95 110v756q-29 66 -95 110t-163 43zM641 1462q213 0 345 -93t188 -218v-866q-56 -125 -188 -219t-345 -94t-345 94t-187 219v866q55 125 187 218t345 93zM1036 1855v-94l-118 -225h-164v31
l84 288h198zM651 1855v-94l-121 -225h-163v31l86 288h198z" />
    <glyph glyph-name="ohungarumlaut" unicode="&#x151;" horiz-adv-x="1138" 
d="M569 938q-80 0 -137 -37t-82 -90v-514q23 -53 80 -90t139 -37t140 37q57 37 79 90v514q-23 53 -80 90q-59 37 -139 37zM570 1137q188 0 308 -83t164 -192v-616q-46 -109 -164 -192t-308 -83t-308 83q-119 83 -166 192v616q47 109 166 192t308 83zM958 1556v-94l-118 -233
h-164v33l84 294h198zM573 1556v-94l-120 -233h-164v33l86 294h198z" />
    <glyph glyph-name="OE" unicode="&#x152;" horiz-adv-x="1867" 
d="M639 186q186 0 258 154v756q-27 66 -95 110t-162 43q-95 0 -162 -44t-95 -109v-756q27 -66 93 -110t163 -44zM1171 213h611v-213h-885v18q-115 -47 -258 -47q-213 -1 -344 93t-186 221v866q55 125 186 218t344 93q139 0 258 -47v19h868v-213h-594v-379h555v-213h-555
v-416z" />
    <glyph glyph-name="oe" unicode="&#x153;" horiz-adv-x="1806" 
d="M568 170q81 0 138.5 36t81.5 89v516q-23 53 -80 90t-138 37t-138 -37t-82 -90v-514q23 -53 80 -90t138 -37zM1262 940q-156 0 -220 -127v-143h439v141q-20 55 -78.5 92t-140.5 37zM1718 492h-676v-197q63 -127 226.5 -127t234.5 166h215v-119q-43 -88 -157.5 -166
t-312 -78t-333.5 111q-135 -111 -334.5 -111t-318.5 83t-166 192v616q47 109 166 192t318.5 83t334.5 -111q139 111 335 111t310.5 -78t157.5 -166v-401z" />
    <glyph glyph-name="Racute" unicode="&#x154;" horiz-adv-x="1232" 
d="M406 1223v-439h239q156 0 221 121v197q-61 121 -221 121h-239zM1151 0h-217l-350 582h-178v-582h-275v1434h576q133 0 244.5 -64.5t174.5 -177.5v-365q-88 -162 -264 -221l289 -448v-158zM498 1536v31l116 291h234v-113l-166 -209h-184z" />
    <glyph glyph-name="racute" unicode="&#x155;" horiz-adv-x="757" 
d="M668 1110q20 0 43 -2v-234q-23 2 -49 3q-209 0 -295 -99v-778h-254v1108h237v-150q107 152 318 152zM668 1571v-113l-164 -217h-193v31l119 299h238z" />
    <glyph glyph-name="Rcommaaccent" unicode="&#x156;" horiz-adv-x="1232" 
d="M612 -111q100 0 136 -39v-208q-12 -37 -55.5 -69t-114.5 -32h-84v84h61q51 0 66 25v49h-7q-106 0 -131 37v114q29 39 129 39zM406 1223v-439h239q156 0 221 121v197q-61 121 -221 121h-239zM1151 0h-217l-350 582h-178v-582h-275v1434h576q133 0 244.5 -64.5
t174.5 -177.5v-365q-88 -162 -264 -221l289 -448v-158z" />
    <glyph glyph-name="rcommaaccent" unicode="&#x157;" horiz-adv-x="757" 
d="M236 -111q100 0 135 -39v-208q-12 -37 -55.5 -69t-114.5 -32h-84v84h61q51 0 66 25v49h-6q-106 0 -132 37v114q30 39 130 39zM668 1110q20 0 43 -2v-234q-23 2 -49 3q-209 0 -295 -99v-778h-254v1108h237v-150q107 152 318 152z" />
    <glyph glyph-name="Rcaron" unicode="&#x158;" horiz-adv-x="1232" 
d="M406 1223v-439h239q156 0 221 121v197q-61 121 -221 121h-239zM1151 0h-217l-350 582h-178v-582h-275v1434h576q133 0 244.5 -64.5t174.5 -177.5v-365q-88 -162 -264 -221l289 -448v-158zM281 1858h178l155 -205l156 205h180v-33l-170 -289h-327l-172 289v33z" />
    <glyph glyph-name="rcaron" unicode="&#x159;" horiz-adv-x="757" 
d="M668 1110q20 0 43 -2v-234q-23 2 -49 3q-209 0 -295 -99v-778h-254v1108h237v-150q107 152 318 152zM752 1565v-33l-170 -295h-328l-172 295v33h178l156 -209l155 209h181z" />
    <glyph glyph-name="Sacute" unicode="&#x15a;" horiz-adv-x="1210" 
d="M602.5 1462q188.5 0 313 -76.5t176.5 -168.5v-136h-236q-57 168 -258 168q-78 0 -137.5 -32.5t-83.5 -77.5v-168q18 -35 55 -57.5t127 -47.5l117 -28q199 -51 293 -113.5t141 -144.5v-336q-52 -91 -158 -172q-134 -101 -348.5 -101t-341.5 84t-180 187v137h237
q23 -84 96.5 -138.5t175 -54.5t165 40t90.5 93v162q-45 86 -207 127l-115 29q-186 45 -270 96t-143 139v345q55 94 179 169.5t312.5 75.5zM850 1858v-113l-166 -209h-184v31l116 291h234z" />
    <glyph glyph-name="sacute" unicode="&#x15b;" horiz-adv-x="1021" 
d="M533.5 1137q140.5 0 245 -60.5t149.5 -128.5v-114h-215q-53 113 -203 112q-121 0 -180 -74v-120q31 -49 159 -82l105 -23q283 -61 352 -180v-289q-31 -45 -73 -84t-142 -81t-221 -42t-221.5 42t-142.5 81t-72 84v115h217q68 -131 213 -131t207 92v111q-35 61 -162 86
l-109 22q-268 57 -348 182v293q27 39 69 76t137 75t235.5 38zM774 1571v-113l-164 -217h-192v31l119 299h237z" />
    <glyph glyph-name="Scircumflex" unicode="&#x15c;" horiz-adv-x="1210" 
d="M602.5 1462q188.5 0 313 -76.5t176.5 -168.5v-136h-236q-57 168 -258 168q-78 0 -137.5 -32.5t-83.5 -77.5v-168q18 -35 55 -57.5t127 -47.5l117 -28q199 -51 293 -113.5t141 -144.5v-336q-52 -91 -158 -172q-134 -101 -348.5 -101t-341.5 84t-180 187v137h237
q23 -84 96.5 -138.5t175 -54.5t165 40t90.5 93v162q-45 86 -207 127l-115 29q-186 45 -270 96t-143 139v345q55 94 179 169.5t312.5 75.5zM954 1536h-180l-156 203l-155 -203h-178v31l172 291h327l170 -291v-31z" />
    <glyph glyph-name="scircumflex" unicode="&#x15d;" horiz-adv-x="1021" 
d="M533.5 1137q140.5 0 245 -60.5t149.5 -128.5v-114h-215q-53 113 -203 112q-121 0 -180 -74v-120q31 -49 159 -82l105 -23q283 -61 352 -180v-289q-31 -45 -73 -84t-142 -81t-221 -42t-221.5 42t-142.5 81t-72 84v115h217q68 -131 213 -131t207 92v111q-35 61 -162 86
l-109 22q-268 57 -348 182v293q27 39 69 76t137 75t235.5 38zM860 1237h-180l-156 209l-155 -209h-179v31l172 297h328l170 -297v-31z" />
    <glyph glyph-name="Scedilla" unicode="&#x15e;" horiz-adv-x="1210" 
d="M821 -346q-57 -115 -257 -115q-110 0 -181 41l39 117q84 -31 154.5 -31t91.5 43v51q-18 37 -95 37h-124l61 178q-172 18 -276.5 97.5t-151.5 169.5v137h237q23 -84 96.5 -138.5t175 -54.5t165 40t90.5 93v164q-45 86 -207 125l-115 29q-186 47 -270 98t-143 139v343
q55 94 179 169.5t312.5 75.5t313 -76.5t176.5 -168.5v-136h-236q-57 168 -258 168q-78 0 -137.5 -32.5t-83.5 -77.5v-168q18 -35 55 -57.5t127 -47.5l117 -28q199 -51 293 -113.5t141 -144.5v-336q-53 -96 -163.5 -178t-293.5 -95l-26 -65h16q135 0 178 -101v-151z" />
    <glyph glyph-name="scedilla" unicode="&#x15f;" horiz-adv-x="1021" 
d="M743 -346q-55 -117 -257 -117q-108 0 -183 43l41 117q72 -31 149.5 -31t96.5 43v51q-18 37 -94 37h-125l61 178q-236 27 -358 203v115h217q68 -131 213 -131t207 92v111q-35 61 -162 86l-109 22q-268 57 -348 182v293q27 39 69 76t137 75t235.5 38t245 -60.5
t149.5 -128.5v-114h-215q-53 113 -203 112q-121 0 -180 -74v-120q31 -49 159 -82l105 -23q283 -61 352 -180v-289q-43 -68 -134 -129t-239 -76l-26 -69h18q135 0 178 -99v-151z" />
    <glyph glyph-name="Scaron" unicode="&#x160;" horiz-adv-x="1210" 
d="M602.5 1462q188.5 0 313 -76.5t176.5 -168.5v-136h-236q-57 168 -258 168q-78 0 -137.5 -32.5t-83.5 -77.5v-168q18 -35 55 -57.5t127 -47.5l117 -28q199 -51 293 -113.5t141 -144.5v-336q-52 -91 -158 -172q-134 -101 -348.5 -101t-341.5 84t-180 187v137h237
q23 -84 96.5 -138.5t175 -54.5t165 40t90.5 93v162q-45 86 -207 127l-115 29q-186 45 -270 96t-143 139v345q55 94 179 169.5t312.5 75.5zM954 1858v-33l-170 -289h-327l-172 289v33h178l155 -205l156 205h180z" />
    <glyph glyph-name="scaron" unicode="&#x161;" horiz-adv-x="1021" 
d="M533.5 1137q140.5 0 245 -60.5t149.5 -128.5v-114h-215q-53 113 -203 112q-121 0 -180 -74v-120q31 -49 159 -82l105 -23q283 -61 352 -180v-289q-31 -45 -73 -84t-142 -81t-221 -42t-221.5 42t-142.5 81t-72 84v115h217q68 -131 213 -131t207 92v111q-35 61 -162 86
l-109 22q-268 57 -348 182v293q27 39 69 76t137 75t235.5 38zM860 1565v-33l-170 -295h-328l-172 295v33h179l155 -209l156 209h180z" />
    <glyph glyph-name="uni0162" unicode="&#x162;" horiz-adv-x="1097" 
d="M780 -346q-56 -115 -258 -115q-110 0 -182 41l41 117q80 -31 152.5 -31t93.5 43v51q-18 37 -95 37h-124l69 203h-65v1221h-363v213h1000v-213h-363v-1221h-63l-39 -94h18q70 0 115 -30t63 -71v-151z" />
    <glyph glyph-name="uni0163" unicode="&#x163;" horiz-adv-x="735" 
d="M666 -346q-56 -115 -260 -115q-110 0 -181 41l41 117q80 -31 153 -31t93 43v51q-18 37 -94 37h-125l69 201q-143 45 -194 170v752h-123v188h123v231h254v-231h237v-188h-237v-664q57 -82 192 -82q53 0 82 4v-180q-82 -21 -176 -21h-22l-29 -71h18q70 0 115 -30t64 -71
v-151z" />
    <glyph glyph-name="Tcaron" unicode="&#x164;" horiz-adv-x="1101" 
d="M1051 1434v-213h-363v-1221h-274v1221h-363v213h1000zM887 1858v-33l-170 -289h-328l-172 289v33h178l156 -205l156 205h180z" />
    <glyph glyph-name="tcaron" unicode="&#x165;" horiz-adv-x="862" 
d="M614 174q53 0 82 4v-180q-96 -20 -176 -21q-154 1 -238 57t-114 134v752h-123v188h123v231h254v-231h237v-188h-237v-664q57 -82 192 -82zM803 1640v-133l-86 -270h-156v33l41 370h201z" />
    <glyph glyph-name="Tbar" unicode="&#x166;" horiz-adv-x="1101" 
d="M1051 1221h-363v-379h260v-166h-260v-676h-274v676h-256v166h256v379h-363v213h1000v-213z" />
    <glyph glyph-name="tbar" unicode="&#x167;" horiz-adv-x="735" 
d="M614 174q53 0 82 4v-180q-96 -20 -176 -21q-154 1 -238 57t-114 134v317h-123v189h123v246h-123v188h123v231h254v-231h237v-188h-237v-246h237v-189h-237v-229q57 -82 192 -82z" />
    <glyph glyph-name="Utilde" unicode="&#x168;" horiz-adv-x="1312" 
d="M1188 1434v-1149q-56 -127 -188 -220t-345 -93t-344 92q-131 94 -186 221v1149h274v-1090q27 -66 94 -110t162 -44q188 0 258 154v1090h275zM510 1804q78 0 157 -53t111 -53q59 0 74 53v41h152v-109q-14 -61 -68 -104t-126 -43t-120 27t-86 53q-37 26 -69 26
q-53 0 -76 -55v-41h-152v109q17 63 71 106t132 43z" />
    <glyph glyph-name="utilde" unicode="&#x169;" horiz-adv-x="1134" 
d="M768 1108h254v-1108h-238v92q-121 -117 -288 -117q-168 0 -258 74t-132 164v895h254v-832q62 -100 198 -100t210 86v846zM371 1262h-152v108q15 66 69 107t133 41t158 -52t111 -53q59 0 74 55v39h151v-106q-14 -63 -67 -107t-134 -43t-158 53q-78 52 -120 52t-65 -51v-43
z" />
    <glyph glyph-name="Umacron" unicode="&#x16a;" horiz-adv-x="1312" 
d="M1188 1434v-1149q-56 -127 -188 -220t-345 -93t-344 92q-131 94 -186 221v1149h274v-1090q27 -66 94 -110t162 -44q188 0 258 154v1090h275zM995 1743v-176h-680v176h680z" />
    <glyph glyph-name="umacron" unicode="&#x16b;" horiz-adv-x="1134" 
d="M768 1108h254v-1108h-238v92q-121 -117 -288 -117q-168 0 -258 74t-132 164v895h254v-832q62 -100 198 -100t210 86v846zM907 1477v-177h-680v177h680z" />
    <glyph glyph-name="Ubreve" unicode="&#x16c;" horiz-adv-x="1312" 
d="M1188 1434v-1149q-56 -127 -188 -220t-345 -93t-344 92q-131 94 -186 221v1149h274v-1090q27 -66 94 -110t162 -44q188 0 258 154v1090h275zM985 1808v-120q-84 -172 -330 -172q-127 0 -211 48t-118 124v120h186v-77q12 -25 48 -50t95 -25t95 25q35 25 47 50v77h188z" />
    <glyph glyph-name="ubreve" unicode="&#x16d;" horiz-adv-x="1134" 
d="M768 1108h254v-1108h-238v92q-121 -117 -288 -117q-168 0 -258 74t-132 164v895h254v-832q62 -100 198 -100t210 86v846zM567 1225q-127 0 -211 48t-118 124v121h186v-78q10 -26 47 -50t96 -24t96 24q36 24 46 50v78h188v-121q-84 -172 -330 -172z" />
    <glyph glyph-name="Uring" unicode="&#x16e;" horiz-adv-x="1312" 
d="M1188 1434v-1149q-56 -127 -188 -220t-345 -93t-344 92q-131 94 -186 221v1149h274v-1090q27 -66 94 -110t162 -44q188 0 258 154v1090h275zM655 1714q-84 0 -116 -51v-109q33 -51 117 -51t116 51v109q-33 51 -117 51zM655 1823q84 0 149 -34t93 -87v-186
q-29 -52 -93 -88t-149 -36t-149 36q-64 34 -92 88v186q29 53 93 87t148 34z" />
    <glyph glyph-name="uring" unicode="&#x16f;" horiz-adv-x="1134" 
d="M768 1108h254v-1108h-238v92q-121 -117 -288 -117q-168 0 -258 74t-132 164v895h254v-832q62 -100 198 -100t210 86v846zM566 1327q84 0 116 51v113q-32 51 -116 51t-117 -51v-113q33 -51 117 -51zM565 1217q-85 1 -149 35t-92 87v191q30 53 94 87t148 34t148 -34
q65 -34 93 -87v-191q-29 -53 -93 -87t-149 -35z" />
    <glyph glyph-name="Uhungarumlaut" unicode="&#x170;" horiz-adv-x="1312" 
d="M1188 1434v-1149q-56 -127 -188 -220t-345 -93t-344 92q-131 94 -186 221v1149h274v-1090q27 -66 94 -110t162 -44q188 0 258 154v1090h275zM1051 1855v-94l-119 -225h-164v31l84 288h199zM666 1855v-94l-121 -225h-164v31l86 288h199z" />
    <glyph glyph-name="uhungarumlaut" unicode="&#x171;" horiz-adv-x="1134" 
d="M768 1108h254v-1108h-238v92q-121 -117 -288 -117q-168 0 -258 74t-132 164v895h254v-832q62 -100 198 -100t210 86v846zM676 1229v33l84 294h198v-94l-118 -233h-164zM289 1229v33l86 294h198v-94l-120 -233h-164z" />
    <glyph glyph-name="Uogonek" unicode="&#x172;" horiz-adv-x="1312" 
d="M1188 1434v-1149q-40 -93 -138 -185t-168 -184t-83 -125v-55q23 -35 85 -35t109 18v-143q-57 -29 -151 -29q-182 0 -230 103v153q37 84 140 174q-43 -6 -97 -6q-213 -1 -344 93t-186 221v1149h274v-1090q27 -66 94 -110t162 -44q188 0 258 154v1090h275z" />
    <glyph glyph-name="uogonek" unicode="&#x173;" horiz-adv-x="1134" 
d="M912 -299q62 0 110 18v-143q-61 -29 -152 -29q-182 0 -231 103v153q53 109 170 197h-25v92q-121 -117 -288 -117q-168 0 -258 74t-132 164v895h254v-832q62 -100 198 -100t210 86v846h254v-1108q-166 -131 -195 -209v-55q23 -35 85 -35z" />
    <glyph glyph-name="Wcircumflex" unicode="&#x174;" horiz-adv-x="1867" 
d="M1800 1434v-158l-258 -1276h-364l-246 1001h-6l-244 -1001h-358l-256 1276v158h251l211 -1145h7l272 1145h256l276 -1145h7l208 1145h244zM1274 1536h-180l-156 203l-156 -203h-178v31l172 291h328l170 -291v-31z" />
    <glyph glyph-name="wcircumflex" unicode="&#x175;" horiz-adv-x="1615" 
d="M1554 1108v-145l-251 -963h-289l-195 737h-6l-199 -737h-292l-252 963v145h229l188 -834h7l215 834h229l213 -834h6l186 834h211zM1143 1237h-180l-156 209l-156 -209h-178v31l172 297h328l170 -297v-31z" />
    <glyph glyph-name="Ycircumflex" unicode="&#x176;" horiz-adv-x="1171" 
d="M1110 1434v-158l-391 -690v-586h-277v610l-381 666v158h224l305 -578h6l301 578h213zM920 1536h-181l-155 203l-156 -203h-178v31l172 291h328l170 -291v-31z" />
    <glyph glyph-name="ycircumflex" unicode="&#x177;" horiz-adv-x="1064" 
d="M1004 1108v-143l-392 -1164q-117 -158 -372 -157q-104 0 -158 16v182q49 -4 84 -4q164 0 231 80l23 84l-354 961v145h229l250 -789h6l237 789h216zM866 1237h-180l-156 209l-155 -209h-178v31l172 297h327l170 -297v-31z" />
    <glyph glyph-name="Ydieresis" unicode="&#x178;" horiz-adv-x="1171" 
d="M1110 1434v-158l-391 -690v-586h-277v610l-381 666v158h224l305 -578h6l301 578h213zM801 1810q88 0 129 -53v-151q-45 -52 -129 -52t-129 52v151q41 53 129 53zM367 1810q88 0 129 -53v-151q-45 -52 -129 -52t-129 52v151q41 53 129 53z" />
    <glyph glyph-name="Zacute" unicode="&#x179;" horiz-adv-x="1146" 
d="M1065 1434v-181l-662 -1040h662v-213h-985v180l659 1041h-647v213h973zM805 1858v-113l-166 -209h-184v31l116 291h234z" />
    <glyph glyph-name="zacute" unicode="&#x17a;" horiz-adv-x="985" 
d="M926 1108v-166l-578 -752h578v-190h-867v176l564 742h-547v190h850zM735 1571v-113l-164 -217h-192v31l119 299h237z" />
    <glyph glyph-name="Zdotaccent" unicode="&#x17b;" horiz-adv-x="1146" 
d="M1065 1434v-181l-662 -1040h662v-213h-985v180l659 1041h-647v213h973zM573 1825q106 0 142 -72v-121q-35 -70 -143 -70t-138 70v121q12 29 49 51t90 21z" />
    <glyph glyph-name="zdotaccent" unicode="&#x17c;" horiz-adv-x="985" 
d="M926 1108v-166l-578 -752h578v-190h-867v176l564 742h-547v190h850zM485 1511q109 0 140 -69v-121q-31 -70 -140 -70t-139 70v121q30 69 139 69z" />
    <glyph glyph-name="Zcaron" unicode="&#x17d;" horiz-adv-x="1146" 
d="M1065 1434v-181l-662 -1040h662v-213h-985v180l659 1041h-647v213h973zM909 1858v-33l-170 -289h-327l-172 289v33h178l155 -205l156 205h180z" />
    <glyph glyph-name="zcaron" unicode="&#x17e;" horiz-adv-x="985" 
d="M926 1108v-166l-578 -752h578v-190h-867v176l564 742h-547v190h850zM821 1565v-33l-170 -295h-327l-172 295v33h178l155 -209l156 209h180z" />
    <glyph glyph-name="longs" unicode="&#x17f;" horiz-adv-x="677" 
d="M465 1462q117 0 174 -20v-180q-43 6 -80 6q-139 0 -192 -84v-1184h-254v1272q73 190 352 190z" />
    <glyph glyph-name="florin" unicode="&#x192;" horiz-adv-x="872" 
d="M715 1268q-137 0 -176 -88v-125h249v-187h-249v-1046q-31 -78 -114 -136t-218 -58t-197 24v170h96q137 0 179 86v960h-144v187h144v213q76 193 342 192q121 0 184 -22v-170h-96z" />
    <glyph glyph-name="Scommaaccent" unicode="&#x218;" horiz-adv-x="1210" 
d="M596 -111q100 0 135 -39v-208q-12 -37 -55 -69t-115 -32h-84v84h62q51 0 65 25v49h-6q-106 0 -131 37v114q29 39 129 39zM82 379h237q23 -84 96.5 -138.5t175 -54.5t165 40t90.5 93v162q-45 86 -207 127l-115 29q-186 45 -270 96t-143 139v345q55 94 179 169.5
t312.5 75.5t313 -76.5t176.5 -168.5v-136h-236q-57 168 -258 168q-78 0 -137.5 -32.5t-83.5 -77.5v-168q18 -35 55 -57.5t127 -47.5l117 -28q199 -51 293 -113.5t141 -144.5v-336q-52 -91 -158 -172q-134 -101 -348.5 -101t-341.5 84t-180 187v137z" />
    <glyph glyph-name="scommaaccent" unicode="&#x219;" horiz-adv-x="1021" 
d="M516 -111q100 0 135 -39v-208q-12 -37 -55 -69t-115 -32h-84v84h62q51 0 65 25v49h-6q-106 0 -131 37v114q29 39 129 39zM510 -29q-121 0 -221.5 42t-142.5 81t-72 84v115h217q68 -131 213 -131t207 92v111q-35 61 -162 86l-109 22q-268 57 -348 182v293q27 39 69 76
t137 75t235.5 38t245 -60.5t149.5 -128.5v-114h-215q-53 113 -203 112q-121 0 -180 -74v-120q31 -49 159 -82l105 -23q283 -61 352 -180v-289q-31 -45 -73 -84t-142 -81t-221 -42z" />
    <glyph glyph-name="uni021A" unicode="&#x21a;" horiz-adv-x="1101" 
d="M549 -111q100 0 135 -39v-208q-12 -37 -55 -69t-115 -32h-84v84h62q51 0 65 25v49h-6q-106 0 -131 37v114q29 39 129 39zM51 1434h1000v-213h-363v-1221h-274v1221h-363v213z" />
    <glyph glyph-name="uni021B" unicode="&#x21b;" horiz-adv-x="735" 
d="M440 -111q100 0 135 -39v-208q-12 -37 -55 -69t-114 -32h-84v84h61q51 0 66 25v49h-7q-106 0 -131 37v114q29 39 129 39zM614 174q53 0 82 4v-180q-82 -20 -206 -20.5t-207.5 56t-114.5 134.5v752h-123v188h123v231h254v-231h237v-188h-237v-664q57 -82 192 -82z" />
    <glyph glyph-name="uni0237" unicode="&#x237;" horiz-adv-x="481" 
d="M367 1108v-1204q-43 -106 -162 -190t-311 -83v197q82 0 139 40t80 101v1139h254z" />
    <glyph glyph-name="circumflex" unicode="&#x2c6;" 
d="M795 1237h-181l-155 209l-156 -209h-178v31l172 297h328l170 -297v-31z" />
    <glyph glyph-name="caron" unicode="&#x2c7;" 
d="M795 1565v-33l-170 -295h-328l-172 295v33h178l156 -209l155 209h181z" />
    <glyph glyph-name="breve" unicode="&#x2d8;" 
d="M788 1518v-121q-84 -172 -329 -172q-127 0 -211 48t-119 124v121h186v-78q10 -26 47 -50q36 -24 96 -24t96 24t46 50v78h188z" />
    <glyph glyph-name="dotaccent" unicode="&#x2d9;" 
d="M459 1511q109 0 139 -69v-121q-32 -70 -140 -70t-139 70v121q31 69 140 69z" />
    <glyph glyph-name="ring" unicode="&#x2da;" 
d="M459 1542q-84 0 -117 -51v-113q33 -51 117 -51t116 51v113q-32 51 -116 51zM459 1651q85 0 149 -34t92 -87v-191q-30 -53 -94 -88t-148 -35t-148 36q-65 34 -93 87v191q29 53 93 87t149 34z" />
    <glyph glyph-name="ogonek" unicode="&#x2db;" 
d="M579 -299q62 0 109 18v-143q-57 -29 -151 -29q-182 0 -230 103v153q58 132 228 238l124 -41q-125 -113 -165 -209v-55q23 -35 85 -35z" />
    <glyph glyph-name="tilde" unicode="&#x2dc;" 
d="M312 1518q79 0 158 -52t112 -53q59 0 73 55v39h152v-106q-13 -63 -67 -107t-135 -43t-158 53t-119 52t-66 -51v-43h-151v108q16 66 69 107t132 41z" />
    <glyph glyph-name="hungarumlaut" unicode="&#x2dd;" 
d="M799 1556v-94l-119 -233h-164v33l84 294h199zM414 1556v-94l-121 -233h-164v33l86 294h199z" />
    <glyph glyph-name="uni0326" unicode="&#x326;" horiz-adv-x="0" 
d="M-463 -111q100 0 135 -39v-208q-12 -37 -55 -69t-115 -32h-84v84h62q51 0 65 25v49h-6q-106 0 -131 37v114q29 39 129 39z" />
    <glyph glyph-name="uni037E" unicode="&#x37e;" horiz-adv-x="456" 
d="M229 260q53 0 92 -21q38 -22 48 -51v-313q-13 -41 -65 -84t-122 -43h-67v111h53q39 0 61 39v77q-102 0 -139 72v141q37 72 139 72zM229 989q55 0 93 -21q37 -22 47 -50v-140q-10 -27 -47 -47t-93 -20q-102 0 -139 67v140q37 71 139 71z" />
    <glyph glyph-name="tonos" unicode="&#x384;" 
d="M637 1565v-113l-164 -221h-190v33l120 301h234z" />
    <glyph glyph-name="dieresistonos" unicode="&#x385;" horiz-adv-x="1054" 
d="M895 1470q70 0 106 -43v-122q-35 -45 -107 -45t-106 45v122q37 43 107 43zM230 1470q70 0 106 -43v-122q-35 -45 -108 -45t-105 45v122q37 43 107 43zM713 1565v-113l-127 -192h-156v32l92 273h191z" />
    <glyph glyph-name="Alphatonos" unicode="&#x386;" horiz-adv-x="1269" 
d="M440 575h369l-180 642h-6zM1214 0h-243l-103 362h-489l-103 -362h-221v158l389 1276h379l391 -1276v-158zM-133 1100v33l121 301h233v-113l-164 -221h-190z" />
    <glyph glyph-name="anoteleia" unicode="&#x387;" horiz-adv-x="425" 
d="M211 596q-51 0 -88 22t-49 48v139q12 27 49 49t88 20q109 0 141 -69v-139q-33 -70 -141 -70z" />
    <glyph glyph-name="Epsilontonos" unicode="&#x388;" horiz-adv-x="1101" 
d="M1001 1434v-213h-595v-379h555v-213h-555v-416h610v-213h-885v1434h870zM0 1434v-113l-164 -221h-190v33l121 301h233z" />
    <glyph glyph-name="Etatonos" unicode="&#x389;" horiz-adv-x="1335" 
d="M1204 1434v-1434h-274v633h-524v-633h-275v1434h275v-588h524v588h274zM0 1434v-113l-164 -221h-190v33l121 301h233z" />
    <glyph glyph-name="Iotatonos" unicode="&#x38a;" horiz-adv-x="536" 
d="M406 1434v-1434h-275v1434h275zM0 1434v-113l-164 -221h-190v33l121 301h233z" />
    <glyph glyph-name="Omicrontonos" unicode="&#x38c;" horiz-adv-x="1282" 
d="M641 1249q-96 0 -163 -44t-95 -109v-756q29 -66 95 -110t163 -44q96 0 163 44t95 110v756q-29 66 -95 110t-163 43zM39 1434v-113l-164 -221h-190v33l120 301h234zM641 1462q213 0 345 -93t188 -218v-866q-56 -125 -188 -219t-345 -94t-345 94t-187 219v866
q55 125 187 218t345 93z" />
    <glyph glyph-name="Upsilontonos" unicode="&#x38e;" horiz-adv-x="1171" 
d="M1110 1434v-158l-391 -690v-586h-277v610l-381 666v158h224l305 -578h6l301 578h213zM-20 1434v-113l-164 -221h-191v33l121 301h234z" />
    <glyph glyph-name="Omegatonos" unicode="&#x38f;" horiz-adv-x="1292" 
d="M39 1434v-113l-164 -221h-190v33l120 301h234zM1178 213v-213h-459v293q68 12 117 55t67 94v650q-27 66 -95 110t-162 43q-95 0 -163 -44t-94 -109v-650q51 -125 186 -149v-293h-460v213h256q-186 78 -256 242v696q55 125 187 218t345 93t344 -93t187 -218v-696
q-70 -162 -254 -242h254z" />
    <glyph glyph-name="iotadieresistonos" unicode="&#x390;" horiz-adv-x="497" 
d="M377 1108v-1108h-256v1108h256zM621 1470q70 0 106 -43v-122q-35 -45 -107 -45t-106 45v122q37 43 107 43zM-45 1470q70 0 106 -43v-122q-33 -45 -105 -45t-108 45v122q37 43 107 43zM438 1565v-113l-127 -192h-155v32l92 273h190z" />
    <glyph glyph-name="Alpha" unicode="&#x391;" horiz-adv-x="1269" 
d="M440 575h369l-180 642h-6zM1214 0h-243l-103 362h-489l-103 -362h-221v158l389 1276h379l391 -1276v-158z" />
    <glyph glyph-name="Beta" unicode="&#x392;" horiz-adv-x="1224" 
d="M670 647h-264v-438h249q162 0 228 119v207q-29 49 -87 81t-126 31zM406 1225v-385h249q131 0 201 110v158q-63 117 -213 117h-237zM715 0h-584v1434h574q139 0 243 -70t160 -172v-281q-60 -102 -162 -155q125 -51 191 -160v-352q-55 -100 -163 -172t-259 -72z" />
    <glyph glyph-name="Gamma" unicode="&#x393;" horiz-adv-x="960" 
d="M909 1434v-213h-503v-1221h-275v1434h778z" />
    <glyph glyph-name="uni0394" unicode="&#x394;" horiz-adv-x="1269" 
d="M336 213h575l-282 1004h-6zM1214 0h-1159v158l389 1276h379l391 -1276v-158z" />
    <glyph glyph-name="Epsilon" unicode="&#x395;" horiz-adv-x="1101" 
d="M1001 1434v-213h-595v-379h555v-213h-555v-416h610v-213h-885v1434h870z" />
    <glyph glyph-name="Zeta" unicode="&#x396;" horiz-adv-x="1146" 
d="M1065 1434v-181l-662 -1040h662v-213h-985v180l659 1041h-647v213h973z" />
    <glyph glyph-name="Eta" unicode="&#x397;" horiz-adv-x="1335" 
d="M1204 1434v-1434h-274v633h-524v-633h-275v1434h275v-588h524v588h274z" />
    <glyph glyph-name="Theta" unicode="&#x398;" horiz-adv-x="1282" 
d="M475 823h332v-170h-332v170zM641 1249q-96 0 -163 -44t-95 -109v-756q29 -66 95 -110t163 -44q96 0 163 44t95 110v756q-29 66 -95 110t-163 43zM641 1462q213 0 345 -93t188 -218v-866q-56 -125 -188 -219t-345 -94t-345 94t-187 219v866q55 125 187 218t345 93z" />
    <glyph glyph-name="Iota" unicode="&#x399;" horiz-adv-x="536" 
d="M406 1434v-1434h-275v1434h275z" />
    <glyph glyph-name="Kappa" unicode="&#x39a;" horiz-adv-x="1245" 
d="M1184 0h-215l-416 651l-147 -159v-492h-275v1434h275v-607l544 607h178v-158l-395 -428l451 -690v-158z" />
    <glyph glyph-name="Lambda" unicode="&#x39b;" horiz-adv-x="1263" 
d="M1208 0h-260l-323 1157h-7l-325 -1157h-238v158l389 1276h375l389 -1276v-158z" />
    <glyph glyph-name="Mu" unicode="&#x39c;" horiz-adv-x="1642" 
d="M1511 1434v-1434h-258v1100h-6l-340 -787h-172l-342 787h-6v-1100h-256v1434h373l321 -746h6l312 746h368z" />
    <glyph glyph-name="Nu" unicode="&#x39d;" horiz-adv-x="1361" 
d="M1231 1434v-1434h-322l-516 1040h-6v-1040h-256v1434h324l514 -1041h6v1041h256z" />
    <glyph glyph-name="Xi" unicode="&#x39e;" horiz-adv-x="1171" 
d="M1069 1434v-213h-348v-377h278v-213h-278v-418h358v-213h-989v213h363v418h-281v213h281v377h-353v213h969z" />
    <glyph glyph-name="Omicron" unicode="&#x39f;" horiz-adv-x="1282" 
d="M641 1249q-96 0 -163 -44t-95 -109v-756q29 -66 95 -110t163 -44q96 0 163 44t95 110v756q-29 66 -95 110t-163 43zM641 1462q213 0 345 -93t188 -218v-866q-56 -125 -188 -219t-345 -94t-345 94t-187 219v866q55 125 187 218t345 93z" />
    <glyph glyph-name="Pi" unicode="&#x3a0;" horiz-adv-x="1323" 
d="M1194 1434v-1434h-274v1221h-514v-1221h-275v1434h1063z" />
    <glyph glyph-name="Rho" unicode="&#x3a1;" horiz-adv-x="1196" 
d="M633 1223h-227v-473h227q158 0 219 120v232q-65 121 -219 121zM696 1434q133 0 245 -64t177 -178v-410q-59 -106 -169 -175t-253 -68h-290v-539h-275v1434h565z" />
    <glyph glyph-name="Sigma" unicode="&#x3a3;" horiz-adv-x="1150" 
d="M1051 1434v-213h-637l348 -480l-363 -528h666v-213h-985v180l375 555l-355 494v205h951z" />
    <glyph glyph-name="Tau" unicode="&#x3a4;" horiz-adv-x="1101" 
d="M1051 1434v-213h-363v-1221h-274v1221h-363v213h1000z" />
    <glyph glyph-name="Upsilon" unicode="&#x3a5;" horiz-adv-x="1171" 
d="M1110 1434v-158l-391 -690v-586h-277v610l-381 666v158h224l305 -578h6l301 578h213z" />
    <glyph glyph-name="Phi" unicode="&#x3a6;" horiz-adv-x="1607" 
d="M975 1141h-49v-836h49q81 1 159 43t113 101v548q-35 59 -113 101t-159 43zM635 305h49v836h-49q-82 0 -160 -42t-113 -102v-548q35 -59 113 -101t160 -43zM995 1348q156 0 298 -86t206 -211v-656q-63 -125 -205 -211t-299 -86h-69v-139h-242v139h-70q-156 0 -299 86
t-206 211v656q63 125 206 211t299 86h70v127h242v-127h69z" />
    <glyph glyph-name="Chi" unicode="&#x3a7;" horiz-adv-x="1212" 
d="M1120 1434v-158l-332 -543l345 -575v-158h-234l-297 553h-6l-303 -553h-215v158l346 573l-332 545v158h232l288 -529h6l289 529h213z" />
    <glyph glyph-name="Psi" unicode="&#x3a8;" horiz-adv-x="1572" 
d="M1200 1434h258v-869q-61 -121 -192 -201t-316 -79h-41v-285h-245v285h-39q-182 0 -315 80q-132 80 -195 200v869h258v-803q29 -55 97 -97t169 -42h25v942h245v-942h25q100 0 169 42t97 97v803z" />
    <glyph glyph-name="uni03A9" unicode="&#x3a9;" horiz-adv-x="1292" 
d="M1178 213v-213h-459v293q68 12 117 55t67 94v650q-27 66 -95 110t-162 43q-95 0 -163 -44t-94 -109v-650q51 -125 186 -149v-293h-460v213h256q-186 78 -256 242v696q55 125 187 218t345 93t344 -93t187 -218v-696q-70 -162 -254 -242h254z" />
    <glyph glyph-name="Iotadieresis" unicode="&#x3aa;" horiz-adv-x="536" 
d="M406 1434v-1434h-275v1434h275zM485 1810q88 0 129 -53v-151q-45 -52 -129 -52t-129 52v151q41 53 129 53zM51 1810q88 0 129 -53v-151q-45 -52 -129 -52t-129 52v151q41 53 129 53z" />
    <glyph glyph-name="Upsilondieresis" unicode="&#x3ab;" horiz-adv-x="1171" 
d="M1110 1434v-158l-391 -690v-586h-277v610l-381 666v158h224l305 -578h6l301 578h213zM801 1810q88 0 129 -53v-151q-45 -52 -129 -52t-129 52v151q41 53 129 53zM367 1810q88 0 129 -53v-151q-45 -52 -129 -52t-129 52v151q41 53 129 53z" />
    <glyph glyph-name="alphatonos" unicode="&#x3ac;" horiz-adv-x="1134" 
d="M555 176q137 0 213 84v588q-76 84 -215 84q-78 0 -128 -31t-73 -70v-555q23 -40 74 -70t129 -30zM776 1108h246v-1108h-246v88q-117 -113 -286 -113t-262 75t-132 167v674q39 92 132 167t262 75t286 -113v88zM475 1231v33l121 301h233v-113l-163 -221h-191z" />
    <glyph glyph-name="epsilontonos" unicode="&#x3ad;" horiz-adv-x="1089" 
d="M1020 287v-109q-158 -207 -463 -207q-182 0 -299 67t-168 142v226q59 111 178 167q-104 43 -166 144v203q49 82 162 150t293 67q180 0 295 -70t164 -145v-101h-228q-23 51 -81 85q-59 34 -146 34q-141 0 -209 -100v-82q57 -102 199 -103h149v-176h-149q-154 0 -207 -104
v-115q78 -92 221 -92q83 0 147 36t89 83h219zM457 1231v33l121 301h233v-113l-164 -221h-190z" />
    <glyph glyph-name="etatonos" unicode="&#x3ae;" horiz-adv-x="1146" 
d="M645 1133q168 0 262 -75t131 -167v-1231h-254v1171q-22 39 -72 70t-128 31q-141 0 -217 -84v-848h-254v1108h237v-94q127 119 295 119zM465 1231v33l123 301h231v-113l-162 -221h-192z" />
    <glyph glyph-name="iotatonos" unicode="&#x3af;" horiz-adv-x="497" 
d="M377 1108v-1108h-256v1108h256zM504 1565v-113l-164 -221h-190v33l120 301h234z" />
    <glyph glyph-name="upsilondieresistonos" unicode="&#x3b0;" horiz-adv-x="1130" 
d="M1022 1108v-891q-47 -90 -161 -168t-297 -78t-297 78t-161 168v891h254v-827q66 -100 205 -101q78 0 130 32t73 69v827h254zM906 1470q70 0 106 -43v-122q-33 -45 -107 -45t-106 45v122q37 43 107 43zM240 1470q70 0 106 -43v-122q-34 -45 -106 -45t-107 45v122
q37 43 107 43zM723 1565v-113l-127 -192h-156v32l92 273h191z" />
    <glyph glyph-name="alpha" unicode="&#x3b1;" horiz-adv-x="1134" 
d="M555 176q137 0 213 84v588q-76 84 -215 84q-78 0 -128 -31t-73 -70v-555q23 -40 74 -70t129 -30zM776 1108h246v-1108h-246v88q-117 -113 -286 -113t-262 75t-132 167v674q39 92 132 167t262 75t286 -113v88z" />
    <glyph glyph-name="beta" unicode="&#x3b2;" horiz-adv-x="1144" 
d="M586 678h-54v186h39q129 0 191 99v198q-68 101 -198 101t-197 -111v-864q72 -106 221 -107q82 0 139 37t80 90v242q-59 129 -221 129zM652 -25q-170 0 -285 109v-424h-254v1550q57 102 168 178t281 74q170 0 281 -66q112 -66 165 -147v-331q-52 -85 -158 -132
q150 -63 211 -200v-340q-39 -106 -139 -188t-270 -83z" />
    <glyph glyph-name="gamma" unicode="&#x3b3;" horiz-adv-x="1077" 
d="M1014 1108v-145l-348 -959v-344h-254v340l-349 963v145h228l252 -789h6l254 789h211z" />
    <glyph glyph-name="delta" unicode="&#x3b4;" horiz-adv-x="1138" 
d="M570 819q-82 0 -140 -37q-57 -37 -80 -92v-389q23 -53 80 -90t139 -37t140 37q56 37 79 90v389q-20 55 -78 92t-140 37zM570 -29q-190 0 -308 83q-119 83 -166 192v454q70 152 254 211q-133 51 -186 138v231q146 182 414 182t411 -182v-98h-221q-61 96 -181 96t-188 -72
v-114q39 -66 150 -84l115 -21q150 -25 246 -101t132 -167v-473q-46 -109 -164 -192t-308 -83z" />
    <glyph glyph-name="epsilon" unicode="&#x3b5;" horiz-adv-x="1089" 
d="M1020 287v-109q-158 -207 -463 -207q-182 0 -299 67t-168 142v226q59 111 178 167q-104 43 -166 144v203q49 82 162 150t293 67q180 0 295 -70t164 -145v-101h-228q-23 51 -81 85q-59 34 -146 34q-141 0 -209 -100v-82q57 -102 199 -103h149v-176h-149q-154 0 -207 -104
v-115q78 -92 221 -92q83 0 147 36t89 83h219z" />
    <glyph glyph-name="zeta" unicode="&#x3b6;" horiz-adv-x="1021" 
d="M561 203h379v-459h-219v256h-244q-150 0 -246 71t-141 160v316q45 115 127 205l453 489h-535v193h828v-183l-535 -604q-59 -66 -84 -137v-213q80 -94 217 -94z" />
    <glyph glyph-name="eta" unicode="&#x3b7;" horiz-adv-x="1146" 
d="M645 1133q168 0 262 -75t131 -167v-1231h-254v1171q-22 39 -72 70t-128 31q-141 0 -217 -84v-848h-254v1108h237v-94q127 119 295 119z" />
    <glyph glyph-name="theta" unicode="&#x3b8;" horiz-adv-x="1136" 
d="M568 180q79 0 134 33t78 74v391h-424v-391q25 -41 79 -74t133 -33zM568 1255q-79 -1 -133 -33t-79 -75v-295h424v295q-23 43 -78 75t-134 33zM567 1462q180 0 292 -74t169 -169v-1004q-57 -96 -169 -170t-292 -74t-291 74t-167 170v1004q57 96 167 170q111 73 291 73z
" />
    <glyph glyph-name="iota" unicode="&#x3b9;" horiz-adv-x="497" 
d="M377 1108v-1108h-256v1108h256z" />
    <glyph glyph-name="kappa" unicode="&#x3ba;" horiz-adv-x="1085" 
d="M1047 0h-201l-332 475l-147 -145v-330h-254v1108h254v-481l464 481h166v-145l-311 -314l361 -506v-143z" />
    <glyph glyph-name="lambda" unicode="&#x3bb;" horiz-adv-x="1064" 
d="M1010 0h-224l-243 788l-250 -788h-223v145l350 930l-55 158q-63 59 -175 59q-53 0 -79 -4v180q76 16 149 17q211 0 328 -137l422 -1205v-143z" />
    <glyph glyph-name="uni03BC" unicode="&#x3bc;" horiz-adv-x="1138" 
d="M772 1108h254v-1108h-238v94q-115 -119 -276 -119q-76 0 -145 27v-342h-254v1448h254v-842q25 -34 75 -62t117 -28q133 0 213 84v848z" />
    <glyph glyph-name="nu" unicode="&#x3bd;" horiz-adv-x="1083" 
d="M1016 1108v-145l-318 -963h-315l-317 963v145h229l254 -848h6l250 848h211z" />
    <glyph glyph-name="xi" unicode="&#x3be;" horiz-adv-x="1032" 
d="M557 1462q268 0 426 -182v-137h-225q-58 117 -192 117t-201 -99v-198q66 -109 188 -109h176v-184h-166q-160 0 -219 -129v-244q80 -94 217 -94h379v-459h-219v256h-244q-150 0 -246 71t-141 160v347q23 51 86 107t141 85q-143 49 -206 158v291q55 99 167 171t279 72z" />
    <glyph glyph-name="omicron" unicode="&#x3bf;" horiz-adv-x="1138" 
d="M569 938q-80 0 -137 -37t-82 -90v-514q23 -53 80 -90t139 -37t140 37q57 37 79 90v514q-23 53 -80 90q-59 37 -139 37zM570 1137q188 0 308 -83t164 -192v-616q-46 -109 -164 -192t-308 -83t-308 83q-119 83 -166 192v616q47 109 166 192t308 83z" />
    <glyph glyph-name="pi" unicode="&#x3c0;" horiz-adv-x="1271" 
d="M1221 1108v-188h-131v-920h-254v920h-402v-920h-254v920h-127v188h1168z" />
    <glyph glyph-name="rho" unicode="&#x3c1;" horiz-adv-x="1124" 
d="M566 934q-148 0 -210 -111v-557q74 -90 214 -90t204 103v542q-60 113 -208 113zM564 1137q185 0 301 -81t163 -179v-660q-37 -90 -132 -166t-261 -76t-279 107v-422h-254v1217q43 98 160 179t302 81z" />
    <glyph glyph-name="uni03C2" unicode="&#x3c2;" horiz-adv-x="1060" 
d="M987 829h-221q-18 47 -70 76t-127 29q-160 0 -219 -129v-475q23 -51 80 -89t137 -38h359v-459h-217v256h-172q-180 0 -286 82q-105 82 -155 194v586q47 109 165 192t327 83t352 -139q29 -28 47 -56v-113z" />
    <glyph glyph-name="sigma" unicode="&#x3c3;" horiz-adv-x="1189" 
d="M571 920q-80 0 -137 -42t-84 -100v-477q25 -53 82 -90t138 -37t139 37q57 37 79 90v477q-39 100 -118 142h-99zM1133 1108v-188h-201q80 -66 110 -156v-518q-46 -109 -164 -192t-308 -83t-308 83q-119 83 -166 192v577q49 111 168 198t307 87h562z" />
    <glyph glyph-name="tau" unicode="&#x3c4;" horiz-adv-x="966" 
d="M920 920h-312v-658q45 -84 191 -84q53 0 82 4v-184q-78 -20 -176 -21q-274 0 -351 191v752h-309v188h875v-188z" />
    <glyph glyph-name="upsilon" unicode="&#x3c5;" horiz-adv-x="1130" 
d="M1022 1108v-891q-47 -90 -161 -168t-297 -78t-297 78t-161 168v891h254v-827q66 -100 205 -101q78 0 130 32t73 69v827h254z" />
    <glyph glyph-name="phi" unicode="&#x3c6;" horiz-adv-x="1560" 
d="M1047 944q-51 0 -91 -28t-55 -62v-661h47q184 0 260 129v536q-51 86 -161 86zM1058 1137q150 0 253 -65q102 -65 151 -144v-652q-45 -108 -172 -192t-315 -84h-74v-340h-242v340h-73q-186 0 -316 84q-129 84 -174 192v551q74 211 246 287h147v-174q-90 -37 -139 -158
v-460q76 -129 262 -129h47v731q39 78 144 146t255 67z" />
    <glyph glyph-name="chi" unicode="&#x3c7;" horiz-adv-x="1101" 
d="M133 1126q172 0 266 -114l176 -441h7l219 537h229v-145l-293 -568l246 -510q45 -49 125 -49v-178q-39 -8 -98 -8q-180 0 -271 127l-180 448h-6l-231 -565h-228v143l303 594l-237 494q-51 47 -125 47v172q65 16 98 16z" />
    <glyph glyph-name="psi" unicode="&#x3c8;" horiz-adv-x="1583" 
d="M1221 1108h254v-819q-39 -109 -166 -199t-324 -90h-72v-340h-241v340h-76q-195 0 -323 90t-167 199v819h254v-772q25 -57 93 -100t170 -43h49v1161h241v-1161h45q102 0 170 43t93 100v772z" />
    <glyph glyph-name="omega" unicode="&#x3c9;" horiz-adv-x="1558" 
d="M1092 -25q-201 0 -312 140q-113 -139 -311 -140q-145 0 -244 81q-98 81 -129 167v604q74 211 246 287h147v-174q-90 -37 -139 -158v-508q53 -106 162 -106q51 0 91 28t54 62v487h244v-483q12 -38 52 -66t94 -28q109 0 161 106v508q-49 121 -139 158v174h150
q170 -76 243 -287v-604q-31 -86 -128 -167t-242 -81z" />
    <glyph glyph-name="iotadieresis" unicode="&#x3ca;" horiz-adv-x="497" 
d="M377 1108v-1108h-256v1108h256zM466 1509q85 0 130 -51v-155q-39 -51 -127 -51t-133 51v155q45 51 130 51zM30 1509q85 0 130 -51v-155q-39 -51 -127 -51t-133 51v155q45 51 130 51z" />
    <glyph glyph-name="upsilondieresis" unicode="&#x3cb;" horiz-adv-x="1130" 
d="M1022 1108v-891q-47 -90 -161 -168t-297 -78t-297 78t-161 168v891h254v-827q66 -100 205 -101q78 0 130 32t73 69v827h254zM781 1509q85 0 130 -51v-155q-39 -51 -127 -51t-133 51v155q45 51 130 51zM345 1509q85 0 130 -51v-155q-39 -51 -127 -51t-133 51v155
q45 51 130 51z" />
    <glyph glyph-name="omicrontonos" unicode="&#x3cc;" horiz-adv-x="1138" 
d="M569 938q-80 0 -137 -37t-82 -90v-514q23 -53 80 -90t139 -37t140 37q57 37 79 90v514q-23 53 -80 90q-59 37 -139 37zM570 1137q188 0 308 -83t164 -192v-616q-46 -109 -164 -192t-308 -83t-308 83q-119 83 -166 192v616q47 109 166 192t308 83zM823 1565v-113
l-164 -221h-190v33l121 301h233z" />
    <glyph glyph-name="upsilontonos" unicode="&#x3cd;" horiz-adv-x="1130" 
d="M1022 1108v-891q-47 -90 -161 -168t-297 -78t-297 78t-161 168v891h254v-827q66 -100 205 -101q78 0 130 32t73 69v827h254zM819 1565v-113l-164 -221h-190v33l121 301h233z" />
    <glyph glyph-name="omegatonos" unicode="&#x3ce;" horiz-adv-x="1558" 
d="M1092 -25q-201 0 -312 140q-113 -139 -311 -140q-145 0 -244 81q-98 81 -129 167v604q74 211 246 287h147v-174q-90 -37 -139 -158v-508q53 -106 162 -106q51 0 91 28t54 62v487h244v-483q12 -38 52 -66t94 -28q109 0 161 106v508q-49 121 -139 158v174h150
q170 -76 243 -287v-604q-31 -86 -128 -167t-242 -81zM680 1231v33l121 301h233v-113l-164 -221h-190z" />
    <glyph glyph-name="uni0401" unicode="&#x401;" horiz-adv-x="1101" 
d="M1001 1434v-213h-595v-379h555v-213h-555v-416h610v-213h-885v1434h870zM793 1810q88 0 129 -53v-151q-45 -51 -129 -51.5t-129 51.5v151q41 53 129 53zM358 1810q88 0 129 -53v-151q-45 -51 -129 -51.5t-129 51.5v151q41 53 129 53z" />
    <glyph glyph-name="uni0402" unicode="&#x402;" horiz-adv-x="1449" 
d="M913 922q172 0 292 -66t169 -151v-492q-49 -86 -168 -152t-291 -65h-65v205q94 1 159 31t91 67v315q-27 39 -88 70t-154 31q-152 0 -248 -84v-631h-274v1225h-285v209h938v-209h-379v-383q131 80 303 80z" />
    <glyph glyph-name="uni0403" unicode="&#x403;" horiz-adv-x="1040" 
d="M989 1434v-209h-583v-1225h-275v1434h858zM752 1858v-113l-166 -209h-185v31l117 291h234z" />
    <glyph glyph-name="uni0404" unicode="&#x404;" horiz-adv-x="1259" 
d="M652 1249q-104 0 -171 -44q-68 -44 -98 -109v-258h455v-207h-455v-293q31 -66 99 -110t170 -44q104 0 176 60t100 155h235v-135q-55 -115 -183 -204t-340 -89q-212 -1 -344 93t-187 219v868q55 125 187 218t344 93t340 -89t183 -204v-135h-235q-28 94 -100 154t-176 61z
" />
    <glyph glyph-name="uni0405" unicode="&#x405;" horiz-adv-x="1210" 
d="M602.5 1462q188.5 0 313 -76.5t176.5 -168.5v-136h-236q-57 168 -258 168q-78 0 -137.5 -32.5t-83.5 -77.5v-168q18 -35 55 -57.5t127 -47.5l117 -28q199 -51 293 -113.5t141 -144.5v-336q-52 -91 -158 -172q-134 -101 -348.5 -101t-341.5 84t-180 187v137h237
q23 -84 96.5 -138.5t175 -54.5t165 40t90.5 93v162q-45 86 -207 127l-115 29q-186 45 -270 96t-143 139v345q55 94 179 169.5t312.5 75.5z" />
    <glyph glyph-name="uni0406" unicode="&#x406;" horiz-adv-x="536" 
d="M406 1434v-1434h-275v1434h275z" />
    <glyph glyph-name="uni0407" unicode="&#x407;" horiz-adv-x="536" 
d="M406 1434v-1434h-275v1434h275zM467 1784q82 0 127 -51v-136q-45 -51 -127 -51t-127 51v136q45 51 127 51zM74 1784q82 0 127 -51v-136q-45 -51 -127 -51t-127 51v136q45 51 127 51z" />
    <glyph glyph-name="uni0408" unicode="&#x408;" horiz-adv-x="792" 
d="M668 1434v-1149q-135 -289 -514 -289q-63 0 -113 4v209h92q201 0 260 143v1082h275z" />
    <glyph glyph-name="uni0409" unicode="&#x409;" horiz-adv-x="2013" 
d="M1464 690h-256v-483h244q159 0 225 123v245q-29 51 -87 83t-126 32zM1511 897q129 -1 244 -65t176 -168v-420q-55 -100 -164 -172t-256 -72h-577v1225h-342l-121 -1055q-59 -98 -159 -138t-271 -40v213q68 -1 118 27t70 67l131 1135h848v-537h303z" />
    <glyph glyph-name="uni040A" unicode="&#x40a;" horiz-adv-x="1980" 
d="M1432 690h-256v-483h245q156 0 226 123v245q-31 51 -89 83t-126 32zM1479 897q129 -1 245 -65t174 -168v-420q-54 -98 -162 -171t-255 -73h-580v690h-495v-690h-275v1434h275v-537h495v537h275v-537h303z" />
    <glyph glyph-name="uni040B" unicode="&#x40b;" horiz-adv-x="1392" 
d="M989 1434v-209h-379v-348h279q129 0 244 -65t176 -171v-641h-252v555q-31 51 -89 83t-126 32h-232v-670h-274v1225h-285v209h938z" />
    <glyph glyph-name="uni040C" unicode="&#x40c;" horiz-adv-x="1202" 
d="M1126 1434v-158l-356 -520l373 -598v-158h-223l-375 641h-150v-641h-274v1434h274v-584h150l375 584h206zM834 1858v-113l-166 -209h-185v31l117 291h234z" />
    <glyph glyph-name="uni040E" unicode="&#x40e;" horiz-adv-x="1161" 
d="M68 1434h219l325 -764l277 764h213v-158l-449 -1139q-127 -150 -372 -149q-51 0 -113 10v199l78 -4q137 0 190 65l39 109l-407 909v158zM586 1516q-127 0 -211 48t-119 124v120h186v-77q12 -25 48 -50t96 -25t94 26q35 24 47 49v77h188v-120q-83 -172 -329 -172z" />
    <glyph glyph-name="uni040F" unicode="&#x40f;" horiz-adv-x="1314" 
d="M1186 1434v-1434h-412v-264h-233v264h-410v1434h275v-1225h505v1225h275z" />
    <glyph glyph-name="uni0410" unicode="&#x410;" horiz-adv-x="1269" 
d="M440 575h369l-180 642h-6zM1214 0h-243l-103 362h-489l-103 -362h-221v158l389 1276h379l391 -1276v-158z" />
    <glyph glyph-name="uni0411" unicode="&#x411;" horiz-adv-x="1206" 
d="M662 678h-256v-471h245q156 0 226 123v233q-31 51 -89 83t-126 32zM709 887q129 0 245 -65t174 -171v-407q-54 -98 -162 -171t-255 -73h-580v1434h971v-209h-696v-338h303z" />
    <glyph glyph-name="uni0412" unicode="&#x412;" horiz-adv-x="1224" 
d="M670 647h-264v-438h249q162 0 228 119v207q-29 49 -87 81t-126 31zM406 1225v-385h249q131 0 201 110v158q-63 117 -213 117h-237zM715 0h-584v1434h574q139 0 243 -70t160 -172v-281q-60 -102 -162 -155q125 -51 191 -160v-352q-55 -100 -163 -172t-259 -72z" />
    <glyph glyph-name="uni0413" unicode="&#x413;" horiz-adv-x="1040" 
d="M989 1434v-209h-583v-1225h-275v1434h858z" />
    <glyph glyph-name="uni0414" unicode="&#x414;" horiz-adv-x="1445" 
d="M948 209v1016h-344l-100 -910q-37 -65 -107 -106h551zM1223 209h166v-479h-234v270h-872v-270h-232v479q61 16 121 60q59 44 80 89l125 1076h846v-1225z" />
    <glyph glyph-name="uni0415" unicode="&#x415;" horiz-adv-x="1101" 
d="M1001 1434v-213h-595v-379h555v-213h-555v-416h610v-213h-885v1434h870z" />
    <glyph glyph-name="uni0416" unicode="&#x416;" horiz-adv-x="1792" 
d="M1716 1434v-158l-305 -514l320 -604v-158h-224l-321 641h-160v-641h-260v641h-162l-319 -641h-224v158l318 604l-303 514v158h207l323 -584h160v584h260v-584h160l323 584h207z" />
    <glyph glyph-name="uni0417" unicode="&#x417;" horiz-adv-x="1222" 
d="M606 -29q-145 0 -261 51.5t-168 105.5t-85 114v133h236q23 -82 96.5 -137.5t172.5 -55.5t162.5 41t92.5 92v179q-27 53 -91.5 95t-156.5 38h-178v211h178q92 -2 156.5 39t91.5 92v149q-29 51 -92.5 92t-162.5 41t-173 -55t-96 -137h-236v133q33 59 85 113.5t168 105.5
t261 51q207 0 331 -84t181 -186v-260q-68 -127 -203 -199q133 -72 203 -198v-293q-57 -102 -181 -186.5t-331 -84.5z" />
    <glyph glyph-name="uni0418" unicode="&#x418;" horiz-adv-x="1361" 
d="M1231 1434v-1434h-256v1022h-6l-563 -1022h-275v1434h256v-1024h6l563 1024h275z" />
    <glyph glyph-name="uni0419" unicode="&#x419;" horiz-adv-x="1361" 
d="M1231 1434v-1434h-256v1022h-6l-563 -1022h-275v1434h256v-1024h6l563 1024h275zM1010 1808v-120q-84 -172 -330 -172q-127 0 -211 48t-119 124v120h187v-77q12 -25 48 -50t95 -25t94 26q35 24 47 49v77h189z" />
    <glyph glyph-name="uni041A" unicode="&#x41a;" horiz-adv-x="1202" 
d="M1126 1434v-158l-356 -520l373 -598v-158h-223l-375 641h-150v-641h-274v1434h274v-584h150l375 584h206z" />
    <glyph glyph-name="uni041B" unicode="&#x41b;" horiz-adv-x="1339" 
d="M1208 1434v-1434h-274v1225h-342l-121 -1055q-59 -98 -159 -138t-271 -40v213q68 -1 118 27t70 67l131 1135h848z" />
    <glyph glyph-name="uni041C" unicode="&#x41c;" horiz-adv-x="1566" 
d="M1438 1434v-1434h-258v1047h-6l-308 -709h-166l-307 709h-6v-1047h-256v1434h342l315 -725h7l303 725h340z" />
    <glyph glyph-name="uni041D" unicode="&#x41d;" horiz-adv-x="1335" 
d="M1204 1434v-1434h-274v633h-524v-633h-275v1434h275v-588h524v588h274z" />
    <glyph glyph-name="uni041E" unicode="&#x41e;" horiz-adv-x="1282" 
d="M641 1249q-96 0 -163 -44t-95 -109v-756q29 -66 95 -110t163 -44q96 0 163 44t95 110v756q-29 66 -95 110t-163 43zM641 1462q213 0 345 -93t188 -218v-866q-56 -125 -188 -219t-345 -94t-345 94t-187 219v866q55 125 187 218t345 93z" />
    <glyph glyph-name="uni041F" unicode="&#x41f;" horiz-adv-x="1323" 
d="M1194 1434v-1434h-274v1221h-514v-1221h-275v1434h1063z" />
    <glyph glyph-name="uni0420" unicode="&#x420;" horiz-adv-x="1196" 
d="M633 1223h-227v-473h227q158 0 219 120v232q-65 121 -219 121zM696 1434q133 0 245 -64t177 -178v-410q-59 -106 -169 -175t-253 -68h-290v-539h-275v1434h565z" />
    <glyph glyph-name="uni0421" unicode="&#x421;" horiz-adv-x="1241" 
d="M640 1462q212 0 340 -89t183 -204v-135h-235q-27 94 -99.5 154.5t-176 60.5t-171 -44t-98.5 -109v-758q31 -66 98.5 -110t171 -44t176 60.5t99.5 154.5h235v-135q-55 -115 -183 -204t-340 -89t-344 93.5t-187 218.5v868q55 125 187 218t344 93z" />
    <glyph glyph-name="uni0422" unicode="&#x422;" horiz-adv-x="1101" 
d="M1051 1434v-213h-363v-1221h-274v1221h-363v213h1000z" />
    <glyph glyph-name="uni0423" unicode="&#x423;" horiz-adv-x="1169" 
d="M68 1434h219l325 -766l277 766h213v-158l-449 -1139q-125 -150 -372 -149q-47 0 -113 10v199l80 -4q133 0 190 65l37 109l-407 909v158z" />
    <glyph glyph-name="uni0424" unicode="&#x424;" horiz-adv-x="1564" 
d="M948 1118h-43v-803h43q76 1 150 39t108 95v536q-34 57 -108 95t-150 38zM618 315h46v803h-46q-76 0 -150 -38t-106 -95v-536q32 -57 106 -95t150 -39zM973 1323q147 0 284 -81t201 -204v-643q-62 -123 -200 -204t-285 -80h-68v-193h-241v193h-68q-147 0 -286 80
q-138 81 -201 204v643q63 123 201 204t286 81h68v193h241v-193h68z" />
    <glyph glyph-name="uni0425" unicode="&#x425;" horiz-adv-x="1212" 
d="M1120 1434v-158l-332 -543l345 -575v-158h-234l-297 553h-6l-303 -553h-215v158l346 573l-332 545v158h232l288 -529h6l289 529h213z" />
    <glyph glyph-name="uni0426" unicode="&#x426;" horiz-adv-x="1400" 
d="M1180 1434v-1225h166v-479h-234v270h-981v1434h275v-1225h499v1225h275z" />
    <glyph glyph-name="uni0427" unicode="&#x427;" horiz-adv-x="1288" 
d="M883 1434h274v-1434h-274v565q-129 -82 -303 -82t-293 66t-170 151v734h274v-650q27 -40 88 -70t154 -30q154 0 250 84v666z" />
    <glyph glyph-name="uni0428" unicode="&#x428;" horiz-adv-x="1882" 
d="M1749 1434v-1434h-1618v1434h275v-1225h399v1225h274v-1225h396v1225h274z" />
    <glyph glyph-name="uni0429" unicode="&#x429;" horiz-adv-x="1972" 
d="M1749 1434v-1225h168v-479h-234v270h-1552v1434h275v-1225h399v1225h274v-1225h396v1225h274z" />
    <glyph glyph-name="uni042A" unicode="&#x42a;" horiz-adv-x="1394" 
d="M846 690h-256v-483h246q156 0 225 123v245q-31 51 -89 83t-126 32zM590 1434v-537h303q129 -1 245 -65t175 -168v-420q-53 -98 -162 -171t-256 -73h-580v1227h-264v207h539z" />
    <glyph glyph-name="uni042B" unicode="&#x42b;" horiz-adv-x="1685" 
d="M633 690h-227v-483h215q156 0 227 123v245q-31 49 -90 82t-125 33zM1554 1434v-1434h-274v1434h274zM406 1434v-537h274q129 -1 245 -65t175 -168v-420q-55 -100 -164 -172t-256 -72h-549v1434h275z" />
    <glyph glyph-name="uni042C" unicode="&#x42c;" horiz-adv-x="1210" 
d="M662 690h-256v-483h245q156 0 226 123v245q-31 51 -89 83t-126 32zM406 1434v-537h303q129 -1 245 -65t174 -168v-420q-54 -98 -162 -171t-255 -73h-580v1434h275z" />
    <glyph glyph-name="uni042D" unicode="&#x42d;" horiz-adv-x="1259" 
d="M620 1462q210 0 342 -93t187 -218v-868q-55 -125 -186 -218t-343 -93t-340 88q-128 89 -186 204v135h238q28 -94 100 -154q72 -61 176 -61t171 44t95 110v293h-452v207h452v258q-30 66 -96 110t-170 43q-104 0 -178 -60q-72 -60 -98 -155h-238v135q57 115 186 204t340 89
z" />
    <glyph glyph-name="uni042E" unicode="&#x42e;" horiz-adv-x="1802" 
d="M1176 184q177 0 243 154v760q-68 154 -243 153q-90 0 -152 -44t-90 -109v-760q27 -68 88 -111t154 -43zM1176 1462q210 0 336 -92t182 -219v-866q-54 -127 -182 -220t-336 -93t-335 92q-126 94 -182 221v346h-253v-631h-275v1434h275v-594h253v311q55 127 181 219t336 92
z" />
    <glyph glyph-name="uni042F" unicode="&#x42f;" horiz-adv-x="1239" 
d="M836 772v453h-252q-158 0 -219 -121v-211q66 -121 219 -121h252zM522 1434h588v-1434h-274v567h-195l-319 -567h-222v158l271 434q-176 57 -269 219v381q63 114 175 178t245 64z" />
    <glyph glyph-name="uni0430" unicode="&#x430;" horiz-adv-x="1128" 
d="M546 156q142 0 222 100v236h-236q-131 0 -192 -78v-172q64 -86 206 -86zM549 1137q188 0 307 -83t166 -192v-862h-246v88q-121 -117 -311 -117q-111 0 -198 35t-122 69t-55 66v348q31 55 90 99q110 80 283 82h305v141q-25 55 -82 91t-137 36q-156 0 -219 -131h-217v123
q153 207 436 207z" />
    <glyph glyph-name="uni0431" unicode="&#x431;" horiz-adv-x="1124" 
d="M557 168q82 0 140 37t81 90v364q-23 53 -81 91t-144 36q-139 0 -213 -84v-407q59 -127 217 -127zM629 983q164 0 263 -82t140 -186v-469q-49 -111 -162 -193t-301 -82t-304 83t-163 192v864q111 188 435 250q155 31 209 49t85 53h175v-188q-58 -47 -138 -72t-225 -43
q-238 -35 -303 -125v-155q125 104 289 104z" />
    <glyph glyph-name="uni0432" unicode="&#x432;" horiz-adv-x="1095" 
d="M596 475h-234v-291h224q125 0 178 88v119q-45 84 -168 84zM362 924v-279h234q115 0 158 82v109q-51 88 -168 88h-224zM659 0h-544v1108h544q205 0 326 -188v-238q-45 -68 -135 -109q106 -45 145 -112v-273q-47 -78 -132 -133t-204 -55z" />
    <glyph glyph-name="uni0433" unicode="&#x433;" horiz-adv-x="907" 
d="M854 1108v-190h-485v-918h-254v1108h739z" />
    <glyph glyph-name="uni0434" unicode="&#x434;" horiz-adv-x="1257" 
d="M799 188v730h-281l-69 -633q-29 -55 -95 -97h445zM1053 188h153v-432h-217v244h-743v-244h-215v432q57 16 110 56t74 80l90 784h748v-920z" />
    <glyph glyph-name="uni0435" unicode="&#x435;" horiz-adv-x="1116" 
d="M569 940q-160 0 -219 -129v-141h438v141q-20 55 -78.5 92t-140.5 37zM566 1137q187 0 302 -78t158 -166v-401h-676v-195q25 -55 82 -92t137 -37q170 0 242 166h215v-119q-43 -88 -157.5 -166t-302 -78t-305.5 83t-165 192v616q47 109 165 192t305 83z" />
    <glyph glyph-name="uni0436" unicode="&#x436;" horiz-adv-x="1527" 
d="M1454 1108v-143l-227 -377l243 -445v-143h-200l-256 475h-127v-475h-242v475h-129l-256 -475h-203v143l246 449l-229 373v143h188l254 -444h129v444h242v-444h123l256 444h188z" />
    <glyph glyph-name="uni0437" unicode="&#x437;" horiz-adv-x="1069" 
d="M530 1137q305 0 445 -217v-220q-51 -84 -150 -135q94 -49 150 -135v-242q-139 -217 -445 -217q-180 0 -288.5 69t-155.5 148v123h217q59 -145 225 -145q76 0 128.5 30.5t72.5 67.5v125q-51 88 -194 88h-136v174h136q143 0 194 90v101q-20 39 -72.5 69.5t-128.5 30.5
q-164 0 -225 -145h-217v123q47 80 155.5 148.5t288.5 68.5z" />
    <glyph glyph-name="uni0438" unicode="&#x438;" horiz-adv-x="1200" 
d="M1085 1108v-1108h-239v770h-6l-471 -770h-254v1108h237v-770h6l469 770h258z" />
    <glyph glyph-name="uni0439" unicode="&#x439;" horiz-adv-x="1200" 
d="M1085 1108v-1108h-239v770h-6l-471 -770h-254v1108h237v-770h6l469 770h258zM930 1518v-121q-84 -172 -330 -172q-127 0 -211 48t-119 124v121h187v-78q10 -26 47 -50t96 -24t95 24t46 50v78h189z" />
    <glyph glyph-name="uni043A" unicode="&#x43a;" horiz-adv-x="1054" 
d="M995 1108v-143l-295 -381l312 -441v-143h-199l-317 475h-127v-475h-254v1108h254v-444h127l323 444h176z" />
    <glyph glyph-name="uni043B" unicode="&#x43b;" horiz-adv-x="1159" 
d="M1042 1108v-1108h-254v918h-278l-86 -760q-51 -92 -140 -129t-253 -37v194q61 0 106 26t62 62l96 834h747z" />
    <glyph glyph-name="uni043C" unicode="&#x43c;" horiz-adv-x="1378" 
d="M1264 1108v-1108h-238v786h-6l-272 -532h-117l-273 532h-6v-786h-237v1108h311l264 -520h6l260 520h308z" />
    <glyph glyph-name="uni043D" unicode="&#x43d;" horiz-adv-x="1191" 
d="M1077 1108v-1108h-256v475h-452v-475h-254v1108h254v-444h452v444h256z" />
    <glyph glyph-name="uni043E" unicode="&#x43e;" horiz-adv-x="1138" 
d="M569 938q-80 0 -137 -37t-82 -90v-514q23 -53 80 -90t139 -37t140 37q57 37 79 90v514q-23 53 -80 90q-59 37 -139 37zM570 1137q188 0 308 -83t164 -192v-616q-46 -109 -164 -192t-308 -83t-308 83q-119 83 -166 192v616q47 109 166 192t308 83z" />
    <glyph glyph-name="uni043F" unicode="&#x43f;" horiz-adv-x="1146" 
d="M1034 1108v-1108h-254v918h-411v-918h-254v1108h919z" />
    <glyph glyph-name="uni0440" unicode="&#x440;" horiz-adv-x="1136" 
d="M584 932q-141 0 -217 -86v-584q78 -86 217 -86q78 0 128 30t72 70v555q-22 39 -72 70t-128 31zM646 1133q169 0 262 -75t132 -167v-674q-39 -92 -132 -167t-259 -75t-282 107v-422h-254v1448h245v-90q119 115 288 115z" />
    <glyph glyph-name="uni0441" unicode="&#x441;" horiz-adv-x="1097" 
d="M566 1137q187 0 302 -78t158 -166v-123h-217q-70 168 -240 168q-80 0 -136 -37t-83 -90v-514q25 -53 82 -90t137 -37q170 0 240 166h217v-121q-43 -88 -157.5 -166t-302 -78t-305.5 83t-165 192v616q47 109 165 192t305 83z" />
    <glyph glyph-name="uni0442" unicode="&#x442;" horiz-adv-x="987" 
d="M369 0v918h-318v190h885v-190h-313v-918h-254z" />
    <glyph glyph-name="uni0443" unicode="&#x443;" horiz-adv-x="1064" 
d="M1004 1108v-143l-392 -1164q-117 -158 -372 -157q-104 0 -158 16v182q49 -4 84 -4q164 0 231 80l23 84l-354 961v145h229l250 -789h6l237 789h216z" />
    <glyph glyph-name="uni0444" unicode="&#x444;" horiz-adv-x="1558" 
d="M1032 936q-70 0 -131 -31v-702q66 -33 133 -33q125 0 174 86v596q-53 84 -176 84zM526 170q72 0 133 35v698q-55 33 -133 33q-123 0 -176 -84v-596q49 -86 176 -86zM1119 1133q128 0 217 -72t126 -158v-698q-37 -86 -126 -158t-217 -72t-218 58v-373h-242v375
q-87 -59 -217 -59t-222 71q-91 72 -124 158v698q33 86 124 158q90 72 222 72t217 -62v363h242v-359q90 58 218 58z" />
    <glyph glyph-name="uni0445" unicode="&#x445;" horiz-adv-x="1034" 
d="M948 1108v-145l-256 -396l273 -424v-143h-213l-232 420h-6l-240 -420h-206v143l272 424l-254 396v145h211l217 -395h6l223 395h205z" />
    <glyph glyph-name="uni0446" unicode="&#x446;" horiz-adv-x="1234" 
d="M1034 1108v-920h152v-432h-217v244h-854v1108h254v-920h411v920h254z" />
    <glyph glyph-name="uni0447" unicode="&#x447;" horiz-adv-x="1103" 
d="M733 1108h254v-1108h-254v416q-100 -45 -229 -45q-274 0 -400 168v569h254v-471q68 -74 182 -74t193 41v504z" />
    <glyph glyph-name="uni0448" unicode="&#x448;" horiz-adv-x="1640" 
d="M1524 1108v-1108h-1409v1108h254v-920h323v920h256v-920h322v920h254z" />
    <glyph glyph-name="uni0449" unicode="&#x449;" horiz-adv-x="1730" 
d="M1524 1108v-920h151v-432h-217v244h-1343v1108h254v-920h323v920h256v-920h322v920h254z" />
    <glyph glyph-name="uni044A" unicode="&#x44a;" horiz-adv-x="1241" 
d="M760 532h-213v-346h213q111 0 170 90v164q-55 92 -170 92zM547 1108v-389h291q104 0 191 -51t142 -136v-344q-125 -188 -329 -188h-549v920h-242v188h496z" />
    <glyph glyph-name="uni044B" unicode="&#x44b;" horiz-adv-x="1497" 
d="M563 532h-192v-346h192q106 0 170 90v164q-23 36 -68 64t-102 28zM1382 1108v-1108h-254v1108h254zM369 1108v-389h272q103 0 191 -51t143 -136v-344q-125 -188 -330 -188h-530v1108h254z" />
    <glyph glyph-name="uni044C" unicode="&#x44c;" horiz-adv-x="1062" 
d="M580 532h-209v-346h209q109 0 172 90v164q-23 36 -68 64t-104 28zM369 1108v-389h288q213 0 336 -187v-344q-125 -188 -329 -188h-549v1108h254z" />
    <glyph glyph-name="uni044D" unicode="&#x44d;" horiz-adv-x="1097" 
d="M530 1137q186 0 306 -83t165 -192v-616q-47 -109 -165 -192t-306 -83q-186 0 -301 78t-157 166v121h215q74 -166 241 -166q80 0 138 37q57 37 82 90v176h-381v176h381v162q-27 53 -83 90t-137 37q-168 0 -241 -168h-215v123q43 88 157 166q115 78 301 78z" />
    <glyph glyph-name="uni044E" unicode="&#x44e;" horiz-adv-x="1624" 
d="M1055 940q-81 0 -139 -37t-80 -90v-518q24 -53 80 -90t138 -37t140 37q57 37 80 90v518q-23 53 -80 90t-139 37zM1056 1137q189 0 307 -83t165 -192v-616q-47 -109 -165 -192t-307 -83t-310 84q-120 84 -164 191v225h-213v-471h-254v1108h254v-446h213v200
q45 106 164 191q121 84 310 84z" />
    <glyph glyph-name="uni044F" unicode="&#x44f;" horiz-adv-x="1118" 
d="M750 584v334h-228q-109 0 -172 -89v-155q59 -90 172 -90h228zM436 1108h568v-1108h-254v401h-175l-270 -401h-205v141l219 279q-127 45 -210 168v332q122 188 327 188z" />
    <glyph glyph-name="uni0451" unicode="&#x451;" horiz-adv-x="1116" 
d="M569 940q-160 0 -219 -129v-141h438v141q-20 55 -78.5 92t-140.5 37zM566 1137q187 0 302 -78t158 -166v-401h-676v-195q25 -55 82 -92t137 -37q170 0 242 166h215v-119q-43 -88 -157.5 -166t-302 -78t-305.5 83t-165 192v616q47 109 165 192t305 83zM798 1509
q85 0 130 -51v-155q-39 -51 -127 -51.5t-133 51.5v155q45 51 130 51zM361 1509q85 0 131 -51v-155q-39 -51 -127.5 -51.5t-133.5 51.5v155q45 51 130 51z" />
    <glyph glyph-name="uni0452" unicode="&#x452;" horiz-adv-x="1177" 
d="M397 1434v-101h342v-139h-342v-203q121 103 285 103t257 -75t130 -167v-924q-43 -106 -163 -191t-308 -85v194q82 0 139 40t78 102v805q-23 39 -73 69t-128 31q-141 0 -217 -88v-805h-254v1194h-88v139h88v101h254z" />
    <glyph glyph-name="uni0453" unicode="&#x453;" horiz-adv-x="907" 
d="M854 1108v-190h-485v-918h-254v1108h739zM705 1571v-113l-164 -217h-193v31l119 299h238z" />
    <glyph glyph-name="uni0454" unicode="&#x454;" horiz-adv-x="1097" 
d="M569 938q-80 0 -136 -37t-83 -90v-162h381v-176h-381v-176q25 -53 82 -90t137 -37q170 0 240 166h217v-121q-43 -88 -158 -166t-302 -78t-305 83t-165 192v616q47 109 165 192t305 83t302 -78t158 -166v-123h-217q-70 168 -240 168z" />
    <glyph glyph-name="uni0455" unicode="&#x455;" horiz-adv-x="1021" 
d="M533.5 1137q140.5 0 245 -60.5t149.5 -128.5v-114h-215q-53 113 -203 112q-121 0 -180 -74v-120q31 -49 159 -82l105 -23q283 -61 352 -180v-289q-31 -45 -73 -84t-142 -81t-221 -42t-221.5 42t-142.5 81t-72 84v115h217q68 -131 213 -131t207 92v111q-35 61 -162 86
l-109 22q-268 57 -348 182v293q27 39 69 76t137 75t235.5 38z" />
    <glyph glyph-name="uni0456" unicode="&#x456;" horiz-adv-x="497" 
d="M377 1108v-1108h-256v1108h256z" />
    <glyph glyph-name="uni0457" unicode="&#x457;" horiz-adv-x="563" 
d="M408 1108v-1108h-254v1108h254zM471 1507q80 0 127 -53v-141q-41 -53 -127 -53t-127 53v141q47 53 127 53zM94 1507q80 0 127 -53v-141q-41 -53 -127 -53t-127 53v141q47 53 127 53z" />
    <glyph glyph-name="uni0458" unicode="&#x458;" horiz-adv-x="481" 
d="M367 1108v-1204q-43 -106 -162 -190t-311 -83v197q82 0 139 40t80 101v1139h254zM242 1511q109 0 139 -69v-121q-31 -70 -139 -70t-140 70v121q31 69 140 69z" />
    <glyph glyph-name="uni0459" unicode="&#x459;" horiz-adv-x="1738" 
d="M1255 532h-211v-346h211q109 0 172 90v164q-59 92 -172 92zM1333 719q211 0 334 -187v-344q-125 -188 -328 -188h-551v918h-278l-86 -760q-51 -92 -140 -129t-253 -37v194q61 0 106 26t62 62l96 834h747v-389h291z" />
    <glyph glyph-name="uni045A" unicode="&#x45a;" horiz-adv-x="1728" 
d="M1253 528h-209v-342h209q109 0 172 90v160q-59 92 -172 92zM1331 715q211 0 334 -189v-338q-125 -188 -328 -188h-546v526h-422v-526h-254v1108h254v-393h422v393h253v-393h287z" />
    <glyph glyph-name="uni045B" unicode="&#x45b;" horiz-adv-x="1177" 
d="M397 1434v-101h342v-139h-342v-203q121 103 285 103t257 -75t130 -167v-852h-254v793q-23 39 -73 69t-128 31q-141 0 -217 -88v-805h-254v1194h-88v139h88v101h254z" />
    <glyph glyph-name="uni045C" unicode="&#x45c;" horiz-adv-x="1054" 
d="M995 1108v-143l-295 -381l312 -441v-143h-199l-317 475h-127v-475h-254v1108h254v-444h127l323 444h176zM776 1571v-113l-164 -217h-192v31l119 299h237z" />
    <glyph glyph-name="uni045E" unicode="&#x45e;" horiz-adv-x="1064" 
d="M1004 1108v-143l-392 -1164q-117 -158 -372 -157q-104 0 -158 16v182q49 -4 84 -4q164 0 231 80l23 84l-354 961v145h229l250 -789h6l237 789h216zM860 1518v-121q-84 -172 -330 -172q-127 0 -211 48t-118 124v121h186v-78q10 -26 47 -50t96 -24t96 24q36 24 46 50v78
h188z" />
    <glyph glyph-name="uni045F" unicode="&#x45f;" horiz-adv-x="1163" 
d="M1049 1108v-1108h-359v-244h-215v244h-360v1108h254v-920h424v920h256z" />
    <glyph glyph-name="uni0490" unicode="&#x490;" horiz-adv-x="1007" 
d="M958 1671v-446h-552v-1225h-275v1434h594v237h233z" />
    <glyph glyph-name="uni0491" unicode="&#x491;" horiz-adv-x="917" 
d="M856 1288v-370h-487v-918h-254v1108h526v180h215z" />
    <glyph glyph-name="uni04D8" unicode="&#x4d8;" horiz-adv-x="1261" 
d="M617 186q97 0 167 44t97 110v227h-527v-235q30 -62 98 -104t165 -42zM624 1462q212 0 344 -93t187 -218v-866q-55 -125 -187 -219t-344 -94t-339 87q-127 88 -185 205v504h781v328q-31 66 -99 110t-171 43q-103 0 -176 -60t-99 -155h-236v135q56 115 184 204t340 89z" />
    <glyph glyph-name="uni04D9" unicode="&#x4d9;" horiz-adv-x="1116" 
d="M547 168q160 0 219 129v139h-438v-139q20 -55 78.5 -92t140.5 -37zM550 -29q-187 0 -302 78t-158 166v401h676v195q-25 55 -82 92t-137 37q-170 0 -242 -166h-215v119q43 88 157.5 166t302 78t305.5 -83t165 -192v-616q-47 -109 -165 -192t-305 -83z" />
    <glyph glyph-name="Wgrave" unicode="&#x1e80;" horiz-adv-x="1867" 
d="M1800 1434v-158l-258 -1276h-364l-246 1001h-6l-244 -1001h-358l-256 1276v158h251l211 -1145h7l272 1145h256l276 -1145h7l208 1145h244zM1047 1536h-185l-164 209v113h228l121 -291v-31z" />
    <glyph glyph-name="wgrave" unicode="&#x1e81;" horiz-adv-x="1615" 
d="M1554 1108v-145l-251 -963h-289l-195 737h-6l-199 -737h-292l-252 963v145h229l188 -834h7l215 834h229l213 -834h6l186 834h211zM909 1241h-188l-166 217v113h236l118 -299v-31z" />
    <glyph glyph-name="Wacute" unicode="&#x1e82;" horiz-adv-x="1867" 
d="M1800 1434v-158l-258 -1276h-364l-246 1001h-6l-244 -1001h-358l-256 1276v158h251l211 -1145h7l272 1145h256l276 -1145h7l208 1145h244zM1169 1858v-113l-165 -209h-185v31l117 291h233z" />
    <glyph glyph-name="wacute" unicode="&#x1e83;" horiz-adv-x="1615" 
d="M1554 1108v-145l-251 -963h-289l-195 737h-6l-199 -737h-292l-252 963v145h229l188 -834h7l215 834h229l213 -834h6l186 834h211zM1057 1571v-113l-164 -217h-193v31l119 299h238z" />
    <glyph glyph-name="Wdieresis" unicode="&#x1e84;" horiz-adv-x="1867" 
d="M1800 1434v-158l-258 -1276h-364l-246 1001h-6l-244 -1001h-358l-256 1276v158h251l211 -1145h7l272 1145h256l276 -1145h7l208 1145h244zM1155 1810q88 0 129 -53v-151q-45 -52 -129 -52t-129 52v151q41 53 129 53zM721 1810q88 0 129 -53v-151q-45 -52 -129 -52
t-129 52v151q41 53 129 53z" />
    <glyph glyph-name="wdieresis" unicode="&#x1e85;" horiz-adv-x="1615" 
d="M1554 1108v-145l-251 -963h-289l-195 737h-6l-199 -737h-292l-252 963v145h229l188 -834h7l215 834h229l213 -834h6l186 834h211zM1025 1509q85 0 130 -51v-155q-39 -51 -127 -51t-133 51v155q45 51 130 51zM589 1509q85 0 130 -51v-155q-39 -51 -127 -51t-133 51v155
q45 51 130 51z" />
    <glyph glyph-name="Ygrave" unicode="&#x1ef2;" horiz-adv-x="1171" 
d="M1110 1434v-158l-391 -690v-586h-277v610l-381 666v158h224l305 -578h6l301 578h213zM694 1536h-184l-164 209v113h227l121 -291v-31z" />
    <glyph glyph-name="ygrave" unicode="&#x1ef3;" horiz-adv-x="1064" 
d="M1004 1108v-143l-392 -1164q-117 -158 -372 -157q-104 0 -158 16v182q49 -4 84 -4q164 0 231 80l23 84l-354 961v145h229l250 -789h6l237 789h216zM631 1241h-189l-166 217v113h236l119 -299v-31z" />
    <glyph glyph-name="endash" unicode="&#x2013;" horiz-adv-x="1157" 
d="M1081 788v-202h-1003v202h1003z" />
    <glyph glyph-name="emdash" unicode="&#x2014;" horiz-adv-x="1771" 
d="M1696 788v-202h-1618v202h1618z" />
    <glyph glyph-name="quoteleft" unicode="&#x2018;" horiz-adv-x="430" 
d="M217 946q-53 0 -91 22t-50 50v309q14 41 65 84t123 43h68v-111h-53q-41 0 -62 -38v-70q51 0 88 -22t49 -48v-147q-12 -28 -48 -50t-89 -22z" />
    <glyph glyph-name="quoteright" unicode="&#x2019;" horiz-adv-x="430" 
d="M213 1462q53 0 91 -20t50 -49v-310q-14 -41 -65 -85t-123 -44h-68v111h54q39 0 61 41v70q-51 0 -88 22t-49 47v148q31 69 137 69z" />
    <glyph glyph-name="quotesinglbase" unicode="&#x201a;" horiz-adv-x="430" 
d="M213 260q53 0 91 -20t50 -50v-309q-14 -41 -65 -85t-123 -44h-68v111h54q39 0 61 41v69q-51 0 -88 22t-49 48v147q31 70 137 70z" />
    <glyph glyph-name="quotedblleft" unicode="&#x201c;" horiz-adv-x="835" 
d="M623 948q-53 0 -92 22q-38 22 -48 50v309q13 41 65 84t122 43h67v-110h-53q-39 0 -61 -39v-70q100 0 139 -72v-145q-37 -72 -139 -72zM217 948q-53 0 -91 22t-50 50v309q14 41 66 84t122 43h68v-110h-53q-39 0 -62 -39v-70q51 0 88 -23t49 -49v-145q-12 -28 -48 -50
t-89 -22z" />
    <glyph glyph-name="quotedblright" unicode="&#x201d;" horiz-adv-x="835" 
d="M618 1462q56 0 94 -22t48 -47v-310q-14 -43 -64 -86t-123 -43h-69v111h53q43 0 61 41v70q-51 0 -88 22t-49 47v148q31 69 137 69zM213 1462q53 0 91 -20t50 -49v-310q-14 -41 -65 -85t-123 -44h-68v111h54q39 0 61 41v70q-51 0 -88 22t-49 47v148q31 69 137 69z" />
    <glyph glyph-name="quotedblbase" unicode="&#x201e;" horiz-adv-x="837" 
d="M621 260q53 0 91 -20t50 -50v-309q-14 -43 -66 -86t-123 -43h-67v111h53q43 0 62 41v69q-51 0 -89 22t-49 48v147q32 70 138 70zM213 260q53 0 91 -20t50 -50v-309q-14 -41 -65 -85t-123 -44h-68v111h54q39 0 61 41v69q-51 0 -88 22t-49 48v147q31 70 137 70z" />
    <glyph glyph-name="dagger" unicode="&#x2020;" horiz-adv-x="1308" 
d="M1241 969v-230h-188l-273 23l-24 -1106h-211l-23 1106l-268 -23h-186v230h186l264 -21l-6 217v269h276v-269l-4 -217l269 21h188z" />
    <glyph glyph-name="daggerdbl" unicode="&#x2021;" horiz-adv-x="1349" 
d="M1241 416v-230h-188l-285 23l-12 -553h-211l-13 553l-278 -23h-186v230h186l274 -23l-8 430l-266 -22h-186v229h186l262 -20l-4 155v269h276v-269l-2 -155l267 20h188v-229h-188l-271 22l-10 -430l281 23h188z" />
    <glyph glyph-name="bullet" unicode="&#x2022;" horiz-adv-x="698" 
d="M348 958q164 0 240 -112v-260q-74 -117 -240 -117q-80 0 -143 34t-94 85v258q31 48 94 80t143 32z" />
    <glyph glyph-name="ellipsis" unicode="&#x2026;" horiz-adv-x="1255" 
d="M1042 256q54 0 92 -22t48 -50v-135q-10 -27 -47 -49t-93 -20q-102 0 -139 69v135q35 72 139 72zM629 256q55 0 92 -22t47 -50v-135q-10 -27 -47 -49t-91 -20q-54 0 -91 22t-50 47v135q13 28 49 50t91 22zM212 256q54 0 91 -22t49 -50v-135q-33 -70 -141 -69q-51 0 -88 22
t-49 47v135q12 28 48 50t90 22z" />
    <glyph glyph-name="perthousand" unicode="&#x2030;" horiz-adv-x="2629" 
d="M2202 590q-54 0 -96 -22t-54 -54v-321q12 -31 53 -53t95 -22t96 22q41 22 55 53v321q-34 76 -149 76zM1411 590q-53 0 -94 -22t-55 -54v-321q14 -31 55 -53t94 -21q113 0 152 74v321q-39 76 -152 76zM2202 727q131 0 218 -55t120 -129v-379q-33 -72 -120 -126t-218 -54
t-219 54q-87 54 -119 126v379q33 74 119 129q88 55 219 55zM1412 727q132 0 219 -55t120 -129v-379q-33 -72 -120 -126t-219 -54t-219 54t-118 126v379q31 74 118 129t219 55zM428 1315q-53 -1 -94 -21t-55 -53v-321q14 -31 55 -53t94 -21q113 0 152 74v321q-37 74 -152 74z
M1475 1434v-111l-988 -1323h-116v111l985 1323h119zM429 1452q132 0 219 -54t118 -128v-379q-31 -74 -118 -128t-219 -54t-219 54t-118 128v379q31 74 118 128t219 54z" />
    <glyph glyph-name="guilsinglleft" unicode="&#x2039;" horiz-adv-x="710" 
d="M625 1108v-137l-338 -375l338 -377v-137h-187l-360 416v192l360 418h187z" />
    <glyph glyph-name="guilsinglright" unicode="&#x203a;" horiz-adv-x="710" 
d="M88 82v137l336 377l-336 375v137h184l363 -418v-192l-363 -416h-184z" />
    <glyph glyph-name="fraction" unicode="&#x2044;" horiz-adv-x="368" 
d="M735 1434v-111l-985 -1323h-117v111l985 1323h117z" />
    <glyph glyph-name="uni20A8" unicode="&#x20a8;" horiz-adv-x="1056" 
d="M1024 1434v-148h-225q47 -51 78 -108v-115h147v-148h-147v-100q-53 -115 -170 -187t-238 -71h-25l433 -420v-137h-236l-532 557v166h294q59 0 122 37q62 37 87 98v57h-503v148h503v51q-25 61 -87 98t-122 37h-294v185h915z" />
    <glyph glyph-name="Euro" unicode="&#x20ac;" horiz-adv-x="1222" 
d="M672 1262q-90 0 -152 -38t-88 -91v-189h473v-145h-473v-137h473v-148h-473v-213q25 -53 87 -91q63 -38 153 -38t154 49t79 131h234v-141q-43 -82 -166 -161t-311 -79t-318 84q-129 84 -174 187v272h-111v148h111v137h-111v145h111v248q45 102 174 186q130 84 318 84
t311 -79t166 -160v-142h-234q-15 81 -79 131t-154 50z" />
    <glyph glyph-name="uni20BA" unicode="&#x20ba;" horiz-adv-x="1189" 
d="M1092 381v-141q-41 -82 -165 -161t-311 -79h-426v446l-131 -63v168l131 63v166l-131 -63v168l131 63v486h265v-359l381 185v-166l-381 -187v-166l381 185v-166l-381 -187v-372h161q102 0 165 49t79 131h232z" />
    <glyph glyph-name="uni20BD" unicode="&#x20bd;" horiz-adv-x="1216" 
d="M653 1227h-227v-469h227q153 0 219 121v227q-66 121 -219 121zM715 1434q133 0 243 -64t179 -178v-375q-59 -106 -168 -173t-254 -66h-289v-121h526v-150h-526v-307h-274v307h-111v150h111v121h-111v180h111v676h563z" />
    <glyph glyph-name="uni2116" unicode="&#x2116;" horiz-adv-x="2045" 
d="M1989 598v-162h-734v162h734zM1623 1298q-124 0 -171 -98v-260q47 -96 170 -96t172 96v260q-47 98 -171 98zM1104 1434v-1434h-289l-422 975h-6v-975h-256v1434h291l420 -975h6v975h256zM1622 1448q146 0 238 -64t129 -145v-338q-39 -81 -129 -145t-238 -64
q-262 0 -367 209v338q103 209 367 209z" />
    <glyph glyph-name="uni2117" unicode="&#x2117;" horiz-adv-x="1644" 
d="M889 1022h-176v-340h176q96 0 139 88v166q-43 86 -139 86zM924 1161q88 0 166 -49t114 -131v-258q-36 -82 -114 -131t-166 -49h-211v-293h-185v911h396zM1450 716q0 266 -182 452t-446 186q-263 0 -446 -186t-183 -451t183 -451t446 -186t446 185q182 185 182 451z
M821 1462q309 0 531 -217t221 -528q0 -311 -221 -529q-220 -218 -530 -217q-310 0 -530 217q-220 216 -220 528t220 529t529 217z" />
    <glyph glyph-name="trademark" unicode="&#x2122;" horiz-adv-x="1638" 
d="M1538 1434v-799h-160v545h-4l-198 -545h-101l-196 545h-5v-545h-159v799h229l186 -504h5l182 504h221zM639 1434v-136h-209v-663h-172v663h-207v136h588z" />
    <glyph glyph-name="uni2154" unicode="&#x2154;" horiz-adv-x="2121" 
d="M1704 879q106 -1 189 -49t116 -105v-182q-31 -55 -133 -94q106 -33 147 -113v-191q-33 -59 -123 -110t-218 -51t-214 46t-114 93v108h151q13 -43 61 -73t108 -29q60 0 104 19t59 49v108q-37 68 -154 68h-108v139h104q102 0 146 57v109q-45 55 -151 55t-154 -94h-152v109
q48 65 139 98t197 33zM1642 1434v-111l-987 -1323h-116v111l985 1323h118zM417 1452q128 0 216 -51t119 -115v-162q-23 -51 -70 -92t-152 -102l-108 -66q-131 -80 -152 -125v-16h492v-150h-672v193q31 57 78 101t139 102l117 69q117 72 141 127v76q-37 66 -157 66t-158 -97
h-160v103q31 49 115 94t212 45z" />
    <glyph glyph-name="oneeighth" unicode="&#x215b;" horiz-adv-x="1994" 
d="M1552 385q-54 0 -95 -19q-42 -19 -56 -47v-133q14 -27 56 -46t95 -19q54 0 96 19t56 46v133q-14 27 -56 47t-96 19zM1553 508q99 0 141 53v123q-46 55 -140 55t-145 -55v-123q45 -53 144 -53zM1551 -16q-130 0 -217 50t-122 111v187q39 70 125 117q-61 33 -100 81v215
q104 133 315 133t316 -133v-215q-37 -48 -103 -81q86 -47 125 -117v-187q-33 -61 -121 -111t-218 -50zM1495 1434v-111l-985 -1323h-119v111l987 1323h117zM96 698h148v582l-150 -12v112l182 54h154v-736h139v-125h-473v125z" />
    <glyph glyph-name="threeeighths" unicode="&#x215c;" horiz-adv-x="2050" 
d="M1618 385q-53 0 -95 -19t-57 -47v-133q14 -27 56 -46t96 -19q53 0 95 19t56 46v133q-14 27 -56 47t-95 19zM1620 508q100 0 139 53v123q-45 55 -139 55t-145 -55v-123q45 -53 145 -53zM1617 -16q-130 0 -217 50t-120 111v187q35 68 123 117q-61 33 -100 81v215
q104 133 315 133t315 -133v-215q-36 -48 -102 -81q90 -49 125 -117v-187q-33 -61 -121 -111t-218 -50zM1567 1434v-111l-987 -1323h-117v111l985 1323h119zM411 557q-128 0 -214 46t-117 93v109h153q13 -43 61 -73t108 -30t104 20q43 20 59 48v109q-37 68 -153 67h-109v139
h105q104 0 143 58v108q-41 55 -147 55t-156 -94h-152v109q20 27 52 53t105 52t179 26t190 -48q83 -48 115 -106v-182q-31 -57 -135 -94q109 -33 150 -113v-190q-33 -59 -123 -111t-218 -51z" />
    <glyph glyph-name="fiveeighths" unicode="&#x215d;" horiz-adv-x="2060" 
d="M1634 385q-54 0 -95 -19q-42 -19 -56 -47v-133q14 -27 56 -46t95 -19q54 0 96 19t56 46v133q-14 27 -56 47t-96 19zM1634 508q102 0 142 53v123q-46 55 -142 55t-141 -55v-123q39 -53 141 -53zM1633 -16q-130 0 -217 50t-120 111v187q35 68 123 117q-61 33 -100 81v215
q104 133 315 133t316 -133v-215q-37 -48 -103 -81q90 -49 125 -117v-187q-33 -61 -121 -111t-218 -50zM1577 1434v-111l-985 -1323h-119v111l987 1323h117zM407 557q-128 0 -211 44t-118 95v109h153q13 -45 61 -74t108 -29t104 20q43 20 59 48v170q-43 68 -142 68t-151 -66
h-172v492h627v-150h-455v-201q78 53 184 53t180 -39q73 -40 99 -93v-308q-29 -49 -113 -94t-213 -45z" />
    <glyph glyph-name="seveneighths" unicode="&#x215e;" horiz-adv-x="1906" 
d="M1492 385q-112 0 -153 -66v-133q41 -66 153 -66t150 66v133q-38 66 -150 66zM1493 508q104 0 139 53v123q-41 55 -139 55t-143 -55v-123q39 -53 143 -53zM1491 -16q-131 0 -218 50t-120 111v187q35 70 123 114q-61 35 -100 84v215q104 133 315 133t315 -133v-215
q-36 -48 -102 -81q90 -49 125 -117v-187q-33 -61 -120 -111t-218 -50zM1417 1434v-111l-985 -1323h-119v111l987 1323h117zM522 1284h-448v150h637v-131l-357 -730h-151v105l319 600v6z" />
    <glyph glyph-name="arrowleft" unicode="&#x2190;" horiz-adv-x="1556" 
d="M819 1434v-156l-471 -457h1208v-209h-1206l469 -456v-156h-172l-647 647v137l647 650h172z" />
    <glyph glyph-name="arrowup" unicode="&#x2191;" horiz-adv-x="1556" 
d="M1495 760h-154l-442 448v-1208h-237v1208l-447 -448h-154v147l650 649h137l647 -649v-147z" />
    <glyph glyph-name="arrowright" unicode="&#x2192;" horiz-adv-x="1556" 
d="M737 0v156l469 456h-1206v209h1208l-471 457v156h172l647 -650v-137l-647 -647h-172z" />
    <glyph glyph-name="arrowdown" unicode="&#x2193;" horiz-adv-x="1556" 
d="M61 674h154l447 -449v1209h237v-1209l442 449h154v-148l-647 -649h-137l-650 649v148z" />
    <glyph glyph-name="partialdiff" unicode="&#x2202;" horiz-adv-x="1138" 
d="M573 782q-82 0 -141 -34t-80 -89v-364q23 -53 80 -90t138 -37t140 37q58 37 81 90v401q-83 86 -218 86zM572 -29q-188 0 -308 83q-119 83 -166 192v465q35 104 143 187q107 83 267 83t283 -86v113q-47 110 -195 200t-315 148l133 145q211 -59 392 -178t238 -260v-817
q-48 -109 -166 -192t-306 -83z" />
    <glyph glyph-name="product" unicode="&#x220f;" horiz-adv-x="1310" 
d="M1176 1434v-1639h-275v1434h-491v-1434h-275v1639h1041z" />
    <glyph glyph-name="summation" unicode="&#x2211;" horiz-adv-x="1134" 
d="M1053 1434v-205h-639l334 -524v-177l-336 -528h641v-205h-973v174l405 647l-405 644v174h973z" />
    <glyph glyph-name="minus" unicode="&#x2212;" horiz-adv-x="1198" 
d="M1122 788v-202h-1044v202h1044z" />
    <glyph glyph-name="radical" unicode="&#x221a;" horiz-adv-x="1208" 
d="M43 915v193h309l246 -801h6l328 1127h225v-138l-407 -1296h-301l-293 915h-113z" />
    <glyph glyph-name="infinity" unicode="&#x221e;" horiz-adv-x="1611" 
d="M1111 516q55 0 95 20t54 52v276q-14 31 -54 51q-40 21 -95 21q-54 0 -97 -22t-60 -50l-57 -143l53 -133q16 -28 62 -50t99 -22zM503 516q54 0 99 22t60 52l53 137l-53 135q-14 30 -60 52t-99 22q-54 0 -95 -22t-56 -52v-272q14 -30 56 -52t95 -22zM1110 1079
q131 0 219 -54t119 -128v-342q-31 -74 -119 -128t-219 -54q-195 0 -303 147q-109 -147 -305 -147q-133 0 -220 55t-118 129v338q31 74 118 129t220 55q195 0 303 -149q108 149 305 149z" />
    <glyph glyph-name="integral" unicode="&#x222b;" horiz-adv-x="882" 
d="M655 1460q123 0 187 -22v-170h-97q-135 0 -178 -88v-1358q-31 -80 -113 -137t-218 -57q-138 0 -195 24v170h96q135 0 176 86v1360q80 192 342 192z" />
    <glyph glyph-name="approxequal" unicode="&#x2248;" horiz-adv-x="1198" 
d="M364 629q90 0 270 -52q180 -53 252 -53q74 0 132 23t84 45l28 22v-225q-86 -70 -211 -70q-125 1 -301 53t-259 52t-153 -26t-104 -52l-32 -27v216q41 34 122 64q82 30 172 30zM364 1063q90 0 270 -52q180 -53 252 -53q74 0 132 23t84 45l28 23v-226q-86 -69 -211 -69
t-301 52t-259 52t-153 -26t-104 -52l-32 -26v215q41 34 122 64q82 30 172 30z" />
    <glyph glyph-name="notequal" unicode="&#x2260;" horiz-adv-x="1198" 
d="M1122 803h-374l-91 -230h465v-202h-542l-82 -207h-207l82 207h-295v202h373l90 230h-463v203h543l79 204h207l-80 -204h295v-203z" />
    <glyph glyph-name="lessequal" unicode="&#x2264;" horiz-adv-x="1198" 
d="M1122 248v-205h-1044v205h1044zM1122 1192v-143l-712 -277l712 -266v-144h-186l-858 326v133l858 371h186z" />
    <glyph glyph-name="greaterequal" unicode="&#x2265;" horiz-adv-x="1198" 
d="M1122 248v-205h-1044v205h1044zM78 362v144l704 264l-704 279v143h184l860 -371v-133l-860 -326h-184z" />
    <glyph glyph-name="lozenge" unicode="&#x25ca;" horiz-adv-x="1212" 
d="M614 1161l-252 -444l252 -445l250 445zM752 1434l391 -717l-391 -717h-277l-391 717l391 717h277z" />
    <glyph glyph-name="uniE000" unicode="&#xe000;" horiz-adv-x="2105" 
d="M1644 385q-113 0 -153 -66v-133q41 -66 153 -66t150 66v133q-37 66 -150 66zM1644 508q104 0 140 53v123q-42 55 -140 55t-143 -55v-123q39 -53 143 -53zM1642 -16q-132 0 -218 50q-87 50 -119 111v187q35 70 122 114q-61 35 -100 84v215q104 133 315 133t316 -133v-215
q-37 -48 -103 -81q90 -49 125 -117v-187q-34 -61 -120 -111t-218 -50zM588 758v164q-35 66 -154 65q-84 0 -149 -45v-184q12 -27 54 -46q42 -20 95 -20q52 0 96 20t58 46zM1585 1434v-111l-985 -1323h-117v111l985 1323h117zM433 557q-128 0 -215 50t-122 112v571
q35 62 122 112t215 50t214 -46t113 -95v-99h-160q-35 96 -166 97q-53 1 -95 -19t-54 -47v-186q84 59 192 59t181 -38t102 -93v-289q-31 -47 -115 -93t-212 -46z" />
    <glyph glyph-name="uniE001" unicode="&#xe001;" horiz-adv-x="2568" 
d="M2159 414q-84 0 -150 -45v-185q12 -27 54 -46q41 -19 95 -19t97 19t57 46v164q-34 66 -153 66zM1563 860v-735h139v-125h-473v125h145v582l-147 -13v113l182 53h154zM2159 735q-55 0 -95 -19t-55 -46v-187q85 59 193 59t181 -37q73 -38 101 -93v-289q-30 -47 -114 -93
t-212 -46t-215 50t-122 111v572q35 61 122 111t215 50t214 -45q86 -46 112 -96v-98h-160q-34 96 -165 96zM1446 1434v-111l-985 -1323h-117v111l985 1323h117zM82 698h145v582l-147 -12v112l182 54h154v-736h139v-125h-473v125z" />
    <glyph glyph-name="NULL" horiz-adv-x="0" 
 />
    <glyph glyph-name="acute.case" 
d="M637 1858v-113l-166 -209h-184v31l116 291h234z" />
    <glyph glyph-name="breve.case" 
d="M788 1808v-120q-84 -172 -329 -172q-127 0 -211 48t-119 124v120h186v-77q13 -25 49 -50t95 -25t94 26q35 24 47 49v77h188z" />
    <glyph glyph-name="caron.alt" 
d="M584 1434v-134l-88 -270h-158v31l41 373h205z" />
    <glyph glyph-name="caron.case" 
d="M795 1858v-33l-170 -289h-328l-172 289v33h178l156 -205l155 205h181z" />
    <glyph glyph-name="circumflex.case" 
d="M795 1536h-181l-155 203l-156 -203h-178v31l172 291h328l170 -291v-31z" />
    <glyph glyph-name="dieresis.case" 
d="M678 1810q88 0 129 -53v-151q-45 -52 -129 -52t-129 52v151q41 53 129 53zM244 1810q88 0 129 -53v-151q-45 -52 -129 -52t-129 52v151q41 53 129 53z" />
    <glyph glyph-name="dotaccent.case" 
d="M459 1825q106 0 141 -72v-121q-34 -70 -142 -70t-139 70v121q11 29 49 51t91 21z" />
    <glyph glyph-name="eight.sups" horiz-adv-x="868" 
d="M434 958q-53 0 -95 -19t-56 -46v-133q14 -27 56 -46q42 -20 95 -20q54 0 96 20t56 46v133q-14 27 -56 46t-96 19zM434 1312q-96 0 -141 -55v-122q39 -53 141 -53t141 53v122q-45 55 -141 55zM433 557q-130 0 -217 50t-120 112v186q35 68 125 117q-55 29 -102 82v215
q104 133 315 133t316 -133v-215q-37 -49 -103 -82q92 -51 125 -117v-186q-33 -61 -121 -111t-218 -51z" />
    <glyph glyph-name="eight.tf" horiz-adv-x="1187" 
d="M598 174q90 0 155 39q64 39 89 90v217q-47 88 -219 131l-45 11q-90 -18 -150 -62t-74 -80v-217q22 -49 88 -89t156 -40zM598 1262q-74 0 -129 -32t-82 -73v-186q41 -68 168 -101l63 -16q66 14 121 49t70 68v186q-27 43 -82 74t-129 31zM600 -29q-203 0 -326 84t-180 187
v344q53 98 213 166q-111 57 -170 153v330q55 88 171 158q116 69 291 69t291 -70t169 -157v-330q-49 -80 -172 -135q145 -66 215 -184v-344q-47 -98 -173 -184t-329 -87z" />
    <glyph glyph-name="five.sups" horiz-adv-x="845" 
d="M739 1434v-150h-454v-201q78 53 184 53t179 -39q73 -40 100 -93v-308q-29 -49 -114 -94t-213 -45t-211 44t-118 95v109h154q12 -45 59 -74t109 -29t104 20q43 20 60 48v170q-42 68 -142 68t-151 -66h-172v492h626z" />
    <glyph glyph-name="five.tf" horiz-adv-x="1187" 
d="M1057 1434v-215h-674v-385q115 100 274 100t265 -70t147 -159v-492q-45 -88 -167 -165t-307 -77t-309 77t-171 165v141h233q12 -74 80 -127t158 -53t153 37t86 90v307q-23 55 -85 93t-144 38q-137 0 -213 -100h-240v795h914z" />
    <glyph glyph-name="four.sups" horiz-adv-x="878" 
d="M526 1276h-6l-272 -379h278v379zM707 1434v-537h114v-139h-114v-185h-181v185h-460v135l393 541h248z" />
    <glyph glyph-name="four.tf" horiz-adv-x="1187" 
d="M729 1202h-6l-418 -676h424v676zM981 1434v-908h170v-204h-170v-322h-252v322h-678v196l565 916h365z" />
    <glyph glyph-name="grave.case" 
d="M633 1536h-184l-164 209v113h227l121 -291v-31z" />
    <glyph glyph-name="hungarumlaut.case" 
d="M799 1855v-94l-119 -225h-164v31l84 288h199zM414 1855v-94l-121 -225h-164v31l86 288h199z" />
    <glyph glyph-name="i.TRK" horiz-adv-x="497" 
d="M377 1108v-1108h-256v1108h256zM248 1511q109 0 139 -69v-121q-31 -70 -139 -70t-139 70v121q30 69 139 69z" />
    <glyph glyph-name="macron.case" 
d="M801 1743v-176h-680v176h680z" />
    <glyph glyph-name="nine.sups" horiz-adv-x="864" 
d="M440 1008q70 0 133 47v194q-12 29 -53 48t-96 19t-97 -18q-42 -20 -57 -49v-176q14 -27 56 -46q44 -19 114 -19zM425 1452q128 0 215 -50t122 -112v-571q-35 -61 -122 -111t-216 -51q-129 0 -214 46t-112 95v97h160q35 -96 166 -97q55 0 95 20t54 48v170
q-86 -57 -193 -57t-180 39t-102 92v303q31 47 115 93t212 46z" />
    <glyph glyph-name="nine.tf" horiz-adv-x="1187" 
d="M588 709q131 0 227 86v338q-25 53 -87 90t-145 37t-147 -38t-84 -89v-304q20 -51 85 -85t151 -35zM585 1462q187 0 316 -84t176 -186v-950q-49 -104 -177 -188t-316 -83q-188 0 -310 77t-165 163v141h233q14 -84 78 -132t154 -48t153 38t88 91v315q-123 -102 -288 -102
t-271 68t-147 161v478q45 85 167 163t309 78z" />
    <glyph glyph-name="one.sups" horiz-adv-x="636" 
d="M426 1434v-736h139v-125h-475v125h148v582l-148 -12v112l182 54h154z" />
    <glyph glyph-name="one.tf" horiz-adv-x="1187" 
d="M762 1434v-1237h319v-197h-923v197h340v966l-342 -149v200l415 220h191z" />
    <glyph glyph-name="ring.case" 
d="M459 1714q-84 0 -117 -51v-109q33 -51 117 -51t116 51v109q-32 51 -116 51zM459 1823q85 0 149 -34t92 -87v-186q-30 -52 -94 -88t-148 -36t-148 36q-65 34 -93 88v186q29 53 93 87t149 34z" />
    <glyph glyph-name="seven.sups" horiz-adv-x="757" 
d="M692 1434v-131l-356 -730h-152v105l320 600v6h-451v150h639z" />
    <glyph glyph-name="seven.tf" horiz-adv-x="1187" 
d="M1063 1434v-193l-549 -1241h-219v158l506 1063h-678v213h940z" />
    <glyph glyph-name="six.sups" horiz-adv-x="866" 
d="M456 987q-102 0 -165 -47v-182q12 -27 54 -46q42 -20 95 -20q52 0 96 20t58 46v164q-36 65 -138 65zM440 1309q-53 1 -95 -19t-54 -47v-186q84 59 192 59q107 0 181 -38t102 -93v-289q-31 -47 -115 -93t-212 -46t-215 50t-122 112v571q35 62 122 112t215 50t214 -46
t113 -95v-99h-160q-35 97 -166 97z" />
    <glyph glyph-name="six.tf" horiz-adv-x="1187" 
d="M606 709q-131 0 -227 -86v-322q25 -53 87 -90t145 -37t147 38q63 38 84 89v285q-20 51 -85 87t-151 36zM620 1262q-90 0 -153 -38t-88 -91v-332q123 102 288 102q165 1 271 -67t147 -162v-461q-45 -84 -167 -163t-308 -79q-188 0 -317 84t-176 187v950q49 104 177 187
t316 83t310 -77t165 -162v-142h-233q-14 85 -78 133t-154 48z" />
    <glyph glyph-name="three.sups" horiz-adv-x="860" 
d="M442 1452q106 0 188 -48q83 -48 115 -106v-182q-31 -55 -133 -94q106 -33 148 -113v-190q-33 -59 -123 -111t-218 -51q-128 0 -214 46t-115 93v109h152q12 -43 60 -73t108 -30t104 20q43 20 59 48v109q-37 68 -151 67h-111v139h105q102 0 145 58v108q-41 55 -149 55
t-156 -94h-152v109q48 65 140 98t198 33z" />
    <glyph glyph-name="three.tf" horiz-adv-x="1187" 
d="M572 1462q184 0 306 -80t166 -170v-297q-57 -100 -213 -163q83 -31 145 -87t89 -112v-311q-45 -100 -174 -186t-317 -85q-188 0 -315 79q-128 79 -171 163v141h234q16 -80 85 -130t157 -50t152 37q62 37 87 90v207q-23 57 -85 97t-147 40h-161v195h151q78 0 138 36t83 78
v199q-25 43 -79 76t-143 33t-147 -50t-71 -112h-233v141q43 77 161 149t302 72z" />
    <glyph glyph-name="tilde.case" 
d="M313 1804q78 0 157 -53t112 -53q59 0 73 53v41h152v-109q-15 -61 -69 -104t-126 -43t-119 27q-48 27 -85 53t-70 26q-53 0 -76 -55v-41h-151v109q16 63 70 106t132 43z" />
    <glyph glyph-name="two.sups" horiz-adv-x="849" 
d="M420 1452q127 0 216 -51t118 -115v-162q-20 -51 -68 -92t-151 -102l-111 -66q-129 -80 -152 -125v-16h492v-150h-672v193q31 57 78 101t139 102l117 69q121 74 141 127v76q-37 66 -149 66q-68 0 -110 -30t-56 -67h-160v103q33 51 117 95t211 44z" />
    <glyph glyph-name="two.tf" horiz-adv-x="1187" 
d="M583 1462q187 0 315 -84t175 -186v-297q-31 -76 -95 -138t-226 -163l-154 -94q-199 -125 -231 -203v-84h716v-213h-979v360q41 82 109 144t215 158l166 100q190 121 217 201v172q-25 51 -86 89t-149 38t-155 -46t-83 -135h-234v142q48 87 170 163t309 76z" />
    <glyph glyph-name="uni0326.alt" horiz-adv-x="0" 
d="M-459 1448q51 0 88 -21.5t49 -48.5v-92q-12 -27 -48 -47t-89 -20t-91 20.5t-48 46.5v236q10 37 61.5 69.5t124.5 32.5h68v-98h-43q-66 0 -78 -25v-53h6z" />
    <glyph glyph-name="zero.sups" horiz-adv-x="882" 
d="M442 1311q-53 1 -95 -19t-56 -47v-483q14 -27 56 -46q42 -20 95 -20q54 0 96 20t56 46v483q-14 27 -56 47t-96 19zM440 1452q129 0 217 -50t123 -112v-571q-35 -61 -123 -111t-217 -51q-129 0 -216 50t-122 112v571q35 62 122 112t216 50z" />
    <glyph glyph-name="zero.tf" horiz-adv-x="1187" 
d="M594 1262q-82 0 -145 -38t-87 -91v-832q22 -53 86 -90t146 -37t145 37t86 90v832q-23 53 -86 91t-145 38zM596 1462q190 0 318 -84t173 -186v-950q-45 -102 -173 -186t-318 -85q-190 0 -320 84q-129 84 -176 187v950q47 102 176 186q130 84 320 84z" />
    </font>
</defs>
</svg>
