<?xml version="1.0" standalone="no"?>
<!DOCTYPE svg PUBLIC "-//W3C//DTD SVG 1.1//EN" "http://www.w3.org/Graphics/SVG/1.1/DTD/svg11.dtd" >
<svg xmlns="http://www.w3.org/2000/svg">
<metadata>
Created by FontPrep 20130207 at Fri Sep  2 18:18:56 2016
 By MkTyrtle
Copyright (c) 2015 by Cadillac and Letters from Sweden. All rights reserved.
</metadata>
<defs>
<font id="0ef50e5354694979af70601bedef307e" horiz-adv-x='1024' >
  <font-face 
    font-family="CadillacSansA-SemiBold"
    font-weight="600"
    font-stretch="normal"
    units-per-em="2048"
    panose-1="0 0 7 0 0 0 0 0 0 0"
    ascent="1536"
    descent="-512"
    x-height="1110"
    cap-height="1434"
    bbox="-631 -479 2566 1858"
    underline-thickness="102"
    underline-position="-102"
    unicode-range="U+000D-FB02"
  />
<missing-glyph horiz-adv-x="1234" 
d="M891 1444h-547v-1454h547v1454zM1114 1638v-1843h-995v1843h995z" />
    <glyph glyph-name="fi" unicode="fi" horiz-adv-x="1230" 
d="M1122 1110v-1110h-299v1110h299zM494 1491q134 0 208 -23v-206q-20 4 -73 4q-129 0 -172 -68v-88h213v-219h-213v-891h-299v891h-113v219h113v188q31 80 116 137q86 56 220 56zM972 1526q122 0 161 -82v-127q-39 -82 -161 -82t-161 82v127q39 82 161 82z" />
    <glyph glyph-name="fl" unicode="fl" horiz-adv-x="1218" 
d="M1116 1434v-1434h-299v1434h299zM494 1491q134 0 208 -23v-206q-20 4 -73 4q-129 0 -172 -68v-88h213v-219h-213v-891h-299v891h-113v219h113v188q31 80 116 137q86 56 220 56z" />
    <glyph glyph-name="f_f" unicode="ff" horiz-adv-x="1357" 
d="M1272 1266q-125 0 -170 -68v-88h211v-219h-211v-891h-301v891h-344v-891h-299v891h-113v219h113v188q31 80 116 137q86 56 220 56t208 -23v-206q-20 4 -73 4q-121 0 -172 -68v-88h344v188q31 78 118 136t223 57q136 0 204 -23v-206q-21 4 -74 4z" />
    <glyph glyph-name=".notdef" horiz-adv-x="1234" 
d="M891 1444h-547v-1454h547v1454zM1114 1638v-1843h-995v1843h995z" />
    <glyph glyph-name=".null" horiz-adv-x="0" 
 />
    <glyph glyph-name="nonmarkingreturn" horiz-adv-x="681" 
 />
    <glyph glyph-name="CR" unicode="&#xd;" horiz-adv-x="401" 
 />
    <glyph glyph-name="CR" horiz-adv-x="401" 
 />
    <glyph glyph-name="space" unicode=" " horiz-adv-x="417" 
 />
    <glyph glyph-name="exclam" unicode="!" horiz-adv-x="587" 
d="M293 -23q-119 0 -160 82v156q39 84 160 84q63 0 105 -26t55 -58v-156q-13 -33 -55 -57t-105 -25zM125 1434h338v-293l-37 -744h-262l-39 744v293z" />
    <glyph glyph-name="quotedbl" unicode="&#x22;" horiz-adv-x="811" 
d="M741 1434v-248l-36 -285h-187l-37 283v250h260zM330 1434v-248l-37 -285h-187l-36 283v250h260z" />
    <glyph glyph-name="numbersign" unicode="#" horiz-adv-x="1165" 
d="M688 602l37 236h-248l-39 -236h250zM1110 838h-149l-37 -236h114v-213h-149l-62 -389h-211v160l37 229h-250l-61 -389h-209v160l37 229h-115v213h148l39 236h-115v215h149l62 381h209v-160l-35 -221h248l61 381h209v-160l-35 -221h115v-215z" />
    <glyph glyph-name="dollar" unicode="$" horiz-adv-x="1212" 
d="M729 -188h-246v165q-160 25 -257 102t-142 165v147h281q20 -78 82 -125t155 -47q150 0 207 111v153q-37 72 -172 107l-100 24q-195 48 -286 104t-142 140v352q43 78 137 149t237 95v168h246v-168q143 -25 240 -96q96 -72 135 -148v-147h-279q-49 154 -219 154
q-66 0 -114 -28t-72 -65v-153q31 -57 153 -90l101 -27q207 -52 304 -116t142 -144v-350q-121 -221 -391 -264v-168z" />
    <glyph glyph-name="percent" unicode="%" horiz-adv-x="1857" 
d="M1423 573q-96 0 -129 -63v-311q33 -61 129 -61t129 61v311q-33 63 -129 63zM1422 729q136 0 226 -56t121 -132v-371q-31 -78 -119 -133t-226 -55t-228 56t-119 132v371q31 76 120 132t225 56zM434 1296q-98 0 -129 -61v-311q31 -62 129 -62t129 62v311q-31 61 -129 61z
M1485 1434v-127l-975 -1307h-135v127l977 1307h133zM434 1452q138 0 228 -56t118 -132v-371q-31 -76 -120 -131t-225 -55t-225 55t-120 131v371q29 76 118 132t226 56z" />
    <glyph glyph-name="ampersand" unicode="&#x26;" horiz-adv-x="1400" 
d="M395 313q25 -51 97 -83t157 -31q147 0 238 90l-346 329q-109 -27 -146 -102v-203zM1364 0h-176l-121 117q-173 -147 -409 -147t-374 83q-138 84 -188 195v315q80 158 266 225q-133 129 -161 177v260q49 85 169 161t304 76t302 -74t171 -163v-127h-275q-18 55 -68 96
t-130 41q-115 0 -172 -72v-131q14 -33 96 -114l350 -334v202h262v-452l154 -150v-184z" />
    <glyph glyph-name="quotesingle" unicode="'" horiz-adv-x="399" 
d="M330 1434v-248l-37 -285h-187l-36 283v250h260z" />
    <glyph glyph-name="parenleft" unicode="(" horiz-adv-x="741" 
d="M676 1434v-217h-21q-170 0 -219 -173v-999q20 -74 76 -123t143 -49h21v-217h-21q-223 0 -362 100t-191 240v1098q50 139 190 239t363 101h21z" />
    <glyph glyph-name="parenright" unicode=")" horiz-adv-x="741" 
d="M86 1434q221 0 361 -100t192 -240v-1098q-51 -140 -191 -240t-362 -100h-20v217h20q88 0 143 49t76 123v999q-49 172 -219 173h-20v217h20z" />
    <glyph glyph-name="asterisk" unicode="*" horiz-adv-x="1007" 
d="M504 1544q74 0 125 -31l-47 -299l272 138q43 -41 67 -113t11 -125l-303 -51l217 -217q-23 -55 -84 -98q-57 -47 -119 -50l-139 271l-139 -271q-61 2 -119 50q-61 43 -84 98l217 217l-303 51q-12 53 10 127q25 70 68 111l270 -138l-45 299q51 31 125 31z" />
    <glyph glyph-name="plus" unicode="+" horiz-adv-x="1200" 
d="M1130 805v-238h-409v-413h-242v413h-407v238h407v409h242v-409h409z" />
    <glyph glyph-name="comma" unicode="," horiz-adv-x="456" 
d="M227 299q63 0 105 -26t55 -58v-332q-15 -47 -73 -97t-142 -50h-76v129h60q49 0 71 45v61q-117 0 -159 84v160q38 84 159 84z" />
    <glyph glyph-name="hyphen" unicode="-" horiz-adv-x="749" 
d="M680 805v-238h-608v238h608z" />
    <glyph glyph-name="period" unicode="." horiz-adv-x="456" 
d="M227 299q63 0 105 -26t55 -58v-156q-12 -33 -54 -57t-106 -25q-119 0 -159 82v156q38 84 159 84z" />
    <glyph glyph-name="slash" unicode="/" horiz-adv-x="841" 
d="M760 1497v-160l-426 -1562h-254v159l426 1563h254z" />
    <glyph glyph-name="zero" unicode="0" horiz-adv-x="1212" 
d="M606 1229q-70 0 -124 -32t-72 -75v-811q18 -43 72 -73t124 -31q70 0 124 31t73 73v811q-19 43 -73 75t-124 32zM606 1464q197 0 329 -85t179 -187v-948q-47 -102 -179 -188t-329 -87q-196 0 -328 86t-180 189v948q47 102 179 187t329 85z" />
    <glyph glyph-name="one" unicode="1" horiz-adv-x="935" 
d="M649 1434v-1225h211v-209h-745v209h223v915l-225 -92v228l319 174h217z" />
    <glyph glyph-name="two" unicode="2" horiz-adv-x="1165" 
d="M572 1464q194 0 326 -85t179 -187v-305q-29 -72 -91 -132t-214 -155l-158 -94q-186 -113 -221 -184v-74h692v-248h-1001v391q39 82 107 146q69 63 206 147l176 107q172 104 193 178v155q-20 43 -74 74t-128 31q-75 0 -133 -40t-75 -122h-270v162q51 83 172 159
q120 76 314 76z" />
    <glyph glyph-name="three" unicode="3" horiz-adv-x="1169" 
d="M566 1464q188 0 316 -82t177 -176v-301q-53 -90 -203 -155q76 -33 134 -86t83 -105v-315q-49 -102 -180 -188t-325 -87q-194 0 -322 79q-129 79 -170 159v162h272q16 -74 74 -118t136 -44q77 0 130 31t74 73v197q-18 49 -70 84t-125 35h-174v225h164q68 0 118 30t73 68
v187q-53 92 -183 92q-88 0 -139 -44t-64 -104h-272v162q45 73 166 147t310 74z" />
    <glyph glyph-name="four" unicode="4" horiz-adv-x="1212" 
d="M717 1157h-6l-365 -616h371v616zM1014 1434v-893h160v-236h-160v-305h-297v305h-662v227l531 902h428z" />
    <glyph glyph-name="five" unicode="5" horiz-adv-x="1150" 
d="M1053 1434v-250h-658v-348q117 92 267 92t256 -67t145 -154v-500q-49 -84 -171 -161t-312 -77t-316 76t-174 162v162h272q14 -70 72 -116t136 -46q80 0 134 31t72 73v289q-20 45 -74 77t-120 32q-117 0 -187 -88h-282v813h940z" />
    <glyph glyph-name="six" unicode="6" horiz-adv-x="1185" 
d="M589 686q-87 0 -179 -68v-307q20 -45 74 -75t124 -29q70 0 124 31t73 73v273q-17 42 -73 72t-143 30zM617 1229q-79 0 -133 -31t-74 -76v-309q125 94 278 94t257 -65q103 -66 147 -156v-479q-45 -82 -169 -160t-317 -78q-194 0 -326 86t-180 189v948q48 104 180 188
t325 84t315 -76t172 -159v-162h-273q-14 76 -68 119q-55 43 -134 43z" />
    <glyph glyph-name="seven" unicode="7" horiz-adv-x="1042" 
d="M991 1434v-226l-528 -1208h-264v180l483 1006h-649v248h958z" />
    <glyph glyph-name="eight" unicode="8" horiz-adv-x="1208" 
d="M605 205q77 1 133 33t75 75v209q-37 72 -188 111l-47 10q-72 -16 -120 -53t-61 -68v-209q19 -41 75 -75t133 -33zM604 1229q-125 0 -182 -88v-174q35 -57 147 -86l62 -17q125 35 155 103v174q-57 88 -182 88zM271 54q-126 85 -183 190v352q47 88 188 152
q-104 59 -153 145v332q55 90 175 165q120 74 306 74t307 -74t176 -165v-332q-44 -74 -155 -127q127 -61 188 -170v-352q-41 -85 -165 -180t-341 -95t-343 85z" />
    <glyph glyph-name="nine" unicode="9" horiz-adv-x="1185" 
d="M602 729q92 0 174 68v325q-18 43 -72 74t-126 31q-70 0 -124 -31t-73 -74v-291q17 -43 73 -73t148 -29zM580 1464q192 0 326 -86t181 -188v-948q-51 -104 -182 -188t-324 -85q-193 0 -315 76t-172 160v162h273q14 -76 69 -119q56 -43 134 -43t132 31t74 75v291
q-124 -94 -278 -94t-257 66t-147 155v498q46 81 170 159t316 78z" />
    <glyph glyph-name="colon" unicode=":" horiz-adv-x="485" 
d="M243 299q62 0 104 -26t54 -58v-156q-12 -33 -54 -57t-104 -25q-62 0 -105 25q-42 25 -56 57v156q14 33 56 59t105 25zM243 1049q62 0 104 -25t54 -57v-156q-12 -33 -54 -59t-104 -25q-62 0 -105 26q-42 26 -56 58v156q14 33 56 57t105 25z" />
    <glyph glyph-name="semicolon" unicode=";" horiz-adv-x="485" 
d="M243 299q62 0 104 -26t54 -58v-332q-16 -47 -74 -97t-141 -50h-75v129h59q45 0 72 45v61q-61 0 -104 26q-42 26 -56 58v160q14 33 56 59t105 25zM243 1051q62 0 104 -26t54 -58v-156q-12 -33 -54 -57t-104 -25q-62 0 -105 25q-42 25 -56 57v156q14 33 56 59t105 25z" />
    <glyph glyph-name="less" unicode="&#x3c;" horiz-adv-x="1200" 
d="M1145 1110v-162l-772 -342l772 -342v-164h-219l-871 400v213l871 397h219z" />
    <glyph glyph-name="equal" unicode="=" horiz-adv-x="1200" 
d="M1130 586v-238h-1058v238h1058zM1130 1024v-238h-1058v238h1058z" />
    <glyph glyph-name="greater" unicode="&#x3e;" horiz-adv-x="1200" 
d="M55 100v164l772 342l-772 342v162h219l871 -397v-213l-871 -400h-219z" />
    <glyph glyph-name="question" unicode="?" horiz-adv-x="1105" 
d="M459 -23q-119 0 -160 82v156q39 84 160 84q63 0 105 -26t54 -58v-156q-12 -33 -54 -57t-105 -25zM305 401v230l291 200q125 86 143 132v153q-61 96 -198 96q-80 0 -138 -35q-57 -36 -75 -90h-275v156q61 86 180 154q119 67 314 67t319 -79t185 -177v-348
q-39 -72 -162 -153l-277 -193v-113h-307z" />
    <glyph glyph-name="at" unicode="@" horiz-adv-x="1890" 
d="M932 270q123 0 188 78v430q-63 76 -188 76q-64 0 -110 -27t-58 -55v-420q16 -30 60 -56t108 -26zM958 1464q176 0 331 -53t258 -137q202 -165 268 -344v-715q-47 -74 -137 -113t-195 -39q-203 0 -318 138q-125 -129 -313 -129q-137 0 -230 74t-128 159v516q35 86 124 159
q90 73 242 73t260 -113v86h264v-743q33 -59 112 -59t126 57v612q-51 124 -204 252q-78 67 -200 107t-266 40q-227 0 -404 -105t-261 -300v-641q86 -190 265 -299t392 -109t377 96l96 -135q-213 -129 -485 -129t-506 142q-233 142 -334 389v733q98 244 340 387t526 143z" />
    <glyph glyph-name="A" unicode="A" horiz-adv-x="1284" 
d="M469 584h319l-153 602h-6zM1233 0h-293l-86 336h-451l-88 -336h-264v180l365 1254h452l365 -1254v-180z" />
    <glyph glyph-name="B" unicode="B" horiz-adv-x="1236" 
d="M670 633h-228v-391h220q139 0 194 100v195q-25 43 -76 69t-110 27zM442 1192v-344h215q117 0 177 96v150q-53 98 -187 98h-205zM729 0h-610v1434h600q143 0 249 -72t162 -172v-287q-61 -100 -153 -147q117 -53 176 -150v-362q-55 -98 -166 -171t-258 -73z" />
    <glyph glyph-name="C" unicode="C" horiz-adv-x="1241" 
d="M641 1464q299 0 467 -194q39 -45 63 -94v-152h-278q-23 84 -86.5 136t-153.5 52t-148.5 -35.5t-82.5 -91.5v-737q25 -55 83 -91t148 -36t153.5 52.5t86.5 136.5h278v-152q-53 -102 -165 -185q-141 -104 -361.5 -104t-355.5 94.5t-191 219.5v868q55 125 190.5 219
t352.5 94z" />
    <glyph glyph-name="D" unicode="D" horiz-adv-x="1288" 
d="M647 1188h-205v-942h205q170 0 219 116v709q-49 117 -219 117zM713 1434q184 0 304 -83t173 -200v-868q-53 -117 -173 -200t-304 -83h-594v1434h594z" />
    <glyph glyph-name="E" unicode="E" horiz-adv-x="1101" 
d="M1008 1434v-248h-566v-328h529v-248h-529v-362h580v-248h-903v1434h889z" />
    <glyph glyph-name="F" unicode="F" horiz-adv-x="1056" 
d="M983 1434v-248h-541v-342h516v-248h-516v-596h-323v1434h864z" />
    <glyph glyph-name="G" unicode="G" horiz-adv-x="1286" 
d="M653 1212q-90 0 -148.5 -36.5t-82.5 -90.5v-735q23 -53 82 -90t143 -37q160 0 223 119v215h-213v244h514v-801h-253v102q-123 -133 -323.5 -133t-320.5 94.5t-176 221.5v866q55 125 190.5 219t352.5 94q299 0 467 -194q39 -45 63 -94v-152h-278q-23 84 -86.5 136
t-153.5 52z" />
    <glyph glyph-name="H" unicode="H" horiz-adv-x="1341" 
d="M1223 1434v-1434h-324v614h-457v-614h-323v1434h323v-572h457v572h324z" />
    <glyph glyph-name="I" unicode="I" horiz-adv-x="561" 
d="M442 1434v-1434h-323v1434h323z" />
    <glyph glyph-name="J" unicode="J" horiz-adv-x="792" 
d="M680 1434v-1149q-137 -289 -520 -289q-74 0 -119 4v246h94q172 0 221 119v1069h324z" />
    <glyph glyph-name="K" unicode="K" horiz-adv-x="1263" 
d="M1204 0h-260l-375 610l-127 -139v-471h-323v1434h323v-560l490 560h219v-181l-369 -407l422 -666v-180z" />
    <glyph glyph-name="L" unicode="L" horiz-adv-x="937" 
d="M442 1434v-1186h453v-248h-776v1434h323z" />
    <glyph glyph-name="M" unicode="M" horiz-adv-x="1650" 
d="M1532 1434v-1434h-303v1020h-6l-303 -729h-189l-305 729h-6v-1020h-301v1434h428l282 -686h7l272 686h424z" />
    <glyph glyph-name="N" unicode="N" horiz-adv-x="1368" 
d="M1249 1434v-1434h-366l-457 952h-6v-952h-301v1434h366l457 -953h6v953h301z" />
    <glyph glyph-name="O" unicode="O" horiz-adv-x="1282" 
d="M641 1212q-82 0 -139 -36t-80 -91v-735q23 -55 80 -91t139 -36t139 36t80 91v735q-23 55 -80 91t-139 36zM641 1464q217 0 352 -94t191 -219v-866q-54 -125 -190 -220t-353 -95t-352 94q-135 96 -191 221v866q54 125 190 219t353 94z" />
    <glyph glyph-name="P" unicode="P" horiz-adv-x="1210" 
d="M637 1188h-195v-422h195q137 0 192 102v217q-57 103 -192 103zM711 1434q137 0 250 -64t180 -180v-424q-59 -106 -171 -175t-259 -69h-269v-522h-323v1434h592z" />
    <glyph glyph-name="Q" unicode="Q" horiz-adv-x="1282" 
d="M641 223q82 0 139 36t80 91v735q-23 55 -80 91t-139 36t-139 -36t-80 -91v-735q23 -55 80 -91t139 -36zM1063 -80h131v-225h-162q-114 0 -230 79t-165 195q-217 3 -350 97t-189 219v866q54 125 190 219t353 94t352 -94t191 -219v-866q-84 -182 -275 -265q25 -48 70 -74
t84 -26z" />
    <glyph glyph-name="R" unicode="R" horiz-adv-x="1243" 
d="M442 1188v-391h205q139 0 195 102v186q-53 102 -195 103h-205zM1171 0h-260l-323 563h-146v-563h-323v1434h602q135 0 248.5 -64.5t179.5 -179.5v-379q-84 -150 -242 -213l264 -418v-180z" />
    <glyph glyph-name="S" unicode="S" horiz-adv-x="1212" 
d="M602 1464q197 0 326 -79.5t180 -174.5v-151h-279q-49 154 -227 153q-68 0 -118 -27.5t-72 -66.5v-147q31 -57 157 -90l103 -27q354 -88 452 -260v-350q-56 -94 -160 -173q-134 -102 -356.5 -102t-350.5 85t-181 190v151h278q20 -78 86 -125t160 -47q152 0 213 111v147
q-39 72 -178 109l-103 24q-197 47 -288.5 103.5t-145.5 140.5v352q55 96 181 175t323 79z" />
    <glyph glyph-name="T" unicode="T" horiz-adv-x="1116" 
d="M1065 1434v-248h-344v-1186h-324v1186h-346v248h1014z" />
    <glyph glyph-name="U" unicode="U" horiz-adv-x="1310" 
d="M1198 1434v-1149q-55 -125 -190 -220q-134 -95 -352 -95t-353 94q-135 96 -190 221v1149h323v-1082q23 -55 80 -91t139 -36q158 0 219 127v1082h324z" />
    <glyph glyph-name="V" unicode="V" horiz-adv-x="1288" 
d="M1237 1434v-181l-373 -1253h-442l-369 1253v181h301l295 -1123h6l299 1123h283z" />
    <glyph glyph-name="W" unicode="W" horiz-adv-x="1882" 
d="M1819 1434v-181l-248 -1253h-414l-215 909h-6l-213 -909h-410l-250 1253v181h304l188 -1067h6l244 1067h289l245 -1067h7l186 1067h287z" />
    <glyph glyph-name="X" unicode="X" horiz-adv-x="1224" 
d="M1141 1434v-181l-318 -522l328 -551v-180h-285l-260 522h-6l-270 -522h-258v180l327 551l-315 522v181h281l256 -498h6l256 498h258z" />
    <glyph glyph-name="Y" unicode="Y" horiz-adv-x="1187" 
d="M1133 1434v-181l-383 -686v-567h-326v600l-367 653v181h273l270 -543h6l268 543h259z" />
    <glyph glyph-name="Z" unicode="Z" horiz-adv-x="1142" 
d="M1069 1434v-211l-614 -975h614v-248h-995v211l610 975h-602v248h987z" />
    <glyph glyph-name="bracketleft" unicode="[" horiz-adv-x="753" 
d="M676 1434v-217h-234v-1344h234v-217h-557v1778h557z" />
    <glyph glyph-name="backslash" unicode="\" horiz-adv-x="841" 
d="M760 -225h-254l-426 1562v160h254l426 -1563v-159z" />
    <glyph glyph-name="bracketright" unicode="]" horiz-adv-x="753" 
d="M633 1434v-1778h-555v217h231v1344h-231v217h555z" />
    <glyph glyph-name="asciicircum" unicode="^" horiz-adv-x="1034" 
d="M954 700h-196l-223 437h-39l-224 -437h-192v174l297 560h280l297 -557v-177z" />
    <glyph glyph-name="underscore" unicode="_" horiz-adv-x="1060" 
d="M1071 -109v-192h-1081v192h1081z" />
    <glyph glyph-name="grave" unicode="`" 
d="M666 1237h-224l-163 205v129h274l113 -303v-31z" />
    <glyph glyph-name="a" unicode="a" horiz-adv-x="1138" 
d="M556 180q120 0 187 80v215h-198q-117 0 -168 -67v-156q59 -72 179 -72zM557 1141q195 0 317 -85t168 -194v-862h-288v84q-115 -115 -285 -115q-170 -1 -262 57t-123 115v348q31 66 123 125t244 60h292v129q-49 104 -185 104t-196 -114h-256v135q146 213 451 213z" />
    <glyph glyph-name="b" unicode="b" horiz-adv-x="1146" 
d="M588 899q-123 0 -187 -68v-550q66 -70 186 -70t171 84v520q-47 84 -170 84zM673 1135q163 0 255 -77t131 -173v-658q-39 -98 -131 -175t-257 -77t-280 115v-90h-289v1434h299v-404q109 105 272 105z" />
    <glyph glyph-name="c" unicode="c" horiz-adv-x="1107" 
d="M570.5 1141q192.5 0 308.5 -77t161 -163v-137h-258q-61 143 -209 143q-68 0 -115.5 -29.5t-70.5 -74.5v-494q51 -106 192 -106t203 143h258v-135q-45 -86 -160.5 -164t-308.5 -78t-314.5 85t-168.5 194v614q47 109 168.5 194t314 85z" />
    <glyph glyph-name="d" unicode="d" horiz-adv-x="1146" 
d="M558 211q122 0 187 70v550q-68 68 -184 68q-65 0 -109 -27t-63 -57v-520q47 -84 169 -84zM745 1434h299v-1434h-288v90q-115 -115 -280 -115t-259 78t-129 174v658q35 96 129 173t256 77t272 -105v404z" />
    <glyph glyph-name="e" unicode="e" horiz-adv-x="1122" 
d="M573 911q-135 0 -186 -104v-131h375v131q-18 45 -68.5 74.5t-120.5 29.5zM570.5 1141q192.5 0 309.5 -78t160 -162v-426h-653v-170q23 -45 72 -75.5t116 -30.5q145 0 211 141h254v-129q-43 -84 -159.5 -163t-309.5 -79t-314.5 85t-168.5 194v614q47 109 168.5 194t314 85
z" />
    <glyph glyph-name="f" unicode="f" horiz-adv-x="714" 
d="M494 1491q134 0 208 -23v-206q-20 4 -73 4q-129 0 -172 -68v-88h213v-219h-213v-891h-299v891h-113v219h113v188q31 80 116 137q86 56 220 56z" />
    <glyph glyph-name="g" unicode="g" horiz-adv-x="1146" 
d="M563 293q119 0 182 72v464q-66 70 -184 70q-67 0 -111 -27t-63 -57v-436q16 -33 62 -59t114 -27zM756 1110h288v-1212q-49 -109 -170 -189q-122 -80 -316 -80t-310 75t-164 159v119h264q62 -119 206 -119t191 96v205q-115 -104 -273 -104t-254 77q-95 78 -130 172v576
q35 94 130 172t257 78t281 -115v90z" />
    <glyph glyph-name="h" unicode="h" horiz-adv-x="1157" 
d="M676 1135q160 0 253 -77t132 -173v-885h-301v815q-18 31 -64 57t-110 27q-123 0 -185 -70v-829h-299v1434h299v-404q115 105 275 105z" />
    <glyph glyph-name="i" unicode="i" horiz-adv-x="516" 
d="M408 1110v-1110h-299v1110h299zM257 1526q122 0 161 -82v-127q-39 -82 -161 -82t-161 82v127q39 82 161 82z" />
    <glyph glyph-name="j" unicode="j" horiz-adv-x="503" 
d="M401 1110v-1204q-45 -111 -165 -193t-322 -82v230q70 0 119 35t67 88v1126h301zM253 1526q122 0 161 -82v-127q-39 -82 -161 -82t-161 82v127q39 82 161 82z" />
    <glyph glyph-name="k" unicode="k" horiz-adv-x="1105" 
d="M1067 0h-238l-301 451l-127 -132v-319h-299v1434h299v-758l410 434h201v-164l-281 -289l336 -493v-164z" />
    <glyph glyph-name="l" unicode="l" horiz-adv-x="503" 
d="M401 1434v-1434h-299v1434h299z" />
    <glyph glyph-name="m" unicode="m" horiz-adv-x="1697" 
d="M1255 1135q143 0 227 -75t120 -169v-891h-302v825q-37 74 -141 74t-158 -61v-838h-299v825q-41 74 -144 74t-157 -61v-838h-299v1110h279v-92q106 117 284 117t287 -148q115 148 303 148z" />
    <glyph glyph-name="n" unicode="n" horiz-adv-x="1155" 
d="M668 1135q168 0 260 -77t129 -173v-885h-299v815q-18 31 -63.5 57.5t-110.5 26.5q-119 0 -183 -68v-831h-299v1110h279v-98q119 123 287 123z" />
    <glyph glyph-name="o" unicode="o" horiz-adv-x="1148" 
d="M574 907q-70 -1 -118 -31t-69 -73v-494q19 -45 69 -76t118 -31t119 32q50 30 69 75v494q-18 43 -68 73t-120 31zM575 1141q195 0 317 -85t169 -194v-614q-47 -109 -169 -194t-317 -85t-317 85t-170 194v614q48 109 170 194t317 85z" />
    <glyph glyph-name="p" unicode="p" horiz-adv-x="1146" 
d="M588 899q-123 0 -187 -68v-550q66 -70 186 -70t171 84v520q-47 84 -170 84zM671 1135q165 0 257 -77t131 -173v-658q-39 -98 -131 -175t-253 -77t-274 105v-420h-299v1450h289v-90q115 115 280 115z" />
    <glyph glyph-name="q" unicode="q" horiz-adv-x="1146" 
d="M558 211q122 0 187 70v550q-68 68 -184 68q-65 0 -109 -27t-63 -57v-520q47 -84 169 -84zM756 1110h288v-1450h-299v420q-115 -104 -275 -104t-253 77q-94 78 -129 174v658q35 96 129 173t259 77t280 -115v90z" />
    <glyph glyph-name="r" unicode="r" horiz-adv-x="776" 
d="M690 1112q20 0 41 -2v-274q-23 2 -51 2q-201 0 -279 -86v-752h-301v1110h281v-152q100 154 309 154z" />
    <glyph glyph-name="s" unicode="s" horiz-adv-x="1036" 
d="M542.5 1141q147.5 0 255 -64.5t154.5 -134.5v-123h-258q-45 102 -165 102.5t-169 -63.5v-102q29 -47 140 -70l102 -22q156 -33 246 -83.5t121 -99.5v-299q-29 -45 -74 -86t-147.5 -84t-257 -43t-265 68.5t-157.5 144.5v123h258q57 -117 186 -117t180 80v94
q-29 51 -143 74l-105 21q-279 57 -360 186v299q27 41 70 80t142 79t246.5 40z" />
    <glyph glyph-name="t" unicode="t" horiz-adv-x="743" 
d="M494 -25q-132 0 -219 57.5t-117 135.5v723h-113v219h113v231h299v-231h213v-219h-213v-619q55 -67 172 -67l73 4v-211q-76 -23 -208 -23z" />
    <glyph glyph-name="u" unicode="u" horiz-adv-x="1144" 
d="M743 1110h299v-1110h-278v96q-117 -121 -282 -121t-256 77t-130 171v887h299v-815q55 -84 169 -84t179 70v829z" />
    <glyph glyph-name="v" unicode="v" horiz-adv-x="1097" 
d="M1038 1110v-164l-305 -946h-368l-304 946v164h277l221 -797h6l221 797h252z" />
    <glyph glyph-name="w" unicode="w" horiz-adv-x="1632" 
d="M1575 1110v-164l-246 -946h-330l-172 670h-6l-172 -670h-340l-243 946v164h276l164 -780h6l193 780h260l188 -780h6l164 780h252z" />
    <glyph glyph-name="x" unicode="x" horiz-adv-x="1056" 
d="M979 1110v-164l-242 -377l258 -403v-166h-262l-201 397h-6l-209 -397h-256v166l258 403l-241 377v164h256l192 -373h6l195 373h252z" />
    <glyph glyph-name="y" unicode="y" horiz-adv-x="1083" 
d="M1026 1110v-164l-381 -1145q-121 -160 -389 -159q-117 0 -172 18v213q49 -4 88 -4q150 0 215 70l19 69l-345 936v166h277l215 -727h6l209 727h258z" />
    <glyph glyph-name="z" unicode="z" horiz-adv-x="995" 
d="M940 1110v-192l-541 -695h541v-223h-883v207l527 682h-510v221h866z" />
    <glyph glyph-name="braceleft" unicode="{" horiz-adv-x="780" 
d="M719 -365q-223 -1 -363 99t-190 241v347q-14 104 -115 104v217q100 0 115 105v346q51 139 190 239t363 101v-217q-180 0 -219 -197v-313q-39 -106 -138 -172q98 -66 138 -173v-313q39 -197 219 -196v-218z" />
    <glyph glyph-name="bar" unicode="|" horiz-adv-x="663" 
d="M492 1618v-1884h-322v1884h322z" />
    <glyph glyph-name="braceright" unicode="}" horiz-adv-x="780" 
d="M729 426q-100 0 -115 -104v-347q-51 -141 -190 -240t-363 -100v218q180 0 220 196v313q35 104 137 173q-102 68 -137 172v313q-39 197 -220 197v217q223 0 363 -100t190 -240v-346q14 -104 115 -105v-217z" />
    <glyph glyph-name="asciitilde" unicode="~" horiz-adv-x="1198" 
d="M364 924q90 0 270 -52t252 -53q74 0 132 23t84 45l28 22v-260q-86 -69 -211 -69t-301 52t-259 52t-153 -27t-104 -51l-32 -26v249q43 36 124 65q80 30 170 30z" />
    <glyph glyph-name="uni00A0" unicode="&#xa0;" horiz-adv-x="417" 
 />
    <glyph glyph-name="exclamdown" unicode="&#xa1;" horiz-adv-x="587" 
d="M125 -319v292l37 744h262l37 -744v-292h-336zM293 817q-61 0 -104 25q-42 25 -56 57v156q14 33 56 59q43 26 105 25q62 0 103 -26t56 -58v-156q-37 -82 -160 -82z" />
    <glyph glyph-name="cent" unicode="&#xa2;" horiz-adv-x="1107" 
d="M573 907q-67 1 -115 -29t-71 -75v-494q51 -106 192 -106t203 143h258v-135q-38 -69 -122 -137t-220 -92v-170h-245v168q-141 25 -234 102q-92 78 -131 166v614q39 90 130 167t235 101v168h245v-168q135 -27 221 -94q85 -68 121 -135v-137h-258q-62 143 -209 143z" />
    <glyph glyph-name="sterling" unicode="&#xa3;" horiz-adv-x="1245" 
d="M686 1229q-78 0 -132 -31t-75 -76v-321h473v-191h-473v-262q-23 -53 -65 -106h747v-242h-1079v205q66 16 88 80v325h-102v191h102v391q45 102 178 187q132 85 326 85t319 -79t168 -156v-162h-272q-13 74 -69 118t-134 44z" />
    <glyph glyph-name="currency" unicode="&#xa4;" horiz-adv-x="1208" 
d="M605 961q-69 0 -118 -31t-69 -76v-340q20 -45 69 -76q49 -30 118 -30t119 30t69 76v340q-19 45 -69 76t-119 31zM1100 1188v-146l-56 -55q23 -31 48 -78v-450q-23 -47 -45 -76l53 -55v-146h-193l-49 49q-106 -51 -252 -51t-254 49l-47 -47h-199v146l54 55q-27 35 -43 76
v450q18 43 45 78l-56 55v146h199l49 -49q109 49 251 49t251 -49l51 49h193z" />
    <glyph glyph-name="yen" unicode="&#xa5;" horiz-adv-x="1220" 
d="M766 553h391v-162h-391v-391h-326v391h-379v162h379v47l-47 86h-332v162h240l-227 405v181h272l270 -543h7l270 543h256v-181l-225 -405h233v-162h-323l-68 -119v-14z" />
    <glyph glyph-name="brokenbar" unicode="&#xa6;" horiz-adv-x="663" 
d="M492 610v-874h-322v874h322zM492 1618v-821h-322v821h322z" />
    <glyph glyph-name="section" unicode="&#xa7;" horiz-adv-x="1073" 
d="M707 692q-23 47 -140 74l-37 8q-119 -2 -165 -80v-112q25 -47 141 -74l37 -6q59 2 102 24t62 54v112zM535 1257q-119 0 -170 -79v-97q27 -47 141 -71l112 -27q289 -57 367 -182v-295q-43 -63 -111 -109q78 -41 111 -98v-276q-42 -65 -115 -115q-144 -100 -335 -98
q-127 0 -231 44t-148 86q-43 42 -70 83v104h268q8 -43 58 -77t118 -34q66 0 112 25t65 55v97q-23 47 -142 71l-112 27q-156 33 -246 83t-121 99v295q39 59 111 109q-82 47 -111 98v276q42 65 115 115q144 100 336 98q253 0 400 -152q30 -32 48 -61v-104h-266q-10 45 -60 77
t-124 33z" />
    <glyph glyph-name="dieresis" unicode="&#xa8;" 
d="M698 1522q96 0 144 -60v-170q-48 -59 -144 -59t-149 59v170q53 60 149 60zM246 1522q96 0 149 -60v-170q-53 -59 -149 -59t-144 59v170q48 60 144 60z" />
    <glyph glyph-name="copyright" unicode="&#xa9;" horiz-adv-x="1634" 
d="M815 1188q270 0 393 -187v-108h-215q-14 43 -59 75q-44 32 -108 32t-106 -24q-42 -22 -61 -50v-420q19 -30 61 -52t106 -22t108 32q45 32 59 75h215v-109q-26 -39 -62 -75q-36 -35 -127 -73t-229 -38t-240 70q-101 70 -138 145v514q37 75 138 145t265 70zM817 1341
q-258 0 -437 -182t-179 -442q0 -261 179 -443t437 -182t436 182q179 182 179 442t-178 443q-178 182 -437 182zM817 1464q309 0 531 -218t221 -529q0 -311 -221 -529q-220 -218 -530 -219q-310 0 -531 218q-221 217 -221 529t221 530t530 218z" />
    <glyph glyph-name="ordfeminine" unicode="&#xaa;" horiz-adv-x="811" 
d="M400 848q96 0 132 51v131h-145q-78 0 -117 -51v-80q34 -51 130 -51zM420 1456q106 0 188 -57t109 -135v-535h-178v47q-85 -63 -191 -63t-168 36t-86 74v203q76 123 250 123h188v86q-33 82 -131 82t-139 -80h-153v78q16 29 44 57t95 56q66 28 172 28z" />
    <glyph glyph-name="guillemotleft" unicode="&#xab;" horiz-adv-x="1277" 
d="M1200 1110v-158l-328 -362l328 -363v-159h-217l-356 405v232l356 405h217zM645 1110v-158l-330 -362l330 -363v-159h-217l-356 405v232l356 405h217z" />
    <glyph glyph-name="logicalnot" unicode="&#xac;" horiz-adv-x="1200" 
d="M1130 805v-651h-241v413h-817v238h1058z" />
    <glyph glyph-name="uni00AD" unicode="&#xad;" horiz-adv-x="749" 
d="M680 805v-238h-608v238h608z" />
    <glyph glyph-name="registered" unicode="&#xae;" horiz-adv-x="1060" 
d="M459 1380v-166h96q53 0 72 41v86q-18 39 -72 39h-96zM582 1485q53 0 103 -30t75 -79v-157q-31 -61 -96 -89l90 -116v-82h-117l-100 180h-78v-180h-131v553h254zM530 795q166 1 282 119t116 284t-116 285t-282 119t-282 -119t-115 -285q-1 -166 115 -284t282 -119z
M530 1688q202 0 348 -144t146 -346q0 -201 -146 -345t-348 -144t-347 144q-146 144 -146 345q0 202 146 346t347 144z" />
    <glyph glyph-name="macron" unicode="&#xaf;" 
d="M823 1485v-201h-704v201h704z" />
    <glyph glyph-name="degree" unicode="&#xb0;" horiz-adv-x="802" 
d="M398 1481q-93 0 -128 -64v-155q35 -64 128 -64t132 64v155q-39 64 -132 64zM401 1653q135 -1 221 -57t119 -123v-267q-35 -68 -119 -124t-220 -56t-222 55t-119 125v267q33 70 119 125t221 55z" />
    <glyph glyph-name="plusminus" unicode="&#xb1;" horiz-adv-x="1200" 
d="M72 35v239h1058v-239h-1058zM721 971h409v-240h-409v-358h-242v358h-407v240h407v358h242v-358z" />
    <glyph glyph-name="acute" unicode="&#xb4;" 
d="M664 1571v-129l-162 -205h-226v31l111 303h277z" />
    <glyph glyph-name="paragraph" unicode="&#xb6;" horiz-adv-x="1374" 
d="M1249 1434v-1639h-225v1639h225zM827 1434v-1639h-223v682h-92q-147 0 -259 69t-169 175v469q66 117 179 180q114 63 249 64h315z" />
    <glyph glyph-name="periodcentered" unicode="&#xb7;" horiz-adv-x="456" 
d="M227 860q63 0 106 -25q42 -26 54 -59v-155q-12 -33 -54 -58t-106 -24q-119 0 -159 82v155q38 84 159 84z" />
    <glyph glyph-name="cedilla" unicode="&#xb8;" 
d="M524 -88q137 0 181 -102v-156q-57 -121 -252 -121q-137 0 -207 39l43 127q89 -25 157 -25t86 41v47q-16 33 -94 33h-123l72 215h158l-37 -98h16z" />
    <glyph glyph-name="ordmasculine" unicode="&#xba;" horiz-adv-x="825" 
d="M413 1313q-103 0 -137 -80v-301q34 -76 136 -76t137 76v301q-33 80 -136 80zM414 1456q127 0 209 -57t108 -135v-361q-27 -76 -109 -133t-208 -57q-127 0 -209 57t-111 133v361q29 78 111 135t209 57z" />
    <glyph glyph-name="guillemotright" unicode="&#xbb;" horiz-adv-x="1277" 
d="M633 68v159l330 363l-330 362v158h221l354 -405v-232l-354 -405h-221zM80 68v159l328 363l-328 362v158h219l354 -405v-232l-354 -405h-219z" />
    <glyph glyph-name="onequarter" unicode="&#xbc;" horiz-adv-x="1861" 
d="M1464 676h-6l-241 -342h247v342zM1671 860v-526h107v-160h-107v-174h-207v174h-454v154l374 532h287zM1481 1434v-127l-975 -1307h-135v127l977 1307h133zM451 1434v-719h135v-142h-496v142h143v542l-143 -8v129l178 56h183z" />
    <glyph glyph-name="onehalf" unicode="&#xbd;" horiz-adv-x="1972" 
d="M1524 881q131 -1 222 -53t120 -115v-168q-20 -47 -66 -87t-145 -100l-111 -63q-125 -78 -141 -115v-8h471v-172h-684v203q49 102 209 198l125 76q104 63 127 111v71q-37 53 -113 53t-112 -25q-38 -26 -50 -58h-186v112q29 49 116 95t218 45zM1481 1434v-127l-975 -1307
h-135v127l977 1307h133zM453 1434v-719h135v-142h-494v142h142v542l-144 -8v129l180 56h181z" />
    <glyph glyph-name="threequarters" unicode="&#xbe;" horiz-adv-x="1953" 
d="M1542 676h-6l-242 -342h248v342zM1749 860v-526h106v-160h-106v-174h-207v174h-455v154l375 532h287zM1565 1434v-127l-975 -1307h-135v127l975 1307h135zM440 1452q110 0 199 -50q88 -50 117 -108v-184q-31 -51 -127 -90q98 -33 139 -107v-194q-33 -59 -125 -111
t-223 -53q-131 0 -216 45t-120 92v119h180q10 -39 52 -63t102 -25q100 0 133 53v103q-31 57 -131 57h-113v156h111q90 0 125 49v100q-41 45 -133 45t-134 -82h-180v117q20 27 52 53t107 52t185 26z" />
    <glyph glyph-name="questiondown" unicode="&#xbf;" horiz-adv-x="1105" 
d="M558 -346q-194 0 -318 79t-187 177v350q35 61 162 152l279 192v113h307v-232l-291 -200q-119 -78 -145 -129v-156q63 -94 200 -94q82 0 137 35t74 88h277v-156q-59 -83 -181 -151q-120 -68 -314 -68zM646 819q-62 0 -104 26t-57 58v156q15 33 57 57t105 25q121 0 158 -82
v-156q-13 -33 -55 -59t-104 -25z" />
    <glyph glyph-name="Agrave" unicode="&#xc0;" horiz-adv-x="1284" 
d="M469 584h319l-153 602h-6zM1233 0h-293l-86 336h-451l-88 -336h-264v180l365 1254h452l365 -1254v-180zM772 1530h-215l-164 199v129h266l113 -297v-31z" />
    <glyph glyph-name="Aacute" unicode="&#xc1;" horiz-adv-x="1284" 
d="M469 584h319l-153 602h-6zM1233 0h-293l-86 336h-451l-88 -336h-264v180l365 1254h452l365 -1254v-180zM504 1530v31l108 297h273v-129l-166 -199h-215z" />
    <glyph glyph-name="Acircumflex" unicode="&#xc2;" horiz-adv-x="1284" 
d="M469 584h319l-153 602h-6zM1233 0h-293l-86 336h-451l-88 -336h-264v180l365 1254h452l365 -1254v-180zM287 1530v31l164 297h385l161 -297v-31h-213l-141 194l-143 -194h-213z" />
    <glyph glyph-name="Atilde" unicode="&#xc3;" horiz-adv-x="1284" 
d="M469 584h319l-153 602h-6zM1233 0h-293l-86 336h-451l-88 -336h-264v180l365 1254h452l365 -1254v-180zM455 1540h-174v119q14 68 71 114t132 46t124 -26q49 -25 86 -51t68 -26q57 0 67 51v41h177v-120q-14 -66 -72 -112t-134 -46q-78 0 -126 26t-84 51q-35 26 -66 25
q-53 0 -69 -51v-41z" />
    <glyph glyph-name="Adieresis" unicode="&#xc4;" horiz-adv-x="1284" 
d="M469 584h319l-153 602h-6zM1233 0h-293l-86 336h-451l-88 -336h-264v180l365 1254h452l365 -1254v-180zM867 1538q-95 0 -148 59v166q51 57 148 57t143 -57v-166q-48 -59 -143 -59zM423 1538q-95 0 -149 59v166q50 57 148 57t143 -57v-166q-47 -59 -142 -59z" />
    <glyph glyph-name="Aring" unicode="&#xc5;" horiz-adv-x="1284" 
d="M469 584h322l-156 606h-6zM642 1716q-87 0 -116 -49v-104q29 -49 116 -49t116 49v104q-29 49 -116 49zM1233 0h-293l-86 336h-451l-88 -336h-264v180l365 1254h59q-61 35 -88 86v188q31 57 99 93t157 36q88 0 157 -36t99 -93v-188q-27 -51 -88 -86h57l365 -1254v-180z
" />
    <glyph glyph-name="AE" unicode="&#xc6;" horiz-adv-x="1767" 
d="M791 602v588h-9l-231 -588h240zM1114 248h574v-248h-897v354h-338l-140 -354h-262v180l524 1254h1100v-248h-561v-328h524v-248h-524v-362z" />
    <glyph glyph-name="Ccedilla" unicode="&#xc7;" horiz-adv-x="1241" 
d="M653 1212q-90 0 -148.5 -35.5t-82.5 -91.5v-737q25 -55 83 -91t148 -36t153.5 52.5t86.5 136.5h278v-152q-55 -104 -172.5 -190t-310.5 -97l-22 -59h16q137 0 180 -102v-156q-57 -121 -252 -121q-133 0 -207 39l46 127q86 -25 155.5 -25t87.5 41v47q-16 33 -94 33h-125
l62 182q-172 23 -280 110t-157 196v868q55 125 190.5 219t352.5 94q299 0 467 -194q39 -45 63 -94v-152h-278q-23 84 -86.5 136t-153.5 52z" />
    <glyph glyph-name="Egrave" unicode="&#xc8;" horiz-adv-x="1101" 
d="M1008 1434v-248h-566v-328h529v-248h-529v-362h580v-248h-903v1434h889zM700 1530h-215l-163 199v129h266l112 -297v-31z" />
    <glyph glyph-name="Eacute" unicode="&#xc9;" horiz-adv-x="1101" 
d="M1008 1434v-248h-566v-328h529v-248h-529v-362h580v-248h-903v1434h889zM813 1858v-129l-166 -199h-215v31l109 297h272z" />
    <glyph glyph-name="Ecircumflex" unicode="&#xca;" horiz-adv-x="1101" 
d="M1008 1434v-248h-566v-328h529v-248h-529v-362h580v-248h-903v1434h889zM926 1530h-213l-142 194l-143 -194h-213v31l164 297h385l162 -297v-31z" />
    <glyph glyph-name="Edieresis" unicode="&#xcb;" horiz-adv-x="1101" 
d="M1008 1434v-248h-566v-328h529v-248h-529v-362h580v-248h-903v1434h889zM796 1821q97 0 142 -58v-166q-47 -59 -142 -59t-149 59v166q52 58 149 58zM351 1821q97 0 143 -58v-166q-47 -59 -142.5 -59t-148.5 59v166q51 58 148 58z" />
    <glyph glyph-name="Igrave" unicode="&#xcc;" horiz-adv-x="561" 
d="M442 1434v-1434h-323v1434h323zM410 1530h-215l-164 199v129h266l113 -297v-31z" />
    <glyph glyph-name="Iacute" unicode="&#xcd;" horiz-adv-x="561" 
d="M442 1434v-1434h-323v1434h323zM524 1858v-129l-166 -199h-215v31l109 297h272z" />
    <glyph glyph-name="Icircumflex" unicode="&#xce;" horiz-adv-x="561" 
d="M442 1434v-1434h-323v1434h323zM635 1530h-213l-141 194l-144 -194h-213v31l164 297h385l162 -297v-31z" />
    <glyph glyph-name="Idieresis" unicode="&#xcf;" horiz-adv-x="561" 
d="M442 1434v-1434h-323v1434h323zM505 1821q97 0 142 -58v-166q-47 -59 -142 -59t-149 59v166q52 58 149 58zM60 1821q97 0 143 -58v-166q-47 -59 -143 -59t-148 59v166q51 58 148 58z" />
    <glyph glyph-name="Eth" unicode="&#xd0;" horiz-adv-x="1337" 
d="M682 1188h-205v-340h236v-240h-236v-362h205q170 -1 219 116v709q-49 117 -219 117zM748 1434q184 0 304 -83t173 -200v-868q-53 -117 -173 -200t-304 -83h-594v608h-88v240h88v586h594z" />
    <glyph glyph-name="Ntilde" unicode="&#xd1;" horiz-adv-x="1368" 
d="M1249 1434v-1434h-366l-457 952h-6v-952h-301v1434h366l457 -953h6v953h301zM537.5 1819q74.5 0 124 -26t86 -51.5t67.5 -25.5q57 0 68 51v41h176v-120q-14 -66 -71.5 -112t-134.5 -46t-126 25.5t-84 51t-65 25.5q-53 0 -70 -51v-41h-174v119q14 68 71.5 114t132 46z" />
    <glyph glyph-name="Ograve" unicode="&#xd2;" horiz-adv-x="1282" 
d="M641 1212q-82 0 -139 -36t-80 -91v-735q23 -55 80 -91t139 -36t139 36t80 91v735q-23 55 -80 91t-139 36zM641 1464q217 0 352 -94t191 -219v-866q-54 -125 -190 -220t-353 -95t-352 94q-135 96 -191 221v866q54 125 190 219t353 94zM770 1530h-215l-164 199v129h266
l113 -297v-31z" />
    <glyph glyph-name="Oacute" unicode="&#xd3;" horiz-adv-x="1282" 
d="M641 1212q-82 0 -139 -36t-80 -91v-735q23 -55 80 -91t139 -36t139 36t80 91v735q-23 55 -80 91t-139 36zM641 1464q217 0 352 -94t191 -219v-866q-54 -125 -190 -220t-353 -95t-352 94q-135 96 -191 221v866q54 125 190 219t353 94zM883 1858v-129l-166 -199h-215v31
l108 297h273z" />
    <glyph glyph-name="Ocircumflex" unicode="&#xd4;" horiz-adv-x="1282" 
d="M641 1212q-82 0 -139 -36t-80 -91v-735q23 -55 80 -91t139 -36t139 36t80 91v735q-23 55 -80 91t-139 36zM641 1464q217 0 352 -94t191 -219v-866q-54 -125 -190 -220t-353 -95t-352 94q-135 96 -191 221v866q54 125 190 219t353 94zM995 1530h-213l-141 194l-143 -194
h-213v31l164 297h385l161 -297v-31z" />
    <glyph glyph-name="Otilde" unicode="&#xd5;" horiz-adv-x="1282" 
d="M641 1212q-82 0 -139 -36t-80 -91v-735q23 -55 80 -91t139 -36t139 36t80 91v735q-23 55 -80 91t-139 36zM641 1464q217 0 352 -94t191 -219v-866q-54 -125 -190 -220t-353 -95t-352 94q-135 96 -191 221v866q54 125 190 219t353 94zM482 1819q74 0 124 -26
q49 -25 86 -51t68 -26q57 0 67 51v41h177v-120q-14 -66 -72 -112t-134 -46q-78 0 -126 26t-84 51q-35 26 -66 25q-53 0 -69 -51v-41h-174v119q14 68 71 114q58 46 132 46z" />
    <glyph glyph-name="Odieresis" unicode="&#xd6;" horiz-adv-x="1282" 
d="M641 1212q-82 0 -139 -36t-80 -91v-735q23 -55 80 -91t139 -36t139 36t80 91v735q-23 55 -80 91t-139 36zM641 1464q217 0 352 -94t191 -219v-866q-54 -125 -190 -220t-353 -95t-352 94q-135 96 -191 221v866q54 125 190 219t353 94zM865 1821q97 0 143 -58v-166
q-46 -59 -142 -59t-149 59v166q51 58 148 58zM421 1821q97 0 142 -58v-166q-47 -59 -142 -59t-149 59v166q52 58 149 58z" />
    <glyph glyph-name="multiply" unicode="&#xd7;" horiz-adv-x="1200" 
d="M1112 1188v-158l-342 -344l342 -346v-158h-178l-334 332l-330 -332h-184v158l344 346l-344 344v158h184l330 -332l334 332h178z" />
    <glyph glyph-name="Oslash" unicode="&#xd8;" horiz-adv-x="1282" 
d="M641 223q82 0 139 36t80 91v524l-409 -571q66 -80 190 -80zM641 1212q-82 0 -139 -36t-80 -91v-526l409 571q-68 82 -190 82zM1184 1434v-107l-58 -80q33 -43 58 -96v-866q-54 -125 -190 -220t-349 -95t-360 98l-49 -68h-138v106l58 80q-31 41 -58 99v866q54 125 190 219
t349 94t360 -98l50 68h137z" />
    <glyph glyph-name="Ugrave" unicode="&#xd9;" horiz-adv-x="1310" 
d="M1198 1434v-1149q-55 -125 -190 -220q-134 -95 -352 -95t-353 94q-135 96 -190 221v1149h323v-1082q23 -55 80 -91t139 -36q158 0 219 127v1082h324zM784 1530h-215l-163 199v129h266l112 -297v-31z" />
    <glyph glyph-name="Uacute" unicode="&#xda;" horiz-adv-x="1310" 
d="M1198 1434v-1149q-55 -125 -190 -220q-134 -95 -352 -95t-353 94q-135 96 -190 221v1149h323v-1082q23 -55 80 -91t139 -36q158 0 219 127v1082h324zM897 1858v-129l-166 -199h-215v31l109 297h272z" />
    <glyph glyph-name="Ucircumflex" unicode="&#xdb;" horiz-adv-x="1310" 
d="M1198 1434v-1149q-55 -125 -190 -220q-134 -95 -352 -95t-353 94q-135 96 -190 221v1149h323v-1082q23 -55 80 -91t139 -36q158 0 219 127v1082h324zM1010 1530h-213l-142 194l-143 -194h-213v31l164 297h385l162 -297v-31z" />
    <glyph glyph-name="Udieresis" unicode="&#xdc;" horiz-adv-x="1310" 
d="M1198 1434v-1149q-55 -125 -190 -220q-134 -95 -352 -95t-353 94q-135 96 -190 221v1149h323v-1082q23 -55 80 -91t139 -36q158 0 219 127v1082h324zM880 1821q97 0 142 -58v-166q-47 -59 -142 -59t-149 59v166q52 58 149 58zM435 1821q97 0 143 -58v-166
q-46 -59 -142 -59t-149 59v166q51 58 148 58z" />
    <glyph glyph-name="Yacute" unicode="&#xdd;" horiz-adv-x="1187" 
d="M1133 1434v-181l-383 -686v-567h-326v600l-367 653v181h273l270 -543h6l268 543h259zM838 1858v-129l-166 -199h-215v31l108 297h273z" />
    <glyph glyph-name="Thorn" unicode="&#xde;" horiz-adv-x="1210" 
d="M442 961v-422h195q137 0 192 102v217q-59 102 -192 103h-195zM711 1204q137 0 250 -62t180 -179v-424q-59 -107 -171 -177t-259 -69h-269v-293h-323v1434h323v-230h269z" />
    <glyph glyph-name="germandbls" unicode="&#xdf;" horiz-adv-x="1150" 
d="M576 1464q182 0 298 -72t164 -151v-360q-51 -82 -143 -127q131 -74 180 -191v-315q-57 -128 -175 -188t-333 -60v233q86 1 131 17t78 78v190q-45 106 -190 107v225q123 0 176 86v203q-55 92 -182 92t-179 -92v-1139h-299v1204q51 102 171 181q121 79 303 79z" />
    <glyph glyph-name="agrave" unicode="&#xe0;" horiz-adv-x="1138" 
d="M556 180q120 0 187 80v215h-198q-117 0 -168 -67v-156q59 -72 179 -72zM557 1141q195 0 317 -85t168 -194v-862h-288v84q-115 -115 -285 -115q-170 -1 -262 57t-123 115v348q31 66 123 125t244 60h292v129q-49 104 -185 104t-196 -114h-256v135q146 213 451 213z
M692 1237h-223l-164 205v129h275l112 -303v-31z" />
    <glyph glyph-name="aacute" unicode="&#xe1;" horiz-adv-x="1138" 
d="M556 180q120 0 187 80v215h-198q-117 0 -168 -67v-156q59 -72 179 -72zM557 1141q195 0 317 -85t168 -194v-862h-288v84q-115 -115 -285 -115q-170 -1 -262 57t-123 115v348q31 66 123 125t244 60h292v129q-49 104 -185 104t-196 -114h-256v135q146 213 451 213z
M455 1237v31l110 303h277v-129l-162 -205h-225z" />
    <glyph glyph-name="acircumflex" unicode="&#xe2;" horiz-adv-x="1138" 
d="M556 180q120 0 187 80v215h-198q-117 0 -168 -67v-156q59 -72 179 -72zM557 1141q195 0 317 -85t168 -194v-862h-288v84q-115 -115 -285 -115q-170 -1 -262 57t-123 115v348q31 66 123 125t244 60h292v129q-49 104 -185 104t-196 -114h-256v135q146 213 451 213z
M219 1231v31l164 303h385l162 -303v-31h-213l-142 201l-143 -201h-213z" />
    <glyph glyph-name="atilde" unicode="&#xe3;" horiz-adv-x="1138" 
d="M556 180q120 0 187 80v215h-198q-117 0 -168 -67v-156q59 -72 179 -72zM557 1141q195 0 317 -85t168 -194v-862h-288v84q-115 -115 -285 -115q-170 -1 -262 57t-123 115v348q31 66 123 125t244 60h292v129q-49 104 -185 104t-196 -114h-256v135q146 213 451 213z
M387 1251h-174v119q13 68 71 114t132 46t124 -26t87 -52t67 -25q57 0 68 52v41h176v-121q-14 -68 -72 -114t-142 -46q-85 0 -161 51t-106 51q-52 0 -70 -49v-41z" />
    <glyph glyph-name="adieresis" unicode="&#xe4;" horiz-adv-x="1138" 
d="M556 180q120 0 187 80v215h-198q-117 0 -168 -67v-156q59 -72 179 -72zM557 1141q195 0 317 -85t168 -194v-862h-288v84q-115 -115 -285 -115q-170 -1 -262 57t-123 115v348q31 66 123 125t244 60h292v129q-49 104 -185 104t-196 -114h-256v135q146 213 451 213z
M801 1233q-96 0 -150 59v170q53 60 149 60t144 -60v-170q-47 -59 -143 -59zM348 1233q-96 0 -143 59v170q47 60 143 60t150 -60v-170q-54 -59 -150 -59z" />
    <glyph glyph-name="aring" unicode="&#xe5;" horiz-adv-x="1138" 
d="M556 180q120 0 187 80v215h-198q-117 0 -168 -67v-156q59 -72 179 -72zM557 1141q195 0 317 -85t168 -194v-862h-288v84q-115 -115 -285 -115q-170 -1 -262 57t-123 115v348q31 66 123 125t244 60h292v129q-49 104 -185 104t-196 -114h-256v135q146 213 451 213z
M572 1333q86 0 116 49v113q-30 49 -116 49t-115 -49v-113q29 -49 115 -49zM573 1212q-89 0 -157 36t-99 93v195q31 57 100 93t157 36t156 -36q69 -36 99 -93v-195q-31 -57 -99 -93t-157 -36z" />
    <glyph glyph-name="ae" unicode="&#xe6;" horiz-adv-x="1777" 
d="M743 475h-198q-117 0 -168 -67v-158q59 -72 182 -72t184 84v213zM1042 676h375v131q-18 45 -68.5 74.5t-119 29.5t-118 -29.5t-69.5 -74.5v-131zM1696 475h-654v-170q20 -45 69.5 -75.5t119.5 -30.5q145 0 211 141h254v-129q-45 -86 -161 -164t-325.5 -78t-353.5 129
q-135 -129 -383 -129q-160 0 -260 57.5t-129 114.5v348q31 66 123 125.5t244 59.5h292v129q-49 104 -185 104t-196 -114h-256v135q145 213 451 213q197 0 336 -103q139 102 336 103q133 0 239.5 -47t153.5 -95.5t74 -97.5v-426z" />
    <glyph glyph-name="ccedilla" unicode="&#xe7;" horiz-adv-x="1107" 
d="M573 907q-68 0 -115.5 -29.5t-70.5 -74.5v-494q51 -106 192 -106t203 143h258v-135q-41 -80 -147.5 -154.5t-278.5 -85.5l-22 -59h16q137 0 180 -102v-156q-57 -121 -251 -121q-133 0 -207 39l45 127q85 -25 155 -25t88 41v47q-16 33 -94 33h-125l62 182
q-147 25 -240.5 103t-132.5 168v614q47 109 169 194t314 85t308 -77t161 -163v-137h-258q-62 143 -209 143z" />
    <glyph glyph-name="egrave" unicode="&#xe8;" horiz-adv-x="1122" 
d="M573 911q-135 0 -186 -104v-131h375v131q-18 45 -68.5 74.5t-120.5 29.5zM570.5 1141q192.5 0 309.5 -78t160 -162v-426h-653v-170q23 -45 72 -75.5t116 -30.5q145 0 211 141h254v-129q-43 -84 -159.5 -163t-309.5 -79t-314.5 85t-168.5 194v614q47 109 168.5 194t314 85
zM700 1237h-223l-164 205v129h275l112 -303v-31z" />
    <glyph glyph-name="eacute" unicode="&#xe9;" horiz-adv-x="1122" 
d="M573 911q-135 0 -186 -104v-131h375v131q-18 45 -68.5 74.5t-120.5 29.5zM570.5 1141q192.5 0 309.5 -78t160 -162v-426h-653v-170q23 -45 72 -75.5t116 -30.5q145 0 211 141h254v-129q-43 -84 -159.5 -163t-309.5 -79t-314.5 85t-168.5 194v614q47 109 168.5 194t314 85
zM852 1571v-129l-162 -205h-225v31l110 303h277z" />
    <glyph glyph-name="ecircumflex" unicode="&#xea;" horiz-adv-x="1122" 
d="M573 911q-135 0 -186 -104v-131h375v131q-18 45 -68.5 74.5t-120.5 29.5zM570.5 1141q192.5 0 309.5 -78t160 -162v-426h-653v-170q23 -45 72 -75.5t116 -30.5q145 0 211 141h254v-129q-43 -84 -159.5 -163t-309.5 -79t-314.5 85t-168.5 194v614q47 109 168.5 194t314 85
zM940 1231h-213l-141 201l-144 -201h-213v31l164 303h385l162 -303v-31z" />
    <glyph glyph-name="edieresis" unicode="&#xeb;" horiz-adv-x="1122" 
d="M573 911q-135 0 -186 -104v-131h375v131q-18 45 -68.5 74.5t-120.5 29.5zM570.5 1141q192.5 0 309.5 -78t160 -162v-426h-653v-170q23 -45 72 -75.5t116 -30.5q145 0 211 141h254v-129q-43 -84 -159.5 -163t-309.5 -79t-314.5 85t-168.5 194v614q47 109 168.5 194t314 85
zM811 1522q96 0 143 -60v-170q-47 -59 -143 -59t-149 59v170q53 60 149 60zM358 1522q96 0 150 -60v-170q-53 -59 -149.5 -59t-143.5 59v170q47 60 143 60z" />
    <glyph glyph-name="igrave" unicode="&#xec;" horiz-adv-x="516" 
d="M408 1110v-1110h-299v1110h299zM375 1237h-223l-164 205v129h274l113 -303v-31z" />
    <glyph glyph-name="iacute" unicode="&#xed;" horiz-adv-x="516" 
d="M408 1110v-1110h-299v1110h299zM524 1571v-129l-162 -205h-225v31l111 303h276z" />
    <glyph glyph-name="icircumflex" unicode="&#xee;" horiz-adv-x="516" 
d="M408 1110v-1110h-299v1110h299zM612 1231h-213l-141 201l-143 -201h-213v31l164 303h385l161 -303v-31z" />
    <glyph glyph-name="idieresis" unicode="&#xef;" horiz-adv-x="516" 
d="M408 1110v-1110h-299v1110h299zM483 1522q96 0 144 -60v-170q-47 -59 -143 -59t-150 59v170q53 60 149 60zM31 1522q96 0 149 -60v-170q-53 -59 -149 -59t-144 59v170q48 60 144 60z" />
    <glyph glyph-name="eth" unicode="&#xf0;" horiz-adv-x="1148" 
d="M762 309v353q-63 76 -187 75q-71 -1 -119 -29t-69 -73v-326q19 -45 69 -76t118 -31t120 32q50 30 68 75zM575 -31q-195 0 -317 85t-170 194v448q33 106 138 190q104 84 262 83q158 0 274 -82v114q-20 53 -78 107l-315 -102v159l166 54q-123 70 -263 118l154 166
q229 -63 410 -186l225 74v-160l-90 -29q59 -68 90 -135v-819q-47 -109 -169 -194t-317 -85z" />
    <glyph glyph-name="ntilde" unicode="&#xf1;" horiz-adv-x="1155" 
d="M668 1135q168 0 260 -77t129 -173v-885h-299v815q-18 31 -63.5 57.5t-110.5 26.5q-119 0 -183 -68v-831h-299v1110h279v-98q119 123 287 123zM389 1251h-174v119q14 68 71.5 114t132 46t124 -25.5t86.5 -51.5t67 -26q57 0 68 52v41h176v-121q-14 -68 -71.5 -114
t-142.5 -46t-161 51t-106 51q-52 0 -70 -49v-41z" />
    <glyph glyph-name="ograve" unicode="&#xf2;" horiz-adv-x="1148" 
d="M574 907q-70 -1 -118 -31t-69 -73v-494q19 -45 69 -76t118 -31t119 32q50 30 69 75v494q-18 43 -68 73t-120 31zM575 1141q195 0 317 -85t169 -194v-614q-47 -109 -169 -194t-317 -85t-317 85t-170 194v614q48 109 170 194t317 85zM690 1237h-223l-164 205v129h275
l112 -303v-31z" />
    <glyph glyph-name="oacute" unicode="&#xf3;" horiz-adv-x="1148" 
d="M574 907q-70 -1 -118 -31t-69 -73v-494q19 -45 69 -76t118 -31t119 32q50 30 69 75v494q-18 43 -68 73t-120 31zM575 1141q195 0 317 -85t169 -194v-614q-47 -109 -169 -194t-317 -85t-317 85t-170 194v614q48 109 170 194t317 85zM840 1571v-129l-162 -205h-225v31
l110 303h277z" />
    <glyph glyph-name="ocircumflex" unicode="&#xf4;" horiz-adv-x="1148" 
d="M574 907q-70 -1 -118 -31t-69 -73v-494q19 -45 69 -76t118 -31t119 32q50 30 69 75v494q-18 43 -68 73t-120 31zM575 1141q195 0 317 -85t169 -194v-614q-47 -109 -169 -194t-317 -85t-317 85t-170 194v614q48 109 170 194t317 85zM928 1231h-213l-142 201l-143 -201
h-213v31l164 303h385l162 -303v-31z" />
    <glyph glyph-name="otilde" unicode="&#xf5;" horiz-adv-x="1148" 
d="M574 907q-70 -1 -118 -31t-69 -73v-494q19 -45 69 -76t118 -31t119 32q50 30 69 75v494q-18 43 -68 73t-120 31zM575 1141q195 0 317 -85t169 -194v-614q-47 -109 -169 -194t-317 -85t-317 85t-170 194v614q48 109 170 194t317 85zM414 1530q74 0 124 -26t87 -52t67 -25
q57 0 68 52v41h176v-121q-14 -68 -72 -114t-142 -46q-85 0 -161 51t-106 51q-51 0 -70 -49v-41h-174v119q13 68 71 114t132 46z" />
    <glyph glyph-name="odieresis" unicode="&#xf6;" horiz-adv-x="1148" 
d="M574 907q-70 -1 -118 -31t-69 -73v-494q19 -45 69 -76t118 -31t119 32q50 30 69 75v494q-18 43 -68 73t-120 31zM575 1141q195 0 317 -85t169 -194v-614q-47 -109 -169 -194t-317 -85t-317 85t-170 194v614q48 109 170 194t317 85zM799 1522q96 0 143 -60v-170
q-47 -59 -143 -59t-150 59v170q54 60 150 60zM346 1522q96 0 150 -60v-170q-54 -59 -150 -59t-143 59v170q47 60 143 60z" />
    <glyph glyph-name="divide" unicode="&#xf7;" horiz-adv-x="1200" 
d="M600 444q63 0 106 -24q42 -25 54 -58v-157q-12 -31 -54 -57t-106 -25q-117 0 -160 82v157q41 82 160 82zM1130 805v-238h-1058v238h1058zM600 1251q63 0 106 -24q42 -25 54 -58v-155q-12 -33 -54 -59t-106 -25q-117 0 -160 84v155q41 82 160 82z" />
    <glyph glyph-name="oslash" unicode="&#xf8;" horiz-adv-x="1148" 
d="M762 291v362l-342 -409q57 -58 140 -58q84 0 134 30t68 75zM387 819v-360l342 409q-61 58 -143 58t-130 -31q-49 -31 -69 -76zM1061 1110v-98l-51 -64q37 -47 51 -86v-614q-47 -109 -169 -194t-310 -85t-320 84l-45 -53h-129v100l51 62q-29 35 -51 86v614q47 109 170 194
t309 85t322 -82l43 51h129z" />
    <glyph glyph-name="ugrave" unicode="&#xf9;" horiz-adv-x="1144" 
d="M743 1110h299v-1110h-278v96q-117 -121 -282 -121t-256 77t-130 171v887h299v-815q55 -84 169 -84t179 70v829zM690 1237h-223l-164 205v129h275l112 -303v-31z" />
    <glyph glyph-name="uacute" unicode="&#xfa;" horiz-adv-x="1144" 
d="M743 1110h299v-1110h-278v96q-117 -121 -282 -121t-256 77t-130 171v887h299v-815q55 -84 169 -84t179 70v829zM453 1237v31l110 303h277v-129l-162 -205h-225z" />
    <glyph glyph-name="ucircumflex" unicode="&#xfb;" horiz-adv-x="1144" 
d="M743 1110h299v-1110h-278v96q-117 -121 -282 -121t-256 77t-130 171v887h299v-815q55 -84 169 -84t179 70v829zM217 1231v31l164 303h385l162 -303v-31h-213l-142 201l-143 -201h-213z" />
    <glyph glyph-name="udieresis" unicode="&#xfc;" horiz-adv-x="1144" 
d="M743 1110h299v-1110h-278v96q-117 -121 -282 -121t-256 77t-130 171v887h299v-815q55 -84 169 -84t179 70v829zM799 1233q-96 0 -150 59v170q53 60 149 60t144 -60v-170q-47 -59 -143 -59zM346 1233q-96 0 -143 59v170q47 60 143 60t150 -60v-170q-54 -59 -150 -59z" />
    <glyph glyph-name="yacute" unicode="&#xfd;" horiz-adv-x="1083" 
d="M1026 1110v-164l-381 -1145q-121 -160 -389 -159q-117 0 -172 18v213q49 -4 88 -4q150 0 215 70l19 69l-345 936v166h277l215 -727h6l209 727h258zM805 1571v-129l-162 -205h-225v31l110 303h277z" />
    <glyph glyph-name="thorn" unicode="&#xfe;" horiz-adv-x="1146" 
d="M588 899q-123 0 -187 -68v-550q66 -70 186 -70t171 84v520q-47 84 -170 84zM673 1135q163 0 255 -77t131 -173v-658q-39 -98 -131 -175t-253 -77t-274 105v-420h-299v1774h299v-404q109 105 272 105z" />
    <glyph glyph-name="ydieresis" unicode="&#xff;" horiz-adv-x="1083" 
d="M1026 1110v-164l-381 -1145q-121 -160 -389 -159q-117 0 -172 18v213q49 -4 88 -4q150 0 215 70l19 69l-345 936v166h277l215 -727h6l209 727h258zM762 1522q96 0 143 -60v-170q-47 -59 -143 -59t-150 59v170q54 60 150 60zM309 1522q96 0 150 -60v-170q-53 -59 -149 -59
t-144 59v170q47 60 143 60z" />
    <glyph glyph-name="Amacron" unicode="&#x100;" horiz-adv-x="1284" 
d="M469 584h319l-153 602h-6zM1233 0h-293l-86 336h-451l-88 -336h-264v180l365 1254h452l365 -1254v-180zM993 1757v-201h-704v201h704z" />
    <glyph glyph-name="amacron" unicode="&#x101;" horiz-adv-x="1138" 
d="M556 180q120 0 187 80v215h-198q-117 0 -168 -67v-156q59 -72 179 -72zM557 1141q195 0 317 -85t168 -194v-862h-288v84q-115 -115 -285 -115q-170 -1 -262 57t-123 115v348q31 66 123 125t244 60h292v129q-49 104 -185 104t-196 -114h-256v135q146 213 451 213z
M928 1485v-201h-705v201h705z" />
    <glyph glyph-name="Abreve" unicode="&#x102;" horiz-adv-x="1284" 
d="M469 584h319l-153 602h-6zM1233 0h-293l-86 336h-451l-88 -336h-264v180l365 1254h452l365 -1254v-180zM643 1513q-133 1 -223 51t-129 132v123h219v-78q31 -68 132 -68t132 68v78h219v-123q-88 -183 -350 -183z" />
    <glyph glyph-name="abreve" unicode="&#x103;" horiz-adv-x="1138" 
d="M556 180q120 0 187 80v215h-198q-117 0 -168 -67v-156q59 -72 179 -72zM557 1141q195 0 317 -85t168 -194v-862h-288v84q-115 -115 -285 -115q-170 -1 -262 57t-123 115v348q31 66 123 125t244 60h292v129q-49 104 -185 104t-196 -114h-256v135q146 213 451 213z
M575 1221q-133 0 -223 49t-129 131v125h219v-78q10 -26 44 -48t89 -22q102 0 132 70v78h219v-125q-38 -82 -128 -131t-223 -49z" />
    <glyph glyph-name="Aogonek" unicode="&#x104;" horiz-adv-x="1284" 
d="M469 584h319l-153 602h-6zM1128 -287q56 0 105 17v-162q-57 -29 -156 -29q-197 0 -243 107v159q47 102 165 195h-59l-86 336h-451l-88 -336h-264v180l365 1254h452l365 -1254v-180q-147 -127 -184 -205v-49q23 -33 79 -33z" />
    <glyph glyph-name="aogonek" unicode="&#x105;" horiz-adv-x="1138" 
d="M556 180q120 0 187 80v215h-198q-117 0 -168 -67v-156q59 -72 179 -72zM962 -287q56 0 107 17v-162q-57 -29 -156 -29q-195 0 -245 107v159q47 102 168 195h-82v84q-115 -115 -285 -115q-170 -1 -262 57t-123 115v348q31 66 123 125t244 60h292v129q-49 104 -185 104
t-196 -114h-256v135q145 213 451 213q195 0 317 -85t168 -194v-862q-123 -119 -157 -205v-49q21 -33 77 -33z" />
    <glyph glyph-name="Cacute" unicode="&#x106;" horiz-adv-x="1241" 
d="M641 1464q299 0 467 -194q39 -45 63 -94v-152h-278q-23 84 -86.5 136t-153.5 52t-148.5 -35.5t-82.5 -91.5v-737q25 -55 83 -91t148 -36t153.5 52.5t86.5 136.5h278v-152q-53 -102 -165 -185q-141 -104 -361.5 -104t-355.5 94.5t-191 219.5v868q55 125 190.5 219
t352.5 94zM889 1858v-129l-166 -199h-215v31l108 297h273z" />
    <glyph glyph-name="cacute" unicode="&#x107;" horiz-adv-x="1107" 
d="M570.5 1141q192.5 0 308.5 -77t161 -163v-137h-258q-61 143 -209 143q-68 0 -115.5 -29.5t-70.5 -74.5v-494q51 -106 192 -106t203 143h258v-135q-45 -86 -160.5 -164t-308.5 -78t-314.5 85t-168.5 194v614q47 109 168.5 194t314 85zM846 1571v-129l-162 -205h-225v31
l110 303h277z" />
    <glyph glyph-name="Ccircumflex" unicode="&#x108;" horiz-adv-x="1241" 
d="M641 1464q299 0 467 -194q39 -45 63 -94v-152h-278q-23 84 -86.5 136t-153.5 52t-148.5 -35.5t-82.5 -91.5v-737q25 -55 83 -91t148 -36t153.5 52.5t86.5 136.5h278v-152q-53 -102 -165 -185q-141 -104 -361.5 -104t-355.5 94.5t-191 219.5v868q55 125 190.5 219
t352.5 94zM1001 1530h-213l-141 194l-143 -194h-213v31l164 297h385l161 -297v-31z" />
    <glyph glyph-name="ccircumflex" unicode="&#x109;" horiz-adv-x="1107" 
d="M570.5 1141q192.5 0 308.5 -77t161 -163v-137h-258q-61 143 -209 143q-68 0 -115.5 -29.5t-70.5 -74.5v-494q51 -106 192 -106t203 143h258v-135q-45 -86 -160.5 -164t-308.5 -78t-314.5 85t-168.5 194v614q47 109 168.5 194t314 85zM934 1231h-213l-141 201l-144 -201
h-213v31l164 303h385l162 -303v-31z" />
    <glyph glyph-name="Cdotaccent" unicode="&#x10a;" horiz-adv-x="1241" 
d="M641 1464q299 0 467 -194q39 -45 63 -94v-152h-278q-23 84 -86.5 136t-153.5 52t-148.5 -35.5t-82.5 -91.5v-737q25 -55 83 -91t148 -36t153.5 52.5t86.5 136.5h278v-152q-53 -102 -165 -185q-141 -104 -361.5 -104t-355.5 94.5t-191 219.5v868q55 125 190.5 219
t352.5 94zM648 1839q124 0 159 -82v-127q-33 -82 -159 -82t-163 82v127q39 82 163 82z" />
    <glyph glyph-name="cdotaccent" unicode="&#x10b;" horiz-adv-x="1107" 
d="M570.5 1141q192.5 0 308.5 -77t161 -163v-137h-258q-61 143 -209 143q-68 0 -115.5 -29.5t-70.5 -74.5v-494q51 -106 192 -106t203 143h258v-135q-45 -86 -160.5 -164t-308.5 -78t-314.5 85t-168.5 194v614q47 109 168.5 194t314 85zM581 1526q122 0 160 -82v-127
q-39 -82 -160.5 -82t-160.5 82v127q39 82 161 82z" />
    <glyph glyph-name="Ccaron" unicode="&#x10c;" horiz-adv-x="1241" 
d="M641 1464q299 0 467 -194q39 -45 63 -94v-152h-278q-23 84 -86.5 136t-153.5 52t-148.5 -35.5t-82.5 -91.5v-737q25 -55 83 -91t148 -36t153.5 52.5t86.5 136.5h278v-152q-53 -102 -165 -185q-141 -104 -361.5 -104t-355.5 94.5t-191 219.5v868q55 125 190.5 219
t352.5 94zM1001 1858v-33l-161 -295h-385l-164 295v33h213l143 -197l141 197h213z" />
    <glyph glyph-name="ccaron" unicode="&#x10d;" horiz-adv-x="1107" 
d="M570.5 1141q192.5 0 308.5 -77t161 -163v-137h-258q-61 143 -209 143q-68 0 -115.5 -29.5t-70.5 -74.5v-494q51 -106 192 -106t203 143h258v-135q-45 -86 -160.5 -164t-308.5 -78t-314.5 85t-168.5 194v614q47 109 168.5 194t314 85zM934 1565v-33l-162 -301h-385
l-164 301v33h213l144 -201l141 201h213z" />
    <glyph glyph-name="Dcaron" unicode="&#x10e;" horiz-adv-x="1288" 
d="M647 1188h-205v-942h205q170 0 219 116v709q-49 117 -219 117zM713 1434q184 0 304 -83t173 -200v-868q-53 -117 -173 -200t-304 -83h-594v1434h594zM999 1858v-33l-161 -295h-385l-164 295v33h213l143 -197l141 197h213z" />
    <glyph glyph-name="dcaron" unicode="&#x10f;" horiz-adv-x="1146" 
d="M558 211q122 0 187 70v550q-68 68 -184 68q-65 0 -109 -27t-63 -57v-520q47 -84 169 -84zM1446 1434v-154l-96 -274h-183v30l43 398h236zM745 1434h299v-1434h-288v90q-115 -115 -280 -115t-259 78t-129 174v658q35 96 129 173q93 76 255 76t273 -104v404z" />
    <glyph glyph-name="Dcroat" unicode="&#x110;" horiz-adv-x="1337" 
d="M682 1188h-205v-340h236v-240h-236v-362h205q170 -1 219 116v709q-49 117 -219 117zM748 1434q184 0 304 -83t173 -200v-868q-53 -117 -173 -200t-304 -83h-594v608h-88v240h88v586h594z" />
    <glyph glyph-name="dcroat" unicode="&#x111;" horiz-adv-x="1187" 
d="M561 856q-67 0 -111 -27t-61 -57v-481q47 -84 171 -84t185 69v508q-63 72 -184 72zM1047 1434v-97h94v-157h-94v-1180h-289v88q-117 -113 -282 -113t-259 78t-129 174v611q35 96 129 173t252 77t276 -101v193h-307v157h307v97h302z" />
    <glyph glyph-name="Emacron" unicode="&#x112;" horiz-adv-x="1101" 
d="M1008 1434v-248h-566v-328h529v-248h-529v-362h580v-248h-903v1434h889zM922 1757v-201h-705v201h705z" />
    <glyph glyph-name="emacron" unicode="&#x113;" horiz-adv-x="1122" 
d="M573 911q-135 0 -186 -104v-131h375v131q-18 45 -68.5 74.5t-120.5 29.5zM570.5 1141q192.5 0 309.5 -78t160 -162v-426h-653v-170q23 -45 72 -75.5t116 -30.5q145 0 211 141h254v-129q-43 -84 -159.5 -163t-309.5 -79t-314.5 85t-168.5 194v614q47 109 168.5 194t314 85
zM936 1485v-201h-705v201h705z" />
    <glyph glyph-name="Ebreve" unicode="&#x114;" horiz-adv-x="1101" 
d="M1008 1434v-248h-566v-328h529v-248h-529v-362h580v-248h-903v1434h889zM922 1819v-123q-88 -182 -351 -183q-133 0 -223 50.5t-129 132.5v123h219v-78q31 -68 132 -68t132 68v78h220z" />
    <glyph glyph-name="ebreve" unicode="&#x115;" horiz-adv-x="1122" 
d="M573 911q-135 0 -186 -104v-131h375v131q-18 45 -68.5 74.5t-120.5 29.5zM570.5 1141q192.5 0 309.5 -78t160 -162v-426h-653v-170q23 -45 72 -75.5t116 -30.5q145 0 211 141h254v-129q-43 -84 -159.5 -163t-309.5 -79t-314.5 85t-168.5 194v614q47 109 168.5 194t314 85
zM936 1526v-125q-39 -82 -128 -131t-222 -49t-223.5 49t-129.5 131v125h220v-78q10 -25 43.5 -47.5t89.5 -22.5q102 0 131 70v78h219z" />
    <glyph glyph-name="Edotaccent" unicode="&#x116;" horiz-adv-x="1101" 
d="M1008 1434v-248h-566v-328h529v-248h-529v-362h580v-248h-903v1434h889zM572 1839q124 0 159 -82v-127q-33 -82 -159 -82t-162 82v127q38 82 162 82z" />
    <glyph glyph-name="edotaccent" unicode="&#x117;" horiz-adv-x="1122" 
d="M573 911q-135 0 -186 -104v-131h375v131q-18 45 -68.5 74.5t-120.5 29.5zM570.5 1141q192.5 0 309.5 -78t160 -162v-426h-653v-170q23 -45 72 -75.5t116 -30.5q145 0 211 141h254v-129q-43 -84 -159.5 -163t-309.5 -79t-314.5 85t-168.5 194v614q47 109 168.5 194t314 85
zM585 1526q122 0 160 -82v-127q-39 -82 -160.5 -82t-160.5 82v127q39 82 161 82z" />
    <glyph glyph-name="Eogonek" unicode="&#x118;" horiz-adv-x="1101" 
d="M917 -287q56 0 105 17v-162q-57 -29 -156 -29q-195 0 -245 107v159q55 109 167 195h-669v1434h889v-248h-566v-328h529v-248h-529v-362h580v-248q-158 -131 -184 -205v-49q23 -33 79 -33z" />
    <glyph glyph-name="eogonek" unicode="&#x119;" horiz-adv-x="1122" 
d="M573 911q-135 0 -186 -104v-131h375v131q-18 45 -68.5 74.5t-120.5 29.5zM570.5 1141q192.5 0 309.5 -78t160 -162v-426h-653v-170q23 -45 72 -75.5t116 -30.5q145 0 211 141h254v-129q-20 -43 -106 -200t-98 -216v-49q23 -33 79 -33t105 17v-162q-57 -29 -156 -29
q-197 0 -243 107v159q23 72 108 185q-76 -20 -156 -21q-195 0 -316.5 85t-168.5 194v614q47 109 168.5 194t314 85z" />
    <glyph glyph-name="Ecaron" unicode="&#x11a;" horiz-adv-x="1101" 
d="M1008 1434v-248h-566v-328h529v-248h-529v-362h580v-248h-903v1434h889zM926 1858v-33l-162 -295h-385l-164 295v33h213l143 -197l142 197h213z" />
    <glyph glyph-name="ecaron" unicode="&#x11b;" horiz-adv-x="1122" 
d="M573 911q-135 0 -186 -104v-131h375v131q-18 45 -68.5 74.5t-120.5 29.5zM570.5 1141q192.5 0 309.5 -78t160 -162v-426h-653v-170q23 -45 72 -75.5t116 -30.5q145 0 211 141h254v-129q-43 -84 -159.5 -163t-309.5 -79t-314.5 85t-168.5 194v614q47 109 168.5 194t314 85
zM940 1565v-33l-162 -301h-385l-164 301v33h213l144 -201l141 201h213z" />
    <glyph glyph-name="Gcircumflex" unicode="&#x11c;" horiz-adv-x="1286" 
d="M653 1212q-90 0 -148.5 -36.5t-82.5 -90.5v-735q23 -53 82 -90t143 -37q160 0 223 119v215h-213v244h514v-801h-253v102q-123 -133 -323.5 -133t-320.5 94.5t-176 221.5v866q55 125 190.5 219t352.5 94q299 0 467 -194q39 -45 63 -94v-152h-278q-23 84 -86.5 136
t-153.5 52zM287 1530v31l164 297h385l161 -297v-31h-213l-141 194l-143 -194h-213z" />
    <glyph glyph-name="gcircumflex" unicode="&#x11d;" horiz-adv-x="1146" 
d="M563 293q119 0 182 72v464q-66 70 -184 70q-67 0 -111 -27t-63 -57v-436q16 -33 62 -59t114 -27zM756 1110h288v-1212q-49 -109 -170 -189q-122 -80 -316 -80t-310 75t-164 159v119h264q62 -119 206 -119t191 96v205q-115 -104 -273 -104t-254 77q-95 78 -130 172v576
q35 94 130 172t257 78t281 -115v90zM217 1231v31l164 303h385l162 -303v-31h-213l-142 201l-143 -201h-213z" />
    <glyph glyph-name="Gbreve" unicode="&#x11e;" horiz-adv-x="1286" 
d="M653 1212q-90 0 -148.5 -36.5t-82.5 -90.5v-735q23 -53 82 -90t143 -37q160 0 223 119v215h-213v244h514v-801h-253v102q-123 -133 -323.5 -133t-320.5 94.5t-176 221.5v866q55 125 190.5 219t352.5 94q299 0 467 -194q39 -45 63 -94v-152h-278q-23 84 -86.5 136
t-153.5 52zM643 1513q-133 0 -223 50.5t-129 132.5v123h219v-78q31 -68 132 -68t132 68v78h219v-123q-88 -183 -350 -183z" />
    <glyph glyph-name="gbreve" unicode="&#x11f;" horiz-adv-x="1146" 
d="M563 293q119 0 182 72v464q-66 70 -184 70q-67 0 -111 -27t-63 -57v-436q16 -33 62 -59t114 -27zM756 1110h288v-1212q-49 -109 -170 -189q-122 -80 -316 -80t-310 75t-164 159v119h264q62 -119 206 -119t191 96v205q-115 -104 -273 -104t-254 77q-95 78 -130 172v576
q35 94 130 172t257 78t281 -115v90zM573 1221q-133 0 -223 49t-129 131v125h219v-78q10 -26 44 -48t89 -22q102 0 132 70v78h219v-125q-38 -82 -128 -131t-223 -49z" />
    <glyph glyph-name="Gdotaccent" unicode="&#x120;" horiz-adv-x="1286" 
d="M653 1212q-90 0 -148.5 -36.5t-82.5 -90.5v-735q23 -53 82 -90t143 -37q160 0 223 119v215h-213v244h514v-801h-253v102q-123 -133 -323.5 -133t-320.5 94.5t-176 221.5v866q55 125 190.5 219t352.5 94q299 0 467 -194q39 -45 63 -94v-152h-278q-23 84 -86.5 136
t-153.5 52zM644 1548q-126 0 -163 82v127q39 82 163 82t159 -82v-127q-33 -82 -159 -82z" />
    <glyph glyph-name="gdotaccent" unicode="&#x121;" horiz-adv-x="1146" 
d="M563 293q119 0 182 72v464q-66 70 -184 70q-67 0 -111 -27t-63 -57v-436q16 -33 62 -59t114 -27zM756 1110h288v-1212q-49 -109 -170 -189q-122 -80 -316 -80t-310 75t-164 159v119h264q62 -119 206 -119t191 96v205q-115 -104 -273 -104t-254 77q-95 78 -130 172v576
q35 94 130 172t257 78t281 -115v90zM572 1235q-122 0 -160 82v127q38 82 160 82t161 -82v-127q-39 -82 -161 -82z" />
    <glyph glyph-name="Gcommaaccent" unicode="&#x122;" horiz-adv-x="1286" 
d="M640 -102q116 0 157 -45v-218q-14 -43 -64.5 -78.5t-132.5 -35.5h-98v94h71q59 0 76 29v45h-6q-127 0 -154 39v125q35 45 151 45zM653 1212q-90 0 -148.5 -36.5t-82.5 -90.5v-735q23 -53 82 -90t143 -37q160 0 223 119v215h-213v244h514v-801h-253v102
q-123 -133 -323.5 -133t-320.5 94.5t-176 221.5v866q55 125 190.5 219t352.5 94q299 0 467 -194q39 -45 63 -94v-152h-278q-23 84 -86.5 136t-153.5 52z" />
    <glyph glyph-name="gcommaaccent" unicode="&#x123;" horiz-adv-x="1146" 
d="M563 293q119 0 182 72v464q-66 70 -184 70q-67 0 -111 -27t-63 -57v-436q16 -33 62 -59t114 -27zM756 1110h288v-1212q-49 -109 -170 -189q-122 -80 -316 -80t-310 75t-164 159v119h264q62 -119 206 -119t191 96v205q-115 -104 -273 -104t-254 77q-95 78 -130 172v576
q35 94 130 172t257 78t281 -115v90zM573 1208q-61 0 -103 25t-56 55v254q14 43 71 79t144 36h76v-113h-46q-78 0 -92 -26v-48h6q61 0 104 -24q42 -25 56 -57v-101q-15 -32 -57 -56t-103 -24z" />
    <glyph glyph-name="Hcircumflex" unicode="&#x124;" horiz-adv-x="1341" 
d="M1223 1434v-1434h-324v614h-457v-614h-323v1434h323v-572h457v572h324zM1026 1530h-213l-141 194l-144 -194h-213v31l164 297h385l162 -297v-31z" />
    <glyph glyph-name="hcircumflex" unicode="&#x125;" horiz-adv-x="1157" 
d="M676 1135q160 0 253 -77t132 -173v-885h-301v815q-18 31 -64 57t-110 27q-123 0 -185 -70v-829h-299v1434h299v-404q115 105 275 105zM236 1520v30l163 297h385l162 -297v-30h-213l-141 194l-143 -194h-213z" />
    <glyph glyph-name="Hbar" unicode="&#x126;" horiz-adv-x="1341" 
d="M899 862v236h-457v-236h457zM1296 1290v-192h-73v-1098h-324v614h-457v-614h-323v1098h-68v192h68v144h323v-144h457v144h324v-144h73z" />
    <glyph glyph-name="hbar" unicode="&#x127;" horiz-adv-x="1185" 
d="M432 1434v-97h318v-157h-318v-195q113 102 274 102q160 -1 252 -77t129 -172v-838h-299v768q-47 84 -172 84t-184 -72v-780h-299v1180h-84v157h84v97h299z" />
    <glyph glyph-name="Itilde" unicode="&#x128;" horiz-adv-x="561" 
d="M442 1434v-1434h-323v1434h323zM122 1819q74 0 124 -26q50 -25 86 -51q37 -26 67 -26q57 0 68 51v41h176v-120q-13 -66 -71 -112t-135 -46t-126 26t-84 51q-35 26 -65 25q-53 0 -70 -51v-41h-174v119q14 68 72 114t132 46z" />
    <glyph glyph-name="itilde" unicode="&#x129;" horiz-adv-x="516" 
d="M408 1110v-1110h-299v1110h299zM100 1530q74 0 123 -26t86 -52t68 -25q57 0 67 52v41h177v-121q-13 -68 -71 -114t-143 -46t-161 51t-117 51t-59 -49v-41h-174v119q14 68 71 114q59 46 133 46z" />
    <glyph glyph-name="Imacron" unicode="&#x12a;" horiz-adv-x="561" 
d="M442 1434v-1434h-323v1434h323zM633 1757v-201h-705v201h705z" />
    <glyph glyph-name="imacron" unicode="&#x12b;" horiz-adv-x="516" 
d="M408 1110v-1110h-299v1110h299zM608 1485v-201h-704v201h704z" />
    <glyph glyph-name="Ibreve" unicode="&#x12c;" horiz-adv-x="561" 
d="M442 1434v-1434h-323v1434h323zM631 1819v-123q-88 -182 -350 -183q-133 1 -223 51t-130 132v123h219v-78q31 -68 133 -68t132 68v78h219z" />
    <glyph glyph-name="ibreve" unicode="&#x12d;" horiz-adv-x="516" 
d="M408 1110v-1110h-299v1110h299zM608 1526v-125q-39 -82 -128 -131t-222 -49t-223 49t-129 131v125h219v-78q10 -26 44 -48t89 -22q102 0 131 70v78h219z" />
    <glyph glyph-name="Iogonek" unicode="&#x12e;" horiz-adv-x="561" 
d="M337 -287q56 0 105 17v-162q-57 -29 -155 -29q-193 0 -244 107v159q47 102 166 195h-90v1434h323v-1434q-147 -123 -184 -205v-49q23 -33 79 -33z" />
    <glyph glyph-name="iogonek" unicode="&#x12f;" horiz-adv-x="516" 
d="M109 0v1110h299v-1110q-152 -129 -185 -205v-49q23 -33 79 -33t106 17v-162q-57 -29 -156 -29q-193 0 -244 107v159q47 102 172 195h-71zM258 1526q63 0 104 -25t56 -57v-123q-14 -33 -56 -57t-104 -25q-63 0 -104 25t-56 57v123q14 34 56 58t104 24z" />
    <glyph glyph-name="Idotaccent" unicode="&#x130;" horiz-adv-x="561" 
d="M442 1434v-1434h-323v1434h323zM282 1839q124 0 158 -82v-127q-32 -82 -158 -82t-163 82v127q39 82 163 82z" />
    <glyph glyph-name="dotlessi" unicode="&#x131;" horiz-adv-x="516" 
d="M408 1110v-1110h-299v1110h299z" />
    <glyph glyph-name="IJ" unicode="&#x132;" horiz-adv-x="1353" 
d="M1241 1434v-1149q-137 -289 -520 -289q-74 0 -119 4v246h94q172 0 222 119v1069h323zM442 1434v-1434h-323v1434h323z" />
    <glyph glyph-name="ij" unicode="&#x133;" horiz-adv-x="1019" 
d="M918 1110v-1204q-45 -111 -166 -193t-322 -82v230q70 0 119 35t67 88v1126h302zM408 1110v-1110h-299v1110h299zM769 1526q122 0 161 -82v-127q-39 -82 -161 -82t-161 82v127q39 82 161 82zM257 1526q122 0 161 -82v-127q-39 -82 -161 -82t-161 82v127q39 82 161 82z" />
    <glyph glyph-name="Jcircumflex" unicode="&#x134;" horiz-adv-x="792" 
d="M680 1434v-1149q-137 -289 -520 -289q-74 0 -119 4v246h94q172 0 221 119v1069h324zM870 1530h-213l-141 194l-143 -194h-213v31l164 297h385l161 -297v-31z" />
    <glyph glyph-name="jcircumflex" unicode="&#x135;" horiz-adv-x="503" 
d="M401 1110v-1204q-45 -111 -165 -193t-322 -82v230q70 0 119 35t67 88v1126h301zM608 1231h-213l-141 201l-143 -201h-213v31l163 303h385l162 -303v-31z" />
    <glyph glyph-name="Kcommaaccent" unicode="&#x136;" horiz-adv-x="1263" 
d="M630 -102q116 0 156 -45v-218q-14 -43 -64 -78.5t-132 -35.5h-98v94h71q59 0 76 29v45h-6q-127 0 -154 39v125q35 45 151 45zM1204 0h-260l-375 610l-127 -139v-471h-323v1434h323v-560l490 560h219v-181l-369 -407l422 -666v-180z" />
    <glyph glyph-name="kcommaaccent" unicode="&#x137;" horiz-adv-x="1105" 
d="M550 -102q116 0 157 -45v-218q-14 -43 -64.5 -78.5t-132.5 -35.5h-98v94h71q59 0 76 29v45h-6q-127 0 -154 39v125q35 45 151 45zM1067 0h-238l-301 451l-127 -132v-319h-299v1434h299v-758l410 434h201v-164l-281 -289l336 -493v-164z" />
    <glyph glyph-name="Lacute" unicode="&#x139;" horiz-adv-x="937" 
d="M442 1434v-1186h453v-248h-776v1434h323zM549 1858v-129l-166 -199h-215v31l108 297h273z" />
    <glyph glyph-name="lacute" unicode="&#x13a;" horiz-adv-x="503" 
d="M401 1434v-1434h-299v1434h299zM502 1853v-129l-166 -198h-215v30l108 297h273z" />
    <glyph glyph-name="Lcommaaccent" unicode="&#x13b;" horiz-adv-x="937" 
d="M468 -102q116 0 157 -45v-218q-14 -43 -64.5 -78.5t-132.5 -35.5h-98v94h71q59 0 76 29v45h-6q-127 0 -154 39v125q35 45 151 45zM442 248h453v-248h-776v1434h323v-1186z" />
    <glyph glyph-name="lcommaaccent" unicode="&#x13c;" horiz-adv-x="503" 
d="M249 -102q116 0 157 -45v-218q-14 -43 -64.5 -78.5t-132.5 -35.5h-98v94h71q59 0 76 29v45h-6q-127 0 -154 39v125q35 45 151 45zM401 1434v-1434h-299v1434h299z" />
    <glyph glyph-name="Lcaron" unicode="&#x13d;" horiz-adv-x="937" 
d="M864 1434v-154l-98 -274h-180v30l41 398h237zM442 1434v-1186h453v-248h-776v1434h323z" />
    <glyph glyph-name="lcaron" unicode="&#x13e;" horiz-adv-x="503" 
d="M803 1434v-154l-96 -274h-183v30l41 398h238zM401 1434v-1434h-299v1434h299z" />
    <glyph glyph-name="Ldot" unicode="&#x13f;" horiz-adv-x="985" 
d="M780 958q63 0 105.5 -25.5t54.5 -58.5v-155q-12 -33 -54 -57.5t-106 -24.5q-119 0 -159 82v155q38 84 159 84zM442 1434v-1186h453v-248h-776v1434h323z" />
    <glyph glyph-name="ldot" unicode="&#x140;" horiz-adv-x="503" 
d="M698 889q123 0 160 -84v-127q-39 -82 -161 -82t-160 82v127q16 35 57 59.5t104 24.5zM401 1434v-1434h-299v1434h299z" />
    <glyph glyph-name="Lslash" unicode="&#x141;" horiz-adv-x="1009" 
d="M514 248h453v-248h-777v385l-141 -74v242l141 74v807h324v-639l279 143v-240l-279 -145v-305z" />
    <glyph glyph-name="lslash" unicode="&#x142;" horiz-adv-x="712" 
d="M506 0h-299v551l-148 -86v242l148 86v641h299v-467l147 86v-242l-147 -86v-725z" />
    <glyph glyph-name="Nacute" unicode="&#x143;" horiz-adv-x="1368" 
d="M1249 1434v-1434h-366l-457 952h-6v-952h-301v1434h366l457 -953h6v953h301zM938 1858v-129l-166 -199h-215v31l109 297h272z" />
    <glyph glyph-name="nacute" unicode="&#x144;" horiz-adv-x="1155" 
d="M668 1135q168 0 260 -77t129 -173v-885h-299v815q-18 31 -63.5 57.5t-110.5 26.5q-119 0 -183 -68v-831h-299v1110h279v-98q119 123 287 123zM457 1237v31l110 303h277v-129l-162 -205h-225z" />
    <glyph glyph-name="Ncommaaccent" unicode="&#x145;" horiz-adv-x="1368" 
d="M681 -102q116 0 157 -45v-218q-14 -43 -64.5 -78.5t-132.5 -35.5h-98v94h71q59 0 76 29v45h-6q-127 0 -154 39v125q35 45 151 45zM948 1434h301v-1434h-366l-457 952h-6v-952h-301v1434h366l457 -953h6v953z" />
    <glyph glyph-name="ncommaaccent" unicode="&#x146;" horiz-adv-x="1155" 
d="M575 -102q116 0 156 -45v-218q-14 -43 -64.5 -78.5t-131.5 -35.5h-99v94h72q59 0 76 29v45h-6q-127 0 -154 39v125q35 45 151 45zM668 1135q168 0 260 -77t129 -173v-885h-299v815q-18 31 -63.5 57.5t-110.5 26.5q-119 0 -183 -68v-831h-299v1110h279v-98
q119 123 287 123z" />
    <glyph glyph-name="Ncaron" unicode="&#x147;" horiz-adv-x="1368" 
d="M1249 1434v-1434h-366l-457 952h-6v-952h-301v1434h366l457 -953h6v953h301zM1051 1858v-33l-162 -295h-385l-164 295v33h213l143 -197l142 197h213z" />
    <glyph glyph-name="ncaron" unicode="&#x148;" horiz-adv-x="1155" 
d="M668 1135q168 0 260 -77t129 -173v-885h-299v815q-18 31 -63.5 57.5t-110.5 26.5q-119 0 -183 -68v-831h-299v1110h279v-98q119 123 287 123zM221 1565h213l144 -201l141 201h213v-33l-162 -301h-385l-164 301v33z" />
    <glyph glyph-name="napostrophe" unicode="&#x149;" horiz-adv-x="1155" 
d="M668 1135q168 0 260 -77t129 -173v-885h-299v815q-18 31 -63.5 57.5t-110.5 26.5q-119 0 -183 -68v-831h-299v1110h279v-98q119 123 287 123zM117 1276q61 0 76 29v43h-7q-123 0 -153 38v127q33 43 150.5 43t156.5 -43v-217q-12 -43 -62.5 -79.5t-132.5 -36.5h-100v96h72
z" />
    <glyph glyph-name="Eng" unicode="&#x14a;" horiz-adv-x="1368" 
d="M948 1434h301v-1497q-55 -127 -195 -212t-347 -85q-51 0 -84 4v239q29 -4 77 -4q139 0 203 84l-477 989h-6v-952h-301v1434h366l457 -953h6v953z" />
    <glyph glyph-name="eng" unicode="&#x14b;" horiz-adv-x="1157" 
d="M668 1135q168 0 261 -77t132 -173v-963q-47 -110 -169 -194t-317 -84v231q68 0 116 34t69 85v821q-18 31 -64 57t-110 27q-121 0 -185 -72v-827h-299v1110h279v-98q119 123 287 123z" />
    <glyph glyph-name="Omacron" unicode="&#x14c;" horiz-adv-x="1282" 
d="M641 1212q-82 0 -139 -36t-80 -91v-735q23 -55 80 -91t139 -36t139 36t80 91v735q-23 55 -80 91t-139 36zM641 1464q217 0 352 -94t191 -219v-866q-54 -125 -190 -220t-353 -95t-352 94q-135 96 -191 221v866q54 125 190 219t353 94zM991 1757v-201h-704v201h704z" />
    <glyph glyph-name="omacron" unicode="&#x14d;" horiz-adv-x="1148" 
d="M574 907q-70 -1 -118 -31t-69 -73v-494q19 -45 69 -76t118 -31t119 32q50 30 69 75v494q-18 43 -68 73t-120 31zM575 1141q195 0 317 -85t169 -194v-614q-47 -109 -169 -194t-317 -85t-317 85t-170 194v614q48 109 170 194t317 85zM926 1485v-201h-705v201h705z" />
    <glyph glyph-name="Obreve" unicode="&#x14e;" horiz-adv-x="1282" 
d="M641 1212q-82 0 -139 -36t-80 -91v-735q23 -55 80 -91t139 -36t139 36t80 91v735q-23 55 -80 91t-139 36zM641 1464q217 0 352 -94t191 -219v-866q-54 -125 -190 -220t-353 -95t-352 94q-135 96 -191 221v866q54 125 190 219t353 94zM991 1819v-123q-88 -182 -350 -183
q-133 1 -223 51t-129 132v123h219v-78q31 -68 132 -68t132 68v78h219z" />
    <glyph glyph-name="obreve" unicode="&#x14f;" horiz-adv-x="1148" 
d="M574 907q-70 -1 -118 -31t-69 -73v-494q19 -45 69 -76t118 -31t119 32q50 30 69 75v494q-18 43 -68 73t-120 31zM575 1141q195 0 317 -85t169 -194v-614q-47 -109 -169 -194t-317 -85t-317 85t-170 194v614q48 109 170 194t317 85zM924 1526v-125q-39 -82 -128 -131
q-88 -49 -222 -49t-224 49t-129 131v125h219v-78q10 -26 44 -48t89 -22q102 0 132 70v78h219z" />
    <glyph glyph-name="Ohungarumlaut" unicode="&#x150;" horiz-adv-x="1282" 
d="M641 1212q-82 0 -139 -36t-80 -91v-735q23 -55 80 -91t139 -36t139 36t80 91v735q-23 55 -80 91t-139 36zM641 1464q217 0 352 -94t191 -219v-866q-54 -125 -190 -220t-353 -95t-352 94q-135 96 -191 221v866q54 125 190 219t353 94zM1053 1855v-104l-117 -221h-193v31
l78 294h232zM653 1855v-104l-114 -221h-195v31l78 294h231z" />
    <glyph glyph-name="ohungarumlaut" unicode="&#x151;" horiz-adv-x="1148" 
d="M574 907q-70 -1 -118 -31t-69 -73v-494q19 -45 69 -76t118 -31t119 32q50 30 69 75v494q-18 43 -68 73t-120 31zM575 1141q195 0 317 -85t169 -194v-614q-47 -109 -169 -194t-317 -85t-317 85t-170 194v614q48 109 170 194t317 85zM985 1559v-107l-117 -227h-192v30
l78 304h231zM586 1559v-107l-115 -227h-195v30l78 304h232z" />
    <glyph glyph-name="OE" unicode="&#x152;" horiz-adv-x="1841" 
d="M639 223q162 0 219 127v735q-20 55 -78 91t-141 36q-160 0 -217 -127v-735q20 -55 78 -91t139 -36zM1182 248h579v-248h-903v2q-98 -33 -219 -33q-217 -1 -351 95t-190 221v866q56 125 190 219t351 94q121 0 219 -32v2h889v-248h-565v-328h528v-248h-528v-362z" />
    <glyph glyph-name="oe" unicode="&#x153;" horiz-adv-x="1796" 
d="M574 203q69 0 118 30.5t70 73.5v496q-20 43 -69.5 73.5t-118.5 30.5t-117.5 -30.5t-69.5 -73.5v-494q20 -45 69 -75.5t118 -30.5zM1247 911q-133 0 -186 -102v-133h377v131q-20 45 -70.5 74.5t-120.5 29.5zM1714 475h-653v-172q23 -45 72 -74.5t116 -29.5q150 0 211 141
h254v-129q-43 -84 -159.5 -163t-311.5 -79t-332 99q-141 -98 -335.5 -98.5t-317.5 84.5t-170 194v614q47 109 170 194t319.5 85t333.5 -99q137 98 331.5 98.5t311.5 -77.5t160 -162v-426z" />
    <glyph glyph-name="Racute" unicode="&#x154;" horiz-adv-x="1243" 
d="M442 1188v-391h205q139 0 195 102v186q-53 102 -195 103h-205zM1171 0h-260l-323 563h-146v-563h-323v1434h602q135 0 248.5 -64.5t179.5 -179.5v-379q-84 -150 -242 -213l264 -418v-180zM483 1530v31l109 297h272v-129l-166 -199h-215z" />
    <glyph glyph-name="racute" unicode="&#x155;" horiz-adv-x="776" 
d="M690 1112q20 0 41 -2v-274q-23 2 -51 2q-201 0 -279 -86v-752h-301v1110h281v-152q100 154 309 154zM688 1571v-129l-162 -205h-225v31l111 303h276z" />
    <glyph glyph-name="Rcommaaccent" unicode="&#x156;" horiz-adv-x="1243" 
d="M620 -102q116 0 156 -45v-218q-14 -43 -64 -78.5t-132 -35.5h-99v94h72q59 0 76 29v45h-6q-127 0 -154 39v125q35 45 151 45zM442 1188v-391h205q139 0 195 102v186q-53 102 -195 103h-205zM1171 0h-260l-323 563h-146v-563h-323v1434h602q135 0 248.5 -64.5
t179.5 -179.5v-379q-84 -150 -242 -213l264 -418v-180z" />
    <glyph glyph-name="rcommaaccent" unicode="&#x157;" horiz-adv-x="776" 
d="M247 -102q116 0 156 -45v-218q-14 -43 -64 -78.5t-132 -35.5h-98v94h71q59 0 76 29v45h-6q-127 0 -154 39v125q35 45 151 45zM690 1112q20 0 41 -2v-274q-23 2 -51 2q-201 0 -279 -86v-752h-301v1110h281v-152q100 154 309 154z" />
    <glyph glyph-name="Rcaron" unicode="&#x158;" horiz-adv-x="1243" 
d="M442 1188v-391h205q139 0 195 102v186q-53 102 -195 103h-205zM1171 0h-260l-323 563h-146v-563h-323v1434h602q135 0 248.5 -64.5t179.5 -179.5v-379q-84 -150 -242 -213l264 -418v-180zM266 1858h213l144 -197l141 197h213v-33l-162 -295h-385l-164 295v33z" />
    <glyph glyph-name="rcaron" unicode="&#x159;" horiz-adv-x="776" 
d="M690 1112q20 0 41 -2v-274q-23 2 -51 2q-201 0 -279 -86v-752h-301v1110h281v-152q100 154 309 154zM776 1565v-33l-162 -301h-385l-163 301v33h213l143 -201l141 201h213z" />
    <glyph glyph-name="Sacute" unicode="&#x15a;" horiz-adv-x="1212" 
d="M602 1464q197 0 326 -79.5t180 -174.5v-151h-279q-49 154 -227 153q-68 0 -118 -27.5t-72 -66.5v-147q31 -57 157 -90l103 -27q354 -88 452 -260v-350q-56 -94 -160 -173q-134 -102 -356.5 -102t-350.5 85t-181 190v151h278q20 -78 86 -125t160 -47q152 0 213 111v147
q-39 72 -178 109l-103 24q-197 47 -288.5 103.5t-145.5 140.5v352q55 96 181 175t323 79zM864 1858v-129l-166 -199h-215v31l109 297h272z" />
    <glyph glyph-name="sacute" unicode="&#x15b;" horiz-adv-x="1036" 
d="M542.5 1141q147.5 0 255 -64.5t154.5 -134.5v-123h-258q-45 102 -165 102.5t-169 -63.5v-102q29 -47 140 -70l102 -22q156 -33 246 -83.5t121 -99.5v-299q-29 -45 -74 -86t-147.5 -84t-257 -43t-265 68.5t-157.5 144.5v123h258q57 -117 186 -117t180 80v94
q-29 51 -143 74l-105 21q-279 57 -360 186v299q27 41 70 80t142 79t246.5 40zM797 1571v-129l-162 -205h-225v31l110 303h277z" />
    <glyph glyph-name="Scircumflex" unicode="&#x15c;" horiz-adv-x="1212" 
d="M602 1464q197 0 326 -79.5t180 -174.5v-151h-279q-49 154 -227 153q-68 0 -118 -27.5t-72 -66.5v-147q31 -57 157 -90l103 -27q354 -88 452 -260v-350q-56 -94 -160 -173q-134 -102 -356.5 -102t-350.5 85t-181 190v151h278q20 -78 86 -125t160 -47q152 0 213 111v147
q-39 72 -178 109l-103 24q-197 47 -288.5 103.5t-145.5 140.5v352q55 96 181 175t323 79zM977 1530h-213l-141 194l-144 -194h-213v31l164 297h385l162 -297v-31z" />
    <glyph glyph-name="scircumflex" unicode="&#x15d;" horiz-adv-x="1036" 
d="M542.5 1141q147.5 0 255 -64.5t154.5 -134.5v-123h-258q-45 102 -165 102.5t-169 -63.5v-102q29 -47 140 -70l102 -22q156 -33 246 -83.5t121 -99.5v-299q-29 -45 -74 -86t-147.5 -84t-257 -43t-265 68.5t-157.5 144.5v123h258q57 -117 186 -117t180 80v94
q-29 51 -143 74l-105 21q-279 57 -360 186v299q27 41 70 80t142 79t246.5 40zM885 1231h-213l-142 201l-143 -201h-213v31l164 303h385l162 -303v-31z" />
    <glyph glyph-name="Scedilla" unicode="&#x15e;" horiz-adv-x="1212" 
d="M655 -88q137 0 181 -102v-156q-57 -121 -250 -121q-135 0 -209 39l45 127q86 -25 155.5 -25t88.5 41v47q-16 33 -95 33h-125l62 180q-176 18 -281.5 98.5t-150.5 170.5v151h278q20 -78 86 -125t160 -47q152 0 213 111v149q-39 72 -178 107l-103 24q-197 47 -288.5 103.5
t-145.5 140.5v352q55 96 181.5 175t323 79t325.5 -79.5t180 -174.5v-151h-279q-49 154 -227 153q-68 0 -118 -27.5t-72 -66.5v-147q31 -57 157 -90l103 -27q354 -88 452 -260v-350q-55 -96 -166.5 -177t-295.5 -96l-23 -59h16z" />
    <glyph glyph-name="scedilla" unicode="&#x15f;" horiz-adv-x="1036" 
d="M762 -346q-60 -123 -274 -123q-114 0 -185 39l43 129q78 -25 152 -25t92 39v47q-16 35 -94 35h-123l61 180q-145 16 -235 79t-131 128v123h258q57 -117 186 -117t180 80v94q-29 51 -143 74l-105 21q-279 57 -360 186v299q27 41 70 80t142 79t246.5 40t255 -64.5
t154.5 -134.5v-123h-258q-45 102 -165 102.5t-169 -63.5v-102q29 -47 140 -70l102 -22q156 -33 246 -83.5t121 -99.5v-299q-121 -182 -381 -209l-25 -63h19q137 0 180 -100v-156z" />
    <glyph glyph-name="Scaron" unicode="&#x160;" horiz-adv-x="1212" 
d="M602 1464q197 0 326 -79.5t180 -174.5v-151h-279q-49 154 -227 153q-68 0 -118 -27.5t-72 -66.5v-147q31 -57 157 -90l103 -27q354 -88 452 -260v-350q-56 -94 -160 -173q-134 -102 -356.5 -102t-350.5 85t-181 190v151h278q20 -78 86 -125t160 -47q152 0 213 111v147
q-39 72 -178 109l-103 24q-197 47 -288.5 103.5t-145.5 140.5v352q55 96 181 175t323 79zM977 1858v-33l-162 -295h-385l-164 295v33h213l144 -197l141 197h213z" />
    <glyph glyph-name="scaron" unicode="&#x161;" horiz-adv-x="1036" 
d="M542.5 1141q147.5 0 255 -64.5t154.5 -134.5v-123h-258q-45 102 -165 102.5t-169 -63.5v-102q29 -47 140 -70l102 -22q156 -33 246 -83.5t121 -99.5v-299q-29 -45 -74 -86t-147.5 -84t-257 -43t-265 68.5t-157.5 144.5v123h258q57 -117 186 -117t180 80v94
q-29 51 -143 74l-105 21q-279 57 -360 186v299q27 41 70 80t142 79t246.5 40zM885 1565v-33l-162 -301h-385l-164 301v33h213l143 -201l142 201h213z" />
    <glyph glyph-name="uni0162" unicode="&#x162;" horiz-adv-x="1107" 
d="M797 -346q-59 -121 -275 -121q-114 0 -184 39l43 127q86 -25 155.5 -25t88.5 41v47q-16 33 -95 33h-124l69 205h-82v1186h-346v248h1014v-248h-344v-1186h-84l-35 -88h16q139 0 183 -102v-156z" />
    <glyph glyph-name="uni0163" unicode="&#x163;" horiz-adv-x="743" 
d="M678 -346q-58 -121 -274 -121q-114 0 -185 39l43 127q90 -25 158 -25t86 41v47q-16 33 -94 33h-123l67 203q-147 45 -198 170v723h-113v219h113v231h299v-231h213v-219h-213v-619q55 -68 172 -67l73 4v-211q-75 -23 -184 -23h-14l-25 -63h19q137 0 180 -102v-156z" />
    <glyph glyph-name="Tcaron" unicode="&#x164;" horiz-adv-x="1116" 
d="M1065 1434v-248h-344v-1186h-324v1186h-346v248h1014zM913 1858v-33l-161 -295h-385l-164 295v33h213l143 -197l141 197h213z" />
    <glyph glyph-name="tcaron" unicode="&#x165;" horiz-adv-x="901" 
d="M518 -25q-158 1 -244 57t-116 136v723h-113v219h113v231h299v-231h213v-219h-213v-619q55 -68 172 -67l73 4v-211q-113 -23 -184 -23zM854 1651v-154l-96 -270h-174v33l41 391h229z" />
    <glyph glyph-name="Tbar" unicode="&#x166;" horiz-adv-x="1116" 
d="M1065 1186h-344v-338h242v-195h-242v-653h-324v653h-239v195h239v338h-346v248h1014v-248z" />
    <glyph glyph-name="tbar" unicode="&#x167;" horiz-adv-x="743" 
d="M518 -25q-158 1 -244 57t-116 136v297h-113v219h113v207h-113v219h113v231h299v-231h213v-219h-213v-207h213v-219h-213v-193q55 -67 172 -67l73 4v-211q-113 -23 -184 -23z" />
    <glyph glyph-name="Utilde" unicode="&#x168;" horiz-adv-x="1310" 
d="M1198 1434v-1149q-55 -125 -190 -220q-134 -95 -352 -95t-353 94q-135 96 -190 221v1149h323v-1082q23 -55 80 -91t139 -36q158 0 219 127v1082h324zM496 1819q74 0 124 -26q50 -25 87 -51t67 -26q57 0 68 51v41h176v-120q-14 -66 -72 -112t-134 -46q-77 0 -126 26
t-84 51q-35 26 -65 25q-53 0 -70 -51v-41h-174v119q13 68 71 114t132 46z" />
    <glyph glyph-name="utilde" unicode="&#x169;" horiz-adv-x="1144" 
d="M743 1110h299v-1110h-278v96q-117 -121 -282 -121t-256 77t-130 171v887h299v-815q55 -84 169 -84t179 70v829zM385 1251h-174v119q13 68 71 114t132 46t124 -26t87 -52t67 -25q57 0 68 52v41h176v-121q-14 -68 -72 -114t-142 -46q-85 0 -161 51t-106 51q-52 0 -70 -49
v-41z" />
    <glyph glyph-name="Umacron" unicode="&#x16a;" horiz-adv-x="1310" 
d="M1198 1434v-1149q-55 -125 -190 -220q-134 -95 -352 -95t-353 94q-135 96 -190 221v1149h323v-1082q23 -55 80 -91t139 -36q158 0 219 127v1082h324zM1006 1757v-201h-705v201h705z" />
    <glyph glyph-name="umacron" unicode="&#x16b;" horiz-adv-x="1144" 
d="M743 1110h299v-1110h-278v96q-117 -121 -282 -121t-256 77t-130 171v887h299v-815q55 -84 169 -84t179 70v829zM924 1485v-201h-705v201h705z" />
    <glyph glyph-name="Ubreve" unicode="&#x16c;" horiz-adv-x="1310" 
d="M1198 1434v-1149q-55 -125 -190 -220q-134 -95 -352 -95t-353 94q-135 96 -190 221v1149h323v-1082q23 -55 80 -91t139 -36q158 0 219 127v1082h324zM1006 1819v-123q-88 -182 -351 -183q-133 1 -223 51t-129 132v123h219v-78q31 -68 132 -68t132 68v78h220z" />
    <glyph glyph-name="ubreve" unicode="&#x16d;" horiz-adv-x="1144" 
d="M743 1110h299v-1110h-278v96q-117 -121 -282 -121t-256 77t-130 171v887h299v-815q55 -84 169 -84t179 70v829zM573 1221q-133 0 -223 49t-129 131v125h219v-78q10 -26 44 -48t89 -22q102 0 132 70v78h219v-125q-38 -82 -128 -131t-223 -49z" />
    <glyph glyph-name="Uring" unicode="&#x16e;" horiz-adv-x="1310" 
d="M1198 1434v-1149q-55 -125 -190 -220q-134 -95 -352 -95t-353 94q-135 96 -190 221v1149h323v-1082q23 -55 80 -91t139 -36q158 0 219 127v1082h324zM654 1716q-87 0 -115 -49v-104q29 -49 115 -49t116 49v104q-29 49 -116 49zM655 1837q88 0 157 -36t99 -93v-188
q-31 -56 -99 -92t-157 -36t-157 36q-68 34 -99 92v188q31 57 99 93t157 36z" />
    <glyph glyph-name="uring" unicode="&#x16f;" horiz-adv-x="1144" 
d="M743 1110h299v-1110h-278v96q-117 -121 -282 -121t-256 77t-130 171v887h299v-815q55 -84 169 -84t179 70v829zM570 1333q86 0 116 49v113q-30 49 -116 49t-115 -49v-113q29 -49 115 -49zM571 1212q-89 0 -157 36t-99 93v195q31 57 100 93t157 36t156 -36q69 -36 99 -93
v-195q-31 -57 -99 -93t-157 -36z" />
    <glyph glyph-name="Uhungarumlaut" unicode="&#x170;" horiz-adv-x="1310" 
d="M1198 1434v-1149q-55 -125 -190 -220q-134 -95 -352 -95t-353 94q-135 96 -190 221v1149h323v-1082q23 -55 80 -91t139 -36q158 0 219 127v1082h324zM1067 1855v-104l-117 -221h-192v31l78 294h231zM668 1855v-104l-115 -221h-195v31l78 294h232z" />
    <glyph glyph-name="uhungarumlaut" unicode="&#x171;" horiz-adv-x="1144" 
d="M743 1110h299v-1110h-278v96q-117 -121 -282 -121t-256 77t-130 171v887h299v-815q55 -84 169 -84t179 70v829zM676 1225v30l78 304h231v-107l-117 -227h-192zM276 1225v30l78 304h232v-107l-115 -227h-195z" />
    <glyph glyph-name="Uogonek" unicode="&#x172;" horiz-adv-x="1310" 
d="M1198 1434v-1149q-41 -91 -134 -181t-162 -182t-81 -127v-49q23 -33 78 -33t107 17v-162q-57 -29 -156 -29q-195 0 -246 107v159q39 84 137 170q-41 -6 -86 -6q-217 -1 -352 95t-190 221v1149h323v-1082q23 -55 80 -91t139 -36q158 0 219 127v1082h324z" />
    <glyph glyph-name="uogonek" unicode="&#x173;" horiz-adv-x="1144" 
d="M937 -287q56 0 105 17v-162q-57 -29 -155 -29q-195 0 -246 107v159q53 106 168 195h-45v96q-117 -121 -282 -121t-256 77t-130 171v887h299v-815q55 -84 169 -84t179 70v829h299v-1110q-158 -133 -184 -205v-49q23 -33 79 -33z" />
    <glyph glyph-name="Wcircumflex" unicode="&#x174;" horiz-adv-x="1882" 
d="M1819 1434v-181l-248 -1253h-414l-215 909h-6l-213 -909h-410l-250 1253v181h304l188 -1067h6l244 1067h289l245 -1067h7l186 1067h287zM1305 1530h-213l-142 194l-143 -194h-213v31l164 297h385l162 -297v-31z" />
    <glyph glyph-name="wcircumflex" unicode="&#x175;" horiz-adv-x="1632" 
d="M1575 1110v-164l-246 -946h-330l-172 670h-6l-172 -670h-340l-243 946v164h276l164 -780h6l193 780h260l188 -780h6l164 780h252zM1171 1231h-213l-141 201l-143 -201h-213v31l164 303h385l161 -303v-31z" />
    <glyph glyph-name="Ycircumflex" unicode="&#x176;" horiz-adv-x="1187" 
d="M1133 1434v-181l-383 -686v-567h-326v600l-367 653v181h273l270 -543h6l268 543h259zM948 1530h-213l-141 194l-143 -194h-213v31l163 297h385l162 -297v-31z" />
    <glyph glyph-name="ycircumflex" unicode="&#x177;" horiz-adv-x="1083" 
d="M1026 1110v-164l-381 -1145q-121 -160 -389 -159q-117 0 -172 18v213q49 -4 88 -4q150 0 215 70l19 69l-345 936v166h277l215 -727h6l209 727h258zM891 1231h-213l-141 201l-144 -201h-213v31l164 303h385l162 -303v-31z" />
    <glyph glyph-name="Ydieresis" unicode="&#x178;" horiz-adv-x="1187" 
d="M1133 1434v-181l-383 -686v-567h-326v600l-367 653v181h273l270 -543h6l268 543h259zM818 1821q97 0 143 -58v-166q-47 -59 -143 -59t-148 59v166q51 58 148 58zM374 1821q97 0 142 -58v-166q-47 -59 -142 -59t-149 59v166q52 58 149 58z" />
    <glyph glyph-name="Zacute" unicode="&#x179;" horiz-adv-x="1142" 
d="M1069 1434v-211l-614 -975h614v-248h-995v211l610 975h-602v248h987zM813 1858v-129l-166 -199h-215v31l109 297h272z" />
    <glyph glyph-name="zacute" unicode="&#x17a;" horiz-adv-x="995" 
d="M940 1110v-192l-541 -695h541v-223h-883v207l527 682h-510v221h866zM758 1571v-129l-162 -205h-225v31l110 303h277z" />
    <glyph glyph-name="Zdotaccent" unicode="&#x17b;" horiz-adv-x="1142" 
d="M1069 1434v-211l-614 -975h614v-248h-995v211l610 975h-602v248h987zM572 1839q124 0 159 -82v-127q-33 -82 -159 -82t-162 82v127q38 82 162 82z" />
    <glyph glyph-name="zdotaccent" unicode="&#x17c;" horiz-adv-x="995" 
d="M940 1110v-192l-541 -695h541v-223h-883v207l527 682h-510v221h866zM493 1526q122 0 160 -82v-127q-39 -82 -161 -82t-160 82v127q39 82 161 82z" />
    <glyph glyph-name="Zcaron" unicode="&#x17d;" horiz-adv-x="1142" 
d="M1069 1434v-211l-614 -975h614v-248h-995v211l610 975h-602v248h987zM926 1858v-33l-162 -295h-385l-164 295v33h213l143 -197l142 197h213z" />
    <glyph glyph-name="zcaron" unicode="&#x17e;" horiz-adv-x="995" 
d="M940 1110v-192l-541 -695h541v-223h-883v207l527 682h-510v221h866zM846 1565v-33l-162 -301h-385l-164 301v33h213l144 -201l141 201h213z" />
    <glyph glyph-name="longs" unicode="&#x17f;" horiz-adv-x="684" 
d="M444 1464q142 0 201 -24v-211q-37 6 -72 6q-125 0 -172 -70v-1165h-301v1270q31 80 117 137q85 57 227 57z" />
    <glyph glyph-name="florin" unicode="&#x192;" horiz-adv-x="864" 
d="M711 1237q-115 0 -154 -74v-106h223v-219h-223v-1012q-29 -82 -114 -139t-225 -57t-206 24v201h92q121 0 154 71v912h-131v219h131v209q31 80 115 138t218 58t212 -24v-201h-92z" />
    <glyph glyph-name="Scommaaccent" unicode="&#x218;" horiz-adv-x="1212" 
d="M597 -102q116 0 157 -45v-218q-14 -43 -64.5 -78.5t-132.5 -35.5h-98v94h71q59 0 76 29v45h-6q-127 0 -154 39v125q35 45 151 45zM76 395h278q20 -78 86 -125t160 -47q152 0 213 111v147q-39 72 -178 109l-103 24q-197 47 -288.5 103.5t-145.5 140.5v352q55 96 181.5 175
t323 79t325.5 -79.5t180 -174.5v-151h-279q-49 154 -227 153q-68 0 -118 -27.5t-72 -66.5v-147q31 -57 157 -90l103 -27q354 -88 452 -260v-350q-56 -94 -160 -173q-134 -102 -356.5 -102t-350.5 85t-181 190v151z" />
    <glyph glyph-name="scommaaccent" unicode="&#x219;" horiz-adv-x="1036" 
d="M523 -102q116 0 157 -45v-218q-14 -43 -64.5 -78.5t-132.5 -35.5h-98v94h72q59 0 75 29v45h-6q-127 0 -153 39v125q34 45 150 45zM490.5 -31q-154.5 0 -265 68.5t-157.5 144.5v123h258q57 -117 186 -117t180 80v94q-29 51 -143 74l-105 21q-279 57 -360 186v299
q27 41 70 80t142 79t246.5 40t255 -64.5t154.5 -134.5v-123h-258q-45 102 -165 102.5t-169 -63.5v-102q29 -47 140 -70l102 -22q156 -33 246 -83.5t121 -99.5v-299q-29 -45 -74 -86t-147.5 -84t-257 -43z" />
    <glyph glyph-name="uni021A" unicode="&#x21a;" horiz-adv-x="1116" 
d="M556 -102q116 0 157 -45v-218q-14 -43 -64.5 -78.5t-132.5 -35.5h-98v94h71q59 0 76 29v45h-6q-127 0 -153 39v125q34 45 150 45zM51 1434h1014v-248h-344v-1186h-324v1186h-346v248z" />
    <glyph glyph-name="uni021B" unicode="&#x21b;" horiz-adv-x="743" 
d="M439 -102q116 0 157 -45v-218q-14 -43 -64.5 -78.5t-132.5 -35.5h-98v94h72q59 0 76 29v45h-7q-127 0 -153 39v125q34 45 150 45zM494 -25q-132 0 -219 57.5t-117 135.5v723h-113v219h113v231h299v-231h213v-219h-213v-619q55 -67 172 -67l73 4v-211q-76 -23 -208 -23z
" />
    <glyph glyph-name="uni0237" unicode="&#x237;" horiz-adv-x="503" 
d="M401 1110v-1204q-45 -111 -165 -193t-322 -82v230q70 0 119 35t67 88v1126h301z" />
    <glyph glyph-name="circumflex" unicode="&#x2c6;" 
d="M825 1231h-213l-141 201l-143 -201h-213v31l164 303h385l161 -303v-31z" />
    <glyph glyph-name="caron" unicode="&#x2c7;" 
d="M825 1565v-33l-161 -301h-385l-164 301v33h213l143 -201l141 201h213z" />
    <glyph glyph-name="breve" unicode="&#x2d8;" 
d="M821 1526v-125q-39 -82 -128 -131t-222 -49t-223 49t-129 131v125h219v-78q10 -26 44 -48t89 -22q102 0 131 70v78h219z" />
    <glyph glyph-name="dotaccent" unicode="&#x2d9;" 
d="M470 1526q122 0 161 -82v-127q-39 -82 -161 -82t-161 82v127q39 82 161 82z" />
    <glyph glyph-name="ring" unicode="&#x2da;" 
d="M470 1544q-87 0 -116 -49v-113q29 -49 116 -49t116 49v113q-29 49 -116 49zM471 1665q88 0 157 -36t99 -93v-195q-31 -57 -99 -93t-157 -36q-88 0 -157 36t-99 93v195q31 57 99 93t157 36z" />
    <glyph glyph-name="ogonek" unicode="&#x2db;" 
d="M598 -287q55 0 104 17v-162q-53 -29 -153 -29q-195 0 -246 107v159q62 136 232 238l143 -43q-123 -117 -158 -205v-49q23 -33 78 -33z" />
    <glyph glyph-name="tilde" unicode="&#x2dc;" 
d="M312 1530q74 0 124 -26q49 -26 86 -52t68 -25q57 0 67 52v41h177v-121q-14 -68 -72 -114t-142 -46q-86 0 -162 51t-116 51q-41 0 -59 -49v-41h-174v119q14 68 71 114q58 46 132 46z" />
    <glyph glyph-name="hungarumlaut" unicode="&#x2dd;" 
d="M829 1559v-107l-116 -227h-193v30l78 304h231zM430 1559v-107l-115 -227h-194v30l78 304h231z" />
    <glyph glyph-name="uni0326" unicode="&#x326;" horiz-adv-x="0" 
d="M-474 -102q116 0 157 -45v-218q-14 -43 -64.5 -78.5t-132.5 -35.5h-98v94h71q59 0 76 29v45h-6q-127 0 -154 39v125q35 45 151 45z" />
    <glyph glyph-name="uni037E" unicode="&#x37e;" horiz-adv-x="485" 
d="M245 297q62 0 104 -25t54 -57v-336q-14 -47 -72 -96t-143 -49h-75v127h59q49 0 72 45v67q-61 0 -103 26q-41 26 -57 58v158q16 33 58 57t103 25zM244 1020q63 0 105 -26t54 -58v-156q-12 -32 -54 -56t-105 -24q-117 0 -160 80v156q43 84 160 84z" />
    <glyph glyph-name="tonos" unicode="&#x384;" 
d="M666 1567v-129l-164 -209h-226v33l113 305h277z" />
    <glyph glyph-name="dieresistonos" unicode="&#x385;" horiz-adv-x="1110" 
d="M933 1479q77 0 120 -49v-136q-39 -49 -120 -49t-120 49v136q43 49 120 49zM232 1479q80 0 116 -49v-136q-33 -49 -117 -49t-122 49v136q43 49 123 49zM743 1567v-129l-127 -189h-182v33l86 285h223z" />
    <glyph glyph-name="Alphatonos" unicode="&#x386;" horiz-adv-x="1284" 
d="M469 584h319l-153 602h-6zM1233 0h-293l-86 336h-451l-88 -336h-264v180l365 1254h452l365 -1254v-180zM215 1434v-129l-164 -209h-225v32l113 306h276z" />
    <glyph glyph-name="anoteleia" unicode="&#x387;" horiz-adv-x="456" 
d="M227 903q63 0 106 -24q42 -25 54 -58v-153q-12 -33 -54 -59t-106 -25q-121 0 -159 84v153q41 82 159 82z" />
    <glyph glyph-name="Epsilontonos" unicode="&#x388;" horiz-adv-x="1101" 
d="M1008 1434v-248h-566v-328h529v-248h-529v-362h580v-248h-903v1434h889zM-2 1434v-129l-164 -209h-225v32l112 306h277z" />
    <glyph glyph-name="Etatonos" unicode="&#x389;" horiz-adv-x="1341" 
d="M1223 1434v-1434h-324v614h-457v-614h-323v1434h323v-572h457v572h324zM-2 1434v-129l-164 -209h-225v32l112 306h277z" />
    <glyph glyph-name="Iotatonos" unicode="&#x38a;" horiz-adv-x="561" 
d="M442 1434v-1434h-323v1434h323zM-2 1434v-129l-164 -209h-225v32l112 306h277z" />
    <glyph glyph-name="Omicrontonos" unicode="&#x38c;" horiz-adv-x="1282" 
d="M641 1212q-82 0 -139 -36t-80 -91v-735q23 -55 80 -91t139 -36t139 36t80 91v735q-23 55 -80 91t-139 36zM39 1434v-129l-164 -209h-225v32l112 306h277zM641 1464q217 0 352 -94t191 -219v-866q-54 -125 -190 -220t-353 -95t-352 94q-135 96 -191 221v866
q54 125 190 219t353 94z" />
    <glyph glyph-name="Upsilontonos" unicode="&#x38e;" horiz-adv-x="1187" 
d="M1133 1434v-181l-383 -686v-567h-326v600l-367 653v181h273l270 -543h6l268 543h259zM-23 1434v-129l-163 -209h-226v32l113 306h276z" />
    <glyph glyph-name="Omegatonos" unicode="&#x38f;" horiz-adv-x="1294" 
d="M39 1434v-129l-164 -209h-225v32l112 306h277zM1190 248v-248h-473v340q55 8 94 43t55 78v620q-23 55 -80 93t-139 36q-82 0 -139 -36t-80 -93v-620q41 -100 152 -121v-340h-476v248h244q-172 82 -244 233v670q54 125 190 219t353 94t352 -94t191 -219v-670
q-66 -150 -244 -233h244z" />
    <glyph glyph-name="iotadieresistonos" unicode="&#x390;" horiz-adv-x="516" 
d="M408 1110v-1110h-299v1110h299zM650 1479q77 0 120 -49v-136q-39 -49 -120 -49t-120 49v136q43 49 120 49zM-51 1479q80 0 117 -49v-136q-33 -49 -117 -49t-123 49v136q43 49 123 49zM461 1567v-129l-127 -189h-182v33l86 285h223z" />
    <glyph glyph-name="Alpha" unicode="&#x391;" horiz-adv-x="1284" 
d="M469 584h319l-153 602h-6zM1233 0h-293l-86 336h-451l-88 -336h-264v180l365 1254h452l365 -1254v-180z" />
    <glyph glyph-name="Beta" unicode="&#x392;" horiz-adv-x="1236" 
d="M670 633h-228v-391h220q139 0 194 100v195q-25 43 -76 69t-110 27zM442 1192v-344h215q117 0 177 96v150q-53 98 -187 98h-205zM729 0h-610v1434h600q143 0 249 -72t162 -172v-287q-61 -100 -153 -147q117 -53 176 -150v-362q-55 -98 -166 -171t-258 -73z" />
    <glyph glyph-name="Gamma" unicode="&#x393;" horiz-adv-x="970" 
d="M920 1434v-248h-478v-1186h-323v1434h801z" />
    <glyph glyph-name="uni0394" unicode="&#x394;" horiz-adv-x="1284" 
d="M381 248h496l-242 938h-6zM1233 0h-1182v180l365 1254h452l365 -1254v-180z" />
    <glyph glyph-name="Epsilon" unicode="&#x395;" horiz-adv-x="1101" 
d="M1008 1434v-248h-566v-328h529v-248h-529v-362h580v-248h-903v1434h889z" />
    <glyph glyph-name="Zeta" unicode="&#x396;" horiz-adv-x="1142" 
d="M1069 1434v-211l-614 -975h614v-248h-995v211l610 975h-602v248h987z" />
    <glyph glyph-name="Eta" unicode="&#x397;" horiz-adv-x="1341" 
d="M1223 1434v-1434h-324v614h-457v-614h-323v1434h323v-572h457v572h324z" />
    <glyph glyph-name="Theta" unicode="&#x398;" horiz-adv-x="1282" 
d="M500 836h282v-195h-282v195zM641 1212q-82 0 -139 -36t-80 -91v-735q23 -55 80 -91t139 -36t139 36t80 91v735q-23 55 -80 91t-139 36zM641 1464q217 0 352 -94t191 -219v-866q-54 -125 -190 -220t-353 -95t-352 94q-135 96 -191 221v866q54 125 190 219t353 94z" />
    <glyph glyph-name="Iota" unicode="&#x399;" horiz-adv-x="561" 
d="M442 1434v-1434h-323v1434h323z" />
    <glyph glyph-name="Kappa" unicode="&#x39a;" horiz-adv-x="1263" 
d="M1204 0h-260l-375 610l-127 -139v-471h-323v1434h323v-560l490 560h219v-181l-369 -407l422 -666v-180z" />
    <glyph glyph-name="Lambda" unicode="&#x39b;" horiz-adv-x="1277" 
d="M1227 0h-312l-286 1106h-6l-289 -1106h-283v180l367 1254h440l369 -1254v-180z" />
    <glyph glyph-name="Mu" unicode="&#x39c;" horiz-adv-x="1650" 
d="M1532 1434v-1434h-303v1020h-6l-303 -729h-189l-305 729h-6v-1020h-301v1434h428l282 -686h7l272 686h424z" />
    <glyph glyph-name="Nu" unicode="&#x39d;" horiz-adv-x="1368" 
d="M1249 1434v-1434h-366l-457 952h-6v-952h-301v1434h366l457 -953h6v953h301z" />
    <glyph glyph-name="Xi" unicode="&#x39e;" horiz-adv-x="1173" 
d="M1079 1434v-248h-331v-326h262v-248h-262v-364h342v-248h-1006v248h348v364h-268v248h268v326h-338v248h985z" />
    <glyph glyph-name="Omicron" unicode="&#x39f;" horiz-adv-x="1282" 
d="M641 1212q-82 0 -139 -36t-80 -91v-735q23 -55 80 -91t139 -36t139 36t80 91v735q-23 55 -80 91t-139 36zM641 1464q217 0 352 -94t191 -219v-866q-54 -125 -190 -220t-353 -95t-352 94q-135 96 -191 221v866q54 125 190 219t353 94z" />
    <glyph glyph-name="Pi" unicode="&#x3a0;" horiz-adv-x="1329" 
d="M1212 1434v-1434h-323v1186h-447v-1186h-323v1434h1093z" />
    <glyph glyph-name="Rho" unicode="&#x3a1;" horiz-adv-x="1210" 
d="M637 1188h-195v-422h195q137 0 192 102v217q-57 103 -192 103zM711 1434q137 0 250 -64t180 -180v-424q-59 -106 -171 -175t-259 -69h-269v-522h-323v1434h592z" />
    <glyph glyph-name="Sigma" unicode="&#x3a3;" horiz-adv-x="1148" 
d="M1055 1434v-248h-594l323 -443l-335 -495h620v-248h-995v211l350 524l-332 459v240h963z" />
    <glyph glyph-name="Tau" unicode="&#x3a4;" horiz-adv-x="1116" 
d="M1065 1434v-248h-344v-1186h-324v1186h-346v248h1014z" />
    <glyph glyph-name="Upsilon" unicode="&#x3a5;" horiz-adv-x="1187" 
d="M1133 1434v-181l-383 -686v-567h-326v600l-367 653v181h273l270 -543h6l268 543h259z" />
    <glyph glyph-name="Phi" unicode="&#x3a6;" horiz-adv-x="1646" 
d="M1014 1108h-49v-770h49q72 0 139 36t96 85v528q-29 49 -97 85t-138 36zM633 338h49v770h-49q-71 0 -139 -35t-99 -86v-528q31 -51 99 -86t139 -35zM1038 1350q158 0 301 -87t207 -214v-652q-64 -127 -208 -214t-300 -87h-73v-137h-283v137h-74q-158 0 -302 87t-208 214
v652q64 127 208 214t302 87h74v125h283v-125h73z" />
    <glyph glyph-name="Chi" unicode="&#x3a7;" horiz-adv-x="1224" 
d="M1141 1434v-181l-318 -522l328 -551v-180h-285l-260 522h-6l-270 -522h-258v180l327 551l-315 522v181h281l256 -498h6l256 498h258z" />
    <glyph glyph-name="Psi" unicode="&#x3a8;" horiz-adv-x="1613" 
d="M1206 1434h303v-871q-67 -125 -201 -205t-317 -79h-39v-279h-290v279h-37q-182 0 -319 80q-136 81 -202 204v871h306v-793q25 -49 84 -84t149 -35h19v912h290v-912h21q88 0 147 35t86 84v793z" />
    <glyph glyph-name="uni03A9" unicode="&#x3a9;" horiz-adv-x="1294" 
d="M1190 248v-248h-473v340q55 8 94 43t55 78v620q-23 55 -80 93t-139 36q-82 0 -139 -36t-80 -93v-620q41 -100 152 -121v-340h-476v248h244q-172 82 -244 233v670q54 125 190 219t353 94t352 -94t191 -219v-670q-66 -150 -244 -233h244z" />
    <glyph glyph-name="Iotadieresis" unicode="&#x3aa;" horiz-adv-x="561" 
d="M442 1434v-1434h-323v1434h323zM505 1821q97 0 142 -58v-166q-47 -59 -142 -59t-149 59v166q52 58 149 58zM60 1821q97 0 143 -58v-166q-47 -59 -143 -59t-148 59v166q51 58 148 58z" />
    <glyph glyph-name="Upsilondieresis" unicode="&#x3ab;" horiz-adv-x="1187" 
d="M1133 1434v-181l-383 -686v-567h-326v600l-367 653v181h273l270 -543h6l268 543h259zM818 1821q97 0 143 -58v-166q-47 -59 -143 -59t-148 59v166q51 58 148 58zM374 1821q97 0 142 -58v-166q-47 -59 -142 -59t-149 59v166q52 58 149 58z" />
    <glyph glyph-name="alphatonos" unicode="&#x3ac;" horiz-adv-x="1144" 
d="M558 211q122 0 185 68v552q-63 68 -182 68q-65 0 -109 -27t-63 -57v-520q47 -84 169 -84zM756 1110h286v-1110h-286v90q-115 -115 -280 -115t-259 78t-129 174v658q35 96 129 173t258 77t281 -113v88zM467 1229v33l113 305h276v-129l-164 -209h-225z" />
    <glyph glyph-name="epsilontonos" unicode="&#x3ad;" horiz-adv-x="1099" 
d="M1036 305v-123q-156 -213 -475 -213q-186 0 -307 70t-170 145v228q51 104 168 161q-102 47 -158 138v211q49 80 166 150t302 69q185 0 304 -71t166 -146v-115h-268q-48 102 -186 102t-189 -84v-71q49 -90 172 -90h154v-197h-152q-135 0 -180 -90v-100q61 -80 188 -80
q76 -1 130 31t77 75h258zM442 1229v33l113 305h276v-129l-163 -209h-226z" />
    <glyph glyph-name="etatonos" unicode="&#x3ae;" horiz-adv-x="1155" 
d="M668 1135q168 0 260 -77t129 -173v-1225h-299v1155q-18 31 -64 57t-110 27q-119 0 -183 -68v-831h-299v1110h279v-98q119 123 287 123zM451 1229v33l112 305h275v-129l-162 -209h-225z" />
    <glyph glyph-name="iotatonos" unicode="&#x3af;" horiz-adv-x="516" 
d="M408 1110v-1110h-299v1110h299zM530 1567v-129l-163 -209h-226v33l113 305h276z" />
    <glyph glyph-name="upsilondieresistonos" unicode="&#x3b0;" horiz-adv-x="1140" 
d="M1042 1110v-887q-48 -94 -166 -174t-306 -80t-308 80q-119 80 -166 174v887h299v-813q59 -84 174 -84q66 0 111 27t63 57v813h299zM933 1479q79 0 116 -49v-136q-33 -49 -116 -49t-122 49v136q43 49 122 49zM226 1479q77 0 120 -49v-136q-39 -49 -120 -49t-120 49v136
q43 49 120 49zM741 1567v-129l-127 -189h-182v33l86 285h223z" />
    <glyph glyph-name="alpha" unicode="&#x3b1;" horiz-adv-x="1144" 
d="M558 211q122 0 185 68v552q-63 68 -182 68q-65 0 -109 -27t-63 -57v-520q47 -84 169 -84zM756 1110h286v-1110h-286v90q-115 -115 -280 -115t-259 78t-129 174v658q35 96 129 173t258 77t281 -113v88z" />
    <glyph glyph-name="beta" unicode="&#x3b2;" horiz-adv-x="1150" 
d="M541 659v218h32q109 0 162 86v180q-57 86 -170 86t-164 -92v-836q59 -88 189 -88q70 -1 120 31t66 75v232q-49 109 -190 108h-45zM680 -25q-162 0 -279 109v-424h-299v1544q55 104 169 182t292 78t293 -68t168 -149v-338q-43 -72 -143 -123q141 -74 194 -194v-344
q-37 -106 -135 -190t-260 -83z" />
    <glyph glyph-name="gamma" unicode="&#x3b3;" horiz-adv-x="1093" 
d="M1034 1110v-164l-338 -942v-344h-299v340l-340 946v164h277l221 -731h6l225 731h248z" />
    <glyph glyph-name="delta" unicode="&#x3b4;" horiz-adv-x="1148" 
d="M574 791q-70 0 -118 -30t-69 -75v-375q19 -45 69 -75t118 -29q68 -1 120 29q50 30 68 75v375q-18 45 -68 75t-120 30zM575 -31q-195 0 -317 85t-170 194v444q66 145 246 205q-133 55 -184 137v236q45 60 116 107q133 87 318 87q274 0 428 -194v-111h-262q-56 90 -162 90
t-162 -63v-105q29 -57 131 -71l117 -23q154 -27 252 -103t135 -167v-469q-47 -109 -169 -194t-317 -85z" />
    <glyph glyph-name="epsilon" unicode="&#x3b5;" horiz-adv-x="1099" 
d="M1036 305v-123q-156 -213 -475 -213q-186 0 -307 70t-170 145v228q51 104 168 161q-102 47 -158 138v211q49 80 166 150t302 69q185 0 304 -71t166 -146v-115h-268q-48 102 -186 102t-189 -84v-71q49 -90 172 -90h154v-197h-152q-135 0 -180 -90v-100q61 -80 188 -80
q76 -1 130 31t77 75h258z" />
    <glyph glyph-name="zeta" unicode="&#x3b6;" horiz-adv-x="1036" 
d="M961 236v-492h-256v256h-242q-147 0 -243 74q-95 74 -136 168v305q39 109 121 198l432 463h-508v226h850v-211l-526 -596q-53 -59 -70 -119v-191q61 -82 184 -81h394z" />
    <glyph glyph-name="eta" unicode="&#x3b7;" horiz-adv-x="1155" 
d="M668 1135q168 0 260 -77t129 -173v-1225h-299v1155q-18 31 -64 57t-110 27q-119 0 -183 -68v-831h-299v1110h279v-98q119 123 287 123z" />
    <glyph glyph-name="theta" unicode="&#x3b8;" horiz-adv-x="1144" 
d="M571 211q68 0 116 28t67 62v365h-363v-365q20 -35 66 -63t114 -27zM571 1225q-129 0 -180 -92v-271h363v271q-18 35 -66 63t-117 29zM571 1464q328 0 476 -250v-995q-147 -250 -476 -250q-184 0 -300 75t-173 175v995q57 100 173 175t300 75z" />
    <glyph glyph-name="iota" unicode="&#x3b9;" horiz-adv-x="516" 
d="M408 1110v-1110h-299v1110h299z" />
    <glyph glyph-name="kappa" unicode="&#x3ba;" horiz-adv-x="1105" 
d="M1067 0h-240l-301 440l-125 -129v-311h-299v1110h299v-444l422 444h201v-164l-293 -299l336 -483v-164z" />
    <glyph glyph-name="lambda" unicode="&#x3bb;" horiz-adv-x="1081" 
d="M1028 0h-268l-213 741l-217 -741h-267v166l340 907l-47 139q-59 55 -166 56q-31 0 -79 -4v206q61 20 163 21q218 0 347 -143l407 -1184v-164z" />
    <glyph glyph-name="uni03BC" unicode="&#x3bc;" horiz-adv-x="1146" 
d="M745 1110h302v-1110h-279v98q-113 -123 -279 -123q-49 0 -92 13l4 -11v-317h-299v1450h299v-829q57 -70 167 -70t177 68v831z" />
    <glyph glyph-name="nu" unicode="&#x3bd;" horiz-adv-x="1097" 
d="M1038 1110v-164l-305 -946h-368l-304 946v164h277l221 -797h6l221 797h252z" />
    <glyph glyph-name="xi" unicode="&#x3be;" horiz-adv-x="1050" 
d="M565 1464q287 0 439 -184v-160h-267q-47 106 -164 106t-170 -83v-182q53 -92 160 -93h178v-217h-170q-141 0 -188 -106v-228q61 -82 184 -81h394v-492h-256v256h-242q-147 0 -243 74q-95 74 -136 168v344q20 47 80 100t135 84q-139 55 -195 152v286q51 102 169 179
t292 77z" />
    <glyph glyph-name="omicron" unicode="&#x3bf;" horiz-adv-x="1148" 
d="M574 907q-70 -1 -118 -31t-69 -73v-494q19 -45 69 -76t118 -31t119 32q50 30 69 75v494q-18 43 -68 73t-120 31zM575 1141q195 0 317 -85t169 -194v-614q-47 -109 -169 -194t-317 -85t-317 85t-170 194v614q48 109 170 194t317 85z" />
    <glyph glyph-name="pi" unicode="&#x3c0;" horiz-adv-x="1280" 
d="M1231 1110v-219h-123v-891h-299v891h-340v-891h-301v891h-117v219h1180z" />
    <glyph glyph-name="rho" unicode="&#x3c1;" horiz-adv-x="1134" 
d="M570 905q-128 0 -179 -94v-528q68 -72 184 -72q65 -1 111 27t64 59v514q-52 94 -180 94zM569 1141q193 0 313 -82t167 -185v-647q-35 -94 -130 -173t-254 -79t-274 105v-420h-299v1214q44 100 164 184t313 83z" />
    <glyph glyph-name="uni03C2" unicode="&#x3c2;" horiz-adv-x="1077" 
d="M573 1141q250 0 386 -146q28 -29 49 -57v-131h-263q-35 98 -171 98t-187 -106v-457q17 -43 67 -75t119 -31h377v-492h-256v256h-159q-324 0 -447 279v583q46 109 168 194t317 85z" />
    <glyph glyph-name="sigma" unicode="&#x3c3;" horiz-adv-x="1204" 
d="M575 891q-69 0 -117 -35t-71 -84v-461q51 -104 188 -104q70 0 119 30t68 74v461q-31 80 -98 119h-89zM1149 1110v-219h-195q70 -57 107 -154v-489q-47 -109 -169 -194t-317 -85t-317 85t-170 194v573q49 111 171 200t316 89h574z" />
    <glyph glyph-name="tau" unicode="&#x3c4;" horiz-adv-x="983" 
d="M936 891h-297v-615q45 -68 172 -67q49 0 74 4v-215q-77 -23 -209 -23q-132 -1 -218 57t-118 136v723h-295v219h891v-219z" />
    <glyph glyph-name="upsilon" unicode="&#x3c5;" horiz-adv-x="1140" 
d="M1042 1110v-887q-48 -94 -166 -174t-306 -80t-308 80q-119 80 -166 174v887h299v-813q59 -84 174 -84q66 0 111 27t63 57v813h299z" />
    <glyph glyph-name="phi" unicode="&#x3c6;" horiz-adv-x="1587" 
d="M1063 918q-45 0 -80 -24t-47 -54v-615h47q156 1 217 107v510q-43 76 -137 76zM1073 1141q155 0 265 -67t163 -150v-643q-43 -109 -171 -195t-314 -86h-80v-340h-283v340h-80q-186 0 -314 86t-171 195v546q31 90 94 169t154 120h172v-203q-74 -31 -121 -139v-442
q61 -106 219 -107h47v697q43 82 153 150t267 69z" />
    <glyph glyph-name="chi" unicode="&#x3c7;" horiz-adv-x="1130" 
d="M156 1133q182 0 276 -119l160 -418h6l197 514h270v-164l-281 -551l238 -487q47 -43 113 -43v-207q-47 -10 -119 -10q-193 0 -281 135l-162 420h-6l-205 -543h-270v166l289 571l-234 475q-41 41 -110 41v199q58 21 119 21z" />
    <glyph glyph-name="psi" unicode="&#x3c8;" horiz-adv-x="1607" 
d="M1210 1110h299v-819q-37 -111 -165 -201t-320 -90h-78v-340h-284v340h-80q-193 0 -321 90t-165 201v819h299v-768q19 -47 77 -82t142 -35h48v1133h284v-1133h47q84 0 141 35q56 35 76 82v768z" />
    <glyph glyph-name="omega" unicode="&#x3c9;" horiz-adv-x="1587" 
d="M1116 -25q-207 0 -321 140q-115 -139 -322 -140q-150 0 -252 83t-133 173v596q31 90 94 169t154 120h172v-203q-74 -31 -121 -139v-485q43 -88 139 -88q45 -1 79 23t46 55v475h285v-471q12 -33 45 -58t80 -24q94 0 139 88v485q-41 104 -121 139v203h174q87 -41 151 -120
t95 -169v-596q-31 -90 -132 -173t-251 -83z" />
    <glyph glyph-name="iotadieresis" unicode="&#x3ca;" horiz-adv-x="516" 
d="M408 1110v-1110h-299v1110h299zM483 1522q96 0 144 -60v-170q-47 -59 -143 -59t-150 59v170q53 60 149 60zM31 1522q96 0 149 -60v-170q-53 -59 -149 -59t-144 59v170q48 60 144 60z" />
    <glyph glyph-name="upsilondieresis" unicode="&#x3cb;" horiz-adv-x="1140" 
d="M1042 1110v-887q-48 -94 -166 -174t-306 -80t-308 80q-119 80 -166 174v887h299v-813q59 -84 174 -84q66 0 111 27t63 57v813h299zM795 1522q96 0 143 -60v-170q-47 -59 -143 -59t-150 59v170q54 60 150 60zM342 1522q96 0 150 -60v-170q-54 -59 -150 -59t-143 59v170
q47 60 143 60z" />
    <glyph glyph-name="omicrontonos" unicode="&#x3cc;" horiz-adv-x="1148" 
d="M574 907q-70 -1 -118 -31t-69 -73v-494q19 -45 69 -76t118 -31t119 32q50 30 69 75v494q-18 43 -68 73t-120 31zM575 1141q195 0 317 -85t169 -194v-614q-47 -109 -169 -194t-317 -85t-317 85t-170 194v614q48 109 170 194t317 85zM846 1567v-129l-164 -209h-225v33
l112 305h277z" />
    <glyph glyph-name="upsilontonos" unicode="&#x3cd;" horiz-adv-x="1140" 
d="M1042 1110v-887q-48 -94 -166 -174t-306 -80t-308 80q-119 80 -166 174v887h299v-813q59 -84 174 -84q66 0 111 27t63 57v813h299zM842 1567v-129l-164 -209h-225v33l112 305h277z" />
    <glyph glyph-name="omegatonos" unicode="&#x3ce;" horiz-adv-x="1587" 
d="M1116 -25q-207 0 -321 140q-115 -139 -322 -140q-150 0 -252 83t-133 173v596q31 90 94 169t154 120h172v-203q-74 -31 -121 -139v-485q43 -88 139 -88q45 -1 79 23t46 55v475h285v-471q12 -33 45 -58t80 -24q94 0 139 88v485q-41 104 -121 139v203h174q87 -41 151 -120
t95 -169v-596q-31 -90 -132 -173t-251 -83zM676 1229v33l112 305h277v-129l-164 -209h-225z" />
    <glyph glyph-name="uni0401" unicode="&#x401;" horiz-adv-x="1101" 
d="M1008 1434v-248h-566v-328h529v-248h-529v-362h580v-248h-903v1434h889zM796 1821q97 0 142 -58v-166q-47 -59 -142 -59t-149 59v166q52 58 149 58zM351 1821q97 0 143 -58v-166q-47 -59 -142.5 -59t-148.5 59v166q51 58 148 58z" />
    <glyph glyph-name="uni0402" unicode="&#x402;" horiz-adv-x="1460" 
d="M933 924q167 0 288 -66t170 -156v-485q-49 -90 -170 -156t-293 -65h-78v235q158 0 217 86v283q-59 86 -197 86t-225 -68v-618h-323v1192h-271v242h959v-242h-365v-336q121 68 288 68z" />
    <glyph glyph-name="uni0403" unicode="&#x403;" horiz-adv-x="1054" 
d="M1004 1434v-242h-562v-1192h-323v1434h885zM770 1858v-129l-166 -199h-215v31l109 297h272z" />
    <glyph glyph-name="uni0404" unicode="&#x404;" horiz-adv-x="1259" 
d="M653 1212q-90 0 -148 -36t-83 -91v-237h426v-234h-426v-266q25 -55 83 -91t148 -36t154 52q63 52 86 137h278v-152q-52 -102 -164 -185q-140 -104 -362 -104q-221 0 -356 94t-191 220v868q54 125 190 219t353 94q299 0 467 -194q39 -45 63 -94v-152h-278q-23 84 -86 136
q-64 52 -154 52z" />
    <glyph glyph-name="uni0405" unicode="&#x405;" horiz-adv-x="1212" 
d="M602 1464q197 0 326 -79.5t180 -174.5v-151h-279q-49 154 -227 153q-68 0 -118 -27.5t-72 -66.5v-147q31 -57 157 -90l103 -27q354 -88 452 -260v-350q-56 -94 -160 -173q-134 -102 -356.5 -102t-350.5 85t-181 190v151h278q20 -78 86 -125t160 -47q152 0 213 111v147
q-39 72 -178 109l-103 24q-197 47 -288.5 103.5t-145.5 140.5v352q55 96 181 175t323 79z" />
    <glyph glyph-name="uni0406" unicode="&#x406;" horiz-adv-x="561" 
d="M442 1434v-1434h-323v1434h323z" />
    <glyph glyph-name="uni0407" unicode="&#x407;" horiz-adv-x="561" 
d="M442 1434v-1434h-323v1434h323zM488 1802q91 0 145 -59v-152q-53 -59 -145 -59t-144 59v152q53 59 144 59zM78 1802q94 0 141 -59v-152q-47 -59 -141 -59t-148 59v152q54 59 148 59z" />
    <glyph glyph-name="uni0408" unicode="&#x408;" horiz-adv-x="792" 
d="M680 1434v-1149q-137 -289 -520 -289q-74 0 -119 4v246h94q172 0 221 119v1069h324z" />
    <glyph glyph-name="uni0409" unicode="&#x409;" horiz-adv-x="2011" 
d="M1452 672h-219v-434h211q137 0 194 104v233q-24 43 -74 70t-112 27zM1511 911q131 -1 246 -65t178 -172v-430q-53 -100 -163 -172t-259 -72h-604v1192h-286l-117 -1018q-68 -106 -171 -144t-294 -38v248q63 0 111 24t67 62l131 1108h883v-523h278z" />
    <glyph glyph-name="uni040A" unicode="&#x40a;" horiz-adv-x="1976" 
d="M1419 672h-219v-434h211q138 0 195 104v233q-25 43 -76 70t-111 27zM1479 911q131 -1 245 -65t179 -172v-430q-55 -100 -165 -172t-257 -72h-604v672h-435v-672h-323v1434h323v-523h435v523h323v-523h279z" />
    <glyph glyph-name="uni040B" unicode="&#x40b;" horiz-adv-x="1402" 
d="M1010 1434v-242h-365v-305h256q131 0 246 -65t178 -175v-647h-297v549q-25 43 -76 71t-110 27h-197v-647h-323v1192h-271v242h959z" />
    <glyph glyph-name="uni040C" unicode="&#x40c;" horiz-adv-x="1220" 
d="M1149 1434v-181l-332 -495l346 -578v-180h-266l-344 623h-125v-623h-324v1434h324v-570h125l348 570h248zM854 1858v-129l-166 -199h-215v31l109 297h272z" />
    <glyph glyph-name="uni040E" unicode="&#x40e;" horiz-adv-x="1173" 
d="M1120 1434v-181l-436 -1112q-138 -157 -366 -155q-102 0 -154 12v231q37 -4 80 -4q135 0 184 60l33 90l-400 878v181h265l295 -705l247 705h252zM591 1513q-263 0 -353 183v123h219v-78q31 -68 133 -68t133 68v78h219v-123q-88 -183 -351 -183z" />
    <glyph glyph-name="uni040F" unicode="&#x40f;" horiz-adv-x="1318" 
d="M1202 1434v-1434h-407v-262h-271v262h-405v1434h323v-1192h437v1192h323z" />
    <glyph glyph-name="uni0410" unicode="&#x410;" horiz-adv-x="1284" 
d="M469 584h319l-153 602h-6zM1233 0h-293l-86 336h-451l-88 -336h-264v180l365 1254h452l365 -1254v-180z" />
    <glyph glyph-name="uni0411" unicode="&#x411;" horiz-adv-x="1216" 
d="M442 659v-421h211q138 0 195 104v219q-25 43 -76 71t-110 27h-220zM721 897q131 0 247 -63t177 -172v-418q-51 -98 -162 -171t-258 -73h-606v1434h999v-242h-676v-295h279z" />
    <glyph glyph-name="uni0412" unicode="&#x412;" horiz-adv-x="1236" 
d="M670 633h-228v-391h220q139 0 194 100v195q-25 43 -76 69t-110 27zM442 1192v-344h215q117 0 177 96v150q-53 98 -187 98h-205zM729 0h-610v1434h600q143 0 249 -72t162 -172v-287q-61 -100 -153 -147q117 -53 176 -150v-362q-55 -98 -166 -171t-258 -73z" />
    <glyph glyph-name="uni0413" unicode="&#x413;" horiz-adv-x="1054" 
d="M1004 1434v-242h-562v-1192h-323v1434h885z" />
    <glyph glyph-name="uni0414" unicode="&#x414;" horiz-adv-x="1468" 
d="M928 244v948h-291l-96 -852q-29 -55 -95 -96h482zM1251 244h164v-508h-272v264h-821v-264h-273v508q59 16 118 57q58 41 79 86l123 1047h882v-1190z" />
    <glyph glyph-name="uni0415" unicode="&#x415;" horiz-adv-x="1101" 
d="M1008 1434v-248h-566v-328h529v-248h-529v-362h580v-248h-903v1434h889z" />
    <glyph glyph-name="uni0416" unicode="&#x416;" horiz-adv-x="1816" 
d="M1745 1434v-181l-285 -489l297 -584v-180h-266l-299 623h-131v-623h-305v623h-133l-297 -623h-267v180l297 584l-284 489v181h250l301 -570h133v570h305v-570h133l301 570h250z" />
    <glyph glyph-name="uni0417" unicode="&#x417;" horiz-adv-x="1224" 
d="M82 389h280q20 -78 85 -125t150 -47t140.5 34t79.5 77v168q-23 45 -78 79.5t-133 32.5h-190v244h190q78 -2 133.5 32t77.5 79v143q-25 43 -80 77t-140 34t-149.5 -47.5t-85.5 -125.5h-280v146q46 86 171.5 180t353.5 94t351.5 -92.5t169.5 -181.5v-270
q-63 -117 -186 -191q123 -70 186 -188v-297q-50 -92 -158 -173q-136 -102 -363 -102q-226 0 -354 95.5t-171 179.5v145z" />
    <glyph glyph-name="uni0418" unicode="&#x418;" horiz-adv-x="1368" 
d="M1249 1434v-1434h-301v942h-6l-508 -942h-315v1434h301v-942h6l508 942h315z" />
    <glyph glyph-name="uni0419" unicode="&#x419;" horiz-adv-x="1368" 
d="M1249 1434v-1434h-301v942h-6l-508 -942h-315v1434h301v-942h6l508 942h315zM1034 1819v-123q-88 -182 -350 -183q-133 1 -223 51t-129 132v123h219v-78q31 -68 132 -68t132 68v78h219z" />
    <glyph glyph-name="uni041A" unicode="&#x41a;" horiz-adv-x="1220" 
d="M1149 1434v-181l-332 -495l346 -578v-180h-266l-344 623h-125v-623h-324v1434h324v-570h125l348 570h248z" />
    <glyph glyph-name="uni041B" unicode="&#x41b;" horiz-adv-x="1351" 
d="M1233 1434v-1434h-324v1192h-286l-117 -1018q-68 -106 -171 -144t-294 -38v248q63 0 111 24t67 62l131 1108h883z" />
    <glyph glyph-name="uni041C" unicode="&#x41c;" horiz-adv-x="1576" 
d="M1458 1434v-1434h-301v969h-6l-274 -654h-177l-274 654h-6v-969h-301v1434h397l279 -668h6l266 668h391z" />
    <glyph glyph-name="uni041D" unicode="&#x41d;" horiz-adv-x="1341" 
d="M1223 1434v-1434h-324v614h-457v-614h-323v1434h323v-572h457v572h324z" />
    <glyph glyph-name="uni041E" unicode="&#x41e;" horiz-adv-x="1282" 
d="M641 1212q-82 0 -139 -36t-80 -91v-735q23 -55 80 -91t139 -36t139 36t80 91v735q-23 55 -80 91t-139 36zM641 1464q217 0 352 -94t191 -219v-866q-54 -125 -190 -220t-353 -95t-352 94q-135 96 -191 221v866q54 125 190 219t353 94z" />
    <glyph glyph-name="uni041F" unicode="&#x41f;" horiz-adv-x="1329" 
d="M1212 1434v-1434h-323v1186h-447v-1186h-323v1434h1093z" />
    <glyph glyph-name="uni0420" unicode="&#x420;" horiz-adv-x="1210" 
d="M637 1188h-195v-422h195q137 0 192 102v217q-57 103 -192 103zM711 1434q137 0 250 -64t180 -180v-424q-59 -106 -171 -175t-259 -69h-269v-522h-323v1434h592z" />
    <glyph glyph-name="uni0421" unicode="&#x421;" horiz-adv-x="1241" 
d="M641 1464q299 0 467 -194q39 -45 63 -94v-152h-278q-23 84 -86.5 136t-153.5 52t-148.5 -35.5t-82.5 -91.5v-737q25 -55 83 -91t148 -36t153.5 52.5t86.5 136.5h278v-152q-53 -102 -165 -185q-141 -104 -361.5 -104t-355.5 94.5t-191 219.5v868q55 125 190.5 219
t352.5 94z" />
    <glyph glyph-name="uni0422" unicode="&#x422;" horiz-adv-x="1116" 
d="M1065 1434v-248h-344v-1186h-324v1186h-346v248h1014z" />
    <glyph glyph-name="uni0423" unicode="&#x423;" horiz-adv-x="1183" 
d="M1120 1434v-181l-436 -1112q-136 -157 -364 -155q-102 0 -154 12v231q33 -4 80 -4q131 0 184 60l31 88l-398 880v181h263l295 -703l247 703h252z" />
    <glyph glyph-name="uni0424" unicode="&#x424;" horiz-adv-x="1601" 
d="M944 1085v-737h41q68 0 132 32t91 81v512q-28 49 -92 81t-131 31h-41zM621 348h41v737h-41q-67 1 -131 -31t-95 -81v-512q31 -49 95 -81t131 -32zM1012 1325q152 0 291 -83t202 -208v-635q-63 -125 -202 -208t-291 -82h-68v-191h-282v191h-68q-152 1 -292 83t-204 207
v635q64 125 204 208t292 83h68v191h282v-191h68z" />
    <glyph glyph-name="uni0425" unicode="&#x425;" horiz-adv-x="1224" 
d="M1141 1434v-181l-318 -522l328 -551v-180h-285l-260 522h-6l-270 -522h-258v180l327 551l-315 522v181h281l256 -498h6l256 498h258z" />
    <glyph glyph-name="uni0426" unicode="&#x426;" horiz-adv-x="1413" 
d="M1198 1434v-1190h164v-508h-272v264h-971v1434h323v-1190h432v1190h324z" />
    <glyph glyph-name="uni0427" unicode="&#x427;" horiz-adv-x="1294" 
d="M852 1434h324v-1434h-324v541q-125 -70 -289 -70q-165 0 -285 66t-172 155v742h324v-643q60 -86 200 -86t222 67v662z" />
    <glyph glyph-name="uni0428" unicode="&#x428;" horiz-adv-x="1892" 
d="M1774 1434v-1434h-1655v1434h323v-1192h344v1192h324v-1192h340v1192h324z" />
    <glyph glyph-name="uni0429" unicode="&#x429;" horiz-adv-x="1990" 
d="M1774 1434v-1190h165v-508h-272v264h-1548v1434h323v-1190h344v1190h324v-1190h340v1190h324z" />
    <glyph glyph-name="uni042A" unicode="&#x42a;" horiz-adv-x="1402" 
d="M846 672h-221v-434h213q137 0 194 104v233q-25 43 -76 70t-110 27zM625 1434v-523h278q133 -1 248 -65t178 -172v-430q-53 -100 -165 -172t-257 -72h-606v1194h-250v240h574z" />
    <glyph glyph-name="uni042B" unicode="&#x42b;" horiz-adv-x="1720" 
d="M635 672h-193v-434h185q137 0 194 104v233q-23 43 -74 70t-112 27zM1602 1434v-1434h-324v1434h324zM442 1434v-523h252q131 -1 247 -65t177 -172v-430q-55 -100 -165 -172t-257 -72h-577v1434h323z" />
    <glyph glyph-name="uni042C" unicode="&#x42c;" horiz-adv-x="1220" 
d="M662 672h-220v-434h211q137 0 195 104v233q-23 43 -74 70t-112 27zM442 1434v-523h279q131 -1 247 -65t177 -172v-430q-51 -98 -162 -171t-258 -73h-606v1434h323z" />
    <glyph glyph-name="uni042D" unicode="&#x42d;" horiz-adv-x="1259" 
d="M619 1464q217 0 351 -94t189 -219v-868q-55 -125 -189 -219t-350 -95q-216 0 -346 88q-129 88 -188 201v152h279q25 -84 88 -136t153 -53q90 0 148 36q57 36 82 91v266h-424v234h424v237q-25 55 -82 91q-58 36 -148 36t-153 -52t-88 -136h-279v152q59 112 188 200t345 88
z" />
    <glyph glyph-name="uni042E" unicode="&#x42e;" horiz-adv-x="1818" 
d="M1192 1217q-152 0 -205 -127v-746q55 -127 205 -127t205 127v746q-53 127 -205 127zM1191 1464q214 0 344 -94t185 -219v-866q-55 -127 -184 -221t-344 -95q-215 0 -344 94t-184 222v327h-222v-612h-323v1434h323v-580h222v297q57 127 185 220t342 93z" />
    <glyph glyph-name="uni042F" unicode="&#x42f;" horiz-adv-x="1255" 
d="M813 780v412h-219q-137 0 -193 -102v-207q55 -102 193 -103h219zM522 1434h615v-1434h-324v547h-158l-299 -547h-264v180l248 402q-156 59 -246 211v397q66 116 180 180t248 64z" />
    <glyph glyph-name="uni0430" unicode="&#x430;" horiz-adv-x="1138" 
d="M556 180q120 0 187 80v215h-198q-117 0 -168 -67v-156q59 -72 179 -72zM557 1141q195 0 317 -85t168 -194v-862h-288v84q-115 -115 -285 -115q-170 -1 -262 57t-123 115v348q31 66 123 125t244 60h292v129q-49 104 -185 104t-196 -114h-256v135q146 213 451 213z" />
    <glyph glyph-name="uni0431" unicode="&#x431;" horiz-adv-x="1130" 
d="M559 199q71 1 121 31t68 73v336q-18 43 -70 74t-123 30q-119 0 -182 -67v-373q49 -104 186 -104zM652 971q161 0 258 -82t137 -187v-454q-49 -111 -164 -195t-310 -84t-313 84t-166 195v856q115 197 434 258q146 29 202 48t87 54h205v-221q-104 -84 -345 -116t-304 -111
v-150q118 105 279 105z" />
    <glyph glyph-name="uni0432" unicode="&#x432;" horiz-adv-x="1103" 
d="M590 467h-199v-256h191q112 0 157 76v108q-37 72 -149 72zM391 901v-246h199q102 0 143 70v100q-49 76 -151 76h-191zM672 0h-570v1110h570q209 0 334 -188v-244q-44 -62 -132 -103q100 -43 140 -104v-281q-49 -78 -136 -134t-206 -56z" />
    <glyph glyph-name="uni0433" unicode="&#x433;" horiz-adv-x="921" 
d="M868 1110v-219h-465v-891h-301v1110h766z" />
    <glyph glyph-name="uni0434" unicode="&#x434;" horiz-adv-x="1286" 
d="M788 221v670h-237l-66 -584q-29 -53 -82 -86h385zM1087 221h154v-463h-254v242h-704v-242h-252v463q55 16 108 52t72 77l90 760h786v-889z" />
    <glyph glyph-name="uni0435" unicode="&#x435;" horiz-adv-x="1122" 
d="M573 911q-135 0 -186 -104v-131h375v131q-18 45 -68.5 74.5t-120.5 29.5zM570.5 1141q192.5 0 309.5 -78t160 -162v-426h-653v-170q23 -45 72 -75.5t116 -30.5q145 0 211 141h254v-129q-43 -84 -159.5 -163t-309.5 -79t-314.5 85t-168.5 194v614q47 109 168.5 194t314 85
z" />
    <glyph glyph-name="uni0436" unicode="&#x436;" horiz-adv-x="1564" 
d="M1497 1110v-162l-215 -356l229 -426v-166h-241l-238 459h-106v-459h-283v459h-108l-238 -459h-242v166l228 430l-215 352v162h225l244 -432h106v432h283v-432h102l244 432h225z" />
    <glyph glyph-name="uni0437" unicode="&#x437;" horiz-adv-x="1079" 
d="M534.5 1141q186.5 0 297 -68.5t161.5 -150.5v-228q-47 -78 -139 -129q90 -49 139 -131v-244q-31 -49 -76 -92t-148 -86t-261 -43t-271.5 71t-158.5 150v132h258q51 -127 186 -127t183 84v112q-47 76 -166 76h-148v195h148q119 0 166 75v94q-47 84 -183 84t-186 -127h-258
v134q45 80 157.5 149.5t299 69.5z" />
    <glyph glyph-name="uni0438" unicode="&#x438;" horiz-adv-x="1212" 
d="M1108 1110v-1110h-281v709h-6l-426 -709h-293v1110h281v-709h6l424 709h295z" />
    <glyph glyph-name="uni0439" unicode="&#x439;" horiz-adv-x="1212" 
d="M1108 1110v-1110h-281v709h-6l-426 -709h-293v1110h281v-709h6l424 709h295zM956 1526v-125q-39 -82 -128 -131t-222 -49t-223 49t-129 131v125h219v-78q10 -26 44 -48t89 -22q102 0 131 70v78h219z" />
    <glyph glyph-name="uni043A" unicode="&#x43a;" horiz-adv-x="1079" 
d="M1022 1110v-162l-270 -364l284 -418v-166h-239l-289 459h-105v-459h-301v1110h301v-432h105l301 432h213z" />
    <glyph glyph-name="uni043B" unicode="&#x43b;" horiz-adv-x="1177" 
d="M1073 1110v-1110h-299v891h-235l-82 -731q-57 -96 -151 -132t-275 -36v227q57 0 101 24t58 56l97 811h786z" />
    <glyph glyph-name="uni043C" unicode="&#x43c;" horiz-adv-x="1394" 
d="M1292 1110v-1110h-280v727h-6l-244 -489h-129l-244 489h-6v-727h-281v1110h365l233 -475h7l227 475h358z" />
    <glyph glyph-name="uni043D" unicode="&#x43d;" horiz-adv-x="1204" 
d="M1100 1110v-1110h-301v461h-396v-461h-301v1110h301v-428h396v428h301z" />
    <glyph glyph-name="uni043E" unicode="&#x43e;" horiz-adv-x="1148" 
d="M574 907q-70 -1 -118 -31t-69 -73v-494q19 -45 69 -76t118 -31t119 32q50 30 69 75v494q-18 43 -68 73t-120 31zM575 1141q195 0 317 -85t169 -194v-614q-47 -109 -169 -194t-317 -85t-317 85t-170 194v614q48 109 170 194t317 85z" />
    <glyph glyph-name="uni043F" unicode="&#x43f;" horiz-adv-x="1157" 
d="M1055 1110v-1110h-299v891h-353v-891h-301v1110h953z" />
    <glyph glyph-name="uni0440" unicode="&#x440;" horiz-adv-x="1146" 
d="M588 899q-123 0 -187 -68v-550q66 -70 186 -70t171 84v520q-47 84 -170 84zM671 1135q165 0 257 -77t131 -173v-658q-39 -98 -131 -175t-253 -77t-274 105v-420h-299v1450h289v-90q115 115 280 115z" />
    <glyph glyph-name="uni0441" unicode="&#x441;" horiz-adv-x="1107" 
d="M570.5 1141q192.5 0 308.5 -77t161 -163v-137h-258q-61 143 -209 143q-68 0 -115.5 -29.5t-70.5 -74.5v-494q51 -106 192 -106t203 143h258v-135q-45 -86 -160.5 -164t-308.5 -78t-314.5 85t-168.5 194v614q47 109 168.5 194t314 85z" />
    <glyph glyph-name="uni0442" unicode="&#x442;" horiz-adv-x="999" 
d="M350 0v891h-299v219h897v-219h-299v-891h-299z" />
    <glyph glyph-name="uni0443" unicode="&#x443;" horiz-adv-x="1083" 
d="M1026 1110v-164l-381 -1145q-121 -160 -389 -159q-117 0 -172 18v213q49 -4 88 -4q150 0 215 70l19 69l-345 936v166h277l215 -727h6l209 727h258z" />
    <glyph glyph-name="uni0444" unicode="&#x444;" horiz-adv-x="1585" 
d="M1200 276v560q-51 74 -153 73q-57 0 -111 -26v-656q49 -25 113 -24q108 -1 151 73zM541 203q59 0 112 26v654q-53 27 -112 26q-102 0 -154 -73v-560q43 -73 154 -73zM1153 1135q127 0 219 -76t127 -166v-676q-35 -90 -127 -166t-219 -76t-217 56v-371h-283v373
q-89 -57 -217 -57t-222 75q-93 76 -126 166v676q33 90 126 166q94 76 222 76t217 -56v355h283v-355q90 56 217 56z" />
    <glyph glyph-name="uni0445" unicode="&#x445;" horiz-adv-x="1056" 
d="M979 1110v-164l-242 -377l258 -403v-166h-262l-201 397h-6l-209 -397h-256v166l258 403l-241 377v164h256l192 -373h6l195 373h252z" />
    <glyph glyph-name="uni0446" unicode="&#x446;" horiz-adv-x="1251" 
d="M1055 1110v-889h151v-463h-254v242h-850v1110h301v-891h353v891h299z" />
    <glyph glyph-name="uni0447" unicode="&#x447;" horiz-adv-x="1118" 
d="M713 1110h301v-1110h-301v397q-90 -37 -209 -37q-283 0 -408 172v578h299v-465q59 -66 174 -65q78 0 144 32v498z" />
    <glyph glyph-name="uni0448" unicode="&#x448;" horiz-adv-x="1667" 
d="M1563 1110v-1110h-1461v1110h301v-891h279v891h301v-891h279v891h301z" />
    <glyph glyph-name="uni0449" unicode="&#x449;" horiz-adv-x="1765" 
d="M1563 1110v-889h151v-463h-254v242h-1358v1110h301v-891h279v891h301v-891h279v891h301z" />
    <glyph glyph-name="uni044A" unicode="&#x44a;" horiz-adv-x="1263" 
d="M762 522h-178v-305h178q98 0 153 76v151q-51 78 -153 78zM584 1110v-369h272q217 0 342 -190v-361q-127 -190 -334 -190h-579v891h-234v219h533z" />
    <glyph glyph-name="uni044B" unicode="&#x44b;" horiz-adv-x="1540" 
d="M565 522h-162v-305h162q100 0 152 76v151q-46 78 -152 78zM1438 1110v-1110h-299v1110h299zM403 1110v-369h256q105 0 195 -51t147 -139v-361q-127 -190 -335 -190h-564v1110h301z" />
    <glyph glyph-name="uni044C" unicode="&#x44c;" horiz-adv-x="1083" 
d="M582 522h-179v-305h179q96 0 151 76v151q-45 78 -151 78zM403 1110v-369h273q106 0 195 -51t147 -139v-361q-127 -190 -336 -190h-580v1110h301z" />
    <glyph glyph-name="uni044D" unicode="&#x44d;" horiz-adv-x="1107" 
d="M538 1141q192 0 314 -85t168 -194v-614q-47 -109 -169 -194t-314 -85t-309 78q-116 78 -160 164v135h258q60 -143 202 -143t193 106v154h-356v196h356v144q-53 104 -195 104t-200 -143h-258v137q45 86 160 163q118 77 310 77z" />
    <glyph glyph-name="uni044E" unicode="&#x44e;" horiz-adv-x="1650" 
d="M1264 303v504q-20 45 -70 75t-118 30q-69 0 -118 -30t-69 -75v-504q20 -43 69 -74t118 -31q68 0 118 32q50 30 70 73zM1077 1141q195 0 317 -85t169 -194v-614q-47 -109 -169 -194t-317 -85t-319 85t-170 194v209h-185v-457h-301v1110h301v-434h185v186q46 109 170 194
t319 85z" />
    <glyph glyph-name="uni044F" unicode="&#x44f;" horiz-adv-x="1136" 
d="M733 594v297h-196q-96 0 -154 -78v-141q51 -78 154 -78h196zM434 1110h600v-1110h-301v383h-141l-254 -383h-244v162l199 250q-117 47 -195 161v349q125 188 336 188z" />
    <glyph glyph-name="uni0451" unicode="&#x451;" horiz-adv-x="1122" 
d="M573 911q-135 0 -186 -104v-131h375v131q-18 45 -68.5 74.5t-120.5 29.5zM570.5 1141q192.5 0 309.5 -78t160 -162v-426h-653v-170q23 -45 72 -75.5t116 -30.5q145 0 211 141h254v-129q-43 -84 -159.5 -163t-309.5 -79t-314.5 85t-168.5 194v614q47 109 168.5 194t314 85
zM811 1522q96 0 143 -60v-170q-47 -59 -143 -59t-149 59v170q53 60 149 60zM358 1522q96 0 150 -60v-170q-53 -59 -149.5 -59t-143.5 59v170q47 60 143 60z" />
    <glyph glyph-name="uni0452" unicode="&#x452;" horiz-adv-x="1185" 
d="M432 1434v-97h318v-157h-318v-195q113 102 274 102q160 -1 252 -77t129 -172v-906q-43 -110 -165 -194t-320 -84v225q70 0 119 34t67 87v768q-47 84 -172 84t-184 -72v-780h-299v1180h-84v157h84v97h299z" />
    <glyph glyph-name="uni0453" unicode="&#x453;" horiz-adv-x="921" 
d="M868 1110v-219h-465v-891h-301v1110h766zM729 1571v-129l-162 -205h-225v31l111 303h276z" />
    <glyph glyph-name="uni0454" unicode="&#x454;" horiz-adv-x="1107" 
d="M573 907q-67 1 -115 -29t-71 -75v-144h356v-196h-356v-154q51 -106 192 -106t203 143h258v-135q-44 -86 -160 -164t-309 -78t-315 85t-168 194v614q47 109 169 194t314 85q193 0 309 -77t160 -163v-137h-258q-62 143 -209 143z" />
    <glyph glyph-name="uni0455" unicode="&#x455;" horiz-adv-x="1036" 
d="M542.5 1141q147.5 0 255 -64.5t154.5 -134.5v-123h-258q-45 102 -165 102.5t-169 -63.5v-102q29 -47 140 -70l102 -22q156 -33 246 -83.5t121 -99.5v-299q-29 -45 -74 -86t-147.5 -84t-257 -43t-265 68.5t-157.5 144.5v123h258q57 -117 186 -117t180 80v94
q-29 51 -143 74l-105 21q-279 57 -360 186v299q27 41 70 80t142 79t246.5 40z" />
    <glyph glyph-name="uni0456" unicode="&#x456;" horiz-adv-x="516" 
d="M408 1110v-1110h-299v1110h299z" />
    <glyph glyph-name="uni0457" unicode="&#x457;" horiz-adv-x="589" 
d="M444 1110v-1110h-301v1110h301zM500 1522q94 0 141 -60v-159q-41 -59 -138 -59t-151 59v159q54 60 148 60zM96 1522q94 0 142 -60v-159q-40 -59 -138 -59t-151 59v159q53 60 147 60z" />
    <glyph glyph-name="uni0458" unicode="&#x458;" horiz-adv-x="503" 
d="M401 1110v-1204q-45 -111 -165 -193t-322 -82v230q70 0 119 35t67 88v1126h301zM253 1526q122 0 161 -82v-127q-39 -82 -161 -82t-161 82v127q39 82 161 82z" />
    <glyph glyph-name="uni0459" unicode="&#x459;" horiz-adv-x="1753" 
d="M1251 522h-176v-305h176q99 0 154 76v151q-51 78 -154 78zM1346 741q217 0 342 -190v-361q-127 -190 -334 -190h-580v891h-235l-82 -731q-57 -96 -151 -132t-275 -36v227q57 0 101 24t58 56l97 811h786v-369h273z" />
    <glyph glyph-name="uni045A" unicode="&#x45a;" horiz-adv-x="1742" 
d="M1247 514h-174v-297h174q97 0 152 76v143q-45 78 -152 78zM1341 731q217 0 340 -188v-353q-127 -190 -333 -190h-576v512h-369v-512h-301v1110h301v-377h369v377h299v-379h270z" />
    <glyph glyph-name="uni045B" unicode="&#x45b;" horiz-adv-x="1185" 
d="M432 1434v-97h318v-157h-318v-195q113 102 274 102q160 -1 252 -77t129 -172v-838h-299v768q-47 84 -172 84t-184 -72v-780h-299v1180h-84v157h84v97h299z" />
    <glyph glyph-name="uni045C" unicode="&#x45c;" horiz-adv-x="1079" 
d="M1022 1110v-162l-270 -364l284 -418v-166h-239l-289 459h-105v-459h-301v1110h301v-432h105l301 432h213zM805 1571v-129l-162 -205h-225v31l110 303h277z" />
    <glyph glyph-name="uni045E" unicode="&#x45e;" horiz-adv-x="1083" 
d="M1026 1110v-164l-381 -1145q-121 -160 -389 -159q-117 0 -172 18v213q49 -4 88 -4q150 0 215 70l19 69l-345 936v166h277l215 -727h6l209 727h258zM887 1526v-125q-39 -82 -128 -131t-222 -49t-224 49q-90 49 -129 131v125h219v-78q10 -26 44 -48t90 -22q102 0 131 70v78
h219z" />
    <glyph glyph-name="uni045F" unicode="&#x45f;" horiz-adv-x="1171" 
d="M1067 1110v-1110h-354v-242h-252v242h-359v1110h301v-891h363v891h301z" />
    <glyph glyph-name="uni0490" unicode="&#x490;" horiz-adv-x="1024" 
d="M975 1667v-475h-533v-1192h-323v1434h583v233h273z" />
    <glyph glyph-name="uni0491" unicode="&#x491;" horiz-adv-x="935" 
d="M874 1286v-395h-471v-891h-301v1110h521v176h251z" />
    <glyph glyph-name="uni04D8" unicode="&#x4d8;" horiz-adv-x="1261" 
d="M616 221q82 0 143 37q60 37 83 92v207h-449v-217q61 -119 223 -119zM92 782h750v303q-25 53 -83 91q-59 38 -149 36q-90 0 -153 -52t-86 -136h-279v152q51 101 178 194q126 94 348 94t357 -94t190 -219v-866q-55 -125 -190 -220t-351 -95t-344 87q-128 88 -188 203v522z
" />
    <glyph glyph-name="uni04D9" unicode="&#x4d9;" horiz-adv-x="1122" 
d="M550 199q69 0 117 30.5t68 75.5v129h-375v-129q20 -45 70.5 -75.5t119.5 -30.5zM552.5 -31q-191.5 0 -308.5 79t-160 163v424h651v172q-20 45 -69.5 74.5t-116.5 29.5q-150 0 -211 -141h-254v131q43 84 159.5 162t308.5 78t314.5 -85t169.5 -194v-614
q-47 -109 -169.5 -194t-314 -85z" />
    <glyph glyph-name="Wgrave" unicode="&#x1e80;" horiz-adv-x="1882" 
d="M1819 1434v-181l-248 -1253h-414l-215 909h-6l-213 -909h-410l-250 1253v181h304l188 -1067h6l244 1067h289l245 -1067h7l186 1067h287zM1079 1530h-215l-164 199v129h267l112 -297v-31z" />
    <glyph glyph-name="wgrave" unicode="&#x1e81;" horiz-adv-x="1632" 
d="M1575 1110v-164l-246 -946h-330l-172 670h-6l-172 -670h-340l-243 946v164h276l164 -780h6l193 780h260l188 -780h6l164 780h252zM932 1237h-223l-164 205v129h274l113 -303v-31z" />
    <glyph glyph-name="Wacute" unicode="&#x1e82;" horiz-adv-x="1882" 
d="M1819 1434v-181l-248 -1253h-414l-215 909h-6l-213 -909h-410l-250 1253v181h304l188 -1067h6l244 1067h289l245 -1067h7l186 1067h287zM1192 1858v-129l-166 -199h-215v31l109 297h272z" />
    <glyph glyph-name="wacute" unicode="&#x1e83;" horiz-adv-x="1632" 
d="M1575 1110v-164l-246 -946h-330l-172 670h-6l-172 -670h-340l-243 946v164h276l164 -780h6l193 780h260l188 -780h6l164 780h252zM1083 1571v-129l-161 -205h-226v31l111 303h276z" />
    <glyph glyph-name="Wdieresis" unicode="&#x1e84;" horiz-adv-x="1882" 
d="M1819 1434v-181l-248 -1253h-414l-215 909h-6l-213 -909h-410l-250 1253v181h304l188 -1067h6l244 1067h289l245 -1067h7l186 1067h287zM1174 1821q97 0 143 -58v-166q-47 -59 -143 -59t-148 59v166q51 58 148 58zM730 1821q97 0 142 -58v-166q-47 -59 -142 -59t-148 59
v166q51 58 148 58z" />
    <glyph glyph-name="wdieresis" unicode="&#x1e85;" horiz-adv-x="1632" 
d="M1575 1110v-164l-246 -946h-330l-172 670h-6l-172 -670h-340l-243 946v164h276l164 -780h6l193 780h260l188 -780h6l164 780h252zM1042 1522q96 0 144 -60v-170q-48 -59 -144 -59t-149 59v170q53 60 149 60zM590 1522q96 0 149 -60v-170q-53 -59 -149 -59t-144 59v170
q48 60 144 60z" />
    <glyph glyph-name="Ygrave" unicode="&#x1ef2;" horiz-adv-x="1187" 
d="M1133 1434v-181l-383 -686v-567h-326v600l-367 653v181h273l270 -543h6l268 543h259zM723 1530h-215l-164 199v129h266l113 -297v-31z" />
    <glyph glyph-name="ygrave" unicode="&#x1ef3;" horiz-adv-x="1083" 
d="M1026 1110v-164l-381 -1145q-121 -160 -389 -159q-117 0 -172 18v213q49 -4 88 -4q150 0 215 70l19 69l-345 936v166h277l215 -727h6l209 727h258zM653 1237h-223l-164 205v129h275l112 -303v-31z" />
    <glyph glyph-name="endash" unicode="&#x2013;" horiz-adv-x="1159" 
d="M1090 805v-238h-1018v238h1018z" />
    <glyph glyph-name="emdash" unicode="&#x2014;" horiz-adv-x="1773" 
d="M1704 805v-238h-1632v238h1632z" />
    <glyph glyph-name="quoteleft" unicode="&#x2018;" horiz-adv-x="458" 
d="M230 895q-62 0 -104 25t-56 57v332q16 47 74 97t141 50h77v-129h-61q-49 0 -70 -45v-61q59 0 101 -26t57 -56v-162q-13 -33 -55 -57t-104 -25z" />
    <glyph glyph-name="quoteright" unicode="&#x2019;" horiz-adv-x="458" 
d="M228 1464q62 0 105 -25q42 -26 56 -59v-331q-17 -47 -75 -97t-140 -49h-78v127h62q47 0 69 45v62q-59 -1 -101 25t-56 59v159q14 32 55 58t103 26z" />
    <glyph glyph-name="quotesinglbase" unicode="&#x201a;" horiz-adv-x="458" 
d="M228 299q62 0 104 -26t57 -58v-332q-17 -47 -75 -97t-140 -50h-78v129h62q47 0 69 45v61q-59 0 -101 26t-56 58v160q14 33 55 59t103 25z" />
    <glyph glyph-name="quotedblleft" unicode="&#x201c;" horiz-adv-x="897" 
d="M669 895q-62 0 -105 26q-42 26 -56 58v332q16 47 74 96t141 49h78v-127h-62q-47 0 -69 -45v-61q59 0 101 -26t56 -58v-160q-14 -33 -55 -59t-103 -25zM230 895q-62 0 -104 26t-56 58v332q16 47 74 96t141 49h77v-127h-61q-47 0 -70 -45v-61q59 0 101 -26t57 -58v-160
q-13 -33 -55 -59t-104 -25z" />
    <glyph glyph-name="quotedblright" unicode="&#x201d;" horiz-adv-x="897" 
d="M667 1464q62 0 104 -26t56 -58v-331q-16 -47 -74 -97t-141 -49h-77v127h61q47 0 70 45v62q-59 0 -102 25q-42 26 -56 59v159q14 33 55 59q42 25 104 25zM228 1464q62 0 105 -25q42 -26 56 -59v-331q-17 -47 -75 -97t-140 -49h-78v127h62q47 0 69 45v62q-59 -1 -101 25
t-56 59v159q14 32 55 58t103 26z" />
    <glyph glyph-name="quotedblbase" unicode="&#x201e;" horiz-adv-x="899" 
d="M668 299q63 0 105 -26t54 -58v-332q-14 -47 -72 -97t-143 -50h-75v129h59q45 0 72 45v61q-119 0 -160 84v160q39 84 160 84zM228 299q62 0 104 -26t57 -58v-332q-17 -47 -75 -97t-140 -50h-78v129h62q47 0 69 45v61q-59 0 -101 26t-56 58v160q14 33 55 59t103 25z" />
    <glyph glyph-name="dagger" unicode="&#x2020;" horiz-adv-x="1318" 
d="M1260 979v-268h-197l-254 22l-29 -1077h-250l-26 1077l-250 -22h-195v268h195l244 -23l-4 185v293h325v-293l-6 -185l250 23h197z" />
    <glyph glyph-name="daggerdbl" unicode="&#x2021;" horiz-adv-x="1359" 
d="M1260 426v-268h-197l-268 24l-15 -526h-250l-12 526l-264 -24h-195v268h195l258 -25l-10 394l-248 -23h-195v268h195l244 -22l-4 123v293h325v-293l-4 -123l248 22h197v-268h-197l-254 23l-8 -394l262 25h197z" />
    <glyph glyph-name="bullet" unicode="&#x2022;" horiz-adv-x="716" 
d="M356 973q180 0 260 -123v-283q-78 -127 -260 -127q-88 0 -156 37t-100 92v281q32 53 100 88t156 35z" />
    <glyph glyph-name="ellipsis" unicode="&#x2026;" horiz-adv-x="1341" 
d="M1114 295q64 0 105 -25t55 -59v-152q-37 -82 -162 -82q-61 0 -102 25t-56 57v152q14 33 56 59q40 26 104 25zM672 295q64 0 104 -25t55 -59v-152q-37 -82 -161 -82q-61 0 -103 25q-41 25 -55 57v152q14 33 56 59q40 26 104 25zM227 295q63 0 105 -26t55 -58v-152
q-12 -33 -54 -57t-106 -25q-119 0 -159 82v152q38 84 159 84z" />
    <glyph glyph-name="perthousand" unicode="&#x2030;" horiz-adv-x="2654" 
d="M2220 573q-45 0 -81 -18t-48 -45v-311q33 -61 129 -61t129 61v311q-31 63 -129 63zM1423 573q-96 0 -129 -63v-311q33 -61 129 -61t129 61v311q-33 63 -129 63zM2220 729q135 0 224 -56t122 -132v-371q-31 -78 -120 -133t-226 -55t-226 55t-120 133v371q33 76 122 132
t224 56zM1422 729q136 0 226 -56t121 -132v-371q-31 -78 -119 -133t-226 -55t-228 56t-119 132v371q31 76 120 132t225 56zM434 1296q-98 0 -129 -61v-311q31 -62 129 -62t129 62v311q-31 61 -129 61zM1485 1434v-127l-975 -1307h-135v127l977 1307h133zM434 1452
q138 0 228 -56t118 -132v-371q-31 -76 -120 -131t-225 -55t-225 55t-120 131v371q29 76 118 132t226 56z" />
    <glyph glyph-name="guilsinglleft" unicode="&#x2039;" horiz-adv-x="724" 
d="M645 1110v-158l-330 -362l330 -363v-159h-217l-356 405v232l356 405h217z" />
    <glyph glyph-name="guilsinglright" unicode="&#x203a;" horiz-adv-x="724" 
d="M80 68v159l328 363l-328 362v158h219l354 -405v-232l-354 -405h-219z" />
    <glyph glyph-name="fraction" unicode="&#x2044;" horiz-adv-x="385" 
d="M748 1434v-127l-975 -1307h-135v127l976 1307h134z" />
    <glyph glyph-name="uni20A8" unicode="&#x20a8;" horiz-adv-x="1052" 
d="M1018 1434v-162h-205q37 -43 61 -92v-121h144v-164h-144v-102q-53 -105 -159 -175t-226 -79l385 -379v-160h-276l-500 539v190h283q55 0 108 30t76 83v53h-467v164h467v49q-23 51 -77 82t-107 31h-283v213h920z" />
    <glyph glyph-name="Euro" unicode="&#x20ac;" horiz-adv-x="1226" 
d="M675 1229q-79 0 -132 -32t-74 -75v-174h451v-162h-451v-118h451v-162h-451v-195q19 -43 73 -75t133 -31q79 0 134 44t70 118h270v-162q-41 -78 -167 -157t-318 -79t-326 85q-133 85 -180 188v264h-101v162h101v118h-101v162h101v244q47 102 180 187q134 85 326 85
t318 -79t167 -156v-162h-270q-13 74 -69 118t-135 44z" />
    <glyph glyph-name="uni20BA" unicode="&#x20ba;" horiz-adv-x="1204" 
d="M1116 397v-161q-37 -78 -165 -157t-318 -79h-451v430l-127 -63v186l127 61v150l-127 -62v185l127 63v484h312v-334l360 176v-184l-360 -177v-151l360 176v-184l-360 -176v-344h139q178 -1 213 161h270z" />
    <glyph glyph-name="uni20BD" unicode="&#x20bd;" horiz-adv-x="1236" 
d="M662 1194h-195v-422h195q137 0 192 102v218q-59 102 -192 102zM735 1434q137 0 249 -64t179 -180v-387q-57 -106 -168 -173t-260 -67h-268v-112h504v-162h-504v-289h-324v289h-102v162h102v112h-102v209h102v662h592z" />
    <glyph glyph-name="uni2116" unicode="&#x2116;" horiz-adv-x="2080" 
d="M2028 606v-186h-756v186h756zM1652 1276q-112 0 -153 -84v-244q45 -84 154 -84t147 84v244q-36 84 -148 84zM1135 1434v-1434h-334l-375 885h-6v-885h-301v1434h334l374 -887h7v887h301zM1651 1448q155 0 247 -66t130 -147v-330q-38 -81 -132 -147t-246 -66t-246 66
q-93 66 -132 147v330q37 81 131 147t248 66z" />
    <glyph glyph-name="uni2117" unicode="&#x2117;" horiz-adv-x="1634" 
d="M881 999h-152v-305h152q82 0 116 74v158q-34 73 -116 73zM920 1157q90 0 168 -49t114 -131v-262q-37 -82 -115 -131t-167 -49h-191v-273h-211v895h402zM817 1341q-258 0 -437 -182t-179 -442q0 -261 179 -443t437 -182t436 182q179 182 179 442t-178 443
q-178 182 -437 182zM817 1464q309 0 531 -218t221 -529q0 -311 -221 -529q-220 -218 -530 -219q-310 0 -531 218q-221 217 -221 529t221 530t530 218z" />
    <glyph glyph-name="trademark" unicode="&#x2122;" horiz-adv-x="1650" 
d="M1559 1434v-799h-187v498h-4l-178 -498h-113l-178 498h-4v-498h-186v799h264l166 -453h4l164 453h252zM639 1434v-158h-197v-641h-198v641h-195v158h590z" />
    <glyph glyph-name="uni2154" unicode="&#x2154;" horiz-adv-x="2142" 
d="M1714 879q110 -1 199 -51q88 -50 117 -107v-184q-31 -51 -127 -91q98 -33 139 -106v-195q-33 -59 -125 -111t-223 -52t-216 45t-120 92v119h180q10 -39 52 -64t102 -24q100 0 133 53v102q-31 57 -131 57h-113v156h111q90 0 125 49v101q-41 45 -133 45t-134 -82h-180v117
q20 26 52 52t107 52t185 27zM1653 1434v-127l-975 -1307h-135v127l977 1307h133zM420 1454q131 0 222 -52t122 -116v-168q-37 -84 -211 -186l-111 -64q-127 -76 -143 -114v-9h471v-172h-684v203q49 102 209 199l125 76q109 66 127 110v72q-33 53 -137 53t-138 -84h-186v113
q29 49 116 94t218 45z" />
    <glyph glyph-name="oneeighth" unicode="&#x215b;" horiz-adv-x="2002" 
d="M1563 375q-100 0 -131 -51v-131q33 -53 131 -53t131 53v131q-31 51 -131 51zM1566 514q87 0 120 43v119q-35 45 -120 45t-126 -45v-119q39 -43 126 -43zM1563 -18q-133 0 -223 51t-126 112v191q39 68 119 110q-61 37 -94 78v221q105 133 321 133t326 -133v-221
q-41 -47 -94 -78q82 -47 117 -110v-191q-33 -61 -123 -112t-223 -51zM1505 1434v-127l-975 -1307h-135v127l977 1307h133zM90 715h143v542l-145 -8v129l180 56h181v-719h137v-142h-496v142z" />
    <glyph glyph-name="threeeighths" unicode="&#x215c;" horiz-adv-x="2060" 
d="M1759 193v131q-12 20 -48 35t-81 16q-100 0 -131 -51v-131q33 -53 131 -54q45 0 81 17t48 37zM1631 514q83 0 122 43v119q-41 45 -122 45t-126 -45v-119q43 -43 126 -43zM1628 -18q-133 0 -223 51t-123 112v191q39 68 119 110q-53 31 -96 78v221q20 27 52 53
q31 26 107 54t166 27q211 0 322 -134v-221q-41 -47 -94 -78q84 -45 118 -110v-191q-35 -61 -125 -112t-223 -51zM1581 1434v-127l-977 -1307h-135v127l977 1307h135zM414 555q-131 0 -216 45t-120 92v119h182q10 -39 51 -63t101 -25q98 0 135 53v103q-35 57 -133 57h-113
v156h111q90 0 125 49v100q-41 45 -133 45t-134 -82h-178v117q47 65 139 98q93 33 205 33t197 -50q86 -50 119 -108v-184q-31 -51 -127 -90q100 -35 137 -107v-194q-33 -59 -125 -111t-223 -53z" />
    <glyph glyph-name="fiveeighths" unicode="&#x215d;" horiz-adv-x="2074" 
d="M1778 193v131q-12 20 -48 35t-81 16q-100 0 -131 -51v-131q33 -53 131 -54q45 0 81 17t48 37zM1650 514q83 0 122 43v119q-41 45 -122 45t-126 -45v-119q43 -43 126 -43zM1647 -18q-133 0 -223 51t-124 112v191q39 68 119 110q-53 31 -96 78v221q20 27 52 53t108 54
t166 27q211 0 321 -134v-221q-41 -47 -94 -78q84 -45 119 -110v-191q-35 -61 -125 -112t-223 -51zM1589 1434v-127l-975 -1307h-135v127l977 1307h133zM410 555q-131 0 -215 45t-119 92v119h182q10 -39 51 -63t101 -25q98 0 135 53v158q-39 55 -126 55t-128 -55h-199v500
h643v-172h-444v-177q76 51 179 51t174 -38q71 -39 97 -90v-316q-33 -47 -117 -92t-214 -45z" />
    <glyph glyph-name="seveneighths" unicode="&#x215e;" horiz-adv-x="1927" 
d="M1510 375q-101 0 -132 -51v-131q33 -53 132 -53t128 53v131q-27 51 -128 51zM1510 514q83 0 122 43v119q-41 45 -122 45t-126 -45v-119q43 -43 126 -43zM1508 -18q-134 0 -223 51t-124 112v191q35 66 119 110q-61 37 -94 78v221q104 133 320 133t327 -133v-221
q-41 -47 -96 -78q84 -47 118 -110v-191q-33 -61 -123 -112t-224 -51zM1434 1434v-127l-975 -1307h-135v127l976 1307h134zM506 1262h-430v172h647v-150l-340 -711h-182v121l305 561v7z" />
    <glyph glyph-name="arrowleft" unicode="&#x2190;" horiz-adv-x="1556" 
d="M842 1434v-185l-428 -411h1142v-244h-1142l428 -410v-184h-203l-639 639v154l639 641h203z" />
    <glyph glyph-name="arrowup" unicode="&#x2191;" horiz-adv-x="1556" 
d="M1495 741h-178l-397 404v-1145h-281v1145l-399 -404h-179v177l641 638h154l639 -638v-177z" />
    <glyph glyph-name="arrowright" unicode="&#x2192;" horiz-adv-x="1556" 
d="M715 0v184l428 410h-1143v244h1143l-428 411v185h203l638 -641v-154l-638 -639h-203z" />
    <glyph glyph-name="arrowdown" unicode="&#x2193;" horiz-adv-x="1556" 
d="M61 692h179l399 -403v1145h281v-1145l397 403h178v-176l-639 -639h-154l-641 639v176z" />
    <glyph glyph-name="partialdiff" unicode="&#x2202;" horiz-adv-x="1148" 
d="M575 741q-71 -1 -119 -29t-69 -73v-336q19 -43 69 -74t118 -31t119 32q50 30 69 73v365q-66 73 -187 73zM575 -31q-195 0 -317 85t-170 194v448q33 106 138 190q104 84 262 83q158 0 274 -82v114q-41 99 -183 189t-307 147l154 166q213 -59 394 -177t241 -259v-819
q-47 -109 -169 -194t-317 -85z" />
    <glyph glyph-name="product" unicode="&#x220f;" horiz-adv-x="1302" 
d="M1184 1434v-1639h-324v1399h-418v-1399h-323v1639h1065z" />
    <glyph glyph-name="summation" unicode="&#x2211;" horiz-adv-x="1132" 
d="M1059 1434v-240h-598l305 -475v-205l-305 -479h598v-240h-985v203l381 618l-381 615v203h985z" />
    <glyph glyph-name="minus" unicode="&#x2212;" horiz-adv-x="1200" 
d="M1130 805v-238h-1058v238h1058z" />
    <glyph glyph-name="radical" unicode="&#x221a;" horiz-adv-x="1214" 
d="M43 885v225h340l219 -745h6l291 1069h266v-160l-385 -1274h-352l-274 885h-111z" />
    <glyph glyph-name="infinity" unicode="&#x221e;" horiz-adv-x="1615" 
d="M1235 590v268q-31 62 -129 62t-133 -62l-58 -143l50 -125q12 -25 53 -43t90 -19q96 1 127 62zM510 528q47 0 88 18t53 44l54 135l-54 133q-12 25 -53 43t-88 19q-98 0 -129 -62v-268q31 -62 129 -62zM1106 1081q137 0 226 -55t120 -131v-340q-29 -76 -119 -132t-227 -56
q-188 0 -295 133q-111 -133 -301 -133q-137 0 -226 56t-120 132v338q31 76 120 132t226 56q190 0 297 -137q106 137 299 137z" />
    <glyph glyph-name="integral" unicode="&#x222b;" horiz-adv-x="872" 
d="M620 1462q136 0 209 -24v-201h-90q-119 0 -153 -74v-1337q-31 -82 -115 -139t-226 -57t-204 24v201h92q115 0 154 71v1340q31 80 113 138q84 58 220 58z" />
    <glyph glyph-name="approxequal" unicode="&#x2248;" horiz-adv-x="1200" 
d="M364 641q90 0 270 -52t252 -52q74 1 132 23t84 44l28 23v-260q-86 -70 -211 -70t-301 52t-259 52q-83 -1 -153 -27t-104 -50l-32 -27v250q41 34 122 64q82 30 172 30zM364 1081q90 0 270 -52t252 -52q74 1 132 23t84 44l28 23v-262q-86 -70 -211 -70t-301 52
q-176 53 -259 53t-153 -27t-104 -51l-32 -27v252q43 36 124 65q80 29 170 29z" />
    <glyph glyph-name="notequal" unicode="&#x2260;" horiz-adv-x="1200" 
d="M1130 786h-370l-76 -200h446v-238h-538l-76 -194h-242l76 194h-278v238h368l78 200h-446v238h538l74 190h242l-74 -190h278v-238z" />
    <glyph glyph-name="lessequal" unicode="&#x2264;" horiz-adv-x="1200" 
d="M1130 274v-239h-1058v239h1058zM1130 1214v-163l-677 -258l677 -248v-164h-219l-839 309v158l839 366h219z" />
    <glyph glyph-name="greaterequal" unicode="&#x2265;" horiz-adv-x="1200" 
d="M1130 274v-239h-1058v239h1058zM72 381v164l671 248l-671 258v163h217l841 -366v-158l-841 -309h-217z" />
    <glyph glyph-name="lozenge" unicode="&#x25ca;" horiz-adv-x="1228" 
d="M621 1110l-220 -393l220 -393l217 393zM782 1434l383 -717l-383 -717h-325l-383 717l383 717h325z" />
    <glyph glyph-name="uniE000" unicode="&#xe000;" horiz-adv-x="2123" 
d="M1657 375q-100 0 -131 -51v-131q33 -53 131 -53t131 53v131q-31 51 -131 51zM1660 514q87 0 120 43v119q-35 45 -120 45t-126 -45v-119q39 -43 126 -43zM1657 -18q-133 0 -223 51t-125 112v191q39 68 118 110q-61 37 -94 78v221q105 133 321 133t326 -133v-221
q-41 -47 -94 -78q82 -47 117 -110v-191q-33 -61 -123 -112t-223 -51zM451 971q-87 0 -144 -35v-172q33 -53 131 -53t131 53v156q-31 51 -118 51zM1599 1434v-127l-974 -1307h-136v127l977 1307h133zM435 555q-132 0 -221 51t-124 113v569q35 60 124 112t221 52t219 -46
t114 -91v-109h-186q-30 82 -136 82t-139 -53v-174q83 57 187 57t175 -37t99 -90v-299q-33 -47 -117 -92t-216 -45z" />
    <glyph glyph-name="uniE001" unicode="&#xe001;" horiz-adv-x="2592" 
d="M2191 397q-88 0 -145 -35v-172q12 -20 48 -36t82 -16t82 16t48 36v156q-27 51 -115 51zM1589 860v-719h135v-141h-495v141h143v543l-143 -8v129l180 55h180zM2182 715q-108 0 -136 -53v-175q82 57 186 57t175 -36q71 -37 100 -90v-299q-33 -47 -117 -92t-216 -45t-221 51
t-124 112v570q35 61 124 112t221 51t219 -45q87 -46 114 -92v-108h-187q-30 82 -138 82zM1462 1434v-127l-975 -1307h-135v127l975 1307h135zM80 715h141v542l-143 -8v129l180 56h180v-719h135v-142h-493v142z" />
    <glyph glyph-name="NULL" horiz-adv-x="0" 
 />
    <glyph glyph-name="acute.case" 
d="M664 1858v-129l-166 -199h-215v31l108 297h273z" />
    <glyph glyph-name="breve.case" 
d="M821 1819v-123q-88 -182 -350 -183q-133 1 -223 51t-129 132v123h219v-78q31 -68 132 -68t132 68v78h219z" />
    <glyph glyph-name="caron.alt" 
d="M612 1434v-154l-98 -274h-180v30l41 398h237z" />
    <glyph glyph-name="caron.case" 
d="M825 1858v-33l-161 -295h-385l-164 295v33h213l143 -197l141 197h213z" />
    <glyph glyph-name="circumflex.case" 
d="M825 1530h-213l-141 194l-143 -194h-213v31l164 297h385l161 -297v-31z" />
    <glyph glyph-name="dieresis.case" 
d="M697 1821q97 0 143 -58v-166q-46 -59 -142 -59t-149 59v166q51 58 148 58zM253 1821q97 0 142 -58v-166q-47 -59 -142 -59t-149 59v166q52 58 149 58z" />
    <glyph glyph-name="dotaccent.case" 
d="M472 1839q124 0 159 -82v-127q-33 -82 -159 -82t-163 82v127q39 82 163 82z" />
    <glyph glyph-name="eight.sups" horiz-adv-x="870" 
d="M434 948q-100 0 -131 -51v-131q33 -53 131 -53t131 53v131q-31 51 -131 51zM437 1087q87 0 120 43v119q-35 45 -120 45t-126 -45v-119q39 -43 126 -43zM434 555q-133 0 -223 51t-123 113v190q35 66 119 111q-53 31 -96 78v221q20 27 52 53q33 26 107 52q74 28 164 28
q213 0 324 -133v-221q-41 -47 -94 -78q80 -43 118 -111v-190q-35 -61 -125 -113t-223 -51z" />
    <glyph glyph-name="eight.tf" horiz-adv-x="1187" 
d="M601 205q77 1 131 33t77 75v209q-41 74 -188 111l-46 10q-75 -16 -123 -53t-59 -68v-209q19 -41 75 -75t133 -33zM600 1229q-125 0 -182 -88v-174q35 -57 147 -86l62 -17q125 35 155 103v174q-57 88 -182 88zM267 54q-126 85 -183 190v352q43 88 188 152
q-100 57 -153 145v332q53 90 174 165q121 74 307 74t307 -74t174 -165v-332q-42 -74 -153 -127q127 -61 188 -170v-352q-41 -85 -165 -180t-341 -95t-343 85z" />
    <glyph glyph-name="five.sups" horiz-adv-x="843" 
d="M748 1434v-172h-445v-177q76 51 178 51t175 -38q73 -39 98 -90v-316q-33 -47 -118 -92t-215 -45t-214 45t-119 92v119h180q12 -39 54 -63t100 -25q100 0 133 53v158q-35 55 -123 55t-129 -55h-199v500h644z" />
    <glyph glyph-name="five.tf" horiz-adv-x="1187" 
d="M1069 1434v-250h-657v-348q113 92 265 92q151 0 257 -67t145 -154v-500q-49 -84 -171 -161t-312 -77t-315 76t-175 162v162h273q13 -68 71 -115t137 -47t132 31t74 73v289q-23 45 -76 77t-121 32q-119 0 -184 -88h-285v813h942z" />
    <glyph glyph-name="four.sups" horiz-adv-x="888" 
d="M518 1249h-6l-242 -342h248v342zM725 1434v-527h106v-159h-106v-175h-207v175h-455v153l375 533h287z" />
    <glyph glyph-name="four.tf" horiz-adv-x="1187" 
d="M702 1157h-6l-362 -616h368v616zM999 1434v-893h160v-236h-160v-305h-297v305h-661v227l532 902h426z" />
    <glyph glyph-name="grave.case" 
d="M659 1530h-215l-163 199v129h266l112 -297v-31z" />
    <glyph glyph-name="hungarumlaut.case" 
d="M829 1855v-104l-116 -221h-193v31l78 294h231zM430 1855v-104l-115 -221h-194v31l78 294h231z" />
    <glyph glyph-name="i.TRK" horiz-adv-x="516" 
d="M408 1110v-1110h-299v1110h299zM257 1526q122 0 161 -82v-127q-39 -82 -161 -82t-161 82v127q39 82 161 82z" />
    <glyph glyph-name="macron.case" 
d="M823 1757v-201h-704v201h704z" />
    <glyph glyph-name="nine.sups" horiz-adv-x="866" 
d="M408 1022q86 0 145 37v184q-12 21 -48 37t-82 16t-82 -16t-48 -37v-168q29 -53 115 -53zM425 1452q132 0 221 -51t124 -113v-569q-35 -61 -124 -113t-221 -51q-132 0 -219 47t-114 92v107h187q31 -80 138 -80t136 53v156q-83 -56 -187 -56t-175 37t-99 90v314
q31 47 116 92t217 45z" />
    <glyph glyph-name="nine.tf" horiz-adv-x="1187" 
d="M604 729q92 0 176 68v325q-20 45 -74 75t-124 30t-124 -31t-73 -74v-291q19 -43 73 -73t146 -29zM584 1464q192 0 326 -86q132 -86 180 -188v-948q-48 -104 -180 -188t-325 -85q-193 0 -315 76t-172 160v162h271q14 -76 69 -119q54 -43 134 -43t134 31t74 75v291
q-124 -94 -280 -94t-258 66t-144 155v498q46 81 170 159t316 78z" />
    <glyph glyph-name="one.sups" horiz-adv-x="647" 
d="M444 1434v-719h136v-142h-496v142h143v542l-143 -8v129l180 56h180z" />
    <glyph glyph-name="one.tf" horiz-adv-x="1187" 
d="M784 1434v-1205h308v-229h-949v229h330v891l-330 -141v233l414 222h227z" />
    <glyph glyph-name="ring.case" 
d="M470 1716q-87 0 -116 -49v-104q29 -49 116 -49t116 49v104q-29 49 -116 49zM471 1837q88 0 157 -36t99 -93v-188q-31 -56 -99 -92t-157 -36q-88 0 -157 36q-69 34 -99 92v188q31 57 99 93t157 36z" />
    <glyph glyph-name="seven.sups" horiz-adv-x="765" 
d="M702 1434v-150l-340 -711h-184v121l305 561v7h-428v172h647z" />
    <glyph glyph-name="seven.tf" horiz-adv-x="1187" 
d="M1075 1434v-226l-528 -1208h-264v180l483 1006h-649v248h958z" />
    <glyph glyph-name="six.sups" horiz-adv-x="868" 
d="M457 971q-87 0 -144 -35v-172q33 -53 131 -53t131 53v156q-31 51 -118 51zM452 1288q-106 0 -139 -53v-174q83 57 187 57t175 -37t99 -90v-299q-33 -47 -117 -92t-216 -45t-221 51t-124 113v569q35 60 124 112t221 52t219 -46t114 -91v-109h-186q-30 82 -136 82z" />
    <glyph glyph-name="six.tf" horiz-adv-x="1187" 
d="M590 686q-90 0 -176 -68v-307q20 -45 74 -75t124 -29q70 0 124 31t73 73v273q-17 42 -73 72t-146 30zM621 1229q-79 0 -133 -31t-74 -76v-311q124 96 280 96q156 1 258 -65t144 -156v-479q-45 -82 -169 -160t-317 -78q-194 0 -326 86t-180 189v948q48 104 180 188t325 84
t315 -76t172 -159v-162h-271q-14 76 -69 119q-56 43 -135 43z" />
    <glyph glyph-name="three.sups" horiz-adv-x="862" 
d="M440 1452q110 0 197 -50q86 -50 119 -108v-184q-31 -51 -127 -90q98 -33 139 -107v-194q-33 -59 -125 -111t-223 -53q-131 0 -218 46t-118 91v119h180q10 -39 52 -63t94 -25q52 0 91 16q38 16 50 37v103q-31 57 -131 57h-115v156h111q92 0 127 49v100q-41 45 -135 45
t-132 -82h-180v117q20 27 52 53t107 52t185 26z" />
    <glyph glyph-name="three.tf" horiz-adv-x="1187" 
d="M570 1464q188 0 316 -82t177 -176v-301q-53 -90 -203 -155q158 -70 217 -191v-315q-49 -102 -180 -188t-325 -87q-194 0 -321 79q-128 79 -171 159v162h272q16 -74 74 -118t137 -44q78 0 131 30t74 74v197q-18 51 -72 85t-125 34h-174v225h164q68 0 119 31t72 67v187
q-49 92 -183 92q-88 0 -139 -44t-63 -104h-273v162q45 73 166 147t310 74z" />
    <glyph glyph-name="tilde.case" 
d="M312 1819q74 0 124 -26q49 -25 86 -51t68 -26q57 0 67 51v41h177v-120q-14 -66 -72 -112t-134 -46q-78 0 -126 26t-84 51q-35 26 -66 25q-53 0 -69 -51v-41h-174v119q14 68 71 114q58 46 132 46z" />
    <glyph glyph-name="two.sups" horiz-adv-x="856" 
d="M422 1454q131 0 222 -52t120 -116v-168q-20 -47 -66 -87t-145 -99l-111 -64q-125 -78 -141 -114v-9h471v-172h-684v203q49 102 209 199l125 76q109 66 127 110v72q-37 53 -113 53q-129 0 -162 -84h-186v113q29 49 116 94t218 45z" />
    <glyph glyph-name="two.tf" horiz-adv-x="1187" 
d="M582 1464q192 0 324 -85t179 -187v-305q-29 -74 -90 -133t-213 -154l-157 -94q-190 -115 -222 -184v-74h691v-248h-1000v391q37 81 106 145t206 148l176 107q172 102 194 178v155q-23 43 -75 74t-121 31q-180 0 -213 -162h-273v162q52 83 174 159t314 76z" />
    <glyph glyph-name="uni0326.alt" horiz-adv-x="0" 
d="M-471 1470q61 0 103 -24.5t57 -56.5v-101q-14 -31 -56.5 -55.5t-103.5 -24.5t-103 24.5t-57 55.5v254q14 43 71.5 79t143.5 36h76v-113h-45q-78 0 -92 -26v-48h6z" />
    <glyph glyph-name="zero.sups" horiz-adv-x="888" 
d="M444 1290q-98 0 -131 -53v-467q33 -53 131 -53t131 53v467q-33 53 -131 53zM443 1452q133 0 223 -51t125 -113v-569q-35 -61 -125 -113t-222 -51q-132 0 -223 51q-90 51 -125 113v569q35 60 125 112t222 52z" />
    <glyph glyph-name="zero.tf" horiz-adv-x="1187" 
d="M594 1229q-70 0 -123 -32t-74 -75v-811q19 -43 73 -73t125 -31q71 0 125 31t73 73v811q-21 45 -75 76t-124 31zM595 1464q196 0 328 -85t179 -187v-948q-47 -104 -178 -190t-328 -85q-197 0 -330 86t-180 189v948q47 102 180 187t329 85z" />
    </font>
</defs>
</svg>
