<?xml version="1.0" standalone="no"?>
<!DOCTYPE svg PUBLIC "-//W3C//DTD SVG 1.1//EN" "http://www.w3.org/Graphics/SVG/1.1/DTD/svg11.dtd" >
<svg xmlns="http://www.w3.org/2000/svg">
<metadata>
Created by FontPrep 20130207 at Fri Sep  2 18:18:59 2016
 By MkTyrtle
Copyright (c) 2015 by Fontsmith Ltd. All rights reserved.
</metadata>
<defs>
<font id="8c6fbbda4d224bf901dd4bec78e46a3d" horiz-adv-x='1024' >
  <font-face 
    font-family="CadillacSerif-Bold"
    font-weight="700"
    font-stretch="normal"
    units-per-em="2048"
    panose-1="2 0 8 3 8 0 0 2 0 4"
    ascent="1434"
    descent="-614"
    x-height="909"
    cap-height="1280"
    bbox="-375 -649 2681 2089"
    underline-thickness="102"
    underline-position="-102"
    unicode-range="U+000D-FB06"
  />
<missing-glyph horiz-adv-x="1095" 
d="M143 1227v-1034l344 518zM203 102h690l-344 516zM608 711l346 -518v1034zM549 801l344 518h-690zM41 0v1419h1014v-1419h-1014z" />
    <glyph glyph-name="f_f" unicode="ff" horiz-adv-x="1400" 
d="M487 967v-58h353v23q0 68 10 123q-10 10 -46 56t-58 69q-22 24 -58 46t-72 21q-72 1 -100 -69t-29 -211zM487 799v-623q0 -46 26 -68t93 -42v-66q-190 6 -290 6t-246 -6v66l98 38v695h-135v110h135q2 211 126 334t332 123t326 -100q115 127 318 127q123 0 217 -45
q94 -44 94 -112t-43 -120t-85 -51q-69 0 -118 104q-48 105 -98 105q-45 0 -61 -67t-17 -228v-70h213l-22 -110h-191v-623q0 -46 26 -68t93 -42v-66q-190 6 -290 6t-247 -6v66l99 38v695h-353z" />
    <glyph glyph-name="fi" unicode="fi" horiz-adv-x="1314" 
d="M487 909h349q197 0 331 23v-756q1 -47 19 -67t78 -43v-66q-190 6 -278 6t-236 -6v66l98 38v664q0 18 -6 24t-27 7h-328v-623q0 -46 26 -68t93 -42v-66q-190 6 -290 6t-246 -6v66l98 38v695h-135v110h135v29q0 211 136 333t360 122q156 -1 282 -55t125 -138
q0 -57 -45 -107q-45 -51 -89 -51q-75 -1 -144 116q-27 44 -70 80t-88 36q-147 0 -148 -281v-84z" />
    <glyph glyph-name="fl" unicode="fl" horiz-adv-x="1302" 
d="M487 993v-84h213l-22 -110h-191v-623q0 -46 26 -68t93 -42v-66q-190 6 -290 6t-246 -6v66l98 38v695h-135v110h135q0 231 118 357t361 127q84 0 235 -25t201 -25t74 5v-1172q1 -47 19 -67t77 -43v-66q-191 6 -279 6t-235 -6v66l99 38v1110q-76 52 -167 52
q-184 2 -184 -273z" />
    <glyph glyph-name="f_f_i" unicode="ffi" horiz-adv-x="1988" 
d="M1161 993v-84h348q197 0 332 23v-756q1 -47 19 -67t77 -43v-66q-191 6 -279 6t-235 -6v66l99 38v664q0 18 -8 24t-25 7h-328v-623q0 -46 26 -68t93 -42v-66q-190 6 -290 6t-247 -6v66l99 38v695h-355v-623q0 -46 26 -68t93 -42v-66q-190 6 -290 6t-246 -6v66l98 38v695
h-135v110h135q2 211 127 334t327 123t339 -104q127 131 376 131q156 -1 282 -55t126 -138q0 -57 -45 -107q-45 -51 -89 -51t-81 36t-64 80t-69 80q-43 36 -88 36q-148 0 -148 -281zM487 967v-58h353v23q0 68 10 123q-10 10 -46 56t-58 69q-22 24 -58 46t-72 21
q-72 1 -100 -69t-29 -211z" />
    <glyph glyph-name="f_f_l" unicode="ffl" horiz-adv-x="1974" 
d="M487 967v-58h353v23q0 68 10 123q-10 10 -46 56t-58 69q-22 24 -58 46t-72 21q-72 1 -100 -69t-29 -211zM627 1366q209 0 327 -102q123 129 365 129q85 0 235 -25t200 -25t75 5v-1172q0 -47 18 -67t78 -43v-66q-191 6 -279 6t-235 -6v66l98 38v1110q-77 52 -167 52
q-184 1 -183 -273v-84h213l-22 -110h-191v-623q0 -46 26 -68t93 -42v-66q-190 6 -290 6t-247 -6v66l99 38v695h-353v-623q0 -46 26 -68t93 -42v-66q-190 6 -290 6t-246 -6v66l98 38v695h-135v110h135q2 211 126 334t333 123z" />
    <glyph glyph-name="f_j" unicode="fj" horiz-adv-x="1277" 
d="M487 993v-84h334q197 0 332 23v-926q0 -459 -479 -485l-15 88q92 29 134 102q41 74 41 221v836q0 18 -8 24t-25 7h-314v-623q0 -46 26 -68t93 -42v-66q-190 6 -290 6t-246 -6v66l98 38v695h-135v110h135v23q0 221 130 341t366 120q156 -1 282 -55t125 -138
q0 -57 -45 -107q-45 -51 -89 -51q-75 -1 -144 116q-27 44 -70 80t-88 36q-148 0 -148 -281z" />
    <glyph glyph-name="f_f_j" unicode="ffj" horiz-adv-x="1951" 
d="M1161 993v-84h334q197 0 332 23v-926q0 -459 -479 -485l-15 88q92 29 133 103t41 220v836q0 18 -6 24t-26 7h-314v-623q0 -46 26 -68t93 -42v-66q-190 6 -290 6t-247 -6v66l99 38v695h-355v-623q0 -46 26 -68t93 -42v-66q-190 6 -290 6t-246 -6v66l98 38v695h-135v110
h135q2 211 127 334t327 123t339 -104q127 131 376 131q156 -1 282 -55t126 -138q0 -57 -45 -107q-45 -51 -89 -51t-81 36t-64 80t-69 80q-43 36 -88 36q-148 0 -148 -281zM487 967v-58h353v23q0 68 10 123q-10 10 -46 56t-58 69q-22 24 -58 46t-72 21q-72 1 -100 -69
t-29 -211z" />
    <glyph glyph-name="f_b" unicode="fb" horiz-adv-x="1802" 
d="M1419 461q0 328 -143 327q-78 0 -139 -65v-584q49 -49 114 -49q168 0 168 371zM666 1266q-178 0 -179 -273v-84h213l-22 -110h-191v-623q0 -46 26 -68t93 -42v-66q-190 6 -290 6t-246 -6v66l98 38v695h-135v110h135q0 231 118 357t361 127q95 0 231 -25t185 -25t74 5
v-502q96 96 235 96q178 0 276 -132t99 -360q0 -228 -135 -355t-373 -127t-422 100v1159q-65 39 -151 39z" />
    <glyph glyph-name="f_f_b" unicode="ffb" horiz-adv-x="2473" 
d="M487 967v-58h353v23q0 68 10 123q-10 10 -46 56t-58 69q-22 24 -58 46t-72 21q-72 1 -100 -69t-29 -211zM2091 461q0 328 -143 327q-78 0 -140 -65v-584q49 -49 115 -49q168 0 168 371zM1338 1266q-179 0 -179 -273v-84h213l-22 -110h-191v-623q0 -46 26 -68t93 -42v-66
q-190 6 -290 6t-247 -6v66l99 38v695h-353v-623q0 -46 26 -68t93 -42v-66q-190 6 -290 6t-246 -6v66l98 38v695h-135v110h135q2 211 126 334t333 123t327 -102q123 129 365 129q96 0 231 -25q134 -25 184 -25t74 5v-502q96 96 236 96q178 0 276 -132t98 -360t-134 -355
q-135 -128 -373 -128t-422 101v1159q-65 39 -151 39z" />
    <glyph glyph-name="f_h" unicode="fh" horiz-adv-x="1865" 
d="M1413 616q0 148 -94 148q-88 0 -162 -92v-496q-1 -46 17 -68t77 -42v-66q-189 6 -277 6t-235 -6v66l99 38v1110q-76 52 -167 52q-184 1 -184 -273v-84h213l-22 -110h-191v-623q0 -46 26 -68t93 -42v-66q-190 6 -290 6t-246 -6v66l98 38v695h-135v110h135q0 231 118 357
t361 127q84 0 235 -25t201 -25t74 5v-545q123 139 301 139q131 0 203 -84t72 -248v-434q0 -46 17 -68t77 -42v-66q-189 6 -277 6t-235 -6v66l98 38v512z" />
    <glyph glyph-name="f_f_h" unicode="ffh" horiz-adv-x="2537" 
d="M487 967v-58h353v23q0 68 10 123q-10 10 -46 56t-58 69q-22 24 -58 46t-72 21q-72 1 -100 -69t-29 -211zM2085 616q0 148 -94 148q-88 0 -162 -92v-496q0 -46 17 -68t77 -42v-66q-189 6 -277 6t-235 -6v66l98 38v1110q-77 52 -167 52q-184 1 -183 -273v-84h213l-22 -110
h-191v-623q0 -46 26 -68t93 -42v-66q-190 6 -290 6t-247 -6v66l99 38v695h-353v-623q0 -46 26 -68t93 -42v-66q-190 6 -290 6t-246 -6v66l98 38v695h-135v110h135q2 211 126 334t333 123t327 -102q123 129 365 129q85 0 235 -25t200 -25t75 5v-545q123 139 301 139
q131 0 203 -84t71 -248v-434q0 -46 18 -68t77 -42v-66q-189 6 -277 6t-235 -6v66l98 38v512z" />
    <glyph glyph-name="f_k" unicode="fk" horiz-adv-x="1828" 
d="M487 993v-84h213l-22 -110h-191v-623q0 -46 26 -68t93 -42v-66q-190 6 -290 6t-246 -6v66l98 38v695h-135v110h135q0 231 118 357t361 127q84 0 235 -25t201 -25t74 5v-797l316 262l-97 31v65q86 -4 210 -4t222 4v-65q-72 -6 -120 -28t-121 -77l-127 -100l221 -422
q37 -69 73 -101t103 -50v-66h-244q-94 0 -145 35t-96 121l-150 293l-45 -37v-236q1 -47 19 -67t77 -43v-66q-191 6 -279 6t-235 -6v66l99 38v1110q-76 52 -167 52q-184 2 -184 -273z" />
    <glyph glyph-name="f_f_k" unicode="ffk" horiz-adv-x="2500" 
d="M487 967v-58h353v23q0 68 10 123q-10 10 -46 56t-58 69q-22 24 -58 46t-72 21q-72 1 -100 -69t-29 -211zM1159 993v-84h213l-22 -110h-191v-623q0 -46 26 -68t93 -42v-66q-190 6 -290 6t-247 -6v66l99 38v695h-353v-623q0 -46 26 -68t93 -42v-66q-190 6 -290 6t-246 -6
v66l98 38v695h-135v110h135q2 211 126 334t333 123t327 -102q123 129 365 129q85 0 235 -25t200 -25t75 5v-797l315 262l-96 31v65q86 -4 210 -4t222 4v-65q-72 -6 -121 -28t-121 -77l-127 -100l222 -422q37 -69 73 -101t103 -50v-66h-244q-94 0 -145 35t-97 121l-149 293
l-45 -37v-236q0 -47 18 -67t78 -43v-66q-191 6 -279 6t-235 -6v66l98 38v1110q-77 52 -167 52q-184 2 -183 -273z" />
    <glyph glyph-name="f_t" unicode="ft" horiz-adv-x="1431" 
d="M1098 -33q-277 0 -277 324v508h-334v-623q0 -46 26 -68t93 -42v-66q-190 6 -290 6t-246 -6v66l98 38v695h-135v110h135v23q0 209 114 335t316 126q123 0 217 -45q94 -44 94 -112t-43 -120t-85 -51q-68 0 -117 104q-48 105 -99 105q-45 0 -61 -67t-17 -228v-70h306
q35 0 73 25l254 158l21 -9v-174h213l-23 -110h-190v-561q0 -98 67 -98t140 73l67 -68q-113 -178 -317 -178z" />
    <glyph glyph-name="f_f_t" unicode="fft" horiz-adv-x="2103" 
d="M487 967v-58h353v23q0 68 10 123q-10 10 -46 56t-58 69q-22 24 -58 46t-72 21q-72 1 -100 -69t-29 -211zM1769 -33q-276 0 -276 324v508h-334v-623q0 -46 26 -68t93 -42v-66q-190 6 -290 6t-247 -6v66l99 38v695h-353v-623q0 -46 26 -68t93 -42v-66q-190 6 -290 6
t-246 -6v66l98 38v695h-135v110h135q2 211 126 334t332 123t326 -100q115 127 318 127q123 0 217 -45q94 -44 94 -112t-43 -120t-85 -51q-69 0 -118 104q-48 105 -98 105q-45 0 -61 -67t-17 -228v-70h305q35 0 74 25l254 158l20 -9v-174h213l-22 -110h-191v-561
q0 -98 68 -98t139 73l68 -68q-113 -178 -318 -178z" />
    <glyph glyph-name="t_t" unicode="tt" horiz-adv-x="1454" 
d="M1120 -33q-278 0 -276 324v508h-373v-561q-1 -98 67 -98t140 73l67 -68q-113 -178 -317 -178q-278 0 -276 324v508h-136v110h136v189l319 71v-260h373v189l319 71v-260h213l-22 -110h-191v-561q-1 -98 67 -98t140 73l68 -68q-113 -178 -318 -178z" />
    <glyph glyph-name="T_h" unicode="Th" horiz-adv-x="2267" 
d="M1239 1090q0 43 -18 58t-68 15h-350v-948q-1 -67 21 -93t110 -50v-72q-202 6 -312 6t-282 -6v72l125 39v1052h-86q-123 0 -172 -48t-74 -197h-96q12 215 12 362h1129q74 0 138 17t224 81l19 -14v-561q123 139 301 139q130 0 202 -84t72 -248v-434q0 -46 17 -68t77 -42
v-66q-190 6 -278 6t-234 -6v66l99 38v512q0 92 -28 120t-67 28q-88 0 -161 -92v-496q0 -46 17 -68t77 -42v-66q-189 6 -277 6t-235 -6v66l98 38v986z" />
    <glyph glyph-name="T_T" unicode="TT" horiz-adv-x="2234" 
d="M1432 1163h-629v-948q-1 -67 21 -93t110 -50v-72q-202 6 -312 6t-282 -6v72l125 39v1052h-86q-123 0 -172 -48t-74 -197h-96q12 215 12 362h2136q0 -147 13 -362h-97q-25 150 -73 198t-173 47h-86v-948q0 -67 22 -93t110 -50v-72q-203 6 -313 6t-281 -6v72l125 39v1052z
" />
    <glyph glyph-name="K_A" unicode="KA" horiz-adv-x="2686" 
d="M1880 928l-156 -436h322zM532 215q0 -67 22 -93t110 -50v-72q-202 6 -312 6t-282 -6v72l125 39v954q0 67 -22 93t-110 50v72q203 -6 313 -6t281 6v-72l-125 -39v-505l439 510l-119 34v72l254 -8q20 0 217 8v-74q-97 -12 -151 -40t-119 -103l-195 -223l330 -602
q51 -92 87 -126t78 -34t68 10l443 1192h221l412 -1051q31 -77 65 -107t119 -50v-72q-215 6 -287 6t-330 -6v72l125 39l-100 264h-408l-67 -193q-12 -34 -12 -54t24 -33t88 -23v-72l-385 2l-409 -2q-2 78 -72 205l-209 385l-107 -121v-254z" />
    <glyph glyph-name="R_A" unicode="RA" horiz-adv-x="2615" 
d="M1808 928l-155 -436h321zM532 1165v-514h33q115 0 181 69q66 70 65 198q0 128 -67 188t-199 59h-13zM551 545h-19v-330q0 -67 22 -93t110 -50v-72q-202 6 -312 6t-282 -6v72l125 39v954q0 67 -22 93t-110 50v72h521q346 0 479 -111q98 -82 98 -218q-1 -136 -73 -219
t-201 -114q76 -22 119 -64t73 -132l66 -191q29 -85 57 -119t71 -34q42 0 79 14l440 1188h221l412 -1051q31 -77 65 -107t119 -50v-72q-215 6 -287 6t-329 -6v72l125 39l-101 264h-407l-68 -193q-12 -34 -12 -54t23 -33t89 -23v-72l-389 2l-409 -2q0 98 -39 215l-55 166
q-35 102 -72 133t-127 31z" />
    <glyph glyph-name="Tcaron_h" unicode="&#x164;h" horiz-adv-x="2267" 
d="M715 1384h-164l-213 263l45 43l250 -156l250 156l45 -43zM1239 1090q0 43 -18 58t-68 15h-350v-948q-1 -67 21 -93t110 -50v-72q-202 6 -312 6t-282 -6v72l125 39v1052h-86q-123 0 -172 -48t-74 -197h-96q12 215 12 362h1129q74 0 138 17t224 81l19 -14v-561
q123 139 301 139q130 0 202 -84t72 -248v-434q0 -46 17 -68t77 -42v-66q-190 6 -278 6t-234 -6v66l99 38v512q0 92 -28 120t-67 28q-88 0 -161 -92v-496q0 -46 17 -68t77 -42v-66q-189 6 -277 6t-235 -6v66l98 38v986z" />
    <glyph glyph-name="Tcommaaccent_h" unicode="&#x162;h" horiz-adv-x="2267" 
d="M642 -102q64 0 108 -50q43 -50 43 -140q-1 -89 -63 -189t-177 -168l-37 53q125 121 125 197q0 31 -33 57q-34 26 -66 56t-32 75t34 77t98 32zM1239 1090q0 43 -18 58t-68 15h-350v-948q-1 -67 21 -93t110 -50v-72q-202 6 -312 6t-282 -6v72l125 39v1052h-86
q-123 0 -172 -48t-74 -197h-96q12 215 12 362h1129q74 0 138 17t224 81l19 -14v-561q123 139 301 139q130 0 202 -84t72 -248v-434q0 -46 17 -68t77 -42v-66q-190 6 -278 6t-234 -6v66l99 38v512q0 92 -28 120t-67 28q-88 0 -161 -92v-496q0 -46 17 -68t77 -42v-66
q-189 6 -277 6t-235 -6v66l98 38v986z" />
    <glyph glyph-name="uni021A_h" unicode="&#x21a;h" horiz-adv-x="2267" 
d="M642 -102q64 0 108 -50q43 -50 43 -140q-1 -89 -63 -189t-177 -168l-37 53q125 121 125 197q0 31 -33 57q-34 26 -66 56t-32 75t34 77t98 32zM1239 1090q0 43 -18 58t-68 15h-350v-948q-1 -67 21 -93t110 -50v-72q-202 6 -312 6t-282 -6v72l125 39v1052h-86
q-123 0 -172 -48t-74 -197h-96q12 215 12 362h1129q74 0 138 17t224 81l19 -14v-561q123 139 301 139q130 0 202 -84t72 -248v-434q0 -46 17 -68t77 -42v-66q-190 6 -278 6t-234 -6v66l99 38v512q0 92 -28 120t-67 28q-88 0 -161 -92v-496q0 -46 17 -68t77 -42v-66
q-189 6 -277 6t-235 -6v66l98 38v986z" />
    <glyph glyph-name=".notdef" horiz-adv-x="1095" 
d="M143 1227v-1034l344 518zM203 102h690l-344 516zM608 711l346 -518v1034zM549 801l344 518h-690zM41 0v1419h1014v-1419h-1014z" />
    <glyph glyph-name=".null" horiz-adv-x="0" 
 />
    <glyph glyph-name=".null" horiz-adv-x="0" 
 />
    <glyph glyph-name="nonmarkingreturn" horiz-adv-x="681" 
 />
    <glyph glyph-name="CR" unicode="&#xd;" horiz-adv-x="335" 
 />
    <glyph glyph-name="space" unicode=" " horiz-adv-x="335" 
 />
    <glyph glyph-name="exclam" unicode="!" horiz-adv-x="581" 
d="M459 1108q0 -96 -53 -333t-64 -363h-102q-10 128 -64 364t-53 332q0 96 44 149t124 53t124 -52q44 -54 44 -150zM129 126q0 67 46 114t113 47q68 0 114 -47t46 -114t-46 -113q-48 -46 -114 -46t-113 46q-46 46 -46 113z" />
    <glyph glyph-name="quotedbl" unicode="&#x22;" horiz-adv-x="747" 
d="M420 1159q0 152 129 152t129 -152q0 -53 -38 -195t-44 -196h-94q-6 54 -44 196t-38 195zM70 1159q0 152 129 152t129 -152q0 -53 -38 -195t-44 -196h-94q-6 54 -44 196t-38 195z" />
    <glyph glyph-name="numbersign" unicode="#" 
d="M596 369h-184l-86 -402h-185l88 402h-186l37 168h184l47 211h-186l35 165h186l86 398h184l-86 -398h185l86 398h184l-88 -398h186l-36 -168h-185l-47 -210h186l-34 -166h-187l-86 -402h-184zM449 537h184l45 211h-184z" />
    <glyph glyph-name="dollar" unicode="$" 
d="M719 279q0 98 -131 176v-344q131 37 131 168zM422 1018q0 -100 137 -178v336q-63 -14 -100 -56t-37 -102zM141 920q0 158 112 268t306 121v194h90v-198q141 -15 227 -99t99 -221l-113 -20q-31 195 -213 215v-385q214 -104 283 -197t68 -232q-1 -138 -102 -258t-310 -139
v-217h-90v217q-135 6 -238 90q-102 84 -123 244l113 23q18 -100 87 -162t161 -64v402l-74 37t-66 38t-70 47q-89 79 -104 116q-43 99 -43 180z" />
    <glyph glyph-name="percent" unicode="%" horiz-adv-x="1638" 
d="M1272 1290l-789 -1323h-127l789 1323h127zM477 903q0 160 -18 230t-62 69q-43 0 -61 -70t-18 -229t18 -229t61 -70t61 70t19 229zM713 903q0 -176 -87 -281q-86 -106 -228 -106t-229 106t-87 281t87 281t228 106t229 -105q87 -106 87 -282zM1321 373q0 159 -18 229
q-17 70 -61 70t-62 -70t-18 -230t18 -229q18 -70 61 -69q43 0 61 70t19 229zM1556 373q0 -175 -87 -281t-228 -106t-228 105t-87 281t87 282t228 106t228 -106t87 -281z" />
    <glyph glyph-name="ampersand" unicode="&#x26;" horiz-adv-x="1492" 
d="M754 1040q0 66 -35 108t-92 42t-95 -38t-36 -93q0 -55 28 -103t99 -131q131 100 131 215zM365 416q-1 -120 77 -199q78 -80 190 -80t199 53l-376 414q-90 -68 -90 -188zM1179 -31q-134 0 -251 121q-152 -123 -374 -123t-363 108q-140 108 -140 273q0 242 309 352
q-122 143 -122 285t113 234q114 92 259 92q144 0 240 -81t96 -190q0 -174 -235 -307l313 -338q41 98 61 223l-129 54v71q94 -8 196 -8t200 8v-71q-88 -16 -118 -43t-56 -125t-72 -199l88 -90q57 -59 91 -77t75 -19q41 0 96 20v-86q-143 -84 -277 -84z" />
    <glyph glyph-name="quotesingle" unicode="'" horiz-adv-x="397" 
d="M70 1159q0 152 129 152t129 -152q0 -53 -38 -195t-44 -196h-94q-6 54 -44 196t-38 195z" />
    <glyph glyph-name="parenleft" unicode="(" horiz-adv-x="743" 
d="M463 641q0 -276 79 -529t224 -399h-164q-211 139 -337 380t-126 548t126 548t337 380h164q-145 -145 -224 -399t-79 -529z" />
    <glyph glyph-name="parenright" unicode=")" horiz-adv-x="743" 
d="M281 641q0 276 -79 529t-225 399h164q211 -139 337 -380t126 -548t-126 -548t-337 -380h-164q145 145 225 399t79 529z" />
    <glyph glyph-name="asterisk" unicode="*" horiz-adv-x="827" 
d="M414 553q-76 0 -76 84q0 35 23 124q24 89 30 132q-27 -20 -95 -88t-92 -85q-24 -18 -54 -18t-54 24q-22 24 -22 60t40 58q40 24 128 48t127 40q-39 16 -127 40t-128 48t-40 58q0 36 22 60q23 24 54 24q32 0 56 -18q24 -17 91 -85t94 -88q-6 43 -30 132t-23 124
q0 84 76 84t75 -84q1 -35 -23 -124t-30 -132q26 19 94 87t93 86t55 17q30 1 54 -23q22 -24 22 -60t-40 -59t-128 -47t-127 -40q39 -16 127 -40t128 -48t40 -59t-23 -59t-53 -24t-56 18q-24 18 -92 85q-68 68 -94 88q6 -43 30 -132t23 -124q1 -84 -75 -84z" />
    <glyph glyph-name="plus" unicode="+" horiz-adv-x="933" 
d="M819 365h-260v-261h-184v261h-260v184h260v260h184v-260h260v-184z" />
    <glyph glyph-name="comma" unicode="," horiz-adv-x="497" 
d="M232 293q72 1 122 -57q49 -58 49 -158q1 -100 -71 -214t-201 -192l-43 62q143 129 143 223q0 50 -74 94q-75 44 -75 123q0 45 39 82t111 37z" />
    <glyph glyph-name="hyphen" unicode="-" horiz-adv-x="675" 
d="M604 383h-532v152h532v-152z" />
    <glyph glyph-name="period" unicode="." horiz-adv-x="497" 
d="M86 129q0 68 47 116t115 48t116 -48t48 -116t-48 -115t-116 -47t-115 47t-47 115z" />
    <glyph glyph-name="slash" unicode="/" horiz-adv-x="704" 
d="M629 1311l-416 -1344h-137l413 1344h140z" />
    <glyph glyph-name="zero" unicode="0" 
d="M717 639q0 555 -154 555q-153 0 -153 -555t154 -555t153 555zM897 106q-55 -63 -141 -101t-192 -38q-303 0 -428 291q-70 162 -70 381q0 345 163 532q55 63 141 101t193 39q107 0 193 -38q86 -37 141 -101q164 -189 164 -533q0 -342 -164 -533z" />
    <glyph glyph-name="one" unicode="1" 
d="M741 1294v-1081q0 -67 31 -95t131 -48v-70q-203 6 -336 6t-305 -6v70l158 39v870q0 75 -31 101t-143 53v69q248 10 366 92h129z" />
    <glyph glyph-name="two" unicode="2" 
d="M608 909q0 107 -46 169t-128 63q-137 0 -221 -150l-100 47q53 123 161 198q109 75 280 75q171 -1 285 -103q113 -102 113 -275t-123 -315q-63 -74 -118 -124t-149 -132q-94 -80 -142 -122h287q86 0 121 34t55 127l80 -8q-18 -133 -29 -393h-807l-6 90q274 295 381 473
q106 178 106 346z" />
    <glyph glyph-name="three" unicode="3" 
d="M629 971q0 180 -162 180q-125 0 -215 -125l-94 53q47 98 153 165t266 67q161 0 265 -86t104 -217q0 -225 -311 -310q170 -18 257 -113t87 -248t-138 -261t-368 -109q-152 0 -251 52t-99 135q0 55 34 96t77 41q42 0 70 -34t43 -76t50 -76t82 -33q74 0 114 76t40 208
q0 267 -311 283v98q133 6 220 74t87 160z" />
    <glyph glyph-name="four" unicode="4" 
d="M569 453v465l-305 -465h305zM889 281v-68q1 -67 25 -95t118 -48v-70q-204 6 -316 6t-284 -6v70l137 39v172h-495l-13 75l611 928h217v-831h158v-172h-158z" />
    <glyph glyph-name="five" unicode="5" 
d="M535 825q188 -1 313 -111t125 -308t-134 -318q-134 -121 -364 -121q-145 0 -247 53q-101 53 -101 142q0 51 35 90t77 39q41 0 69 -34t43 -76t48 -76t80 -33q70 0 111 88t41 236t-47 226t-133 78t-152 -53l-92 29l22 604h686l-45 -240h-526l-10 -260q80 45 201 45z" />
    <glyph glyph-name="six" unicode="6" 
d="M588 674q-68 0 -133 -49q-18 -111 -19 -238q0 -307 139 -307q72 0 110 83t38 218q0 293 -135 293zM684 813q164 0 268 -113q104 -112 104 -306t-132 -310q-133 -116 -359 -117q-227 0 -349 127t-122 352q0 283 192 520t519 347l47 -86q-281 -188 -369 -471q90 57 201 57z
" />
    <glyph glyph-name="seven" unicode="7" 
d="M434 1042q-102 0 -147 -32t-78 -131l-78 10q39 190 43 391h832l30 -66l-387 -1214h-330l512 1042h-397z" />
    <glyph glyph-name="eight" unicode="8" 
d="M426 1053q0 -127 195 -236q96 90 96 221q0 72 -41 116t-107 44q-67 0 -105 -43t-38 -102zM739 269q0 83 -64 143q-65 59 -202 135q-104 -104 -104 -252q0 -91 51 -153t132 -62t134 53t53 136zM952 1016q0 -80 -57 -153t-152 -115q137 -80 215 -167t78 -219
q0 -172 -140 -284t-342 -111q-202 0 -334 92t-132 256q0 101 69 181t187 129q-199 139 -199 336q0 157 120 253t297 96q178 0 284 -83q106 -84 106 -211z" />
    <glyph glyph-name="nine" unicode="9" 
d="M539 604q68 0 133 49q18 111 18 238q0 307 -139 307q-72 0 -110 -83t-38 -218q1 -293 136 -293zM442 465q-164 0 -268 113q-104 112 -104 306t133 310t359 117q226 0 348 -127t122 -353q0 -283 -191 -519t-519 -347l-48 86q281 188 369 471q-90 -57 -201 -57z" />
    <glyph glyph-name="colon" unicode=":" horiz-adv-x="497" 
d="M86 727q0 68 47 116t115 48t116 -48t48 -116t-48 -115t-116 -47t-115 47t-47 115zM86 129q0 68 47 116t115 48t116 -48t48 -116t-48 -115t-116 -47t-115 47t-47 115z" />
    <glyph glyph-name="semicolon" unicode=";" horiz-adv-x="503" 
d="M238 293q72 1 122 -57t50 -158t-72 -214t-201 -192l-43 62q143 129 144 223q0 50 -75 94q-75 43 -75 123q0 45 39 82t111 37zM86 727q0 68 47 116t115 48t116 -48t48 -116t-48 -115t-116 -47t-115 47t-47 115z" />
    <glyph glyph-name="less" unicode="&#x3c;" horiz-adv-x="933" 
d="M115 375v168l704 342v-201l-452 -225l452 -226v-200z" />
    <glyph glyph-name="equal" unicode="=" horiz-adv-x="933" 
d="M819 205h-704v184h704v-184zM819 522h-704v185h704v-185z" />
    <glyph glyph-name="greater" unicode="&#x3e;" horiz-adv-x="933" 
d="M819 543v-168l-704 -342v200l452 226l-452 225v201z" />
    <glyph glyph-name="question" unicode="?" horiz-adv-x="919" 
d="M254 126q0 67 46 114t113 47t113 -47t47 -114q0 -67 -47 -113q-48 -46 -114 -46t-112 46t-46 113zM352 403q0 121 85 281t85 253t-47 147t-131 55q-139 0 -223 -133l-92 55q123 250 428 250q180 0 291 -92t110 -246q0 -80 -37 -146q-37 -67 -91 -111t-109 -87
q-141 -110 -158 -226h-111z" />
    <glyph glyph-name="at" unicode="@" horiz-adv-x="1642" 
d="M907 870q-82 0 -141 -112t-59 -220q0 -106 59 -106q80 0 137 217l53 203q-18 18 -49 18zM1106 459q0 -51 49 -51q70 0 130 122q61 122 61 284q0 164 -111 274t-307 110q-252 0 -425 -194t-173 -467q0 -215 127 -337t373 -122t497 162l41 -64q-272 -209 -597 -209
t-509 160t-184 418q0 195 106 369t305 285q199 112 461 112q262 -1 430 -149t168 -376q0 -195 -128 -341t-306 -146t-217 111q-80 -115 -217 -115q-94 0 -155 62q-60 62 -60 173q0 180 124 310t296 129q76 0 131 -33l47 35l147 -19l15 -20l-109 -412q-10 -41 -10 -61z" />
    <glyph glyph-name="A" unicode="A" horiz-adv-x="1384" 
d="M578 928l-156 -436h321zM299 128q0 -20 24 -33t89 -23v-72q-184 6 -219 6t-189 -6v72l123 39l434 1169h221l412 -1051q30 -77 64 -107t120 -50v-72q-214 6 -286 6t-330 -6v72l125 39l-101 264h-407l-68 -193q-12 -34 -12 -54z" />
    <glyph glyph-name="B" unicode="B" horiz-adv-x="1255" 
d="M862 713q328 -67 328 -359q0 -148 -114 -252q-114 -102 -353 -102h-653v72l125 39v954q0 67 -22 93t-110 50v72h586q463 0 463 -287q0 -94 -66 -169t-184 -111zM532 635v-449q0 -39 27 -56t90 -17q190 0 191 258q0 143 -69 203t-206 61h-33zM588 748q192 0 192 219
q0 98 -49 150t-174 52h-25v-421h56z" />
    <glyph glyph-name="C" unicode="C" horiz-adv-x="1208" 
d="M754 1182q-156 0 -243 -144t-87 -395q0 -250 87 -376t254 -126t304 160l82 -63q-168 -270 -498 -271q-276 0 -432 177q-155 176 -155 486t179 495t488 186q74 1 210 -17t157 -20q0 -66 16 -377h-102q-31 285 -260 285z" />
    <glyph glyph-name="D" unicode="D" horiz-adv-x="1409" 
d="M557 1161h-25v-964q0 -43 25 -63t92 -19h4q162 0 250 134t88 388q0 311 -121 430q-96 94 -313 94zM70 0v72l125 39v954q0 67 -22 93t-110 50v72h490q422 0 608 -164q187 -164 187 -473t-171 -476t-489 -167h-618z" />
    <glyph glyph-name="E" unicode="E" horiz-adv-x="1175" 
d="M70 0v72l125 39v954q0 67 -22 93t-110 50v72h979q4 -170 25 -334h-102q-15 127 -69 175t-174 48t-190 -4v-454h66q203 0 307 22l-14 -155q-121 16 -293 16h-66v-373q0 -59 40 -85t168 -26t188 49q59 48 80 169h94q-12 -135 -12 -328h-1020z" />
    <glyph glyph-name="F" unicode="F" horiz-adv-x="1112" 
d="M532 594v-377q0 -63 29 -91t131 -54v-72q-202 6 -326 6t-296 -6v72l125 39v954q0 67 -22 93t-110 50v72h979q4 -170 25 -334h-102q-15 127 -69 175t-174 48t-190 -4v-454h66q203 0 307 22l-14 -155q-121 16 -293 16h-66z" />
    <glyph glyph-name="G" unicode="G" horiz-adv-x="1404" 
d="M1225 420v-314q-215 -139 -521 -139t-473 171q-165 171 -165 491q0 321 191 501t515 181q110 1 234 -17t163 -22q6 -160 17 -381h-103q-16 135 -88 213t-200 78q-179 0 -275 -144t-96 -395q0 -250 76 -396t227 -147q84 0 128 44t44 157v221l-145 41v72q172 -6 286 -6
t316 6v-72q-88 -25 -110 -51t-21 -92z" />
    <glyph glyph-name="H" unicode="H" horiz-adv-x="1515" 
d="M1321 215q-1 -67 21 -93t110 -50v-72q-202 6 -312 6t-282 -6v72l125 39v487h-451v-383q0 -67 22 -93t110 -50v-72q-202 6 -312 6t-282 -6v72l125 39v954q0 67 -22 93t-110 50v72q203 -6 313 -6t281 6v-72l-125 -39v-440h451v336q1 67 -21 93t-110 50v72q202 -6 312 -6
t282 6v-72l-125 -39v-954z" />
    <glyph glyph-name="I" unicode="I" horiz-adv-x="731" 
d="M535 215q-1 -67 21 -93t110 -50v-72q-202 6 -312 6t-282 -6v72l125 39v954q0 67 -22 93t-109 50v72q203 -6 312 -6t281 6v-72l-124 -39v-954z" />
    <glyph glyph-name="J" unicode="J" horiz-adv-x="704" 
d="M186 166v899q0 67 -22 93t-109 50v72q203 -6 313 -6t281 6v-72l-125 -39v-985q0 -298 -150 -459q-124 -133 -374 -178l-31 93q123 56 170 172t47 354z" />
    <glyph glyph-name="K" unicode="K" horiz-adv-x="1386" 
d="M1391 0h-471q-2 78 -72 205l-209 385l-107 -121v-254q0 -67 22 -93t110 -50v-72q-202 6 -312 6t-282 -6v72l125 39v954q0 67 -22 93t-110 50v72q203 -6 313 -6t281 6v-72l-125 -39v-505l439 510l-119 34v72l254 -8q20 0 217 8v-74q-97 -12 -151 -40t-119 -103l-195 -223
l330 -602q47 -86 85 -119t118 -47v-72z" />
    <glyph glyph-name="L" unicode="L" horiz-adv-x="1114" 
d="M532 221q0 -59 37 -85t160 -26t178 49q55 48 76 169h94q-12 -135 -12 -328h-995v72l125 39v954q0 67 -22 93t-110 50v72q203 -6 313 -6t281 6v-72l-125 -39v-948z" />
    <glyph glyph-name="M" unicode="M" horiz-adv-x="1800" 
d="M195 1065q0 67 -22 93t-110 50v72h461l375 -889l373 889h459v-72l-125 -39v-954q0 -67 22 -93t109 -50v-72q-203 6 -311 6t-281 -6v72l125 39v792l-389 -911h-152l-383 905v-682q0 -67 22 -93t109 -50v-72l-196 6q-39 0 -211 -6v72l125 39v954z" />
    <glyph glyph-name="N" unicode="N" horiz-adv-x="1445" 
d="M195 1065q0 67 -23 93t-111 50v72h422l629 -852v637q0 67 -22 93t-109 50v72l197 -6q39 0 211 6v-72l-125 -39v-1171h-244l-674 913v-696q0 -67 22 -93t109 -50v-72l-196 6q-39 0 -211 -6v72l125 39v954z" />
    <glyph glyph-name="O" unicode="O" horiz-adv-x="1376" 
d="M952 639q0 254 -65 396q-66 143 -199 143t-199 -142q-65 -142 -65 -397q0 -254 66 -396q66 -143 198 -143t198 142t66 397zM1311 639q0 -303 -166 -487t-457 -184t-457 184t-165 487q0 303 165 487q166 184 457 184t457 -184t166 -487z" />
    <glyph glyph-name="P" unicode="P" horiz-adv-x="1206" 
d="M532 1165v-540h41q242 0 242 282q0 258 -256 258h-27zM532 512v-295q0 -63 29 -91t131 -54v-72q-202 6 -326 6t-296 -6v72l125 39v954q0 67 -22 93t-110 50v72h541q340 0 467 -121q94 -88 94 -263q0 -176 -139 -280t-416 -104h-78z" />
    <glyph glyph-name="Q" unicode="Q" horiz-adv-x="1376" 
d="M952 639q0 254 -65 396q-66 143 -199 143t-199 -142q-65 -142 -65 -397q0 -254 66 -396q66 -143 198 -143t198 142t66 397zM1311 639q0 -219 -89 -380t-253 -236q31 -166 203 -254t452 -99v-88q-82 -4 -121 -4q-464 0 -670 125q-97 59 -147 123t-76 145q-258 25 -401 206
t-143 473t165 476q166 184 457 184t457 -184t166 -487z" />
    <glyph glyph-name="R" unicode="R" horiz-adv-x="1333" 
d="M532 1165v-514h39q115 0 181 69q66 70 66 198t-67 188q-67 59 -200 59h-19zM63 1280h527q346 0 479 -111q98 -82 98 -218q-1 -136 -73 -219t-201 -114q76 -22 119 -64t73 -132l66 -191q29 -85 61 -115t113 -44v-72h-475q0 98 -39 215l-55 166q-35 102 -72 133t-127 31
h-25v-330q0 -67 22 -93t110 -50v-72q-202 6 -312 6t-282 -6v72l125 39v954q0 67 -22 93t-110 50v72z" />
    <glyph glyph-name="S" unicode="S" horiz-adv-x="1091" 
d="M133 373h103q18 -137 89 -212t177 -75t162 52q55 52 55 120t-45 116t-112 78q-68 30 -146 72t-145 88q-67 45 -111 126q-45 81 -45 184q0 180 137 282t342 103q66 -1 182 -17t154 -20q0 -84 12 -336h-100q-29 250 -242 250q-88 0 -143 -47t-55 -121t62 -128t150 -94
t178 -88t151 -136q62 -88 63 -208q0 -184 -138 -292t-353 -107q-214 0 -382 74v336z" />
    <glyph glyph-name="T" unicode="T" horiz-adv-x="1267" 
d="M889 1163h-86v-948q-1 -67 21 -93t110 -50v-72q-202 6 -312 6t-282 -6v72l125 39v1052h-86q-123 0 -172 -48t-74 -197h-96q12 215 12 362h1170q0 -147 12 -362h-96q-25 150 -74 198t-172 47z" />
    <glyph glyph-name="U" unicode="U" horiz-adv-x="1380" 
d="M1206 453q0 -225 -114 -351q-129 -135 -384 -135t-397 125q-137 125 -137 381v592q0 67 -22 93t-109 50v72q203 -6 313 -6t281 6v-72l-125 -39v-706q0 -342 272 -342t271 342v602q0 67 -22 93t-109 50v72l196 -6q39 0 211 6v-72l-125 -39v-716z" />
    <glyph glyph-name="V" unicode="V" horiz-adv-x="1308" 
d="M279 1274q182 0 317 6v-72l-123 -37l281 -778l266 778l-119 37v72q123 -6 206 -6t218 6v-72q-86 -12 -122 -40t-64 -109l-375 -1061h-195l-399 1036q-35 92 -71 124t-119 50v72q117 -6 299 -6z" />
    <glyph glyph-name="W" unicode="W" horiz-adv-x="1992" 
d="M298 1274q158 0 292 6v-72l-125 -37l283 -780l190 547l-20 66q-39 116 -69 150t-106 54v72q129 -6 289 -6t295 6v-72l-133 -37l256 -776l254 776l-119 37v72q123 -6 206 -6t218 6v-72q-91 -12 -125 -40t-61 -109l-361 -1061h-200l-248 725l-258 -725h-201l-385 1036
q-37 94 -71 125t-119 49v72q160 -6 318 -6z" />
    <glyph glyph-name="X" unicode="X" horiz-adv-x="1308" 
d="M1044 1274q98 0 226 6v-72q-88 -8 -125 -28t-76 -78l-268 -406l332 -499q41 -63 79 -88t115 -37v-72q-215 6 -362 6t-271 -6v72l123 37l-244 366l-233 -369l117 -34v-72q-117 6 -223 6t-234 -6v72q92 10 137 32t80 74l277 420l-320 485q-43 65 -81 89t-113 36v72
q215 -6 362 -6t270 6v-72l-123 -37l232 -352l225 355l-117 34v72q117 -6 215 -6z" />
    <glyph glyph-name="Y" unicode="Y" horiz-adv-x="1236" 
d="M801 215q-1 -67 21 -93t110 -50v-72q-202 6 -312 6t-282 -6v72l125 39v383l-303 573q-37 71 -73 99t-114 42v72q215 -6 357 -6t264 6v-72l-127 -37l260 -493l231 493l-116 37v72q122 -6 200 -6t213 6v-72q-83 -8 -117 -36t-75 -113l-262 -551v-293z" />
    <glyph glyph-name="Z" unicode="Z" horiz-adv-x="1185" 
d="M94 0v78l615 1085h-406l-88 -225h-94q10 86 10 342h969v-78l-617 -1087h277q119 0 168 48t76 187h96q-14 -162 -15 -350h-991z" />
    <glyph glyph-name="bracketleft" unicode="[" horiz-adv-x="755" 
d="M760 -291h-543v1862h543v-113h-244v-1636h244v-113z" />
    <glyph glyph-name="backslash" unicode="\" horiz-adv-x="704" 
d="M494 -33l-418 1344h137l416 -1344h-135z" />
    <glyph glyph-name="bracketright" unicode="]" horiz-adv-x="755" 
d="M539 -291h-543v113h244v1636h-244v113h543v-1862z" />
    <glyph glyph-name="asciicircum" unicode="^" horiz-adv-x="933" 
d="M391 1280h152l344 -584h-219l-201 359l-201 -359h-219z" />
    <glyph glyph-name="underscore" unicode="_" horiz-adv-x="1024" 
d="M973 -356h-922v112h922v-112z" />
    <glyph glyph-name="grave" unicode="`" horiz-adv-x="626" 
d="M193 1350q31 0 73 -37l291 -264l-35 -50l-448 197l-4 31l59 80q33 43 64 43z" />
    <glyph glyph-name="a" unicode="a" horiz-adv-x="1028" 
d="M567 473q-98 0 -149 -56q-51 -55 -51 -139q0 -162 106 -163q51 0 94 43v315zM522 942q365 0 365 -354v-400q0 -76 51 -75q29 0 70 18v-80q-106 -78 -242 -78t-176 95q-92 -100 -230 -100t-219 76q-82 77 -82 206q0 315 508 315v60q0 162 -131 161q-137 0 -209 -159
l-102 43q39 124 140 198t257 74z" />
    <glyph glyph-name="b" unicode="b" horiz-adv-x="1107" 
d="M725 461q0 328 -143 327q-78 0 -140 -65v-584q49 -49 115 -49q168 0 168 371zM123 1186q-1 49 -19 68t-81 42v66q283 0 419 22v-538q96 96 236 96q178 0 276 -132t98 -360t-134 -355q-135 -127 -373 -127t-422 100v1118z" />
    <glyph glyph-name="c" unicode="c" horiz-adv-x="915" 
d="M494 -33q-201 0 -323 127q-122 126 -122 358t135 361t355 129q74 0 168 -14q93 -14 129 -19q0 -147 8 -323h-90q-27 231 -179 231q-199 0 -198 -338q0 -170 56 -256t153 -86q121 0 207 135l81 -53q-51 -117 -149 -185t-231 -67z" />
    <glyph glyph-name="d" unicode="d" horiz-adv-x="1138" 
d="M555 127q63 0 115 43v604q-49 31 -103 31q-88 0 -136 -87t-48 -253q0 -338 172 -338zM989 193q0 -80 58 -80q33 0 65 16v-82q-102 -74 -233 -74t-183 97q-98 -102 -250 -103q-198 1 -294 141t-96 350t118 348q119 136 309 136q111 0 187 -51v295q0 49 -18 68t-83 42v66
q283 -1 420 22v-1191z" />
    <glyph glyph-name="e" unicode="e" horiz-adv-x="972" 
d="M637 557q0 262 -125 262t-135 -262h260zM496 -33q-213 0 -330 135q-117 134 -117 354t124 353q123 133 323 133t304 -109q103 -110 105 -315q0 -49 -4 -72h-526q6 -303 217 -303q139 0 221 133l82 -51q-45 -119 -153 -189t-246 -69z" />
    <glyph glyph-name="f" unicode="f" horiz-adv-x="729" 
d="M322 6q-104 0 -252 -6v66l98 38v695h-135v110h135v23q0 209 114 335t316 126q123 0 217 -45q94 -44 94 -112t-43 -120t-85 -51q-68 0 -117 104q-48 105 -99 105q-45 0 -61 -67t-17 -228v-70h234l-23 -110h-211v-623q0 -44 27 -66t102 -44v-66q-190 6 -294 6z" />
    <glyph glyph-name="g" unicode="g" horiz-adv-x="1032" 
d="M629 604q0 102 -32 160t-91 59q-59 0 -91 -58q-32 -59 -32 -161t32 -160t91 -59q59 1 91 59t32 160zM778 -197q0 55 -97 74t-189 27q-93 8 -134 14q-43 -53 -43 -119q-1 -65 57 -105t156 -40t174 44t76 105zM924 604q0 -160 -113 -249t-305 -89q-84 0 -156 19
q-6 -12 -6 -29q0 -43 68 -59q68 -15 164 -23t190 -26q96 -18 164 -84q68 -64 67 -175q-1 -168 -157 -269t-354 -101q-198 -1 -320 67q-121 68 -121 178q0 139 197 191q-123 59 -123 177t119 198q-150 88 -150 261t113 262t305 89q139 0 246 -51q119 10 278 47v-156h-39
q-90 0 -123 9q56 -70 56 -187z" />
    <glyph glyph-name="h" unicode="h" horiz-adv-x="1175" 
d="M723 616q0 148 -94 148q-88 0 -162 -92v-496q0 -46 17 -68t77 -42v-66q-189 6 -277 6t-235 -6v66l98 38v1082q0 49 -18 68q-19 19 -82 42v66q283 0 420 22v-581q123 139 301 139q131 0 203 -84t71 -248v-434q0 -46 18 -68t77 -42v-66q-189 6 -277 6t-235 -6v66l98 38v512
z" />
    <glyph glyph-name="i" unicode="i" horiz-adv-x="628" 
d="M147 1192q-1 68 47 116t116 48t115 -48q48 -48 48 -116t-48 -115t-116 -47t-115 47t-47 115zM481 176q1 -47 19 -67t78 -43v-66q-190 6 -278 6t-237 -6v66l99 38v629q0 49 -18 69t-83 42v65q283 0 420 23v-756z" />
    <glyph glyph-name="j" unicode="j" horiz-adv-x="591" 
d="M133 1192q0 68 47 116t115 48t116 -48t48 -116t-48 -115t-116 -47t-115 47t-47 115zM467 6q0 -459 -479 -485l-15 88q92 29 133 103t41 220v801q0 49 -18 69t-82 42v65q283 0 420 23v-926z" />
    <glyph glyph-name="k" unicode="k" horiz-adv-x="1138" 
d="M896 905q124 0 222 4v-65q-72 -6 -121 -28t-120 -77l-127 -100l221 -422q37 -69 73 -101t103 -50v-66h-244q-94 0 -145 35t-96 121l-150 293l-45 -37v-236q0 -47 18 -67t78 -43v-66q-191 6 -279 6t-235 -6v66l98 38v1082q0 49 -18 68t-82 42v66q283 -1 420 22v-833
l315 262l-96 31v65q86 -4 210 -4z" />
    <glyph glyph-name="l" unicode="l" horiz-adv-x="612" 
d="M467 176q0 -47 18 -67t78 -43v-66q-191 6 -279 6t-235 -6v66l98 38v1082q0 49 -18 68t-82 42v66q283 -1 420 22v-1208z" />
    <glyph glyph-name="m" unicode="m" horiz-adv-x="1740" 
d="M725 616q0 148 -94 148q-84 0 -152 -92v-496q-1 -46 17 -68t77 -42v-66q-190 6 -277 6t-235 -6v66l99 38v629q0 49 -19 69t-82 42v65q283 0 420 23v-129q121 139 293 139t244 -158q57 70 144 114t175 44q129 0 201 -84t72 -248v-434q0 -46 17 -68t77 -42v-66
q-190 6 -274 6t-232 -6v66l92 38v512q0 148 -94 148q-86 0 -154 -86q4 -37 4 -78v-424q0 -46 18 -68t77 -42v-66q-190 6 -274 6t-232 -6v66l92 38v512z" />
    <glyph glyph-name="n" unicode="n" horiz-adv-x="1187" 
d="M59 909q283 0 420 23v-129q123 139 301 139q131 0 203 -84t72 -248v-434q0 -46 17 -68t77 -42v-66q-189 6 -277 6t-235 -6v66l98 38v512q1 92 -27 120t-67 28q-88 0 -162 -92v-496q-1 -46 17 -68t77 -42v-66q-190 6 -277 6t-235 -6v66l99 38v629q0 49 -19 69t-82 42v65z
" />
    <glyph glyph-name="o" unicode="o" horiz-adv-x="1052" 
d="M676 455q0 193 -34 279t-116 87q-82 0 -116 -87q-34 -88 -33 -280q0 -192 34 -279q33 -87 115 -87t116 87t34 280zM1004 455q0 -231 -132 -359t-346 -129q-213 0 -345 128q-132 127 -132 359t132 360t345 128q214 0 346 -128t132 -359z" />
    <glyph glyph-name="p" unicode="p" horiz-adv-x="1132" 
d="M298 -446q-104 0 -251 -7v66l98 39v1081q0 49 -18 69t-82 42v65q283 0 420 23v-105q115 115 265 115t248 -130q99 -130 99 -351t-119 -357t-309 -137q-113 0 -184 47v-290q0 -45 27 -67t102 -44v-66q-192 7 -296 7zM599 778q-73 0 -134 -69v-580q47 -29 100 -29
q88 0 136 91q49 91 49 255t-39 248t-112 84z" />
    <glyph glyph-name="q" unicode="q" horiz-adv-x="1103" 
d="M383 449q0 -328 143 -328q78 0 140 65v596q-47 37 -107 37q-176 1 -176 -370zM566 942q230 0 419 -96v-1122q1 -48 21 -68t88 -43v-66q-291 0 -428 -22v538q-96 -96 -236 -96q-178 0 -276 131q-98 130 -98 356t140 357t370 131z" />
    <glyph glyph-name="r" unicode="r" horiz-adv-x="882" 
d="M721 942q69 0 111 -36t42 -92t-38 -101t-75 -45q-38 0 -78 34t-69 35q-49 0 -135 -82v-479q0 -44 27 -66t102 -44v-66q-190 6 -294 6t-253 -6v66l99 38v629q0 49 -18 69t-83 42v65q283 0 420 23v-164q115 174 242 174z" />
    <glyph glyph-name="s" unicode="s" horiz-adv-x="868" 
d="M469 942q66 0 276 -35q0 -205 5 -282h-88q-27 207 -170 206q-53 0 -90 -26q-36 -27 -36 -73q1 -80 155 -145q65 -28 131 -63q66 -36 110 -100q45 -64 45 -154q-1 -141 -105 -222t-280 -81t-311 56v270h86q18 -95 69 -155q52 -60 120 -60t104 28t36 77q0 83 -154 146
q-64 27 -130 59t-111 98t-45 161q0 135 111 215t272 80z" />
    <glyph glyph-name="t" unicode="t" horiz-adv-x="757" 
d="M428 -33q-278 0 -276 324v508h-136v110h136v189l319 71v-260h234l-23 -110h-211v-561q-1 -98 67 -98t140 73l67 -68q-113 -178 -317 -178z" />
    <glyph glyph-name="u" unicode="u" horiz-adv-x="1173" 
d="M410 -33q-131 0 -203 84t-72 248v434q0 49 -18 69t-82 42v65q283 0 420 23v-639q-1 -92 27 -120t67 -28q82 0 156 93v495q-1 49 -19 69t-82 42v65q283 0 420 23v-739q0 -80 57 -80q33 0 66 16v-82q-102 -74 -227 -74q-174 1 -205 144q-131 -150 -305 -150z" />
    <glyph glyph-name="v" unicode="v" horiz-adv-x="983" 
d="M213 903q174 0 285 6v-65l-86 -33l75 -195q86 -221 107 -288q27 94 100 286l74 197l-78 33v65q70 -4 142 -4t184 4v-65q-72 -14 -100 -38t-54 -97l-266 -711h-178l-289 713q-27 69 -55 91t-103 42v65q68 -6 242 -6z" />
    <glyph glyph-name="w" unicode="w" horiz-adv-x="1523" 
d="M210 903q171 0 282 6v-65l-86 -33l77 -201q55 -143 105 -288q43 125 100 274l43 113q-25 69 -53 97t-82 38v65q68 -6 230 -6t253 6v-67l-92 -27l57 -168q74 -221 103 -319q37 121 100 305l62 178l-78 33v65q71 -4 143 -4t182 4v-65q-72 -14 -99 -38t-54 -97l-256 -711
h-168l-111 317q-49 131 -77 236q-23 -66 -82 -227l-125 -326h-168l-287 713q-27 69 -55 91t-103 42v65q68 -6 239 -6z" />
    <glyph glyph-name="x" unicode="x" horiz-adv-x="1024" 
d="M830 905q102 0 171 4v-65q-83 -12 -119 -37t-81 -100l-131 -215l202 -302q43 -63 74 -86t96 -38v-66q-154 6 -295 6t-233 -6v66l72 28l-146 217l-127 -219l70 -26v-66q-73 4 -187 4t-184 -4v66q86 14 136 43t90 94l131 217l-201 299q-41 61 -74 84t-100 41v65
q154 -6 298 -6t236 6v-65l-73 -29l143 -215l127 217l-70 27v65q73 -4 175 -4z" />
    <glyph glyph-name="y" unicode="y" horiz-adv-x="1001" 
d="M214 903q180 0 290 6v-65l-86 -33l59 -139q86 -203 133 -350q43 131 125 340l58 149l-78 33v65q69 -4 141 -4t182 4v-65q-70 -14 -98 -38t-55 -97l-336 -850q-76 -189 -153 -265t-166 -76t-133 42q-44 41 -44 88q0 46 24 72t62 26l142 -16q51 0 83 37t70 137l25 63
l-334 744q-31 69 -57 91t-101 42v65q67 -6 247 -6z" />
    <glyph glyph-name="z" unicode="z" horiz-adv-x="960" 
d="M653 111q74 1 102 31t54 151h78q-4 -164 -4 -293h-797v98l436 701h-278l-64 -176h-78q2 92 2 286h779v-100l-434 -698h204z" />
    <glyph glyph-name="braceleft" unicode="{" horiz-adv-x="704" 
d="M254 831q0 55 -31 201t-30 217q0 154 133 237t370 83v-74q-108 -10 -154 -50q-46 -41 -46 -107t28 -203t27 -219q0 -82 -67 -160t-205 -117q139 -39 205 -117t67 -160q0 -82 -28 -219q-27 -137 -27 -203q1 -138 200 -157v-74q-238 0 -370 83t-133 237q0 72 30 217
q31 145 31 200q0 105 -135 148v90q135 43 135 147z" />
    <glyph glyph-name="bar" unicode="|" horiz-adv-x="528" 
d="M332 -543h-135v1997h135v-1997z" />
    <glyph glyph-name="braceright" unicode="}" horiz-adv-x="704" 
d="M8 -217q201 19 201 157q0 66 -28 203q-27 137 -27 219t66 160q67 78 206 117q-139 39 -206 117q-66 78 -66 160t27 219q28 137 28 203q0 138 -201 157v74q238 0 371 -83t133 -237q0 -72 -31 -217t-30 -201q0 -104 135 -147v-90q-135 -43 -135 -148q1 -55 31 -200t30 -217
q0 -154 -133 -237t-371 -83v74z" />
    <glyph glyph-name="asciitilde" unicode="~" horiz-adv-x="933" 
d="M623 489q-73 -1 -179 57t-153 58t-75 -29t-46 -86h-115q10 145 76 225t180 81q74 1 179 -57q104 -58 152 -58t76 29t46 86h115q-10 -145 -76 -225t-180 -81z" />
    <glyph glyph-name="nbspace" unicode="&#xa0;" horiz-adv-x="335" 
 />
    <glyph glyph-name="exclamdown" unicode="&#xa1;" horiz-adv-x="581" 
d="M459 -199q0 -96 -44 -149t-124 -53t-124 53t-44 149t53 333t64 364h102q10 -127 64 -364t53 -333zM288 942q68 0 114 -46t46 -113t-46 -113q-48 -46 -114 -47q-66 1 -113 47q-46 46 -46 113t46 113t113 46z" />
    <glyph glyph-name="cent" unicode="&#xa2;" 
d="M430 452q0 -275 182 -309v617q-182 -33 -182 -308zM119 453q0 217 135 350t358 133v135h90v-147q188 -43 281 -234l-86 -53q-90 106 -195 123v-617q106 16 197 127l84 -55q-92 -190 -281 -233v-148h-90v135q-223 -1 -358 133t-135 351z" />
    <glyph glyph-name="sterling" unicode="&#xa3;" 
d="M199 219q-63 0 -64 -61q0 -61 51 -62q56 0 60 113q-25 10 -47 10zM788 -33q-143 0 -321 125q-82 -125 -236 -125q-94 0 -148 51q-54 50 -54 126t48 120t132 45q12 0 41 -4q2 45 2 176v156h-154v104h154v99q0 229 113 350q115 121 323 121q134 0 234 -50t100 -122
q0 -51 -34 -97t-72 -45q-64 0 -122 107q-61 108 -120 106q-115 0 -115 -264v-205h254l-22 -104h-232q0 -236 -29 -385q158 -51 285 -51t219 100l56 -35q-80 -299 -302 -299z" />
    <glyph glyph-name="currency" unicode="&#xa4;" 
d="M680 639q0 293 -117 293t-117 -293t117 -293t117 293zM991 639q0 -197 -135 -309l135 -203h-145l-90 141q-84 -37 -193 -37t-192 37l-90 -141h-146l135 203q-135 114 -135 310t135 308l-135 203h146l90 -141q85 37 193 37t192 -37l90 141h145l-135 -203
q135 -112 135 -309z" />
    <glyph glyph-name="yen" unicode="&#xa5;" 
d="M420 373v125h-256l20 106h219l-225 463q-36 73 -70 99t-112 42v72q184 -6 330 -6t270 6v-72l-127 -37l205 -436l184 436l-117 37v72q123 -6 223 -6t166 6v-72q-84 -8 -114 -34t-70 -115l-198 -455h253l-20 -106h-236v-125h256l-20 -107h-236v-51q0 -67 22 -93t110 -50
v-72q-203 6 -307 6t-275 -6v72l125 39v155h-256l20 107h236z" />
    <glyph glyph-name="brokenbar" unicode="&#xa6;" horiz-adv-x="528" 
d="M332 -543h-135v766h135v-766zM332 688h-135v766h135v-766z" />
    <glyph glyph-name="section" unicode="&#xa7;" horiz-adv-x="946" 
d="M578 549q0 49 -33 80t-77 31t-73 -32q-29 -30 -29 -78t34 -79t78 -31t72 30t28 79zM819 84q0 -129 -96 -212t-272 -83q-94 1 -170 19t-101 22q0 154 -6 266h86q27 -205 172 -205q53 0 88 31t35 81t-43 88t-105 67q-63 30 -125 64t-106 94q-43 60 -43 143q0 205 199 276
q-205 102 -205 281q0 129 96 212t273 83q93 -1 169 -19t101 -22q0 -152 6 -266h-86q-27 205 -172 204q-53 0 -88 -30t-35 -81q0 -86 149 -155q62 -30 124 -64t106 -94q43 -60 43 -143q0 -204 -199 -276q205 -102 205 -281z" />
    <glyph glyph-name="dieresis" unicode="&#xa8;" horiz-adv-x="626" 
d="M375 1176q0 53 38 90t89 37t89 -37t38 -90q0 -52 -38 -90t-89 -38t-89 38q-38 37 -38 90zM0 1176q0 53 37 90t90 37t90 -37t37 -90q0 -52 -37 -90t-90 -38t-90 38q-37 37 -37 90z" />
    <glyph glyph-name="copyright" unicode="&#xa9;" horiz-adv-x="1445" 
d="M723 -33q-276 0 -471 194q-195 195 -195 479t195 478t471 193q276 0 471 -194q195 -195 195 -479t-195 -478t-471 -193zM723 84q225 0 373 160q147 160 147 396t-147 394q-146 160 -372 160t-374 -160t-147 -396q-1 -236 147 -394q148 -160 373 -160zM754 985
q38 0 198 -20q0 -111 4 -193h-49q-20 147 -135 148q-162 0 -162 -275q0 -248 158 -248q84 0 162 78l43 -37q-95 -133 -247 -133t-232 91t-80 247t90 249t250 93z" />
    <glyph glyph-name="ordfeminine" unicode="&#xaa;" horiz-adv-x="688" 
d="M373 819q-125 0 -125 -110q0 -88 65 -88q37 -1 60 26v172zM512 520q-90 0 -117 64q-63 -68 -159 -68t-149 49q-54 49 -54 127q0 193 340 193v26q0 45 -25 72t-65 27q-82 0 -125 -80l-76 28q63 156 256 156q120 0 186 -58t66 -196v-196q0 -43 33 -43q19 0 39 8v-54
q-60 -55 -150 -55z" />
    <glyph glyph-name="guillemotleft" unicode="&#xab;" horiz-adv-x="976" 
d="M733 451l125 -316l-78 -67l-309 383l309 383l78 -68zM348 451l125 -316l-78 -67l-309 383l309 383l78 -68z" />
    <glyph glyph-name="logicalnot" unicode="&#xac;" horiz-adv-x="933" 
d="M819 205h-184v317h-520v185h704v-502z" />
    <glyph glyph-name="uni00AD" unicode="&#xad;" horiz-adv-x="675" 
d="M604 383h-532v152h532v-152z" />
    <glyph glyph-name="registered" unicode="&#xae;" horiz-adv-x="1445" 
d="M723 -33q-276 0 -471 194q-195 195 -195 479t195 478t471 193q276 0 471 -194q195 -195 195 -479t-195 -478t-471 -193zM723 84q225 0 373 160q147 160 147 396t-147 394q-146 160 -372 160t-374 -160t-147 -396q-1 -236 147 -394q148 -160 373 -160zM653 920v-267h19
q57 0 91 37t34 101q0 129 -125 129h-19zM473 862q0 35 -12 51t-53 31v31h313q158 0 209 -50q51 -49 51 -117t-39 -110t-106 -57q80 -25 106 -100l31 -86q16 -47 38 -69t58 -32v-30h-254q0 53 -20 108l-37 107q-12 35 -30 48t-56 13h-19v-164q1 -35 13 -51t53 -31v-30l-156 2
l-153 -2v30l63 23v485z" />
    <glyph glyph-name="macron" unicode="&#xaf;" horiz-adv-x="626" 
d="M582 1075h-537v135h537v-135z" />
    <glyph glyph-name="degree" unicode="&#xb0;" horiz-adv-x="675" 
d="M473 1032q0 70 -37 111t-98 41t-98 -41t-37 -111t37 -110t98 -41q61 1 98 41t37 110zM625 1032q0 -122 -80 -200t-207 -78t-207 79t-80 199t80 200q80 79 207 79t207 -79t80 -200z" />
    <glyph glyph-name="plusminus" unicode="&#xb1;" horiz-adv-x="933" 
d="M115 184h704v-184h-704v184zM819 563h-260v-260h-184v260h-260v185h260v260h184v-260h260v-185z" />
    <glyph glyph-name="twosuperior" unicode="&#xb2;" horiz-adv-x="724" 
d="M358 1268q0 119 -90 118q-72 0 -123 -75l-67 41q86 164 274 164q102 0 172 -60t70 -152q0 -90 -46 -152t-135 -131t-118 -99h127q72 0 96 14t37 74l59 -2q-16 -113 -20 -252h-502l-4 65q147 152 209 254q61 102 61 193z" />
    <glyph glyph-name="threesuperior" unicode="&#xb3;" horiz-adv-x="724" 
d="M434 1161q193 -34 193 -204q0 -87 -84 -151t-204 -64q-121 0 -185 33q-64 34 -64 78t25 71q25 26 57 26t71 -62q38 -62 70 -63q78 0 78 131q0 86 -44 118t-146 32v74q84 2 130 34t46 82t-25 72t-63 23q-74 0 -127 -72l-66 41q74 156 269 156q104 0 167 -48t64 -129
q0 -131 -162 -178z" />
    <glyph glyph-name="acute" unicode="&#xb4;" horiz-adv-x="626" 
d="M434 1350q31 0 64 -43l59 -80l-4 -31l-449 -197l-34 50l290 264q43 37 74 37z" />
    <glyph glyph-name="uni00B5" unicode="&#xb5;" horiz-adv-x="1173" 
d="M410 -33q-84 0 -144 35q22 -99 34 -146t11 -100q0 -166 -129 -166t-129 166q0 47 41 221t41 322v434q0 49 -18 69t-82 42v65q283 0 420 23v-639q-1 -92 27 -120t67 -28q82 0 156 93v495q-1 49 -19 69t-82 42v65q283 0 420 23v-739q0 -80 57 -80q33 0 66 16v-82
q-102 -74 -227 -74q-174 1 -205 144q-131 -150 -305 -150z" />
    <glyph glyph-name="paragraph" unicode="&#xb6;" horiz-adv-x="1093" 
d="M1028 1280v-72l-131 -43v-1382h-184v1376h-99v-1376h-184v809q-178 0 -279 95t-101 257t116 249q117 87 301 87h561z" />
    <glyph glyph-name="periodcentered" unicode="&#xb7;" horiz-adv-x="497" 
d="M86 453q0 67 47 115t115 48t116 -48t48 -116t-48 -114q-48 -47 -116 -47t-115 47t-47 115z" />
    <glyph glyph-name="cedilla" unicode="&#xb8;" horiz-adv-x="626" 
d="M510 -252q0 -123 -116 -185t-269 -52l-10 79q98 12 156 52q59 40 59 89q0 47 -24 69t-65 30t-47 18t1 33l51 152h116l-34 -107q80 -14 131 -59t51 -119z" />
    <glyph glyph-name="onesuperior" unicode="&#xb9;" horiz-adv-x="724" 
d="M264 1329q0 31 -8 41t-45 21l-59 16v55q164 0 235 47h98v-612q1 -37 15 -53t57 -27l27 -6v-55l-203 4l-219 -4v55l102 27v491z" />
    <glyph glyph-name="ordmasculine" unicode="&#xba;" horiz-adv-x="712" 
d="M444 815q0 211 -88 211t-88 -211t88 -211t88 211zM676 815q0 -143 -85 -221t-235 -78t-234 78t-85 221q0 143 85 221q84 78 234 78t235 -78t85 -221z" />
    <glyph glyph-name="guillemotright" unicode="&#xbb;" horiz-adv-x="976" 
d="M504 135l125 316l-125 315l78 68l309 -383l-309 -383zM119 135l125 316l-125 315l78 68l309 -383l-309 -383z" />
    <glyph glyph-name="onequarter" unicode="&#xbc;" horiz-adv-x="1638" 
d="M1161 293v242l-172 -242h172zM1161 195h-291l-4 55l348 500h168v-457h109v-98h-109v-54q0 -37 14 -53t58 -27l27 -6v-55l-203 4l-217 -4v55l100 27v113zM1290 1290l-788 -1323h-127l788 1323h127zM270 1104q0 31 -8 41t-45 20l-59 17v55q164 0 235 47h99v-612
q0 -38 14 -54t57 -26l27 -6v-56q-18 0 -203 5l-219 -5v56l102 26v492z" />
    <glyph glyph-name="onehalf" unicode="&#xbd;" horiz-adv-x="1638" 
d="M1141 631q-72 0 -123 -76l-68 41q86 164 275 164q102 0 172 -60q69 -60 69 -151t-46 -153t-135 -131t-118 -99h127q72 0 96 14q23 15 37 74l60 -2q-16 -113 -21 -252h-501l-4 66q147 152 208 254t62 192q0 119 -90 119zM1270 1290l-789 -1323h-127l789 1323h127z
M250 1104q0 31 -8 41t-45 20l-60 17v55q164 0 236 47h98v-612q0 -38 14 -54t58 -26l26 -6v-56q-22 0 -202 5l-220 -5v56l103 26v492z" />
    <glyph glyph-name="threequarters" unicode="&#xbe;" horiz-adv-x="1638" 
d="M1182 293v242l-172 -242h172zM1182 195h-291l-4 55l348 500h168v-457h108v-98h-108v-54q0 -37 14 -53t58 -27l26 -6v-55l-203 4l-217 -4v55l101 27v113zM1311 1290l-789 -1323h-127l789 1323h127zM477 936q193 -34 193 -205q0 -88 -84 -151q-84 -64 -204 -64t-184 34
t-65 78q0 44 25 70q26 26 58 27q32 0 70 -62t70 -63q78 0 78 131q0 86 -44 118t-146 32v73q84 2 130 35t46 82t-25 72t-63 22q-74 0 -127 -71l-66 41q74 156 269 155q104 0 167 -48t64 -128q0 -131 -162 -178z" />
    <glyph glyph-name="questiondown" unicode="&#xbf;" horiz-adv-x="919" 
d="M666 783q0 -67 -46 -113t-113 -47q-67 0 -114 47q-47 48 -47 114t47 112t114 46t113 -46t46 -113zM567 506q0 -121 -85 -281t-85 -253t47 -147t131 -54q139 0 224 133l92 -56q-123 -250 -428 -249q-180 0 -291 92t-111 244t128 258q53 45 109 88q142 110 159 225h110z
" />
    <glyph glyph-name="Agrave" unicode="&#xc0;" horiz-adv-x="1384" 
d="M550 1679q28 0 73 -34l292 -232l-24 -49l-453 162l-10 30l64 84q30 39 58 39zM578 928l-156 -436h321zM299 128q0 -20 24 -33t89 -23v-72q-184 6 -219 6t-189 -6v72l123 39l434 1169h221l412 -1051q30 -77 64 -107t120 -50v-72q-214 6 -286 6t-330 -6v72l125 39l-101 264
h-407l-68 -193q-12 -34 -12 -54z" />
    <glyph glyph-name="Aacute" unicode="&#xc1;" horiz-adv-x="1384" 
d="M936 1556l-10 -30l-453 -162l-24 49l292 232q45 35 73 35t58 -40zM578 928l-156 -436h321zM299 128q0 -20 24 -33t89 -23v-72q-184 6 -219 6t-189 -6v72l123 39l434 1169h221l412 -1051q30 -77 64 -107t120 -50v-72q-214 6 -286 6t-330 -6v72l125 39l-101 264h-407
l-68 -193q-12 -34 -12 -54z" />
    <glyph glyph-name="Acircumflex" unicode="&#xc2;" horiz-adv-x="1384" 
d="M590 1669h164l213 -262l-45 -43l-250 156l-250 -156l-45 43zM578 928l-156 -436h321zM299 128q0 -20 24 -33t89 -23v-72q-184 6 -219 6t-189 -6v72l123 39l434 1169h221l412 -1051q30 -77 64 -107t120 -50v-72q-214 6 -286 6t-330 -6v72l125 39l-101 264h-407l-68 -193
q-12 -34 -12 -54z" />
    <glyph glyph-name="Atilde" unicode="&#xc3;" horiz-adv-x="1384" 
d="M796 1397q-64 0 -150 40q-85 40 -120 40q-66 0 -90 -76l-74 14q12 111 66 168t120 57q64 0 149 -40t120 -39q65 -1 90 75l74 -14q-13 -111 -67 -168t-118 -57zM578 928l-156 -436h321zM299 128q0 -20 24 -33t89 -23v-72q-184 6 -219 6t-189 -6v72l123 39l434 1169h221
l412 -1051q30 -77 64 -107t120 -50v-72q-214 6 -286 6t-330 -6v72l125 39l-101 264h-407l-68 -193q-12 -34 -12 -54z" />
    <glyph glyph-name="Adieresis" unicode="&#xc4;" horiz-adv-x="1384" 
d="M731 1518q0 51 38 89t89 38t89 -38t38 -89q0 -52 -38 -90t-89 -38t-89 39q-38 38 -38 89zM356 1518q0 51 37 89t90 38t90 -38t37 -89q0 -52 -37 -90t-90 -38t-90 39q-37 38 -37 89zM578 928l-156 -436h321zM299 128q0 -20 24 -33t89 -23v-72q-184 6 -219 6t-189 -6v72
l123 39l434 1169h221l412 -1051q30 -77 64 -107t120 -50v-72q-214 6 -286 6t-330 -6v72l125 39l-101 264h-407l-68 -193q-12 -34 -12 -54z" />
    <glyph glyph-name="Aring" unicode="&#xc5;" horiz-adv-x="1384" 
d="M762 1565q0 45 -26 73t-64 27q-38 0 -65 -28q-25 -29 -25 -73t26 -72t64 -28t64 28t26 73zM866 1565q0 -83 -56 -137t-138 -54t-138 54t-56 136t56 137q56 54 138 54t138 -54t56 -136zM578 928l-156 -436h321zM299 128q0 -20 24 -33t89 -23v-72q-184 6 -219 6t-189 -6v72
l123 39l434 1169h221l412 -1051q30 -77 64 -107t120 -50v-72q-214 6 -286 6t-330 -6v72l125 39l-101 264h-407l-68 -193q-12 -34 -12 -54z" />
    <glyph glyph-name="AE" unicode="&#xc6;" horiz-adv-x="1839" 
d="M858 709v452l-258 -452h258zM858 596h-323l-244 -428q-14 -25 -15 -37q0 -35 113 -59v-72q-94 4 -188 4t-230 -4v72l131 37l568 985q18 32 18 54t-26 35q-27 13 -93 25v72h1137q4 -170 25 -334h-103q-16 127 -69 175t-173 48t-190 -4v-454h66q203 0 307 22l-15 -155
q-121 16 -292 16h-66v-373q0 -59 40 -85t168 -26t187 49q59 48 80 169h94q-12 -135 -12 -328h-1020v72l125 39v485z" />
    <glyph glyph-name="Ccedilla" unicode="&#xc7;" horiz-adv-x="1208" 
d="M897 -252q0 -123 -116 -185t-269 -52l-10 79q98 12 156 52t58 89q0 47 -23 69q-24 22 -65 30q-42 8 -48 18t2 33l28 88q-258 13 -401 189t-143 480t174 488t487 185q74 1 210 -17t157 -20q0 -66 16 -377h-102q-14 137 -74 211t-186 74q-158 0 -240 -142t-82 -394
q0 -253 87 -379t253 -126t303 160l82 -63q-145 -236 -422 -267l-14 -45q80 -14 131 -59t51 -119z" />
    <glyph glyph-name="Egrave" unicode="&#xc8;" horiz-adv-x="1175" 
d="M458 1679q28 0 72 -34l293 -232l-24 -49l-453 162l-10 30l63 84q31 39 59 39zM70 0v72l125 39v954q0 67 -22 93t-110 50v72h979q4 -170 25 -334h-102q-15 127 -69 175t-174 48t-190 -4v-454h66q203 0 307 22l-14 -155q-121 16 -293 16h-66v-373q0 -59 40 -85t168 -26
t188 49q59 48 80 169h94q-12 -135 -12 -328h-1020z" />
    <glyph glyph-name="Eacute" unicode="&#xc9;" horiz-adv-x="1175" 
d="M848 1556l-10 -30l-453 -162l-25 49l293 232q45 35 73 35t58 -40zM70 0v72l125 39v954q0 67 -22 93t-110 50v72h979q4 -170 25 -334h-102q-15 127 -69 175t-174 48t-190 -4v-454h66q203 0 307 22l-14 -155q-121 16 -293 16h-66v-373q0 -59 40 -85t168 -26t188 49
q59 48 80 169h94q-12 -135 -12 -328h-1020z" />
    <glyph glyph-name="Ecircumflex" unicode="&#xca;" horiz-adv-x="1175" 
d="M518 1669h164l213 -262l-45 -43l-250 156l-250 -156l-45 43zM70 0v72l125 39v954q0 67 -22 93t-110 50v72h979q4 -170 25 -334h-102q-15 127 -69 175t-174 48t-190 -4v-454h66q203 0 307 22l-14 -155q-121 16 -293 16h-66v-373q0 -59 40 -85t168 -26t188 49q59 48 80 169
h94q-12 -135 -12 -328h-1020z" />
    <glyph glyph-name="Edieresis" unicode="&#xcb;" horiz-adv-x="1175" 
d="M664 1518q0 51 36 89t90 38t91 -38t37 -89q0 -52 -37 -90t-90 -38t-91 38q-36 39 -36 90zM289 1518q0 51 38 89t89 38t89 -38t38 -89q0 -52 -38 -90t-89 -38t-89 39q-38 38 -38 89zM70 0v72l125 39v954q0 67 -22 93t-110 50v72h979q4 -170 25 -334h-102q-15 127 -69 175
t-174 48t-190 -4v-454h66q203 0 307 22l-14 -155q-121 16 -293 16h-66v-373q0 -59 40 -85t168 -26t188 49q59 48 80 169h94q-12 -135 -12 -328h-1020z" />
    <glyph glyph-name="Igrave" unicode="&#xcc;" horiz-adv-x="731" 
d="M243 1679q28 0 72 -34l293 -232l-24 -49l-453 162l-10 30l63 84q31 39 59 39zM535 215q-1 -67 21 -93t110 -50v-72q-202 6 -312 6t-282 -6v72l125 39v954q0 67 -22 93t-109 50v72q203 -6 312 -6t281 6v-72l-124 -39v-954z" />
    <glyph glyph-name="Iacute" unicode="&#xcd;" horiz-adv-x="731" 
d="M608 1556l-10 -30l-453 -162l-24 49l293 232q44 35 72 35t59 -40zM535 215q-1 -67 21 -93t110 -50v-72q-202 6 -312 6t-282 -6v72l125 39v954q0 67 -22 93t-109 50v72q203 -6 312 -6t281 6v-72l-124 -39v-954z" />
    <glyph glyph-name="Icircumflex" unicode="&#xce;" horiz-adv-x="731" 
d="M283 1669h163l213 -262l-45 -43l-249 156l-250 -156l-45 43zM535 215q-1 -67 21 -93t110 -50v-72q-202 6 -312 6t-282 -6v72l125 39v954q0 67 -22 93t-109 50v72q203 -6 312 -6t281 6v-72l-124 -39v-954z" />
    <glyph glyph-name="Idieresis" unicode="&#xcf;" horiz-adv-x="731" 
d="M426 1518q0 51 37 89t90 38t90 -38t37 -89q0 -52 -37 -90t-90 -38t-90 39q-37 38 -37 89zM51 1518q0 51 38 89t89 38t89 -38t38 -89q0 -52 -38 -90t-89 -38t-89 39q-38 38 -38 89zM535 215q-1 -67 21 -93t110 -50v-72q-202 6 -312 6t-282 -6v72l125 39v954q0 67 -22 93
t-109 50v72q203 -6 312 -6t281 6v-72l-124 -39v-954z" />
    <glyph glyph-name="Eth" unicode="&#xd0;" horiz-adv-x="1419" 
d="M561 1161h-24v-436h186v-123h-186v-405q0 -43 24 -63q25 -19 92 -19h4q162 0 250 134t88 388q0 311 -121 430q-96 94 -313 94zM74 0v72l125 39v491h-146v123h146v340q0 67 -22 93t-109 50v72h491q422 0 608 -164q187 -164 187 -473t-171 -476t-489 -167h-620z" />
    <glyph glyph-name="Ntilde" unicode="&#xd1;" horiz-adv-x="1445" 
d="M864 1397q-64 0 -150 40q-85 40 -120 40q-66 0 -90 -76l-74 14q12 111 66 168t120 57q64 0 149 -40t120 -39q65 -1 90 75l74 -14q-13 -111 -67 -168t-118 -57zM195 1065q0 67 -23 93t-111 50v72h422l629 -852v637q0 67 -22 93t-109 50v72l197 -6q39 0 211 6v-72l-125 -39
v-1171h-244l-674 913v-696q0 -67 22 -93t109 -50v-72l-196 6q-39 0 -211 -6v72l125 39v954z" />
    <glyph glyph-name="Ograve" unicode="&#xd2;" horiz-adv-x="1376" 
d="M583 1679q28 0 72 -34l293 -232l-24 -49l-453 162l-10 30l63 84q31 39 59 39zM952 639q0 254 -65 396q-66 143 -199 143t-199 -142q-65 -142 -65 -397q0 -254 66 -396q66 -143 198 -143t198 142t66 397zM1311 639q0 -303 -166 -487t-457 -184t-457 184t-165 487
q0 303 165 487q166 184 457 184t457 -184t166 -487z" />
    <glyph glyph-name="Oacute" unicode="&#xd3;" horiz-adv-x="1376" 
d="M934 1556l-10 -30l-453 -162l-25 49l293 232q45 35 73 35t58 -40zM952 639q0 254 -65 396q-66 143 -199 143t-199 -142q-65 -142 -65 -397q0 -254 66 -396q66 -143 198 -143t198 142t66 397zM1311 639q0 -303 -166 -487t-457 -184t-457 184t-165 487q0 303 165 487
q166 184 457 184t457 -184t166 -487z" />
    <glyph glyph-name="Ocircumflex" unicode="&#xd4;" horiz-adv-x="1376" 
d="M606 1669h164l213 -262l-45 -43l-250 156l-250 -156l-45 43zM952 639q0 254 -65 396q-66 143 -199 143t-199 -142q-65 -142 -65 -397q0 -254 66 -396q66 -143 198 -143t198 142t66 397zM1311 639q0 -303 -166 -487t-457 -184t-457 184t-165 487q0 303 165 487
q166 184 457 184t457 -184t166 -487z" />
    <glyph glyph-name="Otilde" unicode="&#xd5;" horiz-adv-x="1376" 
d="M812 1397q-64 0 -149 40t-120 40q-66 0 -90 -76l-74 14q12 111 66 168q55 57 119 57t150 -40t120 -39q65 -1 90 75l73 -14q-12 -111 -66 -168q-55 -57 -119 -57zM952 639q0 254 -65 396q-66 143 -199 143t-199 -142q-65 -142 -65 -397q0 -254 66 -396q66 -143 198 -143
t198 142t66 397zM1311 639q0 -303 -166 -487t-457 -184t-457 184t-165 487q0 303 165 487q166 184 457 184t457 -184t166 -487z" />
    <glyph glyph-name="Odieresis" unicode="&#xd6;" horiz-adv-x="1376" 
d="M748 1518q0 51 37 89q38 38 89 38q52 0 90 -38t38 -89t-38 -90q-38 -38 -90 -38t-89 38q-37 39 -37 90zM373 1518q0 51 37 89t90 38t90 -38t37 -89q0 -52 -37 -90t-90 -38t-90 39q-37 38 -37 89zM952 639q0 254 -65 396q-66 143 -199 143t-199 -142q-65 -142 -65 -397
q0 -254 66 -396q66 -143 198 -143t198 142t66 397zM1311 639q0 -303 -166 -487t-457 -184t-457 184t-165 487q0 303 165 487q166 184 457 184t457 -184t166 -487z" />
    <glyph glyph-name="multiply" unicode="&#xd7;" horiz-adv-x="933" 
d="M780 641l-182 -184l182 -185l-129 -129l-184 183l-184 -183l-129 129l182 185l-182 184l129 129l184 -182l184 182z" />
    <glyph glyph-name="Oslash" unicode="&#xd8;" horiz-adv-x="1376" 
d="M688 1178q-132 0 -198 -142t-66 -362q0 -219 33 -338l381 772q-59 70 -150 70zM952 618q0 232 -45 361l-389 -786q68 -92 170 -93q132 0 198 142q66 144 66 376zM1311 639q0 -303 -166 -487t-457 -185q-139 0 -258 45l-51 -104h-133l80 162q-260 176 -260 569
q0 303 165 487q166 184 457 185q127 0 232 -37l49 98h133l-74 -149q137 -83 210 -235t73 -349z" />
    <glyph glyph-name="Ugrave" unicode="&#xd9;" horiz-adv-x="1380" 
d="M626 1679q28 0 72 -34l293 -232l-24 -49l-453 162l-10 30l63 84q31 39 59 39zM1206 453q0 -225 -114 -351q-129 -135 -384 -135t-397 125q-137 125 -137 381v592q0 67 -22 93t-109 50v72q203 -6 313 -6t281 6v-72l-125 -39v-706q0 -342 272 -342t271 342v602q0 67 -22 93
t-109 50v72l196 -6q39 0 211 6v-72l-125 -39v-716z" />
    <glyph glyph-name="Uacute" unicode="&#xda;" horiz-adv-x="1380" 
d="M1012 1556l-11 -30l-452 -162l-25 49l293 232q45 35 73 35t58 -40zM1206 453q0 -225 -114 -351q-129 -135 -384 -135t-397 125q-137 125 -137 381v592q0 67 -22 93t-109 50v72q203 -6 313 -6t281 6v-72l-125 -39v-706q0 -342 272 -342t271 342v602q0 67 -22 93t-109 50
v72l196 -6q39 0 211 6v-72l-125 -39v-716z" />
    <glyph glyph-name="Ucircumflex" unicode="&#xdb;" horiz-adv-x="1380" 
d="M694 1669h164l213 -262l-45 -43l-250 156l-250 -156l-45 43zM1206 453q0 -225 -114 -351q-129 -135 -384 -135t-397 125q-137 125 -137 381v592q0 67 -22 93t-109 50v72q203 -6 313 -6t281 6v-72l-125 -39v-706q0 -342 272 -342t271 342v602q0 67 -22 93t-109 50v72
l196 -6q39 0 211 6v-72l-125 -39v-716z" />
    <glyph glyph-name="Udieresis" unicode="&#xdc;" horiz-adv-x="1380" 
d="M836 1518q0 51 36 89t90 38t91 -38t37 -89q0 -52 -37 -90t-90 -38t-91 38q-36 39 -36 90zM461 1518q0 51 38 89t89 38t89 -38t38 -89q0 -52 -38 -90t-89 -38t-89 39q-38 38 -38 89zM1206 453q0 -225 -114 -351q-129 -135 -384 -135t-397 125q-137 125 -137 381v592
q0 67 -22 93t-109 50v72q203 -6 313 -6t281 6v-72l-125 -39v-706q0 -342 272 -342t271 342v602q0 67 -22 93t-109 50v72l196 -6q39 0 211 6v-72l-125 -39v-716z" />
    <glyph glyph-name="Yacute" unicode="&#xdd;" horiz-adv-x="1236" 
d="M948 1556l-10 -30l-453 -162l-24 49l293 232q44 35 72 35t59 -40zM801 215q-1 -67 21 -93t110 -50v-72q-202 6 -312 6t-282 -6v72l125 39v383l-303 573q-37 71 -73 99t-114 42v72q215 -6 357 -6t264 6v-72l-127 -37l260 -493l231 493l-116 37v72q122 -6 200 -6t213 6v-72
q-83 -8 -117 -36t-75 -113l-262 -551v-293z" />
    <glyph glyph-name="Thorn" unicode="&#xde;" horiz-adv-x="1224" 
d="M557 926h-25v-541h39q242 0 242 283q0 258 -256 258zM532 1040h70q340 0 467 -120q94 -88 94 -263t-139 -279t-416 -106h-76v-57q0 -67 22 -93t110 -50v-72q-202 6 -312 6t-282 -6v72l125 39v954q0 67 -22 93t-110 50v72q203 -6 313 -6t281 6v-72l-125 -39v-129z" />
    <glyph glyph-name="germandbls" unicode="&#xdf;" horiz-adv-x="1323" 
d="M487 0h-417v66l98 38v695h-135v110h135q0 227 136 355t354 129q218 0 340 -90q120 -90 120 -216q0 -63 -38 -112t-84 -77t-84 -71t-38 -94q0 -87 144 -159q60 -30 120 -64t102 -94q42 -61 42 -146q0 -141 -103 -222t-281 -81t-312 60v268h84q18 -101 73 -159t123 -58
t102 28t34 78q0 49 -43 86q-42 37 -102 65q-61 27 -121 61t-102 96t-42 141t39 143t85 105q124 111 124 215q0 80 -44 127t-116 47q-193 0 -193 -279v-991z" />
    <glyph glyph-name="agrave" unicode="&#xe0;" horiz-adv-x="1028" 
d="M392 1350q30 0 73 -37l291 -264l-35 -50l-449 197l-4 31l60 80q34 43 64 43zM567 473q-98 0 -149 -56q-51 -55 -51 -139q0 -162 106 -163q51 0 94 43v315zM522 942q365 0 365 -354v-400q0 -76 51 -75q29 0 70 18v-80q-106 -78 -242 -78t-176 95q-92 -100 -230 -100
t-219 76q-82 77 -82 206q0 315 508 315v60q0 162 -131 161q-137 0 -209 -159l-102 43q39 124 140 198t257 74z" />
    <glyph glyph-name="aacute" unicode="&#xe1;" horiz-adv-x="1028" 
d="M633 1350q31 0 63 -43l60 -80l-4 -31l-449 -197l-35 50l291 264q43 37 74 37zM567 473q-98 0 -149 -56q-51 -55 -51 -139q0 -162 106 -163q51 0 94 43v315zM522 942q365 0 365 -354v-400q0 -76 51 -75q29 0 70 18v-80q-106 -78 -242 -78t-176 95q-92 -100 -230 -100
t-219 76q-82 77 -82 206q0 315 508 315v60q0 162 -131 161q-137 0 -209 -159l-102 43q39 124 140 198t257 74z" />
    <glyph glyph-name="acircumflex" unicode="&#xe2;" horiz-adv-x="1028" 
d="M430 1348h164l213 -310l-68 -28l-227 188l-227 -188l-68 28zM567 473q-98 0 -149 -56q-51 -55 -51 -139q0 -162 106 -163q51 0 94 43v315zM522 942q365 0 365 -354v-400q0 -76 51 -75q29 0 70 18v-80q-106 -78 -242 -78t-176 95q-92 -100 -230 -100t-219 76
q-82 77 -82 206q0 315 508 315v60q0 162 -131 161q-137 0 -209 -159l-102 43q39 124 140 198t257 74z" />
    <glyph glyph-name="atilde" unicode="&#xe3;" horiz-adv-x="1028" 
d="M636 1049q-64 0 -150 40t-119 39q-66 0 -91 -75l-73 14q12 111 66 168q55 57 119 57t150 -40t119 -40q66 0 91 76l73 -14q-12 -111 -66 -168q-55 -57 -119 -57zM567 473q-98 0 -149 -56q-51 -55 -51 -139q0 -162 106 -163q51 0 94 43v315zM522 942q365 0 365 -354v-400
q0 -76 51 -75q29 0 70 18v-80q-106 -78 -242 -78t-176 95q-92 -100 -230 -100t-219 76q-82 77 -82 206q0 315 508 315v60q0 162 -131 161q-137 0 -209 -159l-102 43q39 124 140 198t257 74z" />
    <glyph glyph-name="adieresis" unicode="&#xe4;" horiz-adv-x="1028" 
d="M571 1176q0 53 38 90t89 37t89 -37t38 -90q0 -52 -38 -90t-89 -38t-89 38q-38 37 -38 90zM197 1176q0 53 36 90q37 37 91 37t90 -37q37 -37 37 -90q0 -52 -37 -90t-90 -38t-91 37q-36 38 -36 91zM567 473q-98 0 -149 -56q-51 -55 -51 -139q0 -162 106 -163q51 0 94 43
v315zM522 942q365 0 365 -354v-400q0 -76 51 -75q29 0 70 18v-80q-106 -78 -242 -78t-176 95q-92 -100 -230 -100t-219 76q-82 77 -82 206q0 315 508 315v60q0 162 -131 161q-137 0 -209 -159l-102 43q39 124 140 198t257 74z" />
    <glyph glyph-name="aring" unicode="&#xe5;" horiz-adv-x="1028" 
d="M602 1227q0 45 -26 73t-64 27q-39 0 -65 -28q-25 -29 -25 -73t26 -72t64 -28q39 0 65 28q25 28 25 73zM707 1227q-1 -82 -57 -136q-56 -55 -138 -55t-138 54t-57 137q1 82 57 136t138 54t138 -54t57 -136zM567 473q-98 0 -149 -56q-51 -55 -51 -139q0 -162 106 -163
q51 0 94 43v315zM522 942q365 0 365 -354v-400q0 -76 51 -75q29 0 70 18v-80q-106 -78 -242 -78t-176 95q-92 -100 -230 -100t-219 76q-82 77 -82 206q0 315 508 315v60q0 162 -131 161q-137 0 -209 -159l-102 43q39 124 140 198t257 74z" />
    <glyph glyph-name="ae" unicode="&#xe6;" horiz-adv-x="1486" 
d="M1151 557q0 262 -125 262t-135 -262h260zM510 117q70 0 115 63q-61 113 -62 281q-197 -4 -196 -193q1 -151 143 -151zM1010 -33q-207 0 -328 133q-117 -133 -301 -133q-143 0 -233 75q-89 75 -89 206q0 315 504 311v66q0 162 -131 161q-137 0 -209 -159l-102 43
q39 124 140 198t259 74t246 -68q109 68 254 68q190 0 294 -109q103 -110 105 -315q0 -49 -4 -72h-526q6 -303 217 -303q139 0 221 133l82 -51q-45 -119 -153 -189t-246 -69z" />
    <glyph glyph-name="ccedilla" unicode="&#xe7;" horiz-adv-x="915" 
d="M725 -252q0 -123 -116 -185t-269 -52l-10 79q98 12 156 52t58 89q0 47 -23 69q-24 22 -74 32t-37 49l28 90q-178 15 -283 141t-105 349t134 352q135 129 355 129q74 0 168 -14q93 -14 129 -19q0 -147 8 -323h-90q-27 231 -179 231q-199 0 -198 -338q0 -170 56 -256
t153 -86q121 0 207 135l81 -53q-94 -215 -317 -246l-14 -47q80 -14 131 -59t51 -119z" />
    <glyph glyph-name="egrave" unicode="&#xe8;" horiz-adv-x="972" 
d="M386 1350q30 0 73 -37l291 -264l-35 -50l-449 197l-4 31l60 80q34 43 64 43zM637 557q0 262 -125 262t-135 -262h260zM496 -33q-213 0 -330 135q-117 134 -117 354t124 353q123 133 323 133t304 -109q103 -110 105 -315q0 -49 -4 -72h-526q6 -303 217 -303q139 0 221 133
l82 -51q-45 -119 -153 -189t-246 -69z" />
    <glyph glyph-name="eacute" unicode="&#xe9;" horiz-adv-x="972" 
d="M627 1350q31 0 63 -43l60 -80l-5 -31l-448 -197l-35 50l291 264q43 37 74 37zM637 557q0 262 -125 262t-135 -262h260zM496 -33q-213 0 -330 135q-117 134 -117 354t124 353q123 133 323 133t304 -109q103 -110 105 -315q0 -49 -4 -72h-526q6 -303 217 -303
q139 0 221 133l82 -51q-45 -119 -153 -189t-246 -69z" />
    <glyph glyph-name="ecircumflex" unicode="&#xea;" horiz-adv-x="972" 
d="M424 1348h164l213 -310l-68 -28l-227 188l-227 -188l-68 28zM637 557q0 262 -125 262t-135 -262h260zM496 -33q-213 0 -330 135q-117 134 -117 354t124 353q123 133 323 133t304 -109q103 -110 105 -315q0 -49 -4 -72h-526q6 -303 217 -303q139 0 221 133l82 -51
q-45 -119 -153 -189t-246 -69z" />
    <glyph glyph-name="edieresis" unicode="&#xeb;" horiz-adv-x="972" 
d="M567 1176q0 53 38 90t89 37t89 -37t38 -90q0 -52 -38 -90t-89 -38t-89 38q-38 37 -38 90zM193 1176q0 53 36 90q37 37 90 37t91 -37t36 -90q0 -53 -36 -91q-36 -37 -90 -37t-91 37q-36 38 -36 91zM637 557q0 262 -125 262t-135 -262h260zM496 -33q-213 0 -330 135
q-117 134 -117 354t124 353q123 133 323 133t304 -109q103 -110 105 -315q0 -49 -4 -72h-526q6 -303 217 -303q139 0 221 133l82 -51q-45 -119 -153 -189t-246 -69z" />
    <glyph glyph-name="igrave" unicode="&#xec;" horiz-adv-x="628" 
d="M172 1350q30 0 74 -37l291 -264l-35 -50l-449 197l-4 31l60 80q33 43 63 43zM481 176q1 -47 19 -67t78 -43v-66q-190 6 -278 6t-237 -6v66l99 38v629q0 49 -18 69t-83 42v65q283 0 420 23v-756z" />
    <glyph glyph-name="iacute" unicode="&#xed;" horiz-adv-x="628" 
d="M434 1350q31 0 64 -43l59 -80l-4 -31l-449 -197l-34 50l290 264q43 37 74 37zM481 176q1 -47 19 -67t78 -43v-66q-190 6 -278 6t-237 -6v66l99 38v629q0 49 -18 69t-83 42v65q283 0 420 23v-756z" />
    <glyph glyph-name="icircumflex" unicode="&#xee;" horiz-adv-x="628" 
d="M231 1348h164l213 -310l-67 -28l-228 188l-227 -188l-68 28zM481 176q1 -47 19 -67t78 -43v-66q-190 6 -278 6t-237 -6v66l99 38v629q0 49 -18 69t-83 42v65q283 0 420 23v-756z" />
    <glyph glyph-name="idieresis" unicode="&#xef;" horiz-adv-x="628" 
d="M375 1176q0 53 38 90t89 37t89 -37t38 -90q0 -52 -38 -90t-89 -38t-89 38q-38 37 -38 90zM0 1176q0 53 37 90t90 37t90 -37t37 -90q0 -52 -37 -90t-90 -38t-90 38q-37 37 -37 90zM481 176q1 -47 19 -67t78 -43v-66q-190 6 -278 6t-237 -6v66l99 38v629q0 49 -18 69
t-83 42v65q283 0 420 23v-756z" />
    <glyph glyph-name="eth" unicode="&#xf0;" horiz-adv-x="1067" 
d="M567 801q-190 -1 -190 -357t153 -356q70 0 111 81t41 234q0 240 -70 394q-29 4 -45 4zM1008 475q0 -236 -127 -372t-349 -136t-351 127q-130 127 -130 350q0 222 119 352t332 130q39 0 76 -8q-29 66 -78 147l-215 -57l-27 96l176 47q-78 88 -176 152l39 92
q194 -66 346 -187l213 60l27 -97l-150 -43q129 -129 202 -301t73 -352z" />
    <glyph glyph-name="ntilde" unicode="&#xf1;" horiz-adv-x="1187" 
d="M766 1049q-64 0 -150 40t-120 39q-66 0 -90 -75l-74 14q12 111 66 168t118 57t150 -40t120 -40q66 0 91 76l73 -14q-12 -111 -66 -168t-118 -57zM59 909q283 0 420 23v-129q123 139 301 139q131 0 203 -84t72 -248v-434q0 -46 17 -68t77 -42v-66q-189 6 -277 6t-235 -6
v66l98 38v512q1 92 -27 120t-67 28q-88 0 -162 -92v-496q-1 -46 17 -68t77 -42v-66q-190 6 -277 6t-235 -6v66l99 38v629q0 49 -19 69t-82 42v65z" />
    <glyph glyph-name="ograve" unicode="&#xf2;" horiz-adv-x="1052" 
d="M406 1350q31 0 73 -37l291 -264l-35 -50l-448 197l-4 31l59 80q33 43 64 43zM676 455q0 193 -34 279t-116 87q-82 0 -116 -87q-34 -88 -33 -280q0 -192 34 -279q33 -87 115 -87t116 87t34 280zM1004 455q0 -231 -132 -359t-346 -129q-213 0 -345 128q-132 127 -132 359
t132 360t345 128q214 0 346 -128t132 -359z" />
    <glyph glyph-name="oacute" unicode="&#xf3;" horiz-adv-x="1052" 
d="M668 1350q31 0 63 -43l60 -80l-5 -31l-448 -197l-35 50l291 264q43 37 74 37zM676 455q0 193 -34 279t-116 87q-82 0 -116 -87q-34 -88 -33 -280q0 -192 34 -279q33 -87 115 -87t116 87t34 280zM1004 455q0 -231 -132 -359t-346 -129q-213 0 -345 128q-132 127 -132 359
t132 360t345 128q214 0 346 -128t132 -359z" />
    <glyph glyph-name="ocircumflex" unicode="&#xf4;" horiz-adv-x="1052" 
d="M444 1348h164l213 -310l-67 -28l-228 188l-227 -188l-68 28zM676 455q0 193 -34 279t-116 87q-82 0 -116 -87q-34 -88 -33 -280q0 -192 34 -279q33 -87 115 -87t116 87t34 280zM1004 455q0 -231 -132 -359t-346 -129q-213 0 -345 128q-132 127 -132 359t132 360t345 128
q214 0 346 -128t132 -359z" />
    <glyph glyph-name="otilde" unicode="&#xf5;" horiz-adv-x="1052" 
d="M650 1049q-64 0 -149 40t-120 39q-66 0 -90 -75l-74 14q13 111 67 168t118 57t150 -40q85 -40 120 -40q65 0 90 76l74 -14q-12 -111 -66 -168q-56 -57 -120 -57zM676 455q0 193 -34 279t-116 87q-82 0 -116 -87q-34 -88 -33 -280q0 -192 34 -279q33 -87 115 -87t116 87
t34 280zM1004 455q0 -231 -132 -359t-346 -129q-213 0 -345 128q-132 127 -132 359t132 360t345 128q214 0 346 -128t132 -359z" />
    <glyph glyph-name="odieresis" unicode="&#xf6;" horiz-adv-x="1052" 
d="M586 1176q0 53 37 90t90 37t90 -37t37 -90q0 -52 -37 -90t-90 -38t-90 38q-37 37 -37 90zM211 1176q0 53 38 90t89 37t89 -37t38 -90q0 -52 -38 -90t-89 -38t-89 38q-38 37 -38 90zM676 455q0 193 -34 279t-116 87q-82 0 -116 -87q-34 -88 -33 -280q0 -192 34 -279
q33 -87 115 -87t116 87t34 280zM1004 455q0 -231 -132 -359t-346 -129q-213 0 -345 128q-132 127 -132 359t132 360t345 128q214 0 346 -128t132 -359z" />
    <glyph glyph-name="divide" unicode="&#xf7;" horiz-adv-x="933" 
d="M598 121q0 -51 -36 -87t-87 -36t-88 36t-37 87t37 86t88 35t87 -35t36 -86zM819 365h-704v184h704v-184zM598 796q0 -50 -36 -87t-87 -37t-88 37t-37 87t37 86t88 36t87 -36t36 -86z" />
    <glyph glyph-name="oslash" unicode="&#xf8;" horiz-adv-x="1052" 
d="M526 821q-82 -1 -116 -87t-33 -242q0 -156 10 -218l225 508q-31 39 -86 39zM676 417q0 155 -12 234l-232 -518q33 -45 94 -45q82 0 116 87t34 242zM1004 455q0 -231 -132 -359t-346 -129q-76 0 -157 21l-39 -88h-111l55 125q-225 123 -225 430q0 231 132 359t345 128
q80 0 150 -18l41 92h108l-57 -127q236 -119 236 -434z" />
    <glyph glyph-name="ugrave" unicode="&#xf9;" horiz-adv-x="1173" 
d="M444 1350q30 0 74 -37l291 -264l-35 -50l-448 197l-4 31l59 80q33 43 63 43zM410 -33q-131 0 -203 84t-72 248v434q0 49 -18 69t-82 42v65q283 0 420 23v-639q-1 -92 27 -120t67 -28q82 0 156 93v495q-1 49 -19 69t-82 42v65q283 0 420 23v-739q0 -80 57 -80q33 0 66 16
v-82q-102 -74 -227 -74q-174 1 -205 144q-131 -150 -305 -150z" />
    <glyph glyph-name="uacute" unicode="&#xfa;" horiz-adv-x="1173" 
d="M709 1350q31 0 63 -43l59 -80l-4 -31l-448 -197l-35 50l291 264q43 37 74 37zM410 -33q-131 0 -203 84t-72 248v434q0 49 -18 69t-82 42v65q283 0 420 23v-639q-1 -92 27 -120t67 -28q82 0 156 93v495q-1 49 -19 69t-82 42v65q283 0 420 23v-739q0 -80 57 -80q33 0 66 16
v-82q-102 -74 -227 -74q-174 1 -205 144q-131 -150 -305 -150z" />
    <glyph glyph-name="ucircumflex" unicode="&#xfb;" horiz-adv-x="1173" 
d="M483 1348h164l213 -310l-67 -28l-228 188l-227 -188l-68 28zM410 -33q-131 0 -203 84t-72 248v434q0 49 -18 69t-82 42v65q283 0 420 23v-639q-1 -92 27 -120t67 -28q82 0 156 93v495q-1 49 -19 69t-82 42v65q283 0 420 23v-739q0 -80 57 -80q33 0 66 16v-82
q-102 -74 -227 -74q-174 1 -205 144q-131 -150 -305 -150z" />
    <glyph glyph-name="udieresis" unicode="&#xfc;" horiz-adv-x="1173" 
d="M635 1176q0 53 37 90t90 37t90 -37t37 -90q0 -52 -37 -90t-90 -38t-90 38q-37 37 -37 90zM260 1176q0 53 38 90t89 37t89 -37t38 -90q0 -52 -38 -90t-89 -38t-89 38q-38 37 -38 90zM410 -33q-131 0 -203 84t-72 248v434q0 49 -18 69t-82 42v65q283 0 420 23v-639
q-1 -92 27 -120t67 -28q82 0 156 93v495q-1 49 -19 69t-82 42v65q283 0 420 23v-739q0 -80 57 -80q33 0 66 16v-82q-102 -74 -227 -74q-174 1 -205 144q-131 -150 -305 -150z" />
    <glyph glyph-name="yacute" unicode="&#xfd;" horiz-adv-x="1001" 
d="M709 1350q31 0 63 -43l59 -80l-4 -31l-448 -197l-35 50l291 264q43 37 74 37zM214 903q180 0 290 6v-65l-86 -33l59 -139q86 -203 133 -350q43 131 125 340l58 149l-78 33v65q69 -4 141 -4t182 4v-65q-70 -14 -98 -38t-55 -97l-336 -850q-76 -189 -153 -265t-166 -76
t-133 42q-44 41 -44 88q0 46 24 72t62 26l142 -16q51 0 83 37t70 137l25 63l-334 744q-31 69 -57 91t-101 42v65q67 -6 247 -6z" />
    <glyph glyph-name="thorn" unicode="&#xfe;" horiz-adv-x="1112" 
d="M708 942q150 0 249 -130t99 -351t-118 -357q-119 -136 -309 -137q-113 0 -185 47v-290q0 -45 23 -67t86 -44v-66q-316 10 -526 0v66l98 39v1534q-1 49 -19 68t-81 42v66q282 -1 419 22v-557q114 115 264 115zM729 446q0 332 -150 332q-73 0 -135 -69v-580q47 -29 101 -29
q88 0 136 91t48 255z" />
    <glyph glyph-name="ydieresis" unicode="&#xff;" horiz-adv-x="1001" 
d="M657 1176q0 53 38 90t89 37t89 -37t38 -90q0 -52 -38 -90t-89 -38t-89 38q-38 37 -38 90zM283 1176q0 53 36 90q37 37 91 37t90 -37q37 -37 37 -90q0 -52 -37 -90t-90 -38t-91 37q-36 38 -36 91zM214 903q180 0 290 6v-65l-86 -33l59 -139q86 -203 133 -350
q43 131 125 340l58 149l-78 33v65q69 -4 141 -4t182 4v-65q-70 -14 -98 -38t-55 -97l-336 -850q-76 -189 -153 -265t-166 -76t-133 42q-44 41 -44 88q0 46 24 72t62 26l142 -16q51 0 83 37t70 137l25 63l-334 744q-31 69 -57 91t-101 42v65q67 -6 247 -6z" />
    <glyph glyph-name="Amacron" unicode="&#x100;" horiz-adv-x="1384" 
d="M940 1415h-537v135h537v-135zM578 928l-156 -436h321zM299 128q0 -20 24 -33t89 -23v-72q-184 6 -219 6t-189 -6v72l123 39l434 1169h221l412 -1051q30 -77 64 -107t120 -50v-72q-214 6 -286 6t-330 -6v72l125 39l-101 264h-407l-68 -193q-12 -34 -12 -54z" />
    <glyph glyph-name="amacron" unicode="&#x101;" horiz-adv-x="1028" 
d="M780 1075h-536v135h536v-135zM567 473q-98 0 -149 -56q-51 -55 -51 -139q0 -162 106 -163q51 0 94 43v315zM522 942q365 0 365 -354v-400q0 -76 51 -75q29 0 70 18v-80q-106 -78 -242 -78t-176 95q-92 -100 -230 -100t-219 76q-82 77 -82 206q0 315 508 315v60
q0 162 -131 161q-137 0 -209 -159l-102 43q39 124 140 198t257 74z" />
    <glyph glyph-name="Abreve" unicode="&#x102;" horiz-adv-x="1384" 
d="M672 1382q-117 0 -186 73t-68 187h84q27 -108 170 -108t170 108h84q0 -116 -68 -188t-186 -72zM578 928l-156 -436h321zM299 128q0 -20 24 -33t89 -23v-72q-184 6 -219 6t-189 -6v72l123 39l434 1169h221l412 -1051q30 -77 64 -107t120 -50v-72q-214 6 -286 6t-330 -6v72
l125 39l-101 264h-407l-68 -193q-12 -34 -12 -54z" />
    <glyph glyph-name="abreve" unicode="&#x103;" horiz-adv-x="1028" 
d="M512 1040q-118 0 -186 73t-68 187h84q27 -108 170 -108t170 108h84q0 -116 -68 -188t-186 -72zM567 473q-98 0 -149 -56q-51 -55 -51 -139q0 -162 106 -163q51 0 94 43v315zM522 942q365 0 365 -354v-400q0 -76 51 -75q29 0 70 18v-80q-106 -78 -242 -78t-176 95
q-92 -100 -230 -100t-219 76q-82 77 -82 206q0 315 508 315v60q0 162 -131 161q-137 0 -209 -159l-102 43q39 124 140 198t257 74z" />
    <glyph glyph-name="Aogonek" unicode="&#x104;" horiz-adv-x="1384" 
d="M578 928l-156 -436h321zM1026 -258q0 -53 27 -83t78 -30t104 23l29 -78q-86 -59 -198 -59t-169 51t-57 139t55 169t147 132l-280 -6v72l125 39l-101 264h-407l-68 -193q-12 -34 -12 -54t24 -33t89 -23v-72q-184 6 -219 6t-189 -6v72l123 39l434 1169h221l412 -1051
q30 -77 64 -107t120 -50v-72l-190 4q-162 -100 -162 -262z" />
    <glyph glyph-name="aogonek" unicode="&#x105;" horiz-adv-x="1028" 
d="M567 473q-98 0 -149 -56q-51 -55 -51 -139q0 -162 106 -163q51 0 94 43v315zM522 942q365 0 365 -354v-400q0 -76 51 -75q29 0 70 18v-80q-236 -127 -236 -309q0 -53 27 -83t78 -30t104 23l29 -78q-86 -59 -196 -59t-170 52q-58 52 -58 142q0 150 155 266
q-117 10 -151 93q-92 -100 -230 -100t-219 76q-82 77 -82 206q0 315 508 315v60q0 162 -131 161q-137 0 -209 -159l-102 43q39 124 140 198t257 74z" />
    <glyph glyph-name="Cacute" unicode="&#x106;" horiz-adv-x="1208" 
d="M971 1556l-10 -30l-453 -162l-25 49l293 232q45 35 73 35t58 -40zM754 1182q-156 0 -243 -144t-87 -395q0 -250 87 -376t254 -126t304 160l82 -63q-168 -270 -498 -271q-276 0 -432 177q-155 176 -155 486t179 495t488 186q74 1 210 -17t157 -20q0 -66 16 -377h-102
q-31 285 -260 285z" />
    <glyph glyph-name="cacute" unicode="&#x107;" horiz-adv-x="915" 
d="M656 1350q30 0 63 -43l59 -80l-4 -31l-448 -197l-35 50l291 264q44 37 74 37zM494 -33q-201 0 -323 127q-122 126 -122 358t135 361t355 129q74 0 168 -14q93 -14 129 -19q0 -147 8 -323h-90q-27 231 -179 231q-199 0 -198 -338q0 -170 56 -256t153 -86q121 0 207 135
l81 -53q-51 -117 -149 -185t-231 -67z" />
    <glyph glyph-name="Ccircumflex" unicode="&#x108;" horiz-adv-x="1208" 
d="M639 1669h164l213 -262l-45 -43l-250 156l-250 -156l-45 43zM754 1182q-156 0 -243 -144t-87 -395q0 -250 87 -376t254 -126t304 160l82 -63q-168 -270 -498 -271q-276 0 -432 177q-155 176 -155 486t179 495t488 186q74 1 210 -17t157 -20q0 -66 16 -377h-102
q-31 285 -260 285z" />
    <glyph glyph-name="ccircumflex" unicode="&#x109;" horiz-adv-x="915" 
d="M453 1348h163l213 -310l-67 -28l-227 188l-228 -188l-67 28zM494 -33q-201 0 -323 127q-122 126 -122 358t135 361t355 129q74 0 168 -14q93 -14 129 -19q0 -147 8 -323h-90q-27 231 -179 231q-199 0 -198 -338q0 -170 56 -256t153 -86q121 0 207 135l81 -53
q-51 -117 -149 -185t-231 -67z" />
    <glyph glyph-name="Cdotaccent" unicode="&#x10a;" horiz-adv-x="1208" 
d="M586 1534q0 59 42 102t101 43t102 -43t43 -102t-43 -101t-102 -42t-101 42t-42 101zM754 1182q-156 0 -243 -144t-87 -395q0 -250 87 -376t254 -126t304 160l82 -63q-168 -270 -498 -271q-276 0 -432 177q-155 176 -155 486t179 495t488 186q74 1 210 -17t157 -20
q0 -66 16 -377h-102q-31 285 -260 285z" />
    <glyph glyph-name="cdotaccent" unicode="&#x10b;" horiz-adv-x="915" 
d="M397 1176q0 59 42 102q41 43 101 43t103 -43t43 -102q0 -60 -43 -102t-102 -42t-102 42q-42 43 -42 102zM494 -33q-201 0 -323 127q-122 126 -122 358t135 361t355 129q74 0 168 -14q93 -14 129 -19q0 -147 8 -323h-90q-27 231 -179 231q-199 0 -198 -338q0 -170 56 -256
t153 -86q121 0 207 135l81 -53q-51 -117 -149 -185t-231 -67z" />
    <glyph glyph-name="Ccaron" unicode="&#x10c;" horiz-adv-x="1208" 
d="M813 1384h-164l-213 263l45 43l250 -156l250 156l45 -43zM754 1182q-156 0 -243 -144t-87 -395q0 -250 87 -376t254 -126t304 160l82 -63q-168 -270 -498 -271q-276 0 -432 177q-155 176 -155 486t179 495t488 186q74 1 210 -17t157 -20q0 -66 16 -377h-102
q-31 285 -260 285z" />
    <glyph glyph-name="ccaron" unicode="&#x10d;" horiz-adv-x="915" 
d="M623 1016h-164l-213 309l67 29l228 -189l227 189l68 -29zM494 -33q-201 0 -323 127q-122 126 -122 358t135 361t355 129q74 0 168 -14q93 -14 129 -19q0 -147 8 -323h-90q-27 231 -179 231q-199 0 -198 -338q0 -170 56 -256t153 -86q121 0 207 135l81 -53
q-51 -117 -149 -185t-231 -67z" />
    <glyph glyph-name="Dcaron" unicode="&#x10e;" horiz-adv-x="1415" 
d="M803 1384h-164l-213 263l45 43l250 -156l250 156l45 -43zM561 1161h-24v-964q0 -43 24 -63q25 -19 92 -19h4q162 0 250 134t88 388q0 311 -121 430q-96 94 -313 94zM74 0v72l125 39v954q0 67 -22 93t-109 50v72h489q422 0 608 -164q187 -164 187 -473t-171 -476
t-489 -167h-618z" />
    <glyph glyph-name="dcaron" unicode="&#x10f;" horiz-adv-x="1298" 
d="M1206 1311q64 -1 107 -51t43 -139t-62 -189t-178 -168l-37 53q125 121 125 197q0 30 -33 56t-65 56t-33 76q0 45 34 77q35 32 99 32zM555 127q63 0 115 43v604q-49 31 -103 31q-88 0 -136 -87t-48 -253q0 -338 172 -338zM989 193q0 -80 58 -80q33 0 65 16v-82
q-102 -74 -233 -74t-183 97q-98 -102 -250 -103q-198 1 -294 141t-96 350t118 348q119 136 309 136q111 0 187 -51v295q0 49 -18 68t-83 42v66q283 -1 420 22v-1191z" />
    <glyph glyph-name="Dcroat" unicode="&#x110;" horiz-adv-x="1419" 
d="M561 1161h-24v-436h186v-123h-186v-405q0 -43 24 -63q25 -19 92 -19h4q162 0 250 134t88 388q0 311 -121 430q-96 94 -313 94zM74 0v72l125 39v491h-146v123h146v340q0 67 -22 93t-109 50v72h491q422 0 608 -164q187 -164 187 -473t-171 -476t-489 -167h-620z" />
    <glyph glyph-name="dcroat" unicode="&#x111;" horiz-adv-x="1138" 
d="M555 127q63 0 115 43v604q-49 31 -103 31q-88 0 -136 -87t-48 -253q0 -338 172 -338zM989 1155h148v-102h-148v-860q0 -80 58 -80q33 0 65 16v-82q-102 -74 -233 -74t-183 97q-98 -102 -250 -103q-198 1 -294 141t-96 350t118 348q119 136 309 136q111 0 187 -51v162
h-252v102h252v31q0 49 -18 68t-83 42v66q283 -1 420 22v-229z" />
    <glyph glyph-name="Emacron" unicode="&#x112;" horiz-adv-x="1175" 
d="M860 1415h-536v135h536v-135zM70 0v72l125 39v954q0 67 -22 93t-110 50v72h979q4 -170 25 -334h-102q-15 127 -69 175t-174 48t-190 -4v-454h66q203 0 307 22l-14 -155q-121 16 -293 16h-66v-373q0 -59 40 -85t168 -26t188 49q59 48 80 169h94q-12 -135 -12 -328h-1020z
" />
    <glyph glyph-name="emacron" unicode="&#x113;" horiz-adv-x="972" 
d="M774 1075h-536v135h536v-135zM637 557q0 262 -125 262t-135 -262h260zM496 -33q-213 0 -330 135q-117 134 -117 354t124 353q123 133 323 133t304 -109q103 -110 105 -315q0 -49 -4 -72h-526q6 -303 217 -303q139 0 221 133l82 -51q-45 -119 -153 -189t-246 -69z" />
    <glyph glyph-name="Ebreve" unicode="&#x114;" horiz-adv-x="1175" 
d="M596 1382q-118 0 -186 73t-68 187h84q27 -108 170 -108t170 108h84q0 -116 -68 -188t-186 -72zM70 0v72l125 39v954q0 67 -22 93t-110 50v72h979q4 -170 25 -334h-102q-15 127 -69 175t-174 48t-190 -4v-454h66q203 0 307 22l-14 -155q-121 16 -293 16h-66v-373
q0 -59 40 -85t168 -26t188 49q59 48 80 169h94q-12 -135 -12 -328h-1020z" />
    <glyph glyph-name="ebreve" unicode="&#x115;" horiz-adv-x="972" 
d="M506 1040q-118 0 -186 73t-68 187h84q27 -108 170 -108t170 108h84q0 -116 -68 -188t-186 -72zM637 557q0 262 -125 262t-135 -262h260zM496 -33q-213 0 -330 135q-117 134 -117 354t124 353q123 133 323 133t304 -109q103 -110 105 -315q0 -49 -4 -72h-526
q6 -303 217 -303q139 0 221 133l82 -51q-45 -119 -153 -189t-246 -69z" />
    <glyph glyph-name="Edotaccent" unicode="&#x116;" horiz-adv-x="1175" 
d="M451 1534q0 59 42 102t101 43t102 -43t43 -102t-43 -101t-102 -42t-101 42t-42 101zM70 0v72l125 39v954q0 67 -22 93t-110 50v72h979q4 -170 25 -334h-102q-15 127 -69 175t-174 48t-190 -4v-454h66q203 0 307 22l-14 -155q-121 16 -293 16h-66v-373q0 -59 40 -85
t168 -26t188 49q59 48 80 169h94q-12 -135 -12 -328h-1020z" />
    <glyph glyph-name="edotaccent" unicode="&#x117;" horiz-adv-x="972" 
d="M362 1176q0 59 42 102t102 43t102 -43q43 -43 43 -102q0 -60 -43 -102t-102 -42t-102 42q-42 43 -42 102zM637 557q0 262 -125 262t-135 -262h260zM496 -33q-213 0 -330 135q-117 134 -117 354t124 353q123 133 323 133t304 -109q103 -110 105 -315q0 -49 -4 -72h-526
q6 -303 217 -303q139 0 221 133l82 -51q-45 -119 -153 -189t-246 -69z" />
    <glyph glyph-name="Eogonek" unicode="&#x118;" horiz-adv-x="1175" 
d="M70 0v72l125 39v954q0 67 -22 93t-110 50v72h979q4 -170 25 -334h-102q-15 127 -69 175t-174 48t-190 -4v-454h66q203 0 307 22l-14 -155q-121 16 -293 16h-66v-373q0 -59 40 -85t168 -26t188 49q59 48 80 169h94q-12 -135 -12 -328h-136q-154 -100 -153 -258
q1 -53 27 -83t77 -30t105 23l28 -78q-86 -59 -198 -59t-168 51q-58 51 -58 137t52 165t139 132h-735z" />
    <glyph glyph-name="eogonek" unicode="&#x119;" horiz-adv-x="972" 
d="M635 557q0 262 -127 262q-121 0 -131 -262h258zM608 -485q-112 0 -170 51q-57 51 -57 141q0 129 147 260q-233 0 -356 134q-123 135 -123 355t124 353q125 133 323 133t302 -109q103 -110 105 -315q0 -49 -2 -72h-526q6 -303 217 -303q139 0 221 133l82 -51
q-35 -88 -181 -220t-147 -259q0 -53 28 -85t78 -32t103 23l29 -78q-85 -59 -197 -59z" />
    <glyph glyph-name="Ecaron" unicode="&#x11a;" horiz-adv-x="1175" 
d="M686 1384h-164l-213 263l45 43l250 -156l250 156l45 -43zM70 0v72l125 39v954q0 67 -22 93t-110 50v72h979q4 -170 25 -334h-102q-15 127 -69 175t-174 48t-190 -4v-454h66q203 0 307 22l-14 -155q-121 16 -293 16h-66v-373q0 -59 40 -85t168 -26t188 49q59 48 80 169h94
q-12 -135 -12 -328h-1020z" />
    <glyph glyph-name="ecaron" unicode="&#x11b;" horiz-adv-x="972" 
d="M588 1016h-164l-213 309l68 29l227 -189l227 189l68 -29zM637 557q0 262 -125 262t-135 -262h260zM496 -33q-213 0 -330 135q-117 134 -117 354t124 353q123 133 323 133t304 -109q103 -110 105 -315q0 -49 -4 -72h-526q6 -303 217 -303q139 0 221 133l82 -51
q-45 -119 -153 -189t-246 -69z" />
    <glyph glyph-name="Gcircumflex" unicode="&#x11c;" horiz-adv-x="1404" 
d="M676 1669h164l213 -262l-45 -43l-250 156l-250 -156l-45 43zM1225 420v-314q-215 -139 -521 -139t-473 171q-165 171 -165 491q0 321 191 501t515 181q110 1 234 -17t163 -22q6 -160 17 -381h-103q-16 135 -88 213t-200 78q-179 0 -275 -144t-96 -395q0 -250 76 -396
t227 -147q84 0 128 44t44 157v221l-145 41v72q172 -6 286 -6t316 6v-72q-88 -25 -110 -51t-21 -92z" />
    <glyph glyph-name="gcircumflex" unicode="&#x11d;" horiz-adv-x="1032" 
d="M434 1348h164l213 -310l-68 -28l-227 188l-227 -188l-68 28zM629 604q0 102 -32 160t-91 59q-59 0 -91 -58q-32 -59 -32 -161t32 -160t91 -59q59 1 91 59t32 160zM778 -197q0 55 -97 74t-189 27q-93 8 -134 14q-43 -53 -43 -119q-1 -65 57 -105t156 -40t174 44t76 105z
M924 604q0 -160 -113 -249t-305 -89q-84 0 -156 19q-6 -12 -6 -29q0 -43 68 -59q68 -15 164 -23t190 -26q96 -18 164 -84q68 -64 67 -175q-1 -168 -157 -269t-354 -101q-198 -1 -320 67q-121 68 -121 178q0 139 197 191q-123 59 -123 177t119 198q-150 88 -150 261t113 262
t305 89q139 0 246 -51q119 10 278 47v-156h-39q-90 0 -123 9q56 -70 56 -187z" />
    <glyph glyph-name="Gbreve" unicode="&#x11e;" horiz-adv-x="1404" 
d="M764 1382q-118 0 -186 73t-68 187h84q27 -108 170 -108t170 108h84q0 -116 -68 -188t-186 -72zM1225 420v-314q-215 -139 -521 -139t-473 171q-165 171 -165 491q0 321 191 501t515 181q110 1 234 -17t163 -22q6 -160 17 -381h-103q-16 135 -88 213t-200 78
q-179 0 -275 -144t-96 -395q0 -250 76 -396t227 -147q84 0 128 44t44 157v221l-145 41v72q172 -6 286 -6t316 6v-72q-88 -25 -110 -51t-21 -92z" />
    <glyph glyph-name="gbreve" unicode="&#x11f;" horiz-adv-x="1032" 
d="M516 1040q-118 0 -186 73t-68 187h84q27 -108 170 -108t170 108h84q0 -116 -68 -188t-186 -72zM629 604q0 102 -32 160t-91 59q-59 0 -91 -58q-32 -59 -32 -161t32 -160t91 -59q59 1 91 59t32 160zM778 -197q0 55 -97 74t-189 27q-93 8 -134 14q-43 -53 -43 -119
q-1 -65 57 -105t156 -40t174 44t76 105zM924 604q0 -160 -113 -249t-305 -89q-84 0 -156 19q-6 -12 -6 -29q0 -43 68 -59q68 -15 164 -23t190 -26q96 -18 164 -84q68 -64 67 -175q-1 -168 -157 -269t-354 -101q-198 -1 -320 67q-121 68 -121 178q0 139 197 191
q-123 59 -123 177t119 198q-150 88 -150 261t113 262t305 89q139 0 246 -51q119 10 278 47v-156h-39q-90 0 -123 9q56 -70 56 -187z" />
    <glyph glyph-name="Gdotaccent" unicode="&#x120;" horiz-adv-x="1404" 
d="M616 1534q0 59 42 102t102 43t102 -43q43 -43 43 -102t-43 -101t-102 -42t-102 42q-42 42 -42 101zM1225 420v-314q-215 -139 -521 -139t-473 171q-165 171 -165 491q0 321 191 501t515 181q110 1 234 -17t163 -22q6 -160 17 -381h-103q-16 135 -88 213t-200 78
q-179 0 -275 -144t-96 -395q0 -250 76 -396t227 -147q84 0 128 44t44 157v221l-145 41v72q172 -6 286 -6t316 6v-72q-88 -25 -110 -51t-21 -92z" />
    <glyph glyph-name="gdotaccent" unicode="&#x121;" horiz-adv-x="1032" 
d="M371 1176q0 59 42 102t101 43t102 -43t43 -102q0 -60 -43 -102t-102 -42t-101 42t-42 102zM629 604q0 102 -32 160t-91 59q-59 0 -91 -58q-32 -59 -32 -161t32 -160t91 -59q59 1 91 59t32 160zM778 -197q0 55 -97 74t-189 27q-93 8 -134 14q-43 -53 -43 -119
q-1 -65 57 -105t156 -40t174 44t76 105zM924 604q0 -160 -113 -249t-305 -89q-84 0 -156 19q-6 -12 -6 -29q0 -43 68 -59q68 -15 164 -23t190 -26q96 -18 164 -84q68 -64 67 -175q-1 -168 -157 -269t-354 -101q-198 -1 -320 67q-121 68 -121 178q0 139 197 191
q-123 59 -123 177t119 198q-150 88 -150 261t113 262t305 89q139 0 246 -51q119 10 278 47v-156h-39q-90 0 -123 9q56 -70 56 -187z" />
    <glyph glyph-name="Gcommaaccent" unicode="&#x122;" horiz-adv-x="1404" 
d="M724 -102q64 0 108 -50q42 -50 42 -140q0 -89 -62 -189t-177 -168l-37 53q125 121 125 197q0 31 -33 57q-34 26 -66 56t-32 75t34 77t98 32zM1225 420v-314q-215 -139 -521 -139t-473 171q-165 171 -165 491q0 321 191 501t515 181q110 1 234 -17t163 -22q6 -160 17 -381
h-103q-16 135 -88 213t-200 78q-179 0 -275 -144t-96 -395q0 -250 76 -396t227 -147q84 0 128 44t44 157v221l-145 41v72q172 -6 286 -6t316 6v-72q-88 -25 -110 -51t-21 -92z" />
    <glyph glyph-name="gcommaaccent" unicode="&#x123;" horiz-adv-x="1032" 
d="M629 604q0 102 -32 160t-91 59q-59 0 -91 -58q-32 -59 -32 -161t32 -160t91 -59q59 1 91 59t32 160zM778 -197q0 55 -97 74t-189 27q-93 8 -134 14q-43 -53 -43 -119q-1 -65 57 -105t156 -40t174 44t76 105zM924 604q0 -160 -113 -249t-305 -89q-84 0 -156 19
q-6 -12 -6 -29q0 -43 68 -59q68 -15 164 -23t190 -26q96 -18 164 -84q68 -64 67 -175q-1 -168 -157 -269t-354 -101q-198 -1 -320 67q-121 68 -121 178q0 139 197 191q-123 59 -123 177t119 198q-150 88 -150 261t113 262t305 89q139 0 246 -51q119 10 278 47v-156h-39
q-90 0 -123 9q56 -70 56 -187zM365 1201q0 89 62 189t177 169l37 -54q-125 -121 -125 -196q0 -31 33 -57t65 -56t33 -76q0 -45 -34 -77q-35 -31 -99 -31t-106 50t-43 139z" />
    <glyph glyph-name="Hcircumflex" unicode="&#x124;" horiz-adv-x="1515" 
d="M676 1669h164l213 -262l-45 -43l-250 156l-250 -156l-45 43zM1321 215q-1 -67 21 -93t110 -50v-72q-202 6 -312 6t-282 -6v72l125 39v487h-451v-383q0 -67 22 -93t110 -50v-72q-202 6 -312 6t-282 -6v72l125 39v954q0 67 -22 93t-110 50v72q203 -6 313 -6t281 6v-72
l-125 -39v-440h451v336q1 67 -21 93t-110 50v72q202 -6 312 -6t282 6v-72l-125 -39v-954z" />
    <glyph glyph-name="hcircumflex" unicode="&#x125;" horiz-adv-x="1175" 
d="M221 1710h164l213 -262l-45 -43l-250 156l-250 -156l-45 43zM725 616q0 148 -94 148q-88 0 -162 -92v-496q0 -46 17 -68t77 -42v-66q-189 6 -277 6t-235 -6v66l99 38v1082q0 49 -19 68t-82 42v66q283 0 420 22v-581q123 139 301 139q131 0 203 -84t71 -248v-434
q0 -46 18 -68t77 -42v-66q-189 6 -277 6t-235 -6v66l98 38v512z" />
    <glyph glyph-name="Hbar" unicode="&#x126;" horiz-adv-x="1523" 
d="M537 729h450v193h-450v-193zM1481 922h-156v-707q0 -67 22 -93t109 -50v-72q-202 6 -312 6t-282 -6v72l125 39v487h-450v-383q-1 -67 21 -93t110 -50v-72q-202 6 -312 6t-282 -6v72l125 39v811h-156v118h156v25q0 67 -22 93t-109 50v72q203 -6 312 -6t282 6v-72l-125 -39
v-129h450v25q1 67 -21 93t-110 50v72q202 -6 312 -6t282 6v-72l-125 -39v-129h156v-118z" />
    <glyph glyph-name="hbar" unicode="&#x127;" horiz-adv-x="1175" 
d="M723 616q0 148 -94 148q-88 0 -162 -92v-496q0 -46 17 -68t77 -42v-66q-189 6 -277 6t-235 -6v66l98 38v949h-147v102h147v31q0 49 -18 68q-19 19 -82 42v66q283 0 420 22v-229h252v-102h-252v-250q123 139 301 139q131 0 203 -84t71 -248v-434q0 -46 18 -68t77 -42v-66
q-189 6 -277 6t-235 -6v66l98 38v512z" />
    <glyph glyph-name="Itilde" unicode="&#x128;" horiz-adv-x="731" 
d="M488 1397q-64 0 -149 40t-120 40q-66 0 -90 -76l-74 14q13 111 67 168t118 57t150 -40q85 -40 120 -39q65 -1 90 75l74 -14q-12 -111 -66 -168q-56 -57 -120 -57zM535 215q-1 -67 21 -93t110 -50v-72q-202 6 -312 6t-282 -6v72l125 39v954q0 67 -22 93t-109 50v72
q203 -6 312 -6t281 6v-72l-124 -39v-954z" />
    <glyph glyph-name="itilde" unicode="&#x129;" horiz-adv-x="628" 
d="M438 1049q-64 0 -150 40q-85 40 -120 39q-66 0 -90 -75l-74 14q12 111 66 168t120 57q64 0 149 -40t120 -40q65 0 90 76l74 -14q-13 -111 -67 -168t-118 -57zM481 176q1 -47 19 -67t78 -43v-66q-190 6 -278 6t-237 -6v66l99 38v629q0 49 -18 69t-83 42v65q283 0 420 23
v-756z" />
    <glyph glyph-name="Imacron" unicode="&#x12a;" horiz-adv-x="731" 
d="M633 1415h-537v135h537v-135zM535 215q-1 -67 21 -93t110 -50v-72q-202 6 -312 6t-282 -6v72l125 39v954q0 67 -22 93t-109 50v72q203 -6 312 -6t281 6v-72l-124 -39v-954z" />
    <glyph glyph-name="imacron" unicode="&#x12b;" horiz-adv-x="628" 
d="M582 1075h-537v135h537v-135zM481 176q1 -47 19 -67t78 -43v-66q-190 6 -278 6t-237 -6v66l99 38v629q0 49 -18 69t-83 42v65q283 0 420 23v-756z" />
    <glyph glyph-name="Ibreve" unicode="&#x12c;" horiz-adv-x="731" 
d="M365 1382q-117 0 -186 73t-68 187h84q27 -108 170 -108t170 108h83q0 -116 -68 -188t-185 -72zM535 215q-1 -67 21 -93t110 -50v-72q-202 6 -312 6t-282 -6v72l125 39v954q0 67 -22 93t-109 50v72q203 -6 312 -6t281 6v-72l-124 -39v-954z" />
    <glyph glyph-name="ibreve" unicode="&#x12d;" horiz-adv-x="628" 
d="M313 1040q-117 0 -185 73t-69 187h84q27 -108 170 -108t170 108h84q-1 -116 -69 -188t-185 -72zM481 176q1 -47 19 -67t78 -43v-66q-190 6 -278 6t-237 -6v66l99 38v629q0 49 -18 69t-83 42v65q283 0 420 23v-756z" />
    <glyph glyph-name="Iogonek" unicode="&#x12e;" horiz-adv-x="731" 
d="M326 -248q0 -57 28 -90t80 -33t105 23l28 -78q-79 -59 -193 -59t-174 55t-60 144t48 166q49 77 136 126l-252 -6v72l125 39v954q0 67 -22 93t-109 50v72q203 -6 312 -6t281 6v-72l-124 -39v-954q-1 -67 21 -93t110 -50v-72l-199 4q-141 -98 -141 -252z" />
    <glyph glyph-name="iogonek" unicode="&#x12f;" horiz-adv-x="628" 
d="M147 1192q-1 68 47 116t116 48t115 -48q48 -48 48 -116t-48 -115t-116 -47t-115 47t-47 115zM289 -248q1 -57 29 -90t79 -33t105 23l28 -78q-80 -59 -193 -59t-174 55t-61 143t48 166t129 127l-216 -6v66l99 38v629q0 49 -18 69t-83 42v65q283 0 420 23v-756
q1 -47 19 -67t78 -43v-66l-160 4q-129 -92 -129 -252z" />
    <glyph glyph-name="Idotaccent" unicode="&#x130;" horiz-adv-x="731" 
d="M221 1534q0 59 42 102q41 43 101 43t103 -43t43 -102t-43 -101t-102 -42t-102 42q-42 42 -42 101zM535 215q-1 -67 21 -93t110 -50v-72q-202 6 -312 6t-282 -6v72l125 39v954q0 67 -22 93t-109 50v72q203 -6 312 -6t281 6v-72l-124 -39v-954z" />
    <glyph glyph-name="dotlessi" unicode="&#x131;" horiz-adv-x="628" 
d="M481 176q1 -47 19 -67t78 -43v-66q-190 6 -278 6t-237 -6v66l99 38v629q0 49 -18 69t-83 42v65q283 0 420 23v-756z" />
    <glyph glyph-name="IJ" unicode="&#x132;" horiz-adv-x="1435" 
d="M918 166v899q0 67 -22 93t-110 50v72q202 -6 312 -6t282 6v-72l-125 -39v-985q0 -298 -150 -459q-124 -133 -374 -178l-31 93q122 56 170 172t48 354zM535 215q-1 -67 21 -93t110 -50v-72q-202 6 -312 6t-282 -6v72l125 39v954q0 67 -22 93t-109 50v72q203 -6 312 -6
t281 6v-72l-124 -39v-954z" />
    <glyph glyph-name="ij" unicode="&#x133;" horiz-adv-x="1220" 
d="M762 1192q0 68 47 116t115 48t116 -48t47 -116q0 -68 -48 -115q-47 -47 -115 -47t-115 47t-47 115zM1096 6q0 -459 -480 -485l-14 88q92 29 133 103t41 220v801q0 49 -18 69t-82 42v65q283 0 420 23v-926zM147 1192q-1 68 47 116t116 48t115 -48q48 -48 48 -116t-48 -115
t-116 -47t-115 47t-47 115zM481 176q1 -47 19 -67t78 -43v-66q-190 6 -278 6t-237 -6v66l99 38v629q0 49 -18 69t-83 42v65q283 0 420 23v-756z" />
    <glyph glyph-name="Jcircumflex" unicode="&#x134;" horiz-adv-x="704" 
d="M270 1669h164l213 -262l-45 -43l-250 156l-250 -156l-45 43zM186 166v899q0 67 -22 93t-109 50v72q203 -6 313 -6t281 6v-72l-125 -39v-985q0 -298 -150 -459q-124 -133 -374 -178l-31 93q123 56 170 172t47 354z" />
    <glyph glyph-name="jcircumflex" unicode="&#x135;" horiz-adv-x="591" 
d="M215 1348h164l213 -310l-68 -28l-227 188l-227 -188l-68 28zM467 6q0 -459 -479 -485l-15 88q92 29 133 103t41 220v801q0 49 -18 69t-82 42v65q283 0 420 23v-926z" />
    <glyph glyph-name="Kcommaaccent" unicode="&#x136;" horiz-adv-x="1386" 
d="M728 -102q64 0 108 -50q43 -50 43 -140q-1 -89 -63 -189t-177 -168l-37 53q125 121 125 197q0 31 -33 57q-34 26 -66 56t-32 75t34 77t98 32zM1391 0h-471q-2 78 -72 205l-209 385l-107 -121v-254q0 -67 22 -93t110 -50v-72q-202 6 -312 6t-282 -6v72l125 39v954
q0 67 -22 93t-110 50v72q203 -6 313 -6t281 6v-72l-125 -39v-505l439 510l-119 34v72l254 -8q20 0 217 8v-74q-97 -12 -151 -40t-119 -103l-195 -223l330 -602q47 -86 85 -119t118 -47v-72z" />
    <glyph glyph-name="kcommaaccent" unicode="&#x137;" horiz-adv-x="1138" 
d="M614 -102q64 0 107 -50t43 -140q0 -89 -62 -189t-178 -168l-37 53q125 121 125 197q0 31 -32 57t-66 56q-33 30 -33 75t34 77q35 32 99 32zM896 905q124 0 222 4v-65q-72 -6 -121 -28t-120 -77l-127 -100l221 -422q37 -69 73 -101t103 -50v-66h-244q-94 0 -145 35
t-96 121l-150 293l-45 -37v-236q0 -47 18 -67t78 -43v-66q-191 6 -279 6t-235 -6v66l98 38v1082q0 49 -18 68t-82 42v66q283 -1 420 22v-833l315 262l-96 31v65q86 -4 210 -4z" />
    <glyph glyph-name="kgreenlandic" unicode="&#x138;" horiz-adv-x="1161" 
d="M919 905q124 0 222 4v-65q-72 -6 -121 -28t-121 -77l-127 -100l221 -422q37 -69 73 -101t103 -50v-66h-243q-94 0 -146 35q-51 35 -96 121l-149 293l-56 -46v-227q1 -47 19 -67t77 -43v-66q-190 6 -278 6t-236 -6v66l99 38v629q0 49 -18 69t-83 42v65q283 0 420 23v-381
l326 262l-96 31v65q86 -4 210 -4z" />
    <glyph glyph-name="Lacute" unicode="&#x139;" horiz-adv-x="1114" 
d="M608 1556l-10 -30l-453 -162l-24 49l293 232q44 35 72 35t59 -40zM532 221q0 -59 37 -85t160 -26t178 49q55 48 76 169h94q-12 -135 -12 -328h-995v72l125 39v954q0 67 -22 93t-110 50v72q203 -6 313 -6t281 6v-72l-125 -39v-948z" />
    <glyph glyph-name="lacute" unicode="&#x13a;" horiz-adv-x="612" 
d="M404 1716q28 0 59 -39l63 -84l-10 -30l-453 -162l-24 49l293 231q44 35 72 35zM467 176q0 -47 18 -67t78 -43v-66q-191 6 -279 6t-235 -6v66l98 38v1082q0 49 -18 68t-82 42v66q283 -1 420 22v-1208z" />
    <glyph glyph-name="Lcommaaccent" unicode="&#x13b;" horiz-adv-x="1114" 
d="M636 -102q64 0 108 -50q42 -50 42 -140q0 -89 -62 -189t-177 -168l-37 53q125 121 125 197q0 31 -33 57q-34 26 -66 56t-32 75t34 77t98 32zM532 221q0 -59 37 -85t160 -26t178 49q55 48 76 169h94q-12 -135 -12 -328h-995v72l125 39v954q0 67 -22 93t-110 50v72
q203 -6 313 -6t281 6v-72l-125 -39v-948z" />
    <glyph glyph-name="lcommaaccent" unicode="&#x13c;" horiz-adv-x="612" 
d="M302 -102q64 0 108 -50q43 -50 43 -140q-1 -89 -63 -189t-177 -168l-37 53q125 121 125 197q0 31 -33 57q-34 26 -66 56t-32 75t34 77t98 32zM467 176q0 -47 18 -67t78 -43v-66q-191 6 -279 6t-235 -6v66l98 38v1082q0 49 -18 68t-82 42v66q283 -1 420 22v-1208z" />
    <glyph glyph-name="Lcaron" unicode="&#x13d;" horiz-adv-x="1114" 
d="M886 1313q66 -1 108 -51t42 -139t-62 -189t-177 -168l-37 53q125 121 125 197q0 30 -33 56t-66 56q-32 30 -32 76q0 45 33 77q34 32 99 32zM532 221q0 -59 37 -85t160 -26t178 49q55 48 76 169h94q-12 -135 -12 -328h-995v72l125 39v954q0 67 -22 93t-110 50v72
q203 -6 313 -6t281 6v-72l-125 -39v-948z" />
    <glyph glyph-name="lcaron" unicode="&#x13e;" horiz-adv-x="776" 
d="M684 1311q64 -1 107 -51t43 -139t-62 -189t-178 -168l-37 53q125 121 125 197q0 30 -33 56t-65 56t-33 76q0 45 34 77q35 32 99 32zM467 176q0 -47 18 -67t78 -43v-66q-191 6 -279 6t-235 -6v66l98 38v1082q0 49 -18 68t-82 42v66q283 -1 420 22v-1208z" />
    <glyph glyph-name="Ldot" unicode="&#x13f;" horiz-adv-x="1114" 
d="M776 684q0 59 42 102t102 43t102 -43q43 -43 43 -102t-43 -101t-102 -42t-102 42q-42 42 -42 101zM532 221q0 -59 37 -85t160 -26t178 49q55 48 76 169h94q-12 -135 -12 -328h-995v72l125 39v954q0 67 -22 93t-110 50v72q203 -6 313 -6t281 6v-72l-125 -39v-948z" />
    <glyph glyph-name="ldot" unicode="&#x140;" horiz-adv-x="856" 
d="M586 672q0 59 42 102t101 43t102 -43t43 -102q0 -60 -43 -102t-102 -42t-101 42t-42 102zM467 176q0 -47 18 -67t78 -43v-66q-191 6 -279 6t-235 -6v66l98 38v1082q0 49 -18 68t-82 42v66q283 -1 420 22v-1208z" />
    <glyph glyph-name="Lslash" unicode="&#x141;" horiz-adv-x="1114" 
d="M532 221q0 -59 37 -85t160 -26t178 49q55 48 76 169h94q-12 -135 -12 -328h-995v72l125 39v321l-97 -59l-67 110l164 101v481q0 67 -22 93t-110 50v72q203 -6 313 -6t281 6v-72l-125 -39v-378l205 127l70 -111l-275 -168v-418z" />
    <glyph glyph-name="lslash" unicode="&#x142;" horiz-adv-x="729" 
d="M541 176q0 -47 18 -67t78 -43v-66q-191 6 -279 6t-235 -6v66l98 38v404l-123 -76l-69 111l192 119v524q0 49 -18 68t-82 42v66q283 -1 420 22v-524l127 80l69 -111l-196 -122v-531z" />
    <glyph glyph-name="Nacute" unicode="&#x143;" horiz-adv-x="1445" 
d="M1010 1556l-11 -30l-452 -162l-25 49l293 232q45 35 73 35t58 -40zM195 1065q0 67 -23 93t-111 50v72h422l629 -852v637q0 67 -22 93t-109 50v72l197 -6q39 0 211 6v-72l-125 -39v-1171h-244l-674 913v-696q0 -67 22 -93t109 -50v-72l-196 6q-39 0 -211 -6v72l125 39v954
z" />
    <glyph glyph-name="nacute" unicode="&#x144;" horiz-adv-x="1187" 
d="M760 1350q31 0 63 -43l60 -80l-4 -31l-449 -197l-35 50l291 264q43 37 74 37zM59 909q283 0 420 23v-129q123 139 301 139q131 0 203 -84t72 -248v-434q0 -46 17 -68t77 -42v-66q-189 6 -277 6t-235 -6v66l98 38v512q1 92 -27 120t-67 28q-88 0 -162 -92v-496
q-1 -46 17 -68t77 -42v-66q-190 6 -277 6t-235 -6v66l99 38v629q0 49 -19 69t-82 42v65z" />
    <glyph glyph-name="Ncommaaccent" unicode="&#x145;" horiz-adv-x="1445" 
d="M744 -102q64 0 108 -50q43 -50 43 -140q0 -89 -62 -189t-178 -168l-37 53q125 121 125 197q-1 31 -33 57t-65 56t-33 75t34 77t98 32zM195 1065q0 67 -23 93t-111 50v72h422l629 -852v637q0 67 -22 93t-109 50v72l197 -6q39 0 211 6v-72l-125 -39v-1171h-244l-674 913
v-696q0 -67 22 -93t109 -50v-72l-196 6q-39 0 -211 -6v72l125 39v954z" />
    <glyph glyph-name="ncommaaccent" unicode="&#x146;" horiz-adv-x="1187" 
d="M596 -102q64 0 106 -50t43 -140q0 -89 -62 -189t-177 -168l-37 53q125 121 125 197q0 31 -33 57t-65 56t-33 75q0 45 34 77q35 32 99 32zM59 909q283 0 420 23v-129q123 139 301 139q131 0 203 -84t72 -248v-434q0 -46 17 -68t77 -42v-66q-189 6 -277 6t-235 -6v66l98 38
v512q1 92 -27 120t-67 28q-88 0 -162 -92v-496q-1 -46 17 -68t77 -42v-66q-190 6 -277 6t-235 -6v66l99 38v629q0 49 -19 69t-82 42v65z" />
    <glyph glyph-name="Ncaron" unicode="&#x147;" horiz-adv-x="1445" 
d="M825 1384h-163l-213 263l45 43l249 -156l250 156l45 -43zM195 1065q0 67 -23 93t-111 50v72h422l629 -852v637q0 67 -22 93t-109 50v72l197 -6q39 0 211 6v-72l-125 -39v-1171h-244l-674 913v-696q0 -67 22 -93t109 -50v-72l-196 6q-39 0 -211 -6v72l125 39v954z" />
    <glyph glyph-name="ncaron" unicode="&#x148;" horiz-adv-x="1187" 
d="M723 1016h-164l-213 309l68 29l227 -189l227 189l68 -29zM59 909q283 0 420 23v-129q123 139 301 139q131 0 203 -84t72 -248v-434q0 -46 17 -68t77 -42v-66q-189 6 -277 6t-235 -6v66l98 38v512q1 92 -27 120t-67 28q-88 0 -162 -92v-496q-1 -46 17 -68t77 -42v-66
q-190 6 -277 6t-235 -6v66l99 38v629q0 49 -19 69t-82 42v65z" />
    <glyph glyph-name="napostrophe" unicode="&#x149;" horiz-adv-x="1474" 
d="M159 1311q73 1 122 -57t49 -158t-72 -214t-201 -192l-43 62q143 129 144 223q0 50 -75 94q-75 43 -75 123q0 45 39 82t112 37zM1022 616q0 148 -94 148q-88 0 -162 -92v-496q0 -46 17 -68t77 -42v-66q-190 6 -278 6t-234 -6v66l98 38v629q0 49 -18 69q-19 19 -82 42v65
q283 0 420 23v-129q123 139 301 139q131 0 203 -84t71 -248v-434q-1 -46 17 -68t78 -42v-66q-190 6 -278 6t-234 -6v66l98 38v512z" />
    <glyph glyph-name="Eng" unicode="&#x14a;" horiz-adv-x="1452" 
d="M1270 86q0 -225 -85 -354t-261 -129q-117 0 -217 53q-27 14 -25 45l23 190l34 13q105 -60 197 -60q127 0 166 109l-756 958v-696q0 -67 22 -93t109 -50v-72l-196 6q-39 0 -211 -6v72l125 39v954q0 67 -23 93t-111 50v72h422l635 -803v588q0 67 -22 93t-109 50v72l197 -6
q39 0 211 6v-72l-125 -39v-1083z" />
    <glyph glyph-name="eng" unicode="&#x14b;" horiz-adv-x="1177" 
d="M780 942q131 0 203 -84t72 -248v-583q-1 -255 -113 -363t-293 -108q-79 0 -155 20t-117 51q-20 14 -12 43l47 191l37 2q63 -86 111 -131t94 -45t64 35q17 36 17 118v776q1 92 -27 120t-67 28q-88 0 -162 -92v-496q-1 -46 17 -68t77 -42v-66q-190 6 -277 6t-235 -6v66
l99 38v629q0 49 -18 69t-83 42v65q283 0 420 23v-129q123 139 301 139z" />
    <glyph glyph-name="Omacron" unicode="&#x14c;" horiz-adv-x="1376" 
d="M956 1415h-536v135h536v-135zM952 639q0 254 -65 396q-66 143 -199 143t-199 -142q-65 -142 -65 -397q0 -254 66 -396q66 -143 198 -143t198 142t66 397zM1311 639q0 -303 -166 -487t-457 -184t-457 184t-165 487q0 303 165 487q166 184 457 184t457 -184t166 -487z" />
    <glyph glyph-name="omacron" unicode="&#x14d;" horiz-adv-x="1052" 
d="M795 1075h-537v135h537v-135zM676 455q0 193 -34 279t-116 87q-82 0 -116 -87q-34 -88 -33 -280q0 -192 34 -279q33 -87 115 -87t116 87t34 280zM1004 455q0 -231 -132 -359t-346 -129q-213 0 -345 128q-132 127 -132 359t132 360t345 128q214 0 346 -128t132 -359z" />
    <glyph glyph-name="Obreve" unicode="&#x14e;" horiz-adv-x="1376" 
d="M688 1382q-118 0 -186 73t-68 187h84q27 -108 170 -108t170 108h84q0 -116 -68 -188t-186 -72zM952 639q0 254 -65 396q-66 143 -199 143t-199 -142q-65 -142 -65 -397q0 -254 66 -396q66 -143 198 -143t198 142t66 397zM1311 639q0 -303 -166 -487t-457 -184t-457 184
t-165 487q0 303 165 487q166 184 457 184t457 -184t166 -487z" />
    <glyph glyph-name="obreve" unicode="&#x14f;" horiz-adv-x="1052" 
d="M526 1040q-118 0 -186 73t-68 187h84q27 -108 170 -108t170 108h84q0 -116 -68 -188t-186 -72zM676 455q0 193 -34 279t-116 87q-82 0 -116 -87q-34 -88 -33 -280q0 -192 34 -279q33 -87 115 -87t116 87t34 280zM1004 455q0 -231 -132 -359t-346 -129q-213 0 -345 128
q-132 127 -132 359t132 360t345 128q214 0 346 -128t132 -359z" />
    <glyph glyph-name="Ohungarumlaut" unicode="&#x150;" horiz-adv-x="1376" 
d="M1000 1671q26 0 49 -33l57 -77l-6 -29l-385 -170l-25 41l240 229q44 39 70 39zM621 1671q27 0 49 -33l57 -77l-6 -29l-385 -170l-25 41l240 229q43 39 70 39zM952 639q0 254 -65 396q-66 143 -199 143t-199 -142q-65 -142 -65 -397q0 -254 66 -396q66 -143 198 -143
t198 142t66 397zM1311 639q0 -303 -166 -487t-457 -184t-457 184t-165 487q0 303 165 487q166 184 457 184t457 -184t166 -487z" />
    <glyph glyph-name="ohungarumlaut" unicode="&#x151;" horiz-adv-x="1052" 
d="M812 1382q32 0 62 -41l52 -69l-4 -29l-359 -225l-37 41l222 282q32 41 64 41zM451 1382q33 0 63 -41l51 -69l-4 -29l-358 -225l-37 41l221 282q31 41 64 41zM676 455q0 193 -34 279t-116 87q-82 0 -116 -87q-34 -88 -33 -280q0 -192 34 -279q33 -87 115 -87t116 87
t34 280zM1004 455q0 -231 -132 -359t-346 -129q-213 0 -345 128q-132 127 -132 359t132 360t345 128q214 0 346 -128t132 -359z" />
    <glyph glyph-name="OE" unicode="&#x152;" horiz-adv-x="1869" 
d="M889 1028q0 156 -172 156q-291 0 -291 -543t291 -543q172 0 172 156v774zM1784 0h-582q-120 0 -276 -14t-221 -15q-315 0 -478 174q-162 174 -161 496q0 322 161 496q162 174 478 174q65 1 221 -15t276 -16h535q4 -170 24 -334h-102q-15 127 -69 175t-174 48t-189 -4
v-454h65q203 0 307 22l-14 -155q-121 16 -293 16h-65v-373q0 -59 40 -85q39 -26 167 -26t188 49q59 48 80 169h94q-12 -135 -12 -328z" />
    <glyph glyph-name="oe" unicode="&#x153;" horiz-adv-x="1601" 
d="M1266 557q0 262 -125 262t-135 -262h260zM676 455q0 193 -34 279t-116 87q-82 0 -116 -87q-34 -88 -33 -280q0 -192 34 -279q33 -87 115 -87t116 87t34 280zM1106 -33q-158 0 -270 96q-125 -96 -324 -96t-331 128q-132 127 -132 359t132 360q133 128 331 128t326 -98
q117 98 302 98t288 -110t106 -314q0 -49 -4 -72h-526q0 -141 54 -222t163 -81q139 0 221 133l82 -51q-45 -119 -153 -189q-107 -70 -265 -69z" />
    <glyph glyph-name="Racute" unicode="&#x154;" horiz-adv-x="1333" 
d="M913 1556l-10 -30l-452 -162l-25 49l293 232q45 35 73 35t58 -40zM532 1165v-514h39q115 0 181 69q66 70 66 198t-67 188q-67 59 -200 59h-19zM63 1280h527q346 0 479 -111q98 -82 98 -218q-1 -136 -73 -219t-201 -114q76 -22 119 -64t73 -132l66 -191q29 -85 61 -115
t113 -44v-72h-475q0 98 -39 215l-55 166q-35 102 -72 133t-127 31h-25v-330q0 -67 22 -93t110 -50v-72q-202 6 -312 6t-282 -6v72l125 39v954q0 67 -22 93t-110 50v72z" />
    <glyph glyph-name="racute" unicode="&#x155;" horiz-adv-x="882" 
d="M616 1350q30 0 64 -43l59 -80l-4 -31l-448 -197l-35 50l291 264q43 37 73 37zM721 942q69 0 111 -36t42 -92t-38 -101t-75 -45q-38 0 -78 34t-69 35q-49 0 -135 -82v-479q0 -44 27 -66t102 -44v-66q-190 6 -294 6t-253 -6v66l99 38v629q0 49 -18 69t-83 42v65
q283 0 420 23v-164q115 174 242 174z" />
    <glyph glyph-name="Rcommaaccent" unicode="&#x156;" horiz-adv-x="1333" 
d="M686 -102q64 0 107 -50t43 -140q0 -89 -62 -189t-178 -168l-37 53q125 121 125 197q0 31 -33 57t-65 56t-33 75q0 45 34 77q35 32 99 32zM532 1165v-514h39q115 0 181 69q66 70 66 198t-67 188q-67 59 -200 59h-19zM63 1280h527q346 0 479 -111q98 -82 98 -218
q-1 -136 -73 -219t-201 -114q76 -22 119 -64t73 -132l66 -191q29 -85 61 -115t113 -44v-72h-475q0 98 -39 215l-55 166q-35 102 -72 133t-127 31h-25v-330q0 -67 22 -93t110 -50v-72q-202 6 -312 6t-282 -6v72l125 39v954q0 67 -22 93t-110 50v72z" />
    <glyph glyph-name="rcommaaccent" unicode="&#x157;" horiz-adv-x="882" 
d="M324 -102q64 0 108 -50q43 -50 43 -140q0 -89 -62 -189t-177 -168l-37 53q125 121 125 197q0 31 -33 57t-66 56t-33 75t34 77t98 32zM721 942q69 0 111 -36t42 -92t-38 -101t-75 -45q-38 0 -78 34t-69 35q-49 0 -135 -82v-479q0 -44 27 -66t102 -44v-66q-190 6 -294 6
t-253 -6v66l99 38v629q0 49 -18 69t-83 42v65q283 0 420 23v-164q115 174 242 174z" />
    <glyph glyph-name="Rcaron" unicode="&#x158;" horiz-adv-x="1333" 
d="M752 1384h-164l-213 263l45 43l250 -156l250 156l45 -43zM532 1165v-514h39q115 0 181 69q66 70 66 198t-67 188q-67 59 -200 59h-19zM63 1280h527q346 0 479 -111q98 -82 98 -218q-1 -136 -73 -219t-201 -114q76 -22 119 -64t73 -132l66 -191q29 -85 61 -115t113 -44
v-72h-475q0 98 -39 215l-55 166q-35 102 -72 133t-127 31h-25v-330q0 -67 22 -93t110 -50v-72q-202 6 -312 6t-282 -6v72l125 39v954q0 67 -22 93t-110 50v72z" />
    <glyph glyph-name="rcaron" unicode="&#x159;" horiz-adv-x="882" 
d="M592 1016h-164l-213 309l68 29l227 -189l227 189l68 -29zM721 942q69 0 111 -36t42 -92t-38 -101t-75 -45q-38 0 -78 34t-69 35q-49 0 -135 -82v-479q0 -44 27 -66t102 -44v-66q-190 6 -294 6t-253 -6v66l99 38v629q0 49 -18 69t-83 42v65q283 0 420 23v-164
q115 174 242 174z" />
    <glyph glyph-name="Sacute" unicode="&#x15a;" horiz-adv-x="1091" 
d="M809 1556l-10 -30l-453 -162l-24 49l292 232q45 35 73 35t58 -40zM133 373h103q18 -137 89 -212t177 -75t162 52q55 52 55 120t-45 116t-112 78q-68 30 -146 72t-145 88q-67 45 -111 126q-45 81 -45 184q0 180 137 282t342 103q66 -1 182 -17t154 -20q0 -84 12 -336h-100
q-29 250 -242 250q-88 0 -143 -47t-55 -121t62 -128t150 -94t178 -88t151 -136q62 -88 63 -208q0 -184 -138 -292t-353 -107q-214 0 -382 74v336z" />
    <glyph glyph-name="sacute" unicode="&#x15b;" horiz-adv-x="868" 
d="M576 1350q30 0 63 -43l59 -80l-4 -31l-448 -197l-35 50l291 264q44 37 74 37zM469 942q66 0 276 -35q0 -205 5 -282h-88q-27 207 -170 206q-53 0 -90 -26q-36 -27 -36 -73q1 -80 155 -145q65 -28 131 -63q66 -36 110 -100q45 -64 45 -154q-1 -141 -105 -222t-280 -81
t-311 56v270h86q18 -95 69 -155q52 -60 120 -60t104 28t36 77q0 83 -154 146q-64 27 -130 59t-111 98t-45 161q0 135 111 215t272 80z" />
    <glyph glyph-name="Scircumflex" unicode="&#x15c;" horiz-adv-x="1091" 
d="M485 1669h164l213 -262l-45 -43l-250 156l-250 -156l-45 43zM133 373h103q18 -137 89 -212t177 -75t162 52q55 52 55 120t-45 116t-112 78q-68 30 -146 72t-145 88q-67 45 -111 126q-45 81 -45 184q0 180 137 282t342 103q66 -1 182 -17t154 -20q0 -84 12 -336h-100
q-29 250 -242 250q-88 0 -143 -47t-55 -121t62 -128t150 -94t178 -88t151 -136q62 -88 63 -208q0 -184 -138 -292t-353 -107q-214 0 -382 74v336z" />
    <glyph glyph-name="scircumflex" unicode="&#x15d;" horiz-adv-x="868" 
d="M369 1348h163l213 -310l-67 -28l-227 188l-228 -188l-67 28zM469 942q66 0 276 -35q0 -205 5 -282h-88q-27 207 -170 206q-53 0 -90 -26q-36 -27 -36 -73q1 -80 155 -145q65 -28 131 -63q66 -36 110 -100q45 -64 45 -154q-1 -141 -105 -222t-280 -81t-311 56v270h86
q18 -95 69 -155q52 -60 120 -60t104 28t36 77q0 83 -154 146q-64 27 -130 59t-111 98t-45 161q0 135 111 215t272 80z" />
    <glyph glyph-name="Scedilla" unicode="&#x15e;" horiz-adv-x="1091" 
d="M748 -252q0 -123 -116 -185t-270 -52l-10 79q98 12 156 52t59 89q1 47 -23 69t-65 30t-48 18t1 33l29 84q-178 12 -328 72v336h103q18 -137 89 -212t177 -75t162 52q55 52 55 126q-1 74 -63 127t-150 93t-177 89t-151 137t-63 212q0 180 135 282t344 103q66 -1 182 -17
t154 -20q0 -84 12 -336h-100q-29 250 -242 250q-88 0 -143 -47t-55 -122t62 -129t150 -95t178 -89t151 -135q62 -86 63 -205q0 -170 -120 -275t-308 -122l-13 -39q79 -14 131 -59t52 -119z" />
    <glyph glyph-name="scedilla" unicode="&#x15f;" horiz-adv-x="868" 
d="M469 942q84 0 276 -37q0 -203 5 -280h-88q-27 207 -170 206q-53 0 -90 -26q-36 -27 -36 -73q1 -80 155 -145q65 -28 131 -63q66 -36 110 -100q45 -64 45 -154q0 -128 -87 -206t-239 -93l-14 -45q80 -14 131 -59t51 -119q1 -123 -115 -185t-270 -52l-10 79q98 12 156 52
t59 89q0 47 -24 69q-25 22 -65 30t-47 18t1 33l28 88q-139 6 -251 54v270h86q18 -95 69 -155q52 -60 120 -60t104 28t36 77q0 83 -154 146q-64 27 -130 59t-111 98t-45 161q0 135 111 215t272 80z" />
    <glyph glyph-name="Scaron" unicode="&#x160;" horiz-adv-x="1091" 
d="M651 1384h-164l-213 263l45 43l250 -156l250 156l45 -43zM133 373h103q18 -137 89 -212t177 -75t162 52q55 52 55 120t-45 116t-112 78q-68 30 -146 72t-145 88q-67 45 -111 126q-45 81 -45 184q0 180 137 282t342 103q66 -1 182 -17t154 -20q0 -84 12 -336h-100
q-29 250 -242 250q-88 0 -143 -47t-55 -121t62 -128t150 -94t178 -88t151 -136q62 -88 63 -208q0 -184 -138 -292t-353 -107q-214 0 -382 74v336z" />
    <glyph glyph-name="scaron" unicode="&#x161;" horiz-adv-x="868" 
d="M535 1016h-164l-213 309l67 29l228 -189l227 189l68 -29zM469 942q66 0 276 -35q0 -205 5 -282h-88q-27 207 -170 206q-53 0 -90 -26q-36 -27 -36 -73q1 -80 155 -145q65 -28 131 -63q66 -36 110 -100q45 -64 45 -154q-1 -141 -105 -222t-280 -81t-311 56v270h86
q18 -95 69 -155q52 -60 120 -60t104 28t36 77q0 83 -154 146q-64 27 -130 59t-111 98t-45 161q0 135 111 215t272 80z" />
    <glyph glyph-name="Tcommaaccent" unicode="&#x162;" horiz-adv-x="1267" 
d="M642 -102q64 0 108 -50q43 -50 43 -140q-1 -89 -63 -189t-177 -168l-37 53q125 121 125 197q0 31 -33 57q-34 26 -66 56t-32 75t34 77t98 32zM889 1163h-86v-948q-1 -67 21 -93t110 -50v-72q-202 6 -312 6t-282 -6v72l125 39v1052h-86q-123 0 -172 -48t-74 -197h-96
q12 215 12 362h1170q0 -147 12 -362h-96q-25 150 -74 198t-172 47z" />
    <glyph glyph-name="tcommaaccent" unicode="&#x163;" horiz-adv-x="757" 
d="M420 -102q64 0 106 -50t43 -140q0 -89 -62 -189t-177 -168l-37 53q125 121 125 197q0 31 -33 57t-66 56t-33 75t35 77t99 32zM428 -33q-278 0 -276 324v508h-136v110h136v189l319 71v-260h234l-23 -110h-211v-561q-1 -98 67 -98t140 73l67 -68q-113 -178 -317 -178z" />
    <glyph glyph-name="Tcaron" unicode="&#x164;" horiz-adv-x="1267" 
d="M715 1384h-164l-213 263l45 43l250 -156l250 156l45 -43zM889 1163h-86v-948q-1 -67 21 -93t110 -50v-72q-202 6 -312 6t-282 -6v72l125 39v1052h-86q-123 0 -172 -48t-74 -197h-96q12 215 12 362h1170q0 -147 12 -362h-96q-25 150 -74 198t-172 47z" />
    <glyph glyph-name="tcaron" unicode="&#x165;" horiz-adv-x="757" 
d="M840 1367q0 -89 -62 -189t-178 -168l-37 53q125 121 125 197q0 30 -33 56t-65 56t-33 76q0 45 34 77q35 31 99 31t107 -50t43 -139zM428 -33q-278 0 -276 324v508h-136v110h136v189l319 71v-260h234l-23 -110h-211v-561q-1 -98 67 -98t140 73l67 -68q-113 -178 -317 -178
z" />
    <glyph glyph-name="Tbar" unicode="&#x166;" horiz-adv-x="1267" 
d="M889 1163h-86v-442h231v-123h-231v-383q-1 -67 21 -93t110 -50v-72q-202 6 -312 6t-282 -6v72l125 39v487h-232v123h232v442h-86q-123 0 -173 -48t-75 -197h-94q12 215 12 362h1170q0 -147 12 -362h-96q-25 150 -74 198t-172 47z" />
    <glyph glyph-name="tbar" unicode="&#x167;" horiz-adv-x="757" 
d="M428 -33q-278 0 -276 324v147h-129v103h129v258h-136v110h136v189l319 71v-260h213l-22 -110h-191v-258h178v-103h-178v-200q-1 -98 67 -98t140 73l67 -68q-113 -178 -317 -178z" />
    <glyph glyph-name="Utilde" unicode="&#x168;" horiz-adv-x="1380" 
d="M884 1397q-64 0 -150 40q-85 40 -120 40q-66 0 -90 -76l-73 14q12 111 66 168q55 57 119 57t149 -40t120 -39q65 -1 90 75l74 -14q-13 -111 -67 -168t-118 -57zM1206 453q0 -225 -114 -351q-129 -135 -384 -135t-397 125q-137 125 -137 381v592q0 67 -22 93t-109 50v72
q203 -6 313 -6t281 6v-72l-125 -39v-706q0 -342 272 -342t271 342v602q0 67 -22 93t-109 50v72l196 -6q39 0 211 6v-72l-125 -39v-716z" />
    <glyph glyph-name="utilde" unicode="&#x169;" horiz-adv-x="1173" 
d="M694 1049q-64 0 -150 40q-85 40 -120 39q-66 0 -90 -75l-74 14q12 111 66 168t120 57q64 0 149 -40t120 -40q65 0 90 76l74 -14q-13 -111 -67 -168t-118 -57zM410 -33q-131 0 -203 84t-72 248v434q0 49 -18 69t-82 42v65q283 0 420 23v-639q-1 -92 27 -120t67 -28
q82 0 156 93v495q-1 49 -19 69t-82 42v65q283 0 420 23v-739q0 -80 57 -80q33 0 66 16v-82q-102 -74 -227 -74q-174 1 -205 144q-131 -150 -305 -150z" />
    <glyph glyph-name="Umacron" unicode="&#x16a;" horiz-adv-x="1380" 
d="M1038 1415h-536v135h536v-135zM1206 453q0 -225 -114 -351q-129 -135 -384 -135t-397 125q-137 125 -137 381v592q0 67 -22 93t-109 50v72q203 -6 313 -6t281 6v-72l-125 -39v-706q0 -342 272 -342t271 342v602q0 67 -22 93t-109 50v72l196 -6q39 0 211 6v-72l-125 -39
v-716z" />
    <glyph glyph-name="umacron" unicode="&#x16b;" horiz-adv-x="1173" 
d="M842 1075h-537v135h537v-135zM410 -33q-131 0 -203 84t-72 248v434q0 49 -18 69t-82 42v65q283 0 420 23v-639q-1 -92 27 -120t67 -28q82 0 156 93v495q-1 49 -19 69t-82 42v65q283 0 420 23v-739q0 -80 57 -80q33 0 66 16v-82q-102 -74 -227 -74q-174 1 -205 144
q-131 -150 -305 -150z" />
    <glyph glyph-name="Ubreve" unicode="&#x16c;" horiz-adv-x="1380" 
d="M770 1382q-118 0 -186 73t-68 187h84q27 -108 170 -108t170 108h84q0 -116 -68 -188t-186 -72zM1206 453q0 -225 -114 -351q-129 -135 -384 -135t-397 125q-137 125 -137 381v592q0 67 -22 93t-109 50v72q203 -6 313 -6t281 6v-72l-125 -39v-706q0 -342 272 -342t271 342
v602q0 67 -22 93t-109 50v72l196 -6q39 0 211 6v-72l-125 -39v-716z" />
    <glyph glyph-name="ubreve" unicode="&#x16d;" horiz-adv-x="1173" 
d="M573 1040q-117 0 -185 73t-69 187h84q27 -108 170 -108t170 108h84q-1 -116 -69 -188t-185 -72zM410 -33q-131 0 -203 84t-72 248v434q0 49 -18 69t-82 42v65q283 0 420 23v-639q-1 -92 27 -120t67 -28q82 0 156 93v495q-1 49 -19 69t-82 42v65q283 0 420 23v-739
q0 -80 57 -80q33 0 66 16v-82q-102 -74 -227 -74q-174 1 -205 144q-131 -150 -305 -150z" />
    <glyph glyph-name="Uring" unicode="&#x16e;" horiz-adv-x="1380" 
d="M866 1565q0 45 -26 73t-64 27q-38 0 -64 -28q-26 -29 -26 -73t26 -72t64 -28t65 28q25 28 25 73zM971 1565q-1 -83 -57 -137t-138 -54t-138 54t-56 136t56 137q56 54 138 54t138 -54t57 -136zM1206 453q0 -225 -114 -351q-129 -135 -384 -135t-397 125q-137 125 -137 381
v592q0 67 -22 93t-109 50v72q203 -6 313 -6t281 6v-72l-125 -39v-706q0 -342 272 -342t271 342v602q0 67 -22 93t-109 50v72l196 -6q39 0 211 6v-72l-125 -39v-716z" />
    <glyph glyph-name="uring" unicode="&#x16f;" horiz-adv-x="1173" 
d="M659 1227q1 45 -25 73t-65 27q-39 0 -65 -28q-26 -29 -25 -73q0 -44 26 -72q27 -28 65 -28t64 28q25 28 25 73zM764 1227q0 -82 -56 -136q-56 -55 -138 -55t-139 54q-56 54 -56 137q0 82 56 136t138 54q83 0 139 -54t56 -136zM410 -33q-131 0 -203 84t-72 248v434
q0 49 -18 69t-82 42v65q283 0 420 23v-639q-1 -92 27 -120t67 -28q82 0 156 93v495q-1 49 -19 69t-82 42v65q283 0 420 23v-739q0 -80 57 -80q33 0 66 16v-82q-102 -74 -227 -74q-174 1 -205 144q-131 -150 -305 -150z" />
    <glyph glyph-name="Uhungarumlaut" unicode="&#x170;" horiz-adv-x="1380" 
d="M1071 1671q27 0 49 -33l58 -77l-7 -29l-385 -170l-24 41l239 229q43 39 70 39zM692 1671q26 0 49 -33l58 -77l-6 -29l-385 -170l-25 41l240 229q43 39 69 39zM1206 453q0 -225 -114 -351q-129 -135 -384 -135t-397 125q-137 125 -137 381v592q0 67 -22 93t-109 50v72
q203 -6 313 -6t281 6v-72l-125 -39v-706q0 -342 272 -342t271 342v602q0 67 -22 93t-109 50v72l196 -6q39 0 211 6v-72l-125 -39v-716z" />
    <glyph glyph-name="uhungarumlaut" unicode="&#x171;" horiz-adv-x="1173" 
d="M868 1382q32 0 64 -41l51 -69l-4 -29l-358 -225l-37 41l221 282q31 41 63 41zM508 1382q33 0 63 -41l52 -69l-5 -29l-358 -225l-37 41l221 282q31 41 64 41zM410 -33q-131 0 -203 84t-72 248v434q0 49 -18 69t-82 42v65q283 0 420 23v-639q-1 -92 27 -120t67 -28
q82 0 156 93v495q-1 49 -19 69t-82 42v65q283 0 420 23v-739q0 -80 57 -80q33 0 66 16v-82q-102 -74 -227 -74q-174 1 -205 144q-131 -150 -305 -150z" />
    <glyph glyph-name="Uogonek" unicode="&#x172;" horiz-adv-x="1380" 
d="M1206 453q0 -227 -114 -351q-39 -42 -120 -108t-104 -86q-86 -82 -86 -164q0 -115 107 -115q47 0 102 23l29 -78q-86 -59 -196 -59t-170 51q-58 51 -58 141q0 150 156 260q-299 0 -441 125q-137 125 -137 381v592q0 67 -22 93t-109 50v72q203 -6 313 -6t281 6v-72
l-125 -39v-706q0 -342 272 -342t271 342v602q0 67 -22 93t-109 50v72l196 -6q39 0 211 6v-72l-125 -39v-716z" />
    <glyph glyph-name="uogonek" unicode="&#x173;" horiz-adv-x="1173" 
d="M725 -291q0 147 154 266q-139 20 -164 142q-131 -150 -305 -150q-131 0 -203 84t-72 248v434q0 49 -18 69t-82 42v65q283 0 420 23v-639q-1 -92 27 -120t67 -28q82 0 156 93v495q-1 49 -19 69t-82 42v65q283 0 420 23v-739q0 -80 57 -80q33 0 66 16v-82
q-236 -127 -236 -305q0 -53 27 -83t78 -30t104 23l29 -78q-87 -59 -197 -59t-169 52q-58 52 -58 142z" />
    <glyph glyph-name="Wcircumflex" unicode="&#x174;" horiz-adv-x="1992" 
d="M952 1669h164l213 -262l-45 -43l-250 156l-250 -156l-45 43zM298 1274q158 0 292 6v-72l-125 -37l283 -780l190 547l-20 66q-39 116 -69 150t-106 54v72q129 -6 289 -6t295 6v-72l-133 -37l256 -776l254 776l-119 37v72q123 -6 206 -6t218 6v-72q-91 -12 -125 -40
t-61 -109l-361 -1061h-200l-248 725l-258 -725h-201l-385 1036q-37 94 -71 125t-119 49v72q160 -6 318 -6z" />
    <glyph glyph-name="wcircumflex" unicode="&#x175;" horiz-adv-x="1523" 
d="M748 1348h163l213 -310l-67 -28l-228 188l-227 -188l-67 28zM210 903q171 0 282 6v-65l-86 -33l77 -201q55 -143 105 -288q43 125 100 274l43 113q-25 69 -53 97t-82 38v65q68 -6 230 -6t253 6v-67l-92 -27l57 -168q74 -221 103 -319q37 121 100 305l62 178l-78 33v65
q71 -4 143 -4t182 4v-65q-72 -14 -99 -38t-54 -97l-256 -711h-168l-111 317q-49 131 -77 236q-23 -66 -82 -227l-125 -326h-168l-287 713q-27 69 -55 91t-103 42v65q68 -6 239 -6z" />
    <glyph glyph-name="Ycircumflex" unicode="&#x176;" horiz-adv-x="1236" 
d="M629 1669h164l213 -262l-45 -43l-250 156l-250 -156l-45 43zM801 215q-1 -67 21 -93t110 -50v-72q-202 6 -312 6t-282 -6v72l125 39v383l-303 573q-37 71 -73 99t-114 42v72q215 -6 357 -6t264 6v-72l-127 -37l260 -493l231 493l-116 37v72q122 -6 200 -6t213 6v-72
q-83 -8 -117 -36t-75 -113l-262 -551v-293z" />
    <glyph glyph-name="ycircumflex" unicode="&#x177;" horiz-adv-x="1001" 
d="M512 1348h164l213 -310l-68 -28l-227 188l-227 -188l-68 28zM214 903q180 0 290 6v-65l-86 -33l59 -139q86 -203 133 -350q43 131 125 340l58 149l-78 33v65q69 -4 141 -4t182 4v-65q-70 -14 -98 -38t-55 -97l-336 -850q-76 -189 -153 -265t-166 -76t-133 42
q-44 41 -44 88q0 46 24 72t62 26l142 -16q51 0 83 37t70 137l25 63l-334 744q-31 69 -57 91t-101 42v65q67 -6 247 -6z" />
    <glyph glyph-name="Ydieresis" unicode="&#x178;" horiz-adv-x="1236" 
d="M768 1518q0 51 38 89t89 38t89 -38t38 -89q0 -52 -38 -90t-89 -38t-89 39q-38 38 -38 89zM393 1518q0 51 37 89t90 38t90 -38t37 -89q0 -52 -37 -90t-90 -38t-90 39q-37 38 -37 89zM801 215q-1 -67 21 -93t110 -50v-72q-202 6 -312 6t-282 -6v72l125 39v383l-303 573
q-37 71 -73 99t-114 42v72q215 -6 357 -6t264 6v-72l-127 -37l260 -493l231 493l-116 37v72q122 -6 200 -6t213 6v-72q-83 -8 -117 -36t-75 -113l-262 -551v-293z" />
    <glyph glyph-name="Zacute" unicode="&#x179;" horiz-adv-x="1185" 
d="M883 1556l-11 -30l-452 -162l-25 49l293 232q45 35 73 35t58 -40zM94 0v78l615 1085h-406l-88 -225h-94q10 86 10 342h969v-78l-617 -1087h277q119 0 168 48t76 187h96q-14 -162 -15 -350h-991z" />
    <glyph glyph-name="zacute" unicode="&#x17a;" horiz-adv-x="960" 
d="M649 1350q31 0 64 -43l59 -80l-4 -31l-449 -197l-34 50l290 264q43 37 74 37zM653 111q74 1 102 31t54 151h78q-4 -164 -4 -293h-797v98l436 701h-278l-64 -176h-78q2 92 2 286h779v-100l-434 -698h204z" />
    <glyph glyph-name="Zdotaccent" unicode="&#x17b;" horiz-adv-x="1185" 
d="M479 1534q0 59 42 102q41 43 101 43t103 -43t43 -102t-43 -101t-102 -42t-102 42q-42 42 -42 101zM94 0v78l615 1085h-406l-88 -225h-94q10 86 10 342h969v-78l-617 -1087h277q119 0 168 48t76 187h96q-14 -162 -15 -350h-991z" />
    <glyph glyph-name="zdotaccent" unicode="&#x17c;" horiz-adv-x="960" 
d="M373 1176q0 59 42 102t101 43t102 -43q44 -43 44 -102q0 -60 -44 -102t-102 -42q-59 0 -101 42t-42 102zM653 111q74 1 102 31t54 151h78q-4 -164 -4 -293h-797v98l436 701h-278l-64 -176h-78q2 92 2 286h779v-100l-434 -698h204z" />
    <glyph glyph-name="Zcaron" unicode="&#x17d;" horiz-adv-x="1185" 
d="M727 1384h-164l-213 263l45 43l250 -156l250 156l45 -43zM94 0v78l615 1085h-406l-88 -225h-94q10 86 10 342h969v-78l-617 -1087h277q119 0 168 48t76 187h96q-14 -162 -15 -350h-991z" />
    <glyph glyph-name="zcaron" unicode="&#x17e;" horiz-adv-x="960" 
d="M598 1016h-164l-213 309l68 29l227 -189l227 189l68 -29zM653 111q74 1 102 31t54 151h78q-4 -164 -4 -293h-797v98l436 701h-278l-64 -176h-78q2 92 2 286h779v-100l-434 -698h204z" />
    <glyph glyph-name="longs" unicode="&#x17f;" horiz-adv-x="667" 
d="M487 979v-803q0 -46 26 -68t93 -42v-66q-190 6 -290 6t-246 -6v66l98 38v695h-135v110h135v23q0 209 114 335t316 126q123 0 217 -45q94 -44 94 -112t-43 -120t-85 -51q-68 0 -117 104q-48 105 -99 105q-45 0 -61 -66t-17 -229z" />
    <glyph glyph-name="florin" unicode="&#x192;" 
d="M850 1311q122 0 200 -44q78 -45 78 -109t-40 -111t-80 -47t-62 32q-22 33 -35 71q-33 105 -86 103q-49 0 -85 -89t-74 -314h229l-41 -101h-205l-102 -591q-49 -285 -153 -410t-294 -125q-188 0 -321 178l71 64q88 -98 174 -98t134 83q49 84 82 271l112 628h-164l39 101
h144q47 242 168 375t311 133z" />
    <glyph glyph-name="Acaron" unicode="&#x1cd;" horiz-adv-x="1384" 
d="M754 1384h-164l-213 263l45 43l250 -156l250 156l45 -43zM578 928l-156 -436h321zM299 128q0 -20 24 -33t89 -23v-72q-184 6 -219 6t-189 -6v72l123 39l434 1169h221l412 -1051q30 -77 64 -107t120 -50v-72q-214 6 -286 6t-330 -6v72l125 39l-101 264h-407l-68 -193
q-12 -34 -12 -54z" />
    <glyph glyph-name="acaron" unicode="&#x1ce;" horiz-adv-x="1028" 
d="M600 1016h-164l-213 309l68 29l227 -189l227 189l68 -29zM567 473q-98 0 -149 -56q-51 -55 -51 -139q0 -162 106 -163q51 0 94 43v315zM522 942q365 0 365 -354v-400q0 -76 51 -75q29 0 70 18v-80q-106 -78 -242 -78t-176 95q-92 -100 -230 -100t-219 76q-82 77 -82 206
q0 315 508 315v60q0 162 -131 161q-137 0 -209 -159l-102 43q39 124 140 198t257 74z" />
    <glyph glyph-name="Aringacute" unicode="&#x1fa;" horiz-adv-x="1384" 
d="M756 1552q0 45 -26 73t-64 28t-65 -28q-26 -28 -26 -73q0 -44 26 -72t65 -28q38 0 64 28t26 72zM860 1552q0 -82 -56 -136t-138 -54t-139 54q-56 54 -56 136t56 136q57 54 139 55q82 -1 138 -55t56 -136zM784 2089q30 0 64 -43l59 -80l-4 -31l-448 -196l-35 49l291 264
q43 37 73 37zM578 928l-156 -436h321zM299 128q0 -20 24 -33t89 -23v-72q-184 6 -219 6t-189 -6v72l123 39l434 1169h221l412 -1051q30 -77 64 -107t120 -50v-72q-214 6 -286 6t-330 -6v72l125 39l-101 264h-407l-68 -193q-12 -34 -12 -54z" />
    <glyph glyph-name="aringacute" unicode="&#x1fb;" horiz-adv-x="1028" 
d="M633 1749q31 0 63 -43l60 -80l-4 -31l-449 -196l-35 49l291 264q43 37 74 37zM602 1208q0 45 -25 73q-26 28 -65 28t-65 -28q-25 -28 -25 -73q0 -44 26 -72t64 -28t64 28t26 72zM707 1208q-1 -82 -57 -136t-138 -54t-138 54t-57 136q1 82 57 136t138 55q82 -1 138 -55
t57 -136zM567 473q-98 0 -149 -56q-51 -55 -51 -139q0 -162 106 -163q51 0 94 43v315zM522 942q365 0 365 -354v-400q0 -76 51 -75q29 0 70 18v-80q-106 -78 -242 -78t-176 95q-92 -100 -230 -100t-219 76q-82 77 -82 206q0 315 508 315v60q0 162 -131 161q-137 0 -209 -159
l-102 43q39 124 140 198t257 74z" />
    <glyph glyph-name="AEacute" unicode="&#x1fc;" horiz-adv-x="1839" 
d="M1464 1556l-10 -30l-453 -162l-24 49l293 232q44 35 72 35t59 -40zM858 709v452l-258 -452h258zM858 596h-323l-244 -428q-14 -25 -15 -37q0 -35 113 -59v-72q-94 4 -188 4t-230 -4v72l131 37l568 985q18 32 18 54t-26 35q-27 13 -93 25v72h1137q4 -170 25 -334h-103
q-16 127 -69 175t-173 48t-190 -4v-454h66q203 0 307 22l-15 -155q-121 16 -292 16h-66v-373q0 -59 40 -85t168 -26t187 49q59 48 80 169h94q-12 -135 -12 -328h-1020v72l125 39v485z" />
    <glyph glyph-name="aeacute" unicode="&#x1fd;" horiz-adv-x="1486" 
d="M926 1350q31 0 63 -43l60 -80l-5 -31l-448 -197l-35 50l291 264q43 37 74 37zM1151 557q0 262 -125 262t-135 -262h260zM510 117q70 0 115 63q-61 113 -62 281q-197 -4 -196 -193q1 -151 143 -151zM1010 -33q-207 0 -328 133q-117 -133 -301 -133q-143 0 -233 75
q-89 75 -89 206q0 315 504 311v66q0 162 -131 161q-137 0 -209 -159l-102 43q39 124 140 198t259 74t246 -68q109 68 254 68q190 0 294 -109q103 -110 105 -315q0 -49 -4 -72h-526q6 -303 217 -303q139 0 221 133l82 -51q-45 -119 -153 -189t-246 -69z" />
    <glyph glyph-name="Oslashacute" unicode="&#x1fe;" horiz-adv-x="1376" 
d="M938 1556l-10 -30l-453 -162l-24 49l292 232q45 35 73 35t58 -40zM688 1178q-132 0 -198 -142t-66 -362q0 -219 33 -338l381 772q-59 70 -150 70zM952 618q0 232 -45 361l-389 -786q68 -92 170 -93q132 0 198 142q66 144 66 376zM1311 639q0 -303 -166 -487t-457 -185
q-139 0 -258 45l-51 -104h-133l80 162q-260 176 -260 569q0 303 165 487q166 184 457 185q127 0 232 -37l49 98h133l-74 -149q137 -83 210 -235t73 -349z" />
    <glyph glyph-name="oslashacute" unicode="&#x1ff;" horiz-adv-x="1052" 
d="M668 1350q31 0 63 -43l60 -80l-5 -31l-448 -197l-35 50l291 264q43 37 74 37zM526 821q-82 -1 -116 -87t-33 -242q0 -156 10 -218l225 508q-31 39 -86 39zM676 417q0 155 -12 234l-232 -518q33 -45 94 -45q82 0 116 87t34 242zM1004 455q0 -231 -132 -359t-346 -129
q-76 0 -157 21l-39 -88h-111l55 125q-225 123 -225 430q0 231 132 359t345 128q80 0 150 -18l41 92h108l-57 -127q236 -119 236 -434z" />
    <glyph glyph-name="Scommaaccent" unicode="&#x218;" horiz-adv-x="1091" 
d="M538 -102q64 0 107 -50t43 -140q0 -89 -62 -189t-177 -168l-37 53q125 121 125 197q0 31 -33 57t-66 56q-32 30 -32 75t33 77q35 32 99 32zM133 373h103q18 -137 89 -212t177 -75t162 52q55 52 55 120t-45 116t-112 78q-68 30 -146 72t-145 88q-67 45 -111 126
q-45 81 -45 184q0 180 137 282t342 103q66 -1 182 -17t154 -20q0 -84 12 -336h-100q-29 250 -242 250q-88 0 -143 -47t-55 -121t62 -128t150 -94t178 -88t151 -136q62 -88 63 -208q0 -184 -138 -292t-353 -107q-214 0 -382 74v336z" />
    <glyph glyph-name="scommaaccent" unicode="&#x219;" horiz-adv-x="868" 
d="M424 -102q64 0 106 -50t43 -140q0 -89 -62 -189t-177 -168l-37 53q125 121 125 197q0 31 -33 57t-65 56t-33 75q0 45 34 77q35 32 99 32zM469 942q66 0 276 -35q0 -205 5 -282h-88q-27 207 -170 206q-53 0 -90 -26q-36 -27 -36 -73q1 -80 155 -145q65 -28 131 -63
q66 -36 110 -100q45 -64 45 -154q-1 -141 -105 -222t-280 -81t-311 56v270h86q18 -95 69 -155q52 -60 120 -60t104 28t36 77q0 83 -154 146q-64 27 -130 59t-111 98t-45 161q0 135 111 215t272 80z" />
    <glyph glyph-name="uni021A" unicode="&#x21a;" horiz-adv-x="1267" 
d="M642 -102q64 0 108 -50q43 -50 43 -140q-1 -89 -63 -189t-177 -168l-37 53q125 121 125 197q0 31 -33 57q-34 26 -66 56t-32 75t34 77t98 32zM889 1163h-86v-948q-1 -67 21 -93t110 -50v-72q-202 6 -312 6t-282 -6v72l125 39v1052h-86q-123 0 -172 -48t-74 -197h-96
q12 215 12 362h1170q0 -147 12 -362h-96q-25 150 -74 198t-172 47z" />
    <glyph glyph-name="uni021B" unicode="&#x21b;" horiz-adv-x="757" 
d="M420 -102q64 0 106 -50t43 -140q0 -89 -62 -189t-177 -168l-37 53q125 121 125 197q0 31 -33 57t-66 56t-33 75t35 77t99 32zM428 -33q-278 0 -276 324v508h-136v110h136v189l319 71v-260h234l-23 -110h-211v-561q-1 -98 67 -98t140 73l67 -68q-113 -178 -317 -178z" />
    <glyph glyph-name="circumflex" unicode="&#x2c6;" horiz-adv-x="626" 
d="M231 1348h164l213 -310l-67 -28l-228 188l-227 -188l-68 28z" />
    <glyph glyph-name="caron" unicode="&#x2c7;" horiz-adv-x="626" 
d="M395 1016h-164l-213 309l68 29l227 -189l228 189l67 -29z" />
    <glyph glyph-name="breve" unicode="&#x2d8;" horiz-adv-x="626" 
d="M313 1040q-117 0 -185 73t-69 187h84q27 -108 170 -108t170 108h84q-1 -116 -69 -188t-185 -72z" />
    <glyph glyph-name="dotaccent" unicode="&#x2d9;" horiz-adv-x="626" 
d="M168 1176q0 59 42 102t101 43t103 -43t43 -102q0 -60 -43 -102q-42 -42 -102 -42t-102 42t-42 102z" />
    <glyph glyph-name="ring" unicode="&#x2da;" horiz-adv-x="626" 
d="M403 1227q1 45 -25 73t-65 27q-39 0 -65 -28q-26 -29 -25 -73q0 -44 26 -72q27 -28 65 -28t64 28q25 28 25 73zM508 1227q0 -82 -56 -136q-56 -55 -138 -55t-139 54q-56 54 -56 137q0 82 56 136t138 54q83 0 139 -54t56 -136z" />
    <glyph glyph-name="ogonek" unicode="&#x2db;" horiz-adv-x="626" 
d="M287 -258q1 -113 105 -113q52 0 104 23l28 -78q-86 -59 -198 -59t-168 51q-58 50 -58 152t92 201t228 136l43 -41q-176 -104 -176 -272z" />
    <glyph glyph-name="tilde" unicode="&#x2dc;" horiz-adv-x="626" 
d="M438 1049q-64 0 -150 40q-85 40 -120 39q-66 0 -90 -75l-74 14q12 111 66 168t120 57q64 0 149 -40t120 -40q65 0 90 76l74 -14q-13 -111 -67 -168t-118 -57z" />
    <glyph glyph-name="hungarumlaut" unicode="&#x2dd;" horiz-adv-x="626" 
d="M580 1382q33 0 63 -41l51 -69l-4 -29l-358 -225l-37 41l221 282q31 41 64 41zM220 1382q32 0 63 -41l51 -69l-4 -29l-359 -225l-37 41l222 282q32 41 64 41z" />
    <glyph glyph-name="uni0374" unicode="&#x374;" horiz-adv-x="626" 
d="M317 1448h170l23 -21l-268 -434l-68 21l62 352q8 46 24 64t57 18z" />
    <glyph glyph-name="uni0375" unicode="&#x375;" horiz-adv-x="626" 
d="M170 -465l-23 21l269 434l67 -21l-61 -352q-8 -47 -24 -64t-58 -18h-170z" />
    <glyph glyph-name="uni037E" unicode="&#x37e;" horiz-adv-x="503" 
d="M238 293q72 1 122 -57t50 -158t-72 -214t-201 -192l-43 62q143 129 144 223q0 50 -75 94q-75 43 -75 123q0 45 39 82t111 37zM86 727q0 68 47 116t115 48t116 -48t48 -116t-48 -115t-116 -47t-115 47t-47 115z" />
    <glyph glyph-name="tonos" unicode="&#x384;" horiz-adv-x="626" 
d="M317 1448h170l23 -21l-268 -434l-68 21l62 352q8 46 24 64t57 18z" />
    <glyph glyph-name="dieresistonos" unicode="&#x385;" horiz-adv-x="626" 
d="M489 1190q0 51 38 89t89 38q52 0 90 -38t38 -89t-38 -89t-90 -38t-89 38q-38 38 -38 89zM-109 1190q0 51 38 89t89 38q52 0 90 -38t38 -89t-38 -89t-90 -38t-89 38q-38 38 -38 89zM334 1448h170l22 -21l-268 -434l-68 21l62 352q8 46 24 64t58 18z" />
    <glyph glyph-name="Alphatonos" unicode="&#x386;" horiz-adv-x="1384" 
d="M266 1366h170l23 -20l-269 -435l-67 21l61 352q8 46 24 64t58 18zM578 928l-156 -436h321zM299 128q0 -20 24 -33t89 -23v-72q-184 6 -219 6t-189 -6v72l123 39l434 1169h221l412 -1051q30 -77 64 -107t120 -50v-72q-214 6 -286 6t-330 -6v72l125 39l-101 264h-407
l-68 -193q-12 -34 -12 -54z" />
    <glyph glyph-name="anoteleia" unicode="&#x387;" horiz-adv-x="497" 
d="M86 453q0 67 47 115t115 48t116 -48t48 -116t-48 -114q-48 -47 -116 -47t-115 47t-47 115z" />
    <glyph glyph-name="Epsilontonos" unicode="&#x388;" horiz-adv-x="1429" 
d="M102 1366h170l23 -20l-268 -435l-68 21l61 352q8 46 24 64t58 18zM324 0v72l125 39v954q0 67 -22 93t-110 50v72h979q4 -170 25 -334h-102q-15 127 -69 175t-174 48t-190 -4v-454h66q203 0 307 22l-14 -155q-121 16 -293 16h-66v-373q0 -59 40 -85t168 -26t188 49
q59 48 80 169h94q-12 -135 -13 -328h-1019z" />
    <glyph glyph-name="Etatonos" unicode="&#x389;" horiz-adv-x="1769" 
d="M102 1366h170l23 -20l-268 -435l-68 21l61 352q8 46 24 64t58 18zM1575 215q-1 -67 21 -93t110 -50v-72q-202 6 -312 6t-282 -6v72l125 39v487h-451v-383q0 -67 22 -93t110 -50v-72q-202 6 -312 6t-282 -6v72l125 39v954q0 67 -22 93t-110 50v72q203 -6 313 -6t281 6v-72
l-125 -39v-440h451v336q0 67 -22 93t-109 50v72q202 -6 312 -6t282 6v-72l-125 -39v-954z" />
    <glyph glyph-name="Iotatonos" unicode="&#x38a;" horiz-adv-x="980" 
d="M102 1366h170l23 -20l-268 -435l-68 21l61 352q8 46 24 64t58 18zM784 215q0 -67 22 -93t109 -50v-72q-203 6 -312 6t-281 -6v72l124 39v954q0 67 -22 93t-109 50v72q203 -6 313 -6t281 6v-72l-125 -39v-954z" />
    <glyph glyph-name="Omicrontonos" unicode="&#x38c;" horiz-adv-x="1476" 
d="M102 1366h170l23 -20l-268 -435l-68 21l61 352q8 46 24 64t58 18zM1053 639q0 254 -66 396q-66 143 -199 143q-132 0 -198 -142t-66 -397q0 -254 66 -396q66 -143 198 -143t199 142q66 142 66 397zM1411 639q0 -303 -166 -487t-457 -184q-290 0 -456 184t-166 487
t166 487t456 184t457 -184q166 -184 166 -487z" />
    <glyph glyph-name="Upsilontonos" unicode="&#x38e;" horiz-adv-x="1609" 
d="M1174 215q0 -67 22 -93t109 -50v-72q-203 6 -313 6t-281 -6v72l125 39v383l-304 573q-36 71 -72 99t-114 42v72q214 -6 356 -6t265 6v-72l-127 -37l260 -493l231 493l-117 37v72q123 -6 201 -6t213 6v-72q-82 -8 -116 -36t-76 -113l-262 -551v-293zM102 1366h170l23 -20
l-268 -435l-68 21l61 352q8 46 24 64t58 18z" />
    <glyph glyph-name="Omegatonos" unicode="&#x38f;" horiz-adv-x="1560" 
d="M102 1366h170l23 -20l-268 -435l-68 21l61 352q8 46 24 64t58 18zM815 1182q-141 0 -211 -126t-70 -314t54 -342q53 -153 174 -310l-19 -90h-571q0 94 -20 336h84q20 -78 54 -100t130 -23h123q-170 84 -271 222q-100 138 -100 304q0 240 175 406t468 166t468 -166
t175 -406q0 -166 -100 -307t-271 -225l123 6q96 0 130 23t55 100h84q-20 -240 -21 -336h-571l-19 90q121 158 174 310q54 152 54 342q0 188 -70 314t-211 126z" />
    <glyph glyph-name="iotadieresistonos" unicode="&#x390;" horiz-adv-x="622" 
d="M496 1190q0 51 36 89t90 38t91 -38t37 -89t-37 -89t-90 -38t-91 38q-36 38 -36 89zM-102 1190q0 51 36 89t90 38t91 -38t37 -89t-37 -89t-90 -38t-91 38q-36 38 -36 89zM340 1448h170l22 -21l-268 -434l-67 21l61 352q8 46 24 64t58 18zM432 483v-266q0 -102 84 -102
q49 0 92 16v-88q-117 -66 -253 -66q-136 1 -189 59t-53 181v258q0 285 -9 418l334 39q-6 -138 -6 -449z" />
    <glyph glyph-name="Alpha" unicode="&#x391;" horiz-adv-x="1384" 
d="M578 928l-156 -436h321zM299 128q0 -20 24 -33t89 -23v-72q-184 6 -219 6t-189 -6v72l123 39l434 1169h221l412 -1051q30 -77 64 -107t120 -50v-72q-214 6 -286 6t-330 -6v72l125 39l-101 264h-407l-68 -193q-12 -34 -12 -54z" />
    <glyph glyph-name="Beta" unicode="&#x392;" horiz-adv-x="1255" 
d="M862 713q328 -67 328 -359q0 -148 -114 -252q-114 -102 -353 -102h-653v72l125 39v954q0 67 -22 93t-110 50v72h586q463 0 463 -287q0 -94 -66 -169t-184 -111zM532 635v-449q0 -39 27 -56t90 -17q190 0 191 258q0 143 -69 203t-206 61h-33zM588 748q192 0 192 219
q0 98 -49 150t-174 52h-25v-421h56z" />
    <glyph glyph-name="Gamma" unicode="&#x393;" horiz-adv-x="1103" 
d="M532 217q0 -63 29 -91t131 -54v-72q-202 6 -326 6t-296 -6v72l125 39v954q0 67 -22 93t-110 50v72h963q4 -182 25 -344h-103q-18 135 -72 184t-164 49t-180 -4v-948z" />
    <glyph glyph-name="Delta" unicode="&#x394;" horiz-adv-x="1288" 
d="M868 133l-319 795l-307 -795h626zM78 0l-25 57l473 1223h213l496 -1223l-29 -57h-1128z" />
    <glyph glyph-name="Epsilon" unicode="&#x395;" horiz-adv-x="1175" 
d="M70 0v72l125 39v954q0 67 -22 93t-110 50v72h979q4 -170 25 -334h-102q-15 127 -69 175t-174 48t-190 -4v-454h66q203 0 307 22l-14 -155q-121 16 -293 16h-66v-373q0 -59 40 -85t168 -26t188 49q59 48 80 169h94q-12 -135 -12 -328h-1020z" />
    <glyph glyph-name="Zeta" unicode="&#x396;" horiz-adv-x="1185" 
d="M94 0v78l615 1085h-406l-88 -225h-94q10 86 10 342h969v-78l-617 -1087h277q119 0 168 48t76 187h96q-14 -162 -15 -350h-991z" />
    <glyph glyph-name="Eta" unicode="&#x397;" horiz-adv-x="1515" 
d="M1321 215q-1 -67 21 -93t110 -50v-72q-202 6 -312 6t-282 -6v72l125 39v487h-451v-383q0 -67 22 -93t110 -50v-72q-202 6 -312 6t-282 -6v72l125 39v954q0 67 -22 93t-110 50v72q203 -6 313 -6t281 6v-72l-125 -39v-440h451v336q1 67 -21 93t-110 50v72q202 -6 312 -6
t282 6v-72l-125 -39v-954z" />
    <glyph glyph-name="Theta" unicode="&#x398;" horiz-adv-x="1417" 
d="M993 639q0 248 -74 393q-75 146 -210 146t-210 -146t-75 -393q0 -248 75 -393q75 -146 210 -146t209 146t75 393zM1352 639q0 -299 -175 -485t-468 -186t-468 186t-175 485t175 485t468 186t468 -186t175 -485zM770 545h-123q-33 0 -43 -35l-20 -66h-74q4 131 4 210
t-4 190h74l18 -58q14 -37 45 -36h123q31 0 43 36l21 58h73q-4 -111 -4 -190t4 -210h-73l-21 66q-12 35 -43 35z" />
    <glyph glyph-name="Iota" unicode="&#x399;" horiz-adv-x="731" 
d="M535 215q-1 -67 21 -93t110 -50v-72q-202 6 -312 6t-282 -6v72l125 39v954q0 67 -22 93t-109 50v72q203 -6 312 -6t281 6v-72l-124 -39v-954z" />
    <glyph glyph-name="Kappa" unicode="&#x39a;" horiz-adv-x="1386" 
d="M1391 0h-471q-2 78 -72 205l-209 385l-107 -121v-254q0 -67 22 -93t110 -50v-72q-202 6 -312 6t-282 -6v72l125 39v954q0 67 -22 93t-110 50v72q203 -6 313 -6t281 6v-72l-125 -39v-505l439 510l-119 34v72l254 -8q20 0 217 8v-74q-97 -12 -151 -40t-119 -103l-195 -223
l330 -602q47 -86 85 -119t118 -47v-72z" />
    <glyph glyph-name="Lambda" unicode="&#x39b;" horiz-adv-x="1384" 
d="M299 128q0 -20 24 -33t89 -23v-72q-184 6 -219 6t-189 -6v72l123 39l434 1169h221l412 -1051q30 -77 64 -107t120 -50v-72q-214 6 -286 6t-330 -6v72l125 39l-309 817l-267 -746q-12 -34 -12 -54z" />
    <glyph glyph-name="Mu" unicode="&#x39c;" horiz-adv-x="1800" 
d="M195 1065q0 67 -22 93t-110 50v72h461l375 -889l373 889h459v-72l-125 -39v-954q0 -67 22 -93t109 -50v-72q-203 6 -311 6t-281 -6v72l125 39v792l-389 -911h-152l-383 905v-682q0 -67 22 -93t109 -50v-72l-196 6q-39 0 -211 -6v72l125 39v954z" />
    <glyph glyph-name="Nu" unicode="&#x39d;" horiz-adv-x="1445" 
d="M195 1065q0 67 -23 93t-111 50v72h422l629 -852v637q0 67 -22 93t-109 50v72l197 -6q39 0 211 6v-72l-125 -39v-1171h-244l-674 913v-696q0 -67 22 -93t109 -50v-72l-196 6q-39 0 -211 -6v72l125 39v954z" />
    <glyph glyph-name="Xi" unicode="&#x39e;" horiz-adv-x="1138" 
d="M729 549h-315q-31 0 -43 -37l-21 -63h-74q8 241 0 409h74l21 -57q12 -39 43 -39h315q29 0 43 39l19 57h75q-6 -84 -6 -199t6 -210h-75l-21 63q-10 37 -41 37zM397 219h338q152 0 195 30t63 126h90q0 -264 4 -375h-1036q8 297 4 375h90q19 -98 61 -127t191 -29zM741 1075
h-342q-81 0 -113 -7q-95 -21 -124 -155h-90q8 172 12 367h969q6 -228 14 -367h-88q-23 94 -65 128t-173 34z" />
    <glyph glyph-name="Omicron" unicode="&#x39f;" horiz-adv-x="1376" 
d="M952 639q0 254 -65 396q-66 143 -199 143t-199 -142q-65 -142 -65 -397q0 -254 66 -396q66 -143 198 -143t198 142t66 397zM1311 639q0 -303 -166 -487t-457 -184t-457 184t-165 487q0 303 165 487q166 184 457 184t457 -184t166 -487z" />
    <glyph glyph-name="Pi" unicode="&#x3a0;" horiz-adv-x="1536" 
d="M1001 1169h-466v-954q-1 -67 21 -93t110 -50v-72q-202 6 -312 6t-282 -6v72l125 39v940q-1 67 -17 97t-65 44l-56 16v72h1407v-72l-127 -41v-952q0 -67 22 -93t109 -50v-72q-203 6 -312 6t-281 -6v72l124 39v1058z" />
    <glyph glyph-name="Rho" unicode="&#x3a1;" horiz-adv-x="1206" 
d="M532 1165v-540h41q242 0 242 282q0 258 -256 258h-27zM532 512v-295q0 -63 29 -91t131 -54v-72q-202 6 -326 6t-296 -6v72l125 39v954q0 67 -22 93t-110 50v72h541q340 0 467 -121q94 -88 94 -263q0 -176 -139 -280t-416 -104h-78z" />
    <glyph glyph-name="Sigma" unicode="&#x3a3;" horiz-adv-x="1110" 
d="M674 1171h-256l344 -428v-36l-387 -463h418q100 0 140 32t60 117h90q-20 -242 -20 -393h-1043l-18 33l502 596l-500 620l23 31h1003q4 -135 27 -317h-105q-23 127 -73 167q-31 27 -70 34t-135 7z" />
    <glyph glyph-name="Tau" unicode="&#x3a4;" horiz-adv-x="1267" 
d="M889 1163h-86v-948q-1 -67 21 -93t110 -50v-72q-202 6 -312 6t-282 -6v72l125 39v1052h-86q-123 0 -172 -48t-74 -197h-96q12 215 12 362h1170q0 -147 12 -362h-96q-25 150 -74 198t-172 47z" />
    <glyph glyph-name="Upsilon" unicode="&#x3a5;" horiz-adv-x="1236" 
d="M801 215q-1 -67 21 -93t110 -50v-72q-202 6 -312 6t-282 -6v72l125 39v383l-303 573q-37 71 -73 99t-114 42v72q215 -6 357 -6t264 6v-72l-127 -37l260 -493l231 493l-116 37v72q122 -6 200 -6t213 6v-72q-83 -8 -117 -36t-75 -113l-262 -551v-293z" />
    <glyph glyph-name="Phi" unicode="&#x3a6;" horiz-adv-x="1591" 
d="M1186 636q0 134 -68 222t-172 115v-668q106 25 173 111t67 220zM406 636q0 -134 66 -220t173 -111v668q-103 -27 -171 -115t-68 -222zM783 6q-91 0 -263 -6v72l125 39v77q-258 18 -418 127q-159 109 -159 325t160 326q161 110 417 124q-4 48 -29 72t-102 46v72
q203 -6 294 -6t263 6v-72l-125 -39v-79q256 -14 417 -124t161 -330t-167 -326t-411 -122q2 -50 27 -72t104 -44v-72q-203 6 -294 6z" />
    <glyph glyph-name="Chi" unicode="&#x3a7;" horiz-adv-x="1308" 
d="M1044 1274q98 0 226 6v-72q-88 -8 -125 -28t-76 -78l-268 -406l332 -499q41 -63 79 -88t115 -37v-72q-215 6 -362 6t-271 -6v72l123 37l-244 366l-233 -369l117 -34v-72q-117 6 -223 6t-234 -6v72q92 10 137 32t80 74l277 420l-320 485q-43 65 -81 89t-113 36v72
q215 -6 362 -6t270 6v-72l-123 -37l232 -352l225 355l-117 34v72q117 -6 215 -6z" />
    <glyph glyph-name="Psi" unicode="&#x3a8;" horiz-adv-x="1826" 
d="M276 1278q180 0 236 2q-6 -240 -6 -291v-74q0 -109 12 -147q36 -113 68 -138q74 -61 162 -75v510q0 67 -22 93t-110 50v72q202 -6 312 -6t282 6v-72l-125 -39v-614q120 21 168 92q49 71 59 150q9 80 9 161q0 82 -6 322q37 -2 240 -2t247 2v-72q-94 -12 -120 -34t-25 -74
l2 -133q0 -279 -133 -399t-441 -132v-221q0 -67 22 -93t110 -50v-72q-203 6 -313 6t-281 -6v72l125 39v325q-311 12 -446 132q-134 120 -134 399l2 133q0 53 -26 75t-119 33v72q71 -2 251 -2z" />
    <glyph glyph-name="Omega" unicode="&#x3a9;" horiz-adv-x="1490" 
d="M745 1182q-141 0 -211 -126t-69 -314q0 -188 53 -342q53 -153 174 -310l-18 -90h-572q0 94 -20 336h84q20 -78 54 -100t130 -23h123q-170 84 -270 222t-101 304q0 240 176 406t468 166t467 -166t176 -406q-1 -166 -101 -307t-270 -225l123 6q96 0 130 23t54 100h84
q-20 -240 -20 -336h-572l-18 90q121 158 174 310t53 342q0 188 -70 314t-211 126z" />
    <glyph glyph-name="Iotadieresis" unicode="&#x3aa;" horiz-adv-x="731" 
d="M426 1518q0 51 37 89t90 38t90 -38t37 -89q0 -52 -37 -90t-90 -38t-90 39q-37 38 -37 89zM51 1518q0 51 38 89t89 38t89 -38t38 -89q0 -52 -38 -90t-89 -38t-89 39q-38 38 -38 89zM532 215q0 -67 22 -93t110 -50v-72q-202 6 -312 6t-282 -6v72l125 39v954q0 67 -22 93
t-110 50v72q203 -6 313 -6t281 6v-72l-125 -39v-954z" />
    <glyph glyph-name="Upsilondieresis" unicode="&#x3ab;" horiz-adv-x="1236" 
d="M772 1518q0 51 38 89t89 38t89 -38t38 -89q0 -52 -38 -90t-89 -38t-89 39q-38 38 -38 89zM397 1518q0 51 37 89t90 38t90 -38t37 -89q0 -52 -37 -90t-90 -38t-90 39q-37 38 -37 89zM801 215q-1 -67 21 -93t110 -50v-72q-202 6 -312 6t-282 -6v72l125 39v383l-303 573
q-37 71 -73 99t-114 42v72q215 -6 357 -6t264 6v-72l-127 -37l260 -493l231 493l-116 37v72q122 -6 200 -6t213 6v-72q-83 -8 -117 -36t-75 -113l-262 -551v-293z" />
    <glyph glyph-name="alphatonos" unicode="&#x3ac;" horiz-adv-x="1206" 
d="M635 1448h170l22 -21l-268 -434l-67 21l61 352q9 46 25 64t57 18zM518 137q61 0 112 74q50 74 79 195q-29 202 -71 294t-112 92t-110 -85q-40 -86 -39 -245q0 -159 40 -242t101 -83zM994 -33q-93 0 -129 23t-52 73q-27 92 -41 154q-119 -250 -340 -250q-172 0 -277 137
t-105 350q0 212 128 350q129 138 314 138q136 0 212 -87t109 -257q25 117 94 315l293 29q-188 -305 -299 -553q51 -184 118 -257t183 -73v-67q-115 -25 -208 -25z" />
    <glyph glyph-name="epsilontonos" unicode="&#x3ad;" horiz-adv-x="917" 
d="M623 98q118 0 239 56l25 -97q-166 -90 -378 -90t-337 72t-125 205q0 86 70 149t182 90q-225 51 -225 211q0 114 124 180t322 66q114 0 169 -11t104 -23t63 -13q0 -197 6 -270h-84q-39 199 -217 198q-84 0 -132 -38q-48 -39 -48 -107t58 -107t161 -39h117v-104h-107
q-236 0 -235 -158q0 -80 65 -125t183 -45zM594 1448h170l22 -21l-268 -434l-67 21l61 352q8 46 24 64t58 18z" />
    <glyph glyph-name="etatonos" unicode="&#x3ae;" horiz-adv-x="1122" 
d="M653 1448h170l23 -21l-268 -434l-68 21l61 352q9 46 25 64t57 18zM717 612q-1 152 -91 152q-44 0 -89 -27t-76 -65v-242q0 -92 6 -412l-324 -38l-2 442v297q0 63 -29 84q-30 20 -104 22v58q162 37 264 37t142 -29q39 -29 43 -100q137 151 298 151t228 -98q53 -76 53 -262
v-596q0 -23 6 -404l-321 -47q-4 286 -4 442v635z" />
    <glyph glyph-name="iotatonos" unicode="&#x3af;" horiz-adv-x="622" 
d="M348 1448h170l23 -21l-269 -434l-67 21l61 352q8 46 24 64t58 18zM432 483v-266q0 -102 84 -102q49 0 92 16v-88q-117 -66 -253 -66q-136 1 -189 59t-53 181v258q0 285 -9 418l334 39q-6 -138 -6 -449z" />
    <glyph glyph-name="upsilondieresistonos" unicode="&#x3b0;" horiz-adv-x="1040" 
d="M727 1190q0 51 38 89t89 38t89 -38t38 -89t-38 -89t-89 -38t-89 38t-38 89zM129 1190q0 51 38 89t89 38t89 -38t38 -89t-38 -89t-89 -38t-89 38t-38 89zM571 1448h170l23 -21l-268 -434l-68 21l61 352q9 46 25 64t57 18zM232 920q112 0 153 -28t41 -99l-20 -394
q0 -155 34 -225t115 -70q82 0 129 92t47 240q0 250 -113 477l304 29q76 -217 75 -403q0 -231 -134 -401t-359 -171q-418 0 -418 402l20 350q0 61 -34 83q-35 22 -113 23v58q161 37 273 37z" />
    <glyph glyph-name="alpha" unicode="&#x3b1;" horiz-adv-x="1206" 
d="M518 137q61 0 112 74q50 74 79 195q-29 202 -71 294t-112 92t-110 -85q-40 -86 -39 -245q0 -159 40 -242t101 -83zM994 -33q-93 0 -129 23t-52 73q-27 92 -41 154q-119 -250 -340 -250q-172 0 -277 137t-105 350q0 212 128 350q129 138 314 138q136 0 212 -87t109 -257
q25 117 94 315l293 29q-188 -305 -299 -553q51 -184 118 -257t183 -73v-67q-115 -25 -208 -25z" />
    <glyph glyph-name="beta" unicode="&#x3b2;" horiz-adv-x="1095" 
d="M532 90q92 0 145 71q52 71 52 225q0 312 -231 296v82q98 2 137 69t39 191t-35 185q-35 62 -98 63q-117 0 -117 -232v-931q55 -19 108 -19zM104 934q0 223 125 341t327 118q202 1 314 -93q113 -94 113 -216t-72 -204t-194 -124q340 -72 340 -385q0 -168 -119 -285
t-285 -117q-127 0 -229 51v-20q-1 -268 22 -422l-327 -43q-14 229 -15 457v942z" />
    <glyph glyph-name="gamma" unicode="&#x3b3;" horiz-adv-x="1056" 
d="M204 920q107 0 157 -23t77 -92q117 -281 168 -598q104 287 166 704l291 31q-114 -246 -428 -881q18 -264 24 -473l-303 -53q16 261 16 397t-71 374q-72 238 -170 415q-37 61 -78 83t-116 19v64q160 33 267 33z" />
    <glyph glyph-name="delta" unicode="&#x3b4;" horiz-adv-x="1134" 
d="M373 406q0 -154 57 -236q56 -82 148 -82t135 75t43 183q0 197 -215 377l-39 31q-129 -129 -129 -348zM1085 418q-1 -201 -155 -326t-380 -125t-364 117q-139 117 -139 301q0 143 96 256t285 170q-102 80 -155 153q-52 73 -52 160q1 117 105 193t282 76t310 -45
q22 -150 22 -273q-193 184 -362 185q-131 0 -132 -93q0 -41 46 -80t200 -139q207 -143 300 -266t93 -264z" />
    <glyph glyph-name="epsilon" unicode="&#x3b5;" horiz-adv-x="917" 
d="M623 98q118 0 239 56l25 -97q-166 -90 -378 -90t-337 72t-125 205q0 86 70 149t182 90q-225 51 -225 211q0 114 124 180t322 66q114 0 169 -11t104 -23t63 -13q0 -197 6 -270h-84q-39 199 -217 198q-84 0 -132 -38q-48 -39 -48 -107t58 -107t161 -39h117v-104h-107
q-236 0 -235 -158q0 -80 65 -125t183 -45z" />
    <glyph glyph-name="zeta" unicode="&#x3b6;" horiz-adv-x="872" 
d="M299 463q0 -88 50 -135q51 -47 207 -93q156 -47 225 -101t69 -144q0 -135 -197 -434h-100q92 190 92 269t-56 115t-229 80t-251 115q-78 70 -78 203q0 168 170 423q169 255 405 435q-266 -47 -448 -72q-12 129 -41 230q487 -22 733 2v-68q-279 -231 -415 -452t-136 -373z
" />
    <glyph glyph-name="eta" unicode="&#x3b7;" horiz-adv-x="1112" 
d="M713 612q0 152 -91 152q-45 0 -90 -27t-75 -65v-242q0 -92 6 -412l-324 -38l-2 442v297q0 63 -29 84q-30 20 -104 22v58q162 37 264 37t142 -29q39 -29 43 -100q137 151 298 151t228 -98q53 -76 53 -262v-596q0 -23 6 -404l-321 -47q-4 286 -4 442v635z" />
    <glyph glyph-name="theta" unicode="&#x3b8;" horiz-adv-x="1120" 
d="M567 1272q-86 0 -137 -152t-59 -368h379q-6 220 -52 370t-131 150zM563 88q90 0 136 151t51 375h-379q6 -230 54 -378t138 -148zM555 -33q-240 0 -373 207t-133 508q0 176 60 335q59 159 183 267t267 109t241 -63t156 -168q115 -211 115 -490t-138 -492t-378 -213z" />
    <glyph glyph-name="iota" unicode="&#x3b9;" horiz-adv-x="622" 
d="M432 483v-266q0 -102 84 -102q49 0 92 16v-88q-117 -66 -253 -66q-136 1 -189 59t-53 181v258q0 285 -9 418l334 39q-6 -138 -6 -449z" />
    <glyph glyph-name="kappa" unicode="&#x3ba;" horiz-adv-x="1193" 
d="M137 719q0 63 -29 84q-30 20 -104 22v58q162 37 268 37t146 -31q39 -31 39 -103v-307q35 57 75 113l33 45q123 172 219 233t240 62q53 0 98 -10q-14 -111 -20 -217q-96 23 -160 22q-156 0 -235 -86q166 -260 303 -444q74 -100 133 -115q20 -6 53 -6v-66
q-150 -33 -242 -33q-92 1 -134 21t-79 72q-88 119 -223 338q-31 -43 -61 -107l10 -283l-328 -38l-2 442v297z" />
    <glyph glyph-name="lambda" unicode="&#x3bb;" horiz-adv-x="1196" 
d="M1182 55v-67q-115 -20 -236 -21q-98 0 -133 90q-39 104 -96 314l-64 227l-291 -598l-321 -14l508 991l-8 35q-27 129 -151 164q-90 24 -222 24q-10 102 -37 193q245 0 357 -64t167 -252l189 -651q61 -215 132 -293t206 -78z" />
    <glyph glyph-name="mu" unicode="&#x3bc;" horiz-adv-x="1187" 
d="M1008 483v-266q0 -55 19 -79t67 -24t90 17v-88q-121 -66 -254 -66q-170 0 -209 129q-68 -139 -178 -139q-86 0 -127 60q4 -139 16 -453l-321 -39q6 260 6 574v366q0 285 -8 418l333 39q-6 -137 -6 -449v-190q0 -158 123 -158q76 0 129 60v280q0 285 -8 418l334 39
q-6 -138 -6 -449z" />
    <glyph glyph-name="nu" unicode="&#x3bd;" horiz-adv-x="1028" 
d="M-68 821v62q172 37 276 37t146 -26q41 -26 70 -99q96 -252 186 -549q141 248 142 465q0 90 -29 200l289 31q6 -319 -451 -942h-164q-117 348 -286 721q-27 59 -65 79t-114 21z" />
    <glyph glyph-name="xi" unicode="&#x3be;" horiz-adv-x="862" 
d="M412 965q0 -94 73 -148q74 -53 250 -61v-82q-215 -31 -319 -106q-104 -74 -104 -150t48 -111q50 -35 200 -77t215 -94q65 -54 65 -142t-46 -183t-151 -255h-102q92 196 92 272t-55 113q-54 37 -220 77t-248 110q-82 69 -83 187q0 252 432 392q-346 33 -346 213
q0 163 403 315q-162 -31 -428 -86q-12 109 -41 205q549 -25 746 2v-74q-189 -57 -285 -140t-96 -177z" />
    <glyph glyph-name="omicron" unicode="&#x3bf;" horiz-adv-x="1052" 
d="M676 455q0 193 -34 279t-116 87q-82 0 -116 -87q-34 -88 -33 -280q0 -192 34 -279q33 -87 115 -87t116 87t34 280zM1004 455q0 -231 -132 -359t-346 -129q-213 0 -345 128q-132 127 -132 359t132 360t345 128q214 0 346 -128t132 -359z" />
    <glyph glyph-name="pi" unicode="&#x3c0;" horiz-adv-x="1339" 
d="M375 909h708q80 1 127 19t88 61l43 -33l-53 -108q-43 -86 -94 -120t-135 -34h-58q-4 -286 -4 -392q-1 -106 19 -136t73 -29q53 0 134 56l34 -87q-170 -139 -327 -139q-96 0 -149 53q-52 53 -52 177t59 497h-245q-31 -258 -68 -690l-295 -18q45 270 148 706l-105 -2
q-123 0 -205 -88l-45 35q84 156 170 214t232 58z" />
    <glyph glyph-name="rho" unicode="&#x3c1;" horiz-adv-x="1095" 
d="M424 -25q0 -250 22 -403l-327 -37q-14 229 -15 457v471q0 252 129 368q119 111 330 111t346 -131t135 -347t-116 -356t-328 -141q-100 0 -176 47v-39zM715 457q0 176 -44 260t-118 84q-129 0 -129 -170v-498q49 -33 106 -33q82 0 134 90q51 91 51 267z" />
    <glyph glyph-name="sigma1" unicode="&#x3c2;" horiz-adv-x="921" 
d="M61 449q1 215 145 354t357 139q75 0 167 -14q91 -14 126 -19q0 -135 8 -323h-90q-25 231 -182 231q-96 0 -154 -77t-57 -219q0 -142 58 -212q59 -69 189 -133t180 -106t50 -121q0 -104 -192 -393h-101q84 168 84 241q0 35 -12 61t-50 52t-63 36q-24 10 -68 30t-57 24
q-170 76 -254 184t-84 265z" />
    <glyph glyph-name="sigma" unicode="&#x3c3;" horiz-adv-x="1107" 
d="M670 377q0 209 -109 323h-20q-78 0 -126 -85t-48 -227t41 -222q42 -78 112 -78t110 76t40 213zM825 700h-151q152 -45 230 -135t79 -213q0 -158 -132 -272t-344 -113q-212 0 -336 129t-124 347q1 218 147 342t406 124h252q139 0 215 80l43 -33l-53 -108q-39 -80 -91 -114
t-141 -34z" />
    <glyph glyph-name="tau" unicode="&#x3c4;" horiz-adv-x="1062" 
d="M547 -33q-203 0 -203 223q0 117 62 504l-177 -2q-119 0 -204 -92l-52 49q90 145 173 203t225 57h424q143 0 215 80l55 -33l-51 -106q-43 -86 -91 -121t-132 -35h-173q-4 -290 -4 -394t20 -134t74 -29q54 0 130 56l36 -87q-170 -139 -327 -139z" />
    <glyph glyph-name="upsilon" unicode="&#x3c5;" horiz-adv-x="1040" 
d="M232 920q112 0 153 -28t41 -99l-20 -394q0 -155 34 -225t115 -70q82 0 129 92t47 240q0 250 -113 477l304 29q76 -217 75 -403q0 -231 -134 -401t-359 -171q-418 0 -418 402l20 350q0 61 -34 83q-35 22 -113 23v58q161 37 273 37z" />
    <glyph glyph-name="phi" unicode="&#x3c6;" horiz-adv-x="1409" 
d="M365 455q0 -150 63 -247t174 -130l-14 758q-223 -49 -223 -381zM1044 455q0 328 -229 381l-2 -762q111 31 171 130t60 251zM41 450q0 190 148 323q148 134 395 161l-9 420l244 24l-2 -442q248 -25 400 -154q151 -128 151 -322t-150 -329t-405 -156l-2 -415l-197 -25
l-10 440q-258 23 -410 154t-153 321z" />
    <glyph glyph-name="chi" unicode="&#x3c7;" horiz-adv-x="1028" 
d="M1028 -377v-67q-256 -44 -327 -1q-32 19 -48 63t-33 92t-41 118t-40 115l-37 104q-172 -341 -240 -493l-323 -19q55 106 432 793l-54 137q-88 227 -165 297q-78 70 -226 69v68q117 21 209 21t121 -18t45 -52q16 -35 105 -266l47 -123q72 150 243 461l324 20
q-125 -197 -438 -758l71 -190q70 -180 128 -259q82 -112 247 -112z" />
    <glyph glyph-name="psi" unicode="&#x3c8;" horiz-adv-x="1366" 
d="M1323 545q0 -209 -128 -373t-361 -197q0 -205 -3 -415l-196 -25l-10 436q-532 31 -533 428l14 320q0 61 -35 83q-36 22 -112 23v58q161 37 273 37t153 -28t41 -99l-14 -381q0 -268 211 -312l-27 1254l244 24l-6 -1278q112 27 166 120t55 226q0 250 -92 467l303 29
q57 -188 57 -397z" />
    <glyph glyph-name="omega" unicode="&#x3c9;" horiz-adv-x="1548" 
d="M1501 399q0 -180 -121 -306t-305 -126q-233 0 -299 191h-8q-33 -82 -112 -136t-181 -55q-197 0 -313 123t-115 289q0 166 95 306t257 249l103 -23q-129 -246 -129 -491q0 -148 46 -230t113 -81q123 0 123 258q0 113 -30 254l295 20q-25 -143 -25 -269t35 -195t97 -69
t106 80q43 80 43 234q0 256 -125 489l102 23q156 -110 252 -252t96 -283z" />
    <glyph glyph-name="iotadieresis" unicode="&#x3ca;" horiz-adv-x="622" 
d="M348 1176q0 53 37 90t90 37t90 -37t37 -90q0 -52 -37 -90t-90 -38t-90 38q-37 37 -37 90zM-27 1176q0 53 38 90t89 37t89 -37t38 -90q0 -52 -38 -90t-89 -38t-89 38q-38 37 -38 90zM432 483v-266q0 -102 84 -102q49 0 92 16v-88q-117 -66 -253 -66q-136 1 -189 59
t-53 181v258q0 285 -9 418l334 39q-6 -138 -6 -449z" />
    <glyph glyph-name="upsilondieresis" unicode="&#x3cb;" horiz-adv-x="1040" 
d="M588 1176q0 53 38 90t89 37t89 -37t38 -90q0 -52 -38 -90t-89 -38t-89 38q-38 37 -38 90zM213 1176q0 53 37 90t90 37t90 -37t37 -90q0 -52 -37 -90t-90 -38t-90 38q-37 37 -37 90zM232 920q112 0 153 -28t41 -99l-20 -394q0 -155 34 -225t115 -70q82 0 129 92t47 240
q0 250 -113 477l304 29q76 -217 75 -403q0 -231 -134 -401t-359 -171q-418 0 -418 402l20 350q0 61 -34 83q-35 22 -113 23v58q161 37 273 37z" />
    <glyph glyph-name="omicrontonos" unicode="&#x3cc;" horiz-adv-x="1052" 
d="M610 1448h170l23 -21l-268 -434l-68 21l61 352q8 46 24 64t58 18zM676 455q0 193 -34 279t-116 87q-82 0 -116 -87q-34 -88 -33 -280q0 -192 34 -279q33 -87 115 -87t116 87t34 280zM1004 455q0 -231 -132 -359t-346 -129q-213 0 -345 128q-132 127 -132 359t132 360
t345 128q214 0 346 -128t132 -359z" />
    <glyph glyph-name="upsilontonos" unicode="&#x3cd;" horiz-adv-x="1040" 
d="M232 920q112 0 153 -28t41 -99l-20 -394q0 -155 34 -225t115 -70q82 0 129 92t47 240q0 250 -113 477l304 29q76 -217 75 -403q0 -231 -134 -401t-359 -171q-418 0 -418 402l20 350q0 61 -34 83q-35 22 -113 23v58q161 37 273 37zM614 1448h170l23 -21l-268 -434l-68 21
l61 352q8 46 24 64t58 18z" />
    <glyph glyph-name="omegatonos" unicode="&#x3ce;" horiz-adv-x="1548" 
d="M850 1448h170l22 -21l-268 -434l-67 21l61 352q8 46 24 64t58 18zM1501 399q0 -180 -121 -306t-305 -126q-233 0 -299 191h-8q-33 -82 -112 -136t-181 -55q-197 0 -313 123t-115 289q0 166 95 306t257 249l103 -23q-129 -246 -129 -491q0 -148 46 -230t113 -81
q123 0 123 258q0 113 -30 254l295 20q-25 -143 -25 -269t35 -195t97 -69t106 80q43 80 43 234q0 256 -125 489l102 23q156 -110 252 -252t96 -283z" />
    <glyph glyph-name="uni03D0" unicode="&#x3d0;" horiz-adv-x="1058" 
d="M545 1272q-156 0 -170 -502q143 59 207 130q63 70 63 178q0 194 -100 194zM551 90q69 0 105 78t36 221t-48 226t-142 83q-49 0 -127 -24q0 -584 176 -584zM539 -31q-236 0 -364 166t-128 500t154 546t415 212q154 0 246 -74t92 -182q0 -227 -348 -353q186 -14 300 -118
t114 -278t-142 -296q-142 -123 -339 -123z" />
    <glyph glyph-name="theta1" unicode="&#x3d1;" horiz-adv-x="1136" 
d="M416 1044q0 -108 55 -174t133 -65q78 0 156 31q-10 231 -53 333t-136 103q-67 0 -111 -60t-44 -168zM764 633v96q-126 -59 -288 -59t-275 90t-113 250t139 272t352 111t361 -181t147 -532q0 -271 -125 -481q-136 -229 -444 -229q-164 0 -262 76q-96 77 -96 220l2 123
q0 55 -31 75t-104 21v58q156 37 265 37t148 -28t39 -99l-2 -172q0 -172 94 -185q37 -6 70 8q68 29 95 160q28 131 28 369z" />
    <glyph glyph-name="phi1" unicode="&#x3d5;" horiz-adv-x="1542" 
d="M926 637v-551q123 37 184 141t61 257t-47 240t-114 87q-48 0 -66 -41t-18 -133zM1501 485q0 -203 -146 -340t-429 -168q0 -236 20 -405l-328 -37q-12 190 -12 442q-268 29 -417 151q-148 122 -148 300t128 311t361 209l78 -61q-244 -125 -244 -420t242 -373v383
q0 221 101 343t301 122t346 -127t147 -330z" />
    <glyph glyph-name="uni0400" unicode="&#x400;" horiz-adv-x="1175" 
d="M467 1720q31 0 74 -37l290 -264l-34 -49l-449 197l-4 30l59 80q33 43 64 43zM70 0v72l125 39v954q0 67 -22 93t-110 50v72h979q4 -170 25 -334h-102q-15 127 -69 175t-174 48t-190 -4v-454h66q203 0 307 22l-14 -155q-121 16 -293 16h-66v-373q0 -59 40 -85t168 -26
t188 49q59 48 80 169h94q-12 -135 -12 -328h-1020z" />
    <glyph glyph-name="afii10023" unicode="&#x401;" horiz-adv-x="1175" 
d="M647 1546q0 51 37 89t90 38t90 -38t37 -89t-37 -89t-90 -38t-90 38t-37 89zM272 1546q0 51 38 89t89 38t89 -38t38 -89t-38 -89t-89 -38t-89 38t-38 89zM70 0v72l125 39v954q0 67 -22 93t-110 50v72h979q4 -170 25 -334h-102q-15 127 -69 175t-174 48t-190 -4v-454h66
q203 0 307 22l-14 -155q-121 16 -293 16h-66v-373q0 -59 40 -85t168 -26t188 49q59 48 80 169h94q-12 -135 -12 -328h-1020z" />
    <glyph glyph-name="afii10051" unicode="&#x402;" horiz-adv-x="1517" 
d="M889 1163h-86v-450q117 53 254 53q199 0 307 -104t109 -284q-1 -180 -133 -372q-132 -190 -373 -336l-80 72q258 272 258 618q0 138 -40 200t-128 62t-174 -42v-365q-1 -67 21 -93t110 -50v-72q-202 6 -312 6t-282 -6v72l125 39v1052h-86q-123 0 -172 -48t-74 -197h-96
q12 215 12 362h1170q0 -147 12 -362h-96q-25 150 -74 198t-172 47z" />
    <glyph glyph-name="afii10052" unicode="&#x403;" horiz-adv-x="1103" 
d="M864 1556l-10 -30l-453 -162l-24 49l293 232q44 35 72 35t59 -40zM532 217q0 -63 29 -91t131 -54v-72q-202 6 -326 6t-296 -6v72l125 39v954q0 67 -22 93t-110 50v72h963q4 -182 25 -344h-103q-18 135 -72 184t-164 49t-180 -4v-948z" />
    <glyph glyph-name="afii10053" unicode="&#x404;" horiz-adv-x="1187" 
d="M446 596h-22q8 -236 89 -369t232 -133q254 0 295 297h99q-14 -180 -19 -371q-35 -6 -161 -29t-246 -24q-317 0 -483 181q-164 180 -164 486t176 491t489 186q103 -1 217 -19t139 -20q2 -20 8 -168t13 -207h-98q-35 153 -100 219t-173 66q-139 0 -220 -124t-91 -345h20
q66 0 254 6t224 12l-17 -145q-88 10 -461 10z" />
    <glyph glyph-name="afii10054" unicode="&#x405;" horiz-adv-x="1091" 
d="M133 373h103q18 -137 89 -212t177 -75t162 52q55 52 55 120t-45 116t-112 78q-68 30 -146 72t-145 88q-67 45 -111 126q-45 81 -45 184q0 180 137 282t342 103q66 -1 182 -17t154 -20q0 -84 12 -336h-100q-29 250 -242 250q-88 0 -143 -47t-55 -121t62 -128t150 -94
t178 -88t151 -136q62 -88 63 -208q0 -184 -138 -292t-353 -107q-214 0 -382 74v336z" />
    <glyph glyph-name="afii10055" unicode="&#x406;" horiz-adv-x="731" 
d="M535 215q-1 -67 21 -93t110 -50v-72q-202 6 -312 6t-282 -6v72l125 39v954q0 67 -22 93t-109 50v72q203 -6 312 -6t281 6v-72l-124 -39v-954z" />
    <glyph glyph-name="afii10056" unicode="&#x407;" horiz-adv-x="731" 
d="M426 1546q0 51 37 89t90 38t90 -38t37 -89t-37 -89t-90 -38t-90 38t-37 89zM51 1546q0 51 38 89t89 38t89 -38t38 -89t-38 -89t-89 -38t-89 38t-38 89zM535 215q-1 -67 21 -93t110 -50v-72q-202 6 -312 6t-282 -6v72l125 39v954q0 67 -22 93t-109 50v72q203 -6 312 -6
t281 6v-72l-124 -39v-954z" />
    <glyph glyph-name="afii10057" unicode="&#x408;" horiz-adv-x="704" 
d="M186 166v899q0 67 -22 93t-109 50v72q203 -6 313 -6t281 6v-72l-125 -39v-985q0 -298 -150 -459q-124 -133 -374 -178l-31 93q123 56 170 172t47 354z" />
    <glyph glyph-name="afii10058" unicode="&#x409;" horiz-adv-x="1916" 
d="M1346 113q86 0 136 62t50 196q0 260 -193 262q-61 0 -106 -6v-430q0 -84 113 -84zM1386 756q218 0 356 -90t138 -272t-102 -283q-117 -111 -410 -111h-598v72l125 39v991q0 43 -15 55t-79 12h-197v-137q0 -274 -36 -531t-112 -384t-216 -127q-57 0 -162 6l-49 4v70l55 10
q123 22 200 130q160 223 160 794v90q0 52 -36 74t-138 32v80h1092v-72l-129 -49v-411q90 8 153 8z" />
    <glyph glyph-name="afii10059" unicode="&#x40a;" horiz-adv-x="1976" 
d="M1292 197q0 -45 26 -65t98 -19q72 0 124 63q51 63 51 187q0 123 -52 179t-157 56h-90v-401zM954 598h-422v-383q0 -67 22 -93t110 -50v-72q-202 6 -312 6t-282 -6v72l125 39v954q0 67 -22 93t-110 50v72q203 -6 313 -6t281 6v-72l-125 -39v-440h422v336q0 71 -20 97
t-105 46v72q203 -6 309 -6t279 6v-72l-125 -39v-440h117q530 0 530 -354q0 -178 -102 -273q-115 -102 -410 -102h-598v72l125 39v487z" />
    <glyph glyph-name="afii10060" unicode="&#x40b;" horiz-adv-x="1644" 
d="M889 1163h-86v-467q158 72 326 72q167 0 253 -92t86 -266v-195q0 -67 22 -93t109 -50v-72q-203 6 -309 6t-278 -6v72l118 39v260q0 141 -29 194q-30 53 -113 53t-185 -51v-352q-1 -67 21 -93t110 -50v-72q-202 6 -312 6t-282 -6v72l125 39v1052h-86q-123 0 -172 -48
t-74 -197h-96q12 215 12 362h1170q0 -147 12 -362h-96q-25 150 -74 198t-172 47z" />
    <glyph glyph-name="afii10061" unicode="&#x40c;" horiz-adv-x="1439" 
d="M963 1720q31 0 63 -43l59 -80l-4 -30l-448 -197l-35 49l291 264q43 37 74 37zM532 707h39q147 0 205 149l164 424h393v-72q-80 -10 -118 -39t-87 -127l-100 -202q-72 -143 -188 -172q76 -23 134 -72t105 -145l95 -187q51 -102 102 -142t145 -50v-72h-485q-25 100 -82 215
l-104 213q-52 102 -92 135t-107 33h-19v-381q0 -67 22 -93t110 -50v-72q-202 6 -312 6t-282 -6v72l125 39v954q0 67 -22 93t-110 50v72q203 -6 313 -6t281 6v-72l-125 -39v-462z" />
    <glyph glyph-name="uni040D" unicode="&#x40d;" horiz-adv-x="1548" 
d="M625 1720q31 0 73 -37l291 -264l-35 -49l-448 197l-4 30l59 80q33 43 64 43zM532 0h-462v72l125 39v954q0 67 -22 93t-110 50v72q203 -6 313 -6t281 6v-72l-125 -39v-757l416 583q68 94 68 166v119h463v-72l-125 -39v-954q0 -67 22 -93t109 -50v-72q-203 6 -313 6
t-281 -6v72l125 39v739l-430 -604q-53 -68 -54 -156v-90z" />
    <glyph glyph-name="afii10062" unicode="&#x40e;" horiz-adv-x="1265" 
d="M711 1411q-117 0 -186 73t-68 187h84q27 -109 170 -109t170 109h84q-1 -115 -69 -187t-185 -73zM414 -14q-57 0 -185 10l-41 4v72l52 10q110 18 186 61t137 146l-377 745q-45 88 -84 122t-120 52v72q117 -6 300 -6t318 6v-72l-125 -37l252 -550l256 548l-123 39v72
q123 -6 206 -6t218 6v-72q-80 -12 -116 -42t-72 -107l-308 -653q-118 -252 -188 -336t-186 -84z" />
    <glyph glyph-name="afii10145" unicode="&#x40f;" horiz-adv-x="1433" 
d="M551 0h-481v72l125 39v954q0 65 -26 95t-106 48v72q203 -6 303 -6t273 6v-72l-107 -39v-1056h373v952q1 67 -21 95t-100 48v72q204 -6 304 -6t272 6v-72l-117 -39v-954q1 -67 21 -93t106 -50v-72h-500q-51 0 -61 -49q-33 -150 -47 -283h-92q-32 298 -71 322
q-15 10 -48 10z" />
    <glyph glyph-name="afii10017" unicode="&#x410;" horiz-adv-x="1384" 
d="M578 928l-156 -436h321zM299 128q0 -20 24 -33t89 -23v-72q-184 6 -219 6t-189 -6v72l123 39l434 1169h221l412 -1051q30 -77 64 -107t120 -50v-72q-214 6 -286 6t-330 -6v72l125 39l-101 264h-407l-68 -193q-12 -34 -12 -54z" />
    <glyph glyph-name="afii10018" unicode="&#x411;" horiz-adv-x="1228" 
d="M645 113q86 0 138 62t53 185q0 279 -197 279q-61 0 -107 -6v-436q0 -84 113 -84zM686 762q219 0 358 -93q140 -93 140 -275t-112 -288t-404 -106h-598v72l125 39v954q0 67 -22 93t-110 50v72h973q4 -182 25 -344h-103q-18 135 -72 184t-161 49t-193 -4v-411q91 8 154 8z
" />
    <glyph glyph-name="afii10019" unicode="&#x412;" horiz-adv-x="1255" 
d="M862 713q328 -67 328 -359q0 -148 -114 -252q-114 -102 -353 -102h-653v72l125 39v954q0 67 -22 93t-110 50v72h586q463 0 463 -287q0 -94 -66 -169t-184 -111zM532 635v-449q0 -39 27 -56t90 -17q190 0 191 258q0 143 -69 203t-206 61h-33zM588 748q192 0 192 219
q0 98 -49 150t-174 52h-25v-421h56z" />
    <glyph glyph-name="afii10020" unicode="&#x413;" horiz-adv-x="1103" 
d="M532 217q0 -63 29 -91t131 -54v-72q-202 6 -326 6t-296 -6v72l125 39v954q0 67 -22 93t-110 50v72h963q4 -182 25 -344h-103q-18 135 -72 184t-164 49t-180 -4v-948z" />
    <glyph glyph-name="afii10021" unicode="&#x414;" horiz-adv-x="1513" 
d="M1087 0h-702q-78 0 -118 -16q-41 -16 -71 -78t-51 -238h-100v434l8 11h88q74 0 105 47q76 112 136 312t60 532v90q0 52 -38 74t-140 32v80h1143v-72l-129 -49v-1046h209l6 -9q-8 -125 -8 -436h-105q-14 162 -44 228t-83 86q-53 18 -166 18zM940 113v989q0 43 -15 55
t-79 12h-248v-157q0 -334 -60 -558t-139 -341h541z" />
    <glyph glyph-name="afii10022" unicode="&#x415;" horiz-adv-x="1175" 
d="M70 0v72l125 39v954q0 67 -22 93t-110 50v72h979q4 -170 25 -334h-102q-15 127 -69 175t-174 48t-190 -4v-454h66q203 0 307 22l-14 -155q-121 16 -293 16h-66v-373q0 -59 40 -85t168 -26t188 49q59 48 80 169h94q-12 -135 -12 -328h-1020z" />
    <glyph glyph-name="afii10024" unicode="&#x416;" horiz-adv-x="2099" 
d="M1219 596v-381q-1 -67 21 -93t110 -50v-72q-202 6 -312 6t-282 -6v72l125 39v485h-15q-68 0 -110 -34t-92 -138l-76 -170q-70 -156 -88 -254h-482v72q94 18 141 59q46 41 93 135l90 187q92 193 231 221q-111 39 -170 172l-81 184q-44 104 -92 139t-138 39v72h348
q39 0 61 -10t31 -43l125 -381q47 -139 170 -139h54v358q0 67 -22 93t-109 50v72q203 -6 312 -6t281 6v-72l-124 -39v-462h53q123 0 170 139l125 381q10 33 31 43q22 10 61 10h348v-72q-90 -4 -137 -39t-92 -139l-82 -184q-59 -133 -170 -172q139 -29 231 -221l90 -187
q47 -94 93 -135t141 -59v-72h-482q-18 98 -88 254l-75 170q-48 104 -92 138t-111 34h-14z" />
    <glyph glyph-name="afii10025" unicode="&#x417;" horiz-adv-x="1069" 
d="M631 976q0 220 -204 220q-100 0 -163 -61t-94 -201h-96q10 160 6 330q188 47 401 47t340 -79t127 -233q0 -113 -72 -191t-198 -108q141 -14 233 -103t93 -235q0 -178 -150 -286t-432 -107q-156 0 -381 58q0 227 -6 329h96q57 -270 293 -270q111 0 172 75t61 195
q0 268 -286 269h-41v100h35q115 0 191 71t75 180z" />
    <glyph glyph-name="afii10026" unicode="&#x418;" horiz-adv-x="1548" 
d="M532 0h-462v72l125 39v954q0 67 -22 93t-110 50v72q203 -6 313 -6t281 6v-72l-125 -39v-757l416 583q68 94 68 166v119h463v-72l-125 -39v-954q0 -67 22 -93t109 -50v-72q-203 6 -313 6t-281 -6v72l125 39v739l-430 -604q-53 -68 -54 -156v-90z" />
    <glyph glyph-name="afii10027" unicode="&#x419;" horiz-adv-x="1548" 
d="M788 1411q-118 0 -186 73t-67 187h83q27 -109 170 -109t170 109h84q0 -115 -68 -187t-186 -73zM532 0h-462v72l125 39v954q0 67 -22 93t-110 50v72q203 -6 313 -6t281 6v-72l-125 -39v-757l416 583q68 94 68 166v119h463v-72l-125 -39v-954q0 -67 22 -93t109 -50v-72
q-203 6 -313 6t-281 -6v72l125 39v739l-430 -604q-53 -68 -54 -156v-90z" />
    <glyph glyph-name="afii10028" unicode="&#x41a;" horiz-adv-x="1439" 
d="M532 707h39q147 0 205 149l164 424h393v-72q-80 -10 -118 -39t-87 -127l-100 -202q-72 -143 -188 -172q76 -23 134 -72t105 -145l95 -187q51 -102 102 -142t145 -50v-72h-485q-25 100 -82 215l-104 213q-52 102 -92 135t-107 33h-19v-381q0 -67 22 -93t110 -50v-72
q-202 6 -312 6t-282 -6v72l125 39v954q0 67 -22 93t-110 50v72q203 -6 313 -6t281 6v-72l-125 -39v-462z" />
    <glyph glyph-name="afii10029" unicode="&#x41b;" horiz-adv-x="1478" 
d="M444 1004v90q0 52 -36 74t-138 32v80h1143v-72l-129 -49v-944q0 -67 22 -93t109 -50v-72q-203 6 -313 6t-281 -6v72l125 39v991q0 43 -15 55t-79 12h-248v-137q0 -274 -36 -531t-112 -384t-216 -127q-57 0 -162 6l-49 4v70l55 10q123 22 200 130q160 224 160 794z" />
    <glyph glyph-name="afii10030" unicode="&#x41c;" horiz-adv-x="1800" 
d="M195 1065q0 67 -22 93t-110 50v72h461l375 -889l373 889h459v-72l-125 -39v-954q0 -67 22 -93t109 -50v-72q-203 6 -311 6t-281 -6v72l125 39v792l-389 -911h-152l-383 905v-682q0 -67 22 -93t109 -50v-72l-196 6q-39 0 -211 -6v72l125 39v954z" />
    <glyph glyph-name="afii10031" unicode="&#x41d;" horiz-adv-x="1515" 
d="M1321 215q-1 -67 21 -93t110 -50v-72q-202 6 -312 6t-282 -6v72l125 39v487h-451v-383q0 -67 22 -93t110 -50v-72q-202 6 -312 6t-282 -6v72l125 39v954q0 67 -22 93t-110 50v72q203 -6 313 -6t281 6v-72l-125 -39v-440h451v336q1 67 -21 93t-110 50v72q202 -6 312 -6
t282 6v-72l-125 -39v-954z" />
    <glyph glyph-name="afii10032" unicode="&#x41e;" horiz-adv-x="1376" 
d="M952 639q0 254 -65 396q-66 143 -199 143t-199 -142q-65 -142 -65 -397q0 -254 66 -396q66 -143 198 -143t198 142t66 397zM1311 639q0 -303 -166 -487t-457 -184t-457 184t-165 487q0 303 165 487q166 184 457 184t457 -184t166 -487z" />
    <glyph glyph-name="afii10033" unicode="&#x41f;" horiz-adv-x="1482" 
d="M950 1169h-418v-954q0 -67 22 -93t110 -50v-72q-202 6 -312 6t-282 -6v72l125 39v954q0 67 -22 93t-110 50v72h1350v-72l-125 -39v-954q0 -67 22 -93t109 -50v-72q-203 6 -312 6t-282 -6v72l125 39v1058z" />
    <glyph glyph-name="afii10034" unicode="&#x420;" horiz-adv-x="1206" 
d="M532 1165v-540h41q242 0 242 282q0 258 -256 258h-27zM532 512v-295q0 -63 29 -91t131 -54v-72q-202 6 -326 6t-296 -6v72l125 39v954q0 67 -22 93t-110 50v72h541q340 0 467 -121q94 -88 94 -263q0 -176 -139 -280t-416 -104h-78z" />
    <glyph glyph-name="afii10035" unicode="&#x421;" horiz-adv-x="1208" 
d="M754 1182q-156 0 -243 -144t-87 -395q0 -250 87 -376t254 -126t304 160l82 -63q-168 -270 -498 -271q-276 0 -432 177q-155 176 -155 486t179 495t488 186q74 1 210 -17t157 -20q0 -66 16 -377h-102q-31 285 -260 285z" />
    <glyph glyph-name="afii10036" unicode="&#x422;" horiz-adv-x="1267" 
d="M889 1163h-86v-948q-1 -67 21 -93t110 -50v-72q-202 6 -312 6t-282 -6v72l125 39v1052h-86q-123 0 -172 -48t-74 -197h-96q12 215 12 362h1170q0 -147 12 -362h-96q-25 150 -74 198t-172 47z" />
    <glyph glyph-name="afii10037" unicode="&#x423;" horiz-adv-x="1265" 
d="M414 -14q-57 0 -185 10l-41 4v72l52 10q110 18 186 61t137 146l-377 745q-45 88 -84 122t-120 52v72q117 -6 300 -6t318 6v-72l-125 -37l252 -550l256 548l-123 39v72q123 -6 206 -6t218 6v-72q-80 -12 -116 -42t-72 -107l-308 -653q-118 -252 -188 -336t-186 -84z" />
    <glyph glyph-name="afii10038" unicode="&#x424;" horiz-adv-x="1591" 
d="M1186 636q0 134 -68 222t-172 115v-668q106 25 173 111t67 220zM406 636q0 -134 66 -220t173 -111v668q-103 -27 -171 -115t-68 -222zM783 6q-91 0 -263 -6v72l125 39v77q-258 18 -418 127q-159 109 -159 325t160 326q161 110 417 124q-4 48 -29 72t-102 46v72
q203 -6 294 -6t263 6v-72l-125 -39v-79q256 -14 417 -124t161 -330t-167 -326t-411 -122q2 -50 27 -72t104 -44v-72q-203 6 -294 6z" />
    <glyph glyph-name="afii10039" unicode="&#x425;" horiz-adv-x="1308" 
d="M1044 1274q98 0 226 6v-72q-88 -8 -125 -28t-76 -78l-268 -406l332 -499q41 -63 79 -88t115 -37v-72q-215 6 -362 6t-271 -6v72l123 37l-244 366l-233 -369l117 -34v-72q-117 6 -223 6t-234 -6v72q92 10 137 32t80 74l277 420l-320 485q-43 65 -81 89t-113 36v72
q215 -6 362 -6t270 6v-72l-123 -37l232 -352l225 355l-117 34v72q117 -6 215 -6z" />
    <glyph glyph-name="afii10040" unicode="&#x426;" horiz-adv-x="1556" 
d="M1090 0h-1020v72l125 39v954q0 65 -24 93t-108 50v72q203 -6 309 -6t279 6v-72l-119 -39v-1056h410v952q0 67 -22 93t-103 50v72q203 -6 309 -6t279 6v-72l-125 -39v-1056h209l6 -9q-8 -125 -8 -436h-105q-14 162 -44 228t-82 86q-52 18 -166 18z" />
    <glyph glyph-name="afii10041" unicode="&#x427;" horiz-adv-x="1327" 
d="M459 827q0 -170 155 -172q80 0 181 64v346q0 67 -23 95t-100 48v72q203 -6 308 -6t277 6v-72l-124 -39v-954q-1 -67 21 -93t110 -50v-72q-202 6 -312 6t-282 -6v72l125 39v475q-131 -80 -291 -80q-217 0 -307 117q-76 96 -76 286v156q0 69 -24 97t-107 46v72
q203 -6 308 -6t277 6v-72l-116 -39v-342z" />
    <glyph glyph-name="afii10042" unicode="&#x428;" horiz-adv-x="1976" 
d="M1448 113v952q0 67 -22 95t-99 48v72q203 -6 303 -6t273 6v-72l-117 -39v-954q0 -67 20 -93t107 -50v-72h-1843v72l125 39v954q0 65 -26 95t-106 48v72q203 -6 303 -6t273 6v-72l-107 -39v-1056h289v952q0 69 -19 97t-95 46v72q203 -6 298 -6t267 6v-72l-113 -39v-1056
h289z" />
    <glyph glyph-name="afii10043" unicode="&#x429;" horiz-adv-x="2019" 
d="M1784 113h209l6 -9q-8 -125 -8 -436h-105q-14 162 -44 228t-83 86q-53 18 -166 18h-1523v72l125 39v954q0 65 -26 95t-106 48v72q203 -6 303 -6t273 6v-72l-107 -39v-1056h289v952q0 69 -19 97t-95 46v72q203 -6 298 -6t267 6v-72l-113 -39v-1056h287v952q0 67 -22 95
t-99 48v72q203 -6 303 -6t273 6v-72l-117 -39v-1056z" />
    <glyph glyph-name="afii10044" unicode="&#x42a;" horiz-adv-x="1466" 
d="M936 756q219 0 356 -90q138 -90 138 -272t-110 -288t-402 -106h-599v72l125 39v997q0 37 -12 49t-49 12h-35q-96 0 -143 -52t-66 -171h-102q10 164 10 334h860v-72l-125 -39v-421q90 8 154 8zM895 113q86 0 136 62t50 196q0 260 -192 262q-61 0 -107 -6v-430
q0 -84 113 -84z" />
    <glyph glyph-name="afii10045" unicode="&#x42b;" horiz-adv-x="1900" 
d="M1706 215q0 -67 22 -93t109 -50v-72q-203 6 -313 6t-281 -6v72l125 39v954q0 67 -22 93t-109 50v72q203 -6 313 -6t281 6v-72l-125 -39v-954zM195 1065q0 67 -22 93t-110 50v72q203 -6 313 -6t281 6v-72l-125 -39v-389q90 8 154 8q217 0 355 -94q139 -94 139 -288
t-110 -300t-402 -106h-598v72l125 39v954zM645 113q84 -1 135 73t51 203q0 276 -192 277q-61 0 -107 -7v-462q0 -84 113 -84z" />
    <glyph glyph-name="afii10046" unicode="&#x42c;" horiz-adv-x="1216" 
d="M195 1065q0 67 -22 93t-110 50v72q203 -6 313 -6t281 6v-72l-125 -39v-376q90 8 154 8q215 -1 354 -101q140 -100 140 -294t-110 -300t-402 -106h-598v72l125 39v954zM645 113q84 -1 135 73t51 203q0 289 -192 289q-61 0 -107 -6v-475q0 -84 113 -84z" />
    <glyph glyph-name="afii10047" unicode="&#x42d;" horiz-adv-x="1239" 
d="M500 96q154 0 232 132t81 366h-8q-338 0 -459 -16l-18 153q188 -20 477 -20h8q-16 473 -301 473q-104 0 -184 -69t-113 -220h-96q25 160 28 369q56 7 186 27t222 20q303 0 461 -174q158 -175 158 -485t-167 -496t-495 -187q-108 0 -393 54q-5 173 -23 376h88
q37 -143 118 -223t198 -80z" />
    <glyph glyph-name="afii10048" unicode="&#x42e;" horiz-adv-x="2004" 
d="M1348 100q235 0 235 538t-248 540q-239 0 -239 -539t252 -539zM532 729h211q25 264 184 423t423 159q264 1 426 -185q164 -186 164 -486t-164 -486q-162 -186 -432 -186t-432 172q-161 173 -173 458h-207v-383q0 -67 22 -93t110 -50v-72q-202 6 -312 6t-282 -6v72l125 39
v954q0 67 -22 93t-110 50v72q203 -6 313 -6t281 6v-72l-125 -39v-440z" />
    <glyph glyph-name="afii10049" unicode="&#x42f;" horiz-adv-x="1331" 
d="M799 651v514h-19q-131 0 -193 -60t-63 -194q0 -260 236 -260h39zM1262 1280v-72l-125 -39v-954q-1 -67 21 -93t110 -50v-72q-172 6 -285 6t-315 -6v72q88 26 110 52t21 91v330h-25q-68 0 -92 -27t-76 -137l-74 -156q-51 -111 -65 -225h-461v72q78 12 114 45t73 114
l75 168q45 99 87 145t106 62q-139 35 -213 118t-74 191q0 365 584 365h504z" />
    <glyph glyph-name="afii10065" unicode="&#x430;" horiz-adv-x="1017" 
d="M567 473q-98 0 -149 -56q-51 -55 -51 -139q0 -162 106 -163q51 0 94 43v315zM522 942q365 0 365 -354v-400q0 -76 51 -75q29 0 70 18v-80q-106 -78 -242 -78t-176 95q-92 -100 -230 -100t-219 76q-82 77 -82 206q0 315 508 315v60q0 162 -131 161q-137 0 -209 -159
l-102 43q39 124 140 198t257 74z" />
    <glyph glyph-name="afii10066" unicode="&#x431;" horiz-adv-x="1052" 
d="M528 762q-63 0 -107 -58t-44 -263q0 -204 13 -239q12 -36 28 -62q28 -49 91 -48q62 0 95 26q72 57 72 324q0 180 -30 250t-118 70zM597 889q167 0 287 -118q120 -117 120 -327t-128 -342t-350 -133q-266 0 -371 159t-106 472q0 170 47 328q94 317 475 352l144 14
q79 6 109 26t36 64l80 -8q-6 -106 -24 -182t-59 -107q-42 -31 -130 -38l-139 -13q-130 -10 -188 -29t-107 -67q-92 -88 -105 -281q-2 -20 2 -67h5q51 158 143 228t259 69z" />
    <glyph glyph-name="afii10067" unicode="&#x432;" horiz-adv-x="1040" 
d="M479 528h27q137 0 137 134t-135 135h-29v-269zM522 418h-43v-277q0 -25 25 -26q12 -2 56 -2t80 44t36 119q0 142 -154 142zM547 0h-486v66l99 38v629q0 49 -18 69t-83 42v65h519q383 0 383 -219q0 -72 -43 -128t-117 -79q88 -16 145 -73t58 -136q0 -274 -457 -274z" />
    <glyph glyph-name="afii10068" unicode="&#x433;" horiz-adv-x="913" 
d="M479 176q-1 -46 17 -68t77 -42v-66q-190 6 -277 6t-235 -6v66l99 38v629q0 49 -18 69t-83 42v65h830q0 -152 12 -307h-96q-12 117 -54 160t-137 43q-41 0 -135 -4v-625z" />
    <glyph glyph-name="afii10069" unicode="&#x434;" horiz-adv-x="1243" 
d="M741 106v697h-235q2 -35 2 -137t-23 -264t-114 -296h370zM356 715q0 84 -75 110q-39 14 -66 19v65h950v-65l-104 -39v-699h158l6 -8q-16 -154 -17 -372h-100q-24 186 -62 230t-143 44h-584q-73 0 -113 -40t-61 -234h-100v372l6 8h119q186 141 186 609z" />
    <glyph glyph-name="afii10070" unicode="&#x435;" horiz-adv-x="972" 
d="M637 557q0 262 -125 262t-135 -262h260zM496 -33q-213 0 -330 135q-117 134 -117 354t124 353q123 133 323 133t304 -109q103 -110 105 -315q0 -49 -4 -72h-526q6 -303 217 -303q139 0 221 133l82 -51q-45 -119 -153 -189t-246 -69z" />
    <glyph glyph-name="afii10072" unicode="&#x436;" horiz-adv-x="1665" 
d="M1628 0h-389q-8 55 -47 150l-66 161q-25 61 -46 82q-22 20 -56 21h-31v-238q-1 -46 17 -68t77 -42v-66q-190 6 -277 6t-235 -6v66l99 38v310h-31q-35 0 -57 -20t-45 -83l-66 -161q-39 -94 -47 -150h-391v66q102 16 151 143l45 121q29 74 74 110t119 43q-63 18 -117 105
l-96 157q-35 57 -63 76q-29 18 -74 23v65h338l147 -348q16 -41 68 -41h45v213q0 49 -18 69t-83 42v65q131 -4 265 -4t260 4v-65l-105 -39v-285h45q51 0 68 41l145 348h338v-65q-45 -4 -73 -22t-64 -77l-96 -157q-53 -86 -117 -105q74 -6 119 -43t74 -110l45 -121
q49 -127 151 -143v-66z" />
    <glyph glyph-name="afii10073" unicode="&#x437;" horiz-adv-x="897" 
d="M375 84q73 0 115 44t42 128q0 170 -192 170h-41v106h55q172 0 172 156q0 61 -36 98t-97 37q-172 0 -213 -198h-82q6 74 6 270q2 0 62 12q60 13 117 23q58 10 159 10q176 0 282 -59t105 -170q0 -87 -58 -145t-144 -74q102 -16 168 -74q65 -58 65 -160t-70 -170t-170 -92
q-99 -24 -240 -25q-141 0 -314 52q-1 165 -5 280h80q43 -219 234 -219z" />
    <glyph glyph-name="afii10074" unicode="&#x438;" horiz-adv-x="1294" 
d="M479 0h-418v66l99 38v629q0 49 -18 69t-83 42v65q131 -4 265 -4t260 4v-65l-105 -39v-461l297 379q35 39 35 108v78h424v-65l-105 -39v-629q0 -46 18 -68t77 -42v-66q-189 6 -277 6t-235 -6v66l98 38v455l-297 -366q-35 -43 -35 -101v-92z" />
    <glyph glyph-name="afii10075" unicode="&#x439;" horiz-adv-x="1294" 
d="M676 1040q-117 0 -186 73t-68 187h84q27 -108 170 -108t170 108h84q0 -116 -68 -188t-186 -72zM479 0h-418v66l99 38v629q0 49 -18 69t-83 42v65q131 -4 265 -4t260 4v-65l-105 -39v-461l297 379q35 39 35 108v78h424v-65l-105 -39v-629q0 -46 18 -68t77 -42v-66
q-189 6 -277 6t-235 -6v66l98 38v455l-297 -366q-35 -43 -35 -101v-92z" />
    <glyph glyph-name="afii10076" unicode="&#x43a;" horiz-adv-x="1155" 
d="M479 414v-238q-1 -46 17 -68t77 -42v-66q-190 6 -277 6t-235 -6v66l99 38v629q0 49 -18 69t-83 42v65q131 -4 265 -4t260 4v-65l-105 -39v-285h45q47 0 74 58l172 331h348v-65q-42 -4 -72 -22t-67 -77l-107 -157q-61 -88 -141 -105q59 -10 88 -39t78 -114l70 -121
q72 -131 151 -143v-66h-385q-23 78 -53 137l-102 195q-43 82 -76 82h-23z" />
    <glyph glyph-name="afii10077" unicode="&#x43b;" horiz-adv-x="1171" 
d="M688 803h-211q4 -31 4 -145q1 -114 -23 -296q-24 -180 -86 -276t-172 -96t-165 6l-35 4v63l53 13q78 18 141 103q62 85 94 241t31 295q0 88 -67 110q-39 14 -66 19v65h926v-65l-104 -39v-629q0 -46 17 -68t77 -42v-66q-190 6 -278 6t-234 -6v66l98 38v699z" />
    <glyph glyph-name="afii10078" unicode="&#x43c;" horiz-adv-x="1464" 
d="M172 733q0 47 -24 71t-89 40v65h435l241 -585l250 585h420v-65l-105 -39v-629q0 -46 18 -68t77 -42v-66q-189 6 -277 6t-235 -6v66l98 38v476l-252 -588h-158l-264 618v-434q-1 -46 17 -68t77 -42v-66l-157 6q-37 0 -185 -6v66l113 38v629z" />
    <glyph glyph-name="afii10079" unicode="&#x43d;" horiz-adv-x="1263" 
d="M780 414h-301v-238q-1 -46 17 -68t77 -42v-66q-190 6 -277 6t-235 -6v66l99 38v629q0 49 -18 69t-83 42v65q131 -4 265 -4t260 4v-65l-105 -39v-285h301v213q0 49 -18 69t-82 42v65q131 -4 264 -4t260 4v-65l-104 -39v-629q0 -46 17 -68t77 -42v-66q-190 6 -278 6
t-234 -6v66l98 38v310z" />
    <glyph glyph-name="afii10080" unicode="&#x43e;" horiz-adv-x="1052" 
d="M676 455q0 193 -34 279t-116 87q-82 0 -116 -87q-34 -88 -33 -280q0 -192 34 -279q33 -87 115 -87t116 87t34 280zM1004 455q0 -231 -132 -359t-346 -129q-213 0 -345 128q-132 127 -132 359t132 360t345 128q214 0 346 -128t132 -359z" />
    <glyph glyph-name="afii10081" unicode="&#x43f;" horiz-adv-x="1222" 
d="M739 803h-260v-627q-1 -46 17 -68t77 -42v-66q-190 6 -277 6t-235 -6v66l99 38v629q0 49 -18 69t-83 42v65h1104v-65l-104 -39v-629q0 -46 17 -68t77 -42v-66q-189 6 -277 6t-235 -6v66l98 38v699z" />
    <glyph glyph-name="afii10082" unicode="&#x440;" horiz-adv-x="1132" 
d="M298 -446q-104 0 -251 -7v66l98 39v1081q0 49 -18 69t-82 42v65q283 0 420 23v-105q115 115 265 115t248 -130q99 -130 99 -351t-119 -357t-309 -137q-113 0 -184 47v-290q0 -45 27 -67t102 -44v-66q-192 7 -296 7zM599 778q-73 0 -134 -69v-580q47 -29 100 -29
q88 0 136 91q49 91 49 255t-39 248t-112 84z" />
    <glyph glyph-name="afii10083" unicode="&#x441;" horiz-adv-x="915" 
d="M494 -33q-201 0 -323 127q-122 126 -122 358t135 361t355 129q74 0 168 -14q93 -14 129 -19q0 -147 8 -323h-90q-27 231 -179 231q-199 0 -198 -338q0 -170 56 -256t153 -86q121 0 207 135l81 -53q-51 -117 -149 -185t-231 -67z" />
    <glyph glyph-name="afii10084" unicode="&#x442;" horiz-adv-x="1011" 
d="M666 805v-629q0 -47 18 -67t78 -43v-66q-190 6 -278 6t-236 -6v66l98 38v701h-29q-94 0 -136 -43t-54 -160h-96q12 156 12 307h926q0 -152 12 -307h-96q-13 117 -55 160t-136 43h-28z" />
    <glyph glyph-name="afii10085" unicode="&#x443;" horiz-adv-x="1001" 
d="M214 903q180 0 290 6v-65l-86 -33l59 -139q86 -203 133 -350q43 131 125 340l58 149l-78 33v65q69 -4 141 -4t182 4v-65q-70 -14 -98 -38t-55 -97l-336 -850q-76 -189 -153 -265t-166 -76t-133 42q-44 41 -44 88q0 46 24 72t62 26l142 -16q51 0 83 37t70 137l25 63
l-334 744q-31 69 -57 91t-101 42v65q67 -6 247 -6z" />
    <glyph glyph-name="afii10086" unicode="&#x444;" horiz-adv-x="1548" 
d="M1018 92q72 0 112 95t41 260q0 165 -39 261q-40 95 -102 95t-96 -41v-621q31 -49 84 -49zM518 803q-62 0 -102 -95q-40 -94 -39 -260q0 -166 41 -261t112 -95q49 0 84 49v621q-34 41 -96 41zM934 -276q0 -40 15 -60t55 -35l45 -16v-66q-326 10 -543 0v66l108 39v383
q-74 -68 -228 -68t-245 124q-92 124 -92 367q0 244 99 364q98 120 242 120t224 -74v318q0 49 -18 68t-82 42v66q283 0 420 22v-516q80 74 220 74t242 -123t103 -363q0 -240 -92 -365q-91 -124 -245 -124t-228 68v-311z" />
    <glyph glyph-name="afii10087" unicode="&#x445;" horiz-adv-x="1024" 
d="M830 905q102 0 171 4v-65q-83 -12 -119 -37t-81 -100l-131 -215l202 -302q43 -63 74 -86t96 -38v-66q-154 6 -295 6t-233 -6v66l72 28l-146 217l-127 -219l70 -26v-66q-73 4 -187 4t-184 -4v66q86 14 136 43t90 94l131 217l-201 299q-41 61 -74 84t-100 41v65
q154 -6 298 -6t236 6v-65l-73 -29l143 -215l127 217l-70 27v65q73 -4 175 -4z" />
    <glyph glyph-name="afii10088" unicode="&#x446;" horiz-adv-x="1282" 
d="M942 0h-881v66l99 38v629q0 49 -18 69t-83 42v65q131 -4 265 -4t260 4v-65l-105 -39v-678h301v606q0 49 -18 69t-82 42v65q131 -4 264 -4t260 4v-65l-104 -39v-699h157l7 -8q-16 -154 -17 -372h-100q-25 186 -63 230t-142 44z" />
    <glyph glyph-name="afii10089" unicode="&#x447;" horiz-adv-x="1171" 
d="M1008 176q0 -46 17 -68t77 -42v-66q-190 6 -278 6t-234 -6v66l98 38v275q-114 -82 -276 -82t-245 78t-83 252v106q0 49 -18 69t-82 42v65q131 -4 264 -4t260 4v-65l-105 -39v-178q0 -97 26 -145q25 -48 99 -48t160 76v223q0 49 -18 69t-82 42v65q131 -4 264 -4t260 4v-65
l-104 -39v-629z" />
    <glyph glyph-name="afii10090" unicode="&#x448;" horiz-adv-x="1779" 
d="M1710 0h-1649v66l99 38v629q0 49 -18 69t-83 42v65q131 -4 261 -4t258 4v-65l-99 -39v-678h250v606q0 49 -16 69t-78 42v65q131 -4 258 -4t254 4v-65l-98 -39v-678h247v606q0 49 -16 69t-78 42v65q131 -4 261 -4t257 4v-65l-104 -39v-629q0 -46 17 -68t77 -42v-66z" />
    <glyph glyph-name="afii10091" unicode="&#x449;" horiz-adv-x="1798" 
d="M61 0v66l99 38v629q0 49 -18 69t-83 42v65q131 -4 261 -4t258 4v-65l-99 -39v-678h250v606q0 49 -16 69t-78 42v65q131 -4 258 -4t254 4v-65l-98 -39v-678h247v606q0 49 -16 69t-78 42v65q131 -4 261 -4t257 4v-65l-104 -39v-699h158l6 -8q-16 -154 -17 -372h-100
q-24 186 -61 229t-121 45h-1420z" />
    <glyph glyph-name="afii10092" unicode="&#x44a;" horiz-adv-x="1249" 
d="M680 141q0 -25 25 -26q12 -2 36 -2q59 0 98 44q38 44 38 119q0 166 -138 166q-34 0 -59 -6v-295zM43 909h762v-69l-125 -39v-246q41 4 97 4q199 0 323 -81q45 -30 75 -81t29 -116q0 -281 -456 -281h-486v66l98 38v660q0 41 -47 41h-26q-140 0 -160 -203h-96
q12 156 12 307z" />
    <glyph glyph-name="afii10093" unicode="&#x44b;" horiz-adv-x="1613" 
d="M1450 176q0 -46 17 -68t77 -42v-66q-190 6 -278 6t-234 -6v66l98 38v629q0 49 -18 69t-82 42v65q131 -4 264 -4t260 4v-65l-104 -39v-629zM479 141q0 -25 25 -26q12 -2 37 -2q59 0 97 44t38 119q0 166 -137 166q-35 0 -60 -6v-295zM576 559q201 0 323 -81q45 -30 75 -81
t30 -116q0 -281 -457 -281h-486v66l99 38v629q0 49 -18 69t-83 42v65q131 -4 265 -4t260 4v-65l-105 -39v-250q41 4 97 4z" />
    <glyph glyph-name="afii10094" unicode="&#x44c;" horiz-adv-x="1048" 
d="M479 141q0 -25 25 -26q12 -2 37 -2q59 0 97 44t38 119q0 166 -137 166q-35 0 -60 -6v-295zM576 559q201 0 323 -81q45 -30 75 -81t30 -116q0 -281 -457 -281h-486v66l99 38v629q0 49 -18 69t-83 42v65q131 -4 265 -4t260 4v-65l-105 -39v-250q41 4 97 4z" />
    <glyph glyph-name="afii10095" unicode="&#x44d;" horiz-adv-x="972" 
d="M379 137q193 0 213 271h-342l-19 114h363q-12 295 -199 295q-182 0 -209 -231h-92q16 209 17 325q266 31 331 31q218 0 350 -129t132 -359t-136 -358q-136 -129 -335 -129q-135 1 -244 67t-158 179l80 59q43 -70 113 -102t135 -33z" />
    <glyph glyph-name="afii10096" unicode="&#x44e;" horiz-adv-x="1636" 
d="M1260 454q0 194 -32 280t-112 87q-80 0 -112 -87q-32 -86 -31 -280q0 -194 32 -281q31 -87 111 -87t112 87t32 281zM1587 453q0 -231 -132 -359t-334 -129q-202 0 -333 118t-143 331h-166v-238q-1 -46 17 -68t77 -42v-66q-190 6 -277 6t-235 -6v66l99 38v629q0 49 -18 69
t-83 42v65q131 -4 265 -4t260 4v-65l-105 -39v-285h168q19 202 149 312t328 110t331 -129q132 -129 132 -360z" />
    <glyph glyph-name="afii10097" unicode="&#x44f;" horiz-adv-x="1112" 
d="M549 909h504v-65l-105 -39v-629q0 -46 18 -68t76 -42v-66q-190 6 -277 6t-235 -6v66l99 38v269h-25q-35 -1 -52 -19t-44 -82l-49 -135q-29 -76 -39 -137h-402v66q55 10 91 42q35 32 65 101l35 80q33 71 61 101t70 40q-96 18 -150 76t-53 141q0 262 412 262zM592 479h37
v318h-29q-70 0 -102 -35t-33 -116q0 -81 34 -124t93 -43z" />
    <glyph glyph-name="uni0450" unicode="&#x450;" horiz-adv-x="972" 
d="M365 1350q31 0 73 -37l291 -264l-35 -50l-448 197l-4 31l59 80q33 43 64 43zM637 557q0 262 -125 262t-135 -262h260zM496 -33q-213 0 -330 135q-117 134 -117 354t124 353q123 133 323 133t304 -109q103 -110 105 -315q0 -49 -4 -72h-526q6 -303 217 -303q139 0 221 133
l82 -51q-45 -119 -153 -189t-246 -69z" />
    <glyph glyph-name="afii10071" unicode="&#x451;" horiz-adv-x="972" 
d="M547 1176q0 53 38 90t89 37t89 -37t38 -90q0 -52 -38 -90t-89 -38t-89 38q-38 37 -38 90zM172 1176q0 53 37 90t90 37t90 -37t37 -90q0 -52 -37 -90t-90 -38t-90 38q-37 37 -37 90zM637 557q0 262 -125 262t-135 -262h260zM496 -33q-213 0 -330 135q-117 134 -117 354
t124 353q123 133 323 133t304 -109q103 -110 105 -315q0 -49 -4 -72h-526q6 -303 217 -303q139 0 221 133l82 -51q-45 -119 -153 -189t-246 -69z" />
    <glyph glyph-name="afii10099" unicode="&#x452;" horiz-adv-x="1171" 
d="M807 997h-291v-262q130 103 280 103t238 -104t88 -292q0 -190 -138 -393t-390 -364l-70 63q301 266 301 680q0 231 -147 231q-84 0 -162 -73v-410q0 -46 18 -68t76 -42v-66q-190 6 -278 6t-234 -6v66l99 38v893h-162v127h162v62q-1 49 -19 68t-82 42v66q283 0 420 22
v-260h291v-127z" />
    <glyph glyph-name="afii10100" unicode="&#x453;" horiz-adv-x="913" 
d="M676 1350q31 0 63 -43l60 -80l-4 -31l-449 -197l-35 50l291 264q43 37 74 37zM479 176q-1 -46 17 -68t77 -42v-66q-190 6 -277 6t-235 -6v66l99 38v629q0 49 -18 69t-83 42v65h830q0 -152 12 -307h-96q-12 117 -54 160t-137 43q-41 0 -135 -4v-625z" />
    <glyph glyph-name="afii10101" unicode="&#x454;" horiz-adv-x="946" 
d="M569 942q66 0 297 -33q0 -147 8 -323h-90q-27 231 -178 231q-94 0 -156 -77t-71 -218h375l-21 -114h-352q11 -133 75 -202t152 -69q133 0 223 123l82 -53q-51 -111 -153 -175t-236 -65q-215 0 -345 128q-130 127 -130 357q1 230 149 360t371 130z" />
    <glyph glyph-name="afii10102" unicode="&#x455;" horiz-adv-x="868" 
d="M469 942q66 0 276 -35q0 -205 5 -282h-88q-27 207 -170 206q-53 0 -90 -26q-36 -27 -36 -73q1 -80 155 -145q65 -28 131 -63q66 -36 110 -100q45 -64 45 -154q-1 -141 -105 -222t-280 -81t-311 56v270h86q18 -95 69 -155q52 -60 120 -60t104 28t36 77q0 83 -154 146
q-64 27 -130 59t-111 98t-45 161q0 135 111 215t272 80z" />
    <glyph glyph-name="afii10103" unicode="&#x456;" horiz-adv-x="628" 
d="M147 1192q-1 68 47 116t116 48t115 -48q48 -48 48 -116t-48 -115t-116 -47t-115 47t-47 115zM481 176q1 -47 19 -67t78 -43v-66q-190 6 -278 6t-237 -6v66l99 38v629q0 49 -18 69t-83 42v65q283 0 420 23v-756z" />
    <glyph glyph-name="afii10104" unicode="&#x457;" horiz-adv-x="628" 
d="M375 1176q0 53 38 90t89 37t89 -37t38 -90q0 -52 -38 -90t-89 -38t-89 38q-38 37 -38 90zM0 1176q0 53 37 90t90 37t90 -37t37 -90q0 -52 -37 -90t-90 -38t-90 38q-37 37 -37 90zM481 176q1 -47 19 -67t78 -43v-66q-190 6 -278 6t-237 -6v66l99 38v629q0 49 -18 69
t-83 42v65q283 0 420 23v-756z" />
    <glyph glyph-name="afii10105" unicode="&#x458;" horiz-adv-x="591" 
d="M133 1192q0 68 47 116t115 48t116 -48t48 -116t-48 -115t-116 -47t-115 47t-47 115zM467 6q0 -459 -479 -485l-15 88q92 29 133 103t41 220v801q0 49 -18 69t-82 42v65q283 0 420 23v-926z" />
    <glyph glyph-name="afii10106" unicode="&#x459;" horiz-adv-x="1550" 
d="M981 141q0 -25 25 -26q12 -2 36 -2q59 0 98 44q38 44 38 119q0 166 -138 166q-34 0 -59 -6v-295zM662 803h-185q4 -31 4 -145q1 -114 -23 -296q-24 -180 -86 -276t-172 -96t-165 6l-35 4v63l45 11q178 41 240 332q35 170 34 309q0 88 -67 110q-39 14 -66 19v65h899v-65
l-104 -39v-250q41 4 97 4q199 0 323 -81q45 -30 75 -81t29 -116q0 -281 -456 -281h-486v66l99 38v699z" />
    <glyph glyph-name="afii10107" unicode="&#x45a;" horiz-adv-x="1654" 
d="M1085 141q0 -25 25 -26q12 -2 37 -2q59 0 97 44t38 119q0 158 -137 158q-35 0 -60 -6v-287zM766 414h-287v-238q-1 -46 17 -68t77 -42v-66q-190 6 -277 6t-235 -6v66l99 38v629q0 49 -18 69t-83 42v65q131 -4 265 -4t260 4v-65l-105 -39v-285h287v213q0 49 -18 69t-82 42
v65q131 -4 264 -4t260 4v-65l-105 -39v-258q41 4 105 4q136 0 263 -49q71 -27 114 -84t43 -137q0 -281 -457 -281h-485v66l98 38v310z" />
    <glyph glyph-name="afii10108" unicode="&#x45b;" horiz-adv-x="1224" 
d="M772 524q0 148 -94 148q-88 0 -162 -92v-404q0 -46 18 -68t76 -42v-66q-190 6 -278 6t-234 -6v66l99 38v893h-162v127h162v62q-1 49 -19 68t-82 42v66q283 0 420 22v-260h291v-127h-291v-286q123 139 301 139q131 0 203 -84t72 -248v-342q0 -46 17 -68t77 -42v-66
q-190 6 -278 6t-234 -6v66l98 38v420z" />
    <glyph glyph-name="afii10109" unicode="&#x45c;" horiz-adv-x="1155" 
d="M813 1350q31 0 64 -43l59 -80l-4 -31l-449 -197l-34 50l290 264q43 37 74 37zM479 414v-238q-1 -46 17 -68t77 -42v-66q-190 6 -277 6t-235 -6v66l99 38v629q0 49 -18 69t-83 42v65q131 -4 265 -4t260 4v-65l-105 -39v-285h45q47 0 74 58l172 331h348v-65q-42 -4 -72 -22
t-67 -77l-107 -157q-61 -88 -141 -105q59 -10 88 -39t78 -114l70 -121q72 -131 151 -143v-66h-385q-23 78 -53 137l-102 195q-43 82 -76 82h-23z" />
    <glyph glyph-name="uni045D" unicode="&#x45d;" horiz-adv-x="1294" 
d="M490 1350q31 0 73 -37l291 -264l-35 -50l-448 197l-4 31l59 80q33 43 64 43zM479 0h-418v66l99 38v629q0 49 -18 69t-83 42v65q131 -4 265 -4t260 4v-65l-105 -39v-461l297 379q35 39 35 108v78h424v-65l-105 -39v-629q0 -46 18 -68t77 -42v-66q-189 6 -277 6t-235 -6v66
l98 38v455l-297 -366q-35 -43 -35 -101v-92z" />
    <glyph glyph-name="afii10110" unicode="&#x45e;" horiz-adv-x="1001" 
d="M565 1040q-117 0 -185 73t-69 187h84q27 -108 170 -108t170 108h84q-1 -116 -69 -188t-185 -72zM214 903q180 0 290 6v-65l-86 -33l59 -139q86 -203 133 -350q43 131 125 340l58 149l-78 33v65q69 -4 141 -4t182 4v-65q-70 -14 -98 -38t-55 -97l-336 -850
q-76 -189 -153 -265t-166 -76t-133 42q-44 41 -44 88q0 46 24 72t62 26l142 -16q51 0 83 37t70 137l25 63l-334 744q-31 69 -57 91t-101 42v65q67 -6 247 -6z" />
    <glyph glyph-name="afii10193" unicode="&#x45f;" horiz-adv-x="1263" 
d="M791 0q-55 0 -66 -41q-29 -104 -47 -244h-84q-18 139 -47 244q-10 41 -66 41h-420v66l99 38v629q0 49 -18 69t-83 42v65q131 -4 265 -4t260 4v-65l-105 -39v-678h301v606q0 49 -18 69t-82 42v65q131 -4 264 -4t260 4v-65l-104 -39v-629q0 -46 17 -68t77 -42v-66h-403z
" />
    <glyph glyph-name="afii10050" unicode="&#x490;" horiz-adv-x="1069" 
d="M63 1280h592q143 0 183 45q39 45 63 234h103q0 -127 16 -390l-12 -10q-88 10 -230 10h-78q-98 0 -168 -4v-948q0 -63 29 -91t131 -54v-72q-202 6 -326 6t-296 -6v72l125 39v954q0 67 -22 93t-110 50v72z" />
    <glyph glyph-name="afii10098" unicode="&#x491;" horiz-adv-x="894" 
d="M479 801v-625q-1 -46 17 -68t77 -42v-66q-190 6 -277 6t-235 -6v66l99 38v629q0 49 -18 69t-83 42v65h541q90 0 127 49t53 181h86q-1 -166 11 -326l-15 -12h-383z" />
    <glyph glyph-name="uni0492" unicode="&#x492;" horiz-adv-x="1112" 
d="M799 590h-258v-373q1 -63 29 -91t130 -54v-72q-202 6 -326 6t-296 -6v72l125 39v479h-146v123h146v352q0 67 -22 93t-109 50v72h962q4 -182 25 -344h-103q-18 135 -72 184t-164 49t-179 -4v-452h258v-123z" />
    <glyph glyph-name="uni0493" unicode="&#x493;" horiz-adv-x="921" 
d="M729 375h-242v-199q-1 -46 17 -68t78 -42v-66q-190 6 -278 6t-234 -6v66l98 38v271h-150v127h150v231q0 49 -18 69t-82 42v65h829q0 -152 12 -307h-96q-12 117 -54 160t-136 43q-41 0 -136 -4v-299h242v-127z" />
    <glyph glyph-name="uni049A" unicode="&#x49a;" horiz-adv-x="1466" 
d="M1448 -332h-105q-14 162 -44 228t-82 86q-53 18 -166 18h-115q-25 100 -82 215l-104 213q-52 102 -92 135t-107 33h-19v-381q0 -67 22 -93t110 -50v-72q-202 6 -312 6t-282 -6v72l125 39v954q0 67 -22 93t-110 50v72q203 -6 313 -6t281 6v-72l-125 -39v-462h39
q147 0 205 149l164 424h393v-72q-80 -10 -118 -39t-87 -127l-100 -202q-72 -143 -188 -172q82 -25 137 -73t102 -144l168 -338h203l6 -9q-8 -125 -8 -436z" />
    <glyph glyph-name="uni049B" unicode="&#x49b;" horiz-adv-x="1210" 
d="M870 0h-102q-27 86 -53 137l-90 168q-35 63 -59 86t-56 23h-31v-238q-1 -46 17 -68t77 -42v-66q-190 6 -277 6t-235 -6v66l99 38v629q0 49 -18 69t-83 42v65q131 -4 265 -4t260 4v-65l-105 -39v-285h45q47 0 74 58l172 331h348v-65q-42 -4 -72 -22t-67 -77l-107 -157
q-61 -88 -141 -105q125 -20 201 -153l129 -224h125l6 -8q-16 -154 -16 -372h-101q-25 186 -63 230t-142 44z" />
    <glyph glyph-name="uni04A2" unicode="&#x4a2;" horiz-adv-x="1550" 
d="M1141 0h-283v72l125 39v487h-451v-383q0 -67 22 -93t110 -50v-72q-202 6 -312 6t-282 -6v72l125 39v954q0 67 -22 93t-110 50v72q203 -6 313 -6t281 6v-72l-125 -39v-440h451v336q1 67 -21 93t-110 50v72q202 -6 312 -6t282 6v-72l-125 -39v-1056h203l6 -9
q-8 -125 -8 -436h-105q-14 162 -44 228q-29 66 -75 86q-46 18 -157 18z" />
    <glyph glyph-name="uni04A3" unicode="&#x4a3;" horiz-adv-x="1249" 
d="M909 0h-227v66l98 38v310h-301v-238q-1 -46 17 -68t77 -42v-66q-190 6 -277 6t-235 -6v66l99 38v629q0 49 -18 69t-83 42v65q131 -4 265 -4t260 4v-65l-105 -39v-285h301v213q0 49 -18 69t-82 42v65q131 -4 264 -4t260 4v-65l-104 -39v-629q0 -39 16 -54t64 -16h45l6 -8
q-16 -154 -17 -372h-100q-25 186 -63 230t-142 44z" />
    <glyph glyph-name="uni04AE" unicode="&#x4ae;" horiz-adv-x="1236" 
d="M801 215q-1 -67 21 -93t110 -50v-72q-202 6 -312 6t-282 -6v72l125 39v383l-303 573q-37 71 -73 99t-114 42v72q215 -6 357 -6t264 6v-72l-127 -37l260 -493l231 493l-116 37v72q122 -6 200 -6t213 6v-72q-83 -8 -117 -36t-75 -113l-262 -551v-293z" />
    <glyph glyph-name="uni04AF" unicode="&#x4af;" horiz-adv-x="1019" 
d="M678 -223q0 -47 18 -67t78 -44v-65q-190 6 -278 6t-236 -6v65l98 39v420l-233 586q-31 69 -57 91t-101 42v65q67 -6 247 -6t290 6v-65l-86 -33l31 -86q63 -178 149 -494q31 92 156 431l55 149l-76 33v65q69 -4 141 -4t183 4v-65q-69 -14 -97 -38t-57 -97l-225 -598v-334z
" />
    <glyph glyph-name="uni04B0" unicode="&#x4b0;" horiz-adv-x="1236" 
d="M231 586h183l-254 481q-37 71 -73 99t-114 42v72q215 -6 357 -6t264 6v-72l-127 -37l260 -493l231 493l-116 37v72q122 -6 200 -6t213 6v-72q-83 -8 -117 -36t-75 -113l-225 -473h194v-123h-231v-248q-1 -67 21 -93t110 -50v-72q-202 6 -312 6t-282 -6v72l125 39v352
h-232v123z" />
    <glyph glyph-name="uni04B1" unicode="&#x4b1;" horiz-adv-x="1019" 
d="M895 -4h-217v-219q0 -47 18 -67t78 -44v-65q-190 6 -278 6t-236 -6v65l98 39v291h-217v127h217l-233 588q-31 69 -57 91t-101 42v65q67 -6 247 -6t290 6v-65l-86 -33l31 -86q63 -178 149 -494q31 92 156 431l55 149l-76 33v65q69 -4 141 -4t183 4v-65q-70 -14 -98 -38
t-56 -97l-221 -586h213v-127z" />
    <glyph glyph-name="uni04BA" unicode="&#x4ba;" horiz-adv-x="1372" 
d="M195 1065q0 67 -22 93t-110 50v72q203 -6 313 -6t281 6v-72l-125 -39v-383q154 84 318 84q348 0 348 -358v-297q0 -67 22 -93t109 -50v-72q-203 6 -309 6t-279 -6v72l119 39v362q0 141 -32 195t-118 53q-86 0 -178 -64v-442q0 -67 22 -93t110 -50v-72q-202 6 -312 6
t-282 -6v72l125 39v954z" />
    <glyph glyph-name="uni04BB" unicode="&#x4bb;" horiz-adv-x="1175" 
d="M723 616q0 148 -94 148q-88 0 -162 -92v-496q0 -46 17 -68t77 -42v-66q-189 6 -277 6t-235 -6v66l98 38v1082q0 49 -18 68q-19 19 -82 42v66q283 0 420 22v-581q123 139 301 139q131 0 203 -84t71 -248v-434q0 -46 18 -68t77 -42v-66q-189 6 -277 6t-235 -6v66l98 38v512
z" />
    <glyph glyph-name="uni04D8" unicode="&#x4d8;" horiz-adv-x="1236" 
d="M566 100q106 0 168 111t73 297h-461q0 -176 57 -292t163 -116zM582 1311q266 1 428 -181t161 -486t-165 -490t-438 -186t-408 154q-134 155 -135 398q0 53 8 111h780q0 137 -28 247q-27 110 -103 188t-193 79q-184 0 -339 -172l-82 63q82 125 219 200t295 75z" />
    <glyph glyph-name="afii10846" unicode="&#x4d9;" horiz-adv-x="954" 
d="M317 352q0 -262 125 -262t136 262h-261zM459 942q213 0 329 -135t117 -354q0 -219 -124 -353t-323 -133q-199 0 -303 110q-103 110 -106 314q0 49 4 72h527q-6 303 -218 303q-139 0 -221 -133l-82 51q45 118 153 188t247 70z" />
    <glyph glyph-name="uni04E8" unicode="&#x4e8;" horiz-adv-x="1404" 
d="M701 100q126 0 197 126t81 352h-553q8 -226 78 -352t197 -126zM701 1178q-127 0 -197 -126t-78 -352h553q-10 226 -81 352t-197 126zM1339 639q0 -301 -172 -486t-465 -185q-292 0 -464 184q-172 186 -172 487t172 486t464 185t465 -184q172 -186 172 -487z" />
    <glyph glyph-name="uni04E9" unicode="&#x4e9;" horiz-adv-x="1064" 
d="M532 821q-143 0 -155 -291h309q-6 150 -43 220t-111 71zM532 88q78 0 115 76t41 239h-311q5 -163 41 -239t114 -76zM1016 455q0 -231 -134 -359t-350 -129q-216 0 -349 128q-134 127 -134 359t134 360t349 128q216 0 350 -128t134 -359z" />
    <glyph glyph-name="Wgrave" unicode="&#x1e80;" horiz-adv-x="1992" 
d="M923 1679q28 0 72 -34l293 -232l-24 -49l-453 162l-10 30l63 84q31 39 59 39zM298 1274q158 0 292 6v-72l-125 -37l283 -780l190 547l-20 66q-39 116 -69 150t-106 54v72q129 -6 289 -6t295 6v-72l-133 -37l256 -776l254 776l-119 37v72q123 -6 206 -6t218 6v-72
q-91 -12 -125 -40t-61 -109l-361 -1061h-200l-248 725l-258 -725h-201l-385 1036q-37 94 -71 125t-119 49v72q160 -6 318 -6z" />
    <glyph glyph-name="wgrave" unicode="&#x1e81;" horiz-adv-x="1523" 
d="M690 1350q30 0 74 -37l291 -264l-35 -50l-449 197l-4 31l60 80q33 43 63 43zM210 903q171 0 282 6v-65l-86 -33l77 -201q55 -143 105 -288q43 125 100 274l43 113q-25 69 -53 97t-82 38v65q68 -6 230 -6t253 6v-67l-92 -27l57 -168q74 -221 103 -319q37 121 100 305
l62 178l-78 33v65q71 -4 143 -4t182 4v-65q-72 -14 -99 -38t-54 -97l-256 -711h-168l-111 317q-49 131 -77 236q-23 -66 -82 -227l-125 -326h-168l-287 713q-27 69 -55 91t-103 42v65q68 -6 239 -6z" />
    <glyph glyph-name="Wacute" unicode="&#x1e82;" horiz-adv-x="1992" 
d="M1274 1556l-10 -30l-453 -162l-25 49l293 232q45 35 73 35t58 -40zM298 1274q158 0 292 6v-72l-125 -37l283 -780l190 547l-20 66q-39 116 -69 150t-106 54v72q129 -6 289 -6t295 6v-72l-133 -37l256 -776l254 776l-119 37v72q123 -6 206 -6t218 6v-72q-91 -12 -125 -40
t-61 -109l-361 -1061h-200l-248 725l-258 -725h-201l-385 1036q-37 94 -71 125t-119 49v72q160 -6 318 -6z" />
    <glyph glyph-name="wacute" unicode="&#x1e83;" horiz-adv-x="1523" 
d="M932 1350q31 0 63 -43l60 -80l-4 -31l-449 -197l-35 50l291 264q43 37 74 37zM210 903q171 0 282 6v-65l-86 -33l77 -201q55 -143 105 -288q43 125 100 274l43 113q-25 69 -53 97t-82 38v65q68 -6 230 -6t253 6v-67l-92 -27l57 -168q74 -221 103 -319q37 121 100 305
l62 178l-78 33v65q71 -4 143 -4t182 4v-65q-72 -14 -99 -38t-54 -97l-256 -711h-168l-111 317q-49 131 -77 236q-23 -66 -82 -227l-125 -326h-168l-287 713q-27 69 -55 91t-103 42v65q68 -6 239 -6z" />
    <glyph glyph-name="Wdieresis" unicode="&#x1e84;" horiz-adv-x="1992" 
d="M1104 1518q0 51 38 89t89 38t89 -38t38 -89q0 -52 -38 -90t-89 -38t-89 39q-38 38 -38 89zM729 1518q0 51 37 89t90 38t90 -38t37 -89q0 -52 -37 -90t-90 -38t-90 39q-37 38 -37 89zM298 1274q158 0 292 6v-72l-125 -37l283 -780l190 547l-20 66q-39 116 -69 150t-106 54
v72q129 -6 289 -6t295 6v-72l-133 -37l256 -776l254 776l-119 37v72q123 -6 206 -6t218 6v-72q-91 -12 -125 -40t-61 -109l-361 -1061h-200l-248 725l-258 -725h-201l-385 1036q-37 94 -71 125t-119 49v72q160 -6 318 -6z" />
    <glyph glyph-name="wdieresis" unicode="&#x1e85;" horiz-adv-x="1523" 
d="M903 1176q0 53 38 90t89 37t89 -37t38 -90q0 -52 -38 -90t-89 -38t-89 38q-38 37 -38 90zM528 1176q0 53 37 90t90 37t90 -37t37 -90q0 -52 -37 -90t-90 -38t-90 38q-37 37 -37 90zM210 903q171 0 282 6v-65l-86 -33l77 -201q55 -143 105 -288q43 125 100 274l43 113
q-25 69 -53 97t-82 38v65q68 -6 230 -6t253 6v-67l-92 -27l57 -168q74 -221 103 -319q37 121 100 305l62 178l-78 33v65q71 -4 143 -4t182 4v-65q-72 -14 -99 -38t-54 -97l-256 -711h-168l-111 317q-49 131 -77 236q-23 -66 -82 -227l-125 -326h-168l-287 713q-27 69 -55 91
t-103 42v65q68 -6 239 -6z" />
    <glyph glyph-name="Ygrave" unicode="&#x1ef2;" horiz-adv-x="1236" 
d="M570 1679q28 0 73 -34l293 -232l-25 -49l-452 162l-10 30l63 84q30 39 58 39zM801 215q-1 -67 21 -93t110 -50v-72q-202 6 -312 6t-282 -6v72l125 39v383l-303 573q-37 71 -73 99t-114 42v72q215 -6 357 -6t264 6v-72l-127 -37l260 -493l231 493l-116 37v72
q122 -6 200 -6t213 6v-72q-83 -8 -117 -36t-75 -113l-262 -551v-293z" />
    </font>
</defs>
</svg>
