<?xml version="1.0" standalone="no"?>
<!DOCTYPE svg PUBLIC "-//W3C//DTD SVG 1.1//EN" "http://www.w3.org/Graphics/SVG/1.1/DTD/svg11.dtd" >
<svg xmlns="http://www.w3.org/2000/svg">
<metadata>
Created by FontPrep 20130207 at Fri Sep  2 18:19:02 2016
 By MkTyrtle
Copyright (c) 2015 by Fontsmith Ltd. All rights reserved.
</metadata>
<defs>
<font id="b38a8c90f052b931ffd57e3fb510312e" horiz-adv-x='1024' >
  <font-face 
    font-family="CadillacSerif-Italic"
    font-weight="400"
    font-style="italic"
    font-stretch="normal"
    units-per-em="2048"
    panose-1="2 0 5 3 7 0 0 9 0 4"
    ascent="1434"
    descent="-614"
    x-height="909"
    cap-height="1280"
    bbox="-428 -543 2281 1992"
    underline-thickness="40"
    underline-position="-231"
    slope="-15"
    unicode-range="U+000D-FB06"
  />
<missing-glyph horiz-adv-x="1095" 
d="M143 1227v-1034l344 518zM203 102h690l-344 516zM608 711l346 -518v1034zM549 801l344 518h-690zM41 0v1419h1014v-1419h-1014z" />
    <glyph glyph-name="f_f" unicode="ff" horiz-adv-x="1120" 
d="M1497 1297q0 -37 -35 -69q-36 -32 -70 -32t-59 57q-10 23 -16 35q-18 35 -60 35q-119 0 -202 -313l-27 -101h215l-35 -73h-200l-340 -1256h-164l340 1256h-381l-348 -1287h-164l348 1287h-131l18 73h133l11 39q57 215 157 323t261 107q78 0 129 -28t51 -66q0 -39 -35 -71
q-35 -31 -70 -31t-61 64t-68 63q-104 0 -188 -314l-23 -86h381l15 54q59 221 169 325t279 105q72 0 121 -29t49 -67z" />
    <glyph glyph-name="fi" unicode="fi" horiz-adv-x="1026" 
d="M803 121q0 -35 38 -35t79 18l-17 -63q-27 -23 -76 -40t-92 -17t-71 28t-27 70q0 41 16 106l152 560q6 25 6 40q0 47 -84 48h-264l-348 -1287h-164l348 1287h-131l18 73h133l15 54q115 430 442 430q104 0 196 -47t91 -109q0 -31 -33 -63q-32 -32 -64 -33q-32 1 -56 29
t-40 62t-49 62t-78 29q-154 0 -241 -342l-19 -72h246q209 0 279 13l6 -9l-201 -737q-10 -37 -10 -55z" />
    <glyph glyph-name="fl" unicode="fl" horiz-adv-x="1040" 
d="M819 121q0 -35 38 -35t79 18l-16 -63q-27 -23 -76 -40t-92 -17t-71 28t-28 70q0 41 17 106l297 1088q-90 45 -168 45q-205 0 -289 -311l-27 -101h215l-34 -73h-201l-348 -1287h-164l348 1287h-131l18 73h133l15 54q59 219 170 324t287 106q65 -1 167 -17t134 -16t51 4
l8 -8l-322 -1180q-10 -37 -10 -55z" />
    <glyph glyph-name="f_f_i" unicode="ffi" horiz-adv-x="1570" 
d="M498 967l-15 -58h381l15 54q33 119 79 208q-92 137 -194 138q-180 0 -266 -342zM774 1378q164 0 270 -88q109 102 277 103q103 0 195 -47t92 -109q0 -31 -33 -63t-65 -33q-32 1 -56 29t-39 62q-16 34 -49 62t-78 29q-154 0 -241 -342l-19 -72h246q209 0 278 13l7 -9
l-201 -737q-10 -37 -10 -55q0 -35 38 -35t78 18l-16 -63q-27 -23 -76 -40t-92 -17t-71 28q-27 28 -27 70q0 41 16 106l152 560q6 25 6 40q0 47 -84 48h-264l-340 -1256h-164l340 1256h-381l-348 -1287h-164l348 1287h-131l18 73h133l11 39q61 230 171 330q109 100 273 100z
" />
    <glyph glyph-name="f_f_l" unicode="ffl" horiz-adv-x="1585" 
d="M879 963q31 121 79 206q-88 139 -194 140q-180 0 -266 -342l-15 -58h381zM773 1378q163 0 276 -90q111 104 286 105q66 -1 168 -17t133 -16t52 4l8 -8l-322 -1180q-10 -37 -10 -55q0 -35 38 -35t79 18l-17 -63q-28 -23 -76 -40t-91 -17t-71 28t-28 70q0 41 16 106
l297 1088q-90 45 -168 45q-205 0 -288 -311l-27 -101h215l-35 -73h-200l-340 -1256h-164l340 1256h-381l-348 -1287h-164l348 1287h-131l18 73h133l11 39q60 230 170 330t273 100z" />
    <glyph glyph-name="f_j" unicode="fj" horiz-adv-x="1003" 
d="M729 909q209 0 279 13l6 -9l-256 -940q-56 -201 -154 -294t-280 -152l-15 41q115 55 174 135t101 234l221 811q6 25 6 40q0 47 -84 48h-264l-348 -1287h-164l348 1287h-131l18 73h133l15 54q115 430 442 430q104 0 196 -47t91 -109q0 -31 -33 -63q-32 -32 -64 -33
q-32 1 -56 29t-40 62t-49 62t-78 29q-154 0 -241 -342l-19 -72h246z" />
    <glyph glyph-name="f_f_j" unicode="ffj" horiz-adv-x="1548" 
d="M774 1378q164 0 270 -88q109 102 277 103q103 0 195 -47t92 -109q0 -31 -33 -63t-65 -33q-32 1 -56 29t-39 62q-16 34 -49 62t-78 29q-154 0 -241 -342l-19 -72h246q209 0 278 13l7 -9l-256 -940q-55 -201 -153 -294t-282 -152l-14 41q115 55 174 135t100 234l222 811
q6 25 6 40q0 47 -84 48h-264l-340 -1256h-164l340 1256h-381l-348 -1287h-164l348 1287h-131l18 73h133l11 39q61 230 171 330q109 100 273 100zM498 967l-15 -58h381l15 54q33 119 79 208q-92 137 -194 138q-180 0 -266 -342z" />
    <glyph glyph-name="f_b" unicode="fb" horiz-adv-x="1546" 
d="M799 1321q-205 0 -289 -311l-27 -101h215l-34 -73h-201l-348 -1287h-164l348 1287h-131l18 73h133l15 54q59 219 170 324t287 106q65 -1 167 -17t134 -16t51 4l8 -8l-107 -391q-31 -121 -69 -228h4q53 93 134 149t179 56t162 -76q66 -76 66 -220t-71 -303t-204 -267
t-273 -107q-140 0 -229 68l-34 -47l-86 -6l-7 8l351 1284q-90 45 -168 45zM952 57q106 1 201 105q96 104 144 237q49 133 49 231t-34 148q-34 49 -95 49q-106 0 -209 -163q-82 -129 -134 -322l-55 -205q27 -80 133 -80z" />
    <glyph glyph-name="f_f_b" unicode="ffb" horiz-adv-x="2091" 
d="M1496 57q106 1 202 105t144 237t48 231q0 196 -129 197q-106 0 -209 -163q-82 -129 -133 -322l-55 -205q26 -80 132 -80zM879 963q31 121 79 206q-88 139 -194 140q-180 0 -266 -342l-15 -58h381zM1836 942q98 0 164 -76t64 -220q0 -144 -70 -303t-204 -267
q-132 -108 -272 -107q-140 0 -230 68l-35 -47l-86 -6l-6 8l350 1284q-90 45 -168 45q-205 0 -288 -311l-27 -101h215l-35 -73h-200l-340 -1256h-164l340 1256h-381l-348 -1287h-164l348 1287h-131l18 73h133l11 39q61 230 171 330q111 100 273 100t275 -90q111 104 286 105
q66 -1 168 -17t133 -16t52 4l8 -8l-107 -391q-31 -121 -69 -228h4q53 93 134 149q80 56 178 56z" />
    <glyph glyph-name="f_h" unicode="fh" horiz-adv-x="1585" 
d="M1526 738q0 -94 -75 -344t-75 -279t30 -29t81 20l-17 -63q-96 -59 -154 -59q-110 0 -110 94q0 70 76 318t78 315q0 102 -96 102q-74 0 -159 -79q-85 -80 -149 -208t-127 -356l-47 -170h-164l349 1276q-90 45 -168 45q-205 0 -289 -311l-27 -101h215l-34 -73h-201
l-348 -1287h-164l348 1287h-131l18 73h133l15 54q59 219 170 324t287 106q65 -1 167 -17t134 -16t51 4l8 -8l-131 -482q-39 -137 -70 -227h2q156 295 373 295q97 0 149 -55t52 -149z" />
    <glyph glyph-name="f_f_h" unicode="ffh" horiz-adv-x="2129" 
d="M1921 115q0 -29 30 -29t81 20l-17 -63q-97 -59 -155 -59q-110 0 -109 94q1 70 77 318t77 315q0 102 -97 102q-74 0 -158 -79q-84 -80 -149 -208q-64 -128 -127 -356l-47 -170h-164l348 1276q-90 45 -168 45q-205 0 -288 -311l-27 -101h215l-35 -73h-200l-340 -1256h-164
l340 1256h-381l-348 -1287h-164l348 1287h-131l18 73h133l11 39q61 230 171 330q111 100 273 100t275 -90q111 104 286 105q66 -1 168 -17t133 -16t52 4l8 -8l-131 -482q-39 -137 -70 -227h2q156 295 373 295q96 0 148 -55t52 -149t-74 -344q-75 -250 -75 -279zM879 963
q31 121 79 206q-88 139 -194 140q-180 0 -266 -342l-15 -58h381z" />
    <glyph glyph-name="f_k" unicode="fk" horiz-adv-x="1476" 
d="M799 1321q-205 0 -289 -311l-27 -101h215l-34 -73h-201l-348 -1287h-164l348 1287h-131l18 73h133l15 54q59 219 170 324t287 106q65 -1 167 -17t134 -16t51 4l8 -8l-221 -809l129 92q96 71 168 143t92 123l223 4v-8l-416 -301l115 -410q15 -58 35 -80t60 -22t73 16
l-18 -67q-77 -51 -145 -51t-100 36t-54 109l-105 375l-84 -60l-121 -446h-164l349 1276q-90 45 -168 45z" />
    <glyph glyph-name="f_f_k" unicode="ffk" horiz-adv-x="2021" 
d="M1343 1321q-205 0 -288 -311l-27 -101h215l-35 -73h-200l-340 -1256h-164l340 1256h-381l-348 -1287h-164l348 1287h-131l18 73h133l11 39q61 230 171 330q111 100 273 100t275 -90q111 104 286 105q66 -1 168 -17t133 -16t52 4l8 -8l-221 -809l129 92q96 71 168 143
t92 123l223 4v-8l-416 -301l115 -410q16 -58 36 -80t59 -22q40 0 73 16l-19 -67q-76 -51 -144 -51t-100 36t-55 109l-104 375l-84 -60l-121 -446h-164l348 1276q-90 45 -168 45zM879 963q31 121 79 206q-88 139 -194 140q-180 0 -266 -342l-15 -58h381z" />
    <glyph glyph-name="f_t" unicode="ft" horiz-adv-x="1161" 
d="M803 -31q-74 0 -120 42t-46 122q0 39 16 103l164 600h-354l-348 -1287h-164l348 1287h-131l18 73h133l15 54q115 430 452 430q72 0 121 -29t49 -67q0 -37 -34 -69t-70 -32q-35 0 -57 50t-38 64q-17 13 -40 13q-123 0 -207 -313l-27 -101h353l49 176l176 80l6 -8l-68 -248
h228l-37 -73h-209l-172 -629q-8 -33 -8 -62t20 -51t58 -20q88 -1 182 71l31 -47q-125 -129 -289 -129z" />
    <glyph glyph-name="f_f_t" unicode="fft" horiz-adv-x="1705" 
d="M1346 145q0 -29 20 -51t57 -20q88 0 183 71l30 -47q-125 -129 -288 -129q-74 0 -120 42t-46 122q0 39 16 103l164 600h-354l-340 -1256h-164l340 1256h-381l-348 -1287h-164l348 1287h-131l18 73h133l11 39q57 215 157 323t261 107q78 0 129 -28t51 -66q0 -39 -35 -71
q-35 -31 -70 -31t-61 64t-68 63q-104 0 -188 -314l-23 -86h381l15 54q59 221 169 325t279 105q72 0 121 -29t49 -67q0 -37 -35 -69q-36 -32 -70 -32t-59 57q-10 23 -16 35q-18 35 -60 35q-119 0 -202 -313l-27 -101h352l50 176l176 80l6 -8l-68 -248h228l-37 -73h-209
l-172 -629q-8 -33 -8 -62z" />
    <glyph glyph-name="t_t" unicode="tt" horiz-adv-x="1232" 
d="M874 -31q-74 0 -120 42t-45 122q0 39 16 103l164 600h-430l-172 -629q-8 -33 -8 -62t20 -51t57 -20q88 0 183 71l30 -47q-125 -129 -288 -129q-74 0 -120 42t-46 122q0 39 16 103l164 600h-133l20 73h131l49 176l177 80l6 -8l-68 -248h430l49 176l177 80l6 -8l-68 -248
h227l-36 -73h-209l-172 -629q-20 -80 12 -112q20 -22 57 -21q89 -1 183 71l30 -47q-125 -129 -289 -129z" />
    <glyph glyph-name="T_h" unicode="Th" horiz-adv-x="2041" 
d="M1982 738q0 -94 -74 -344t-75 -279q0 -29 30 -29t81 20l-17 -63q-95 -59 -155 -59q-108 0 -109 94q1 70 77 318t77 315q0 102 -97 102q-74 0 -158 -79q-84 -80 -149 -208q-64 -128 -127 -356l-47 -170h-164l309 1141q8 35 -6 48t-53 13h-430l-285 -1042q-6 -26 -6 -48
t25 -38t86 -33l-13 -41l-215 6q-31 0 -111 -3t-106 -3l13 41l129 43l305 1118h-96q-156 0 -209 -47t-127 -178h-47q11 41 98 303h1014q43 0 90 20l157 72l13 -6l-133 -492q-39 -137 -70 -227h2q156 295 373 295q96 0 148 -55t52 -149z" />
    <glyph glyph-name="T_T" unicode="TT" horiz-adv-x="1982" 
d="M604 112q0 -22 25 -38t86 -33l-13 -41l-215 6q-31 0 -111 -3t-106 -3l13 41l129 43l305 1118h-96q-156 0 -209 -47t-127 -178h-47q11 41 98 303h1866q-35 -129 -70 -303h-47q0 90 -4 119t-19 55q-31 51 -190 51h-94l-285 -1042q-6 -26 -6 -48q1 -22 25 -38t85 -33
l-12 -41l-215 6q-31 0 -112 -3t-105 -3l12 41l129 43l305 1118h-704l-285 -1042q-6 -26 -6 -48z" />
    <glyph glyph-name="K_A" unicode="KA" horiz-adv-x="2322" 
d="M1303 102q0 -29 49 -43l67 -18l-12 -41l-166 2l-215 -4q-115 0 -163 48t-77 159l-131 487l-188 -176l-96 -356q-6 -26 -6 -48q-1 -22 23 -38t83 -33l-12 -41l-215 6q-33 0 -112 -3t-101 -3l12 41l129 43l283 1036q6 26 6 48t-24 38t-83 33l13 41l213 -6q34 0 112 3t103 3
l-13 -41l-129 -43l-145 -530l577 542l-112 31l10 41l199 -8q36 0 104 4t82 4l-10 -41q-96 -14 -144 -39t-131 -102l-290 -275l159 -598q23 -86 52 -126q28 -40 72 -40t82 33t95 121l676 1067h66l106 -1124q3 -46 19 -66t49 -31l61 -18l-12 -41l-215 6q-31 0 -113 -3t-106 -3
l12 41l129 41l-33 377h-372l-197 -307q-20 -31 -20 -50zM1569 539h313l-22 256q-15 167 -9 219q-33 -68 -127 -221z" />
    <glyph glyph-name="R_A" unicode="RA" horiz-adv-x="2373" 
d="M1354 102q0 -29 49 -43l67 -18l-12 -41l-166 2l-237 -4q-133 0 -187 52t-75 157l-43 203q-20 94 -50 120t-110 27h-111l-108 -397q-6 -26 -6 -48q-1 -22 23 -38t83 -33l-12 -41l-207 6q-31 0 -114 -3t-107 -3l12 41l129 43l283 1036q6 26 6 48t-24 38t-83 33l13 41h411
q398 0 400 -293q0 -135 -98 -244t-249 -147q61 -39 84 -154l46 -217q35 -168 139 -168q109 0 205 156l675 1067h66l106 -1124q4 -46 20 -66t48 -31l61 -18l-12 -41l-215 6q-30 0 -112 -3t-107 -3l12 41l129 41l-32 377h-373l-197 -307q-20 -31 -20 -50zM1901 952q0 44 2 62
q-33 -68 -127 -221l-156 -254h313l-22 256q-10 113 -10 157zM573 635q197 0 307 106t109 254q0 93 -54 147t-210 54h-72l-153 -561h73z" />
    <glyph glyph-name="Tcaron_h" unicode="&#x164;h" horiz-adv-x="2041" 
d="M676 1622l26 14l162 -143l242 143l22 -20l-245 -238h-88zM1982 738q0 -94 -74 -344t-75 -279q0 -29 30 -29t81 20l-17 -63q-95 -59 -155 -59q-108 0 -109 94q1 70 77 318t77 315q0 102 -97 102q-74 0 -158 -79q-84 -80 -149 -208q-64 -128 -127 -356l-47 -170h-164
l309 1141q8 35 -6 48t-53 13h-430l-285 -1042q-6 -26 -6 -48t25 -38t86 -33l-13 -41l-215 6q-31 0 -111 -3t-106 -3l13 41l129 43l305 1118h-96q-156 0 -209 -47t-127 -178h-47q11 41 98 303h1014q43 0 90 20l157 72l13 -6l-133 -492q-39 -137 -70 -227h2q156 295 373 295
q96 0 148 -55t52 -149z" />
    <glyph glyph-name="Tcommaaccent_h" unicode="&#x162;h" horiz-adv-x="2041" 
d="M537 -209q1 -90 -63 -177t-165 -142l-22 32q57 44 98 98t41 89t-31 65q-56 55 -2 106q29 26 67 26t58 -28q20 -26 19 -69zM1982 738q0 -94 -74 -344t-75 -279q0 -29 30 -29t81 20l-17 -63q-95 -59 -155 -59q-108 0 -109 94q1 70 77 318t77 315q0 102 -97 102
q-74 0 -158 -79q-84 -80 -149 -208q-64 -128 -127 -356l-47 -170h-164l309 1141q8 35 -6 48t-53 13h-430l-285 -1042q-6 -26 -6 -48t25 -38t86 -33l-13 -41l-215 6q-31 0 -111 -3t-106 -3l13 41l129 43l305 1118h-96q-156 0 -209 -47t-127 -178h-47q11 41 98 303h1014
q43 0 90 20l157 72l13 -6l-133 -492q-39 -137 -70 -227h2q156 295 373 295q96 0 148 -55t52 -149z" />
    <glyph glyph-name="uni021A_h" unicode="&#x21a;h" horiz-adv-x="2041" 
d="M537 -209q1 -90 -63 -177t-165 -142l-22 32q57 44 98 98t41 89t-31 65q-56 55 -2 106q29 26 67 26t58 -28q20 -26 19 -69zM1982 738q0 -94 -74 -344t-75 -279q0 -29 30 -29t81 20l-17 -63q-95 -59 -155 -59q-108 0 -109 94q1 70 77 318t77 315q0 102 -97 102
q-74 0 -158 -79q-84 -80 -149 -208q-64 -128 -127 -356l-47 -170h-164l309 1141q8 35 -6 48t-53 13h-430l-285 -1042q-6 -26 -6 -48t25 -38t86 -33l-13 -41l-215 6q-31 0 -111 -3t-106 -3l13 41l129 43l305 1118h-96q-156 0 -209 -47t-127 -178h-47q11 41 98 303h1014
q43 0 90 20l157 72l13 -6l-133 -492q-39 -137 -70 -227h2q156 295 373 295q96 0 148 -55t52 -149z" />
    <glyph glyph-name=".notdef" horiz-adv-x="1095" 
d="M143 1227v-1034l344 518zM203 102h690l-344 516zM608 711l346 -518v1034zM549 801l344 518h-690zM41 0v1419h1014v-1419h-1014z" />
    <glyph glyph-name=".null" horiz-adv-x="0" 
 />
    <glyph glyph-name=".null" horiz-adv-x="0" 
 />
    <glyph glyph-name="nonmarkingreturn" horiz-adv-x="681" 
 />
    <glyph glyph-name="CR" unicode="&#xd;" horiz-adv-x="360" 
 />
    <glyph glyph-name="space" unicode=" " horiz-adv-x="360" 
 />
    <glyph glyph-name="exclam" unicode="!" horiz-adv-x="507" 
d="M175 -31q-89 1 -89 91q0 42 37 78t80 36t67 -24t23 -66q0 -43 -37 -79t-81 -36zM395 1157q30 154 111 154t84 -64q0 -31 -17 -80l-290 -829h-43z" />
    <glyph glyph-name="quotedbl" unicode="&#x22;" horiz-adv-x="610" 
d="M770 1240q0 -70 -74 -212t-102 -219h-47q12 66 21 213t38 218q28 70 96 70t68 -70zM483 1240q-1 -70 -75 -212t-101 -219h-47q12 66 22 213t37 218q29 71 95 71q69 -1 69 -71z" />
    <glyph glyph-name="numbersign" unicode="#" horiz-adv-x="1007" 
d="M545 799l-68 -322h213l68 322h-213zM903 907h211l-27 -108h-208l-68 -322h211l-25 -108h-209l-81 -400h-121l82 400h-213l-82 -400h-121l82 400h-211l27 108h206l68 322h-209l25 108h209l86 404h118l-84 -404h213l86 404h119z" />
    <glyph glyph-name="dollar" unicode="$" horiz-adv-x="1007" 
d="M729 324q0 102 -98 196l-127 -461q100 19 162 91t63 174zM500 973q0 -98 104 -197l123 445q-103 -14 -165 -82t-62 -166zM905 371q0 -168 -122 -278t-302 -122l-51 -190l-92 -14l55 206q-104 14 -172 81t-69 171q0 33 4 49l86 11q-2 -16 -2 -43q0 -80 48 -129t128 -58
l143 527q-65 53 -87 72q-22 20 -68 70q-80 88 -80 210q0 158 118 266t310 111l51 186l92 14l-57 -206q100 -17 161 -79t64 -161q0 -33 -6 -68l-90 -12q6 33 6 64q0 73 -43 117t-115 55l-137 -506q78 -68 113 -100t75 -101t39 -143z" />
    <glyph glyph-name="percent" unicode="%" horiz-adv-x="1556" 
d="M434 520q-90 0 -145 60t-56 170q0 200 116 370t263 170q90 0 146 -59t55 -170q0 -201 -116 -371t-263 -170zM446 584q86 0 156 168t70 321t-72 154q-86 0 -156 -168q-70 -167 -70 -321t72 -154zM1145 -10q-90 0 -146 59q-55 59 -55 170q0 201 116 371t263 170
q90 0 145 -60t56 -170q0 -200 -116 -370t-263 -170zM1157 53q86 0 156 168q69 167 69 321t-71 154q-86 0 -156 -168t-70 -322t72 -153zM1507 1311l-1145 -1342h-106l1145 1342h106z" />
    <glyph glyph-name="ampersand" unicode="&#x26;" horiz-adv-x="1314" 
d="M831 1227q-97 0 -169 -69t-72 -162q0 -177 213 -177h8l-47 -74h-33q-161 0 -271 -105t-110 -265q0 -115 76 -197t223 -82q180 0 303 135t123 349q0 22 -4 63q-100 -4 -137 -35t-37 -114l-43 -7q-12 55 -12 101q0 104 58 153t175 53t159 36t71 108h43l-7 -35
q-23 -135 -59 -189t-133 -65q8 -41 8 -96q0 -246 -168 -420q-72 -76 -176 -120t-213 -44q-221 0 -335 118q-113 118 -113 277q0 158 104 276t279 157q-49 29 -77 80t-28 106q0 141 117 235t284 93q167 0 306 -62q-20 -58 -78 -217h-41q6 90 -42 142t-145 53z" />
    <glyph glyph-name="quotesingle" unicode="'" horiz-adv-x="323" 
d="M483 1240q-1 -70 -75 -212t-101 -219h-47q12 66 22 213t37 218q29 71 95 71q69 -1 69 -71z" />
    <glyph glyph-name="parenleft" unicode="(" horiz-adv-x="581" 
d="M174 274q0 362 200 732t513 565l41 -23q-260 -208 -431 -582t-171 -722t102 -512l-45 -23q-94 86 -152 236q-57 150 -57 329z" />
    <glyph glyph-name="parenright" unicode=")" horiz-adv-x="581" 
d="M616 1006q0 -362 -200 -732t-512 -565l-41 23q260 208 431 582t171 722t-103 512l46 23q94 -86 151 -236t57 -329z" />
    <glyph glyph-name="asterisk" unicode="*" horiz-adv-x="772" 
d="M864 1163q16 0 32 -14t15 -42q1 -28 -29 -48t-120 -45t-158 -56q37 -23 74 -35t54 -18q16 -6 26 -9q68 -22 69 -77q-1 -21 -23 -43t-38 -20q-16 0 -24 1q-29 4 -48 30q-20 26 -23 29t-23 33t-68 77q-10 -54 -14 -140t-11 -104q-16 -72 -78 -72q-45 0 -45 45q0 32 14 56
t25 48l18 36q41 82 60 135q-61 -35 -105 -71t-62 -51q-18 -14 -39 -32q-20 -18 -49 -18q-59 0 -61 51q0 33 30 53t120 45t158 56q-37 23 -74 35t-54 18t-38 13t-39 26q-17 19 -18 43t21 46t53 21t46 -17q14 -16 18 -20t9 -12q6 -8 9 -11t23 -33t68 -77q11 53 15 139t10 105
q16 72 78 72q45 0 45 -45q1 -32 -13 -56t-26 -48t-36 -71t-42 -100q61 35 105 71q45 36 63 51t33 28t33 18q18 4 34 4z" />
    <glyph glyph-name="plus" unicode="+" horiz-adv-x="901" 
d="M811 406h-274l-78 -291h-99l78 291h-274l29 100h274l78 291h98l-78 -291h275z" />
    <glyph glyph-name="comma" unicode="," horiz-adv-x="350" 
d="M233 72q0 -96 -68 -191q-69 -94 -177 -153l-23 32q63 48 107 108t43 97q0 37 -34 70t-34 59t30 54t72 28t63 -30t21 -74z" />
    <glyph glyph-name="hyphen" unicode="-" horiz-adv-x="593" 
d="M80 428l24 92h467l-24 -92h-467z" />
    <glyph glyph-name="period" unicode="." horiz-adv-x="354" 
d="M158 174q42 0 66 -24t24 -66q0 -43 -37 -79t-81 -36t-67 24q-23 25 -23 67t38 78q37 36 80 36z" />
    <glyph glyph-name="slash" unicode="/" horiz-adv-x="706" 
d="M893 1311l-760 -1342h-104l759 1342h105z" />
    <glyph glyph-name="zero" unicode="0" horiz-adv-x="1007" 
d="M440 -31q-133 1 -209 97q-75 96 -75 254t46 325q107 389 321 566q120 99 253 99t209 -96t76 -254t-46 -325q-107 -390 -322 -566q-120 -100 -253 -100zM459 59q109 0 212 173q103 174 159 390t57 373q0 225 -129 226q-109 0 -212 -173q-104 -174 -160 -390t-56 -373
q0 -226 129 -226z" />
    <glyph glyph-name="one" unicode="1" horiz-adv-x="1007" 
d="M486 6q-71 0 -261 -6l13 39l139 41l266 979q6 25 6 51q0 56 -143 88l12 39q182 14 322 61h30l-309 -1138q-6 -28 -6 -52t26 -39t89 -30l-13 -39q-100 6 -171 6z" />
    <glyph glyph-name="two" unicode="2" horiz-adv-x="1007" 
d="M686 1204q-135 0 -254 -157l-57 34q158 229 385 230q114 0 184 -67t70 -165q0 -165 -116 -336q-83 -123 -284 -302q-63 -56 -175 -153t-167 -149h322q68 0 113 26t84 89l47 -12q-51 -90 -117 -242h-631l-16 39q82 86 227 231q145 144 216 222t157 184q159 196 158 362
t-146 166z" />
    <glyph glyph-name="three" unicode="3" horiz-adv-x="1007" 
d="M866 456q0 -192 -145 -340q-145 -146 -352 -147q-104 0 -183 36q-78 36 -77 95q0 35 28 69q29 34 60 34t49 -24q18 -25 30 -53t37 -52t60 -23q135 0 222 128t87 274q0 102 -66 154t-172 59l21 73q160 11 255 103t95 219q0 71 -39 109t-106 38q-119 0 -207 -129l-60 31
q131 201 330 201q115 -1 187 -63t72 -179t-94 -214q-93 -97 -234 -134q202 -73 202 -265z" />
    <glyph glyph-name="four" unicode="4" horiz-adv-x="1007" 
d="M803 1016l-537 -590h377zM727 108q0 -24 28 -38t93 -31l-12 -39q-102 6 -172 6t-261 -6l13 39l133 41l61 225h-489l-10 62l831 913h96l-233 -854h162l-33 -121h-162l-39 -145q-6 -28 -6 -52z" />
    <glyph glyph-name="five" unicode="5" horiz-adv-x="1007" 
d="M713 522q0 190 -157 189q-79 0 -163 -64l-39 25l189 608h528l-43 -139h-436l-117 -377q72 39 154 39q125 0 195 -75t71 -204q0 -205 -152 -380t-366 -175q-104 0 -181 36t-77 95q0 35 29 69q30 34 60 34q45 0 78 -76q10 -29 34 -53t57 -23q94 0 175 82t121 190
q40 109 40 199z" />
    <glyph glyph-name="six" unicode="6" horiz-adv-x="1007" 
d="M778 526q0 170 -153 170q-78 0 -168 -45q-109 -197 -109 -407q0 -94 37 -142t102 -49q117 0 204 152q87 151 87 321zM706 788q104 0 166 -59q78 -74 78 -215q0 -207 -133 -376t-342 -169q-143 0 -221 81t-78 229q0 201 125 413t310 373q185 160 386 246l23 -47
q-144 -86 -282 -226t-232 -301q96 51 200 51z" />
    <glyph glyph-name="seven" unicode="7" horiz-adv-x="1007" 
d="M612 1147q-88 0 -140 -29t-105 -112l-48 12q86 158 121 262h643l17 -31l-721 -1249h-184l716 1147h-299z" />
    <glyph glyph-name="eight" unicode="8" horiz-adv-x="1007" 
d="M901 1054q0 85 -45 130t-124 45q-79 1 -131 -57t-52 -142q0 -121 129 -276q102 51 163 133q60 82 60 167zM289 274q0 -104 55 -162t157 -58q103 0 173 74q70 75 70 168t-34 146q-33 54 -59 84q-25 29 -37 45q-11 16 -65 70q-125 -68 -193 -165q-68 -98 -67 -202zM387 978
q0 148 103 240t247 93q144 0 224 -68q79 -69 79 -185t-91 -207t-228 -144q67 -74 97 -113t63 -108t32 -134q0 -174 -126 -278t-294 -104t-263 76q-95 77 -95 212q1 135 101 248t270 184q-119 140 -119 288z" />
    <glyph glyph-name="nine" unicode="9" horiz-adv-x="1007" 
d="M444 754q0 -170 154 -170q78 0 168 45q109 197 108 407q0 94 -36 143q-37 48 -103 48q-117 0 -204 -152q-87 -151 -87 -321zM516 492q-105 0 -166 59q-78 74 -78 215q0 207 134 376t342 169q143 0 221 -81t78 -229q0 -201 -125 -413q-124 -212 -310 -373
q-186 -160 -387 -246l-22 47q143 86 281 226t233 301q-96 -51 -201 -51z" />
    <glyph glyph-name="colon" unicode=":" horiz-adv-x="415" 
d="M277 516q-89 0 -89 90q0 44 38 79q38 36 81 36q88 0 88 -89q0 -44 -37 -80t-81 -36zM129 -31q-91 -1 -89 89q0 44 38 80q37 36 80 36q42 0 66 -24t24 -66q0 -43 -38 -79t-81 -36z" />
    <glyph glyph-name="semicolon" unicode=";" horiz-adv-x="415" 
d="M277 516q-89 0 -89 90q0 44 38 79q38 36 81 36q88 0 88 -89q0 -44 -37 -80t-81 -36zM244 72q0 -96 -69 -190t-177 -154l-23 32q63 48 107 108t43 97q0 37 -34 70t-34 59t30 54t72 28q41 0 63 -30t22 -74z" />
    <glyph glyph-name="less" unicode="&#x3c;" horiz-adv-x="901" 
d="M727 72l-559 327l29 105l737 332l-31 -115l-596 -272l449 -271z" />
    <glyph glyph-name="equal" unicode="=" horiz-adv-x="901" 
d="M770 252h-647l27 100h647zM854 555h-647l26 100h648z" />
    <glyph glyph-name="greater" unicode="&#x3e;" horiz-adv-x="901" 
d="M276 831l560 -327l-29 -105l-737 -331l30 114l596 273l-448 270z" />
    <glyph glyph-name="question" unicode="?" horiz-adv-x="854" 
d="M281 -31q-91 1 -89 91q0 42 36 78t80 36q91 0 91 -90q0 -43 -37 -79t-81 -36zM899 1093q0 -93 -37 -167t-98 -136t-128 -127q-175 -169 -255 -364h-57q32 111 102 223t131 187q156 189 156 352q0 69 -39 107t-103 38q-102 0 -206 -116l-37 40q147 180 329 181
q111 0 177 -62t65 -156z" />
    <glyph glyph-name="at" unicode="@" horiz-adv-x="1552" 
d="M958 909q-112 0 -198 -133t-86 -276q0 -59 24 -93t66 -34q78 0 135 85t100 226l56 182q-33 43 -97 43zM1098 446q0 -72 67 -71q90 0 160 132t70 315t-109 298t-305 115q-253 0 -447 -213t-194 -492q0 -221 125 -353t375 -132t485 168l29 -41q-272 -203 -568 -203
t-454 148q-168 152 -168 407q0 324 232 555t593 232q259 0 407 -137q148 -136 148 -350t-121 -370t-288 -155q-76 0 -126 37t-55 96q-96 -156 -252 -156q-86 0 -144 60t-58 164q0 190 143 338t307 149q94 0 154 -51l37 51l98 -18l4 -6l-127 -416q-18 -66 -18 -101z" />
    <glyph glyph-name="A" unicode="A" horiz-adv-x="1273" 
d="M805 952q0 44 2 62q-33 -68 -127 -221l-156 -254h314l-23 256q-10 113 -10 157zM1174 0l-216 6q-30 0 -112 -3t-107 -3l13 41l129 41l-33 377h-373l-196 -307q-20 -31 -21 -50q0 -29 49 -43l68 -18l-13 -41l-186 6q-32 0 -106 -3t-99 -3l13 41l141 41l760 1198h63
l107 -1124q4 -46 18 -66t51 -31l62 -18z" />
    <glyph glyph-name="B" unicode="B" horiz-adv-x="1142" 
d="M657 731q139 0 230 80q96 87 96 229q0 68 -46 115t-187 47h-95l-129 -471h131zM371 136q-1 -56 157 -56t256 110t99 263q0 94 -52 146t-204 52h-123l-127 -467q-6 -20 -6 -48zM461 1168q0 22 -24 38t-83 33l13 41h424q201 0 283 -66t81 -176q0 -110 -76 -204t-198 -134
q90 -28 140 -100t50 -160q0 -178 -135 -309t-410 -131h-495l12 41l129 43l283 1036q6 26 6 48z" />
    <glyph glyph-name="C" unicode="C" horiz-adv-x="1136" 
d="M563 -31q-172 0 -277 112q-106 111 -106 319t91 417t265 351t386 143q91 1 198 -21t133 -26q-51 -197 -73 -324h-41q-1 147 -57 214t-171 67q-147 -1 -275 -135t-197 -323t-69 -357t66 -248t171 -80t209 51t175 129l49 -43q-90 -115 -218 -181t-259 -65z" />
    <glyph glyph-name="D" unicode="D" horiz-adv-x="1286" 
d="M477 82q250 0 395 145q115 113 181 292q65 179 65 340t-78 245q-86 88 -305 88h-82l-278 -1014q-6 -25 -6 -39q-1 -57 108 -57zM461 1168q0 22 -24 38t-83 33l13 41h397q297 0 432 -141q111 -115 111 -310q0 -155 -65 -321t-191 -291q-221 -217 -541 -217h-479l12 41
l129 43l283 1036q6 26 6 48z" />
    <glyph glyph-name="E" unicode="E" horiz-adv-x="1091" 
d="M461 1168q0 22 -24 38t-83 33l13 41h843q-35 -125 -63 -303h-49q4 29 4 53q0 86 -37 121q-53 51 -238 51q-94 0 -172 -4l-137 -500h123q203 0 242 15l-37 -105q-41 12 -223 13h-127l-123 -455q-4 -16 -4 -27q1 -59 185 -59t254 45t136 176h43q-53 -152 -92 -301h-864
l12 41l129 43l283 1036q6 26 6 48z" />
    <glyph glyph-name="F" unicode="F" horiz-adv-x="1011" 
d="M461 1168q0 22 -24 38t-83 33l13 41h841q-35 -125 -63 -303h-49q4 29 4 53q0 86 -37 121q-53 51 -238 51q-92 0 -170 -4l-137 -500h121q203 0 242 15l-37 -105q-41 12 -223 13h-125l-125 -461q-6 -24 -6 -46q0 -43 127 -73l-13 -41l-227 6q-31 0 -114 -3t-107 -3l12 41
l129 43l283 1036q6 26 6 48z" />
    <glyph glyph-name="G" unicode="G" horiz-adv-x="1261" 
d="M631 -31q-205 0 -328 114t-123 331t90 419q90 201 268 339t402 139q98 -1 207 -23t131 -26q-49 -182 -74 -322h-41v8q0 272 -237 273q-162 0 -293 -128q-131 -129 -197 -307t-66 -356t68 -275q66 -97 186 -97t199 79q59 59 97 193l38 143l-139 37l12 41q147 -6 220 -6
t215 6l-13 -41q-79 -12 -103 -32t-42 -87l-84 -303q-72 -53 -180 -86t-213 -33z" />
    <glyph glyph-name="H" unicode="H" horiz-adv-x="1374" 
d="M1118 112q0 -22 24 -38t83 -33l-13 -41l-204 6q-31 0 -115 -3t-109 -3l13 41l129 43l143 528h-575l-123 -452q-6 -26 -6 -48q-1 -22 23 -38t83 -33l-12 -41l-207 6q-31 0 -114 -3t-107 -3l12 41l129 43l283 1036q6 26 6 48t-24 38t-83 33l13 41l204 -6q31 0 115 3t109 3
l-13 -41l-129 -43l-135 -496h576l114 420q6 26 6 48t-23 38q-24 16 -83 33l12 41l207 -6q31 0 114 3t107 3l-12 -41l-129 -43l-283 -1036q-6 -26 -6 -48z" />
    <glyph glyph-name="I" unicode="I" horiz-adv-x="628" 
d="M465 1168q0 22 -24 38t-83 33l13 41l204 -6q31 0 115 3t109 3l-13 -41l-129 -43l-282 -1036q-6 -26 -6 -48q-1 -22 23 -38t83 -33l-12 -41l-207 6q-31 0 -114 -3t-107 -3l12 41l129 43l283 1036q6 26 6 48z" />
    <glyph glyph-name="J" unicode="J" horiz-adv-x="620" 
d="M459 1168q0 22 -24 38t-83 33l13 41l202 -6q39 0 114 3t112 3l-13 -41l-129 -43l-278 -1022q-65 -229 -168 -380q-123 -179 -373 -238l-14 51q139 55 223 181t152 376l260 956q6 26 6 48z" />
    <glyph glyph-name="K" unicode="K" horiz-adv-x="1224" 
d="M1060 80q36 0 81 22l-19 -63q-63 -57 -147 -57q-129 0 -172 163l-148 547l-188 -176l-96 -356q-6 -26 -6 -48q-1 -22 23 -38t83 -33l-12 -41l-215 6q-33 0 -112 -3t-101 -3l12 41l129 43l283 1036q6 26 6 48t-24 38t-83 33l13 41l213 -6q34 0 112 3t103 3l-13 -41
l-129 -43l-145 -530l577 542l-112 31l10 41l199 -8q36 0 104 4t82 4l-10 -41q-96 -15 -144 -39t-131 -102l-290 -275l176 -653q15 -50 35 -70t56 -20z" />
    <glyph glyph-name="L" unicode="L" horiz-adv-x="993" 
d="M369 137q0 -57 171 -57q172 0 246 45t136 176h43q-53 -152 -93 -301h-841l12 41l129 43l283 1036q6 26 6 48t-24 38t-83 33l13 41l202 -6q33 0 118 3t108 3l-13 -41l-129 -43l-280 -1032q-4 -16 -4 -27z" />
    <glyph glyph-name="M" unicode="M" horiz-adv-x="1648" 
d="M293 112q-1 -22 23 -38t83 -33l-12 -41l-176 6q-31 0 -93 -3t-87 -3l12 41l129 43l283 1036q6 26 6 48t-24 38t-83 33l13 41h307l157 -987l685 987h307l-13 -41l-129 -43l-282 -1034q-6 -24 -6 -48q-1 -24 23 -40t83 -33l-12 -41l-211 6q-31 0 -112 -3t-103 -3l12 41
l129 43l273 997q-74 -127 -189 -290l-549 -799h-30l-134 799q-26 163 -26 276l-248 -907q-6 -26 -6 -48z" />
    <glyph glyph-name="N" unicode="N" horiz-adv-x="1380" 
d="M291 112q-1 -22 23 -38t83 -33l-12 -41l-176 6q-31 0 -92 -3t-86 -3l12 41l129 43l283 1036q6 26 6 48t-24 38t-83 33l13 41h233l477 -975l223 815q6 26 6 48t-23 38q-24 16 -83 33l12 41l177 -6q31 0 91 3t85 3l-13 -41l-129 -43l-329 -1204h-56l-503 1030l-238 -862
q-6 -26 -6 -48z" />
    <glyph glyph-name="O" unicode="O" horiz-adv-x="1249" 
d="M550 -31q-162 0 -265 118q-105 118 -105 292q-1 340 194 627q89 133 222 219t295 86t266 -118q105 -118 105 -292t-53 -334q-113 -351 -363 -512q-134 -86 -296 -86zM578 61q128 1 246 139t183 330t65 358q0 165 -57 248q-56 83 -151 83q-129 -1 -247 -139
q-119 -138 -183 -330t-64 -358q0 -165 58 -248q56 -83 150 -83z" />
    <glyph glyph-name="P" unicode="P" horiz-adv-x="1105" 
d="M461 1168q0 22 -24 38t-83 33l13 41h401q231 0 336 -98q80 -76 80 -203q0 -180 -125 -299q-162 -156 -455 -156h-135l-98 -364q-6 -24 -6 -46q0 -43 127 -73l-13 -41l-227 6q-31 0 -114 -3t-107 -3l12 41l129 43l283 1036q6 26 6 48zM580 604q285 0 384 234q32 76 32 158
t-52 137q-63 63 -217 63h-74l-161 -592h88z" />
    <glyph glyph-name="Q" unicode="Q" horiz-adv-x="1249" 
d="M578 61q128 1 246 139t183 330t65 358q0 165 -57 248q-56 83 -151 83q-129 -1 -247 -139q-119 -138 -183 -330t-64 -358q0 -165 58 -248q56 -83 150 -83zM1262 879q0 -265 -146 -527t-373 -350q13 -168 151 -260t378 -109l-10 -47q-659 0 -750 387q-154 16 -243 131
t-89 282q0 333 194 620q89 133 222 219t295 86q163 1 267 -117t104 -315z" />
    <glyph glyph-name="R" unicode="R" horiz-adv-x="1198" 
d="M573 635q197 0 307 106t109 254q0 93 -54 147t-210 54h-72l-153 -561h73zM778 1280q398 0 400 -293q0 -135 -98 -244t-249 -147q61 -39 84 -154l54 -258q12 -59 32 -82q19 -22 59 -22t77 18l-21 -61q-72 -55 -146 -55t-112 40q-37 40 -57 136l-51 252q-20 94 -50 120
t-110 27h-111l-108 -397q-6 -26 -6 -48q-1 -22 23 -38t83 -33l-12 -41l-207 6q-31 0 -114 -3t-107 -3l12 41l129 43l283 1036q6 26 6 48t-24 38t-83 33l13 41h411z" />
    <glyph glyph-name="S" unicode="S" horiz-adv-x="1013" 
d="M991 977q0 248 -215 248q-120 0 -196 -71t-76 -180t142 -231q58 -49 118 -100t101 -122q42 -71 42 -150q0 -186 -135 -294q-134 -108 -332 -108t-340 76q51 168 76 279h41q-2 -10 -2 -39q0 -113 65 -172t177 -59t194 74q82 75 82 197t-142 239q-57 48 -117 98
q-144 119 -144 277q0 159 127 265t334 107q82 -1 307 -56q-37 -113 -66 -278h-41z" />
    <glyph glyph-name="T" unicode="T" horiz-adv-x="1099" 
d="M1202 977q0 90 -4 119t-18 55q-31 51 -191 51h-94l-285 -1042q-6 -26 -6 -48t25 -38t86 -33l-13 -41l-215 6q-31 0 -111 -3t-106 -3l13 41l129 43l305 1118h-96q-156 0 -209 -47t-127 -178h-47q11 41 98 303h983q-33 -129 -70 -303h-47z" />
    <glyph glyph-name="U" unicode="U" horiz-adv-x="1329" 
d="M610 -31q-176 0 -275 88t-99 240q0 76 36 211l166 612q6 26 6 48t-23 38q-24 16 -83 33l12 41l207 -6q31 0 114 3t107 3l-12 -41l-127 -43l-188 -690q-35 -122 -35 -220t64 -160t175 -63q163 1 265 111t163 338l166 608q6 26 6 48t-23 38q-24 16 -83 33l12 41l176 -6
q31 0 91 3t85 3l-12 -41l-129 -43l-182 -674q-80 -299 -217 -426t-363 -127z" />
    <glyph glyph-name="V" unicode="V" horiz-adv-x="1138" 
d="M418 1274q102 0 225 6l-12 -41l-109 -27l86 -933l553 931l-110 29l12 41q143 -6 178 -6t94 3t78 3l-12 -41q-84 -10 -119 -34t-76 -91l-667 -1120h-76l-109 1116q-6 63 -28 86q-23 23 -107 43l12 41q85 -6 187 -6z" />
    <glyph glyph-name="W" unicode="W" horiz-adv-x="1732" 
d="M420 1274q100 0 223 6l-12 -41l-115 -27l64 -929l430 704l-6 143q-2 52 -27 72t-90 37l12 41q85 -6 181 -6t218 6l-12 -41l-115 -27l52 -915l530 913l-117 29l11 41q139 -6 173 -6t102 3t85 3l-12 -41q-88 -12 -124 -36t-75 -89l-645 -1120h-78l-49 856l-522 -856h-76
l-78 1136q-4 52 -29 72t-98 37l12 41q87 -6 187 -6z" />
    <glyph glyph-name="X" unicode="X" horiz-adv-x="1181" 
d="M920 6q-132 0 -203 -6l10 41l115 27l-176 493l-422 -493l112 -27l-10 -41q-123 6 -197 6t-182 -6l10 41q143 12 220 98l434 504l-180 490q-19 53 -47 72t-95 34l13 41q76 -6 190 -6t217 6l-10 -41l-105 -27l154 -432l377 439l-96 20l10 41q96 -6 182 -6t162 6l-10 -41
q-86 -6 -127 -28t-92 -81l-377 -436l198 -536q21 -57 55 -81t105 -36l-10 -41q-93 6 -225 6z" />
    <glyph glyph-name="Y" unicode="Y" horiz-adv-x="1095" 
d="M436 1274q96 0 219 6l-12 -41l-102 -27l143 -608l442 606l-100 31l12 39q127 -6 162 -6t92 3t76 3l-10 -41q-80 -10 -117 -34t-86 -91l-444 -610l-95 -344q-6 -26 -6 -48t24 -38t83 -33l-12 -41l-207 6q-31 0 -114 -3t-108 -3l13 41l129 43l114 420l-141 610
q-14 61 -45 85t-104 40l12 41q86 -6 182 -6z" />
    <glyph glyph-name="Z" unicode="Z" horiz-adv-x="1087" 
d="M631 78q133 0 203 65q45 41 100 158h55q-55 -150 -96 -301h-825l-23 45q356 449 959 1157h-480l-149 -215h-51q33 88 90 293h794l23 -45q-319 -401 -961 -1157h361z" />
    <glyph glyph-name="bracketleft" unicode="[" horiz-adv-x="638" 
d="M434 -291h-377l504 1862h379l-20 -76h-224l-465 -1710h224z" />
    <glyph glyph-name="backslash" unicode="\" horiz-adv-x="706" 
d="M594 -31h-86l-229 1342h86z" />
    <glyph glyph-name="bracketright" unicode="]" horiz-adv-x="638" 
d="M393 1571h377l-504 -1862h-379l21 76h223l465 1710h-223z" />
    <glyph glyph-name="asciicircum" unicode="^" horiz-adv-x="901" 
d="M918 707h-121l-121 458l-375 -458h-123l469 573h119z" />
    <glyph glyph-name="underscore" unicode="_" horiz-adv-x="1024" 
d="M842 -305h-924l23 84h921z" />
    <glyph glyph-name="grave" unicode="`" 
d="M426 1296q16 0 33 -20l211 -240l-19 -22l-321 178l-4 20l69 70q15 14 31 14z" />
    <glyph glyph-name="a" unicode="a" horiz-adv-x="993" 
d="M657 852q-151 0 -267 -195t-116 -383q0 -92 34 -142t91 -50q113 0 207 145q70 106 119 299l68 250q-39 76 -136 76zM347 -31q-119 0 -187 82t-68 217q0 136 68 278t174 247q154 150 332 149q102 0 188 -70l49 70l82 -24l4 -9l-198 -733q-10 -37 -11 -55q0 -35 38 -35
t79 18l-16 -63q-27 -23 -76 -40t-92 -17t-71 26t-28 61q0 36 9 66h-5q-20 -37 -51 -67q-100 -101 -220 -101z" />
    <glyph glyph-name="b" unicode="b" horiz-adv-x="995" 
d="M736 942q98 0 166 -77t67 -219q0 -142 -72 -302t-206 -268q-133 -108 -273 -107q-140 0 -230 68l-34 -47l-86 -6l-7 8l328 1206q10 34 10 58t-19 40t-75 29l8 37q207 0 279 12l6 -8l-109 -401q-30 -122 -69 -228h4q53 93 134 149q80 56 178 56zM396 57q106 1 202 105
t144 237t48 231t-33 148q-34 49 -95 49q-106 0 -209 -163q-82 -129 -134 -322l-55 -205q26 -80 132 -80z" />
    <glyph glyph-name="c" unicode="c" horiz-adv-x="872" 
d="M655 942q109 0 267 -51q-27 -74 -56 -211h-30q-10 84 -58 129t-121 45q-115 0 -205 -95t-132 -222q-44 -127 -44 -246q0 -205 158 -205q145 0 299 176l41 -39q-68 -104 -178 -179t-232 -75t-196 84q-74 85 -74 227t70 296t202 260t289 106z" />
    <glyph glyph-name="d" unicode="d" horiz-adv-x="997" 
d="M657 852q-151 0 -267 -195t-116 -383q0 -92 34 -142t91 -50q113 0 207 145q70 106 119 299l68 250q-39 76 -136 76zM347 -31q-119 0 -187 82t-68 217q0 136 68 278t174 247q154 150 332 149q86 0 155 -49l84 305q10 34 10 58t-19 40t-75 29l8 37q207 0 279 12l6 -8
l-323 -1190q-10 -37 -11 -55q0 -35 38 -35t79 18l-16 -63q-27 -23 -76 -40t-92 -17t-71 26t-28 61q0 36 9 66h-5q-20 -37 -51 -67q-100 -101 -220 -101z" />
    <glyph glyph-name="e" unicode="e" horiz-adv-x="870" 
d="M614 854q-94 0 -186 -121t-133 -280q184 29 295 121t110 194q0 38 -22 62t-64 24zM368 -31q-122 0 -199 86t-77 226t70 293t199 261q130 108 282 107q99 0 157 -45t58 -125q0 -158 -174 -268t-403 -131q-6 -41 -7 -78q0 -209 160 -209q78 0 159 54t140 124l41 -37
q-61 -106 -173 -182q-111 -76 -233 -76z" />
    <glyph glyph-name="f" unicode="f" horiz-adv-x="575" 
d="M952 1297q0 -37 -34 -69t-70 -32q-35 0 -57 51t-39 64q-16 12 -39 12q-119 0 -203 -313l-27 -101h215l-34 -73h-201l-348 -1287h-164l348 1287h-131l18 73h133l15 54q59 221 169 325t279 105q72 0 121 -29t49 -67z" />
    <glyph glyph-name="g" unicode="g" horiz-adv-x="923" 
d="M897 698q0 -164 -131 -290t-322 -127q-39 0 -71 6q-53 -43 -53 -77q-1 -58 225 -128q85 -27 155 -80t70 -123q0 -147 -161 -253t-378 -107q-133 0 -227 59t-94 162q0 176 283 323q-21 29 -21 74t34 92t93 80q-131 59 -131 219t131 287t324 127q68 0 125 -20
q72 156 180 155q38 -1 60 -23t22 -48t-11 -50l-14 -34q-33 22 -83 22t-97 -53q92 -68 92 -193zM467 367q119 -1 191 109t73 239q0 65 -34 103t-97 38q-118 0 -192 -110t-74 -238q0 -68 35 -104t98 -37zM80 -231q0 -68 58 -111t171 -43t211 54q98 53 98 113t-63 97t-165 73
t-148 66q-162 -118 -162 -249z" />
    <glyph glyph-name="h" unicode="h" horiz-adv-x="1028" 
d="M819 115q0 -29 30 -29t81 20l-17 -63q-97 -59 -155 -59q-110 0 -109 94q1 70 77 318t77 315q0 102 -96 102q-74 0 -159 -79q-85 -80 -149 -208t-127 -356l-47 -170h-164l326 1198q10 34 10 58t-19 40t-75 29l8 37q207 0 279 12l6 -8l-133 -492q-39 -137 -70 -227h2
q156 295 373 295q96 0 148 -55t52 -149t-74 -344q-75 -250 -75 -279z" />
    <glyph glyph-name="i" unicode="i" 
d="M310 86q38 0 79 18l-16 -63q-27 -23 -76 -40t-92 -17t-71 28t-28 70q0 41 17 106l151 557q10 37 10 60t-18 39q-20 16 -76 28l9 37q207 0 278 13l6 -9l-200 -737q-10 -37 -11 -55q0 -35 38 -35zM449 1075q-82 1 -82 89q0 44 42 84t83 40q84 0 84 -88q0 -45 -43 -85
q-42 -40 -84 -40z" />
    <glyph glyph-name="j" unicode="j" horiz-adv-x="473" 
d="M449 1075q-82 1 -82 89q0 44 42 84t83 40q84 0 84 -88q0 -45 -43 -85q-42 -40 -84 -40zM483 913l-256 -940q-55 -201 -153 -294t-281 -152l-14 41q115 55 174 135t100 234l221 808q10 37 10 60t-18 39q-20 16 -76 28l9 37q207 0 278 13z" />
    <glyph glyph-name="k" unicode="k" horiz-adv-x="919" 
d="M779 88q40 0 73 16l-18 -67q-76 -51 -144 -51t-101 36q-32 36 -54 109l-105 375l-84 -60l-121 -446h-164l326 1198q10 34 10 58t-19 40t-75 29l8 37q207 0 279 12l6 -8l-223 -819l129 92q96 71 168 143t92 123l223 4v-8l-416 -301l115 -410q16 -58 36 -80t59 -22z" />
    <glyph glyph-name="l" unicode="l" horiz-adv-x="483" 
d="M262 121q0 -35 38 -35t79 18l-17 -63q-28 -23 -76 -40t-91 -17t-71 28t-28 70q0 41 17 106l274 1010q10 34 10 58t-19 40t-75 29l8 37q207 0 279 12l6 -8l-324 -1190q-10 -37 -10 -55z" />
    <glyph glyph-name="m" unicode="m" horiz-adv-x="1552" 
d="M709 813q-72 0 -155 -79q-82 -80 -146 -208t-127 -356l-48 -170h-163l202 745q10 37 10 60t-18 39q-20 16 -76 28l9 37q205 0 274 13l6 -9l-76 -270h5q158 299 362 299q94 0 143 -54t50 -151q0 -14 -5 -55q147 260 344 260q94 0 144 -54t49 -150q0 -96 -75 -344
q-75 -250 -75 -279t30 -29t81 20l-16 -63q-96 -59 -154 -59q-112 0 -110 94q0 70 76 318t77 315q0 102 -86 102q-72 -1 -155 -79t-142 -199q-121 -252 -156 -535h-153q7 143 83 391t77 320q0 102 -86 102z" />
    <glyph glyph-name="n" unicode="n" horiz-adv-x="1036" 
d="M408 649q156 293 352 293q112 0 164 -55t53 -149q0 -94 -75 -344t-75 -279t30 -29t81 20l-16 -63q-96 -59 -154 -59q-110 0 -111 94q0 70 77 318t77 315q0 102 -96 102q-74 0 -159 -79q-84 -80 -148 -208t-127 -356l-48 -170h-163l202 745q10 37 10 60t-18 39
q-20 16 -76 28l9 37q205 0 274 13l6 -9l-74 -264h5z" />
    <glyph glyph-name="o" unicode="o" horiz-adv-x="946" 
d="M412 -31q-158 0 -239 92q-81 93 -81 237t60 286t181 251q121 107 273 107t233 -92t81 -250q0 -96 -37 -205q-86 -253 -261 -363q-99 -63 -210 -63zM422 57q74 0 137 68q104 112 158 361q20 97 20 167q0 201 -147 201q-74 0 -137 -68q-108 -117 -158 -361
q-20 -97 -21 -167q1 -201 148 -201z" />
    <glyph glyph-name="p" unicode="p" horiz-adv-x="997" 
d="M375 57q113 -1 213 103t152 239t53 246q0 182 -123 182q-109 0 -211 -163q-82 -129 -133 -322l-62 -225q37 -60 111 -60zM740 942q96 0 164 -77t67 -219q0 -142 -76 -302t-213 -268t-295 -107q-74 0 -154 29l-122 -449h-162l323 1196q10 37 10 60t-18 39q-20 16 -76 28
l9 37q197 0 268 13l6 -9l-47 -176h6q51 89 133 147q81 58 177 58z" />
    <glyph glyph-name="q" unicode="q" horiz-adv-x="987" 
d="M657 852q-151 0 -267 -195t-116 -383q0 -92 34 -142t91 -50q113 0 207 145q70 106 119 299l68 250q-39 76 -136 76zM342 -31q-114 0 -182 82t-68 217q0 136 68 278t174 247q154 150 332 149q102 0 188 -70l49 70l84 -22l4 -9l-325 -1198q-10 -39 -10 -61q-1 -44 94 -66
l-9 -37q-205 0 -276 -12l-6 8l155 580h-4q-119 -156 -268 -156z" />
    <glyph glyph-name="r" unicode="r" horiz-adv-x="739" 
d="M854 877q0 -31 -30 -67t-50 -36q-22 0 -49 12t-45 13q-98 -1 -204 -157t-193 -466l-50 -176h-163l202 745q10 37 10 60t-18 39q-20 16 -76 28l9 37q205 0 274 13l6 -9l-74 -266h5q162 295 350 295q96 0 96 -65z" />
    <glyph glyph-name="s" unicode="s" horiz-adv-x="813" 
d="M332 55q90 0 156 47q66 48 67 106q0 58 -55 105t-123 81t-123 98t-55 143q0 127 106 217t260 90q84 0 266 -49q-33 -100 -51 -197h-28q-35 160 -195 160q-90 0 -145 -46q-56 -46 -56 -102t56 -105q56 -48 124 -83q66 -35 122 -98t57 -141q0 -131 -115 -221
q-116 -90 -272 -91q-156 0 -289 51q43 123 57 211h31q19 -176 205 -176z" />
    <glyph glyph-name="t" unicode="t" horiz-adv-x="638" 
d="M283 -31q-76 0 -122 43t-46 121q0 41 16 103l164 600h-133l20 73h131l49 176l177 80l6 -8l-68 -248h228l-37 -73h-209l-168 -615q-12 -49 -12 -74q0 -74 81 -74t179 72l30 -47q-129 -129 -286 -129z" />
    <glyph glyph-name="u" unicode="u" horiz-adv-x="1026" 
d="M752 -16q-49 0 -77 30t-28 90t33 140h-4q-53 -102 -129 -174q-104 -100 -215 -100t-161 54t-50 140t49 258l90 323q10 37 10 60t-19 38t-69 29l8 37q203 0 273 13l6 -9l-156 -561q-29 -100 -28 -151q0 -102 92 -103q74 0 158 78q83 78 147 207t127 356l47 170h162
l-199 -733q-10 -37 -10 -55q0 -35 38 -35t79 18l-17 -63q-70 -57 -157 -57z" />
    <glyph glyph-name="v" unicode="v" horiz-adv-x="864" 
d="M756 918l178 -15q-41 -176 -229 -460t-410 -459h-72l-2 755q0 67 -19 89t-100 44l11 37q211 0 272 11l6 -9l-4 -741q155 156 255 352t114 396z" />
    <glyph glyph-name="w" unicode="w" horiz-adv-x="1325" 
d="M711 -16l-2 542q-47 -125 -165 -273t-257 -269h-68l-2 755q0 67 -18 89t-97 44l11 37q207 0 264 11l6 -9l-4 -733q336 352 348 733l145 -2l-4 -739q334 340 359 748l168 -15q-19 -163 -197 -443t-420 -476h-67z" />
    <glyph glyph-name="x" unicode="x" horiz-adv-x="946" 
d="M963 942q25 0 34 -2q-27 -80 -49 -186q-25 12 -55 12q-63 0 -131 -58t-184 -196l143 -373q23 -57 63 -57t82 18l-12 -57q-76 -59 -139 -59t-94 28t-58 99l-94 237q-106 -162 -223 -270t-201 -109q-6 59 -33 146q240 53 430 305l-118 315q-29 73 -53 95t-99 42l10 37
q160 0 234 13l8 -4l127 -336q167 216 247 288t165 72z" />
    <glyph glyph-name="y" unicode="y" horiz-adv-x="1005" 
d="M315 -31q-94 1 -144 55t-50 140t49 258l90 323q10 37 10 60t-19 38t-69 29l8 37q203 0 273 13l6 -9l-156 -561q-29 -100 -28 -151q0 -102 92 -103q74 0 158 78q83 78 147 207t127 356l47 170h162l-207 -759q-78 -286 -225 -430t-428 -193l-13 45q197 51 310 173t172 331
l43 151h-4q-146 -258 -351 -258z" />
    <glyph glyph-name="z" unicode="z" horiz-adv-x="872" 
d="M565 840q-123 0 -191 -45t-118 -131h-37q43 133 68 245h639l10 -14q-111 -186 -709 -825h189q122 0 190 45t119 131h37q-43 -133 -68 -246h-667l-11 14q111 186 709 826h-160z" />
    <glyph glyph-name="braceleft" unicode="{" horiz-adv-x="579" 
d="M446 440q0 -63 -36 -145l-105 -242q-53 -123 -53 -178q0 -102 162 -127l-11 -39q-137 11 -215 73t-77 165q0 61 51 178l119 268q27 63 26 105q0 94 -100 114l14 54q82 14 131 69t60 135l30 283q18 172 105 264q131 133 362 154l-10 -39q-133 -18 -197 -82t-79 -225
l-27 -242q-14 -139 -100 -224t-197 -120q147 -59 147 -199z" />
    <glyph glyph-name="bar" unicode="|" horiz-adv-x="546" 
d="M109 -543h-105l539 1997h106z" />
    <glyph glyph-name="braceright" unicode="}" horiz-adv-x="579" 
d="M473 782q0 -94 100 -114l-14 -54q-82 -14 -131 -69t-59 -135l-31 -283q-18 -172 -105 -264q-131 -133 -362 -154l10 39q133 18 197 82t80 225l26 242q14 139 100 224t197 120q-147 59 -147 199q0 61 37 145l104 242q53 123 53 178q0 102 -161 127l10 39q137 -11 215 -73
t78 -165q-1 -61 -52 -178l-118 -268q-27 -63 -27 -105z" />
    <glyph glyph-name="asciitilde" unicode="~" horiz-adv-x="901" 
d="M690 494q-70 0 -169 66t-161 65q-123 0 -192 -131h-49q45 126 129 190t169 64t180 -60t155 -61q129 0 188 123h49q-113 -256 -299 -256z" />
    <glyph glyph-name="nbspace" unicode="&#xa0;" horiz-adv-x="360" 
 />
    <glyph glyph-name="exclamdown" unicode="&#xa1;" horiz-adv-x="507" 
d="M419 946q89 0 89 -89q0 -44 -37 -80t-80 -36q-90 0 -90 89q0 44 37 80t81 36zM76 -395q-70 0 -72 63q0 31 16 80l291 830h43l-155 -820q-16 -82 -44 -118t-79 -35z" />
    <glyph glyph-name="cent" unicode="&#xa2;" horiz-adv-x="1007" 
d="M367 291q0 -178 118 -203l207 760q-98 -20 -175 -118t-113 -214t-37 -225zM184 279q0 139 67 287t192 256q126 108 274 118l33 123l92 14l-39 -143q80 -18 131 -84t59 -158l-67 -12q-18 150 -146 170l-207 -760q129 31 250 172l41 -39q-55 -87 -143 -155t-178 -88
l-35 -132l-92 -14l37 135q-131 8 -200 90t-69 220z" />
    <glyph glyph-name="sterling" unicode="&#xa3;" horiz-adv-x="1007" 
d="M131 124q-1 -38 19 -57t51 -20q84 0 127 150q-41 27 -87 27t-78 -32q-32 -30 -32 -68zM999 1311q74 0 128 -29q55 -29 55 -67q0 -37 -35 -69t-70 -32t-61 64t-88 63q-62 0 -122 -78t-104 -237l-53 -195h260l-41 -84h-241q-84 -315 -138 -438q123 -107 257 -107t221 76
l22 -35q-139 -174 -284 -174q-87 0 -149 37t-122 111q-98 -147 -233 -148q-63 0 -109 39q-45 39 -45 109t57 122t128 52t120 -17q14 39 54 183l51 190h-156l25 84h155l29 109q57 219 177 345t312 126z" />
    <glyph glyph-name="currency" unicode="&#xa4;" horiz-adv-x="1007" 
d="M829 739q0 84 -36 143q-37 58 -125 58t-154 -70t-98 -161q-33 -90 -33 -174q0 -85 37 -143t125 -58q87 0 153 70t99 161q32 90 32 174zM512 254q-92 0 -164 45l-117 -131h-125l177 194q-53 72 -53 179t51 209t137 170l-84 200h125l57 -139q88 39 176 39t152 -35l121 135
h125l-172 -192q66 -78 66 -193t-54 -218q-53 -103 -146 -171l78 -178h-125l-53 121q-80 -35 -172 -35z" />
    <glyph glyph-name="yen" unicode="&#xa5;" horiz-adv-x="1007" 
d="M452 1274q96 0 220 6l-13 -41l-102 -27l90 -585l359 583l-101 31l13 39q125 -6 160 -6q36 0 92 3t75 3l-10 -41q-82 -8 -119 -32t-84 -93l-311 -522h211l-37 -84h-238l-26 -92h256l-37 -84h-242l-26 -101q-25 -97 -25 -119t24 -38t83 -33l-13 -41l-207 6q-32 0 -114 -3
t-107 -3l13 41l129 43l65 248h-252l35 84h240l26 92h-258l37 84h217l-72 522q-12 63 -41 86t-104 39l12 41q86 -6 182 -6z" />
    <glyph glyph-name="brokenbar" unicode="&#xa6;" horiz-adv-x="548" 
d="M111 -543h-107l201 744h106zM451 711h-107l201 743h106z" />
    <glyph glyph-name="section" unicode="&#xa7;" horiz-adv-x="862" 
d="M330 524q0 -112 150 -112q74 0 128 46q56 46 56 100t-38 83t-112 29t-129 -46t-55 -100zM305 -131q90 0 157 47q66 48 66 106t-55 104t-123 79t-123 96t-55 148q0 119 96 207t238 98q-57 36 -92 62t-65 77t-30 111q1 127 107 217t244 90t282 -51q-35 -102 -51 -195h-29
q-35 160 -194 160q-90 0 -146 -46q-56 -47 -55 -103q0 -92 179 -184q67 -34 123 -98t57 -145q0 -117 -94 -203t-242 -104q57 -38 92 -64q36 -26 66 -76t30 -108q0 -131 -115 -221t-271 -90t-290 51q43 123 58 211h30q19 -176 205 -176z" />
    <glyph glyph-name="dieresis" unicode="&#xa8;" 
d="M628 1079q-76 0 -77 77q0 38 32 70q33 32 71 32t58 -21q20 -20 19 -57q0 -37 -33 -69q-32 -32 -70 -32zM446 1180q0 -37 -32 -69t-71 -32q-38 -1 -57 19q-20 20 -20 58t32 70t70 32t58 -21q20 -20 20 -57z" />
    <glyph glyph-name="copyright" unicode="&#xa9;" horiz-adv-x="1591" 
d="M881 252q-152 0 -239 106t-87 284t99 282t253 104q45 0 115 -13t88 -16q0 -121 4 -235h-43q-23 195 -170 194q-96 0 -147 -90q-52 -90 -52 -231t54 -220t162 -79t190 100l39 -32q-88 -154 -266 -154zM1440 637q0 240 -162 411t-395 171t-395 -171t-162 -411t162 -410
t394 -170q234 0 396 170t162 410zM1550 641q0 -279 -194 -475t-472 -197q-278 0 -472 197q-194 198 -195 476q0 278 195 474q196 196 474 195q278 1 471 -195t193 -475z" />
    <glyph glyph-name="ordfeminine" unicode="&#xaa;" horiz-adv-x="684" 
d="M549 1047q-86 -1 -157 -107t-70 -227q0 -53 22 -82t59 -29q112 0 187 252l41 150q-25 43 -82 43zM532 596q0 23 3 37q-72 -113 -181 -113q-76 0 -124 51t-48 142q0 147 106 272t249 125q76 0 133 -41l32 37l78 -10l6 -6l-114 -424q-8 -31 -8 -43q0 -25 22 -25t53 10
l-14 -43q-61 -41 -119 -41q-74 0 -74 72z" />
    <glyph glyph-name="guillemotleft" unicode="&#xab;" horiz-adv-x="747" 
d="M330 158l-62 -37l-157 323l335 322l33 -37l-248 -287zM616 158l-59 -37l-158 323l334 322l35 -37l-248 -287z" />
    <glyph glyph-name="logicalnot" unicode="&#xac;" horiz-adv-x="901" 
d="M772 254h-102l80 301h-543l26 100h648z" />
    <glyph glyph-name="uni00AD" unicode="&#xad;" horiz-adv-x="593" 
d="M80 428l24 92h467l-24 -92h-467z" />
    <glyph glyph-name="registered" unicode="&#xae;" horiz-adv-x="1591" 
d="M793 641q102 0 148 43t46 116q0 72 -44 108t-150 36h-19v-303h19zM647 903q0 33 -14 45t-66 23v37h244q183 0 249 -58t66 -131q0 -72 -41 -124t-112 -79q47 -25 76 -86l65 -143q23 -49 43 -65t64 -25v-35h-203q-2 39 -35 107l-57 125q-25 55 -49 71q-25 16 -82 17h-21
v-215q0 -33 16 -45t66 -25v-35l-137 2l-150 -2v35l78 25v581zM1440 637q0 240 -162 411t-395 171t-395 -171t-162 -411t162 -410t394 -170q234 0 396 170t162 410zM1550 641q0 -279 -194 -475t-472 -197q-278 0 -472 197q-194 198 -195 476q0 278 195 474q196 196 474 195
q278 1 471 -195t193 -475z" />
    <glyph glyph-name="macron" unicode="&#xaf;" 
d="M686 1112h-434l27 94h434z" />
    <glyph glyph-name="degree" unicode="&#xb0;" horiz-adv-x="638" 
d="M449 799q-84 0 -141 54q-56 54 -56 138q0 131 90 225t225 95q85 -1 141 -55t56 -138q0 -131 -90 -225t-225 -94zM480 877q70 1 127 73q59 72 59 144q1 140 -117 139q-82 0 -140 -73t-59 -159q0 -124 130 -124z" />
    <glyph glyph-name="plusminus" unicode="&#xb1;" horiz-adv-x="901" 
d="M836 543h-275l-78 -291h-98l78 291h-275l29 100h275l77 291h99l-78 -291h274zM690 0h-647l27 100h647z" />
    <glyph glyph-name="twosuperior" unicode="&#xb2;" horiz-adv-x="643" 
d="M585 1434q-83 0 -149 -99l-43 25q86 156 244 156q74 0 125 -44t51 -128t-62 -160q-63 -76 -193 -174t-173 -140h170q47 0 75 16t58 60h41q-43 -74 -96 -190h-395l-11 30q37 38 134 132t152 150q54 56 104 136t51 142q0 88 -83 88z" />
    <glyph glyph-name="threesuperior" unicode="&#xb3;" horiz-adv-x="643" 
d="M659 1360q1 72 -79 73t-136 -85l-43 20q37 72 99 110t135 38q72 0 118 -40t46 -106q0 -131 -201 -194q135 -41 135 -157t-97 -195t-226 -79q-63 0 -113 27q-49 27 -49 57t20 50t42 20t52 -46q31 -46 79 -46t98 63q49 63 49 130q0 133 -150 133l13 47q84 8 146 58t62 122z
" />
    <glyph glyph-name="acute" unicode="&#xb4;" 
d="M564 1296q13 0 26 -14l57 -70l-2 -20l-383 -178l-14 24l278 238q25 20 38 20z" />
    <glyph glyph-name="uni00B5" unicode="&#xb5;" horiz-adv-x="1032" 
d="M758 -16q-49 0 -77 30t-28 90t33 140h-4q-53 -102 -129 -174q-105 -100 -237 -100t-177 102q-32 -136 -49 -250q-16 -113 -28 -156t-32 -59q-19 -16 -57 -17q-57 0 -57 60q0 35 27 97q27 63 91 243t134 432l88 323q10 37 10 60t-19 38t-69 29l8 37q203 0 273 13l6 -9
l-154 -561q-29 -111 -28 -151q0 -102 98 -103q74 0 159 78q84 78 148 207t127 356l47 170h162l-199 -733q-10 -37 -10 -55q0 -35 38 -35t79 18l-17 -63q-70 -57 -157 -57z" />
    <glyph glyph-name="paragraph" unicode="&#xb6;" horiz-adv-x="1003" 
d="M250 872q0 178 135 293t375 115h414l-13 -41l-147 -49l-383 -1407h-94l383 1407h-119l-383 -1407h-96l225 827q-135 4 -216 73t-81 189z" />
    <glyph glyph-name="periodcentered" unicode="&#xb7;" horiz-adv-x="354" 
d="M231 557q84 0 84 -89q-1 -44 -37 -80t-79 -36t-67 23t-24 67t37 79q37 36 86 36z" />
    <glyph glyph-name="cedilla" unicode="&#xb8;" 
d="M190 -248q0 36 -22 51q-6 5 -9 7t-13 5t-18 6q-9 3 -24 5q-16 2 -24 5t-15 13t5 27l90 162h80l-80 -146q150 -10 149 -129q0 -76 -87 -146t-249 -79l-8 43q97 14 161 64t64 112z" />
    <glyph glyph-name="onesuperior" unicode="&#xb9;" horiz-adv-x="643" 
d="M633 756l-172 2q-31 0 -94 -1t-72 -1l10 35l105 24l151 565q11 38 -22 45l-74 17l10 35q147 0 217 34h39l-176 -655q-9 -31 9 -44t79 -21z" />
    <glyph glyph-name="ordmasculine" unicode="&#xba;" horiz-adv-x="659" 
d="M412 520q-104 0 -166 58t-64 159q0 141 102 257t242 116q104 0 166 -58t64 -159q0 -141 -102 -257t-242 -116zM418 584q59 0 106 62t69 137t21 135q0 129 -94 129q-59 -1 -106 -63t-69 -137t-21 -134q0 -129 94 -129z" />
    <glyph glyph-name="guillemotright" unicode="&#xbb;" horiz-adv-x="747" 
d="M420 444l-336 -323l-39 37l250 284l-88 287l53 37zM709 444l-338 -323l-37 37l250 284l-88 287l53 37z" />
    <glyph glyph-name="onequarter" unicode="&#xbc;" horiz-adv-x="1556" 
d="M1516 1311l-1145 -1342h-107l1145 1342h107zM571 530l-172 2q-31 0 -94 -1t-72 -1l11 35l104 25l152 565q6 21 2 31t-25 14l-74 17l11 34q147 0 217 35h39l-176 -655q-8 -31 10 -45t78 -21zM1192 279l74 284l-275 -284h201zM1356 0l-172 2q-31 0 -94 -1t-72 -1l10 35
l105 24l36 136h-284l-13 30l506 525h74l-125 -471h111l-21 -84h-114l-25 -95q-8 -31 9 -44t79 -21z" />
    <glyph glyph-name="onehalf" unicode="&#xbd;" horiz-adv-x="1556" 
d="M1341 590q0 88 -83 88t-148 -98l-43 24q86 156 244 156q74 0 125 -44t51 -128q-1 -84 -63 -160t-192 -174t-173 -139h170q47 0 76 16q28 16 57 59h41q-43 -74 -96 -190h-396l-10 31q37 39 134 132t152 149q54 56 104 136t50 142zM1511 1311l-1144 -1342h-107l1145 1342
h106zM567 530l-172 2q-31 0 -94 -1t-72 -1l11 35l104 25l152 565q6 21 2 31t-25 14l-74 17l11 34q147 0 217 35h39l-177 -655q-8 -31 10 -45t79 -21z" />
    <glyph glyph-name="threequarters" unicode="&#xbe;" horiz-adv-x="1556" 
d="M1536 1311l-1145 -1342h-106l1145 1342h106zM610 1135q0 35 -20 54t-55 19q-84 0 -140 -86l-43 21q38 71 100 109t134 38t118 -40t46 -105q0 -131 -201 -195q135 -41 135 -157q0 -117 -97 -195t-227 -78q-63 0 -112 27t-49 57t20 49q19 21 41 21t53 -46t79 -46t97 63
t49 129q1 133 -149 133l12 47q85 8 147 58t62 123zM1212 279l74 284l-274 -284h200zM1376 0l-172 2q-31 0 -94 -1t-72 -1l11 35l104 24l37 136h-285l-12 30l506 525h74l-125 -471h110l-20 -84h-115l-25 -95q-8 -31 10 -44t78 -21z" />
    <glyph glyph-name="questiondown" unicode="&#xbf;" horiz-adv-x="854" 
d="M685 946q91 0 89 -89q0 -44 -36 -80t-80 -36q-91 0 -91 90q0 43 37 79t81 36zM309 -395q-111 -1 -176 61t-65 156q0 169 135 304q61 62 128 127t138 160q72 95 117 203h57q-33 -112 -103 -224t-130 -186t-108 -167q-48 -94 -48 -174t39 -118t102 -38q102 0 207 117
l37 -41q-147 -180 -330 -180z" />
    <glyph glyph-name="Agrave" unicode="&#xc0;" horiz-adv-x="1273" 
d="M748 1513l-5 21l62 63q21 21 35 21t45 -29l219 -207l-19 -22zM805 952q0 44 2 62q-33 -68 -127 -221l-156 -254h314l-23 256q-10 113 -10 157zM1174 0l-216 6q-30 0 -112 -3t-107 -3l13 41l129 41l-33 377h-373l-196 -307q-20 -31 -21 -50q0 -29 49 -43l68 -18l-13 -41
l-186 6q-32 0 -106 -3t-99 -3l13 41l141 41l760 1198h63l107 -1124q4 -46 18 -66t51 -31l62 -18z" />
    <glyph glyph-name="Aacute" unicode="&#xc1;" horiz-adv-x="1273" 
d="M1122 1534l-2 -21l-383 -141l-14 25l287 200q31 21 46 21t27 -21zM805 952q0 44 2 62q-33 -68 -127 -221l-156 -254h314l-23 256q-10 113 -10 157zM1174 0l-216 6q-30 0 -112 -3t-107 -3l13 41l129 41l-33 377h-373l-196 -307q-20 -31 -21 -50q0 -29 49 -43l68 -18
l-13 -41l-186 6q-32 0 -106 -3t-99 -3l13 41l141 41l760 1198h63l107 -1124q4 -46 18 -66t51 -31l62 -18z" />
    <glyph glyph-name="Acircumflex" unicode="&#xc2;" horiz-adv-x="1273" 
d="M1149 1384l-27 -14l-161 143l-242 -143l-23 21l246 237h88zM805 952q0 44 2 62q-33 -68 -127 -221l-156 -254h314l-23 256q-10 113 -10 157zM1174 0l-216 6q-30 0 -112 -3t-107 -3l13 41l129 41l-33 377h-373l-196 -307q-20 -31 -21 -50q0 -29 49 -43l68 -18l-13 -41
l-186 6q-32 0 -106 -3t-99 -3l13 41l141 41l760 1198h63l107 -1124q4 -46 18 -66t51 -31l62 -18z" />
    <glyph glyph-name="Atilde" unicode="&#xc3;" horiz-adv-x="1273" 
d="M866 1616q38 0 102 -38t99 -38q66 0 107 66l34 -7q-70 -180 -188 -180q-39 0 -102 38t-99 38q-65 1 -106 -65l-35 6q70 180 188 180zM805 952q0 44 2 62q-33 -68 -127 -221l-156 -254h314l-23 256q-10 113 -10 157zM1174 0l-216 6q-30 0 -112 -3t-107 -3l13 41l129 41
l-33 377h-373l-196 -307q-20 -31 -21 -50q0 -29 49 -43l68 -18l-13 -41l-186 6q-32 0 -106 -3t-99 -3l13 41l141 41l760 1198h63l107 -1124q4 -46 18 -66t51 -31l62 -18z" />
    <glyph glyph-name="Adieresis" unicode="&#xc4;" horiz-adv-x="1273" 
d="M1100 1411q-76 0 -76 77q0 38 32 70t70 32t58 -21q20 -20 20 -57t-33 -69t-71 -32zM920 1512q0 -37 -33 -69t-71 -32q-38 -1 -57 19t-19 58t31 70q32 32 71 32q38 0 58 -21q20 -20 20 -57zM805 952q0 44 2 62q-33 -68 -127 -221l-156 -254h314l-23 256q-10 113 -10 157z
M1174 0l-216 6q-30 0 -112 -3t-107 -3l13 41l129 41l-33 377h-373l-196 -307q-20 -31 -21 -50q0 -29 49 -43l68 -18l-13 -41l-186 6q-32 0 -106 -3t-99 -3l13 41l141 41l760 1198h63l107 -1124q4 -46 18 -66t51 -31l62 -18z" />
    <glyph glyph-name="Aring" unicode="&#xc5;" horiz-adv-x="1273" 
d="M1151 1560q0 -70 -56 -130q-56 -62 -130 -62t-111 38t-37 108t56 130q56 62 130 62t111 -38t37 -108zM897 1516q0 -80 64 -80q47 0 79 40t31 82q0 80 -63 80q-47 0 -79 -40t-32 -82zM805 952q0 44 2 62q-33 -68 -127 -221l-156 -254h314l-23 256q-10 113 -10 157zM1174 0
l-216 6q-30 0 -112 -3t-107 -3l13 41l129 41l-33 377h-373l-196 -307q-20 -31 -21 -50q0 -29 49 -43l68 -18l-13 -41l-186 6q-32 0 -106 -3t-99 -3l13 41l141 41l760 1198h63l107 -1124q4 -46 18 -66t51 -31l62 -18z" />
    <glyph glyph-name="AE" unicode="&#xc6;" horiz-adv-x="1849" 
d="M1227 1169l-436 -471h307zM1106 1186q0 41 -117 53l12 41h967q-35 -125 -63 -303h-52q4 29 5 53q0 88 -37 123q-53 51 -238 51q-92 0 -170 -4l-137 -502h123q203 0 241 15l-36 -103q-41 12 -224 13h-127l-123 -457q-4 -16 -4 -27q0 -61 190 -61t253 41t133 182h43
q-53 -152 -92 -301h-865l13 41l129 43l147 539h-356l-434 -471q-29 -33 -29 -54q0 -27 51 -41l56 -16l-13 -41l-192 6q-31 0 -104 -3t-97 -3l12 41l133 41l986 1069q16 20 16 35z" />
    <glyph glyph-name="Ccedilla" unicode="&#xc7;" horiz-adv-x="1136" 
d="M180 408q0 198 91 407t265 352t386 144q94 1 200 -21q105 -22 131 -26q-51 -197 -73 -324h-41q-1 147 -57 214t-171 67q-147 1 -275 -135t-197 -325t-69 -355t70 -246q70 -82 176 -82t203 50q98 50 172 130l49 -43q-86 -111 -204 -175t-246 -69l-43 -84q150 -10 149 -129
q0 -76 -87 -146t-249 -79l-8 43q98 14 162 64t64 112q0 25 -6 32t-8 11q-3 4 -9 8q-6 5 -16 13q-10 9 -43 8q-63 13 -39 47l55 102q-150 18 -241 127q-91 110 -91 308z" />
    <glyph glyph-name="Egrave" unicode="&#xc8;" horiz-adv-x="1091" 
d="M664 1513l-5 21l62 63q21 21 35 21t45 -29l219 -207l-19 -22zM461 1168q0 22 -24 38t-83 33l13 41h843q-35 -125 -63 -303h-49q4 29 4 53q0 86 -37 121q-53 51 -238 51q-94 0 -172 -4l-137 -500h123q203 0 242 15l-37 -105q-41 12 -223 13h-127l-123 -455q-4 -16 -4 -27
q1 -59 185 -59t254 45t136 176h43q-53 -152 -92 -301h-864l12 41l129 43l283 1036q6 26 6 48z" />
    <glyph glyph-name="Eacute" unicode="&#xc9;" horiz-adv-x="1091" 
d="M1071 1534l-2 -21l-383 -141l-14 25l286 200q30 21 46 21t28 -21zM461 1168q0 22 -24 38t-83 33l13 41h843q-35 -125 -63 -303h-49q4 29 4 53q0 86 -37 121q-53 51 -238 51q-94 0 -172 -4l-137 -500h123q203 0 242 15l-37 -105q-41 12 -223 13h-127l-123 -455
q-4 -16 -4 -27q1 -59 185 -59t254 45t136 176h43q-53 -152 -92 -301h-864l12 41l129 43l283 1036q6 26 6 48z" />
    <glyph glyph-name="Ecircumflex" unicode="&#xca;" horiz-adv-x="1091" 
d="M1067 1384l-27 -14l-161 143l-242 -143l-23 21l246 237h88zM461 1168q0 22 -24 38t-83 33l13 41h843q-35 -125 -63 -303h-49q4 29 4 53q0 86 -37 121q-53 51 -238 51q-94 0 -172 -4l-137 -500h123q203 0 242 15l-37 -105q-41 12 -223 13h-127l-123 -455q-4 -16 -4 -27
q1 -59 185 -59t254 45t136 176h43q-53 -152 -92 -301h-864l12 41l129 43l283 1036q6 26 6 48z" />
    <glyph glyph-name="Edieresis" unicode="&#xcb;" horiz-adv-x="1091" 
d="M1083 1512q-1 -37 -33 -69t-70 -32q-38 -1 -57 19t-19 58t31 70q32 32 71 32t58 -21q19 -20 19 -57zM799 1512q0 -37 -33 -69t-71 -32q-38 -1 -57 19q-20 20 -20 58t32 70t70 32t58 -21q20 -20 21 -57zM461 1168q0 22 -24 38t-83 33l13 41h843q-35 -125 -63 -303h-49
q4 29 4 53q0 86 -37 121q-53 51 -238 51q-94 0 -172 -4l-137 -500h123q203 0 242 15l-37 -105q-41 12 -223 13h-127l-123 -455q-4 -16 -4 -27q1 -59 185 -59t254 45t136 176h43q-53 -152 -92 -301h-864l12 41l129 43l283 1036q6 26 6 48z" />
    <glyph glyph-name="Igrave" unicode="&#xcc;" horiz-adv-x="628" 
d="M434 1513l-4 21l62 63q20 21 34 21t45 -29l220 -207l-19 -22zM465 1168q0 22 -24 38t-83 33l13 41l204 -6q31 0 115 3t109 3l-13 -41l-129 -43l-282 -1036q-6 -26 -6 -48q-1 -22 23 -38t83 -33l-12 -41l-207 6q-31 0 -114 -3t-107 -3l12 41l129 43l283 1036q6 26 6 48z
" />
    <glyph glyph-name="Iacute" unicode="&#xcd;" horiz-adv-x="628" 
d="M819 1534l-2 -21l-383 -141l-14 25l287 200q31 21 46 21t27 -21zM465 1168q0 22 -24 38t-83 33l13 41l204 -6q31 0 115 3t109 3l-13 -41l-129 -43l-282 -1036q-6 -26 -6 -48q-1 -22 23 -38t83 -33l-12 -41l-207 6q-31 0 -114 -3t-107 -3l12 41l129 43l283 1036q6 26 6 48
z" />
    <glyph glyph-name="Icircumflex" unicode="&#xce;" horiz-adv-x="628" 
d="M823 1384l-26 -14l-162 143l-242 -143l-22 21l245 237h89zM465 1168q0 22 -24 38t-83 33l13 41l204 -6q31 0 115 3t109 3l-13 -41l-129 -43l-282 -1036q-6 -26 -6 -48q-1 -22 23 -38t83 -33l-12 -41l-207 6q-31 0 -114 -3t-107 -3l12 41l129 43l283 1036q6 26 6 48z" />
    <glyph glyph-name="Idieresis" unicode="&#xcf;" horiz-adv-x="628" 
d="M748 1411q-76 0 -76 77q0 38 31 70q32 32 70 32q39 0 59 -21q20 -20 20 -57t-33 -69t-71 -32zM567 1512q-1 -37 -33 -69t-70 -32q-38 -1 -57 19t-19 58t31 70q32 32 71 32t58 -21q19 -20 19 -57zM465 1168q0 22 -24 38t-83 33l13 41l204 -6q31 0 115 3t109 3l-13 -41
l-129 -43l-282 -1036q-6 -26 -6 -48q-1 -22 23 -38t83 -33l-12 -41l-207 6q-31 0 -114 -3t-107 -3l12 41l129 43l283 1036q6 26 6 48z" />
    <glyph glyph-name="Eth" unicode="&#xd0;" horiz-adv-x="1286" 
d="M369 131q0 -51 108 -51q248 0 395 147q115 113 181 292q65 179 65 341t-78 246q-86 88 -297 88h-90l-135 -494h223l-24 -88h-223l-121 -442q-4 -16 -4 -39zM461 1168q0 22 -24 38t-83 33l13 41h407q285 0 422 -143q111 -113 111 -308q0 -155 -65 -321t-191 -291
q-221 -217 -535 -217h-485l12 41l129 43l143 528h-155l24 88h156l115 420q6 26 6 48z" />
    <glyph glyph-name="Ntilde" unicode="&#xd1;" horiz-adv-x="1380" 
d="M936 1616q39 0 102 -38t99 -38q66 0 106 66l35 -7q-70 -180 -188 -180q-38 0 -102 38t-99 38q-66 1 -107 -65l-34 6q70 180 188 180zM291 112q-1 -22 23 -38t83 -33l-12 -41l-176 6q-31 0 -92 -3t-86 -3l12 41l129 43l283 1036q6 26 6 48t-24 38t-83 33l13 41h233
l477 -975l223 815q6 26 6 48t-23 38q-24 16 -83 33l12 41l177 -6q31 0 91 3t85 3l-13 -41l-129 -43l-329 -1204h-56l-503 1030l-238 -862q-6 -26 -6 -48z" />
    <glyph glyph-name="Ograve" unicode="&#xd2;" horiz-adv-x="1249" 
d="M756 1513l-4 21l61 63q21 21 35 21t45 -29l219 -207l-18 -22zM550 -31q-162 0 -265 118q-105 118 -105 292q-1 340 194 627q89 133 222 219t295 86t266 -118q105 -118 105 -292t-53 -334q-113 -351 -363 -512q-134 -86 -296 -86zM578 61q128 1 246 139t183 330t65 358
q0 165 -57 248q-56 83 -151 83q-129 -1 -247 -139q-119 -138 -183 -330t-64 -358q0 -165 58 -248q56 -83 150 -83z" />
    <glyph glyph-name="Oacute" unicode="&#xd3;" horiz-adv-x="1249" 
d="M1130 1534l-2 -21l-383 -141l-14 25l287 200q31 21 46 21t28 -21zM550 -31q-162 0 -265 118q-105 118 -105 292q-1 340 194 627q89 133 222 219t295 86t266 -118q105 -118 105 -292t-53 -334q-113 -351 -363 -512q-134 -86 -296 -86zM578 61q128 1 246 139t183 330
t65 358q0 165 -57 248q-56 83 -151 83q-129 -1 -247 -139q-119 -138 -183 -330t-64 -358q0 -165 58 -248q56 -83 150 -83z" />
    <glyph glyph-name="Ocircumflex" unicode="&#xd4;" horiz-adv-x="1249" 
d="M1137 1384l-27 -14l-162 143l-241 -143l-23 21l246 237h88zM550 -31q-162 0 -265 118q-105 118 -105 292q-1 340 194 627q89 133 222 219t295 86t266 -118q105 -118 105 -292t-53 -334q-113 -351 -363 -512q-134 -86 -296 -86zM578 61q128 1 246 139t183 330t65 358
q0 165 -57 248q-56 83 -151 83q-129 -1 -247 -139q-119 -138 -183 -330t-64 -358q0 -165 58 -248q56 -83 150 -83z" />
    <glyph glyph-name="Otilde" unicode="&#xd5;" horiz-adv-x="1249" 
d="M854 1616q39 0 102 -38t99 -38q66 0 106 66l35 -7q-70 -180 -188 -180q-38 0 -102 38t-99 38q-66 1 -107 -65l-34 6q70 180 188 180zM550 -31q-162 0 -265 118q-105 118 -105 292q-1 340 194 627q89 133 222 219t295 86t266 -118q105 -118 105 -292t-53 -334
q-113 -351 -363 -512q-134 -86 -296 -86zM578 61q128 1 246 139t183 330t65 358q0 165 -57 248q-56 83 -151 83q-129 -1 -247 -139q-119 -138 -183 -330t-64 -358q0 -165 58 -248q56 -83 150 -83z" />
    <glyph glyph-name="Odieresis" unicode="&#xd6;" horiz-adv-x="1249" 
d="M1060 1411q-76 0 -77 77q0 38 32 70t70 32t58 -21q20 -20 20 -57t-33 -69q-32 -32 -70 -32zM879 1512q0 -37 -33 -69t-71 -32q-38 -1 -57 19q-20 20 -20 58t32 70t71 32t59 -21q20 -20 19 -57zM550 -31q-162 0 -265 118q-105 118 -105 292q-1 340 194 627q89 133 222 219
t295 86t266 -118q105 -118 105 -292t-53 -334q-113 -351 -363 -512q-134 -86 -296 -86zM578 61q128 1 246 139t183 330t65 358q0 165 -57 248q-56 83 -151 83q-129 -1 -247 -139q-119 -138 -183 -330t-64 -358q0 -165 58 -248q56 -83 150 -83z" />
    <glyph glyph-name="multiply" unicode="&#xd7;" horiz-adv-x="901" 
d="M711 250l-88 -72l-140 205l-250 -205l-49 72l252 205l-139 204l88 72l137 -205l252 205l49 -72l-252 -204z" />
    <glyph glyph-name="Oslash" unicode="&#xd8;" horiz-adv-x="1249" 
d="M864 1219q-129 -1 -247 -139t-182 -330t-64 -340t35 -228l575 992q-51 45 -117 45zM578 61q128 1 246 139t183 330t65 342q0 148 -40 230l-575 -996q47 -45 121 -45zM565 -31q-92 0 -168 35l-92 -160h-94l117 201q-147 115 -148 356q0 152 52 312t142 293t222 219
q133 86 281 86q88 0 163 -33l93 158h94l-117 -201q152 -117 152 -356q0 -152 -52 -312q-115 -352 -364 -512q-134 -86 -281 -86z" />
    <glyph glyph-name="Ugrave" unicode="&#xd9;" horiz-adv-x="1329" 
d="M778 1513l-4 21l62 63q20 21 34 21t45 -29l220 -207l-19 -22zM610 -31q-176 0 -275 88t-99 240q0 76 36 211l166 612q6 26 6 48t-23 38q-24 16 -83 33l12 41l207 -6q31 0 114 3t107 3l-12 -41l-127 -43l-188 -690q-35 -122 -35 -220t64 -160t175 -63q163 1 265 111
t163 338l166 608q6 26 6 48t-23 38q-24 16 -83 33l12 41l176 -6q31 0 91 3t85 3l-12 -41l-129 -43l-182 -674q-80 -299 -217 -426t-363 -127z" />
    <glyph glyph-name="Uacute" unicode="&#xda;" horiz-adv-x="1329" 
d="M1219 1534l-2 -21l-383 -141l-15 25l287 200q31 21 46 21t28 -21zM610 -31q-176 0 -275 88t-99 240q0 76 36 211l166 612q6 26 6 48t-23 38q-24 16 -83 33l12 41l207 -6q31 0 114 3t107 3l-12 -41l-127 -43l-188 -690q-35 -122 -35 -220t64 -160t175 -63q163 1 265 111
t163 338l166 608q6 26 6 48t-23 38q-24 16 -83 33l12 41l176 -6q31 0 91 3t85 3l-12 -41l-129 -43l-182 -674q-80 -299 -217 -426t-363 -127z" />
    <glyph glyph-name="Ucircumflex" unicode="&#xdb;" horiz-adv-x="1329" 
d="M1219 1384l-27 -14l-162 143l-242 -143l-22 21l246 237h88zM610 -31q-176 0 -275 88t-99 240q0 76 36 211l166 612q6 26 6 48t-23 38q-24 16 -83 33l12 41l207 -6q31 0 114 3t107 3l-12 -41l-127 -43l-188 -690q-35 -122 -35 -220t64 -160t175 -63q163 1 265 111t163 338
l166 608q6 26 6 48t-23 38q-24 16 -83 33l12 41l176 -6q31 0 91 3t85 3l-12 -41l-129 -43l-182 -674q-80 -299 -217 -426t-363 -127z" />
    <glyph glyph-name="Udieresis" unicode="&#xdc;" horiz-adv-x="1329" 
d="M1142 1411q-76 0 -77 77q0 38 32 70t70 32t58 -21q20 -20 20 -57t-33 -69q-32 -32 -70 -32zM961 1512q0 -37 -33 -69t-71 -32q-38 -1 -57 19q-20 20 -20 58t32 70t71 32t59 -21q20 -20 19 -57zM610 -31q-176 0 -275 88t-99 240q0 76 36 211l166 612q6 26 6 48t-23 38
q-24 16 -83 33l12 41l207 -6q31 0 114 3t107 3l-12 -41l-127 -43l-188 -690q-35 -122 -35 -220t64 -160t175 -63q163 1 265 111t163 338l166 608q6 26 6 48t-23 38q-24 16 -83 33l12 41l176 -6q31 0 91 3t85 3l-12 -41l-129 -43l-182 -674q-80 -299 -217 -426t-363 -127z
" />
    <glyph glyph-name="Yacute" unicode="&#xdd;" horiz-adv-x="1095" 
d="M1079 1534l-2 -21l-383 -141l-14 25l287 200q31 21 46 21t27 -21zM436 1274q96 0 219 6l-12 -41l-102 -27l143 -608l442 606l-100 31l12 39q127 -6 162 -6t92 3t76 3l-10 -41q-80 -10 -117 -34t-86 -91l-444 -610l-95 -344q-6 -26 -6 -48t24 -38t83 -33l-12 -41l-207 6
q-31 0 -114 -3t-108 -3l13 41l129 43l114 420l-141 610q-14 61 -45 85t-104 40l12 41q86 -6 182 -6z" />
    <glyph glyph-name="Thorn" unicode="&#xde;" horiz-adv-x="1093" 
d="M653 944h-69l-162 -596h84q287 0 384 233q32 77 32 161t-52 139q-63 63 -217 63zM461 1168q0 22 -24 38t-83 33l13 41l204 -6q31 0 115 3t109 3l-13 -41l-129 -43l-47 -170h88q231 0 336 -98q80 -76 80 -203q0 -180 -125 -299q-160 -154 -455 -154h-129l-30 -112
q-6 -26 -6 -48q-1 -22 23 -38t83 -33l-12 -41l-207 6q-31 0 -114 -3t-107 -3l12 41l129 43l283 1036q6 26 6 48z" />
    <glyph glyph-name="germandbls" unicode="&#xdf;" horiz-adv-x="1138" 
d="M1094 1196q0 -140 -148 -243q-62 -42 -122 -79q-146 -90 -146 -163q0 -53 58 -103t130 -84q72 -36 130 -100t59 -143q0 -131 -115 -221q-116 -90 -272 -91q-156 0 -289 51q43 123 57 211h31q18 -176 205 -176q90 0 156 47q66 48 67 106q0 58 -55 103t-123 77t-123 96
t-55 148q0 146 140 250q59 42 117 82q140 96 140 222q0 125 -143 125q-201 0 -281 -293l-397 -1467h-164l348 1285h-131l18 73h133l19 68q55 203 182 309q128 106 274 106t223 -56q77 -58 77 -140z" />
    <glyph glyph-name="agrave" unicode="&#xe0;" horiz-adv-x="993" 
d="M624 1296q16 0 33 -20l211 -240l-18 -22l-322 178l-4 20l70 70q14 14 30 14zM657 852q-151 0 -267 -195t-116 -383q0 -92 34 -142t91 -50q113 0 207 145q70 106 119 299l68 250q-39 76 -136 76zM347 -31q-119 0 -187 82t-68 217q0 136 68 278t174 247q154 150 332 149
q102 0 188 -70l49 70l82 -24l4 -9l-198 -733q-10 -37 -11 -55q0 -35 38 -35t79 18l-16 -63q-27 -23 -76 -40t-92 -17t-71 26t-28 61q0 36 9 66h-5q-20 -37 -51 -67q-100 -101 -220 -101z" />
    <glyph glyph-name="aacute" unicode="&#xe1;" horiz-adv-x="993" 
d="M833 1296q13 0 25 -14l57 -70l-2 -20l-383 -178l-14 24l279 238q25 20 38 20zM657 852q-151 0 -267 -195t-116 -383q0 -92 34 -142t91 -50q113 0 207 145q70 106 119 299l68 250q-39 76 -136 76zM347 -31q-119 0 -187 82t-68 217q0 136 68 278t174 247q154 150 332 149
q102 0 188 -70l49 70l82 -24l4 -9l-198 -733q-10 -37 -11 -55q0 -35 38 -35t79 18l-16 -63q-27 -23 -76 -40t-92 -17t-71 26t-28 61q0 36 9 66h-5q-20 -37 -51 -67q-100 -101 -220 -101z" />
    <glyph glyph-name="acircumflex" unicode="&#xe2;" horiz-adv-x="993" 
d="M932 1038l-33 -10l-141 172l-236 -172l-26 19l245 264h88zM657 852q-151 0 -267 -195t-116 -383q0 -92 34 -142t91 -50q113 0 207 145q70 106 119 299l68 250q-39 76 -136 76zM347 -31q-119 0 -187 82t-68 217q0 136 68 278t174 247q154 150 332 149q102 0 188 -70l49 70
l82 -24l4 -9l-198 -733q-10 -37 -11 -55q0 -35 38 -35t79 18l-16 -63q-27 -23 -76 -40t-92 -17t-71 26t-28 61q0 36 9 66h-5q-20 -37 -51 -67q-100 -101 -220 -101z" />
    <glyph glyph-name="atilde" unicode="&#xe3;" horiz-adv-x="993" 
d="M805 1083q-39 0 -103 38t-98 38q-63 0 -108 -74l-35 7q74 188 190 188q39 0 103 -38t98 -38q63 0 109 74l34 -6q-73 -189 -190 -189zM657 852q-151 0 -267 -195t-116 -383q0 -92 34 -142t91 -50q113 0 207 145q70 106 119 299l68 250q-39 76 -136 76zM347 -31
q-119 0 -187 82t-68 217q0 136 68 278t174 247q154 150 332 149q102 0 188 -70l49 70l82 -24l4 -9l-198 -733q-10 -37 -11 -55q0 -35 38 -35t79 18l-16 -63q-27 -23 -76 -40t-92 -17t-71 26t-28 61q0 36 9 66h-5q-20 -37 -51 -67q-100 -101 -220 -101z" />
    <glyph glyph-name="adieresis" unicode="&#xe4;" horiz-adv-x="993" 
d="M961 1180q0 -37 -33 -69t-71 -32q-38 -1 -57 19q-20 20 -20 58t32 70t71 32t59 -21q20 -20 19 -57zM572 1079q-76 0 -76 77q0 38 31 70q32 32 70 32q39 0 59 -21q20 -20 20 -57t-33 -69t-71 -32zM657 852q-151 0 -267 -195t-116 -383q0 -92 34 -142t91 -50q113 0 207 145
q70 106 119 299l68 250q-39 76 -136 76zM347 -31q-119 0 -187 82t-68 217q0 136 68 278t174 247q154 150 332 149q102 0 188 -70l49 70l82 -24l4 -9l-198 -733q-10 -37 -11 -55q0 -35 38 -35t79 18l-16 -63q-27 -23 -76 -40t-92 -17t-71 26t-28 61q0 36 9 66h-5
q-20 -37 -51 -67q-100 -101 -220 -101z" />
    <glyph glyph-name="aring" unicode="&#xe5;" horiz-adv-x="993" 
d="M909 1234q0 -70 -56 -130q-55 -62 -129 -62t-112 38q-37 38 -37 108q1 70 57 131t130 61t110 -38q37 -38 37 -108zM655 1191q0 -81 64 -81q47 0 79 40t32 82q-1 79 -64 81q-47 0 -79 -40t-32 -82zM657 852q-151 0 -267 -195t-116 -383q0 -92 34 -142t91 -50
q113 0 207 145q70 106 119 299l68 250q-39 76 -136 76zM347 -31q-119 0 -187 82t-68 217q0 136 68 278t174 247q154 150 332 149q102 0 188 -70l49 70l82 -24l4 -9l-198 -733q-10 -37 -11 -55q0 -35 38 -35t79 18l-16 -63q-27 -23 -76 -40t-92 -17t-71 26t-28 61q0 36 9 66
h-5q-20 -37 -51 -67q-100 -101 -220 -101z" />
    <glyph glyph-name="ae" unicode="&#xe6;" horiz-adv-x="1353" 
d="M1188 766q0 88 -82 88q-129 0 -228 -172t-100 -387q0 -27 2 -39q408 281 408 510zM670 862q-111 0 -205 -100t-143 -234t-50 -256q0 -188 136 -188q80 0 206 70q-18 55 -18 122q0 142 57 276t150 232q-57 78 -133 78zM354 -31q-126 0 -194 78t-68 217q0 262 175 470
t409 208q137 0 242 -63q102 63 202 63t156 -47t55 -123q0 -268 -534 -594q39 -92 141 -92q152 0 297 174l41 -37q-61 -106 -173 -180t-229 -74q-152 0 -227 113q-168 -113 -293 -113z" />
    <glyph glyph-name="ccedilla" unicode="&#xe7;" horiz-adv-x="872" 
d="M401 -248q0 36 -22 51q-6 5 -9 7q-2 2 -12 5t-19 6t-31 6t-33 17q-7 10 6 27l55 100q-119 13 -180 95q-62 82 -62 219t70 291t203 260t288 106q109 0 267 -51q-27 -74 -56 -211h-30q-10 84 -58 129t-121 45q-115 0 -205 -95t-132 -222q-44 -127 -44 -246q0 -205 158 -205
q145 0 299 176l41 -39q-62 -94 -160 -166t-198 -86l-45 -84q150 -10 149 -129q0 -76 -87 -146t-249 -79l-8 43q98 14 162 64t63 112z" />
    <glyph glyph-name="egrave" unicode="&#xe8;" horiz-adv-x="870" 
d="M626 1296q16 0 33 -20l211 -240l-18 -22l-322 178l-4 20l70 70q14 14 30 14zM614 854q-94 0 -186 -121t-133 -280q184 29 295 121t110 194q0 38 -22 62t-64 24zM368 -31q-122 0 -199 86t-77 226t70 293t199 261q130 108 282 107q99 0 157 -45t58 -125q0 -158 -174 -268
t-403 -131q-6 -41 -7 -78q0 -209 160 -209q78 0 159 54t140 124l41 -37q-61 -106 -173 -182q-111 -76 -233 -76z" />
    <glyph glyph-name="eacute" unicode="&#xe9;" horiz-adv-x="870" 
d="M814 1296q13 0 26 -14l57 -70l-2 -20l-383 -178l-14 24l278 238q25 20 38 20zM614 854q-94 0 -186 -121t-133 -280q184 29 295 121t110 194q0 38 -22 62t-64 24zM368 -31q-122 0 -199 86t-77 226t70 293t199 261q130 108 282 107q99 0 157 -45t58 -125q0 -158 -174 -268
t-403 -131q-6 -41 -7 -78q0 -209 160 -209q78 0 159 54t140 124l41 -37q-61 -106 -173 -182q-111 -76 -233 -76z" />
    <glyph glyph-name="ecircumflex" unicode="&#xea;" horiz-adv-x="870" 
d="M895 1038l-33 -10l-141 172l-236 -172l-26 19l246 264h88zM614 854q-94 0 -186 -121t-133 -280q184 29 295 121t110 194q0 38 -22 62t-64 24zM368 -31q-122 0 -199 86t-77 226t70 293t199 261q130 108 282 107q99 0 157 -45t58 -125q0 -158 -174 -268t-403 -131
q-6 -41 -7 -78q0 -209 160 -209q78 0 159 54t140 124l41 -37q-61 -106 -173 -182q-111 -76 -233 -76z" />
    <glyph glyph-name="edieresis" unicode="&#xeb;" horiz-adv-x="870" 
d="M824 1079q-76 0 -76 77q0 38 31 70q32 32 71 32q38 0 58 -21q20 -20 20 -57t-33 -69t-71 -32zM540 1079q-76 0 -77 77q0 38 32 70q31 32 69 32t58 -21q20 -20 21 -57q0 -37 -33 -69q-32 -32 -70 -32zM614 854q-94 0 -186 -121t-133 -280q184 29 295 121t110 194
q0 38 -22 62t-64 24zM368 -31q-122 0 -199 86t-77 226t70 293t199 261q130 108 282 107q99 0 157 -45t58 -125q0 -158 -174 -268t-403 -131q-6 -41 -7 -78q0 -209 160 -209q78 0 159 54t140 124l41 -37q-61 -106 -173 -182q-111 -76 -233 -76z" />
    <glyph glyph-name="igrave" unicode="&#xec;" 
d="M324 1296q16 0 32 -20l211 -240l-18 -22l-322 178l-4 20l70 70q15 14 31 14zM310 86q38 0 79 18l-16 -63q-27 -23 -76 -40t-92 -17t-71 28t-28 70q0 41 17 106l151 557q10 37 10 60t-18 39q-20 16 -76 28l9 37q207 0 278 13l6 -9l-200 -737q-10 -37 -11 -55q0 -35 38 -35
z" />
    <glyph glyph-name="iacute" unicode="&#xed;" 
d="M517 1296q13 0 26 -14l57 -70l-2 -20l-383 -178l-14 24l278 238q25 20 38 20zM310 86q38 0 79 18l-16 -63q-27 -23 -76 -40t-92 -17t-71 28t-28 70q0 41 17 106l151 557q10 37 10 60t-18 39q-20 16 -76 28l9 37q207 0 278 13l6 -9l-200 -737q-10 -37 -11 -55
q0 -35 38 -35z" />
    <glyph glyph-name="icircumflex" unicode="&#xee;" 
d="M616 1038l-32 -10l-142 172l-235 -172l-27 19l246 264h88zM310 86q38 0 79 18l-16 -63q-27 -23 -76 -40t-92 -17t-71 28t-28 70q0 41 17 106l151 557q10 37 10 60t-18 39q-20 16 -76 28l9 37q207 0 278 13l6 -9l-200 -737q-10 -37 -11 -55q0 -35 38 -35z" />
    <glyph glyph-name="idieresis" unicode="&#xef;" 
d="M655 1180q-1 -37 -33 -69t-70 -32q-38 -1 -57 19t-19 58t31 70q32 32 70 32t58 -21q20 -20 20 -57zM371 1180q0 -37 -33 -69t-71 -32q-38 -1 -57 19q-20 20 -20 58t32 70t71 32t59 -21q20 -20 19 -57zM310 86q38 0 79 18l-16 -63q-27 -23 -76 -40t-92 -17t-71 28t-28 70
q0 41 17 106l151 557q10 37 10 60t-18 39q-20 16 -76 28l9 37q207 0 278 13l6 -9l-200 -737q-10 -37 -11 -55q0 -35 38 -35z" />
    <glyph glyph-name="eth" unicode="&#xf0;" horiz-adv-x="950" 
d="M733 754q0 49 -2 63q-39 25 -94 25q-109 0 -197 -100t-129 -230q-41 -132 -41 -242q0 -213 152 -215q137 0 224 194t87 505zM915 723q0 -330 -139 -542t-364 -212q-145 0 -232 87q-86 87 -86 239q0 241 163 439t361 198q51 0 107 -21q-14 100 -49 189l-187 -47l-18 75
l172 43q-57 106 -143 177l32 47q145 -66 240 -193l182 45l17 -76l-154 -36q98 -176 98 -412z" />
    <glyph glyph-name="ntilde" unicode="&#xf1;" horiz-adv-x="1036" 
d="M856 1083q-39 0 -102 38t-99 38q-63 0 -108 -74l-35 7q74 188 190 188q38 0 102 -38t99 -38q63 0 109 74l35 -6q-74 -189 -191 -189zM408 649q156 293 352 293q112 0 164 -55t53 -149q0 -94 -75 -344t-75 -279t30 -29t81 20l-16 -63q-96 -59 -154 -59q-110 0 -111 94
q0 70 77 318t77 315q0 102 -96 102q-74 0 -159 -79q-84 -80 -148 -208t-127 -356l-48 -170h-163l202 745q10 37 10 60t-18 39q-20 16 -76 28l9 37q205 0 274 13l6 -9l-74 -264h5z" />
    <glyph glyph-name="ograve" unicode="&#xf2;" horiz-adv-x="946" 
d="M596 1296q16 0 33 -20l211 -240l-19 -22l-321 178l-4 20l69 70q15 14 31 14zM412 -31q-158 0 -239 92q-81 93 -81 237t60 286t181 251q121 107 273 107t233 -92t81 -250q0 -96 -37 -205q-86 -253 -261 -363q-99 -63 -210 -63zM422 57q74 0 137 68q104 112 158 361
q20 97 20 167q0 201 -147 201q-74 0 -137 -68q-108 -117 -158 -361q-20 -97 -21 -167q1 -201 148 -201z" />
    <glyph glyph-name="oacute" unicode="&#xf3;" horiz-adv-x="946" 
d="M788 1296q12 0 25 -14l57 -70l-2 -20l-383 -178l-14 24l279 238q26 20 38 20zM412 -31q-158 0 -239 92q-81 93 -81 237t60 286t181 251q121 107 273 107t233 -92t81 -250q0 -96 -37 -205q-86 -253 -261 -363q-99 -63 -210 -63zM422 57q74 0 137 68q104 112 158 361
q20 97 20 167q0 201 -147 201q-74 0 -137 -68q-108 -117 -158 -361q-20 -97 -21 -167q1 -201 148 -201z" />
    <glyph glyph-name="ocircumflex" unicode="&#xf4;" horiz-adv-x="946" 
d="M864 1038l-33 -10l-141 172l-235 -172l-27 19l246 264h88zM412 -31q-158 0 -239 92q-81 93 -81 237t60 286t181 251q121 107 273 107t233 -92t81 -250q0 -96 -37 -205q-86 -253 -261 -363q-99 -63 -210 -63zM422 57q74 0 137 68q104 112 158 361q20 97 20 167
q0 201 -147 201q-74 0 -137 -68q-108 -117 -158 -361q-20 -97 -21 -167q1 -201 148 -201z" />
    <glyph glyph-name="otilde" unicode="&#xf5;" horiz-adv-x="946" 
d="M748 1083q-38 0 -102 38t-99 38q-63 0 -109 -74l-35 7q74 188 191 188q39 0 102 -38t99 -38q63 0 108 74l35 -6q-73 -189 -190 -189zM412 -31q-158 0 -239 92q-81 93 -81 237t60 286t181 251q121 107 273 107t233 -92t81 -250q0 -96 -37 -205q-86 -253 -261 -363
q-99 -63 -210 -63zM422 57q74 0 137 68q104 112 158 361q20 97 20 167q0 201 -147 201q-74 0 -137 -68q-108 -117 -158 -361q-20 -97 -21 -167q1 -201 148 -201z" />
    <glyph glyph-name="odieresis" unicode="&#xf6;" horiz-adv-x="946" 
d="M800 1079q-76 0 -77 77q0 38 32 70q33 32 71 32t58 -21q20 -20 19 -57q0 -37 -33 -69q-32 -32 -70 -32zM618 1180q0 -37 -32 -69t-71 -32q-38 -1 -57 19q-20 20 -20 58t32 70t70 32t58 -21q20 -20 20 -57zM412 -31q-158 0 -239 92q-81 93 -81 237t60 286t181 251
q121 107 273 107t233 -92t81 -250q0 -96 -37 -205q-86 -253 -261 -363q-99 -63 -210 -63zM422 57q74 0 137 68q104 112 158 361q20 97 20 167q0 201 -147 201q-74 0 -137 -68q-108 -117 -158 -361q-20 -97 -21 -167q1 -201 148 -201z" />
    <glyph glyph-name="divide" unicode="&#xf7;" horiz-adv-x="901" 
d="M606 807q60 0 62 -64q0 -41 -33 -73t-68 -33q-67 0 -67 63q0 41 32 74q33 33 74 33zM522 207q0 -35 -32 -68t-68 -33q-66 0 -68 64q0 41 33 74t74 32q61 0 61 -69zM811 406h-647l29 100h647z" />
    <glyph glyph-name="oslash" unicode="&#xf8;" horiz-adv-x="946" 
d="M274 270q0 -58 9 -94l409 633q-40 45 -108 45t-131 -68t-101 -165q-78 -206 -78 -351zM425 57q71 0 134 68q104 112 158 361q20 98 20 154t-10 97l-410 -633q37 -47 108 -47zM422 -31q-100 0 -170 33l-88 -135h-82l113 174q-102 88 -103 270q0 131 60 273t181 251
q122 108 267 107q86 0 156 -33l88 135h82l-111 -172q104 -92 105 -272q0 -96 -37 -205t-99 -205t-162 -158t-200 -63z" />
    <glyph glyph-name="ugrave" unicode="&#xf9;" horiz-adv-x="1026" 
d="M600 1296q16 0 33 -20l211 -240l-19 -22l-321 178l-4 20l69 70q15 14 31 14zM752 -16q-49 0 -77 30t-28 90t33 140h-4q-53 -102 -129 -174q-104 -100 -215 -100t-161 54t-50 140t49 258l90 323q10 37 10 60t-19 38t-69 29l8 37q203 0 273 13l6 -9l-156 -561
q-29 -100 -28 -151q0 -102 92 -103q74 0 158 78q83 78 147 207t127 356l47 170h162l-199 -733q-10 -37 -10 -55q0 -35 38 -35t79 18l-17 -63q-70 -57 -157 -57z" />
    <glyph glyph-name="uacute" unicode="&#xfa;" horiz-adv-x="1026" 
d="M828 1296q12 0 26 -14l57 -70l-2 -20l-383 -178l-14 24l279 238q25 20 37 20zM752 -16q-49 0 -77 30t-28 90t33 140h-4q-53 -102 -129 -174q-104 -100 -215 -100t-161 54t-50 140t49 258l90 323q10 37 10 60t-19 38t-69 29l8 37q203 0 273 13l6 -9l-156 -561
q-29 -100 -28 -151q0 -102 92 -103q74 0 158 78q83 78 147 207t127 356l47 170h162l-199 -733q-10 -37 -10 -55q0 -35 38 -35t79 18l-17 -63q-70 -57 -157 -57z" />
    <glyph glyph-name="ucircumflex" unicode="&#xfb;" horiz-adv-x="1026" 
d="M897 1038l-33 -10l-141 172l-236 -172l-26 19l246 264h88zM752 -16q-49 0 -77 30t-28 90t33 140h-4q-53 -102 -129 -174q-104 -100 -215 -100t-161 54t-50 140t49 258l90 323q10 37 10 60t-19 38t-69 29l8 37q203 0 273 13l6 -9l-156 -561q-29 -100 -28 -151
q0 -102 92 -103q74 0 158 78q83 78 147 207t127 356l47 170h162l-199 -733q-10 -37 -10 -55q0 -35 38 -35t79 18l-17 -63q-70 -57 -157 -57z" />
    <glyph glyph-name="udieresis" unicode="&#xfc;" horiz-adv-x="1026" 
d="M824 1079q-76 0 -76 77q0 38 31 70q32 32 71 32q38 0 58 -21q20 -20 20 -57t-33 -69t-71 -32zM540 1079q-76 0 -77 77q0 38 32 70q31 32 69 32t58 -21q20 -20 21 -57q0 -37 -33 -69q-32 -32 -70 -32zM752 -16q-49 0 -77 30t-28 90t33 140h-4q-53 -102 -129 -174
q-104 -100 -215 -100t-161 54t-50 140t49 258l90 323q10 37 10 60t-19 38t-69 29l8 37q203 0 273 13l6 -9l-156 -561q-29 -100 -28 -151q0 -102 92 -103q74 0 158 78q83 78 147 207t127 356l47 170h162l-199 -733q-10 -37 -10 -55q0 -35 38 -35t79 18l-17 -63
q-70 -57 -157 -57z" />
    <glyph glyph-name="yacute" unicode="&#xfd;" horiz-adv-x="1005" 
d="M814 1296q13 0 26 -14l57 -70l-2 -20l-383 -178l-14 24l278 238q25 20 38 20zM315 -31q-94 1 -144 55t-50 140t49 258l90 323q10 37 10 60t-19 38t-69 29l8 37q203 0 273 13l6 -9l-156 -561q-29 -100 -28 -151q0 -102 92 -103q74 0 158 78q83 78 147 207t127 356l47 170
h162l-207 -759q-78 -286 -225 -430t-428 -193l-13 45q197 51 310 173t172 331l43 151h-4q-146 -258 -351 -258z" />
    <glyph glyph-name="thorn" unicode="&#xfe;" horiz-adv-x="1001" 
d="M402 57q106 1 202 105t145 237q48 133 48 231t-34 148q-34 49 -95 49q-106 0 -209 -163q-82 -129 -133 -322l-56 -205q26 -80 132 -80zM408 -31q-94 0 -172 41l-123 -459h-164l446 1647q11 34 11 58t-20 40t-75 29l8 37q209 0 279 12l6 -8l-108 -401q-31 -121 -70 -228h4
q53 93 134 149q80 56 178 56t164 -76t65 -220q0 -144 -71 -303q-72 -159 -204 -267t-288 -107z" />
    <glyph glyph-name="ydieresis" unicode="&#xff;" horiz-adv-x="1005" 
d="M922 1180q0 -37 -33 -69t-71 -32q-38 -1 -57 19t-19 58t31 70q32 32 70 32q39 0 59 -21q20 -20 20 -57zM533 1079q-76 0 -76 77q0 38 31 70q32 32 71 32t59 -21q20 -20 19 -57q0 -37 -33 -69t-71 -32zM315 -31q-94 1 -144 55t-50 140t49 258l90 323q10 37 10 60t-19 38
t-69 29l8 37q203 0 273 13l6 -9l-156 -561q-29 -100 -28 -151q0 -102 92 -103q74 0 158 78q83 78 147 207t127 356l47 170h162l-207 -759q-78 -286 -225 -430t-428 -193l-13 45q197 51 310 173t172 331l43 151h-4q-146 -258 -351 -258z" />
    <glyph glyph-name="Amacron" unicode="&#x100;" horiz-adv-x="1273" 
d="M1176 1434h-435l27 94h434zM805 952q0 44 2 62q-33 -68 -127 -221l-156 -254h314l-23 256q-10 113 -10 157zM1174 0l-216 6q-30 0 -112 -3t-107 -3l13 41l129 41l-33 377h-373l-196 -307q-20 -31 -21 -50q0 -29 49 -43l68 -18l-13 -41l-186 6q-32 0 -106 -3t-99 -3l13 41
l141 41l760 1198h63l107 -1124q4 -46 18 -66t51 -31l62 -18z" />
    <glyph glyph-name="amacron" unicode="&#x101;" horiz-adv-x="993" 
d="M928 1112h-434l26 94h434zM657 852q-151 0 -267 -195t-116 -383q0 -92 34 -142t91 -50q113 0 207 145q70 106 119 299l68 250q-39 76 -136 76zM347 -31q-119 0 -187 82t-68 217q0 136 68 278t174 247q154 150 332 149q102 0 188 -70l49 70l82 -24l4 -9l-198 -733
q-10 -37 -11 -55q0 -35 38 -35t79 18l-16 -63q-27 -23 -76 -40t-92 -17t-71 26t-28 61q0 36 9 66h-5q-20 -37 -51 -67q-100 -101 -220 -101z" />
    <glyph glyph-name="Abreve" unicode="&#x102;" horiz-adv-x="1273" 
d="M940 1382q-94 0 -142 43t-48 117q0 33 10 64h45q-8 -58 32 -94q41 -36 111 -36t127 36q57 34 82 94h45q-28 -104 -98 -164t-164 -60zM805 952q0 44 2 62q-33 -68 -127 -221l-156 -254h314l-23 256q-10 113 -10 157zM1174 0l-216 6q-30 0 -112 -3t-107 -3l13 41l129 41
l-33 377h-373l-196 -307q-20 -31 -21 -50q0 -29 49 -43l68 -18l-13 -41l-186 6q-32 0 -106 -3t-99 -3l13 41l141 41l760 1198h63l107 -1124q4 -46 18 -66t51 -31l62 -18z" />
    <glyph glyph-name="abreve" unicode="&#x103;" horiz-adv-x="993" 
d="M698 1047q-94 0 -142 43t-48 116q0 33 10 74h45q-8 -63 32 -101t111 -38t130 38t79 101h46q-27 -109 -98 -171t-165 -62zM657 852q-151 0 -267 -195t-116 -383q0 -92 34 -142t91 -50q113 0 207 145q70 106 119 299l68 250q-39 76 -136 76zM347 -31q-119 0 -187 82
t-68 217q0 136 68 278t174 247q154 150 332 149q102 0 188 -70l49 70l82 -24l4 -9l-198 -733q-10 -37 -11 -55q0 -35 38 -35t79 18l-16 -63q-27 -23 -76 -40t-92 -17t-71 26t-28 61q0 36 9 66h-5q-20 -37 -51 -67q-100 -101 -220 -101z" />
    <glyph glyph-name="Aogonek" unicode="&#x104;" horiz-adv-x="1273" 
d="M805 952q0 44 2 62q-33 -67 -127 -221l-156 -254h314l-23 256q-10 113 -10 157zM864 -278q0 -64 31 -96t84 -32t98 21l17 -45q-58 -35 -152 -35t-157 49q-62 49 -62 131t57 158t146 131q-127 -4 -187 -4l13 41l129 41l-33 377h-373l-196 -307q-20 -31 -21 -50
q0 -29 49 -43l68 -18l-13 -41l-186 6q-32 0 -106 -3t-99 -3l13 41l141 41l760 1198h65l107 -1124q4 -46 19 -66t48 -31l62 -18l-12 -41q-98 0 -158 2q-70 -59 -111 -138q-41 -78 -41 -142z" />
    <glyph glyph-name="aogonek" unicode="&#x105;" horiz-adv-x="993" 
d="M657 852q-151 0 -267 -195t-116 -383q0 -92 34 -142t91 -50q113 0 207 145q70 106 119 299l68 250q-39 76 -136 76zM640 -465q-94 0 -156 49t-62 137q0 156 256 269q-63 16 -64 92q0 25 9 55h-5q-20 -37 -51 -67q-100 -100 -220 -100q-119 0 -187 81q-68 82 -68 217
q0 136 68 278t174 247q154 150 332 149q102 0 188 -70l49 70l82 -24l4 -9l-198 -733q-10 -37 -11 -55q0 -35 38 -35t79 18l-16 -63q-162 -82 -240 -156t-78 -174q0 -53 31 -85t84 -32t98 21l17 -45q-59 -35 -153 -35z" />
    <glyph glyph-name="Cacute" unicode="&#x106;" horiz-adv-x="1136" 
d="M1176 1534l-2 -21l-383 -141l-15 25l287 200q31 21 46 21t28 -21zM563 -31q-172 0 -277 112q-106 111 -106 319t91 417t265 351t386 143q91 1 198 -21t133 -26q-51 -197 -73 -324h-41q-1 147 -57 214t-171 67q-147 -1 -275 -135t-197 -323t-69 -357t66 -248t171 -80
t209 51t175 129l49 -43q-90 -115 -218 -181t-259 -65z" />
    <glyph glyph-name="cacute" unicode="&#x107;" horiz-adv-x="872" 
d="M816 1296q13 0 26 -14l57 -70l-2 -20l-383 -178l-14 24l278 238q25 20 38 20zM655 942q109 0 267 -51q-27 -74 -56 -211h-30q-10 84 -58 129t-121 45q-115 0 -205 -95t-132 -222q-44 -127 -44 -246q0 -205 158 -205q145 0 299 176l41 -39q-68 -104 -178 -179t-232 -75
t-196 84q-74 85 -74 227t70 296t202 260t289 106z" />
    <glyph glyph-name="Ccircumflex" unicode="&#x108;" horiz-adv-x="1136" 
d="M1202 1384l-26 -14l-162 143l-242 -143l-22 21l245 237h88zM563 -31q-172 0 -277 112q-106 111 -106 319t91 417t265 351t386 143q91 1 198 -21t133 -26q-51 -197 -73 -324h-41q-1 147 -57 214t-171 67q-147 -1 -275 -135t-197 -323t-69 -357t66 -248t171 -80t209 51
t175 129l49 -43q-90 -115 -218 -181t-259 -65z" />
    <glyph glyph-name="ccircumflex" unicode="&#x109;" horiz-adv-x="872" 
d="M913 1038l-32 -10l-142 172l-235 -172l-27 19l246 264h88zM655 942q109 0 267 -51q-27 -74 -56 -211h-30q-10 84 -58 129t-121 45q-115 0 -205 -95t-132 -222q-44 -127 -44 -246q0 -205 158 -205q145 0 299 176l41 -39q-68 -104 -178 -179t-232 -75t-196 84
q-74 85 -74 227t70 296t202 260t289 106z" />
    <glyph glyph-name="Cdotaccent" unicode="&#x10a;" horiz-adv-x="1136" 
d="M977 1395q-99 0 -97 95q0 46 40 85q39 39 86 39q96 0 96 -95q0 -46 -39 -85t-86 -39zM563 -31q-172 0 -277 112q-106 111 -106 319t91 417t265 351t386 143q91 1 198 -21t133 -26q-51 -197 -73 -324h-41q-1 147 -57 214t-171 67q-147 -1 -275 -135t-197 -323t-69 -357
t66 -248t171 -80t209 51t175 129l49 -43q-90 -115 -218 -181t-259 -65z" />
    <glyph glyph-name="cdotaccent" unicode="&#x10b;" horiz-adv-x="872" 
d="M706 1055q-96 0 -96 95q0 46 39 85t86 39q96 0 96 -95q-1 -46 -39 -85t-86 -39zM655 942q109 0 267 -51q-27 -74 -56 -211h-30q-10 84 -58 129t-121 45q-115 0 -205 -95t-132 -222q-44 -127 -44 -246q0 -205 158 -205q145 0 299 176l41 -39q-68 -104 -178 -179t-232 -75
t-196 84q-74 85 -74 227t70 296t202 260t289 106z" />
    <glyph glyph-name="Ccaron" unicode="&#x10c;" horiz-adv-x="1136" 
d="M766 1622l27 14l161 -143l242 143l23 -20l-246 -238h-88zM563 -31q-172 0 -277 112q-106 111 -106 319t91 417t265 351t386 143q91 1 198 -21t133 -26q-51 -197 -73 -324h-41q-1 147 -57 214t-171 67q-147 -1 -275 -135t-197 -323t-69 -357t66 -248t171 -80t209 51
t175 129l49 -43q-90 -115 -218 -181t-259 -65z" />
    <glyph glyph-name="ccaron" unicode="&#x10d;" horiz-adv-x="872" 
d="M539 1300l32 11l142 -172l235 172l27 -19l-246 -264h-88zM655 942q109 0 267 -51q-27 -74 -56 -211h-30q-10 84 -58 129t-121 45q-115 0 -205 -95t-132 -222q-44 -127 -44 -246q0 -205 158 -205q145 0 299 176l41 -39q-68 -104 -178 -179t-232 -75t-196 84
q-74 85 -74 227t70 296t202 260t289 106z" />
    <glyph glyph-name="Dcaron" unicode="&#x10e;" horiz-adv-x="1286" 
d="M750 1622l26 14l162 -143l242 143l22 -20l-246 -238h-88zM477 82q250 0 395 145q115 113 181 292q65 179 65 340t-78 245q-86 88 -305 88h-82l-278 -1014q-6 -25 -6 -39q-1 -57 108 -57zM461 1168q0 22 -24 38t-83 33l13 41h397q297 0 432 -141q111 -115 111 -310
q0 -155 -65 -321t-191 -291q-221 -217 -541 -217h-479l12 41l129 43l283 1036q6 26 6 48z" />
    <glyph glyph-name="dcaron" unicode="&#x10f;" horiz-adv-x="1071" 
d="M1350 1231q0 -90 -64 -177t-164 -143l-22 33q57 45 98 98q41 54 41 88t-31 64q-57 56 -2 108q29 26 67 26q37 0 57 -28q20 -26 20 -69zM657 852q-151 0 -267 -195t-116 -383q0 -92 34 -142t91 -50q113 0 207 145q70 106 119 299l68 250q-39 76 -136 76zM347 -31
q-119 0 -187 82t-68 217q0 136 68 278t174 247q154 150 332 149q86 0 155 -49l84 305q10 34 10 58t-19 40t-75 29l8 37q207 0 279 12l6 -8l-323 -1190q-10 -37 -11 -55q0 -35 38 -35t79 18l-16 -63q-27 -23 -76 -40t-92 -17t-71 26t-28 61q0 36 9 66h-5q-20 -37 -51 -67
q-100 -101 -220 -101z" />
    <glyph glyph-name="Dcroat" unicode="&#x110;" horiz-adv-x="1286" 
d="M369 131q0 -51 108 -51q248 0 395 147q115 113 181 292q65 179 65 341t-78 246q-86 88 -297 88h-90l-135 -494h223l-24 -88h-223l-121 -442q-4 -16 -4 -39zM461 1168q0 22 -24 38t-83 33l13 41h407q285 0 422 -143q111 -113 111 -308q0 -155 -65 -321t-191 -291
q-221 -217 -535 -217h-485l12 41l129 43l143 528h-155l24 88h156l115 420q6 26 6 48z" />
    <glyph glyph-name="dcroat" unicode="&#x111;" horiz-adv-x="997" 
d="M657 852q-151 0 -267 -195t-116 -383q0 -92 34 -142t91 -50q113 0 207 145q70 106 119 299l68 250q-39 76 -136 76zM915 1260q0 44 -94 65l8 37q207 0 279 12l6 -8l-57 -207h149l-18 -72h-150l-247 -911q-10 -37 -11 -55q0 -35 38 -35t79 18l-16 -63q-27 -23 -76 -40
t-92 -17t-71 26t-28 61q0 36 9 66h-5q-20 -37 -51 -67q-100 -100 -220 -100q-119 0 -187 81q-68 82 -68 217q0 136 68 278t174 247q154 150 332 149q86 0 155 -49l53 194h-292l18 72h295l10 39q10 42 10 62z" />
    <glyph glyph-name="Emacron" unicode="&#x112;" horiz-adv-x="1091" 
d="M1053 1434h-435l27 94h434zM461 1168q0 22 -24 38t-83 33l13 41h843q-35 -125 -63 -303h-49q4 29 4 53q0 86 -37 121q-53 51 -238 51q-94 0 -172 -4l-137 -500h123q203 0 242 15l-37 -105q-41 12 -223 13h-127l-123 -455q-4 -16 -4 -27q1 -59 185 -59t254 45t136 176h43
q-53 -152 -92 -301h-864l12 41l129 43l283 1036q6 26 6 48z" />
    <glyph glyph-name="emacron" unicode="&#x113;" horiz-adv-x="870" 
d="M891 1112h-434l26 94h435zM614 854q-94 0 -186 -121t-133 -280q184 29 295 121t110 194q0 38 -22 62t-64 24zM368 -31q-122 0 -199 86t-77 226t70 293t199 261q130 108 282 107q99 0 157 -45t58 -125q0 -158 -174 -268t-403 -131q-6 -41 -7 -78q0 -209 160 -209
q78 0 159 54t140 124l41 -37q-61 -106 -173 -182q-111 -76 -233 -76z" />
    <glyph glyph-name="Ebreve" unicode="&#x114;" horiz-adv-x="1091" 
d="M846 1382q-94 0 -143 43q-48 43 -48 117q0 33 11 64h45q-8 -57 31 -94q40 -36 111 -36t128 36q57 34 82 94h45q-28 -104 -98 -164t-164 -60zM461 1168q0 22 -24 38t-83 33l13 41h843q-35 -125 -63 -303h-49q4 29 4 53q0 86 -37 121q-53 51 -238 51q-94 0 -172 -4
l-137 -500h123q203 0 242 15l-37 -105q-41 12 -223 13h-127l-123 -455q-4 -16 -4 -27q1 -59 185 -59t254 45t136 176h43q-53 -152 -92 -301h-864l12 41l129 43l283 1036q6 26 6 48z" />
    <glyph glyph-name="ebreve" unicode="&#x115;" horiz-adv-x="870" 
d="M655 1047q-94 0 -142 43t-48 116q0 33 10 74h45q-8 -63 32 -101t111 -38t130 38t79 101h46q-27 -109 -98 -171t-165 -62zM614 854q-94 0 -186 -121t-133 -280q184 29 295 121t110 194q0 38 -22 62t-64 24zM368 -31q-122 0 -199 86t-77 226t70 293t199 261
q130 108 282 107q99 0 157 -45t58 -125q0 -158 -174 -268t-403 -131q-6 -41 -7 -78q0 -209 160 -209q78 0 159 54t140 124l41 -37q-61 -106 -173 -182q-111 -76 -233 -76z" />
    <glyph glyph-name="Edotaccent" unicode="&#x116;" horiz-adv-x="1091" 
d="M862 1395q-96 0 -96 95q0 46 39 85t86 39q96 0 96 -95q0 -46 -39 -85t-86 -39zM461 1168q0 22 -24 38t-83 33l13 41h843q-35 -125 -63 -303h-49q4 29 4 53q0 86 -37 121q-53 51 -238 51q-94 0 -172 -4l-137 -500h123q203 0 242 15l-37 -105q-41 12 -223 13h-127
l-123 -455q-4 -16 -4 -27q1 -59 185 -59t254 45t136 176h43q-53 -152 -92 -301h-864l12 41l129 43l283 1036q6 26 6 48z" />
    <glyph glyph-name="edotaccent" unicode="&#x117;" horiz-adv-x="870" 
d="M662 1055q-96 0 -97 95q0 46 39 85t86 39q96 0 96 -95q0 -46 -38 -85t-86 -39zM614 854q-94 0 -186 -121t-133 -280q184 29 295 121t110 194q0 38 -22 62t-64 24zM368 -31q-122 0 -199 86t-77 226t70 293t199 261q130 108 282 107q99 0 157 -45t58 -125q0 -158 -174 -268
t-403 -131q-6 -41 -7 -78q0 -209 160 -209q78 0 159 54t140 124l41 -37q-61 -106 -173 -182q-111 -76 -233 -76z" />
    <glyph glyph-name="Eogonek" unicode="&#x118;" horiz-adv-x="1091" 
d="M487 -287q1 82 57 157t142 130h-655l12 41l129 43l283 1036q6 26 6 48t-24 38t-83 33l13 41h843q-35 -125 -63 -303h-51q4 29 4 53q0 86 -37 121q-53 51 -238 51q-92 0 -170 -4l-137 -500h123q203 0 242 15l-37 -105q-41 12 -223 13h-127l-123 -455q-4 -16 -4 -27
q-1 -59 189 -59t253 41t133 180h43q-53 -152 -92 -301h-115q-70 -59 -110 -138q-40 -78 -41 -142q1 -64 31 -96t83 -32t99 21l16 -45q-59 -35 -152 -35t-156 49t-63 131z" />
    <glyph glyph-name="eogonek" unicode="&#x119;" horiz-adv-x="874" 
d="M618 854q-94 0 -186 -121t-133 -280q184 29 295 121t111 194q0 38 -23 62t-64 24zM279 295q0 -209 159 -209q78 0 159 54t140 124l41 -37q-47 -70 -129 -149q-81 -78 -110 -109q-123 -127 -123 -250t123 -122q41 0 86 18l16 -43q-57 -37 -149 -37t-154 46q-61 46 -62 130
q0 139 183 264q-33 -6 -84 -6q-129 0 -204 85t-75 226t70 294t200 261t281 107q99 0 157 -45t58 -125q0 -158 -174 -268t-403 -131q-6 -41 -6 -78z" />
    <glyph glyph-name="Ecaron" unicode="&#x11a;" horiz-adv-x="1091" 
d="M659 1622l27 14l162 -143l242 143l22 -20l-246 -238h-88zM461 1168q0 22 -24 38t-83 33l13 41h843q-35 -125 -63 -303h-49q4 29 4 53q0 86 -37 121q-53 51 -238 51q-94 0 -172 -4l-137 -500h123q203 0 242 15l-37 -105q-41 12 -223 13h-127l-123 -455q-4 -16 -4 -27
q1 -59 185 -59t254 45t136 176h43q-53 -152 -92 -301h-864l12 41l129 43l283 1036q6 26 6 48z" />
    <glyph glyph-name="ecaron" unicode="&#x11b;" horiz-adv-x="870" 
d="M487 1300l33 11l142 -172l235 172l27 -19l-246 -264h-88zM614 854q-94 0 -186 -121t-133 -280q184 29 295 121t110 194q0 38 -22 62t-64 24zM368 -31q-122 0 -199 86t-77 226t70 293t199 261q130 108 282 107q99 0 157 -45t58 -125q0 -158 -174 -268t-403 -131
q-6 -41 -7 -78q0 -209 160 -209q78 0 159 54t140 124l41 -37q-61 -106 -173 -182q-111 -76 -233 -76z" />
    <glyph glyph-name="Gcircumflex" unicode="&#x11c;" horiz-adv-x="1261" 
d="M1169 1384l-26 -14l-162 143l-242 -143l-22 21l246 237h88zM631 -31q-205 0 -328 114t-123 331t90 419q90 201 268 339t402 139q98 -1 207 -23t131 -26q-49 -182 -74 -322h-41v8q0 272 -237 273q-162 0 -293 -128q-131 -129 -197 -307t-66 -356t68 -275q66 -97 186 -97
t199 79q59 59 97 193l38 143l-139 37l12 41q147 -6 220 -6t215 6l-13 -41q-79 -12 -103 -32t-42 -87l-84 -303q-72 -53 -180 -86t-213 -33z" />
    <glyph glyph-name="gcircumflex" unicode="&#x11d;" horiz-adv-x="923" 
d="M860 1059l-33 -10l-141 172l-235 -172l-27 18l246 264h88zM467 367q119 -1 191 109t73 239q0 65 -34 103t-97 38q-118 0 -192 -110t-74 -238q0 -68 35 -104t98 -37zM80 -231q0 -68 58 -111t171 -43t211 54q98 53 98 113t-63 97t-165 73t-148 66q-162 -118 -162 -249z
M897 698q0 -164 -131 -290t-322 -127q-39 0 -71 6q-53 -43 -53 -77q-1 -58 225 -128q85 -27 155 -80t70 -123q0 -147 -161 -253t-378 -107q-133 0 -227 59t-94 162q0 176 283 323q-21 29 -21 74t34 92t93 80q-131 59 -131 219t131 287t324 127q115 0 186 -53q63 133 154 133
q39 0 67 -30t4 -91l-14 -35q-33 23 -81 23t-89 -41q47 -60 47 -150z" />
    <glyph glyph-name="Gbreve" unicode="&#x11e;" horiz-adv-x="1261" 
d="M966 1382q-94 0 -142 43t-48 117q0 33 10 64h45q-8 -58 32 -94t111 -36t128 36q57 34 82 94h45q-27 -104 -98 -164t-165 -60zM631 -31q-205 0 -328 114t-123 331t90 419q90 201 268 339t402 139q98 -1 207 -23t131 -26q-49 -182 -74 -322h-41v8q0 272 -237 273
q-162 0 -293 -128q-131 -129 -197 -307t-66 -356t68 -275q66 -97 186 -97t199 79q59 59 97 193l38 143l-139 37l12 41q147 -6 220 -6t215 6l-13 -41q-79 -12 -103 -32t-42 -87l-84 -303q-72 -53 -180 -86t-213 -33z" />
    <glyph glyph-name="gbreve" unicode="&#x11f;" horiz-adv-x="923" 
d="M663 1047q-94 0 -142 43t-48 116q0 33 10 74h45q-8 -63 32 -101t111 -38t130 38t80 101h45q-27 -109 -98 -171t-165 -62zM897 698q0 -164 -131 -290t-322 -127q-39 0 -71 6q-53 -43 -53 -77q-1 -58 225 -128q85 -27 155 -80t70 -123q0 -147 -161 -253t-378 -107
q-133 0 -227 59t-94 162q0 176 283 323q-21 29 -21 74t34 92t93 80q-131 59 -131 219t131 287t324 127q68 0 125 -20q72 156 180 155q38 -1 60 -23t22 -48t-11 -50l-14 -34q-33 22 -83 22t-97 -53q92 -68 92 -193zM467 367q119 -1 191 109t73 239q0 65 -34 103t-97 38
q-118 0 -192 -110t-74 -238q0 -68 35 -104t98 -37zM80 -231q0 -68 58 -111t171 -43t211 54q98 53 98 113t-63 97t-165 73t-148 66q-162 -118 -162 -249z" />
    <glyph glyph-name="Gdotaccent" unicode="&#x120;" horiz-adv-x="1261" 
d="M977 1395q-99 0 -97 95q0 46 40 85q39 39 86 39q96 0 96 -95q0 -46 -39 -85t-86 -39zM631 -31q-205 0 -328 114t-123 331t90 419q90 201 268 339t402 139q98 -1 207 -23t131 -26q-49 -182 -74 -322h-41v8q0 272 -237 273q-162 0 -293 -128q-131 -129 -197 -307t-66 -356
t68 -275q66 -97 186 -97t199 79q59 59 97 193l38 143l-139 37l12 41q147 -6 220 -6t215 6l-13 -41q-79 -12 -103 -32t-42 -87l-84 -303q-72 -53 -180 -86t-213 -33z" />
    <glyph glyph-name="gdotaccent" unicode="&#x121;" horiz-adv-x="923" 
d="M664 1055q-96 0 -97 95q0 46 39 85t86 39q96 0 96 -95q0 -46 -38 -85t-86 -39zM897 698q0 -164 -131 -290t-322 -127q-39 0 -71 6q-53 -43 -53 -77q-1 -58 225 -128q85 -27 155 -80t70 -123q0 -147 -161 -253t-378 -107q-133 0 -227 59t-94 162q0 176 283 323
q-21 29 -21 74t34 92t93 80q-131 59 -131 219t131 287t324 127q68 0 125 -20q72 156 180 155q38 -1 60 -23t22 -48t-11 -50l-14 -34q-33 22 -83 22t-97 -53q92 -68 92 -193zM467 367q119 -1 191 109t73 239q0 65 -34 103t-97 38q-118 0 -192 -110t-74 -238q0 -68 35 -104
t98 -37zM80 -231q0 -68 58 -111t171 -43t211 54q98 53 98 113t-63 97t-165 73t-148 66q-162 -118 -162 -249z" />
    <glyph glyph-name="Gcommaaccent" unicode="&#x122;" horiz-adv-x="1261" 
d="M670 -209q0 -90 -64 -177t-164 -142l-22 32q57 44 98 98t41 89t-31 65q-56 55 -2 106q29 26 67 26q37 0 57 -28q20 -26 20 -69zM631 -31q-205 0 -328 114t-123 331t90 419q90 201 268 339t402 139q98 -1 207 -23t131 -26q-49 -182 -74 -322h-41v8q0 272 -237 273
q-162 0 -293 -128q-131 -129 -197 -307t-66 -356t68 -275q66 -97 186 -97t199 79q59 59 97 193l38 143l-139 37l12 41q147 -6 220 -6t215 6l-13 -41q-79 -12 -103 -32t-42 -87l-84 -303q-72 -53 -180 -86t-213 -33z" />
    <glyph glyph-name="gcommaaccent" unicode="&#x123;" horiz-adv-x="923" 
d="M573 1106q-1 90 63 177t165 142l22 -32q-57 -45 -98 -99t-41 -88q0 -36 31 -66q56 -55 2 -105q-29 -25 -67 -25t-58 26t-19 70zM897 698q0 -164 -131 -290t-322 -127q-39 0 -71 6q-53 -43 -53 -77q-1 -58 225 -128q85 -27 155 -80t70 -123q0 -147 -161 -253t-378 -107
q-133 0 -227 59t-94 162q0 176 283 323q-21 29 -21 74t34 92t93 80q-131 59 -131 219t131 287t324 127q68 0 125 -20q72 156 180 155q38 -1 60 -23t22 -48t-11 -50l-14 -34q-33 22 -83 22t-97 -53q92 -68 92 -193zM467 367q119 -1 191 109t73 239q0 65 -34 103t-97 38
q-118 0 -192 -110t-74 -238q0 -68 35 -104t98 -37zM80 -231q0 -68 58 -111t171 -43t211 54q98 53 98 113t-63 97t-165 73t-148 66q-162 -118 -162 -249z" />
    <glyph glyph-name="Hcircumflex" unicode="&#x124;" horiz-adv-x="1374" 
d="M1206 1384l-26 -14l-162 143l-242 -143l-22 21l245 237h88zM1323 112q0 -22 24 -38t83 -33l-13 -41l-205 6q-30 0 -114 -3t-109 -3l12 41l129 43l144 528h-576l-123 -452q-6 -26 -6 -48t24 -38t83 -33l-12 -41l-207 6q-31 0 -114 -3t-107 -3l12 41l129 43l282 1036
q7 26 7 48t-24 38t-83 33l12 41l205 -6q31 0 115 3t108 3l-12 -41l-129 -43l-135 -496h575l115 420q6 26 6 48t-23 38q-24 16 -83 33l12 41l207 -6q31 0 114 3t107 3l-12 -41l-129 -43l-283 -1036q-6 -26 -6 -48z" />
    <glyph glyph-name="hcircumflex" unicode="&#x125;" horiz-adv-x="1028" 
d="M723 1399l-27 -15l-161 144l-242 -144l-23 21l246 237h88zM819 115q0 -29 30 -29t81 20l-17 -63q-97 -59 -155 -59q-110 0 -109 94q1 70 77 318t77 315q0 102 -96 102q-74 0 -159 -79q-85 -80 -149 -208t-127 -356l-47 -170h-164l326 1198q10 34 10 58t-19 40t-75 29
l8 37q207 0 279 12l6 -8l-133 -492q-39 -137 -70 -227h2q156 295 373 295q96 0 148 -55t52 -149t-74 -344q-75 -250 -75 -279z" />
    <glyph glyph-name="Hbar" unicode="&#x126;" horiz-adv-x="1374" 
d="M518 700h576l63 232h-575zM461 1168q0 22 -24 38t-83 33l13 41l204 -6q31 0 115 3t109 3l-13 -41l-129 -43l-49 -176h576l28 100q6 26 6 48t-23 38q-24 16 -83 33l12 41l207 -6q31 0 114 3t107 3l-12 -41l-129 -43l-49 -176h158l-25 -88h-156l-211 -772q-6 -26 -6 -48
t24 -38t83 -33l-13 -41l-204 6q-31 0 -115 -3t-109 -3l13 41l129 43l143 528h-575l-123 -452q-6 -26 -6 -48q-1 -22 23 -38t83 -33l-12 -41l-207 6q-31 0 -114 -3t-107 -3l12 41l129 43l231 848h-157l24 88h156l29 100q6 26 6 48z" />
    <glyph glyph-name="hbar" unicode="&#x127;" horiz-adv-x="1028" 
d="M819 115q0 -29 30 -29t81 20l-17 -63q-97 -59 -155 -59q-110 0 -109 94q1 70 77 318t77 315q0 102 -96 102q-74 0 -159 -79q-85 -80 -149 -208t-127 -356l-47 -170h-164l295 1087h-147l18 72h150l10 39q10 34 10 58t-19 40t-75 29l8 37q207 0 279 12l6 -8l-57 -207h295
l-19 -72h-295l-57 -213q-39 -137 -70 -227h2q156 295 373 295q96 0 148 -55t52 -149t-74 -344q-75 -250 -75 -279z" />
    <glyph glyph-name="Itilde" unicode="&#x128;" horiz-adv-x="628" 
d="M541 1616q39 0 102 -38t98 -38q66 0 107 66l35 -7q-70 -180 -189 -180q-39 0 -102 38t-98 38q-66 1 -107 -65l-35 6q70 180 189 180zM465 1168q0 22 -24 38t-83 33l13 41l204 -6q31 0 115 3t109 3l-13 -41l-129 -43l-282 -1036q-6 -26 -6 -48q-1 -22 23 -38t83 -33
l-12 -41l-207 6q-31 0 -114 -3t-107 -3l12 41l129 43l283 1036q6 26 6 48z" />
    <glyph glyph-name="itilde" unicode="&#x129;" 
d="M489 1083q-39 0 -102 38t-98 38q-63 0 -109 -74l-35 7q74 188 191 188q39 0 102 -38t99 -38q63 0 108 74l35 -6q-74 -189 -191 -189zM310 86q38 0 79 18l-16 -63q-27 -23 -76 -40t-92 -17t-71 28t-28 70q0 41 17 106l151 557q10 37 10 60t-18 39q-20 16 -76 28l9 37
q207 0 278 13l6 -9l-200 -737q-10 -37 -11 -55q0 -35 38 -35z" />
    <glyph glyph-name="Imacron" unicode="&#x12a;" horiz-adv-x="628" 
d="M829 1434h-434l27 94h434zM465 1168q0 22 -24 38t-83 33l13 41l204 -6q31 0 115 3t109 3l-13 -41l-129 -43l-282 -1036q-6 -26 -6 -48q-1 -22 23 -38t83 -33l-12 -41l-207 6q-31 0 -114 -3t-107 -3l12 41l129 43l283 1036q6 26 6 48z" />
    <glyph glyph-name="imacron" unicode="&#x12b;" 
d="M610 1112h-434l27 94h434zM310 86q38 0 79 18l-16 -63q-27 -23 -76 -40t-92 -17t-71 28t-28 70q0 41 17 106l151 557q10 37 10 60t-18 39q-20 16 -76 28l9 37q207 0 278 13l6 -9l-200 -737q-10 -37 -11 -55q0 -35 38 -35z" />
    <glyph glyph-name="Ibreve" unicode="&#x12c;" horiz-adv-x="628" 
d="M614 1382q-94 0 -142 43t-48 117q0 33 10 64h45q-8 -58 32 -94t111 -36t128 36q57 34 81 94h46q-27 -104 -98 -164t-165 -60zM465 1168q0 22 -24 38t-83 33l13 41l204 -6q31 0 115 3t109 3l-13 -41l-129 -43l-282 -1036q-6 -26 -6 -48q-1 -22 23 -38t83 -33l-12 -41
l-207 6q-31 0 -114 -3t-107 -3l12 41l129 43l283 1036q6 26 6 48z" />
    <glyph glyph-name="ibreve" unicode="&#x12d;" 
d="M399 1047q-94 0 -142 43t-48 116q0 33 10 74h45q-8 -63 32 -101t111 -38t130 38t79 101h46q-27 -109 -98 -171t-165 -62zM310 86q38 0 79 18l-16 -63q-27 -23 -76 -40t-92 -17t-71 28t-28 70q0 41 17 106l151 557q10 37 10 60t-18 39q-20 16 -76 28l9 37q207 0 278 13
l6 -9l-200 -737q-10 -37 -11 -55q0 -35 38 -35z" />
    <glyph glyph-name="Iogonek" unicode="&#x12e;" horiz-adv-x="628" 
d="M369 112q-1 -22 23 -38t83 -33l-12 -41q-43 0 -154 4q-71 -59 -111 -139q-40 -79 -40 -143t30 -96t84 -32q53 0 99 21l16 -45q-59 -35 -152 -35t-156 49t-63 130t58 159t147 133q-184 -6 -186 -6l12 41l129 43l283 1036q6 26 6 48t-24 38t-83 33l13 41l204 -6q31 0 115 3
t109 3l-13 -41l-129 -43l-282 -1036q-6 -26 -6 -48z" />
    <glyph glyph-name="iogonek" unicode="&#x12f;" 
d="M310 86q38 0 79 18l-16 -63q-156 -78 -227 -153t-70 -177q0 -53 30 -85t84 -32q53 0 99 21l16 -45q-59 -35 -152 -35t-156 49q-62 49 -63 137q0 165 236 269q-63 23 -64 98q0 35 17 100l151 557q10 37 10 60t-18 39q-20 16 -76 28l9 37q207 0 278 13l6 -9l-200 -737
q-10 -37 -11 -55q0 -35 38 -35zM449 1075q-82 1 -82 89q0 44 42 84t83 40q84 0 84 -88q0 -45 -43 -85q-42 -40 -84 -40z" />
    <glyph glyph-name="Idotaccent" unicode="&#x130;" horiz-adv-x="628" 
d="M618 1395q-96 0 -96 95q0 46 39 85t86 39q96 0 96 -95q-1 -46 -39 -85t-86 -39zM465 1168q0 22 -24 38t-83 33l13 41l204 -6q31 0 115 3t109 3l-13 -41l-129 -43l-282 -1036q-6 -26 -6 -48q-1 -22 23 -38t83 -33l-12 -41l-207 6q-31 0 -114 -3t-107 -3l12 41l129 43
l283 1036q6 26 6 48z" />
    <glyph glyph-name="dotlessi" unicode="&#x131;" 
d="M310 86q38 0 79 18l-16 -63q-27 -23 -76 -40t-92 -17t-71 28t-28 70q0 41 17 106l151 557q10 37 10 60t-18 39q-20 16 -76 28l9 37q207 0 278 13l6 -9l-200 -737q-10 -37 -11 -55q0 -35 38 -35z" />
    <glyph glyph-name="IJ" unicode="&#x132;" horiz-adv-x="1249" 
d="M1087 1168q0 22 -23 38q-24 16 -83 33l12 41l203 -6q39 0 114 3t111 3l-12 -41l-129 -43l-279 -1022q-33 -117 -69 -204q-94 -224 -254 -325q-94 -60 -217 -89l-15 51q139 55 224 181q84 126 151 376l260 956q6 26 6 48zM465 1168q0 22 -24 38t-83 33l13 41l204 -6
q31 0 115 3t109 3l-13 -41l-129 -43l-282 -1036q-6 -26 -6 -48q-1 -22 23 -38t83 -33l-12 -41l-207 6q-31 0 -114 -3t-107 -3l12 41l129 43l283 1036q6 26 6 48z" />
    <glyph glyph-name="ij" unicode="&#x133;" horiz-adv-x="968" 
d="M987 1288q85 0 85 -88q0 -45 -43 -85q-42 -40 -84 -40t-62 22q-21 23 -21 67t42 84t83 40zM780 805q0 23 -19 39t-75 28l8 37q207 0 279 13l6 -9l-256 -940q-55 -201 -153 -294t-281 -152l-15 41q115 55 175 135q59 80 100 234l221 808q10 37 10 60zM310 86q38 0 79 18
l-16 -63q-27 -23 -76 -40t-92 -17t-71 28t-28 70q0 41 17 106l151 557q10 37 10 60t-18 39q-20 16 -76 28l9 37q207 0 278 13l6 -9l-200 -737q-10 -37 -11 -55q0 -35 38 -35zM449 1075q-82 1 -82 89q0 44 42 84t83 40q84 0 84 -88q0 -45 -43 -85q-42 -40 -84 -40z" />
    <glyph glyph-name="Jcircumflex" unicode="&#x134;" horiz-adv-x="620" 
d="M823 1384l-26 -14l-162 143l-242 -143l-22 21l245 237h89zM459 1168q0 22 -24 38t-83 33l13 41l202 -6q39 0 114 3t112 3l-13 -41l-129 -43l-278 -1022q-65 -229 -168 -380q-123 -179 -373 -238l-14 51q139 55 223 181t152 376l260 956q6 26 6 48z" />
    <glyph glyph-name="jcircumflex" unicode="&#x135;" horiz-adv-x="473" 
d="M608 1038l-33 -10l-141 172l-235 -172l-27 19l246 264h88zM483 913l-256 -940q-55 -201 -153 -294t-281 -152l-14 41q115 55 174 135t100 234l221 808q10 37 10 60t-18 39q-20 16 -76 28l9 37q207 0 278 13z" />
    <glyph glyph-name="Kcommaaccent" unicode="&#x136;" horiz-adv-x="1224" 
d="M686 -206q0 -93 -63 -180t-164 -142l-23 32q56 44 98 98t42 89t-32 65q-30 30 -30 56q0 24 29 50t67 25q76 0 76 -93zM1060 80q36 0 81 22l-19 -63q-63 -57 -147 -57q-129 0 -172 163l-148 547l-188 -176l-96 -356q-6 -26 -6 -48q-1 -22 23 -38t83 -33l-12 -41l-215 6
q-33 0 -112 -3t-101 -3l12 41l129 43l283 1036q6 26 6 48t-24 38t-83 33l13 41l213 -6q34 0 112 3t103 3l-13 -41l-129 -43l-145 -530l577 542l-112 31l10 41l199 -8q36 0 104 4t82 4l-10 -41q-96 -15 -144 -39t-131 -102l-290 -275l176 -653q15 -50 35 -70t56 -20z" />
    <glyph glyph-name="kcommaaccent" unicode="&#x137;" horiz-adv-x="919" 
d="M477 -206q0 -93 -63 -180t-164 -142l-23 32q57 44 99 98t41 89q0 35 -31 65t-31 56q0 24 29 50t67 25q76 0 76 -93zM779 88q40 0 73 16l-18 -67q-76 -51 -144 -51t-101 36q-32 36 -54 109l-105 375l-84 -60l-121 -446h-164l326 1198q10 34 10 58t-19 40t-75 29l8 37
q207 0 279 12l6 -8l-223 -819l129 92q96 71 168 143t92 123l223 4v-8l-416 -301l115 -410q16 -58 36 -80t59 -22z" />
    <glyph glyph-name="kgreenlandic" unicode="&#x138;" horiz-adv-x="931" 
d="M274 805q0 23 -19 39t-75 28l8 37q209 0 279 13l6 -9l-115 -419l146 110q244 186 276 301l226 4v-8l-431 -323l123 -388q18 -58 38 -80t56 -22q34 0 74 16l-18 -67q-76 -51 -142 -51t-101 38q-36 38 -58 115l-107 336l-108 -82l-107 -393h-164l203 745q10 37 10 60z" />
    <glyph glyph-name="Lacute" unicode="&#x139;" horiz-adv-x="993" 
d="M817 1534l-2 -21l-383 -141l-14 25l287 200q31 21 46 21t27 -21zM369 137q0 -57 171 -57q172 0 246 45t136 176h43q-53 -152 -93 -301h-841l12 41l129 43l283 1036q6 26 6 48t-24 38t-83 33l13 41l202 -6q33 0 118 3t108 3l-13 -41l-129 -43l-280 -1032q-4 -16 -4 -27z
" />
    <glyph glyph-name="lacute" unicode="&#x13a;" horiz-adv-x="483" 
d="M638 1642q15 0 28 -20l39 -63l-3 -21l-383 -141l-14 24l287 201q31 20 46 20zM262 121q0 -35 38 -35t79 18l-17 -63q-28 -23 -76 -40t-91 -17t-71 28t-28 70q0 41 17 106l274 1010q10 34 10 58t-19 40t-75 29l8 37q207 0 279 12l6 -8l-324 -1190q-10 -37 -10 -55z" />
    <glyph glyph-name="Lcommaaccent" unicode="&#x13b;" horiz-adv-x="993" 
d="M588 -209q0 -90 -64 -177t-164 -142l-22 32q57 44 98 98t41 89t-31 65q-56 55 -2 106q29 26 67 26q37 0 57 -28q20 -26 20 -69zM369 137q0 -57 171 -57q172 0 246 45t136 176h43q-53 -152 -93 -301h-841l12 41l129 43l283 1036q6 26 6 48t-24 38t-83 33l13 41l202 -6
q33 0 118 3t108 3l-13 -41l-129 -43l-280 -1032q-4 -16 -4 -27z" />
    <glyph glyph-name="lcommaaccent" unicode="&#x13c;" horiz-adv-x="483" 
d="M250 -209q0 -90 -64 -177t-163 -142l-23 32q57 44 98 98t41 89q-1 35 -31 65t-30 56q0 24 28 50q29 26 67 26q37 0 57 -28q20 -26 20 -69zM262 121q0 -35 38 -35t79 18l-17 -63q-28 -23 -76 -40t-91 -17t-71 28t-28 70q0 41 17 106l274 1010q10 34 10 58t-19 40t-75 29
l8 37q207 0 279 12l6 -8l-324 -1190q-10 -37 -10 -55z" />
    <glyph glyph-name="Lcaron" unicode="&#x13d;" horiz-adv-x="993" 
d="M1059 1231q1 -90 -63 -177t-165 -143l-22 33q57 45 98 98q41 54 41 88t-30 64t-31 56q0 26 28 52q29 26 67 26t58 -28q20 -26 19 -69zM369 137q0 -57 171 -57q172 0 246 45t136 176h43q-53 -152 -93 -301h-841l12 41l129 43l283 1036q6 26 6 48t-24 38t-83 33l13 41
l202 -6q33 0 118 3t108 3l-13 -41l-129 -43l-280 -1032q-4 -16 -4 -27z" />
    <glyph glyph-name="lcaron" unicode="&#x13e;" horiz-adv-x="552" 
d="M721 1130q0 34 -31 64t-31 56t29 52t67 26q76 -1 76 -94t-63 -180t-164 -143l-22 33q57 45 98 98q41 54 41 88zM262 121q0 -35 38 -35t79 18l-17 -63q-28 -23 -76 -40t-91 -17t-71 28t-28 70q0 41 17 106l274 1010q10 34 10 58t-19 40t-75 29l8 37q207 0 279 12l6 -8
l-324 -1190q-10 -37 -10 -55z" />
    <glyph glyph-name="Ldot" unicode="&#x13f;" horiz-adv-x="993" 
d="M882 524q-96 0 -96 96q0 46 39 84q39 40 87 40t72 -26q24 -24 24 -70t-39 -85t-87 -39zM369 137q0 -57 171 -57q172 0 246 45t136 176h43q-53 -152 -93 -301h-841l12 41l129 43l283 1036q6 26 6 48t-24 38t-83 33l13 41l202 -6q33 0 118 3t108 3l-13 -41l-129 -43
l-280 -1032q-4 -16 -4 -27z" />
    <glyph glyph-name="ldot" unicode="&#x140;" horiz-adv-x="651" 
d="M656 791q96 0 96 -95q0 -46 -39 -86t-87 -39q-96 -1 -96 95q0 46 39 86t87 39zM262 121q0 -35 38 -35t79 18l-17 -63q-28 -23 -76 -40t-91 -17t-71 28t-28 70q0 41 17 106l274 1010q10 34 10 58t-19 40t-75 29l8 37q207 0 279 12l6 -8l-324 -1190q-10 -37 -10 -55z" />
    <glyph glyph-name="Lslash" unicode="&#x141;" horiz-adv-x="993" 
d="M367 137q1 -59 177 -59t245 41t133 182h43q-53 -152 -93 -301h-841l12 41l129 43l127 467l-160 -80l-35 76l226 112l125 461q6 26 6 48t-24 38t-83 33l13 41l202 -6q33 0 118 3t108 3l-13 -41l-129 -43l-118 -434l249 127l35 -76l-315 -158l-133 -491q-4 -16 -4 -27z" />
    <glyph glyph-name="lslash" unicode="&#x142;" horiz-adv-x="483" 
d="M262 121q0 -35 38 -35t79 18l-17 -63q-28 -23 -76 -40t-91 -17t-71 28t-28 70q0 41 17 106l123 451l-166 -80l-31 70l223 108l125 461q10 34 10 58t-19 40t-75 29l8 37q207 0 279 12l6 -8l-145 -537l161 80l31 -69l-219 -109l-152 -555q-10 -37 -10 -55z" />
    <glyph glyph-name="Nacute" unicode="&#x143;" horiz-adv-x="1380" 
d="M1190 1534l-2 -21l-383 -141l-14 25l286 200q31 21 46 21t28 -21zM291 112q-1 -22 23 -38t83 -33l-12 -41l-176 6q-31 0 -92 -3t-86 -3l12 41l129 43l283 1036q6 26 6 48t-24 38t-83 33l13 41h233l477 -975l223 815q6 26 6 48t-23 38q-24 16 -83 33l12 41l177 -6
q31 0 91 3t85 3l-13 -41l-129 -43l-329 -1204h-56l-503 1030l-238 -862q-6 -26 -6 -48z" />
    <glyph glyph-name="nacute" unicode="&#x144;" horiz-adv-x="1036" 
d="M910 1296q13 0 26 -14l57 -70l-2 -20l-383 -178l-14 24l278 238q25 20 38 20zM408 649q156 293 352 293q112 0 164 -55t53 -149q0 -94 -75 -344t-75 -279t30 -29t81 20l-16 -63q-96 -59 -154 -59q-110 0 -111 94q0 70 77 318t77 315q0 102 -96 102q-74 0 -159 -79
q-84 -80 -148 -208t-127 -356l-48 -170h-163l202 745q10 37 10 60t-18 39q-20 16 -76 28l9 37q205 0 274 13l6 -9l-74 -264h5z" />
    <glyph glyph-name="Ncommaaccent" unicode="&#x145;" horiz-adv-x="1380" 
d="M715 -209q1 -90 -63 -177t-165 -142l-22 32q57 44 98 98t41 89t-31 65q-56 55 -2 106q29 26 67 26t58 -28q20 -26 19 -69zM291 112q-1 -22 23 -38t83 -33l-12 -41l-176 6q-31 0 -92 -3t-86 -3l12 41l129 43l283 1036q6 26 6 48t-24 38t-83 33l13 41h233l477 -975l223 815
q6 26 6 48t-23 38q-24 16 -83 33l12 41l177 -6q31 0 91 3t85 3l-13 -41l-129 -43l-329 -1204h-56l-503 1030l-238 -862q-6 -26 -6 -48z" />
    <glyph glyph-name="ncommaaccent" unicode="&#x146;" horiz-adv-x="1036" 
d="M522 -206q0 -93 -63 -180t-164 -142l-23 32q56 44 98 98t42 89t-31 65t-31 56q0 24 29 50t67 25q76 0 76 -93zM408 649q156 293 352 293q112 0 164 -55t53 -149q0 -94 -75 -344t-75 -279t30 -29t81 20l-16 -63q-96 -59 -154 -59q-110 0 -111 94q0 70 77 318t77 315
q0 102 -96 102q-74 0 -159 -79q-84 -80 -148 -208t-127 -356l-48 -170h-163l202 745q10 37 10 60t-18 39q-20 16 -76 28l9 37q205 0 274 13l6 -9l-74 -264h5z" />
    <glyph glyph-name="Ncaron" unicode="&#x147;" horiz-adv-x="1380" 
d="M805 1622l26 14l162 -143l242 143l22 -20l-245 -238h-88zM291 112q-1 -22 23 -38t83 -33l-12 -41l-176 6q-31 0 -92 -3t-86 -3l12 41l129 43l283 1036q6 26 6 48t-24 38t-83 33l13 41h233l477 -975l223 815q6 26 6 48t-23 38q-24 16 -83 33l12 41l177 -6q31 0 91 3t85 3
l-13 -41l-129 -43l-329 -1204h-56l-503 1030l-238 -862q-6 -26 -6 -48z" />
    <glyph glyph-name="ncaron" unicode="&#x148;" horiz-adv-x="1036" 
d="M586 1300l32 11l142 -172l235 172l27 -19l-246 -264h-88zM408 649q156 293 352 293q112 0 164 -55t53 -149q0 -94 -75 -344t-75 -279t30 -29t81 20l-16 -63q-96 -59 -154 -59q-110 0 -111 94q0 70 77 318t77 315q0 102 -96 102q-74 0 -159 -79q-84 -80 -148 -208
t-127 -356l-48 -170h-163l202 745q10 37 10 60t-18 39q-20 16 -76 28l9 37q205 0 274 13l6 -9l-74 -264h5z" />
    <glyph glyph-name="napostrophe" unicode="&#x149;" horiz-adv-x="1136" 
d="M367 1206q0 -96 -69 -190t-177 -154l-23 33q62 49 106 109t44 96q0 38 -34 70t-34 59t30 55t72 27q42 0 64 -30t21 -75zM866 -16q-111 0 -108 94q0 70 76 318t77 315q0 102 -96 102q-74 0 -159 -79q-84 -80 -148 -208t-127 -356l-47 -170h-164l203 745q10 37 10 60
t-19 39t-75 28l8 37q203 0 274 13l7 -9l-74 -264h4q66 123 135 191q106 102 234 102q96 0 148 -55t52 -149q-1 -94 -75 -344t-74 -279t30 -29t80 20l-16 -63q-96 -59 -156 -59z" />
    <glyph glyph-name="Eng" unicode="&#x14a;" horiz-adv-x="1380" 
d="M758 -346q-84 0 -154 39q-16 10 -6 31l49 122l19 7q76 -41 140 -41t116 52q51 52 77 146l11 39l-475 973l-238 -862q-6 -26 -6 -48q-1 -22 23 -38t83 -33l-12 -41l-176 6q-31 0 -92 -3t-86 -3l12 41l129 43l283 1036q6 26 6 48t-24 38t-83 33l13 41h233l477 -975l223 815
q6 26 6 48t-23 38q-24 16 -83 33l12 41l177 -6q31 0 91 3t85 3l-13 -41l-129 -43l-323 -1182q-100 -360 -342 -360z" />
    <glyph glyph-name="eng" unicode="&#x14b;" horiz-adv-x="1032" 
d="M408 649q156 293 352 293q112 0 164 -55t53 -146q0 -91 -66 -331l-116 -428q-47 -170 -145 -256t-225 -86q-128 0 -200 49q-16 10 -6 28l70 144l18 2q41 -147 142 -148q106 0 155 181l150 548q57 211 57 267q0 102 -96 102q-74 0 -159 -79q-84 -80 -148 -208t-127 -356
l-48 -170h-163l202 745q10 37 10 60t-18 39q-20 16 -76 28l9 37q205 0 274 13l6 -9l-74 -264h5z" />
    <glyph glyph-name="Omacron" unicode="&#x14c;" horiz-adv-x="1249" 
d="M1128 1434h-434l27 94h434zM550 -31q-162 0 -265 118q-105 118 -105 292q-1 340 194 627q89 133 222 219t295 86t266 -118q105 -118 105 -292t-53 -334q-113 -351 -363 -512q-134 -86 -296 -86zM578 61q128 1 246 139t183 330t65 358q0 165 -57 248q-56 83 -151 83
q-129 -1 -247 -139q-119 -138 -183 -330t-64 -358q0 -165 58 -248q56 -83 150 -83z" />
    <glyph glyph-name="omacron" unicode="&#x14d;" horiz-adv-x="946" 
d="M872 1112h-434l27 94h434zM412 -31q-158 0 -239 92q-81 93 -81 237t60 286t181 251q121 107 273 107t233 -92t81 -250q0 -96 -37 -205q-86 -253 -261 -363q-99 -63 -210 -63zM422 57q74 0 137 68q104 112 158 361q20 97 20 167q0 201 -147 201q-74 0 -137 -68
q-108 -117 -158 -361q-20 -97 -21 -167q1 -201 148 -201z" />
    <glyph glyph-name="Obreve" unicode="&#x14e;" horiz-adv-x="1249" 
d="M891 1382q-94 0 -142 43t-49 117q0 33 11 64h45q-8 -57 31 -94q40 -36 111 -36t128 36q57 34 82 94h45q-27 -104 -97 -164t-165 -60zM550 -31q-162 0 -265 118q-105 118 -105 292q-1 340 194 627q89 133 222 219t295 86t266 -118q105 -118 105 -292t-53 -334
q-113 -351 -363 -512q-134 -86 -296 -86zM578 61q128 1 246 139t183 330t65 358q0 165 -57 248q-56 83 -151 83q-129 -1 -247 -139q-119 -138 -183 -330t-64 -358q0 -165 58 -248q56 -83 150 -83z" />
    <glyph glyph-name="obreve" unicode="&#x14f;" horiz-adv-x="946" 
d="M633 1047q-94 0 -143 43q-48 43 -48 116q0 33 11 74h45q-8 -63 32 -101t110 -38q71 0 130 38t80 101h45q-27 -109 -97 -171t-165 -62zM412 -31q-158 0 -239 92q-81 93 -81 237t60 286t181 251q121 107 273 107t233 -92t81 -250q0 -96 -37 -205q-86 -253 -261 -363
q-99 -63 -210 -63zM422 57q74 0 137 68q104 112 158 361q20 97 20 167q0 201 -147 201q-74 0 -137 -68q-108 -117 -158 -361q-20 -97 -21 -167q1 -201 148 -201z" />
    <glyph glyph-name="Ohungarumlaut" unicode="&#x150;" horiz-adv-x="1249" 
d="M1241 1565l-4 -19l-315 -155l-13 20l224 207q27 22 42 22t31 -22zM952 1565l-4 -19l-315 -155l-12 20l223 207q27 22 42 22t32 -22zM550 -31q-162 0 -265 118q-105 118 -105 292q-1 340 194 627q89 133 222 219t295 86t266 -118q105 -118 105 -292t-53 -334
q-113 -351 -363 -512q-134 -86 -296 -86zM578 61q128 1 246 139t183 330t65 358q0 165 -57 248q-56 83 -151 83q-129 -1 -247 -139q-119 -138 -183 -330t-64 -358q0 -165 58 -248q56 -83 150 -83z" />
    <glyph glyph-name="ohungarumlaut" unicode="&#x151;" horiz-adv-x="946" 
d="M700 1239l-4 -18l-311 -199l-16 20l221 250q36 40 63 6zM975 1239l-4 -18l-312 -199l-16 20l221 250q35 39 64 6zM412 -31q-158 0 -239 92q-81 93 -81 237t60 286t181 251q121 107 273 107t233 -92t81 -250q0 -96 -37 -205q-86 -253 -261 -363q-99 -63 -210 -63zM422 57
q74 0 137 68q104 112 158 361q20 97 20 167q0 201 -147 201q-74 0 -137 -68q-108 -117 -158 -361q-20 -97 -21 -167q1 -201 148 -201z" />
    <glyph glyph-name="OE" unicode="&#x152;" horiz-adv-x="1726" 
d="M598 59q109 0 180 66q53 47 86 168l193 711q16 57 16 94q0 123 -190 123q-155 0 -265 -131q-110 -130 -181 -350t-71 -378t62 -230q61 -73 170 -73zM569 -31q-190 0 -291 117q-102 118 -102 332t126 468t333 363q115 61 244 62q67 1 181 -15t171 -16h614
q-35 -125 -63 -303h-51q4 29 4 53q0 88 -37 123q-53 51 -238 51q-92 0 -170 -4l-137 -502h123q203 0 242 15l-37 -103q-41 12 -224 13h-127l-122 -457q-4 -16 -4 -27q0 -61 190 -61t252 41q63 41 133 182h43q-53 -152 -92 -301h-621q-69 0 -175 -16t-165 -15z" />
    <glyph glyph-name="oe" unicode="&#x153;" horiz-adv-x="1474" 
d="M1219 852q-95 0 -187 -121t-133 -280q184 29 295 121t111 194q-1 38 -23 62t-63 24zM422 57q74 0 137 68q104 112 158 361q20 97 20 167q0 201 -147 201q-74 0 -137 -68q-108 -117 -158 -361q-20 -97 -21 -167q1 -201 148 -201zM600 942q211 0 289 -184q162 182 358 182
q99 0 157 -45t58 -125q0 -158 -174 -268t-403 -131q-6 -39 -6 -76q0 -209 159 -209q78 0 159 54t140 124l41 -37q-61 -106 -174 -182t-229 -76q-176 0 -248 152q-137 -152 -305 -152t-249 92q-81 93 -81 237t60 286t181 250q122 108 267 108z" />
    <glyph glyph-name="Racute" unicode="&#x154;" horiz-adv-x="1198" 
d="M1053 1534l-2 -21l-383 -141l-15 25l287 200q31 21 46 21t28 -21zM573 635q197 0 307 106t109 254q0 93 -54 147t-210 54h-72l-153 -561h73zM778 1280q398 0 400 -293q0 -135 -98 -244t-249 -147q61 -39 84 -154l54 -258q12 -59 32 -82q19 -22 59 -22t77 18l-21 -61
q-72 -55 -146 -55t-112 40q-37 40 -57 136l-51 252q-20 94 -50 120t-110 27h-111l-108 -397q-6 -26 -6 -48q-1 -22 23 -38t83 -33l-12 -41l-207 6q-31 0 -114 -3t-107 -3l12 41l129 43l283 1036q6 26 6 48t-24 38t-83 33l13 41h411z" />
    <glyph glyph-name="racute" unicode="&#x155;" horiz-adv-x="739" 
d="M734 1296q13 0 26 -14l57 -70l-2 -20l-383 -178l-14 24l278 238q25 20 38 20zM854 877q0 -31 -30 -67t-50 -36q-22 0 -49 12t-45 13q-98 -1 -204 -157t-193 -466l-50 -176h-163l202 745q10 37 10 60t-18 39q-20 16 -76 28l9 37q205 0 274 13l6 -9l-74 -266h5
q162 295 350 295q96 0 96 -65z" />
    <glyph glyph-name="Rcommaaccent" unicode="&#x156;" horiz-adv-x="1198" 
d="M653 -206q0 -93 -63 -180t-164 -142l-23 32q57 44 99 98t41 89q0 35 -31 65t-31 56q0 24 29 50t68 25q75 0 75 -93zM573 635q197 0 307 106t109 254q0 93 -54 147t-210 54h-72l-153 -561h73zM778 1280q398 0 400 -293q0 -135 -98 -244t-249 -147q61 -39 84 -154l54 -258
q12 -59 32 -82q19 -22 59 -22t77 18l-21 -61q-72 -55 -146 -55t-112 40q-37 40 -57 136l-51 252q-20 94 -50 120t-110 27h-111l-108 -397q-6 -26 -6 -48q-1 -22 23 -38t83 -33l-12 -41l-207 6q-31 0 -114 -3t-107 -3l12 41l129 43l283 1036q6 26 6 48t-24 38t-83 33l13 41
h411z" />
    <glyph glyph-name="rcommaaccent" unicode="&#x157;" horiz-adv-x="739" 
d="M199 -209q1 -90 -63 -177t-165 -142l-22 32q57 44 98 98t41 89t-31 65q-56 55 -2 106q29 26 67 26t58 -28q20 -26 19 -69zM854 877q0 -31 -30 -67t-50 -36q-22 0 -49 12t-45 13q-98 -1 -204 -157t-193 -466l-50 -176h-163l202 745q10 37 10 60t-18 39q-20 16 -76 28l9 37
q205 0 274 13l6 -9l-74 -266h5q162 295 350 295q96 0 96 -65z" />
    <glyph glyph-name="Rcaron" unicode="&#x158;" horiz-adv-x="1198" 
d="M670 1622l26 14l162 -143l242 143l22 -20l-245 -238h-89zM573 635q197 0 307 106t109 254q0 93 -54 147t-210 54h-72l-153 -561h73zM778 1280q398 0 400 -293q0 -135 -98 -244t-249 -147q61 -39 84 -154l54 -258q12 -59 32 -82q19 -22 59 -22t77 18l-21 -61
q-72 -55 -146 -55t-112 40q-37 40 -57 136l-51 252q-20 94 -50 120t-110 27h-111l-108 -397q-6 -26 -6 -48q-1 -22 23 -38t83 -33l-12 -41l-207 6q-31 0 -114 -3t-107 -3l12 41l129 43l283 1036q6 26 6 48t-24 38t-83 33l13 41h411z" />
    <glyph glyph-name="rcaron" unicode="&#x159;" horiz-adv-x="739" 
d="M438 1300l33 11l141 -172l236 172l26 -19l-245 -264h-88zM854 877q0 -31 -30 -67t-50 -36q-22 0 -49 12t-45 13q-98 -1 -204 -157t-193 -466l-50 -176h-163l202 745q10 37 10 60t-18 39q-20 16 -76 28l9 37q205 0 274 13l6 -9l-74 -266h5q162 295 350 295q96 0 96 -65z
" />
    <glyph glyph-name="Sacute" unicode="&#x15a;" horiz-adv-x="1013" 
d="M1034 1534l-2 -21l-383 -141l-14 25l287 200q31 21 46 21t27 -21zM991 977q0 248 -215 248q-120 0 -196 -71t-76 -180t142 -231q58 -49 118 -100t101 -122q42 -71 42 -150q0 -186 -135 -294q-134 -108 -332 -108t-340 76q51 168 76 279h41q-2 -10 -2 -39q0 -113 65 -172
t177 -59t194 74q82 75 82 197t-142 239q-57 48 -117 98q-144 119 -144 277q0 159 127 265t334 107q82 -1 307 -56q-37 -113 -66 -278h-41z" />
    <glyph glyph-name="sacute" unicode="&#x15b;" horiz-adv-x="813" 
d="M738 1296q13 0 26 -14l57 -70l-2 -20l-383 -178l-14 24l278 238q25 20 38 20zM332 55q90 0 156 47q66 48 67 106q0 58 -55 105t-123 81t-123 98t-55 143q0 127 106 217t260 90q84 0 266 -49q-33 -100 -51 -197h-28q-35 160 -195 160q-90 0 -145 -46q-56 -46 -56 -102
t56 -105q56 -48 124 -83q66 -35 122 -98t57 -141q0 -131 -115 -221q-116 -90 -272 -91q-156 0 -289 51q43 123 57 211h31q19 -176 205 -176z" />
    <glyph glyph-name="Scircumflex" unicode="&#x15c;" horiz-adv-x="1013" 
d="M1040 1384l-26 -14l-162 143l-242 -143l-22 21l246 237h88zM991 977q0 248 -215 248q-120 0 -196 -71t-76 -180t142 -231q58 -49 118 -100t101 -122q42 -71 42 -150q0 -186 -135 -294q-134 -108 -332 -108t-340 76q51 168 76 279h41q-2 -10 -2 -39q0 -113 65 -172
t177 -59t194 74q82 75 82 197t-142 239q-57 48 -117 98q-144 119 -144 277q0 159 127 265t334 107q82 -1 307 -56q-37 -113 -66 -278h-41z" />
    <glyph glyph-name="scircumflex" unicode="&#x15d;" horiz-adv-x="813" 
d="M811 1038l-33 -10l-141 172l-236 -172l-26 19l246 264h88zM332 55q90 0 156 47q66 48 67 106q0 58 -55 105t-123 81t-123 98t-55 143q0 127 106 217t260 90q84 0 266 -49q-33 -100 -51 -197h-28q-35 160 -195 160q-90 0 -145 -46q-56 -46 -56 -102t56 -105
q56 -48 124 -83q66 -35 122 -98t57 -141q0 -131 -115 -221q-116 -90 -272 -91q-156 0 -289 51q43 123 57 211h31q19 -176 205 -176z" />
    <glyph glyph-name="Scedilla" unicode="&#x15e;" horiz-adv-x="1013" 
d="M776 1225q-120 0 -196 -71t-76 -180t143 -231q59 -49 119 -99t101 -121q42 -71 42 -152q0 -172 -118 -278q-119 -105 -308 -122l-45 -84q150 -10 150 -129q0 -76 -87 -146t-249 -79l-8 43q98 14 162 64t63 100q0 49 -23 63q-6 5 -9 7t-21 8t-34 8t-24 5t-15 13t5 27
l55 98q-178 6 -303 76q51 168 76 279h41q-2 -10 -2 -39q0 -113 65 -172t177 -59t194 74q82 75 82 198t-143 237q-59 47 -119 96q-59 49 -101 120t-42 155q0 164 128 270t335 107q100 0 307 -56q-37 -113 -66 -278h-41q0 248 -215 248z" />
    <glyph glyph-name="scedilla" unicode="&#x15f;" horiz-adv-x="813" 
d="M344 -248q0 36 -22 51q-6 5 -10 7t-21 8t-33 8t-24 5t-16 13q-7 10 5 27l56 100q-121 6 -240 49q43 123 57 211h31q18 -176 205 -176q90 0 156 47q66 48 67 106q0 58 -55 105t-123 81t-123 98t-55 143q0 127 106 217q105 90 243 90t283 -51q-35 -102 -51 -195h-28
q-35 160 -195 160q-90 0 -145 -46q-56 -46 -56 -102t56 -105q56 -48 124 -83q66 -35 122 -98t57 -141q1 -121 -99 -208t-258 -102l-45 -84q150 -10 150 -129q0 -76 -87 -146t-249 -79l-8 43q97 14 161 64t64 112z" />
    <glyph glyph-name="Scaron" unicode="&#x160;" horiz-adv-x="1013" 
d="M637 1622l27 14l161 -143l242 143l23 -20l-246 -238h-88zM991 977q0 248 -215 248q-120 0 -196 -71t-76 -180t142 -231q58 -49 118 -100t101 -122q42 -71 42 -150q0 -186 -135 -294q-134 -108 -332 -108t-340 76q51 168 76 279h41q-2 -10 -2 -39q0 -113 65 -172t177 -59
t194 74q82 75 82 197t-142 239q-57 48 -117 98q-144 119 -144 277q0 159 127 265t334 107q82 -1 307 -56q-37 -113 -66 -278h-41z" />
    <glyph glyph-name="scaron" unicode="&#x161;" horiz-adv-x="813" 
d="M438 1300l33 11l141 -172l236 172l26 -19l-245 -264h-88zM332 55q90 0 156 47q66 48 67 106q0 58 -55 105t-123 81t-123 98t-55 143q0 127 106 217t260 90q84 0 266 -49q-33 -100 -51 -197h-28q-35 160 -195 160q-90 0 -145 -46q-56 -46 -56 -102t56 -105q56 -48 124 -83
q66 -35 122 -98t57 -141q0 -131 -115 -221q-116 -90 -272 -91q-156 0 -289 51q43 123 57 211h31q19 -176 205 -176z" />
    <glyph glyph-name="Tcommaaccent" unicode="&#x162;" horiz-adv-x="1099" 
d="M537 -209q1 -90 -63 -177t-165 -142l-22 32q57 44 98 98t41 89t-31 65q-56 55 -2 106q29 26 67 26t58 -28q20 -26 19 -69zM1202 977q0 90 -4 119t-18 55q-31 51 -191 51h-94l-285 -1042q-6 -26 -6 -48t25 -38t86 -33l-13 -41l-215 6q-31 0 -111 -3t-106 -3l13 41l129 43
l305 1118h-96q-156 0 -209 -47t-127 -178h-47q11 41 98 303h983q-33 -129 -70 -303h-47z" />
    <glyph glyph-name="tcommaaccent" unicode="&#x163;" horiz-adv-x="638" 
d="M346 -206q0 -93 -63 -180t-164 -142l-23 32q56 44 98 98t42 89t-31 65t-31 56q0 24 29 50t67 25q76 0 76 -93zM283 -31q-76 0 -122 43t-46 121q0 41 16 103l164 600h-133l20 73h131l49 176l177 80l6 -8l-68 -248h228l-37 -73h-209l-168 -615q-12 -49 -12 -74
q0 -74 81 -74t179 72l30 -47q-129 -129 -286 -129z" />
    <glyph glyph-name="Tcaron" unicode="&#x164;" horiz-adv-x="1099" 
d="M676 1622l26 14l162 -143l242 143l22 -20l-245 -238h-88zM1202 977q0 90 -4 119t-18 55q-31 51 -191 51h-94l-285 -1042q-6 -26 -6 -48t25 -38t86 -33l-13 -41l-215 6q-31 0 -111 -3t-106 -3l13 41l129 43l305 1118h-96q-156 0 -209 -47t-127 -178h-47q11 41 98 303h983
q-33 -129 -70 -303h-47z" />
    <glyph glyph-name="tcaron" unicode="&#x165;" horiz-adv-x="638" 
d="M856 1332q0 -93 -63 -180t-164 -142l-23 32q56 44 98 98t42 88t-32 64q-30 30 -30 56t29 52t67 25q76 0 76 -93zM283 -31q-76 0 -122 43t-46 121q0 41 16 103l164 600h-133l20 73h131l49 176l177 80l6 -8l-68 -248h228l-37 -73h-209l-168 -615q-12 -49 -12 -74
q0 -74 81 -74t179 72l30 -47q-129 -129 -286 -129z" />
    <glyph glyph-name="Tbar" unicode="&#x166;" horiz-adv-x="1099" 
d="M1202 977q0 90 -4 119t-18 55q-31 51 -191 51h-94l-137 -502h219l-25 -88h-219l-123 -452q-6 -26 -6 -48t25 -38t86 -33l-13 -41l-215 6q-31 0 -111 -3t-106 -3l13 41l129 43l143 528h-219l24 88h220l137 502h-96q-156 0 -209 -47t-127 -178h-47q11 41 98 303h983
q-33 -129 -70 -303h-47z" />
    <glyph glyph-name="tbar" unicode="&#x167;" horiz-adv-x="638" 
d="M281 -31q-74 0 -120 42t-46 122q0 39 16 103l57 215h-139l21 71h139l86 314h-133l20 73h131l49 176l177 80l6 -8l-68 -248h228l-37 -73h-209l-86 -314h188l-20 -71h-189l-65 -244q-8 -33 -8 -62t20 -51t57 -20q89 -1 183 71l30 -47q-125 -129 -288 -129z" />
    <glyph glyph-name="Utilde" unicode="&#x168;" horiz-adv-x="1329" 
d="M934 1616q39 0 102 -38t99 -38q66 0 106 66l35 -7q-70 -180 -189 -180q-39 0 -102 38t-98 38q-66 1 -107 -65l-35 6q70 180 189 180zM610 -31q-176 0 -275 88t-99 240q0 76 36 211l166 612q6 26 6 48t-23 38q-24 16 -83 33l12 41l207 -6q31 0 114 3t107 3l-12 -41
l-127 -43l-188 -690q-35 -122 -35 -220t64 -160t175 -63q163 1 265 111t163 338l166 608q6 26 6 48t-23 38q-24 16 -83 33l12 41l176 -6q31 0 91 3t85 3l-12 -41l-129 -43l-182 -674q-80 -299 -217 -426t-363 -127z" />
    <glyph glyph-name="utilde" unicode="&#x169;" horiz-adv-x="1026" 
d="M776 1083q-39 0 -102 38t-99 38q-63 0 -108 -74l-35 7q74 188 191 188q39 0 102 -38t98 -38q63 0 109 74l35 -6q-74 -189 -191 -189zM752 -16q-49 0 -77 30t-28 90t33 140h-4q-53 -102 -129 -174q-104 -100 -215 -100t-161 54t-50 140t49 258l90 323q10 37 10 60t-19 38
t-69 29l8 37q203 0 273 13l6 -9l-156 -561q-29 -100 -28 -151q0 -102 92 -103q74 0 158 78q83 78 147 207t127 356l47 170h162l-199 -733q-10 -37 -10 -55q0 -35 38 -35t79 18l-17 -63q-70 -57 -157 -57z" />
    <glyph glyph-name="Umacron" unicode="&#x16a;" horiz-adv-x="1329" 
d="M1219 1434h-435l27 94h434zM610 -31q-176 0 -275 88t-99 240q0 76 36 211l166 612q6 26 6 48t-23 38q-24 16 -83 33l12 41l207 -6q31 0 114 3t107 3l-12 -41l-127 -43l-188 -690q-35 -122 -35 -220t64 -160t175 -63q163 1 265 111t163 338l166 608q6 26 6 48t-23 38
q-24 16 -83 33l12 41l176 -6q31 0 91 3t85 3l-12 -41l-129 -43l-182 -674q-80 -299 -217 -426t-363 -127z" />
    <glyph glyph-name="umacron" unicode="&#x16b;" horiz-adv-x="1026" 
d="M893 1112h-434l26 94h435zM752 -16q-49 0 -77 30t-28 90t33 140h-4q-53 -102 -129 -174q-104 -100 -215 -100t-161 54t-50 140t49 258l90 323q10 37 10 60t-19 38t-69 29l8 37q203 0 273 13l6 -9l-156 -561q-29 -100 -28 -151q0 -102 92 -103q74 0 158 78q83 78 147 207
t127 356l47 170h162l-199 -733q-10 -37 -10 -55q0 -35 38 -35t79 18l-17 -63q-70 -57 -157 -57z" />
    <glyph glyph-name="Ubreve" unicode="&#x16c;" horiz-adv-x="1329" 
d="M997 1382q-94 0 -142 43t-48 117q0 33 10 64h45q-8 -58 32 -94t111 -36t128 36q57 34 81 94h46q-27 -104 -98 -164t-165 -60zM610 -31q-176 0 -275 88t-99 240q0 76 36 211l166 612q6 26 6 48t-23 38q-24 16 -83 33l12 41l207 -6q31 0 114 3t107 3l-12 -41l-127 -43
l-188 -690q-35 -122 -35 -220t64 -160t175 -63q163 1 265 111t163 338l166 608q6 26 6 48t-23 38q-24 16 -83 33l12 41l176 -6q31 0 91 3t85 3l-12 -41l-129 -43l-182 -674q-80 -299 -217 -426t-363 -127z" />
    <glyph glyph-name="ubreve" unicode="&#x16d;" horiz-adv-x="1026" 
d="M682 1047q-94 0 -142 43t-48 116q0 33 10 74h45q-8 -63 32 -101q41 -38 111 -38t129 38t80 101h45q-28 -109 -98 -171t-164 -62zM752 -16q-49 0 -77 30t-28 90t33 140h-4q-53 -102 -129 -174q-104 -100 -215 -100t-161 54t-50 140t49 258l90 323q10 37 10 60t-19 38
t-69 29l8 37q203 0 273 13l6 -9l-156 -561q-29 -100 -28 -151q0 -102 92 -103q74 0 158 78q83 78 147 207t127 356l47 170h162l-199 -733q-10 -37 -10 -55q0 -35 38 -35t79 18l-17 -63q-70 -57 -157 -57z" />
    <glyph glyph-name="Uring" unicode="&#x16e;" horiz-adv-x="1329" 
d="M1200 1560q0 -70 -56 -130q-56 -62 -130 -62t-111 38t-37 108t56 130q56 62 130 62t111 -38t37 -108zM946 1516q0 -80 64 -80q47 0 79 40q31 40 31 82q-1 80 -63 80q-47 0 -79 -40t-32 -82zM610 -31q-176 0 -275 88t-99 240q0 76 36 211l166 612q6 26 6 48t-23 38
q-24 16 -83 33l12 41l207 -6q31 0 114 3t107 3l-12 -41l-127 -43l-188 -690q-35 -122 -35 -220t64 -160t175 -63q163 1 265 111t163 338l166 608q6 26 6 48t-23 38q-24 16 -83 33l12 41l176 -6q31 0 91 3t85 3l-12 -41l-129 -43l-182 -674q-80 -299 -217 -426t-363 -127z
" />
    <glyph glyph-name="uring" unicode="&#x16f;" horiz-adv-x="1026" 
d="M724 1380q74 0 111 -38t37 -108t-56 -130q-56 -62 -130 -62t-111 38t-37 108t57 131q55 61 129 61zM618 1191q0 -81 64 -81q47 0 79 40t32 82q0 79 -64 81q-47 0 -79 -40t-32 -82zM752 -16q-49 0 -77 30t-28 90t33 140h-4q-53 -102 -129 -174q-104 -100 -215 -100
t-161 54t-50 140t49 258l90 323q10 37 10 60t-19 38t-69 29l8 37q203 0 273 13l6 -9l-156 -561q-29 -100 -28 -151q0 -102 92 -103q74 0 158 78q83 78 147 207t127 356l47 170h162l-199 -733q-10 -37 -10 -55q0 -35 38 -35t79 18l-17 -63q-70 -57 -157 -57z" />
    <glyph glyph-name="Uhungarumlaut" unicode="&#x170;" horiz-adv-x="1329" 
d="M1315 1565l-4 -19l-316 -155l-12 20l223 207q27 22 42 22t32 -22zM1026 1565l-4 -19l-315 -155l-13 20l224 207q28 22 42 22t31 -22zM610 -31q-176 0 -275 88t-99 240q0 76 36 211l166 612q6 26 6 48t-23 38q-24 16 -83 33l12 41l207 -6q31 0 114 3t107 3l-12 -41
l-127 -43l-188 -690q-35 -122 -35 -220t64 -160t175 -63q163 1 265 111t163 338l166 608q6 26 6 48t-23 38q-24 16 -83 33l12 41l176 -6q31 0 91 3t85 3l-12 -41l-129 -43l-182 -674q-80 -299 -217 -426t-363 -127z" />
    <glyph glyph-name="uhungarumlaut" unicode="&#x171;" horiz-adv-x="1026" 
d="M735 1239l-4 -18l-311 -199l-17 20l222 250q36 40 63 6zM1010 1239l-4 -18l-312 -199l-16 20l221 250q35 39 64 6zM752 -16q-49 0 -77 30t-28 90t33 140h-4q-53 -102 -129 -174q-104 -100 -215 -100t-161 54t-50 140t49 258l90 323q10 37 10 60t-19 38t-69 29l8 37
q203 0 273 13l6 -9l-156 -561q-29 -100 -28 -151q0 -102 92 -103q74 0 158 78q83 78 147 207t127 356l47 170h162l-199 -733q-10 -37 -10 -55q0 -35 38 -35t79 18l-17 -63q-70 -57 -157 -57z" />
    <glyph glyph-name="Uogonek" unicode="&#x172;" horiz-adv-x="1329" 
d="M580 -280q0 -62 30 -94t84 -32t99 21l16 -45q-59 -35 -155 -35t-155 47q-60 47 -61 129q0 156 213 260q-12 -2 -41 -2q-176 0 -275 88t-99 240q0 76 36 211l166 612q6 26 6 48t-23 38q-24 16 -83 33l12 41l207 -6q31 0 114 3t107 3l-12 -41l-127 -43l-188 -690
q-35 -122 -35 -220t64 -160t175 -63q163 1 265 111t163 338l166 608q6 26 6 48t-23 38q-24 16 -83 33l12 41l176 -6q31 0 91 3t85 3l-12 -41l-129 -43l-182 -674q-80 -299 -215 -424q-45 -41 -124 -88t-133 -79t-96 -90q-42 -59 -42 -121z" />
    <glyph glyph-name="uogonek" unicode="&#x173;" horiz-adv-x="1026" 
d="M121 164q0 86 49 258l90 323q10 37 10 60t-19 38t-69 29l8 37q203 0 273 13l6 -9l-156 -561q-29 -100 -28 -151q0 -102 92 -103q74 0 158 78q83 78 147 207t127 356l47 170h162l-199 -733q-10 -37 -10 -55q0 -35 38 -35t79 18l-17 -63q-161 -82 -239 -156t-78 -174
q0 -53 31 -85t84 -32t98 21l16 -45q-59 -35 -152 -35t-156 49q-62 49 -62 137q0 154 258 271q-61 24 -61 98t32 154h-4q-53 -102 -129 -174q-104 -100 -215 -100t-161 54t-50 140z" />
    <glyph glyph-name="Wcircumflex" unicode="&#x174;" horiz-adv-x="1732" 
d="M1350 1384l-27 -14l-162 143l-241 -143l-23 21l246 237h88zM420 1274q100 0 223 6l-12 -41l-115 -27l64 -929l430 704l-6 143q-2 52 -27 72t-90 37l12 41q85 -6 181 -6t218 6l-12 -41l-115 -27l52 -915l530 913l-117 29l11 41q139 -6 173 -6t102 3t85 3l-12 -41
q-88 -12 -124 -36t-75 -89l-645 -1120h-78l-49 856l-522 -856h-76l-78 1136q-4 52 -29 72t-98 37l12 41q87 -6 187 -6z" />
    <glyph glyph-name="wcircumflex" unicode="&#x175;" horiz-adv-x="1325" 
d="M1038 1038l-32 -10l-142 172l-235 -172l-27 19l246 264h88zM711 -16l-2 542q-47 -125 -165 -273t-257 -269h-68l-2 755q0 67 -18 89t-97 44l11 37q207 0 264 11l6 -9l-4 -733q336 352 348 733l145 -2l-4 -739q334 340 359 748l168 -15q-19 -163 -197 -443t-420 -476h-67z
" />
    <glyph glyph-name="Ycircumflex" unicode="&#x176;" horiz-adv-x="1095" 
d="M1073 1384l-26 -14l-162 143l-242 -143l-22 21l245 237h88zM436 1274q96 0 219 6l-12 -41l-102 -27l143 -608l442 606l-100 31l12 39q127 -6 162 -6t92 3t76 3l-10 -41q-80 -10 -117 -34t-86 -91l-444 -610l-95 -344q-6 -26 -6 -48t24 -38t83 -33l-12 -41l-207 6
q-31 0 -114 -3t-108 -3l13 41l129 43l114 420l-141 610q-14 61 -45 85t-104 40l12 41q86 -6 182 -6z" />
    <glyph glyph-name="ycircumflex" unicode="&#x177;" horiz-adv-x="1005" 
d="M891 1038l-33 -10l-141 172l-236 -172l-26 19l245 264h88zM315 -31q-94 1 -144 55t-50 140t49 258l90 323q10 37 10 60t-19 38t-69 29l8 37q203 0 273 13l6 -9l-156 -561q-29 -100 -28 -151q0 -102 92 -103q74 0 158 78q83 78 147 207t127 356l47 170h162l-207 -759
q-78 -286 -225 -430t-428 -193l-13 45q197 51 310 173t172 331l43 151h-4q-146 -258 -351 -258z" />
    <glyph glyph-name="Ydieresis" unicode="&#x178;" horiz-adv-x="1095" 
d="M1008 1411q-76 0 -76 77q0 38 32 70t70 32t58 -21q20 -20 20 -57t-33 -69t-71 -32zM827 1512q-1 -37 -33 -69t-70 -32q-38 -1 -57 19t-19 58t31 70q32 32 70 32t58 -21q20 -20 20 -57zM436 1274q96 0 219 6l-12 -41l-102 -27l143 -608l442 606l-100 31l12 39
q127 -6 162 -6t92 3t76 3l-10 -41q-80 -10 -117 -34t-86 -91l-444 -610l-95 -344q-6 -26 -6 -48t24 -38t83 -33l-12 -41l-207 6q-31 0 -114 -3t-108 -3l13 41l129 43l114 420l-141 610q-14 61 -45 85t-104 40l12 41q86 -6 182 -6z" />
    <glyph glyph-name="Zacute" unicode="&#x179;" horiz-adv-x="1087" 
d="M1063 1534l-2 -21l-383 -141l-14 25l286 200q31 21 46 21t28 -21zM631 78q133 0 203 65q45 41 100 158h55q-55 -150 -96 -301h-825l-23 45q356 449 959 1157h-480l-149 -215h-51q33 88 90 293h794l23 -45q-319 -401 -961 -1157h361z" />
    <glyph glyph-name="zacute" unicode="&#x17a;" horiz-adv-x="872" 
d="M779 1296q13 0 26 -14l57 -70l-2 -20l-383 -178l-14 24l278 238q25 20 38 20zM565 840q-123 0 -191 -45t-118 -131h-37q43 133 68 245h639l10 -14q-111 -186 -709 -825h189q122 0 190 45t119 131h37q-43 -133 -68 -246h-667l-11 14q111 186 709 826h-160z" />
    <glyph glyph-name="Zdotaccent" unicode="&#x17b;" horiz-adv-x="1087" 
d="M846 1395q-98 0 -96 95q0 46 38 85t86 39q96 0 97 -95q0 -46 -39 -85t-86 -39zM631 78q133 0 203 65q45 41 100 158h55q-55 -150 -96 -301h-825l-23 45q356 449 959 1157h-480l-149 -215h-51q33 88 90 293h794l23 -45q-319 -401 -961 -1157h361z" />
    <glyph glyph-name="zdotaccent" unicode="&#x17c;" horiz-adv-x="872" 
d="M641 1055q-99 0 -97 95q0 46 40 85q39 39 86 39q96 0 96 -95q0 -46 -39 -85t-86 -39zM565 840q-123 0 -191 -45t-118 -131h-37q43 133 68 245h639l10 -14q-111 -186 -709 -825h189q122 0 190 45t119 131h37q-43 -133 -68 -246h-667l-11 14q111 186 709 826h-160z" />
    <glyph glyph-name="Zcaron" unicode="&#x17d;" horiz-adv-x="1087" 
d="M657 1622l27 14l162 -143l241 143l23 -20l-246 -238h-88zM631 78q133 0 203 65q45 41 100 158h55q-55 -150 -96 -301h-825l-23 45q356 449 959 1157h-480l-149 -215h-51q33 88 90 293h794l23 -45q-319 -401 -961 -1157h361z" />
    <glyph glyph-name="zcaron" unicode="&#x17e;" horiz-adv-x="872" 
d="M475 1300l33 11l141 -172l236 172l26 -19l-245 -264h-88zM565 840q-123 0 -191 -45t-118 -131h-37q43 133 68 245h639l10 -14q-111 -186 -709 -825h189q122 0 190 45t119 131h37q-43 -133 -68 -246h-667l-11 14q111 186 709 826h-160z" />
    <glyph glyph-name="longs" unicode="&#x17f;" horiz-adv-x="501" 
d="M952 1297q0 -37 -34 -69t-70 -32q-35 0 -57 51t-39 64q-16 12 -39 12q-119 0 -203 -313l-395 -1461h-164l348 1287h-131l18 73h133l15 54q59 221 169 325t279 105q72 0 121 -29t49 -67z" />
    <glyph glyph-name="florin" unicode="&#x192;" horiz-adv-x="1007" 
d="M-216 -346q104 0 194 102q91 102 184 316l262 606h-180l59 84h152q242 549 569 549q80 0 137 -28t57 -66q0 -37 -30 -67q-31 -30 -61 -30q-50 0 -70 58t-72 57q-70 0 -163 -119t-193 -354h217l-60 -84h-192l-229 -555q-227 -549 -568 -549q-153 0 -225 123l51 49
q57 -92 161 -92z" />
    <glyph glyph-name="Acaron" unicode="&#x1cd;" horiz-adv-x="1273" 
d="M770 1622l27 14l161 -143l242 143l23 -20l-246 -238h-88zM805 952q0 44 2 62q-33 -68 -127 -221l-156 -254h314l-23 256q-10 113 -10 157zM1174 0l-216 6q-30 0 -112 -3t-107 -3l13 41l129 41l-33 377h-373l-196 -307q-20 -31 -21 -50q0 -29 49 -43l68 -18l-13 -41
l-186 6q-32 0 -106 -3t-99 -3l13 41l141 41l760 1198h63l107 -1124q4 -46 18 -66t51 -31l62 -18z" />
    <glyph glyph-name="acaron" unicode="&#x1ce;" horiz-adv-x="993" 
d="M553 1300l33 11l141 -172l236 172l26 -19l-246 -264h-88zM657 852q-151 0 -267 -195t-116 -383q0 -92 34 -142t91 -50q113 0 207 145q70 106 119 299l68 250q-39 76 -136 76zM347 -31q-119 0 -187 82t-68 217q0 136 68 278t174 247q154 150 332 149q102 0 188 -70l49 70
l82 -24l4 -9l-198 -733q-10 -37 -11 -55q0 -35 38 -35t79 18l-16 -63q-27 -23 -76 -40t-92 -17t-71 26t-28 61q0 36 9 66h-5q-20 -37 -51 -67q-100 -101 -220 -101z" />
    <glyph glyph-name="Aringacute" unicode="&#x1fa;" horiz-adv-x="1273" 
d="M995 1681q74 0 111 -38q37 -37 37 -107q-1 -70 -57 -131t-130 -61t-110 37q-37 38 -37 108t56 131t130 61zM1063 1542q0 70 -64 72q-47 0 -79 -40t-31 -82q0 -79 63 -81q47 0 79 40t32 91zM805 952q0 44 2 62q-33 -68 -127 -221l-156 -254h314l-23 256q-10 113 -10 157z
M1174 0l-216 6q-30 0 -112 -3t-107 -3l13 41l129 41l-33 377h-373l-196 -307q-20 -31 -21 -50q0 -29 49 -43l68 -18l-13 -41l-186 6q-32 0 -106 -3t-99 -3l13 41l141 41l760 1198h63l107 -1124q4 -46 18 -66t51 -31l62 -18zM1260 1909l-3 -21l-383 -178l-14 25l279 237
q25 20 38 20t25 -14z" />
    <glyph glyph-name="aringacute" unicode="&#x1fb;" horiz-adv-x="993" 
d="M1032 1565l-2 -21l-383 -178l-14 25l278 237q25 20 38 20t26 -14zM903 1192q0 -70 -56 -131q-55 -61 -129 -61t-112 37q-37 38 -37 108q1 70 57 131t130 61t110 -38q37 -37 37 -107zM649 1148q0 -81 64 -81q47 0 79 40t32 82q-1 79 -64 81q-47 0 -79 -40t-32 -82z
M657 852q-151 0 -267 -195t-116 -383q0 -92 34 -142t91 -50q113 0 207 145q70 106 119 299l68 250q-39 76 -136 76zM347 -31q-119 0 -187 82t-68 217q0 136 68 278t174 247q154 150 332 149q102 0 188 -70l49 70l82 -24l4 -9l-198 -733q-10 -37 -11 -55q0 -35 38 -35t79 18
l-16 -63q-27 -23 -76 -40t-92 -17t-71 26t-28 61q0 36 9 66h-5q-20 -37 -51 -67q-100 -101 -220 -101z" />
    <glyph glyph-name="AEacute" unicode="&#x1fc;" horiz-adv-x="1849" 
d="M1761 1534l-2 -21l-383 -141l-14 25l287 200q31 21 46 21t27 -21zM1227 1169l-436 -471h307zM1106 1186q0 41 -117 53l12 41h967q-35 -125 -63 -303h-52q4 29 5 53q0 88 -37 123q-53 51 -238 51q-92 0 -170 -4l-137 -502h123q203 0 241 15l-36 -103q-41 12 -224 13h-127
l-123 -457q-4 -16 -4 -27q0 -61 190 -61t253 41t133 182h43q-53 -152 -92 -301h-865l13 41l129 43l147 539h-356l-434 -471q-29 -33 -29 -54q0 -27 51 -41l56 -16l-13 -41l-192 6q-31 0 -104 -3t-97 -3l12 41l133 41l986 1069q16 20 16 35z" />
    <glyph glyph-name="aeacute" unicode="&#x1fd;" horiz-adv-x="1353" 
d="M1052 1296q13 0 25 -14l58 -70l-2 -20l-383 -178l-15 24l279 238q25 20 38 20zM1188 766q0 88 -82 88q-129 0 -228 -172t-100 -387q0 -27 2 -39q408 281 408 510zM670 862q-111 0 -205 -100t-143 -234t-50 -256q0 -188 136 -188q80 0 206 70q-18 55 -18 122q0 142 57 276
t150 232q-57 78 -133 78zM354 -31q-126 0 -194 78t-68 217q0 262 175 470t409 208q137 0 242 -63q102 63 202 63t156 -47t55 -123q0 -268 -534 -594q39 -92 141 -92q152 0 297 174l41 -37q-61 -106 -173 -180t-229 -74q-152 0 -227 113q-168 -113 -293 -113z" />
    <glyph glyph-name="Oslashacute" unicode="&#x1fe;" horiz-adv-x="1249" 
d="M1124 1534l-2 -21l-383 -141l-14 25l287 200q31 21 46 21t27 -21zM864 1219q-129 -1 -247 -139t-182 -330t-64 -340t35 -228l575 992q-51 45 -117 45zM578 61q128 1 246 139t183 330t65 342q0 148 -40 230l-575 -996q47 -45 121 -45zM565 -31q-92 0 -168 35l-92 -160h-94
l117 201q-147 115 -148 356q0 152 52 312t142 293t222 219q133 86 281 86q88 0 163 -33l93 158h94l-117 -201q152 -117 152 -356q0 -152 -52 -312q-115 -352 -364 -512q-134 -86 -281 -86z" />
    <glyph glyph-name="oslashacute" unicode="&#x1ff;" horiz-adv-x="946" 
d="M779 1296q13 0 26 -14l57 -70l-2 -20l-383 -178l-14 24l278 238q25 20 38 20zM274 270q0 -58 9 -94l409 633q-40 45 -108 45t-131 -68t-101 -165q-78 -206 -78 -351zM425 57q71 0 134 68q104 112 158 361q20 98 20 154t-10 97l-410 -633q37 -47 108 -47zM422 -31
q-100 0 -170 33l-88 -135h-82l113 174q-102 88 -103 270q0 131 60 273t181 251q122 108 267 107q86 0 156 -33l88 135h82l-111 -172q104 -92 105 -272q0 -96 -37 -205t-99 -205t-162 -158t-200 -63z" />
    <glyph glyph-name="Scommaaccent" unicode="&#x218;" horiz-adv-x="1013" 
d="M485 -206q0 -93 -63 -180t-164 -142l-22 32q57 44 98 98t41 89t-31 65t-31 56q0 24 29 50t68 25q75 0 75 -93zM991 977q0 248 -215 248q-120 0 -196 -71t-76 -180t142 -231q58 -49 118 -100t101 -122q42 -71 42 -150q0 -186 -135 -294q-134 -108 -332 -108t-340 76
q51 168 76 279h41q-2 -10 -2 -39q0 -113 65 -172t177 -59t194 74q82 75 82 197t-142 239q-57 48 -117 98q-144 119 -144 277q0 159 127 265t334 107q82 -1 307 -56q-37 -113 -66 -278h-41z" />
    <glyph glyph-name="scommaaccent" unicode="&#x219;" horiz-adv-x="813" 
d="M391 -206q0 -93 -63 -180t-164 -142l-23 32q57 44 99 98t41 89q0 35 -31 65t-31 56q0 24 29 50t67 25q76 0 76 -93zM332 55q90 0 156 47q66 48 67 106q0 58 -55 105t-123 81t-123 98t-55 143q0 127 106 217t260 90q84 0 266 -49q-33 -100 -51 -197h-28q-35 160 -195 160
q-90 0 -145 -46q-56 -46 -56 -102t56 -105q56 -48 124 -83q66 -35 122 -98t57 -141q0 -131 -115 -221q-116 -90 -272 -91q-156 0 -289 51q43 123 57 211h31q19 -176 205 -176z" />
    <glyph glyph-name="uni021A" unicode="&#x21a;" horiz-adv-x="1099" 
d="M537 -209q1 -90 -63 -177t-165 -142l-22 32q57 44 98 98t41 89t-31 65q-56 55 -2 106q29 26 67 26t58 -28q20 -26 19 -69zM1202 977q0 90 -4 119t-18 55q-31 51 -191 51h-94l-285 -1042q-6 -26 -6 -48t25 -38t86 -33l-13 -41l-215 6q-31 0 -111 -3t-106 -3l13 41l129 43
l305 1118h-96q-156 0 -209 -47t-127 -178h-47q11 41 98 303h983q-33 -129 -70 -303h-47z" />
    <glyph glyph-name="uni021B" unicode="&#x21b;" horiz-adv-x="638" 
d="M346 -206q0 -93 -63 -180t-164 -142l-23 32q56 44 98 98t42 89t-31 65t-31 56q0 24 29 50t67 25q76 0 76 -93zM283 -31q-76 0 -122 43t-46 121q0 41 16 103l164 600h-133l20 73h131l49 176l177 80l6 -8l-68 -248h228l-37 -73h-209l-168 -615q-12 -49 -12 -74
q0 -74 81 -74t179 72l30 -47q-129 -129 -286 -129z" />
    <glyph glyph-name="circumflex" unicode="&#x2c6;" 
d="M662 1038l-33 -10l-142 172l-235 -172l-27 19l246 264h88z" />
    <glyph glyph-name="caron" unicode="&#x2c7;" 
d="M281 1300l32 11l142 -172l235 172l27 -19l-246 -264h-88z" />
    <glyph glyph-name="breve" unicode="&#x2d8;" 
d="M467 1047q-94 0 -142 43t-49 116q0 33 11 74h45q-8 -63 32 -101t110 -38t130 38q59 38 80 101h45q-27 -109 -97 -171t-165 -62z" />
    <glyph glyph-name="dotaccent" unicode="&#x2d9;" 
d="M448 1055q-96 0 -96 95q0 46 39 85t86 39q96 0 96 -95q-1 -46 -39 -85t-86 -39z" />
    <glyph glyph-name="ring" unicode="&#x2da;" 
d="M514 1380q74 0 110 -38q38 -38 38 -108t-56 -130q-56 -62 -130 -62t-111 38t-37 108t56 131t130 61zM582 1241q0 71 -73 71q-37 0 -69 -39q-32 -40 -32 -82q0 -81 63 -81q47 0 79 40t32 91z" />
    <glyph glyph-name="ogonek" unicode="&#x2db;" 
d="M142 -465q-86 0 -145 48q-60 48 -60 128q0 109 107 199q108 90 247 117l18 -23q-117 -43 -185 -124t-67 -169q0 -53 31 -85t84 -32t98 21l17 -45q-59 -35 -145 -35z" />
    <glyph glyph-name="tilde" unicode="&#x2dc;" 
d="M557 1083q-39 0 -102 38t-99 38q-63 0 -108 -74l-35 7q74 188 190 188q39 0 103 -38t98 -38q63 0 109 74l35 -6q-74 -189 -191 -189z" />
    <glyph glyph-name="hungarumlaut" unicode="&#x2dd;" 
d="M469 1239l-4 -18l-311 -199l-17 20l221 250q35 39 64 6zM743 1239l-4 -18l-311 -199l-16 20l221 250q36 40 63 6z" />
    <glyph glyph-name="uni0374" unicode="&#x374;" 
d="M543 1407h114l9 -16l-318 -396l-29 19l168 346q18 47 56 47z" />
    <glyph glyph-name="uni0375" unicode="&#x375;" 
d="M45 -465h-115l-8 16l318 396l28 -19l-168 -346q-18 -47 -55 -47z" />
    <glyph glyph-name="uni037E" unicode="&#x37e;" horiz-adv-x="415" 
d="M277 516q-89 0 -89 90q0 44 38 79q38 36 81 36q88 0 88 -89q0 -44 -37 -80t-81 -36zM244 72q0 -96 -69 -190t-177 -154l-23 32q63 48 107 108t43 97q0 37 -34 70t-34 59t30 54t72 28q41 0 63 -30t22 -74z" />
    <glyph glyph-name="tonos" unicode="&#x384;" 
d="M551 1407h115l8 -16l-318 -396l-28 19l168 346q18 47 55 47z" />
    <glyph glyph-name="dieresistonos" unicode="&#x385;" horiz-adv-x="499" 
d="M727 1272q78 0 78 -77q0 -38 -33 -70q-33 -31 -71 -31t-57 19t-19 57t31 70q32 32 71 32zM282 1272q78 0 78 -77q0 -38 -32 -70q-32 -31 -71 -31q-75 1 -77 69q0 45 32 77t70 32zM578 1407h114l8 -16l-317 -396l-29 19l168 346q23 47 56 47z" />
    <glyph glyph-name="Alphatonos" unicode="&#x386;" horiz-adv-x="1273" 
d="M608 1358h115l8 -17l-317 -395l-29 19l168 346q23 47 55 47zM805 952q0 44 2 62q-33 -68 -127 -221l-156 -254h314l-23 256q-10 113 -10 157zM1174 0l-216 6q-30 0 -112 -3t-107 -3l13 41l129 41l-33 377h-373l-196 -307q-20 -31 -21 -50q0 -29 49 -43l68 -18l-13 -41
l-186 6q-32 0 -106 -3t-99 -3l13 41l141 41l760 1198h63l107 -1124q4 -46 18 -66t51 -31l62 -18z" />
    <glyph glyph-name="anoteleia" unicode="&#x387;" horiz-adv-x="354" 
d="M231 557q84 0 84 -89q-1 -44 -37 -80t-79 -36t-67 23t-24 67t37 79q37 36 86 36z" />
    <glyph glyph-name="Epsilontonos" unicode="&#x388;" horiz-adv-x="1255" 
d="M365 1358h114l8 -17l-317 -395l-29 19l168 346q23 47 56 47zM1266 1030q0 86 -37 121q-53 51 -238 51q-94 0 -172 -4l-137 -500h123q203 0 242 15l-37 -105q-41 12 -224 13h-127l-122 -455q-4 -16 -5 -27q0 -59 185 -59t255 45t136 176h43q-53 -152 -92 -301h-864l12 41
l129 43l282 1036q6 26 6 48t-23 38q-24 16 -83 33l12 41h844q-35 -125 -63 -303h-49q4 29 4 53z" />
    <glyph glyph-name="Etatonos" unicode="&#x389;" horiz-adv-x="1536" 
d="M365 1358h114l8 -17l-317 -395l-29 19l168 346q23 47 56 47zM1280 112q0 -22 24 -38t82 -33l-12 -41l-205 6q-31 0 -115 -3t-108 -3l12 41l129 43l144 528h-576l-123 -452q-6 -26 -6 -48t24 -38t83 -33l-12 -41l-207 6q-31 0 -114 -3t-107 -3l12 41l129 43l282 1036
q6 26 6 48t-23 38q-24 16 -83 33l12 41l205 -6q31 0 115 3t108 3l-12 -41l-129 -43l-135 -496h575l115 420q6 26 6 48t-23 38q-24 16 -83 33l12 41l207 -6q31 0 114 3t107 3l-12 -41l-129 -43l-283 -1036q-6 -26 -6 -48z" />
    <glyph glyph-name="Iotatonos" unicode="&#x38a;" horiz-adv-x="753" 
d="M365 1358h114l8 -17l-317 -395l-29 19l168 346q23 47 56 47zM524 112q0 -22 24 -38t83 -33l-13 -41l-206 6q-31 0 -114 -3t-108 -3l13 41l129 43l282 1036q6 26 6 48t-23 38q-24 16 -83 33l12 41l205 -6q31 0 115 3t108 3l-12 -41l-129 -43l-283 -1036q-6 -26 -6 -48z
" />
    <glyph glyph-name="Omicrontonos" unicode="&#x38c;" horiz-adv-x="1222" 
d="M365 1358h114l8 -17l-317 -395l-29 19l168 346q23 47 56 47zM594 -31q-162 0 -266 118t-104 292q-1 340 193 627q89 133 222 219t295 86t266 -118t104 -292t-52 -334q-114 -351 -364 -512q-132 -86 -294 -86zM621 61q129 1 247 139t182 330t64 358q0 165 -56 248t-151 83
q-129 -1 -247 -139t-182 -330t-64 -358q0 -165 56 -248t151 -83z" />
    <glyph glyph-name="Upsilontonos" unicode="&#x38e;" horiz-adv-x="1376" 
d="M365 1358h114l8 -17l-317 -395l-29 19l168 346q23 47 56 47zM717 1274q96 0 219 6l-12 -41l-103 -27l144 -608l442 606l-100 31l12 39q127 -6 162 -6t92 3t76 3l-11 -41q-80 -10 -116 -34t-86 -91l-445 -610l-94 -344q-6 -26 -6 -48q-1 -22 23 -38t83 -33l-12 -41l-207 6
q-32 0 -114 -3t-107 -3l12 41l129 43l115 420l-141 610q-14 61 -45 85t-105 40l13 41q86 -6 182 -6z" />
    <glyph glyph-name="Omegatonos" unicode="&#x38f;" horiz-adv-x="1478" 
d="M414 1358h114l9 -17l-318 -395l-29 19l168 346q23 47 56 47zM332 150h155q-190 168 -190 413q0 297 231 522t523 226q229 0 347 -113t118 -297q0 -225 -146 -423t-358 -328h147q115 0 155 30t91 135q2 7 4 9t4 7t4 9h41q-92 -256 -115 -340h-567l-6 16q250 209 396 430
t147 476q0 145 -75 224t-204 79q-166 0 -296 -114q-130 -113 -191 -269t-62 -314q0 -276 162 -514l-10 -14h-571q31 121 73 340h41q-6 -72 -3 -114t36 -59t119 -17z" />
    <glyph glyph-name="iotadieresistonos" unicode="&#x390;" horiz-adv-x="491" 
d="M716 1272q79 0 79 -77q0 -38 -33 -70q-33 -31 -71 -31q-75 1 -77 69q0 45 32 77t70 32zM279 1272q71 0 71 -77q0 -38 -33 -70q-33 -31 -71 -31q-76 1 -76 76q0 38 32 70t77 32zM567 1407h115l8 -16l-317 -396l-29 19l168 346q23 47 55 47zM217 -23q-119 0 -119 95
q0 16 74 296t137 535l187 39q-61 -199 -136 -479l-55 -207q-25 -88 -24 -119q0 -49 57 -49q41 0 86 18l-16 -61q-107 -68 -191 -68z" />
    <glyph glyph-name="Alpha" unicode="&#x391;" horiz-adv-x="1273" 
d="M805 952q0 44 2 62q-33 -68 -127 -221l-156 -254h314l-23 256q-10 113 -10 157zM1174 0l-216 6q-30 0 -112 -3t-107 -3l13 41l129 41l-33 377h-373l-196 -307q-20 -31 -21 -50q0 -29 49 -43l68 -18l-13 -41l-186 6q-32 0 -106 -3t-99 -3l13 41l141 41l760 1198h63
l107 -1124q4 -46 18 -66t51 -31l62 -18z" />
    <glyph glyph-name="Beta" unicode="&#x392;" horiz-adv-x="1142" 
d="M657 731q139 0 230 80q96 87 96 229q0 68 -46 115t-187 47h-95l-129 -471h131zM371 136q-1 -56 157 -56t256 110t99 263q0 94 -52 146t-204 52h-123l-127 -467q-6 -20 -6 -48zM461 1168q0 22 -24 38t-83 33l13 41h424q201 0 283 -66t81 -176q0 -110 -76 -204t-198 -134
q90 -28 140 -100t50 -160q0 -178 -135 -309t-410 -131h-495l12 41l129 43l283 1036q6 26 6 48z" />
    <glyph glyph-name="Gamma" unicode="&#x393;" horiz-adv-x="1003" 
d="M461 1168q0 24 -25 40t-86 31l12 41h838q-29 -113 -67 -322h-50q2 16 2 52q0 120 -54 156t-167 36t-211 -4l-282 -1038q-6 -24 -6 -48q-1 -24 31 -39t116 -32l-12 -41l-248 6q-31 0 -114 -3t-107 -3l12 41l129 43l283 1036q6 24 6 48z" />
    <glyph glyph-name="Delta" unicode="&#x394;" horiz-adv-x="1150" 
d="M844 82l-99 889l-583 -889h682zM16 0l-4 18l828 1262h69l135 -1262l-16 -18h-1012z" />
    <glyph glyph-name="Epsilon" unicode="&#x395;" horiz-adv-x="1091" 
d="M461 1168q0 22 -24 38t-83 33l13 41h843q-35 -125 -63 -303h-49q4 29 4 53q0 86 -37 121q-53 51 -238 51q-94 0 -172 -4l-137 -500h123q203 0 242 15l-37 -105q-41 12 -223 13h-127l-123 -455q-4 -16 -4 -27q1 -59 185 -59t254 45t136 176h43q-53 -152 -92 -301h-864
l12 41l129 43l283 1036q6 26 6 48z" />
    <glyph glyph-name="Zeta" unicode="&#x396;" horiz-adv-x="1087" 
d="M631 78q133 0 203 65q45 41 100 158h55q-55 -150 -96 -301h-825l-23 45q356 449 959 1157h-480l-149 -215h-51q33 88 90 293h794l23 -45q-319 -401 -961 -1157h361z" />
    <glyph glyph-name="Eta" unicode="&#x397;" horiz-adv-x="1374" 
d="M1118 112q0 -22 24 -38t83 -33l-13 -41l-204 6q-31 0 -115 -3t-109 -3l13 41l129 43l143 528h-575l-123 -452q-6 -26 -6 -48q-1 -22 23 -38t83 -33l-12 -41l-207 6q-31 0 -114 -3t-107 -3l12 41l129 43l283 1036q6 26 6 48t-24 38t-83 33l13 41l204 -6q31 0 115 3t109 3
l-13 -41l-129 -43l-135 -496h576l114 420q6 26 6 48t-23 38q-24 16 -83 33l12 41l207 -6q31 0 114 3t107 3l-12 -41l-129 -43l-283 -1036q-6 -26 -6 -48z" />
    <glyph glyph-name="Theta" unicode="&#x398;" horiz-adv-x="1179" 
d="M892 1311q162 0 265 -118q105 -118 105 -292t-52 -334t-142 -293q-89 -133 -222 -219t-295 -86t-266 118q-105 118 -105 292t52 334t142 293t222 219q134 86 296 86zM578 61q128 1 246 139t183 330t65 358q0 165 -57 248q-56 83 -151 83q-129 -1 -247 -139
q-119 -138 -183 -330t-64 -358q0 -165 58 -248q56 -83 150 -83zM647 721h182q37 0 62 43l39 70h43q-27 -76 -57 -195t-39 -168h-37l-4 68q-2 27 -12 35t-29 10h-179q-41 0 -65 -45l-37 -68h-45q38 114 96 363h39l2 -60q2 -31 10 -42t31 -11z" />
    <glyph glyph-name="Iota" unicode="&#x399;" horiz-adv-x="628" 
d="M465 1168q0 22 -24 38t-83 33l13 41l204 -6q31 0 115 3t109 3l-13 -41l-129 -43l-282 -1036q-6 -26 -6 -48q-1 -22 23 -38t83 -33l-12 -41l-207 6q-31 0 -114 -3t-107 -3l12 41l129 43l283 1036q6 26 6 48z" />
    <glyph glyph-name="Kappa" unicode="&#x39a;" horiz-adv-x="1224" 
d="M1060 80q36 0 81 22l-19 -63q-63 -57 -147 -57q-129 0 -172 163l-148 547l-188 -176l-96 -356q-6 -26 -6 -48q-1 -22 23 -38t83 -33l-12 -41l-215 6q-33 0 -112 -3t-101 -3l12 41l129 43l283 1036q6 26 6 48t-24 38t-83 33l13 41l213 -6q34 0 112 3t103 3l-13 -41
l-129 -43l-145 -530l577 542l-112 31l10 41l199 -8q36 0 104 4t82 4l-10 -41q-96 -15 -144 -39t-131 -102l-290 -275l176 -653q15 -50 35 -70t56 -20z" />
    <glyph glyph-name="Lambda" unicode="&#x39b;" horiz-adv-x="1273" 
d="M805 952q0 44 2 62q-33 -69 -127 -221l-401 -641q-20 -31 -21 -50q0 -29 49 -43l68 -18l-13 -41l-186 6q-32 0 -106 -3t-99 -3l13 41l141 41l760 1198h63l107 -1124q4 -46 18 -66t51 -31l62 -18l-12 -41l-216 6q-30 0 -112 -3t-107 -3l13 41l129 41l-66 713
q-10 113 -10 157z" />
    <glyph glyph-name="Mu" unicode="&#x39c;" horiz-adv-x="1648" 
d="M293 112q-1 -22 23 -38t83 -33l-12 -41l-176 6q-31 0 -93 -3t-87 -3l12 41l129 43l283 1036q6 26 6 48t-24 38t-83 33l13 41h307l157 -987l685 987h307l-13 -41l-129 -43l-282 -1034q-6 -24 -6 -48q-1 -24 23 -40t83 -33l-12 -41l-211 6q-31 0 -112 -3t-103 -3l12 41
l129 43l273 997q-74 -127 -189 -290l-549 -799h-30l-134 799q-26 163 -26 276l-248 -907q-6 -26 -6 -48z" />
    <glyph glyph-name="Nu" unicode="&#x39d;" horiz-adv-x="1380" 
d="M291 112q-1 -22 23 -38t83 -33l-12 -41l-176 6q-31 0 -92 -3t-86 -3l12 41l129 43l283 1036q6 26 6 48t-24 38t-83 33l13 41h233l477 -975l223 815q6 26 6 48t-23 38q-24 16 -83 33l12 41l177 -6q31 0 91 3t85 3l-13 -41l-129 -43l-329 -1204h-56l-503 1030l-238 -862
q-6 -26 -6 -48z" />
    <glyph glyph-name="Xi" unicode="&#x39e;" horiz-adv-x="1001" 
d="M467 721h297q37 0 61 43l39 70h43q-27 -76 -57 -195t-39 -168h-37l-4 68q-2 29 -12 37t-29 8h-293q-25 0 -38 -8t-27 -37l-37 -68h-45q38 114 96 363h39l2 -60q2 -31 10 -42t31 -11zM104 311q0 -90 12 -128t49 -46q36 -8 136 -8h320q98 0 138 8q39 8 67 39t85 135h35
l-76 -311h-886l84 311h36zM1065 963q0 125 -41 161q-43 35 -182 35h-213q-141 0 -197 -31t-127 -165h-47q69 213 96 317h824q-20 -76 -70 -317h-43z" />
    <glyph glyph-name="Omicron" unicode="&#x39f;" horiz-adv-x="1179" 
d="M550 -31q-162 0 -265 118q-105 118 -105 292q-1 340 194 627q89 133 222 219t295 86t266 -118q105 -118 105 -292t-53 -334q-113 -351 -363 -512q-134 -86 -296 -86zM578 61q128 1 246 139t183 330t65 358q0 165 -57 248q-56 83 -151 83q-129 -1 -247 -139
q-119 -138 -183 -330t-64 -358q0 -165 58 -248q56 -83 150 -83z" />
    <glyph glyph-name="Pi" unicode="&#x3a0;" horiz-adv-x="1320" 
d="M461 1168q0 42 -107 71l13 41h1128l-12 -41l-129 -43l-283 -1036q-6 -26 -6 -48t24 -38t82 -33l-12 -41l-207 6q-32 0 -114 -3t-107 -3l12 41l129 43l306 1116h-525l-282 -1040q-6 -26 -6 -48q-1 -22 23 -38t83 -33l-12 -41l-207 6q-31 0 -114 -3t-107 -3l12 41l129 43
l283 1036q6 26 6 48z" />
    <glyph glyph-name="Rho" unicode="&#x3a1;" horiz-adv-x="1105" 
d="M461 1168q0 22 -24 38t-83 33l13 41h401q231 0 336 -98q80 -76 80 -203q0 -180 -125 -299q-162 -156 -455 -156h-135l-98 -364q-6 -24 -6 -46q0 -43 127 -73l-13 -41l-227 6q-31 0 -114 -3t-107 -3l12 41l129 43l283 1036q6 26 6 48zM580 604q285 0 384 234q32 76 32 158
t-52 137q-63 63 -217 63h-74l-161 -592h88z" />
    <glyph glyph-name="Sigma" unicode="&#x3a3;" horiz-adv-x="993" 
d="M821 1212h-299l234 -501l-8 -27l-553 -534h446q119 0 180 38t115 152h47q-111 -326 -115 -340h-929l-7 16l639 619l-295 631l13 14h882q-37 -166 -57 -293h-45q12 141 -31 183t-217 42z" />
    <glyph glyph-name="Tau" unicode="&#x3a4;" horiz-adv-x="1099" 
d="M1202 977q0 90 -4 119t-18 55q-31 51 -191 51h-94l-285 -1042q-6 -26 -6 -48t25 -38t86 -33l-13 -41l-215 6q-31 0 -111 -3t-106 -3l13 41l129 43l305 1118h-96q-156 0 -209 -47t-127 -178h-47q11 41 98 303h983q-33 -129 -70 -303h-47z" />
    <glyph glyph-name="Upsilon" unicode="&#x3a5;" horiz-adv-x="1095" 
d="M436 1274q96 0 219 6l-12 -41l-102 -27l143 -608l442 606l-100 31l12 39q127 -6 162 -6t92 3t76 3l-10 -41q-80 -10 -117 -34t-86 -91l-444 -610l-95 -344q-6 -26 -6 -48t24 -38t83 -33l-12 -41l-207 6q-31 0 -114 -3t-108 -3l13 41l129 43l114 420l-141 610
q-14 61 -45 85t-104 40l12 41q86 -6 182 -6z" />
    <glyph glyph-name="Phi" unicode="&#x3a6;" horiz-adv-x="1447" 
d="M334 586q0 -133 80 -219t217 -101l207 758q-244 -8 -374 -128t-130 -310zM1303 702q0 132 -81 218t-218 100l-205 -756q242 6 373 127t131 311zM147 580q1 158 103 278t261 178q159 59 345 58l8 26q6 26 6 48t-23 38q-24 16 -83 33l12 41l195 -6q31 0 115 3t108 3
l-12 -41l-129 -43l-29 -106q209 -18 337 -120t128 -261q-1 -158 -103 -278t-262 -179t-346 -57l-8 -35q-6 -26 -6 -48t24 -38t82 -33l-12 -41l-196 6q-31 0 -114 -3t-108 -3l13 41l129 43l30 113q-209 18 -337 121q-128 104 -128 262z" />
    <glyph glyph-name="Chi" unicode="&#x3a7;" horiz-adv-x="1181" 
d="M920 6q-132 0 -203 -6l10 41l115 27l-176 493l-422 -493l112 -27l-10 -41q-123 6 -197 6t-182 -6l10 41q143 12 220 98l434 504l-180 490q-19 53 -47 72t-95 34l13 41q76 -6 190 -6t217 6l-10 -41l-105 -27l154 -432l377 439l-96 20l10 41q96 -6 182 -6t162 6l-10 -41
q-86 -6 -127 -28t-92 -81l-377 -436l198 -536q21 -57 55 -81t105 -36l-10 -41q-93 6 -225 6z" />
    <glyph glyph-name="Psi" unicode="&#x3a8;" horiz-adv-x="1509" 
d="M408 1174q0 49 -115 65l10 41q53 -2 166 -2t152 2q-57 -188 -84 -297q-57 -250 -5 -352t207 -105l162 594q6 26 6 48t-23 38q-24 16 -83 33l12 41l205 -6q31 0 115 3t108 3l-12 -41l-129 -43l-185 -676q166 0 272 91q105 91 179 341q39 133 84 328q40 -2 146 -2t159 2
l-10 -41q-100 -13 -126 -48q-15 -19 -26 -61l-45 -180q-72 -266 -216 -385t-437 -119l-78 -286q-6 -26 -6 -48t24 -38t83 -33l-13 -41l-207 6q-32 0 -114 -3t-107 -3l12 41l129 43l101 369q-387 0 -391 325q0 127 55 293q25 92 25 103z" />
    <glyph glyph-name="Omega" unicode="&#x3a9;" horiz-adv-x="1478" 
d="M332 150h155q-190 168 -190 413q0 297 231 522t523 226q229 0 347 -113t118 -297q0 -225 -146 -423t-358 -328h147q115 0 155 30t91 135q2 7 4 9t4 7t4 9h41q-92 -256 -115 -340h-567l-6 16q250 209 396 430t147 476q0 145 -75 224t-204 79q-166 0 -296 -114
q-130 -113 -191 -269t-62 -314q0 -276 162 -514l-10 -14h-571q31 121 73 340h41q-6 -72 -3 -114t36 -59t119 -17z" />
    <glyph glyph-name="Iotadieresis" unicode="&#x3aa;" horiz-adv-x="628" 
d="M748 1411q-76 0 -76 77q0 38 31 70q32 32 70 32q39 0 59 -21q20 -20 20 -57t-33 -69t-71 -32zM567 1512q-1 -37 -33 -69t-70 -32q-38 -1 -57 19t-19 58t31 70q32 32 71 32t58 -21q19 -20 19 -57zM465 1168q0 22 -24 38t-83 33l13 41l204 -6q31 0 115 3t109 3l-13 -41
l-129 -43l-282 -1036q-6 -26 -6 -48q-1 -22 23 -38t83 -33l-12 -41l-207 6q-31 0 -114 -3t-107 -3l12 41l129 43l283 1036q6 26 6 48z" />
    <glyph glyph-name="Upsilondieresis" unicode="&#x3ab;" horiz-adv-x="1095" 
d="M1004 1411q-76 0 -76 77q0 38 31 70q32 32 71 32q38 0 58 -21q20 -20 20 -57t-33 -69t-71 -32zM823 1512q-1 -37 -33 -69t-70 -32q-38 -1 -57 19t-19 58t31 70q32 32 70 32t58 -21q20 -20 20 -57zM436 1274q96 0 219 6l-12 -41l-102 -27l143 -608l442 606l-100 31l12 39
q127 -6 162 -6t92 3t76 3l-10 -41q-80 -10 -117 -34t-86 -91l-444 -610l-95 -344q-6 -26 -6 -48t24 -38t83 -33l-12 -41l-207 6q-31 0 -114 -3t-108 -3l13 41l129 43l114 420l-141 610q-14 61 -45 85t-104 40l12 41q86 -6 182 -6z" />
    <glyph glyph-name="alphatonos" unicode="&#x3ac;" horiz-adv-x="1107" 
d="M860 1407h115l8 -16l-317 -396l-29 19l168 346q18 47 55 47zM403 86q135 0 308 307q20 115 20 231t-23 171q-24 53 -101 53t-159 -94t-127 -224q-46 -130 -47 -241q0 -203 129 -203zM92 279q0 243 160 453t366 210q111 0 164 -66t54 -208q0 -68 -11 -121q61 129 203 375
l201 20q-238 -313 -408 -592q0 -166 32 -232q43 -88 179 -89l-10 -41q-96 -18 -200 -18t-105 73q-2 57 -2 199q-176 -272 -361 -273q-122 0 -192 81t-70 229z" />
    <glyph glyph-name="epsilontonos" unicode="&#x3ad;" horiz-adv-x="802" 
d="M795 1407h114l9 -16l-318 -396l-29 19l168 346q18 47 56 47zM610 854q-98 0 -172 -53t-74 -135t49 -116q50 -34 152 -34h101l-17 -76h-100q-129 0 -222 -56t-94 -167q0 -152 193 -151q141 0 268 61l2 -66q-159 -92 -320 -92q-161 -1 -242 57t-81 162t78 180t209 115
q-137 47 -137 168q0 92 68 161q128 128 356 128q109 0 264 -45l-64 -254h-36q18 213 -181 213z" />
    <glyph glyph-name="etatonos" unicode="&#x3ae;" horiz-adv-x="1005" 
d="M866 1407h115l8 -16l-317 -396l-29 19l168 346q18 47 55 47zM340 920q61 0 83 -16q21 -16 21 -55q0 -40 -41 -200h5q158 293 374 293q92 0 144 -54t53 -142q0 -88 -76 -349l-110 -379q-100 -352 -129 -454l-172 -29q127 463 139 506l143 481q37 119 37 189q0 102 -96 102
q-74 0 -159 -79q-84 -80 -148 -208t-127 -356l-45 -162l-173 -28q40 145 121 442l64 231q29 109 28 125q0 70 -133 76l11 39q125 27 186 27z" />
    <glyph glyph-name="iotatonos" unicode="&#x3af;" horiz-adv-x="491" 
d="M592 1407h115l8 -16l-318 -396l-28 19l168 346q18 47 55 47zM217 -23q-119 0 -119 95q0 16 74 296t137 535l187 39q-61 -199 -136 -479l-55 -207q-25 -88 -24 -119q0 -49 57 -49q41 0 86 18l-16 -61q-107 -68 -191 -68z" />
    <glyph glyph-name="upsilondieresistonos" unicode="&#x3b0;" horiz-adv-x="901" 
d="M881 1272q71 0 71 -77q0 -38 -32 -70q-32 -31 -71 -31q-75 1 -77 69q0 45 32 77t77 32zM429 1272q79 0 79 -77q0 -38 -33 -70q-33 -31 -71 -31t-57 19t-19 57t31 70q32 32 70 32zM725 1407h115l8 -16l-318 -396l-28 19l168 346q23 47 55 47zM351 -31q-127 -1 -195 63
t-68 161t20 164t75 216q56 149 59 203q0 66 -131 72l10 39q121 33 193 33t97 -28q24 -28 3 -102q-20 -74 -86 -264t-66 -299q0 -160 139 -159q117 0 207 104t130 236t40 267q0 134 -39 240l176 27q6 -43 7 -127q0 -271 -144 -541q-70 -132 -184 -218q-114 -87 -243 -87z" />
    <glyph glyph-name="alpha" unicode="&#x3b1;" horiz-adv-x="1107" 
d="M403 86q135 0 308 307q20 115 20 231t-23 171q-24 53 -101 53t-159 -94t-127 -224q-46 -130 -47 -241q0 -203 129 -203zM92 279q0 243 160 453t366 210q111 0 164 -66t54 -208q0 -68 -11 -121q61 129 203 375l201 20q-238 -313 -408 -592q0 -166 32 -232q43 -88 179 -89
l-10 -41q-96 -18 -200 -18t-105 73q-2 57 -2 199q-176 -272 -361 -273q-122 0 -192 81t-70 229z" />
    <glyph glyph-name="beta" unicode="&#x3b2;" horiz-adv-x="1007" 
d="M474 57q136 -1 222 99t86 270q0 283 -295 260l19 68q199 20 296 119t97 251q0 84 -40 131t-111 48q-180 0 -259 -291l-243 -906q92 -49 228 -49zM762 1393q152 0 235 -72q82 -72 82 -184q0 -274 -374 -404q109 -12 185 -98t75 -203q-1 -201 -143 -332t-339 -131
q-141 0 -256 70l-10 -39q-69 -268 -98 -432l-174 -33q53 252 108 457l246 917q72 264 191 374q120 110 272 110z" />
    <glyph glyph-name="gamma" unicode="&#x3b3;" horiz-adv-x="862" 
d="M231 328q0 236 -45 409q-14 57 -48 82t-105 31l10 39q139 31 201 31t83 -27q22 -27 33 -105q45 -285 17 -626q197 276 416 749l194 31q-156 -242 -635 -965q-59 -233 -104 -403l-176 -39q92 261 126 409t33 384z" />
    <glyph glyph-name="delta" unicode="&#x3b4;" horiz-adv-x="970" 
d="M459 55q133 0 220 120t87 269q0 91 -22 132t-26 52q-5 11 -25 39q-19 27 -24 33t-30 37t-29 35l-18 23q-342 -184 -342 -492q0 -111 58 -179t151 -69zM74 301q0 189 128 325t347 214q-47 55 -67 81q-64 87 -62 169q0 131 116 217t272 86t265 -41q-12 -59 -37 -162
q-143 111 -272 110q-80 0 -136 -40t-56 -98t32 -106q33 -48 105 -122q243 -250 243 -446t-146 -357q-146 -162 -378 -162q-164 -1 -259 97t-95 235z" />
    <glyph glyph-name="epsilon" unicode="&#x3b5;" horiz-adv-x="802" 
d="M610 854q-98 0 -172 -53t-74 -135t49 -116q50 -34 152 -34h101l-17 -76h-100q-129 0 -222 -56t-94 -167q0 -152 193 -151q141 0 268 61l2 -66q-159 -92 -320 -92q-161 -1 -242 57t-81 162t78 180t209 115q-137 47 -137 168q0 92 68 161q128 128 356 128q109 0 264 -45
l-64 -254h-36q18 213 -181 213z" />
    <glyph glyph-name="zeta" unicode="&#x3b6;" horiz-adv-x="727" 
d="M500 -112q0 46 -43 76t-164 70t-173 93t-52 154q0 223 240 496q241 273 571 483q-127 -20 -445 -58q12 121 10 152q482 -24 629 2l-12 -53q-813 -571 -813 -947q0 -70 40 -106t133 -71q93 -34 135 -53t76 -57t34 -92q0 -135 -273 -421h-63q53 74 78 108t58 106
q34 72 34 118z" />
    <glyph glyph-name="eta" unicode="&#x3b7;" horiz-adv-x="1005" 
d="M340 920q61 0 83 -16q21 -16 21 -55q0 -40 -41 -200h5q158 293 374 293q92 0 144 -54t53 -142q0 -88 -76 -349l-110 -379q-100 -352 -129 -454l-172 -29q127 463 139 506l143 481q37 119 37 189q0 102 -96 102q-74 0 -159 -79q-84 -80 -148 -208t-127 -356l-45 -162
l-173 -28q40 145 121 442l64 231q29 109 28 125q0 70 -133 76l11 39q125 27 186 27z" />
    <glyph glyph-name="theta" unicode="&#x3b8;" horiz-adv-x="894" 
d="M713 1307q-57 1 -117 -61q-103 -104 -196 -342q-36 -91 -58 -173h426q41 181 41 317q1 136 -19 198t-77 61zM373 55q59 -1 121 63t134 208q73 144 117 319h-428q-57 -203 -57 -360q0 -230 113 -230zM348 -31q-135 -1 -203 97q-67 98 -67 248t51 333q51 182 135 349
t212 282t260 115q132 1 194 -105t61 -266q0 -160 -48 -336q-112 -413 -335 -607q-125 -110 -260 -110z" />
    <glyph glyph-name="iota" unicode="&#x3b9;" horiz-adv-x="491" 
d="M217 -23q-119 0 -119 95q0 16 74 296t137 535l187 39q-61 -199 -136 -479l-55 -207q-25 -88 -24 -119q0 -49 57 -49q41 0 86 18l-16 -61q-107 -68 -191 -68z" />
    <glyph glyph-name="kappa" unicode="&#x3ba;" horiz-adv-x="972" 
d="M252 774q0 41 -33 57t-100 21l10 39q107 29 207 29t100 -66q0 -27 -30 -137l-76 -279q49 66 116 140l54 59q141 159 254 227t233 68q35 0 68 -8q-31 -76 -58 -152q-49 8 -119 8q-155 0 -315 -182q86 -297 152 -428q43 -86 110 -96q43 -6 72 -2l-12 -62q-127 -33 -193 -33
q-66 1 -96 21q-28 20 -56 85t-114 357q-80 -84 -143 -182q-20 -78 -56 -240l-186 -38q90 326 121 442l57 215q33 125 33 137z" />
    <glyph glyph-name="lambda" unicode="&#x3bb;" horiz-adv-x="997" 
d="M-25 -14l691 948l2 104q0 207 -269 207q10 74 7 148q176 0 265 -67t89 -259l-2 -670q0 -184 28 -255q43 -111 185 -111l-15 -41q-252 -50 -278 24q-14 47 -14 338l2 336l-488 -688z" />
    <glyph glyph-name="mu" unicode="&#x3bc;" horiz-adv-x="993" 
d="M395 82q133 0 258 141l70 252q59 219 108 428l187 39q-68 -217 -131 -459l-43 -157q-43 -156 -43 -187q0 -51 57 -51q41 0 88 18l-16 -61q-102 -68 -202 -68t-99 95q0 16 4 45q-147 -147 -264 -148q-66 0 -108 33t-50 78q-85 -350 -121 -506l-170 -39q72 252 158 574
l98 366q35 125 109 428l186 39q-68 -217 -131 -459l-39 -145q-25 -92 -26 -139t33 -82t87 -35z" />
    <glyph glyph-name="nu" unicode="&#x3bd;" horiz-adv-x="847" 
d="M248 920q62 0 90 -25q29 -25 37 -92q25 -201 35 -615q270 315 342 576q14 51 22 145l184 33q-89 -348 -632 -942h-82q-4 399 -51 737q-7 57 -45 83t-107 30l10 39q135 31 197 31z" />
    <glyph glyph-name="xi" unicode="&#x3be;" horiz-adv-x="710" 
d="M45 276q0 266 471 412q-102 20 -164 78t-63 128q0 134 138 224q138 91 278 137q-156 -25 -381 -53q12 121 10 152q479 -24 631 2l-15 -56q-231 -80 -321 -135q-164 -104 -164 -241q2 -74 78 -124t219 -55l-14 -57q-159 -24 -322 -98q-88 -41 -141 -108t-53 -137t29 -105
q29 -36 91 -58q162 -59 182 -72q19 -14 43 -29q23 -15 29 -29t14 -32q29 -64 -56 -196q-42 -66 -82 -115t-128 -153h-59q133 186 157 273t-14 122t-176 80q-217 72 -217 245z" />
    <glyph glyph-name="omicron" unicode="&#x3bf;" horiz-adv-x="942" 
d="M412 -31q-158 0 -239 92q-81 93 -81 237t60 286t181 251q121 107 273 107t233 -92t81 -250q0 -96 -37 -205q-86 -253 -261 -363q-99 -63 -210 -63zM422 57q74 0 137 68q104 112 158 361q20 97 20 167q0 201 -147 201q-74 0 -137 -68q-108 -117 -158 -361
q-20 -97 -21 -167q1 -201 148 -201z" />
    <glyph glyph-name="pi" unicode="&#x3c0;" horiz-adv-x="1130" 
d="M440 909h590q80 1 122 15t91 51l27 -29l-68 -78q-53 -61 -99 -85t-114 -23h-57q-168 -473 -168 -617q0 -59 56 -59t151 80l22 -64q-156 -131 -295 -131q-55 0 -86 31t-30 86q0 147 227 674h-283q-41 -119 -132 -375t-134 -381l-186 -18q133 315 338 772l-107 -2
q-109 -2 -217 -90l-29 34q125 129 197 169t184 40z" />
    <glyph glyph-name="rho" unicode="&#x3c1;" horiz-adv-x="956" 
d="M642 942q140 0 222 -86t82 -231t-63 -293t-189 -256q-126 -106 -260 -106q-135 0 -211 83l-14 -53q-74 -274 -96 -432l-174 -33q49 238 108 457l135 506q70 260 203 360q117 84 257 84zM412 72q106 0 193 95t125 217t38 235t-44 167t-124 56q-80 0 -138 -56t-93 -192
l-125 -463q62 -59 168 -59z" />
    <glyph glyph-name="sigma1" unicode="&#x3c2;" horiz-adv-x="872" 
d="M694 942q96 0 246 -51q-25 -74 -55 -211h-31q-24 174 -184 174t-266 -146t-105 -323q0 -97 41 -155q40 -58 138 -111t140 -92t41 -93q0 -104 -253 -378h-64q6 10 32 45q104 141 114 195q9 54 3 70q-6 18 -11 28t-17 20t-24 21t-124 67q-199 100 -198 338q0 238 166 420
t411 182z" />
    <glyph glyph-name="sigma" unicode="&#x3c3;" horiz-adv-x="1044" 
d="M424 -31q-156 0 -246 92t-90 252q0 270 178 433t461 163h238q79 1 121 15t92 51l26 -29l-67 -78q-53 -59 -97 -81t-116 -21h-133q61 -45 102 -127t41 -162q0 -203 -150 -355t-360 -153zM440 55q98 0 175 75t115 181q38 107 38 197t-23 159t-57 99h-43q-173 0 -281 -135
t-108 -316q0 -260 184 -260z" />
    <glyph glyph-name="tau" unicode="&#x3c4;" horiz-adv-x="915" 
d="M367 -31q-55 0 -86 31q-31 30 -31 92t43 196t79 222t105 252l-172 -4q-106 -2 -217 -92l-29 34q125 129 197 169t184 40h367q80 1 122 15t91 51l27 -29l-68 -78q-53 -59 -99 -83t-116 -23h-166q-166 -469 -166 -619q0 -59 56 -59t151 80l23 -64q-156 -131 -295 -131z" />
    <glyph glyph-name="upsilon" unicode="&#x3c5;" horiz-adv-x="901" 
d="M351 -31q-127 -1 -195 63t-68 161t20 164t75 216q56 149 59 203q0 66 -131 72l10 39q121 33 193 33t97 -28q24 -28 3 -102q-20 -74 -86 -264t-66 -299q0 -160 139 -159q117 0 207 104t130 236t40 267q0 134 -39 240l176 27q6 -43 7 -127q0 -271 -144 -541
q-70 -132 -184 -218q-114 -87 -243 -87z" />
    <glyph glyph-name="phi" unicode="&#x3c6;" horiz-adv-x="1286" 
d="M252 344q0 -112 61 -192t181 -95l198 795q-200 -23 -320 -166t-120 -342zM627 57q207 13 327 149t131 339q4 123 -59 207t-184 100zM365 -465l108 438q-193 13 -295 117t-104 248q0 240 187 408t454 192l104 416l166 24l-119 -438q182 -16 288 -122t110 -255
q0 -246 -196 -418t-464 -172l-110 -413z" />
    <glyph glyph-name="chi" unicode="&#x3c7;" horiz-adv-x="882" 
d="M242 920q78 0 94 -44t33 -262l14 -204q74 94 416 512l221 20q-293 -330 -612 -731l18 -229q18 -182 49 -264t105 -109q31 -10 82 -10l-11 -41q-115 -23 -187 -23t-87 51q-23 80 -41 342l-12 185q-322 -422 -420 -564l-207 -14q203 270 606 787l-14 161q-18 186 -53 263
q-36 78 -100 94t-95 16l10 41q113 23 191 23z" />
    <glyph glyph-name="psi" unicode="&#x3c8;" horiz-adv-x="1206" 
d="M311 920q92 0 92 -66t-43 -182q-43 -115 -49 -135q-49 -147 -49 -248q0 -207 219 -228l324 1293l168 24l-357 -1317q224 31 346 221t121 429q0 92 -30 198l170 33q6 -51 6 -108q-4 -436 -280 -693q-148 -137 -355 -164l-113 -417l-131 -25l109 434q-190 14 -278 94
q-87 80 -87 226q0 104 64 276t63 207q0 72 -143 80l10 39q106 29 223 29z" />
    <glyph glyph-name="omega" unicode="&#x3c9;" horiz-adv-x="1398" 
d="M246 289q0 -225 147 -226q71 0 139 80q68 79 102 207t56 271l182 20q-106 -305 -106 -426q0 -70 39 -111t100 -41q150 -1 236 147t86 388q0 156 -84 315l65 21q80 -74 129 -189t47 -223q0 -221 -139 -387t-344 -166q-109 1 -169 55t-66 144h-4q-50 -90 -134 -144
t-178 -55q-133 0 -206 85t-72 222q0 199 122 369t316 289l68 -23q-158 -145 -245 -293t-87 -329z" />
    <glyph glyph-name="iotadieresis" unicode="&#x3ca;" horiz-adv-x="491" 
d="M707 1180q0 -37 -33 -69t-71 -32q-38 -1 -57 19q-20 20 -20 58t32 70t71 32t59 -21q20 -20 19 -57zM318 1079q-76 0 -76 77q0 38 31 70q32 32 70 32q39 0 59 -21q20 -20 20 -57t-33 -69t-71 -32zM217 -23q-119 0 -119 95q0 16 74 296t137 535l187 39q-61 -199 -136 -479
l-55 -207q-25 -88 -24 -119q0 -49 57 -49q41 0 86 18l-16 -61q-107 -68 -191 -68z" />
    <glyph glyph-name="upsilondieresis" unicode="&#x3cb;" horiz-adv-x="901" 
d="M752 1079q-76 0 -76 77q0 38 32 70t70 32t58 -21q20 -20 20 -57t-33 -69t-71 -32zM571 1180q-1 -37 -33 -69t-70 -32q-38 -1 -57 19t-19 58t31 70q32 32 71 32t58 -21q19 -20 19 -57zM351 -31q-127 -1 -195 63t-68 161t20 164t75 216q56 149 59 203q0 66 -131 72l10 39
q121 33 193 33t97 -28q24 -28 3 -102q-20 -74 -86 -264t-66 -299q0 -160 139 -159q117 0 207 104t130 236t40 267q0 134 -39 240l176 27q6 -43 7 -127q0 -271 -144 -541q-70 -132 -184 -218q-114 -87 -243 -87z" />
    <glyph glyph-name="omicrontonos" unicode="&#x3cc;" horiz-adv-x="942" 
d="M809 1407h115l8 -16l-318 -396l-28 19l168 346q18 47 55 47zM412 -31q-158 0 -239 92q-81 93 -81 237t60 286t181 251q121 107 273 107t233 -92t81 -250q0 -96 -37 -205q-86 -253 -261 -363q-99 -63 -210 -63zM422 57q74 0 137 68q104 112 158 361q20 97 20 167
q0 201 -147 201q-74 0 -137 -68q-108 -117 -158 -361q-20 -97 -21 -167q1 -201 148 -201z" />
    <glyph glyph-name="upsilontonos" unicode="&#x3cd;" horiz-adv-x="901" 
d="M766 1407h115l8 -16l-318 -396l-28 19l168 346q18 47 55 47zM351 -31q-127 -1 -195 63t-68 161t20 164t75 216q56 149 59 203q0 66 -131 72l10 39q121 33 193 33t97 -28q24 -28 3 -102q-20 -74 -86 -264t-66 -299q0 -160 139 -159q117 0 207 104t130 236t40 267
q0 134 -39 240l176 27q6 -43 7 -127q0 -271 -144 -541q-70 -132 -184 -218q-114 -87 -243 -87z" />
    <glyph glyph-name="omegatonos" unicode="&#x3ce;" horiz-adv-x="1398" 
d="M1022 1407h115l8 -16l-318 -396l-28 19l168 346q18 47 55 47zM246 289q0 -225 147 -226q71 0 139 80q68 79 102 207t56 271l182 20q-106 -305 -106 -426q0 -70 39 -111t100 -41q150 -1 236 147t86 388q0 156 -84 315l65 21q80 -74 129 -189t47 -223q0 -221 -139 -387
t-344 -166q-109 1 -169 55t-66 144h-4q-50 -90 -134 -144t-178 -55q-133 0 -206 85t-72 222q0 199 122 369t316 289l68 -23q-158 -145 -245 -293t-87 -329z" />
    <glyph glyph-name="uni03D0" unicode="&#x3d0;" horiz-adv-x="940" 
d="M768 1305q-118 1 -228 -145t-198 -451l80 30q444 168 444 453q0 57 -27 85q-28 28 -71 28zM438 55q117 -1 203 145t86 283q2 91 -38 149t-129 58t-245 -78q-39 -154 -39 -290t37 -202t125 -65zM420 -31q-320 0 -320 390q0 204 88 445t256 415t367 174q100 1 166 -51
t65 -144q0 -135 -114 -243t-277 -185q119 -4 190 -81t66 -195q0 -190 -145 -358t-342 -167z" />
    <glyph glyph-name="theta1" unicode="&#x3d1;" horiz-adv-x="915" 
d="M609 770q95 0 206 61q12 86 12 156q0 319 -157 320q-115 0 -183 -110q-67 -110 -67 -217q0 -106 47 -158t142 -52zM356 -31q-274 0 -274 201q0 58 30 154t30 128t-27 42t-86 14l10 39q103 33 201 33t98 -64q0 -35 -22 -108q-22 -72 -38 -122q-14 -50 -14 -108
q0 -123 119 -123q98 0 188 114q160 203 232 591q-137 -86 -273 -86t-213 72q-76 72 -75 188q0 184 135 321t293 137t245 -102q86 -102 86 -322t-108 -488q-55 -136 -129 -250t-182 -188t-226 -73z" />
    <glyph glyph-name="phi1" unicode="&#x3d5;" horiz-adv-x="1282" 
d="M1102 639q0 95 -36 151t-89 56q-125 0 -186 -225l-136 -504l-16 -64q195 29 329 197t134 389zM74 362q0 178 139 334q139 158 362 250l41 -45q-168 -74 -268 -219t-100 -315q0 -125 59 -206t170 -104l109 406q72 255 174 367t234 112t206 -81q76 -81 76 -224
q0 -265 -194 -451t-466 -213q-72 -274 -96 -405l-176 -33q57 248 111 440q-169 17 -275 113t-106 274z" />
    <glyph glyph-name="uni0400" unicode="&#x400;" horiz-adv-x="1091" 
d="M664 1513l-5 21l62 63q21 21 35 21t45 -29l219 -207l-19 -22zM461 1168q0 22 -24 38t-83 33l13 41h843q-35 -125 -63 -303h-49q4 29 4 53q0 86 -37 121q-53 51 -238 51q-94 0 -172 -4l-137 -500h123q203 0 242 15l-37 -105q-41 12 -223 13h-127l-123 -455q-4 -16 -4 -27
q1 -59 185 -59t254 45t136 176h43q-53 -152 -92 -301h-864l12 41l129 43l283 1036q6 26 6 48z" />
    <glyph glyph-name="afii10023" unicode="&#x401;" horiz-adv-x="1091" 
d="M1083 1512q-1 -37 -33 -69t-70 -32q-38 -1 -57 19t-19 58t31 70q32 32 71 32t58 -21q19 -20 19 -57zM799 1512q0 -37 -33 -69t-71 -32q-38 -1 -57 19q-20 20 -20 58t32 70t70 32t58 -21q20 -20 21 -57zM461 1168q0 22 -24 38t-83 33l13 41h843q-35 -125 -63 -303h-49
q4 29 4 53q0 86 -37 121q-53 51 -238 51q-94 0 -172 -4l-137 -500h123q203 0 242 15l-37 -105q-41 12 -223 13h-127l-123 -455q-4 -16 -4 -27q1 -59 185 -59t254 45t136 176h43q-53 -152 -92 -301h-864l12 41l129 43l283 1036q6 26 6 48z" />
    <glyph glyph-name="afii10051" unicode="&#x402;" horiz-adv-x="1376" 
d="M1200 977q0 90 -4 119t-18 55q-31 51 -191 51h-94l-152 -557q150 125 291 125t218 -87t77 -214q0 -201 -158 -381t-512 -385l-30 47q524 375 524 705q0 94 -47 145t-135 51q-123 0 -254 -108l-107 -383q-6 -26 -6 -48t24 -38t83 -33l-13 -41q-141 6 -208 6t-220 -6l13 41
l129 43l307 1118h-96q-156 0 -209 -47t-127 -178h-47q11 41 98 303h981q-35 -129 -70 -303h-47z" />
    <glyph glyph-name="afii10052" unicode="&#x403;" horiz-adv-x="1003" 
d="M1053 1534l-2 -21l-383 -141l-15 25l287 200q31 21 46 21t28 -21zM461 1168q0 24 -25 40t-86 31l12 41h838q-29 -113 -67 -322h-50q2 16 2 52q0 120 -54 156t-167 36t-211 -4l-282 -1038q-6 -24 -6 -48q-1 -24 31 -39t116 -32l-12 -41l-248 6q-31 0 -114 -3t-107 -3
l12 41l129 43l283 1036q6 24 6 48z" />
    <glyph glyph-name="afii10053" unicode="&#x404;" horiz-adv-x="1185" 
d="M627 -31q-446 0 -447 437q0 156 53 314t149 291q96 132 248 216q151 84 326 84q80 0 203 -23t133 -24q-49 -207 -67 -328h-45q2 23 2 61q0 119 -58 172t-172 54q-190 1 -324 -145t-206 -382h108q426 0 457 11l-37 -103q-37 10 -446 10h-105q-31 -129 -30 -225
q0 -332 290 -332q275 0 400 301h45q-41 -111 -111 -338q-29 -4 -152 -28q-124 -24 -214 -23z" />
    <glyph glyph-name="afii10054" unicode="&#x405;" horiz-adv-x="1013" 
d="M991 977q0 248 -215 248q-120 0 -196 -71t-76 -180t142 -231q58 -49 118 -100t101 -122q42 -71 42 -150q0 -186 -135 -294q-134 -108 -332 -108t-340 76q51 168 76 279h41q-2 -10 -2 -39q0 -113 65 -172t177 -59t194 74q82 75 82 197t-142 239q-57 48 -117 98
q-144 119 -144 277q0 159 127 265t334 107q82 -1 307 -56q-37 -113 -66 -278h-41z" />
    <glyph glyph-name="afii10055" unicode="&#x406;" horiz-adv-x="628" 
d="M465 1168q0 22 -24 38t-83 33l13 41l204 -6q31 0 115 3t109 3l-13 -41l-129 -43l-282 -1036q-6 -26 -6 -48q-1 -22 23 -38t83 -33l-12 -41l-207 6q-31 0 -114 -3t-107 -3l12 41l129 43l283 1036q6 26 6 48z" />
    <glyph glyph-name="afii10056" unicode="&#x407;" horiz-adv-x="628" 
d="M748 1411q-76 0 -76 77q0 38 31 70q32 32 70 32q39 0 59 -21q20 -20 20 -57t-33 -69t-71 -32zM567 1512q-1 -37 -33 -69t-70 -32q-38 -1 -57 19t-19 58t31 70q32 32 71 32t58 -21q19 -20 19 -57zM465 1168q0 22 -24 38t-83 33l13 41l204 -6q31 0 115 3t109 3l-13 -41
l-129 -43l-282 -1036q-6 -26 -6 -48q-1 -22 23 -38t83 -33l-12 -41l-207 6q-31 0 -114 -3t-107 -3l12 41l129 43l283 1036q6 26 6 48z" />
    <glyph glyph-name="afii10057" unicode="&#x408;" horiz-adv-x="620" 
d="M459 1168q0 22 -24 38t-83 33l13 41l202 -6q39 0 114 3t112 3l-13 -41l-129 -43l-278 -1022q-65 -229 -168 -380q-123 -179 -373 -238l-14 51q139 55 223 181t152 376l260 956q6 26 6 48z" />
    <glyph glyph-name="afii10058" unicode="&#x409;" horiz-adv-x="1789" 
d="M1212 80q160 0 261 111q100 112 100 272q0 195 -240 194q-82 0 -155 -16l-129 -477q-4 -16 -5 -29q0 -33 37 -44t131 -11zM1382 739q170 0 273 -75q102 -76 102 -236t-117 -281q-143 -147 -436 -147h-497l12 41l129 43l287 1049q6 25 6 36q0 33 -54 33h-305l-24 -94
q-90 -352 -226 -640t-228 -382q-93 -96 -212 -96q-33 0 -94 4l-76 6l12 41l46 12q160 45 268 162q214 231 389 856l10 37q10 36 10 60t-24 39q-25 15 -103 32l11 41h934l-13 -41l-133 -43l-131 -477q84 20 184 20z" />
    <glyph glyph-name="afii10059" unicode="&#x40a;" horiz-adv-x="1869" 
d="M1502 731q138 0 237 -75q98 -74 98 -232t-121 -279q-150 -145 -432 -145h-500l13 41l129 43l143 528h-575l-123 -452q-6 -26 -6 -48q-1 -22 23 -38t83 -33l-12 -41l-207 6q-31 0 -114 -3t-107 -3l12 41l129 43l283 1036q6 26 6 48t-24 38t-83 33l13 41l204 -6q31 0 115 3
t109 3l-13 -41l-129 -43l-135 -496h576l114 420q6 26 6 48t-23 38q-24 16 -83 33l12 41l207 -6q31 0 114 3t107 3l-12 -41l-129 -43l-135 -494q92 29 230 29zM1122 135q0 -33 37 -44t131 -11q166 0 264 112t99 250q-1 100 -57 150t-185 51q-76 0 -158 -20l-127 -459
q-4 -16 -4 -29z" />
    <glyph glyph-name="afii10060" unicode="&#x40b;" horiz-adv-x="1419" 
d="M1202 977q0 90 -4 119t-18 55q-31 51 -191 51h-94l-152 -557q156 125 318 125q121 0 199 -67t77 -168q0 -49 -22 -136l-66 -239q-6 -26 -6 -48t24 -38t83 -33l-13 -41q-141 6 -205 6t-219 -6l13 41l129 43l98 358q12 47 12 76q0 66 -44 102t-128 35q-137 0 -276 -112
l-107 -383q-6 -26 -6 -48t24 -38t83 -33l-13 -41q-142 6 -208 6t-220 -6l13 41l129 43l305 1118h-96q-156 0 -209 -47t-127 -178h-47q11 41 98 303h983q-33 -129 -70 -303h-47z" />
    <glyph glyph-name="afii10061" unicode="&#x40c;" horiz-adv-x="1222" 
d="M1167 1534l-2 -21l-383 -141l-14 25l287 200q31 21 46 21t27 -21zM461 1168q0 22 -24 38t-83 33l13 41l206 -6q31 0 113 3t107 3l-13 -41l-129 -43l-135 -496h90q80 0 119 29t109 139l229 359q21 33 41 43t61 10h230l-11 -41q-114 -16 -164 -52t-141 -157l-147 -199
q-104 -137 -191 -180q96 -55 160 -223l94 -246q23 -59 45 -82q42 -43 140 -4l-19 -61q-69 -53 -147 -53t-121 43t-78 137l-84 229q-57 156 -96 195t-127 39h-12l-127 -465q-7 -26 -7 -48t24 -38t83 -33l-12 -41l-201 6q-31 0 -116 -3t-109 -3l12 41l129 43l283 1036
q6 26 6 48z" />
    <glyph glyph-name="uni040D" unicode="&#x40d;" horiz-adv-x="1398" 
d="M892 1634q16 0 34 -20l211 -240l-19 -22l-321 178l-4 20l69 70q14 14 30 14zM461 1168q0 22 -24 38t-83 33l13 41l204 -6q31 0 113 3t107 3l-13 -41l-129 -43l-250 -915l760 751q49 49 66 77q16 28 30 83l25 88h293l-12 -41l-129 -43l-283 -1036q-6 -26 -6 -48
q-1 -22 23 -38t83 -33l-12 -41l-205 6q-30 0 -112 -3t-107 -3l12 41l129 43l234 866l-758 -749q-50 -49 -66 -77t-30 -83l-10 -41h-293l12 41l129 43l283 1036q6 26 6 48z" />
    <glyph glyph-name="afii10062" unicode="&#x40e;" horiz-adv-x="1128" 
d="M884 1382q-94 0 -142 43t-48 117q0 33 11 64h45q-8 -57 31 -94q40 -36 111 -36t128 36q57 34 82 94h45q-27 -104 -98 -164t-165 -60zM1240 1274q46 0 112 3t84 3l-13 -41q-86 -10 -124 -33t-85 -92l-477 -682q-205 -293 -287 -370t-194 -76q-53 0 -135 10l-47 4l12 41
l55 10q229 43 416 285l-164 794q-15 70 -72 89q-24 8 -77 20l12 41q86 -6 190 -6t238 6l-12 -41l-123 -29l137 -704l485 704l-112 29l12 41q123 -6 169 -6z" />
    <glyph glyph-name="afii10145" unicode="&#x40f;" horiz-adv-x="1310" 
d="M1055 112q-1 -22 23 -38t83 -33l-12 -41h-422q-49 0 -76 -47q-59 -111 -116 -262h-48q23 162 23 260q0 31 -15 40q-16 9 -55 9h-409l12 41l129 43l283 1036q6 26 6 48t-24 38t-83 33l13 41l206 -6q31 0 114 3t108 3l-13 -41l-129 -43l-305 -1118h512l285 1042q6 26 6 48
t-24 38t-83 33l13 41l207 -6q32 0 114 3t107 3l-12 -41l-130 -43l-282 -1036q-6 -26 -6 -48z" />
    <glyph glyph-name="afii10017" unicode="&#x410;" horiz-adv-x="1273" 
d="M805 952q0 44 2 62q-33 -68 -127 -221l-156 -254h314l-23 256q-10 113 -10 157zM1174 0l-216 6q-30 0 -112 -3t-107 -3l13 41l129 41l-33 377h-373l-196 -307q-20 -31 -21 -50q0 -29 49 -43l68 -18l-13 -41l-186 6q-32 0 -106 -3t-99 -3l13 41l141 41l760 1198h63
l107 -1124q4 -46 18 -66t51 -31l62 -18z" />
    <glyph glyph-name="afii10018" unicode="&#x411;" horiz-adv-x="1130" 
d="M461 1168q0 22 -25 38t-84 33l13 41h864q-43 -160 -68 -303h-47v59q0 115 -49 141q-74 39 -412 21l-131 -479q84 20 185 20q170 1 272 -75t102 -236t-116 -281q-143 -147 -437 -147h-497l12 41l129 43l283 1036q6 26 6 48zM369 135q0 -33 37 -44t131 -11q160 0 260 112
t100 271q0 195 -240 194q-81 0 -155 -16l-129 -477q-4 -16 -4 -29z" />
    <glyph glyph-name="afii10019" unicode="&#x412;" horiz-adv-x="1142" 
d="M657 731q139 0 230 80q96 87 96 229q0 68 -46 115t-187 47h-95l-129 -471h131zM371 136q-1 -56 157 -56t256 110t99 263q0 94 -52 146t-204 52h-123l-127 -467q-6 -20 -6 -48zM461 1168q0 22 -24 38t-83 33l13 41h424q201 0 283 -66t81 -176q0 -110 -76 -204t-198 -134
q90 -28 140 -100t50 -160q0 -178 -135 -309t-410 -131h-495l12 41l129 43l283 1036q6 26 6 48z" />
    <glyph glyph-name="afii10020" unicode="&#x413;" horiz-adv-x="1003" 
d="M461 1168q0 24 -25 40t-86 31l12 41h838q-29 -113 -67 -322h-50q2 16 2 52q0 120 -54 156t-167 36t-211 -4l-282 -1038q-6 -24 -6 -48q-1 -24 31 -39t116 -32l-12 -41l-248 6q-31 0 -114 -3t-107 -3l12 41l129 43l283 1036q6 24 6 48z" />
    <glyph glyph-name="afii10021" unicode="&#x414;" horiz-adv-x="1300" 
d="M1114 1169q0 33 -53 33h-289l-53 -196q-82 -306 -192 -524t-269 -404h561l289 1055q6 25 6 36zM891 0h-651q-80 0 -124 -15q-93 -32 -194 -288h-49l100 373l13 10h67q47 0 72 9t49 40q158 199 255 393t177 484l33 118q6 26 6 46t-29 35t-108 34l10 41h930l-10 -41
l-140 -43l-303 -1118h201l4 -8q-51 -160 -108 -375h-50q8 49 8 147t-29 128q-30 30 -130 30z" />
    <glyph glyph-name="afii10022" unicode="&#x415;" horiz-adv-x="1091" 
d="M461 1168q0 22 -24 38t-83 33l13 41h843q-35 -125 -63 -303h-49q4 29 4 53q0 86 -37 121q-53 51 -238 51q-94 0 -172 -4l-137 -500h123q203 0 242 15l-37 -105q-41 12 -223 13h-127l-123 -455q-4 -16 -4 -27q1 -59 185 -59t254 45t136 176h43q-53 -152 -92 -301h-864
l12 41l129 43l283 1036q6 26 6 48z" />
    <glyph glyph-name="afii10024" unicode="&#x416;" horiz-adv-x="1845" 
d="M877 618q-109 0 -171 -43t-151 -186l-141 -227q-62 -96 -112 -136t-128 -40t-178 14l12 41l55 10q63 12 97 39q33 27 73 92l150 242q74 117 142 174q69 57 161 72q-80 57 -102 161l-47 211q-27 121 -61 151t-144 46l10 41h227q43 0 59 -10t19 -43l55 -359
q14 -110 43 -142t117 -32h90l117 426q6 26 6 48t-23 38q-24 16 -83 33l12 41l201 -6q30 0 112 3t107 3l-12 -41l-129 -43l-138 -502h101q84 0 126 30t115 144l226 359q20 33 40 43t62 10h229l-10 -41q-115 -16 -167 -52t-138 -157l-143 -199q-109 -147 -197 -184
q41 -20 73 -68t72 -153l88 -244q21 -61 39 -83q18 -21 60 -21t78 18l-21 -61q-69 -53 -147 -53t-118 42t-75 138l-80 227q-55 158 -89 194t-120 35h-24l-125 -458q-6 -26 -6 -48q-1 -22 23 -38t83 -33l-12 -41l-203 6q-32 0 -112 -3t-105 -3l12 41l129 43l146 534h-55z" />
    <glyph glyph-name="afii10025" unicode="&#x417;" horiz-adv-x="1058" 
d="M172 338v-35q0 -115 70 -181t182 -67q178 0 287 135q90 112 90 234t-66 168t-196 45h-74l20 78h52q161 0 269 83t107 232q0 96 -58 146t-155 51q-219 0 -338 -260h-45q55 164 89 295q207 49 349 49t240 -72q99 -72 99 -202t-100 -224t-249 -129q113 -18 179 -85t65 -179
q1 -176 -153 -312t-364 -138t-413 67q23 88 72 301h41z" />
    <glyph glyph-name="afii10026" unicode="&#x418;" horiz-adv-x="1398" 
d="M461 1168q0 22 -24 38t-83 33l13 41l204 -6q31 0 113 3t107 3l-13 -41l-129 -43l-250 -915l760 751q49 49 66 77q16 28 30 83l25 88h293l-12 -41l-129 -43l-283 -1036q-6 -26 -6 -48q-1 -22 23 -38t83 -33l-12 -41l-205 6q-30 0 -112 -3t-107 -3l12 41l129 43l234 866
l-758 -749q-50 -49 -66 -77t-30 -83l-10 -41h-293l12 41l129 43l283 1036q6 26 6 48z" />
    <glyph glyph-name="afii10027" unicode="&#x419;" horiz-adv-x="1398" 
d="M993 1382q-94 0 -142 43t-48 117q0 33 10 64h45q-8 -58 32 -94t110 -36t128 36q57 34 82 94h45q-27 -104 -97 -164t-165 -60zM461 1168q0 22 -24 38t-83 33l13 41l204 -6q31 0 113 3t107 3l-13 -41l-129 -43l-250 -915l760 751q49 49 66 77q16 28 30 83l25 88h293
l-12 -41l-129 -43l-283 -1036q-6 -26 -6 -48q-1 -22 23 -38t83 -33l-12 -41l-205 6q-30 0 -112 -3t-107 -3l12 41l129 43l234 866l-758 -749q-50 -49 -66 -77t-30 -83l-10 -41h-293l12 41l129 43l283 1036q6 26 6 48z" />
    <glyph glyph-name="afii10028" unicode="&#x41a;" horiz-adv-x="1222" 
d="M461 1168q0 22 -24 38t-83 33l13 41l206 -6q31 0 113 3t107 3l-13 -41l-129 -43l-135 -496h90q80 0 119 29t109 139l229 359q21 33 41 43t61 10h230l-11 -41q-114 -16 -164 -52t-141 -157l-147 -199q-104 -137 -191 -180q96 -55 160 -223l94 -246q23 -59 45 -82
q42 -43 140 -4l-19 -61q-69 -53 -147 -53t-121 43t-78 137l-84 229q-57 156 -96 195t-127 39h-12l-127 -465q-7 -26 -7 -48t24 -38t83 -33l-12 -41l-201 6q-31 0 -116 -3t-109 -3l12 41l129 43l283 1036q6 26 6 48z" />
    <glyph glyph-name="afii10029" unicode="&#x41b;" horiz-adv-x="1300" 
d="M1087 1202h-305l-24 -94q-90 -352 -226 -640t-228 -382q-93 -96 -212 -96q-33 0 -94 4l-76 6l12 41l46 12q160 45 268 162q214 231 389 856l10 37q10 36 10 60t-24 39q-25 15 -103 32l11 41h934l-13 -41l-133 -43l-282 -1038q-7 -26 -7 -48t24 -38t83 -33l-12 -41l-207 6
q-31 0 -114 -3t-107 -3l12 41l129 43l287 1051q6 25 6 36q-1 33 -54 33z" />
    <glyph glyph-name="afii10030" unicode="&#x41c;" horiz-adv-x="1648" 
d="M293 112q-1 -22 23 -38t83 -33l-12 -41l-176 6q-31 0 -93 -3t-87 -3l12 41l129 43l283 1036q6 26 6 48t-24 38t-83 33l13 41h307l157 -987l685 987h307l-13 -41l-129 -43l-282 -1034q-6 -24 -6 -48q-1 -24 23 -40t83 -33l-12 -41l-211 6q-31 0 -112 -3t-103 -3l12 41
l129 43l273 997q-74 -127 -189 -290l-549 -799h-30l-134 799q-26 163 -26 276l-248 -907q-6 -26 -6 -48z" />
    <glyph glyph-name="afii10031" unicode="&#x41d;" horiz-adv-x="1374" 
d="M1118 112q0 -22 24 -38t83 -33l-13 -41l-204 6q-31 0 -115 -3t-109 -3l13 41l129 43l143 528h-575l-123 -452q-6 -26 -6 -48q-1 -22 23 -38t83 -33l-12 -41l-207 6q-31 0 -114 -3t-107 -3l12 41l129 43l283 1036q6 26 6 48t-24 38t-83 33l13 41l204 -6q31 0 115 3t109 3
l-13 -41l-129 -43l-135 -496h576l114 420q6 26 6 48t-23 38q-24 16 -83 33l12 41l207 -6q31 0 114 3t107 3l-12 -41l-129 -43l-283 -1036q-6 -26 -6 -48z" />
    <glyph glyph-name="afii10032" unicode="&#x41e;" horiz-adv-x="1249" 
d="M550 -31q-162 0 -265 118q-105 118 -105 292q-1 340 194 627q89 133 222 219t295 86t266 -118q105 -118 105 -292t-53 -334q-113 -351 -363 -512q-134 -86 -296 -86zM578 61q128 1 246 139t183 330t65 358q0 165 -57 248q-56 83 -151 83q-129 -1 -247 -139
q-119 -138 -183 -330t-64 -358q0 -165 58 -248q56 -83 150 -83z" />
    <glyph glyph-name="afii10033" unicode="&#x41f;" horiz-adv-x="1329" 
d="M365 112q-1 -22 23 -38t83 -33l-12 -41l-207 6q-31 0 -114 -3t-107 -3l12 41l129 43l283 1036q6 26 6 48t-24 38t-83 33l13 41h1136l-12 -41l-129 -43l-283 -1036q-6 -26 -6 -48t24 -38t83 -33l-13 -41l-206 6q-31 0 -114 -3t-108 -3l13 41l129 43l305 1118h-531
l-284 -1042q-6 -26 -6 -48z" />
    <glyph glyph-name="afii10034" unicode="&#x420;" horiz-adv-x="1105" 
d="M461 1168q0 22 -24 38t-83 33l13 41h401q231 0 336 -98q80 -76 80 -203q0 -180 -125 -299q-162 -156 -455 -156h-135l-98 -364q-6 -24 -6 -46q0 -43 127 -73l-13 -41l-227 6q-31 0 -114 -3t-107 -3l12 41l129 43l283 1036q6 26 6 48zM580 604q285 0 384 234q32 76 32 158
t-52 137q-63 63 -217 63h-74l-161 -592h88z" />
    <glyph glyph-name="afii10035" unicode="&#x421;" horiz-adv-x="1136" 
d="M563 -31q-172 0 -277 112q-106 111 -106 319t91 417t265 351t386 143q91 1 198 -21t133 -26q-51 -197 -73 -324h-41q-1 147 -57 214t-171 67q-147 -1 -275 -135t-197 -323t-69 -357t66 -248t171 -80t209 51t175 129l49 -43q-90 -115 -218 -181t-259 -65z" />
    <glyph glyph-name="afii10036" unicode="&#x422;" horiz-adv-x="1099" 
d="M1202 977q0 90 -4 119t-18 55q-31 51 -191 51h-94l-285 -1042q-6 -26 -6 -48t25 -38t86 -33l-13 -41l-215 6q-31 0 -111 -3t-106 -3l13 41l129 43l305 1118h-96q-156 0 -209 -47t-127 -178h-47q11 41 98 303h983q-33 -129 -70 -303h-47z" />
    <glyph glyph-name="afii10037" unicode="&#x423;" horiz-adv-x="1128" 
d="M1240 1274q46 0 112 3t84 3l-13 -41q-86 -10 -124 -33t-85 -92l-477 -682q-205 -293 -287 -370t-194 -76q-53 0 -135 10l-47 4l12 41l55 10q229 43 416 285l-164 794q-15 70 -72 89q-24 8 -77 20l12 41q86 -6 190 -6t238 6l-12 -41l-123 -29l137 -704l485 704l-112 29
l12 41q123 -6 169 -6z" />
    <glyph glyph-name="afii10038" unicode="&#x424;" horiz-adv-x="1447" 
d="M334 586q0 -133 80 -219t217 -101l207 758q-244 -8 -374 -128t-130 -310zM1303 702q0 132 -81 218t-218 100l-205 -756q242 6 373 127t131 311zM147 580q1 158 103 278t261 178q159 59 345 58l8 26q6 26 6 48t-23 38q-24 16 -83 33l12 41l195 -6q31 0 115 3t108 3
l-12 -41l-129 -43l-29 -106q209 -18 337 -120t128 -261q-1 -158 -103 -278t-262 -179t-346 -57l-8 -35q-6 -26 -6 -48t24 -38t82 -33l-12 -41l-196 6q-31 0 -114 -3t-108 -3l13 41l129 43l30 113q-209 18 -337 121q-128 104 -128 262z" />
    <glyph glyph-name="afii10039" unicode="&#x425;" horiz-adv-x="1181" 
d="M920 6q-132 0 -203 -6l10 41l115 27l-176 493l-422 -493l112 -27l-10 -41q-123 6 -197 6t-182 -6l10 41q143 12 220 98l434 504l-180 490q-19 53 -47 72t-95 34l13 41q76 -6 190 -6t217 6l-10 -41l-105 -27l154 -432l377 439l-96 20l10 41q96 -6 182 -6t162 6l-10 -41
q-86 -6 -127 -28t-92 -81l-377 -436l198 -536q21 -57 55 -81t105 -36l-10 -41q-93 6 -225 6z" />
    <glyph glyph-name="afii10040" unicode="&#x426;" horiz-adv-x="1337" 
d="M934 0h-903l12 41l129 43l283 1036q6 26 6 48t-24 38t-83 33l13 41l206 -6q31 0 114 3t108 3l-13 -41l-129 -43l-305 -1118h512l285 1042q6 26 6 48t-24 38t-83 33l13 41l207 -6q32 0 114 3t107 3l-12 -41l-130 -43l-305 -1118h201l4 -8q-51 -160 -108 -375h-50
q9 49 9 147t-30 128t-130 30z" />
    <glyph glyph-name="afii10041" unicode="&#x427;" horiz-adv-x="1175" 
d="M266 725q0 49 23 135l69 260q6 26 6 48t-23 38q-24 16 -83 33l12 41q140 -6 202 -6t216 6l-12 -41l-129 -43l-103 -379q-12 -47 -12 -76q0 -65 44 -101t128 -36q156 0 301 129l105 387q6 26 6 48t-24 38t-83 33l13 41q142 -6 208 -6t220 6l-13 -41l-129 -43l-282 -1036
q-6 -26 -6 -48t24 -38t82 -33l-12 -41l-205 6q-31 0 -115 -3t-108 -3l12 41l129 43l145 539q-168 -133 -331 -134q-121 0 -198 67t-77 169z" />
    <glyph glyph-name="afii10042" unicode="&#x428;" horiz-adv-x="1775" 
d="M1520 112q0 -43 106 -71l-12 -41h-1583l12 41l129 43l283 1036q6 26 6 48t-24 38t-83 33l13 41l206 -6q31 0 114 3t108 3l-13 -41l-129 -43l-305 -1118h402l284 1042q6 26 6 48t-23 38q-24 16 -83 33l12 41l207 -6q31 0 112 3t105 3l-12 -41l-129 -43l-305 -1118h401
l285 1042q6 26 6 48t-24 38t-83 33l13 41l207 -6q31 0 113 3t108 3l-13 -41l-129 -43l-282 -1036q-6 -26 -6 -48z" />
    <glyph glyph-name="afii10043" unicode="&#x429;" horiz-adv-x="1802" 
d="M1399 0h-1368l12 41l129 43l283 1036q6 26 6 48t-24 38t-83 33l13 41l206 -6q31 0 114 3t108 3l-13 -41l-129 -43l-305 -1118h402l284 1042q6 26 6 48t-23 38q-24 16 -83 33l12 41l207 -6q31 0 112 3t105 3l-12 -41l-129 -43l-305 -1118h401l285 1042q6 26 6 48t-24 38
t-83 33l13 41l207 -6q31 0 113 3t108 3l-13 -41l-129 -43l-305 -1118h201l4 -8q-51 -160 -109 -375h-49q8 49 8 147t-29 128q-30 30 -130 30z" />
    <glyph glyph-name="afii10044" unicode="&#x42a;" horiz-adv-x="1347" 
d="M940 739q172 1 273 -73t101 -233t-120 -279q-154 -154 -440 -154h-490l12 41l130 43l284 1051q6 25 6 36q0 31 -73 31h-15q-156 0 -209 -47t-127 -178h-47q7 28 99 303h700l-12 -41l-129 -43l-127 -477q84 20 184 20zM602 135q0 -31 38 -43t130 -12q154 0 257 106
t103 271q0 201 -239 200q-82 0 -156 -16l-129 -477q-4 -16 -4 -29z" />
    <glyph glyph-name="afii10045" unicode="&#x42b;" horiz-adv-x="1626" 
d="M1466 1168q0 22 -23 38q-24 16 -83 33l12 41l205 -6q31 0 115 3t108 3l-12 -41l-129 -43l-283 -1036q-6 -26 -6 -48t24 -38t83 -33l-13 -41l-207 6q-31 0 -113 -3t-108 -3l13 41l129 43l282 1036q6 26 6 48zM1083 483q0 -197 -143 -333q-162 -150 -438 -150h-471l12 41
l129 43l283 1036q6 26 6 48t-24 38t-83 33l13 41l196 -6q31 0 112 3t105 3l-12 -41l-119 -41l-117 -440q84 25 187 24q162 0 263 -80t101 -219zM524 80q160 0 268 115t107 299q0 207 -229 206q-80 0 -158 -20l-139 -516q-4 -16 -4 -29q1 -33 35 -44t120 -11z" />
    <glyph glyph-name="afii10046" unicode="&#x42c;" horiz-adv-x="1124" 
d="M532 0h-501l12 41l129 43l283 1036q6 26 6 48t-24 38t-83 33l13 41l196 -6q31 0 112 3t105 3l-12 -41l-119 -41l-117 -440q84 25 191 24q168 0 268 -80t101 -219q0 -203 -146 -343t-414 -140zM369 135q0 -33 38 -44t125 -11q160 0 268 121t107 288q0 211 -237 211
q-80 0 -158 -20l-139 -516q-4 -16 -4 -29z" />
    <glyph glyph-name="afii10047" unicode="&#x42d;" horiz-adv-x="1196" 
d="M186 299q0 -242 263 -242q373 0 530 557h-98q-399 0 -451 -10l16 103q51 -10 457 -11h94q23 100 23 201q0 152 -69 239t-208 87t-231 -73t-162 -220h-47q14 35 115 334q37 4 149 26t207 21q434 0 434 -441q0 -270 -127 -498q-137 -251 -365 -349q-124 -53 -244 -53
t-238 24t-156 31q45 188 72 335h40q-4 -33 -4 -61z" />
    <glyph glyph-name="afii10048" unicode="&#x42e;" horiz-adv-x="1773" 
d="M1114 61q129 1 244 139t177 330t62 359q0 166 -51 248t-145 82q-129 -1 -244 -139t-177 -330t-62 -359q0 -166 51 -248t145 -82zM1411 1311q175 0 275 -117q100 -116 100 -318t-84 -409t-244 -353t-346 -145q-184 0 -284 117q-99 117 -99 315q0 92 25 211h-260l-123 -452
q-6 -26 -6 -48q-1 -22 23 -38t83 -33l-12 -41l-207 6q-31 0 -114 -3t-107 -3l12 41l129 43l283 1036q6 26 6 48t-24 38t-83 33l13 41l204 -6q31 0 115 3t109 3l-13 -41l-129 -43l-135 -496h258q76 256 246 434t389 177z" />
    <glyph glyph-name="afii10049" unicode="&#x42f;" horiz-adv-x="1204" 
d="M979 1196q-215 0 -324 -109q-86 -83 -86 -203t78 -185t215 -64h43l154 561h-80zM834 557q-111 0 -170 -37t-150 -168l-133 -190q-74 -106 -122 -142t-129 -34q-81 0 -181 14l12 41l55 10q66 15 100 39t83 94l153 219q62 89 118 137t130 70q-90 35 -155 107t-64 162
q0 152 108 254q158 147 496 147h393l-12 -41l-129 -43l-283 -1036q-6 -26 -6 -48t25 -38t86 -33l-12 -41l-211 6q-31 0 -114 -3t-108 -3l13 41l129 41l129 475h-51z" />
    <glyph glyph-name="afii10065" unicode="&#x430;" horiz-adv-x="993" 
d="M657 852q-151 0 -267 -195t-116 -383q0 -92 34 -142t91 -50q113 0 207 145q70 106 119 299l68 250q-39 76 -136 76zM347 -31q-119 0 -187 82t-68 217q0 136 68 278t174 247q154 150 332 149q102 0 188 -70l49 70l82 -24l4 -9l-198 -733q-10 -37 -11 -55q0 -35 38 -35
t79 18l-16 -63q-27 -23 -76 -40t-92 -17t-71 26t-28 61q0 36 9 66h-5q-20 -37 -51 -67q-100 -101 -220 -101z" />
    <glyph glyph-name="afii10066" unicode="&#x431;" horiz-adv-x="991" 
d="M455 55q85 0 161 83t118 207t42 249q0 201 -158 201q-129 0 -228 -163t-99 -356q0 -221 164 -221zM670 885q124 0 206 -88t80 -242q0 -217 -143 -401t-354 -185q-162 1 -254 103t-92 284q0 246 139 506q102 194 240 296t335 120l23 2q110 10 142 24t61 62l34 -6
q-25 -135 -69 -176t-160 -51l-76 -7q-196 -14 -310 -125t-204 -364h2q72 115 174 181t226 67z" />
    <glyph glyph-name="afii10067" unicode="&#x432;" horiz-adv-x="942" 
d="M758 756q0 48 -32 76t-91 28q-101 0 -189 -94t-131 -256l199 43q244 53 244 203zM268 250q0 -199 172 -199q113 0 175 82t63 168q0 170 -164 170q-76 0 -221 -39q-25 -96 -25 -182zM854 309q0 -143 -120 -241t-296 -99q-344 0 -344 301q0 199 123 402q166 270 440 270
q119 0 194 -51t75 -135t-72 -144t-182 -86q80 -18 131 -72t51 -145z" />
    <glyph glyph-name="afii10068" unicode="&#x433;" horiz-adv-x="835" 
d="M569 942q119 0 190 -57t71 -139t-61 -135q-60 -52 -214 -130l-61 -30q-142 -72 -192 -120q-50 -49 -50 -115t40 -104t114 -38q160 0 313 172l43 -43q-76 -104 -190 -169t-232 -65t-195 64q-75 63 -75 151t60 146t210 135l53 27q141 70 199 119q57 49 57 107t-38 87
t-103 29q-146 0 -275 -160l-49 35q147 233 385 233z" />
    <glyph glyph-name="afii10069" unicode="&#x434;" horiz-adv-x="980" 
d="M424 53q131 0 228 179t132 464q-59 100 -188 100t-213 -120q-115 -166 -115 -389q0 -109 41 -171t115 -63zM594 885q121 0 203 -72q6 76 6 158q0 322 -205 321q-98 0 -213 -73l-31 41q144 133 290 133t240 -113q94 -114 93 -346q0 -232 -66 -454q-67 -222 -199 -367
t-290 -145t-246 88q-86 89 -86 243q0 219 144 403t360 183z" />
    <glyph glyph-name="afii10070" unicode="&#x435;" horiz-adv-x="870" 
d="M614 854q-94 0 -186 -121t-133 -280q184 29 295 121t110 194q0 38 -22 62t-64 24zM368 -31q-122 0 -199 86t-77 226t70 293t199 261q130 108 282 107q99 0 157 -45t58 -125q0 -158 -174 -268t-403 -131q-6 -41 -7 -78q0 -209 160 -209q78 0 159 54t140 124l41 -37
q-61 -106 -173 -182q-111 -76 -233 -76z" />
    <glyph glyph-name="afii10072" unicode="&#x436;" horiz-adv-x="1720" 
d="M1645 211q-131 -242 -331 -242q-102 0 -158 80q-56 79 -56 191t22 198h-151l-121 -438h-152l121 438h-151q-56 -197 -186 -333t-298 -136q-94 0 -180 56q29 80 55 206h29q11 -174 125 -174q92 -1 167 101t112 234t36 251q0 186 -112 186q-104 0 -219 -163l-43 34
q61 113 144 178t171 64q117 0 173 -80t56 -213q0 -74 -14 -139h154l110 399h152l-111 -399h152q61 184 187 308t286 124q94 0 180 -55q-29 -80 -55 -207h-29q-11 174 -125 174q-92 0 -167 -101q-76 -101 -112 -233t-36 -252q0 -186 112 -186q104 0 220 164z" />
    <glyph glyph-name="afii10073" unicode="&#x437;" horiz-adv-x="876" 
d="M424 444h-88l16 66h72q112 0 186 53t74 127q0 146 -155 146t-298 -160l-49 33q60 104 160 169q100 64 224 64t205 -62t81 -157q0 -168 -236 -234q78 -16 126 -62t49 -118q0 -145 -127 -242t-306 -98q-84 0 -180 22t-158 54q52 154 68 236h29q2 -105 59 -167t171 -62
t188 78q74 79 73 185q0 129 -184 129z" />
    <glyph glyph-name="afii10074" unicode="&#x438;" horiz-adv-x="1026" 
d="M752 -16q-49 0 -77 30t-28 90t33 140h-4q-53 -102 -129 -174q-104 -100 -215 -100t-161 54t-50 140t49 258l90 323q10 37 10 60t-19 38t-69 29l8 37q203 0 273 13l6 -9l-156 -561q-29 -100 -28 -151q0 -102 92 -103q74 0 158 78q83 78 147 207t127 356l47 170h162
l-199 -733q-10 -37 -10 -55q0 -35 38 -35t79 18l-17 -63q-70 -57 -157 -57z" />
    <glyph glyph-name="afii10075" unicode="&#x439;" horiz-adv-x="1026" 
d="M682 1047q-94 0 -142 43t-48 116q0 33 10 74h45q-8 -63 32 -101q41 -38 111 -38t129 38t80 101h45q-28 -109 -98 -171t-164 -62zM752 -16q-49 0 -77 30t-28 90t33 140h-4q-53 -102 -129 -174q-104 -100 -215 -100t-161 54t-50 140t49 258l90 323q10 37 10 60t-19 38
t-69 29l8 37q203 0 273 13l6 -9l-156 -561q-29 -100 -28 -151q0 -102 92 -103q74 0 158 78q83 78 147 207t127 356l47 170h162l-199 -733q-10 -37 -10 -55q0 -35 38 -35t79 18l-17 -63q-70 -57 -157 -57z" />
    <glyph glyph-name="afii10076" unicode="&#x43a;" horiz-adv-x="956" 
d="M889 772q-109 0 -281 -174q66 -262 150 -448q29 -70 84 -70q29 0 78 22l-19 -63q-76 -55 -137 -55t-97 34t-84 146q-48 110 -98 317q-102 -111 -147 -189t-94 -255l-11 -37h-163l204 745q10 37 10 60t-18 39q-20 16 -76 28l9 37q207 0 278 13l6 -9l-131 -479
q37 49 133 150l58 59q160 164 247 226t179 63q25 0 35 -4q-39 -90 -62 -164q-28 8 -53 8z" />
    <glyph glyph-name="afii10077" unicode="&#x43b;" horiz-adv-x="987" 
d="M770 121q0 -35 38 -35t79 18l-17 -63q-28 -23 -76 -40t-91 -17t-71 30t-28 69q0 40 17 105l174 646h-246q0 -142 -66 -322q-67 -180 -189 -337t-261 -202q-33 98 -45 127q134 41 244 165t165 266t56 264q1 33 -23 47t-94 30l8 37h629l4 -6l-197 -727q-10 -37 -10 -55z
" />
    <glyph glyph-name="afii10078" unicode="&#x43c;" horiz-adv-x="1359" 
d="M365 795q0 33 -24 47t-93 30l8 37h266q90 -293 152 -700q102 153 280 395t232 305h160l4 -6l-191 -727q-10 -37 -10 -55q0 -35 38 -35t79 18l-17 -63q-27 -23 -75 -40t-92 -17t-72 28t-27 70q0 41 16 106l131 510q-60 -74 -252 -334t-268 -372h-55q-57 401 -121 665
q-30 -203 -144 -405t-253 -279q-31 68 -62 119q172 90 281 297t109 406z" />
    <glyph glyph-name="afii10079" unicode="&#x43d;" horiz-adv-x="1054" 
d="M838 121q0 -35 38 -35t78 18l-16 -63q-27 -23 -76 -40t-92 -17t-71 28q-27 28 -27 70q0 41 16 106l66 244h-402l-119 -432h-163l204 745q10 37 10 60t-18 39q-20 16 -76 28l9 37q207 0 278 13l6 -9l-110 -405h401l109 401h164l-199 -733q-10 -37 -10 -55z" />
    </font>
</defs>
</svg>
