<?xml version="1.0" standalone="no"?>
<!DOCTYPE svg PUBLIC "-//W3C//DTD SVG 1.1//EN" "http://www.w3.org/Graphics/SVG/1.1/DTD/svg11.dtd" >
<svg xmlns="http://www.w3.org/2000/svg">
<metadata>
Created by FontPrep 20130207 at Fri Sep  2 18:19:05 2016
 By MkTyrtle
Copyright (c) 2015 by Fontsmith Ltd. All rights reserved.
</metadata>
<defs>
<font id="a71a390cd701503bbeb6719cf4843ed4" horiz-adv-x='1024' >
  <font-face 
    font-family="CadillacSerif"
    font-weight="400"
    font-stretch="normal"
    units-per-em="2048"
    panose-1="2 0 5 3 7 0 0 2 0 4"
    ascent="1434"
    descent="-614"
    x-height="909"
    cap-height="1280"
    bbox="-324 -543 2386 1989.14"
    underline-thickness="40"
    underline-position="-231"
    unicode-range="U+000D-FB06"
  />
<missing-glyph horiz-adv-x="1095" 
d="M143 1227v-1034l344 518zM203 102h690l-344 516zM608 711l346 -518v1034zM549 801l344 518h-690zM41 0v1419h1014v-1419h-1014z" />
    <glyph glyph-name="f_f" unicode="ff" horiz-adv-x="1249" 
d="M199 836h-140v73h140q0 137 20 223t78 156q88 104 242 105q75 0 149 -31t74 -84q0 -33 -24 -67q-24 -35 -50 -37t-40 14q-15 16 -41 56t-51 60q-26 19 -62 19q-119 0 -117 -299v-115h403q0 137 20 223t79 156q88 104 241 105q74 0 149 -31t74 -84q1 -33 -23 -67
q-24 -35 -50 -37t-40 14q-15 16 -41 56t-51 60q-26 19 -63 19q-119 0 -117 -299v-115h220l-17 -73h-203v-684q0 -54 20 -74t99 -41v-37l-205 6l-208 -6v37l116 41v758h-403v-684q0 -54 20 -74t99 -41v-37l-205 6l-209 -6v37l117 41v758z" />
    <glyph glyph-name="fi" unicode="fi" horiz-adv-x="1136" 
d="M199 836h-140v73h140v47q0 174 71 283q104 154 305 154q119 0 209 -47t90 -101q0 -37 -26 -69t-59 -33q-33 1 -75 63t-78 88t-85 27q-174 0 -174 -303v-109h325q160 0 256 11v-768q0 -74 54 -95q23 -8 65 -20v-37q-106 6 -158 6t-255 -6v37l116 41v676q0 82 -73 82h-330
v-684q0 -54 20 -74t99 -41v-37l-205 6l-209 -6v37l117 41v758z" />
    <glyph glyph-name="fl" unicode="fl" horiz-adv-x="1157" 
d="M979 152q0 -74 53 -95q23 -8 66 -20v-37q-106 6 -158 6t-256 -6v37l117 41v1190q-78 51 -190 51t-173 -94t-61 -264v-52h225l-12 -73h-213v-684q0 -54 20 -74t99 -41v-37l-205 6l-209 -6v37l117 41v758h-140v73h140q0 233 110 359q111 125 289 125l324 -23q37 0 57 2
v-1220z" />
    <glyph glyph-name="f_f_i" unicode="ffi" horiz-adv-x="1718" 
d="M780 909v47q0 111 27 191q-92 160 -223 160q-207 0 -207 -301v-97h403zM199 836h-140v73h140v37q0 209 110 324q109 108 295 108t281 -96q104 111 272 111q119 0 209 -47t90 -101q0 -37 -26 -69t-59 -33q-32 1 -75 63q-42 62 -78 88t-85 27q-174 0 -175 -303v-109h326
q160 0 256 11v-768q0 -74 53 -95q23 -8 66 -20v-37q-107 6 -159 6t-255 -6v37l117 41v676q0 82 -74 82h-330v-684q0 -54 20 -74t99 -41v-37l-205 6l-208 -6v37l116 41v758h-403v-684q0 -54 20 -74t99 -41v-37l-205 6l-209 -6v37l117 41v758z" />
    <glyph glyph-name="f_f_l" unicode="ffl" horiz-adv-x="1738" 
d="M780 909q0 125 35 224q-92 174 -231 174q-207 0 -207 -301v-97h403zM199 836h-140v73h140v37q0 209 110 324q109 109 287 108q98 0 178 -30t121 -76q109 121 285 121l323 -23q37 0 58 2v-1220q0 -74 53 -95q23 -8 65 -20v-37q-106 6 -158 6t-255 -6v37l116 41v1190
q-78 51 -190 51t-172 -94q-61 -94 -62 -264v-52h236l-16 -73h-220v-684q0 -54 20 -74t99 -41v-37l-205 6l-208 -6v37l116 41v758h-403v-684q0 -54 20 -74t99 -41v-37l-205 6l-209 -6v37l117 41v758z" />
    <glyph glyph-name="f_j" unicode="fj" horiz-adv-x="1105" 
d="M199 836h-140v73h140v47q0 174 71 283q104 154 305 154q119 0 209 -47t90 -101q0 -37 -26 -69t-59 -33q-33 1 -75 63t-78 88t-85 27q-174 0 -174 -303v-109h313q160 1 256 11v-1008q0 -160 -100 -263t-238 -130l-16 59q176 63 176 350v826q0 82 -74 82h-317v-684
q0 -54 20 -74t99 -41v-37l-205 6l-209 -6v37l117 41v758z" />
    <glyph glyph-name="f_f_j" unicode="ffj" horiz-adv-x="1687" 
d="M780 909v47q0 111 27 191q-92 160 -223 160q-207 0 -207 -301v-97h403zM199 836h-140v73h140v37q0 209 110 324q109 108 295 108t281 -96q104 111 272 111q119 0 209 -47t90 -101q0 -37 -26 -69t-59 -33q-32 1 -75 63q-42 62 -78 88t-85 27q-174 0 -175 -303v-109h314
q160 0 256 11v-1008q0 -160 -100 -263t-238 -130l-16 59q176 63 176 350v826q0 82 -74 82h-318v-684q0 -54 20 -74t99 -41v-37l-205 6l-208 -6v37l116 41v758h-403v-684q0 -54 20 -74t99 -41v-37l-205 6l-209 -6v37l117 41v758z" />
    <glyph glyph-name="f_b" unicode="fb" horiz-adv-x="1681" 
d="M1413 461q0 373 -223 373q-125 0 -221 -119v-580q27 -33 77 -55t99 -21q268 1 268 402zM1224 942q150 0 244 -84q134 -117 134 -383t-146 -397q-121 -109 -311 -109t-354 84v1215q-68 51 -180 51t-173 -94t-61 -264v-52h225l-12 -73h-213v-684q0 -54 20 -74t99 -41v-37
l-205 6l-209 -6v37l117 41v758h-140v73h140q0 233 110 359q111 125 289 125l313 -23q37 0 58 2v-557q105 127 255 127z" />
    <glyph glyph-name="f_f_b" unicode="ffb" horiz-adv-x="2263" 
d="M780 909q0 125 35 224q-92 174 -231 174q-207 0 -207 -301v-97h403zM1995 461q0 373 -223 373q-125 0 -222 -119v-580q27 -33 77 -55t99 -21q269 1 269 402zM199 836h-140v73h140v37q0 209 110 324q109 109 287 108q98 0 178 -30t121 -76q109 121 285 121l313 -23
q37 0 57 2v-557q106 127 256 127t244 -84q133 -117 133 -383t-145 -397q-122 -109 -312 -109t-354 84v1215q-68 51 -180 51t-172 -94q-61 -94 -62 -264v-52h236l-16 -73h-220v-684q0 -54 20 -74t99 -41v-37l-205 6l-208 -6v37l116 41v758h-403v-684q0 -54 20 -74t99 -41v-37
l-205 6l-209 -6v37l117 41v758z" />
    <glyph glyph-name="f_h" unicode="fh" horiz-adv-x="1740" 
d="M1276 942q162 0 240 -106q55 -76 55 -258v-426q0 -74 53 -95q23 -8 66 -20v-37q-109 6 -160 6t-254 -6v37l117 41v495q0 152 -41 202t-119 50q-139 0 -254 -137v-536q0 -74 53 -95q23 -8 66 -20v-37q-106 6 -158 6t-256 -6v37l117 41v1190q-78 51 -190 51t-173 -94
t-61 -264v-52h225l-12 -73h-213v-684q0 -54 20 -74t99 -41v-37l-205 6l-209 -6v37l117 41v758h-140v73h140q0 233 110 359q111 125 289 125l324 -23q37 0 57 2v-584q135 154 297 154z" />
    <glyph glyph-name="f_f_h" unicode="ffh" horiz-adv-x="2322" 
d="M1858 942q162 0 239 -106q55 -76 55 -258v-426q0 -74 54 -95q23 -8 65 -20v-37q-109 6 -160 6t-253 -6v37l116 41v495q0 152 -41 202t-118 50q-139 0 -254 -137v-536q0 -74 53 -95q23 -8 65 -20v-37q-106 6 -158 6t-255 -6v37l116 41v1190q-78 51 -190 51t-172 -94
q-61 -94 -62 -264v-52h236l-16 -73h-220v-684q0 -54 20 -74t99 -41v-37l-205 6l-208 -6v37l116 41v758h-403v-684q0 -54 20 -74t99 -41v-37l-205 6l-209 -6v37l117 41v758h-140v73h140v37q0 209 110 324q109 109 287 108q98 0 178 -30t121 -76q109 121 285 121l323 -23
q37 0 58 2v-584q135 154 297 154zM780 909q0 125 35 224q-92 174 -231 174q-207 0 -207 -301v-97h403z" />
    <glyph glyph-name="f_k" unicode="fk" horiz-adv-x="1630" 
d="M1414 905q74 0 130 4h29v-37q-104 -10 -193 -81l-204 -166l266 -443q36 -57 66 -87t79 -44l51 -14v-37h-192q-55 0 -85 17t-61 67l-256 432l-65 -53v-311q0 -74 53 -95q23 -8 66 -20v-37q-106 6 -158 6t-256 -6v37l117 41v1190q-78 51 -190 51t-173 -94t-61 -264v-52h225
l-12 -73h-213v-684q0 -54 20 -74t99 -41v-37l-205 6l-209 -6v37l117 41v758h-140v73h140q0 233 110 359q111 125 289 125l324 -23q37 0 57 2v-817l360 293l-86 24v37h29q58 -4 132 -4z" />
    <glyph glyph-name="f_f_k" unicode="ffk" horiz-adv-x="2211" 
d="M780 909q0 125 35 224q-92 174 -231 174q-207 0 -207 -301v-97h403zM199 836h-140v73h140v37q0 209 110 324q109 109 287 108q98 0 178 -30t121 -76q109 121 285 121l323 -23q37 0 58 2v-817l360 293l-86 24v37l160 -4l159 4v-37q-104 -10 -192 -81l-205 -166l266 -443
q35 -57 66 -87t80 -44l51 -14v-37h-192q-55 0 -85 17t-61 67l-256 432l-65 -53v-311q0 -74 53 -95q23 -8 65 -20v-37q-106 6 -158 6t-255 -6v37l116 41v1190q-78 51 -190 51t-172 -94q-61 -94 -62 -264v-52h236l-16 -73h-220v-684q0 -54 20 -74t99 -41v-37l-205 6l-208 -6
v37l116 41v758h-403v-684q0 -54 20 -74t99 -41v-37l-205 6l-209 -6v37l117 41v758z" />
    <glyph glyph-name="f_t" unicode="ft" horiz-adv-x="1280" 
d="M199 836h-140v73h140q0 137 20 223t78 156q88 104 242 105q75 0 149 -31t74 -84q0 -33 -24 -67q-24 -35 -50 -37t-40 14q-15 16 -41 56t-51 60q-26 19 -62 19q-119 0 -117 -299v-115h399v207l178 58v-265h246l-16 -73h-230v-592q0 -86 25 -129t93 -43t124 80l47 -43
q-98 -139 -256 -140q-211 0 -211 246v621h-399v-684q0 -54 20 -74t99 -41v-37l-205 6l-209 -6v37l117 41v758z" />
    <glyph glyph-name="f_f_t" unicode="fft" horiz-adv-x="1861" 
d="M199 836h-140v73h140v37q0 209 110 324q109 108 290 108t280 -90q88 104 241 105q74 0 149 -31t74 -84q1 -33 -23 -67q-24 -35 -50 -37t-40 14q-15 16 -41 56t-51 60q-26 19 -63 19q-119 0 -117 -299v-115h400v207l178 58v-265h246l-17 -73h-229v-592q0 -86 25 -129
t93 -43t124 80l47 -43q-98 -139 -256 -140q-211 0 -211 246v621h-400v-684q0 -54 20 -74t99 -41v-37l-205 6l-208 -6v37l116 41v758h-403v-684q0 -54 20 -74t99 -41v-37l-205 6l-209 -6v37l117 41v758zM780 909q0 152 25 242q-92 156 -221 156q-207 0 -207 -301v-97h403z
" />
    <glyph glyph-name="t_t" unicode="tt" horiz-adv-x="1314" 
d="M811 215v621h-459v-592q0 -86 25 -129t93 -43t124 80l47 -43q-98 -139 -256 -140q-211 0 -211 246v621h-137v73h137v207l178 58v-265h459v207l178 58v-265h246l-16 -73h-230v-592q0 -86 25 -129q24 -43 92 -43t125 80l47 -43q-98 -139 -256 -140q-211 0 -211 246z" />
    <glyph glyph-name="T_h" unicode="Th" horiz-adv-x="2115" 
d="M485 1202h-106q-166 0 -213 -51q-25 -27 -37 -55t-39 -119h-49q14 244 14 303h1065q41 0 82 20l137 72l15 -6v-578q135 154 297 154t239 -106q55 -76 56 -258v-426q0 -74 53 -95q23 -8 65 -20v-37q-106 6 -158 6t-255 -6v37l116 41v495q0 152 -42 202t-117 50
q-139 0 -254 -137v-536q0 -74 53 -95q23 -8 66 -20v-37q-109 6 -160 6t-254 -6v37l117 41v1063q0 35 -18 48t-58 13h-426v-1046q0 -76 57 -95q33 -10 80 -20v-41l-221 6l-236 -6v41l131 41v1120z" />
    <glyph glyph-name="T_T" unicode="TT" horiz-adv-x="2054" 
d="M1380 1200h-706v-1044q0 -76 57 -95q33 -10 80 -20v-41l-221 6l-236 -6v41l131 41v1120h-106q-166 0 -213 -51q-25 -27 -37 -55t-39 -119h-49q14 244 14 303h1944q0 -59 14 -303h-49q-27 90 -39 119t-37 55q-45 51 -213 51h-106v-1046q0 -76 57 -95q33 -10 80 -20v-41
l-221 6l-236 -6v41l131 41v1118z" />
    <glyph glyph-name="K_A" unicode="KA" horiz-adv-x="2367" 
d="M1843 532l-172 439l-166 -439h338zM1352 115q0 -33 59 -51t88 -23v-41l-346 2l-315 -2q0 66 -50 143l-282 461l-92 -112v-336q0 -80 57 -95l80 -20v-41l-227 6l-230 -6v41l131 41v1038q0 80 -57 99q-27 8 -82 20v41l229 -6l224 6v-41l-125 -43v-569l479 581l-125 31v41
l215 -8l197 8v-41q-104 -14 -156 -44t-109 -97l-286 -344l317 -512q68 -109 108 -143q40 -33 91 -33t78 14l456 1200h70l432 -1124q19 -44 39 -64t55 -33l68 -18v-41l-229 6l-230 -6v41l131 41l-143 377h-393l-119 -307q-8 -25 -8 -37z" />
    <glyph glyph-name="R_A" unicode="RA" horiz-adv-x="2410" 
d="M457 635q180 0 264 79t84 209q0 129 -66 201t-247 72h-78v-561h43zM1886 532l-172 439l-166 -439h338zM510 557h-96v-401q0 -57 25 -77q26 -19 112 -38v-41l-223 6l-234 -6v41l131 41v1038q0 42 -12 59t-16 23q-3 6 -23 13t-26 9t-32 8q-26 5 -30 7v41h418
q291 0 411 -104q100 -84 101 -242q0 -111 -69 -195t-206 -123q63 -14 99 -47t67 -106l111 -246q39 -86 77 -119q38 -32 91 -32t80 14l456 1200h70l432 -1124q18 -45 44 -70t118 -45v-41l-229 6l-230 -6v41l131 41l-143 377h-393l-119 -307q-8 -25 -8 -37q0 -33 63 -53
t84 -21v-41l-346 2l-313 -2q-2 56 -47 154l-111 245q-47 104 -82 131t-133 27z" />
    <glyph glyph-name="Tcaron_h" unicode="&#x164;h" horiz-adv-x="2115" 
d="M795 1620l22 -21l-192 -221h-93l-190 221l23 21l215 -127zM485 1202h-106q-166 0 -213 -51q-25 -27 -37 -55t-39 -119h-49q14 244 14 303h1065q41 0 82 20l137 72l15 -6v-578q135 154 297 154t239 -106q56 -76 56 -258v-426q0 -74 53 -95q23 -8 65 -20v-37q-106 6 -158 6
t-255 -6v37l116 41v495q0 152 -42 202t-117 50q-139 0 -254 -137v-536q0 -74 53 -95q23 -8 66 -20v-37q-109 6 -160 6t-254 -6v37l117 41v1063q0 35 -18 48t-58 13h-426v-1046q0 -76 57 -95q33 -10 80 -20v-41l-221 6l-236 -6v41l131 41v1120z" />
    <glyph glyph-name="Tcommaaccent_h" unicode="&#x162;h" horiz-adv-x="2115" 
d="M678 -246q0 -193 -156 -272l-18 29q84 53 84 149q0 43 -27 69t-53 45t-27 50q0 31 24 51q23 21 67 21t75 -44t31 -98zM485 1202h-106q-166 0 -213 -51q-25 -27 -37 -55t-39 -119h-49q14 244 14 303h1065q41 0 82 20l137 72l15 -6v-578q135 154 297 154t239 -106
q55 -76 56 -258v-426q0 -74 53 -95q23 -8 65 -20v-37q-106 6 -158 6t-255 -6v37l116 41v495q0 152 -42 202t-117 50q-139 0 -254 -137v-536q0 -74 53 -95q23 -8 66 -20v-37q-109 6 -160 6t-254 -6v37l117 41v1063q0 35 -18 48t-58 13h-426v-1046q0 -76 57 -95q33 -10 80 -20
v-41l-221 6l-236 -6v41l131 41v1120z" />
    <glyph glyph-name="uni021A_h" unicode="&#x21a;h" horiz-adv-x="2115" 
d="M678 -246q0 -193 -156 -272l-18 29q84 53 84 149q0 43 -27 69t-53 45t-27 50q0 31 24 51q23 21 67 21t75 -44t31 -98zM485 1202h-106q-166 0 -213 -51q-25 -27 -37 -55t-39 -119h-49q14 244 14 303h1065q41 0 82 20l137 72l15 -6v-578q135 154 297 154t239 -106
q56 -76 56 -258v-426q0 -74 53 -95q23 -8 65 -20v-37q-106 6 -158 6t-255 -6v37l116 41v495q0 152 -42 202t-117 50q-139 0 -254 -137v-536q0 -74 53 -95q23 -8 66 -20v-37q-109 6 -160 6t-254 -6v37l117 41v1063q0 35 -18 48t-58 13h-426v-1046q0 -76 57 -95q33 -10 80 -20
v-41l-221 6l-236 -6v41l131 41v1120z" />
    <glyph glyph-name=".notdef" horiz-adv-x="1095" 
d="M143 1227v-1034l344 518zM203 102h690l-344 516zM608 711l346 -518v1034zM549 801l344 518h-690zM41 0v1419h1014v-1419h-1014z" />
    <glyph glyph-name=".null" horiz-adv-x="0" 
 />
    <glyph glyph-name=".null" horiz-adv-x="0" 
 />
    <glyph glyph-name="nonmarkingreturn" horiz-adv-x="681" 
 />
    <glyph glyph-name="CR" unicode="&#xd;" horiz-adv-x="376" 
 />
    <glyph glyph-name="space" unicode=" " horiz-adv-x="376" 
 />
    <glyph glyph-name="exclam" unicode="!" horiz-adv-x="471" 
d="M342 74q0 -45 -31 -75t-75 -30t-76 30q-31 30 -31 75q0 44 31 74t76 30q46 0 76 -30t30 -74zM326 1167l-68 -829h-47l-70 829q-10 143 95 144q100 -1 90 -144z" />
    <glyph glyph-name="quotedbl" unicode="&#x22;" horiz-adv-x="610" 
d="M539 1194q0 -47 -33 -185t-39 -200h-37q-6 61 -39 197t-33 188q0 117 90 117t91 -117zM252 1194q0 -47 -33 -185t-39 -200h-37q-6 61 -39 197t-32 188q0 117 90 117t90 -117z" />
    <glyph glyph-name="numbersign" unicode="#" horiz-adv-x="1007" 
d="M430 799l-68 -322h213l68 322h-213zM788 907h211l-26 -108h-209l-68 -322h211l-24 -108h-209l-82 -400h-121l82 400h-213l-82 -400h-121l82 400h-211l27 108h207l67 322h-209l25 108h209l86 404h119l-84 -404h213l86 404h118z" />
    <glyph glyph-name="dollar" unicode="$" horiz-adv-x="1007" 
d="M719 289q0 143 -170 239v-465q80 20 125 80t45 146zM285 1014q0 -128 184 -228v433q-88 -11 -136 -65t-48 -140zM113 975q0 139 95 230t261 104v182h80v-182q129 -11 214 -95t103 -223l-98 -22q-10 100 -70 167t-149 81v-474q69 -33 105 -51t92 -56q161 -109 160 -299
q-1 -128 -94 -236t-263 -128v-186h-80v182q-117 4 -223 90t-121 236l98 24q14 -119 89 -187t157 -75v514q-188 93 -272 179t-84 225z" />
    <glyph glyph-name="percent" unicode="%" horiz-adv-x="1556" 
d="M1198 1311l-731 -1342h-98l731 1342h98zM1200 -31q-116 -1 -190 103t-74 282t74 282t190 103q116 0 191 -103q73 -104 73 -282t-74 -282t-190 -103zM1200 31q57 0 85 92t28 231q0 140 -28 232t-85 92t-85 -92t-28 -232t28 -231q28 -92 85 -92zM356 520q-116 0 -190 104
t-74 281t74 281t190 104t191 -103q74 -103 74 -281t-74 -282t-191 -104zM356 582q57 0 85 92t28 231t-28 231t-85 93q-57 0 -85 -92q-27 -91 -27 -231t28 -232t84 -92z" />
    <glyph glyph-name="ampersand" unicode="&#x26;" horiz-adv-x="1357" 
d="M717 1057q0 76 -43 126t-116 50t-118 -51q-45 -50 -45 -120t31 -130t113 -154q178 117 178 279zM270 362q0 -124 79 -204t219 -80t259 110l-397 459q-160 -104 -160 -285zM1164 -31q-85 0 -144 36t-137 122q-162 -158 -389 -158q-174 1 -294 107t-120 260q0 113 71 201
t226 168q-137 164 -137 300t92 221t219 85t213 -73t86 -179q0 -180 -262 -338l346 -395q72 137 84 333l-131 48v43q191 -16 360 0v-43q-92 -20 -121 -43t-39 -86q-33 -201 -98 -314l72 -80q65 -74 101 -100t82 -25q46 0 97 27v-43q-92 -74 -177 -74z" />
    <glyph glyph-name="quotesingle" unicode="'" horiz-adv-x="323" 
d="M252 1194q0 -47 -33 -185t-39 -200h-37q-6 61 -39 197t-32 188q0 117 90 117t90 -117z" />
    <glyph glyph-name="parenleft" unicode="(" horiz-adv-x="630" 
d="M164 641q0 297 119 560t286 370h74q-141 -105 -222 -373t-81 -559t81 -559t222 -371h-74q-169 107 -287 371t-118 561z" />
    <glyph glyph-name="parenright" unicode=")" horiz-adv-x="630" 
d="M291 639q0 291 -81 559t-222 373h73q168 -105 287 -369t119 -561t-119 -561t-287 -371h-73q141 103 222 371t81 559z" />
    <glyph glyph-name="asterisk" unicode="*" horiz-adv-x="774" 
d="M324 682q0 20 20 106t25 142q-45 -31 -110 -91t-83 -71q-63 -35 -94 19t33 90q16 9 101 35t136 51q-49 23 -133 49t-102 35q-63 35 -33 90q31 53 94 18q18 -9 82 -69t109 -91q-5 53 -25 139t-20 105q0 72 61 72q29 1 46 -19t17 -46t-20 -114q-20 -87 -25 -141
q45 31 110 92t83 72q63 35 94 -19t-33 -89q-18 -10 -102 -36t-133 -48q51 -25 136 -51t101 -35q64 -36 33 -90t-94 -19q-18 10 -84 72t-111 92q5 -55 25 -142t20 -114t-16 -46q-18 -19 -47 -20q-61 0 -61 72z" />
    <glyph glyph-name="plus" unicode="+" horiz-adv-x="901" 
d="M791 406h-291v-291h-101v291h-290v100h290v291h101v-291h291v-100z" />
    <glyph glyph-name="comma" unicode="," horiz-adv-x="421" 
d="M315 25q0 -205 -174 -306l-24 37q102 76 102 164q0 37 -18 64t-42 39q-59 30 -60 69t25 62q26 22 72 22t83 -42q36 -42 36 -109z" />
    <glyph glyph-name="hyphen" unicode="-" horiz-adv-x="653" 
d="M571 428h-489v92h489v-92z" />
    <glyph glyph-name="period" unicode="." horiz-adv-x="421" 
d="M317 74q-1 -45 -31 -75t-75 -30t-76 30t-31 75q0 44 31 74t76 30t75 -30t31 -74z" />
    <glyph glyph-name="slash" unicode="/" horiz-adv-x="669" 
d="M594 1311l-414 -1342h-104l413 1342h105z" />
    <glyph glyph-name="zero" unicode="0" horiz-adv-x="1007" 
d="M504 1223q-218 0 -228 -584q0 -119 16 -236q16 -118 38 -183q24 -65 68 -114t106 -49t106 49q45 49 68 114q53 150 53 418q0 269 -53 421q-23 66 -68 115t-106 49zM918 639q0 -117 -24 -229q-58 -270 -199 -378q-83 -62 -191 -62t-192 62q-143 108 -198 378
q-24 114 -24 230q0 233 93 443q46 103 130 165q85 62 191 62t190 -62q142 -105 200 -380q24 -112 24 -229z" />
    <glyph glyph-name="one" unicode="1" horiz-adv-x="1007" 
d="M556 6q-74 0 -277 -6v39l145 41v981q0 55 -39 86t-121 49v41q188 6 289 61h45v-1138q0 -78 64 -101q45 -16 77 -20v-39q-109 6 -183 6z" />
    <glyph glyph-name="two" unicode="2" horiz-adv-x="1007" 
d="M152 0v72q53 74 161 209q109 135 165 212t106 195t49 227q0 287 -197 287q-135 0 -207 -158l-77 35q100 231 348 232q135 0 232 -89t97 -288q0 -104 -53 -213q-54 -109 -116 -183t-177 -196q-115 -123 -176 -199h336q72 0 113 31t67 100l39 -10q-39 -131 -61 -264h-649z
" />
    <glyph glyph-name="three" unicode="3" horiz-adv-x="1007" 
d="M848 346q0 -154 -118 -266t-294 -111q-116 0 -200 40t-84 104q0 37 24 67t50 29q26 0 45 -26q19 -25 35 -57t49 -58q34 -26 83 -25q111 0 168 87q58 88 58 228t-90 222t-236 84v75q115 10 197 87q81 76 81 178t-47 155t-125 53q-127 0 -184 -131l-78 33q39 100 126 148
t200 49q113 0 202 -74t89 -225q0 -104 -73 -190t-173 -101q131 -16 213 -119q82 -102 82 -256z" />
    <glyph glyph-name="four" unicode="4" horiz-adv-x="1007" 
d="M580 426v580l-385 -580h385zM758 305v-147q0 -78 63 -101q14 -6 68 -20v-37q-105 6 -165 6t-263 -6v37l119 41v227h-517v70l605 905h90v-854h170v-121h-170z" />
    <glyph glyph-name="five" unicode="5" horiz-adv-x="1007" 
d="M850 394q0 -187 -119 -306t-299 -119q-90 0 -177 34t-87 108q0 37 26 69t56 31q30 0 48 -27q18 -28 28 -58t38 -56t72 -27q104 0 167 99t63 242q0 142 -52 234t-146 92q-95 0 -165 -46l-70 14l21 602h573l-26 -147h-457l-12 -371q78 39 178 39q162 0 251 -110t89 -297z
" />
    <glyph glyph-name="six" unicode="6" horiz-adv-x="1007" 
d="M715 328q0 256 -101 337q-43 34 -102 33q-96 0 -193 -92q-16 -92 -16 -225t56 -235t151 -103q122 0 163 101q42 101 42 184zM895 375q-1 -170 -107 -288t-285 -118t-281 135q-101 135 -101 330q0 272 161 524t416 353l21 -49q-272 -180 -377 -555q96 90 236 90t229 -126
q88 -126 88 -296z" />
    <glyph glyph-name="seven" unicode="7" horiz-adv-x="1007" 
d="M387 1137q-90 0 -137 -33t-80 -119l-39 12q45 150 53 283h672l33 -43l-404 -1237h-180l436 1137h-354z" />
    <glyph glyph-name="eight" unicode="8" horiz-adv-x="1007" 
d="M276 330q0 -121 65 -201t166 -80q101 1 163 65t63 177q0 113 -92 195q-92 81 -207 145q-158 -104 -158 -301zM676 1028q0 96 -45 148t-126 53q-81 0 -127 -48t-46 -130q0 -162 219 -289q125 78 125 266zM899 330q0 -140 -106 -250q-105 -110 -277 -111q-172 0 -291 92
t-119 261q0 223 261 350q-201 133 -201 323q0 143 101 229t245 87q144 0 234 -80t92 -211q0 -92 -54 -172t-168 -127q135 -84 209 -168q74 -83 74 -223z" />
    <glyph glyph-name="nine" unicode="9" horiz-adv-x="1007" 
d="M508 1237q-160 0 -196 -208q-8 -48 -9 -104q0 -229 100 -310q43 -34 103 -33q96 0 192 92q16 92 16 225t-56 235t-150 103zM123 905q0 170 106 288q105 118 285 118t282 -135t101 -330q0 -272 -161 -524t-417 -353l-20 49q272 180 377 555q-96 -90 -236 -90t-229 126
q-88 126 -88 296z" />
    <glyph glyph-name="colon" unicode=":" horiz-adv-x="421" 
d="M211 178q45 0 75 -30t31 -73q-1 -44 -31 -75t-75 -31t-76 31t-31 75q0 43 31 73t76 30zM317 632q-1 -44 -31 -74t-75 -30t-76 30t-31 74t31 75t76 31t76 -31q30 -31 30 -75z" />
    <glyph glyph-name="semicolon" unicode=";" horiz-adv-x="421" 
d="M326 25q0 -205 -174 -306l-25 37q102 76 102 164q0 47 -30 76q-31 28 -61 50t-30 54t26 54t73 22t83 -42t36 -109zM317 632q-1 -44 -31 -74t-75 -30t-76 30t-31 74t31 75t76 31t76 -31q30 -31 30 -75z" />
    <glyph glyph-name="less" unicode="&#x3c;" horiz-adv-x="901" 
d="M791 66l-682 327v127l682 332v-111l-572 -284l572 -281v-110z" />
    <glyph glyph-name="equal" unicode="=" horiz-adv-x="901" 
d="M791 252h-682v100h682v-100zM791 555h-682v100h682v-100z" />
    <glyph glyph-name="greater" unicode="&#x3e;" horiz-adv-x="901" 
d="M791 393l-682 -327v110l571 281l-571 284v111l682 -332v-127z" />
    <glyph glyph-name="question" unicode="?" horiz-adv-x="755" 
d="M422 74q0 -45 -31 -75t-76 -30t-75 30t-31 75q0 44 31 74q32 30 76 30t75 -30t31 -74zM489 996q0 94 -48 152t-126 58q-127 0 -221 -127l-51 39q115 193 317 193q135 0 225 -85q89 -86 89 -230t-140 -307q-54 -61 -110 -167t-78 -223h-61q8 123 60 252t98 240t46 205z
" />
    <glyph glyph-name="at" unicode="@" horiz-adv-x="1556" 
d="M885 909q-111 0 -198 -133t-87 -276q0 -59 25 -93t65 -34q78 0 136 85t100 226l55 182q-33 43 -96 43zM1024 446q0 -72 68 -71q90 0 160 132t69 315q0 183 -109 298t-305 115q-253 0 -447 -213t-194 -492q0 -221 125 -353t375 -132t485 168l29 -41q-272 -203 -568 -203
t-454 148q-168 152 -168 407q0 324 232 555t593 232q259 0 407 -137q148 -136 148 -350t-120 -370t-289 -155q-76 0 -126 37t-54 96q-96 -156 -252 -156q-87 0 -145 60t-58 164q0 190 143 338t308 149q94 0 153 -51l37 51l98 -18l4 -6l-127 -416q-18 -66 -18 -101z" />
    <glyph glyph-name="A" unicode="A" horiz-adv-x="1292" 
d="M766 535l-170 436l-166 -436h336zM233 6l-217 -6v41l136 41l462 1198h60l436 -1124q18 -44 36 -64t54 -31l68 -20v-41l-230 6l-239 -6v41l141 41l-145 377h-392l-118 -307q-8 -25 -9 -37q0 -50 148 -74v-41z" />
    <glyph glyph-name="B" unicode="B" horiz-adv-x="1138" 
d="M541 731q125 0 189 68q64 67 65 177t-57 168t-216 58h-108v-471h127zM414 649v-485q0 -48 35 -66t149 -18t184 72t70 212t-74 212t-264 73h-100zM86 1280h481q250 0 351 -98q72 -68 72 -178t-63 -189q-62 -78 -177 -113q147 -30 229 -116t82 -230t-106 -250t-332 -106
h-529v41l131 41v1036q0 59 -30 83q-31 24 -109 38v41z" />
    <glyph glyph-name="C" unicode="C" horiz-adv-x="1171" 
d="M643 -31q-262 -1 -412 185q-149 186 -149 492t173 486t427 179q108 0 354 -41q16 -311 21 -334h-49q-23 145 -108 215t-206 70q-180 0 -290 -160t-110 -421q0 -262 112 -410q111 -148 280 -148q219 0 358 188l60 -45q-74 -117 -193 -187t-268 -69z" />
    <glyph glyph-name="D" unicode="D" horiz-adv-x="1325" 
d="M414 1194v-1028q0 -48 38 -66t136 -18q227 0 337 152q109 152 109 416q0 262 -120 403t-394 141h-106zM86 1280h424q735 0 735 -647q1 -279 -149 -456t-473 -177h-529v41l129 41v1046q0 53 -28 75q-29 22 -109 36v41z" />
    <glyph glyph-name="E" unicode="E" horiz-adv-x="1116" 
d="M225 1128q0 53 -29 75q-30 22 -110 36v41h889q4 -164 22 -303h-49q-26 133 -90 179t-252 46q-90 0 -192 -4v-500h139q211 0 250 15l-10 -105q-49 12 -240 13h-139v-459q0 -50 42 -66t165 -16q223 0 282 42t90 179h41q-12 -139 -12 -301h-928v41l131 41v1046z" />
    <glyph glyph-name="F" unicode="F" horiz-adv-x="1058" 
d="M225 1128q0 53 -29 75q-30 22 -110 36v41h889q8 -197 22 -303h-49q-2 6 -12 43q-23 87 -68 127q-68 55 -268 55q-76 0 -186 -4v-500h139q211 0 250 15l-10 -105q-49 12 -240 13h-139v-467q0 -72 63 -93q16 -4 86 -20v-41l-235 6l-228 -6v41l125 41v1046z" />
    <glyph glyph-name="G" unicode="G" horiz-adv-x="1339" 
d="M1126 377v-305q-80 -41 -200 -72t-230 -31q-270 0 -430 156q-184 180 -184 522q0 289 183 476t468 188q114 1 220 -21t130 -24q4 -137 23 -330h-51q-35 285 -326 285q-184 0 -309 -153q-125 -154 -125 -436t122 -427t304 -146q219 0 219 172v248l-137 43v41l231 -6l232 6
v-41q-74 -14 -107 -44t-33 -101z" />
    <glyph glyph-name="H" unicode="H" horiz-adv-x="1445" 
d="M1223 156q0 -76 57 -95q33 -10 80 -20v-41l-217 6l-240 -6v41l131 41v530h-620v-456q0 -76 57 -95q33 -10 80 -20v-41l-223 6l-234 -6v41l131 41v1038q0 78 -54 96t-85 23v41l219 -6l234 6v-41l-125 -43v-496h620v420q0 78 -54 96t-85 23v41l219 -6l234 6v-41l-125 -43
v-1040z" />
    <glyph glyph-name="I" unicode="I" horiz-adv-x="649" 
d="M420 156q0 -76 57 -95q33 -10 80 -20v-41l-223 6l-234 -6v41l131 41v1038q0 78 -54 96t-85 23v41l219 -6l234 6v-41l-125 -43v-1040z" />
    <glyph glyph-name="J" unicode="J" horiz-adv-x="620" 
d="M412 174q0 -390 -188 -529q-81 -60 -204 -89l-20 59q127 53 175 178t48 371v956q0 71 -39 89t-100 30v41l219 -6l234 6v-41l-125 -43v-1022z" />
    <glyph glyph-name="K" unicode="K" horiz-adv-x="1212" 
d="M1192 0h-346q0 63 -49 143l-291 473l-92 -114v-346q0 -80 57 -95l80 -20v-41l-227 6l-230 -6v41l131 41v1038q0 80 -57 99q-27 8 -82 20v41l229 -6l224 6v-41l-125 -43v-559l471 571l-125 31v41l215 -8q49 0 196 8v-41q-104 -14 -155 -43t-109 -98l-278 -334l325 -522
q68 -111 113 -149t125 -52v-41z" />
    <glyph glyph-name="L" unicode="L" horiz-adv-x="1054" 
d="M414 162q0 -50 43 -66t175 -16t183 7t78 32q49 43 82 182h41q-14 -172 -15 -301h-907v41l131 41v1038q0 78 -54 96t-85 23v41l219 -6l234 6v-41l-125 -43v-1034z" />
    <glyph glyph-name="M" unicode="M" horiz-adv-x="1716" 
d="M225 1120q0 72 -63 97q-35 14 -76 22v41h340l434 -985l440 985h318v-41l-125 -43v-1040q0 -76 57 -95q33 -10 80 -20v-41l-223 6l-229 -6v41l127 41v954l-463 -1044h-45l-463 1042v-878q0 -78 61 -95l76 -20v-41l-184 6l-193 -6v41l131 41v1038z" />
    <glyph glyph-name="N" unicode="N" horiz-adv-x="1439" 
d="M1231 -8h-88l-809 1038v-874q0 -45 18 -70t119 -45v-41l-184 6l-197 -6v41l135 41v1040q0 74 -63 95q-39 12 -82 22v41h293l751 -965v811q0 45 -16 68t-123 45v41l189 -6l184 6v-41l-127 -43v-1204z" />
    <glyph glyph-name="O" unicode="O" horiz-adv-x="1282" 
d="M987 641q0 195 -66 369q-36 94 -108 152t-170 58t-171 -58q-72 -58 -108 -152q-68 -181 -69 -372q0 -191 66 -367q36 -95 108 -153t170 -58t171 58q120 97 161 339q16 92 16 184zM1200 641q0 -279 -146 -475t-414 -197q-268 0 -414 197q-144 198 -144 476t146 474
t414 195q268 1 414 -195q144 -196 144 -475z" />
    <glyph glyph-name="P" unicode="P" horiz-adv-x="1091" 
d="M225 1120q0 45 -11 58q-11 14 -15 19q-16 20 -61 30q-44 9 -52 12v41h434q139 0 223 -23q133 -35 207 -123t74 -225q0 -169 -129 -277t-371 -108h-110v-370q0 -72 63 -93q16 -4 86 -20v-41l-235 6l-234 -6v41l131 41v1038zM479 604q334 0 334 305q0 141 -73 214t-240 73
h-86v-592h65z" />
    <glyph glyph-name="Q" unicode="Q" horiz-adv-x="1284" 
d="M987 639q0 192 -65 370q-35 95 -108 153t-171 58t-171 -58q-72 -58 -108 -152q-68 -181 -69 -373q0 -192 69 -369q36 -94 108 -152t171 -58q98 0 171 58q118 94 158 340q15 91 15 183zM1542 -414q-692 0 -897 383q-268 0 -416 196q-147 197 -147 475t146 474t415 197
q180 -1 311 -101q248 -190 248 -579q0 -205 -72 -360t-251 -253q119 -352 663 -385v-47z" />
    <glyph glyph-name="R" unicode="R" horiz-adv-x="1234" 
d="M457 635q180 0 264 79t84 209q0 129 -66 201t-247 72h-78v-561h43zM225 1120q0 42 -12 59t-16 23q-3 6 -23 13t-26 9t-32 8q-26 5 -30 7v41h418q291 0 411 -104q100 -84 101 -242q0 -111 -69 -195t-206 -123q63 -14 99 -47t67 -106l111 -246q41 -92 85 -127t124 -49v-41
h-346q0 51 -45 154l-111 245q-47 104 -82 131t-133 27h-96v-401q0 -57 25 -77q26 -19 112 -38v-41l-223 6l-234 -6v41l131 41v1038z" />
    <glyph glyph-name="S" unicode="S" horiz-adv-x="1032" 
d="M143 328h47q14 -127 88 -201t190 -74t184 70t67 167q1 98 -59 160t-145 107t-171 94t-145 132t-59 212t115 223q116 94 292 93q57 1 163 -13t132 -16q0 -135 18 -305h-51q-14 117 -82 183t-168 65q-100 1 -169 -57q-68 -58 -68 -146t60 -148t146 -106q86 -45 171 -95
t145 -137t61 -204q-1 -152 -115 -257t-304 -105t-343 53v305z" />
    <glyph glyph-name="T" unicode="T" horiz-adv-x="1159" 
d="M485 1202h-110q-162 0 -213 -51q-35 -35 -76 -174h-45q14 244 14 303h1049q0 -59 14 -303h-45q-41 139 -76 174q-51 51 -213 51h-110v-1046q0 -76 57 -95q33 -10 80 -20v-41l-221 6l-236 -6v41l131 41v1120z" />
    <glyph glyph-name="U" unicode="U" horiz-adv-x="1318" 
d="M1128 500q0 -531 -460 -531q-213 0 -330 111q-137 129 -137 395v647q-1 78 -55 96t-85 23v39l220 -6l233 6v-39l-125 -43v-698q0 -432 313 -432q320 0 320 448v606q0 72 -64 97q-37 14 -73 22v39l184 -6l184 6v-39l-125 -43v-698z" />
    <glyph glyph-name="V" unicode="V" horiz-adv-x="1243" 
d="M205 1274q113 0 241 6v-37l-120 -33l352 -921l317 921l-123 31v39q156 -6 205 -6l166 6v-39q-90 -10 -122 -34t-56 -93l-387 -1118h-76l-446 1134q-20 53 -54 75t-102 38v37q92 -6 205 -6z" />
    <glyph glyph-name="W" unicode="W" horiz-adv-x="1873" 
d="M202 1274q110 0 240 6v-37l-125 -33l326 -911l254 692l-47 139q-18 53 -48 75t-97 38v37q92 -6 198 -6t236 6v-37l-129 -33l315 -907l297 907l-125 31v39q147 -6 197 -6l180 6v-39q-90 -10 -123 -35t-55 -92l-367 -1118h-82l-295 854l-313 -854h-80l-405 1134
q-20 56 -50 76t-104 37v37q92 -6 202 -6z" />
    <glyph glyph-name="X" unicode="X" horiz-adv-x="1253" 
d="M1016 1274l127 4l28 2v-33q-88 -10 -129 -33t-77 -84l-263 -444l369 -539q53 -80 170 -110v-37l-27 2q-81 6 -176 6l-264 -8v37l119 33l-297 460l-289 -462l129 -33v-35l-207 8l-196 -8v35q96 19 137 39t70 65l297 475l-359 519q-63 90 -168 112v35l37 -2l174 -4l244 6
v-35l-111 -33l287 -438l266 445l-106 28v33l14 -2h41z" />
    <glyph glyph-name="Y" unicode="Y" horiz-adv-x="1153" 
d="M680 156q0 -76 57 -95q33 -10 80 -20v-41l-223 6l-234 -6v41l132 41v420l-336 631q-25 49 -59 73t-93 39v35q92 -6 206 -6t243 6v-35l-127 -33l311 -583l281 581l-119 33v37q139 -6 188 -6l162 6v-37q-82 -10 -113 -38t-61 -91l-295 -610v-348z" />
    <glyph glyph-name="Z" unicode="Z" horiz-adv-x="1136" 
d="M1016 0h-905v74l686 1128h-516l-105 -215h-41q10 102 10 293h873v-72l-690 -1130h415q115 0 168 55t74 168h45q-14 -168 -14 -301z" />
    <glyph glyph-name="bracketleft" unicode="[" horiz-adv-x="612" 
d="M571 -291h-378v1862h378v-76h-223v-1710h223v-76z" />
    <glyph glyph-name="backslash" unicode="\" horiz-adv-x="669" 
d="M489 -31l-413 1342h104l414 -1342h-105z" />
    <glyph glyph-name="bracketright" unicode="]" horiz-adv-x="612" 
d="M420 -291h-379v76h223v1710h-223v76h379v-1862z" />
    <glyph glyph-name="asciicircum" unicode="^" horiz-adv-x="901" 
d="M821 707h-129l-241 428l-244 -428h-129l328 573h90z" />
    <glyph glyph-name="underscore" unicode="_" horiz-adv-x="1024" 
d="M975 -305h-926v84h926v-84z" />
    <glyph glyph-name="grave" unicode="`" 
d="M188 1296q14 0 35 -20l246 -248l-18 -22l-361 186v20l70 70q14 14 28 14z" />
    <glyph glyph-name="a" unicode="a" horiz-adv-x="954" 
d="M604 496h-16q-141 0 -222 -60t-81 -164q0 -106 46 -156q47 -50 125 -50t148 65v365zM397 -31q-133 0 -216 75t-83 204q0 164 142 240t364 77v84q0 197 -159 197t-232 -195l-78 31q90 260 363 260q186 0 254 -135q31 -61 30 -219v-434q0 -86 64 -86q31 0 63 14v-43
q-63 -63 -163 -63t-128 85q-88 -92 -221 -92z" />
    <glyph glyph-name="b" unicode="b" horiz-adv-x="1042" 
d="M774 461q0 373 -223 373q-125 0 -221 -119v-580q27 -33 77 -55t99 -21q268 1 268 402zM963 476q0 -266 -146 -398q-121 -109 -311 -109t-354 84v1147q0 45 -14 69q-13 25 -27 31t-43 14t-35 11v37q231 0 297 8v-555q106 127 256 127t243 -84q134 -116 134 -382z" />
    <glyph glyph-name="c" unicode="c" horiz-adv-x="890" 
d="M526 942q58 0 150 -13t102 -14q0 -59 10 -288h-45q-10 103 -63 167t-168 64q-116 0 -184 -105t-68 -291t76 -284q76 -100 201 -100q79 0 143 42t102 105l52 -47q-44 -86 -136 -147t-215 -62q-184 0 -298 132q-113 131 -113 355t127 355t327 131z" />
    <glyph glyph-name="d" unicode="d" horiz-adv-x="1071" 
d="M532 836q-136 0 -202 -112t-66 -258t62 -264t183 -118q122 0 206 90v590q-78 72 -183 72zM449 -31q-177 -1 -275 139t-98 346t115 347q116 141 307 141q127 0 217 -84v348q1 56 -17 76t-102 43v37h127q94 0 170 8v-1202q0 -100 80 -100q37 0 65 14v-43q-59 -63 -153 -64
q-55 0 -100 29q-44 29 -58 86q-100 -121 -278 -121z" />
    <glyph glyph-name="e" unicode="e" horiz-adv-x="921" 
d="M469 856q-88 0 -142 -82t-65 -213h395q-2 141 -51 218t-137 77zM72 466q0 208 111 342q112 134 282 134t270 -106t101 -291q0 -37 -2 -58h-576q0 -199 71 -304t197 -105q158 0 248 147l53 -47q-51 -92 -145 -150t-211 -59q-197 1 -298 145t-101 352z" />
    <glyph glyph-name="f" unicode="f" horiz-adv-x="667" 
d="M199 836h-140v73h140q0 137 20 223t78 156q88 104 242 105q75 0 149 -31t74 -84q0 -37 -23 -73t-49 -36q-26 1 -42 17q-15 16 -41 56t-51 61q-26 20 -62 20q-119 0 -117 -299v-115h239l-16 -73h-223v-684q0 -51 24 -72q25 -20 109 -43v-37l-219 6l-209 -6v37l117 41v758z
" />
    <glyph glyph-name="g" unicode="g" horiz-adv-x="966" 
d="M476 860q-100 0 -147 -73q-46 -73 -46 -176t46 -175t146 -72t148 72q47 72 47 176q-2 104 -48 176t-146 72zM801 -177q0 83 -113 114q-55 14 -181 30t-171 29q-106 -61 -107 -191q0 -195 263 -194q141 1 225 65t84 147zM934 821h-64q-55 0 -108 8q86 -89 86 -229
t-106 -228t-267 -87q-111 0 -190 39q-17 -25 -17 -66t48 -68q48 -26 121 -32q169 -13 314 -53q73 -19 121 -75t48 -147q0 -174 -142 -269t-310 -95q-167 -1 -288 65t-121 191q1 87 59 153t144 99q-117 63 -117 176q0 90 78 153q-119 90 -119 249t106 248t265 89
q96 0 184 -39q147 8 275 31v-113z" />
    <glyph glyph-name="h" unicode="h" horiz-adv-x="1116" 
d="M905 6q-51 0 -254 -6v37l117 41v495q0 152 -42 202t-118 50q-139 0 -254 -137v-536q0 -74 54 -95q23 -8 65 -20v-37q-109 6 -160 6t-254 -6v37l117 41v1128q0 74 -55 97q-23 10 -64 22v37q217 0 297 10v-584q136 154 298 154t239 -106q55 -76 55 -258v-426q0 -74 53 -95
q23 -8 66 -20v-37q-109 6 -160 6z" />
    <glyph glyph-name="i" unicode="i" 
d="M325 6q-52 0 -255 -6v37l116 41v676q0 74 -55 96q-23 10 -63 22v37q217 0 297 11v-768q0 -74 53 -95q23 -8 65 -20v-37q-106 6 -158 6zM262 1077q-43 0 -74 31t-30 74q0 44 30 74t74 30q43 0 74 -31t31 -73t-31 -74q-31 -31 -74 -31z" />
    <glyph glyph-name="j" unicode="j" horiz-adv-x="509" 
d="M246 1077q-43 0 -74 31t-31 74q0 44 31 74t74 30q44 0 74 -31t30 -73t-30 -74q-30 -31 -74 -31zM348 -88q0 -160 -100 -263t-238 -130l-16 59q176 63 176 350v826q0 74 -55 96q-23 10 -64 22v37q217 1 297 11v-1008z" />
    <glyph glyph-name="k" unicode="k" horiz-adv-x="1005" 
d="M787 905q103 0 161 4v-37q-104 -10 -192 -81l-205 -166l266 -443q35 -57 66 -87t80 -44l51 -14v-37h-193q-55 0 -85 17t-60 67l-256 432l-66 -53v-311q0 -74 54 -95q23 -8 65 -20v-37q-109 6 -160 6t-254 -6v37l117 41v1130q0 74 -55 97q-6 2 -66 20v37q236 0 299 8v-815
l359 293l-84 24v37q55 -4 158 -4z" />
    <glyph glyph-name="l" unicode="l" horiz-adv-x="528" 
d="M313 6q-51 0 -254 -6v37l117 41v1130q0 74 -48 94q-22 10 -71 23v37q233 0 297 8v-1218q0 -74 54 -95q23 -8 65 -20v-37q-109 6 -160 6z" />
    <glyph glyph-name="m" unicode="m" horiz-adv-x="1689" 
d="M1341 573q0 154 -41 203t-116 49q-127 0 -246 -135q2 -14 2 -102v-436q0 -78 53 -95q45 -16 66 -20v-37l-199 6q-25 0 -215 -6v37l117 41v495q0 154 -41 203t-115 49q-121 0 -244 -133v-540q0 -74 54 -95q60 -20 65 -20v-37q-109 6 -159 6t-254 -6v37l116 41v676
q0 74 -55 96q-23 10 -63 22v37q217 0 296 11v-125q147 147 302 147q197 0 256 -166q162 166 325 166q113 0 187 -63t86 -189q2 -14 2 -102v-436q0 -78 53 -95q45 -16 65 -20v-37l-198 6q-25 0 -215 -6v37l116 41v495z" />
    <glyph glyph-name="n" unicode="n" horiz-adv-x="1124" 
d="M914 6q-52 0 -255 -6v37l117 41v495q0 152 -42 202t-118 50q-139 0 -254 -137v-536q0 -74 54 -95q23 -8 65 -20v-37q-109 6 -159 6t-254 -6v37l116 41v676q0 74 -55 96q-23 10 -63 22v37q217 0 296 11v-132q136 154 298 154t239 -106q55 -76 55 -258v-426q0 -74 54 -95
q23 -8 65 -20v-37q-107 6 -159 6z" />
    <glyph glyph-name="o" unicode="o" horiz-adv-x="1024" 
d="M764 455q0 71 -11 135t-37 127t-78 101t-135 38t-143 -69q-98 -111 -100 -319q-1 -154 48 -273q26 -63 78 -101t124 -39q193 0 242 266q12 64 12 134zM952 453q0 -211 -118 -348q-119 -136 -324 -136t-322 136q-116 135 -116 347t118 351q119 139 324 139q206 0 322 -139
t116 -350z" />
    <glyph glyph-name="p" unicode="p" horiz-adv-x="1060" 
d="M170 754q0 60 -26 80t-93 38v37q215 0 297 11v-101q115 123 260 123q186 0 280 -138t95 -339q0 -279 -179 -418q-98 -78 -230 -78t-226 76v-344q0 -51 27 -71t112 -44v-37l-225 7l-209 -7v37l117 43v1125zM795 461q-1 178 -61 275q-60 98 -170 98t-216 -113v-578
q86 -72 187 -71q127 0 193 106t67 283z" />
    <glyph glyph-name="q" unicode="q" horiz-adv-x="1042" 
d="M451 -31q-193 0 -282 133t-89 347q0 213 131 353t348 140q164 0 332 -86v-1151q0 -74 55 -96q23 -10 64 -23v-37q-217 0 -297 -10v557q-49 -59 -122 -93t-140 -34zM547 854q-98 0 -166 -64q-69 -64 -91 -149q-22 -84 -22 -188q0 -183 62 -277t170 -94q60 0 120 36t93 83
v602q-68 51 -166 51z" />
    <glyph glyph-name="r" unicode="r" horiz-adv-x="729" 
d="M184 754q0 54 -20 76t-98 42v37q215 0 296 11v-125q109 147 222 147q51 0 91 -26t40 -62q0 -37 -27 -69q-28 -31 -52 -31t-58 30t-62 31q-80 0 -154 -113v-550q0 -52 25 -72t109 -43v-37l-217 6l-209 -6v37l114 41v676z" />
    <glyph glyph-name="s" unicode="s" horiz-adv-x="819" 
d="M721 258q0 -135 -97 -212q-98 -77 -242 -77t-269 54v237h41q12 -90 75 -151t151 -61t135 36q48 36 48 104t-47 114t-114 76q-68 30 -134 62t-112 92q-46 59 -47 144q0 122 97 194t224 72q53 0 143 -16l89 -15q0 -133 10 -245h-41q-35 201 -199 200q-78 0 -121 -36
t-43 -94t47 -99t114 -72t133 -65t112 -96q47 -62 47 -146z" />
    <glyph glyph-name="t" unicode="t" horiz-adv-x="677" 
d="M174 215v621h-137v73h137v207l178 58v-265h246l-16 -73h-230v-592q0 -86 25 -129t93 -43t124 80l47 -43q-98 -139 -256 -140q-211 0 -211 246z" />
    <glyph glyph-name="u" unicode="u" horiz-adv-x="1093" 
d="M487 84q134 0 250 141v531q0 74 -53 94l-66 22v37q223 0 297 13v-750q0 -104 80 -104q37 0 66 14v-43q-63 -63 -143 -63q-157 -1 -175 145q-59 -66 -143 -109t-168 -43q-154 0 -229 105q-53 72 -53 256v426q0 74 -54 94l-65 22v37q223 0 297 13v-586q0 -148 43 -200
t116 -52z" />
    <glyph glyph-name="v" unicode="v" horiz-adv-x="962" 
d="M171 903q99 0 228 6v-37l-106 -30l239 -600l238 604l-104 26v37q115 -6 163 -6l146 6v-37q-74 -12 -103 -32t-49 -70l-303 -770h-69l-320 762q-20 49 -49 69t-102 41v37q92 -6 191 -6z" />
    <glyph glyph-name="w" unicode="w" horiz-adv-x="1402" 
d="M-20 909h12q28 -4 77 -4l101 -2l110 2q61 0 93 4h14v-37l-111 -30l238 -582l164 463l-14 39q-18 51 -46 73t-86 37v37h13q24 -4 71 -4l93 -2q98 0 180 4l41 2v-37l-117 -22l213 -584l176 580l-108 28v35l170 -6q71 0 125 4l26 2v-35q-81 -14 -109 -34t-49 -82l-233 -758
h-76l-225 625l-223 -625h-74l-303 762q-20 52 -49 72t-94 38v37z" />
    <glyph glyph-name="x" unicode="x" horiz-adv-x="968" 
d="M383 0h-35q-111 6 -162 6l-166 -6v37q84 14 127 36t72 66l184 279l-235 344q-37 51 -72 74t-96 36v37h12q28 -4 80 -4l103 -2q104 0 186 4l41 2v-37l-98 -30l182 -264l178 270l-106 22v39h12q28 -4 77 -4l101 -2l154 6v-39q-82 -6 -122 -28t-79 -82l-166 -250l248 -363
q35 -51 69 -73t103 -37v-37l-70 4l-117 2l-140 -2l-111 -4v35l114 35l-196 282l-185 -284l113 -31v-37z" />
    <glyph glyph-name="y" unicode="y" horiz-adv-x="972" 
d="M213 -481q-51 1 -80 27t-29 59q0 70 60 69l69 -8q59 0 89 26q29 26 57 99l78 211l-328 760q-23 51 -55 74q-33 23 -97 36v37l37 -2q74 -4 166 -4l236 6v-37l-121 -30l254 -594l223 598l-110 28v35l34 -2q70 -4 150 -4l143 6v-35q-73 -10 -107 -30t-53 -74l-391 -1038
q-37 -98 -88 -156t-137 -57z" />
    <glyph glyph-name="z" unicode="z" horiz-adv-x="870" 
d="M553 70q92 0 127 36t59 140h39q-4 -168 -4 -246h-692v57l489 783h-342l-82 -176h-34q4 78 4 245h663v-53l-493 -786h266z" />
    <glyph glyph-name="braceleft" unicode="{" horiz-adv-x="581" 
d="M541 1532q-203 -32 -203 -170q0 -68 10 -137l39 -242q8 -49 8 -78q0 -83 -52 -155t-159 -111q106 -39 158 -112t53 -154q0 -29 -8 -78l-39 -242q-10 -69 -10 -137q0 -137 203 -168v-39q-166 14 -267 94q-100 80 -100 213q0 39 12 109l47 283q12 78 -22 134
q-35 56 -113 70v54q78 14 113 70t22 134l-47 283q-12 70 -12 109q0 133 100 214t267 95v-39z" />
    <glyph glyph-name="bar" unicode="|" horiz-adv-x="567" 
d="M342 -543h-117v1997h117v-1997z" />
    <glyph glyph-name="braceright" unicode="}" horiz-adv-x="581" 
d="M244 -84q0 68 -11 137l-38 242q-8 49 -9 78q0 83 52 155t159 111q-106 39 -158 112t-53 154q0 29 9 78l38 242q11 69 11 137q1 139 -203 170v39q166 -14 266 -95t101 -214q0 -39 -13 -109l-47 -283q-12 -78 22 -134t113 -70v-54q-79 -14 -113 -70t-22 -134l47 -283
q12 -70 13 -109q0 -133 -100 -213t-267 -94v39q203 31 203 168z" />
    <glyph glyph-name="asciitilde" unicode="~" horiz-adv-x="901" 
d="M620 494q-84 0 -188 61t-166 61t-91 -30q-30 -30 -50 -92h-47q10 119 68 178t142 59t187 -56q102 -57 165 -57q62 0 90 29t44 88h47q-20 -117 -68 -179q-49 -62 -133 -62z" />
    <glyph glyph-name="nbspace" unicode="&#xa0;" horiz-adv-x="376" 
 />
    <glyph glyph-name="exclamdown" unicode="&#xa1;" horiz-adv-x="458" 
d="M336 838q0 -45 -31 -75t-76 -30t-75 30t-31 75q0 44 31 74q32 30 76 30t75 -30t31 -74zM227 -399q-102 0 -92 143l70 829h47l67 -829q10 -143 -92 -143z" />
    <glyph glyph-name="cent" unicode="&#xa2;" horiz-adv-x="1007" 
d="M322 455q0 -156 57 -250t153 -119v739q-98 -25 -154 -119t-56 -251zM616 -164h-84v133q-180 7 -290 139t-109 347q0 215 110 348t289 139v135h84v-141q96 -16 169 -74t110 -129l-51 -45q-80 133 -228 146v-756q145 8 228 145l51 -45q-37 -72 -110 -129t-169 -74v-139z
" />
    <glyph glyph-name="sterling" unicode="&#xa3;" horiz-adv-x="1007" 
d="M229 207q-47 0 -71 -24q-24 -25 -23 -61q0 -36 23 -59t57 -22q88 0 88 143q-27 23 -74 23zM719 -31q-135 0 -283 137q-68 -137 -213 -137q-74 0 -120 40t-46 108q0 67 47 109q48 42 110 42t93 -14q2 31 2 395h-159v84h159v98q0 479 373 480q72 0 156 -29t84 -86
q0 -35 -20 -67q-20 -31 -49 -31q-31 0 -61 35t-68 69t-83 33q-72 0 -113 -80t-41 -235v-187h238l-18 -84h-220q0 -330 -18 -450q145 -96 263 -96t190 98l41 -29q-82 -203 -244 -203z" />
    <glyph glyph-name="currency" unicode="&#xa4;" horiz-adv-x="1007" 
d="M510 334q106 0 155 89q48 89 48 213t-48 214q-49 90 -155 90t-154 -90t-49 -214q1 -124 49 -213t154 -89zM505 254q-95 0 -173 39l-82 -125h-125l125 186q-100 106 -100 284t104 284l-129 198h125l90 -137q80 37 166 37t162 -33l88 133h125l-125 -190q114 -109 114 -292
t-110 -290l121 -180h-125l-82 121q-74 -35 -169 -35z" />
    <glyph glyph-name="yen" unicode="&#xa5;" horiz-adv-x="1007" 
d="M608 510v-94h269l-15 -84h-254v-176q0 -76 58 -95q51 -14 79 -20v-41l-223 6l-233 -6v41l131 41v250h-283l15 84h268v94h-283l15 84h254l-267 539q-29 59 -53 78q-25 19 -86 34v35q92 -6 194 -6t230 6v-35l-115 -33l262 -524l234 522l-107 33v37q125 -6 174 -6l152 6v-37
q-72 -8 -102 -34t-60 -95l-231 -520h246l-15 -84h-254z" />
    <glyph glyph-name="brokenbar" unicode="&#xa6;" horiz-adv-x="567" 
d="M342 -543h-117v744h117v-744zM342 711h-117v743h117v-743z" />
    <glyph glyph-name="section" unicode="&#xa7;" horiz-adv-x="874" 
d="M461 418q69 0 109 41t40 107t-54 111q-54 46 -122 46t-108 -41q-40 -40 -41 -106q0 -66 54 -112t122 -46zM735 102q0 -135 -94 -212q-94 -76 -227 -76t-273 53q0 127 -6 237h39q12 -92 74 -152t150 -60t138 39q50 40 50 113t-46 120t-112 78q-66 30 -132 62t-111 87
q-46 55 -46 139q1 84 59 151t160 93q-119 55 -169 120t-50 150q0 121 89 194t225 73q45 -1 128 -15t107 -16q0 -143 6 -242h-39q-35 201 -200 201q-70 0 -117 -42t-47 -105q0 -109 156 -182q65 -30 131 -62t112 -88q46 -55 45 -133q0 -197 -182 -265q100 -52 141 -112
t41 -148z" />
    <glyph glyph-name="dieresis" unicode="&#xa8;" 
d="M209 1182q0 -39 -29 -68q-30 -29 -68 -29t-68 29t-30 68q0 38 29 66t69 28t68 -28t29 -66zM526 1182q0 -39 -30 -68t-68 -29q-39 0 -68 29t-28 68q0 38 28 66t69 28t69 -28t28 -66z" />
    <glyph glyph-name="copyright" unicode="&#xa9;" horiz-adv-x="1470" 
d="M1292 639q0 240 -162 412t-395 172t-395 -172t-162 -412t162 -411t395 -171t395 171t162 411zM1401 639q0 -279 -194 -475q-195 -196 -473 -195q-278 0 -472 196q-194 197 -192 475q0 278 194 474t471 197q276 -1 471 -197t195 -475zM584 641q0 -275 188 -275
q96 0 176 91l33 -31q-96 -141 -254 -141q-129 0 -205 92t-76 256t85 255t235 91q45 0 104 -10q58 -10 80 -13q0 -76 4 -190h-34q-18 154 -164 154q-78 0 -125 -75t-47 -204z" />
    <glyph glyph-name="ordfeminine" unicode="&#xaa;" horiz-adv-x="643" 
d="M201 702q0 -106 102 -106q51 0 94 49v193h-28q-168 0 -168 -136zM504 524q-88 0 -98 66q-70 -70 -161 -70t-143 51q-45 49 -45 134t85 135t214 49h41v16q1 74 -25 100t-73 25q-106 0 -154 -94l-53 27q63 147 230 147q104 0 156 -53t52 -170v-244q0 -49 39 -49q21 0 37 8
v-41q-41 -37 -102 -37z" />
    <glyph glyph-name="guillemotleft" unicode="&#xab;" horiz-adv-x="802" 
d="M406 158l-48 -37l-260 323l260 322l41 -37l-155 -287zM709 158l-47 -37l-261 323l261 322l40 -37l-155 -287z" />
    <glyph glyph-name="logicalnot" unicode="&#xac;" horiz-adv-x="901" 
d="M791 252h-101v303h-581v100h682v-403z" />
    <glyph glyph-name="uni00AD" unicode="&#xad;" horiz-adv-x="653" 
d="M571 428h-489v92h489v-92z" />
    <glyph glyph-name="registered" unicode="&#xae;" horiz-adv-x="1470" 
d="M1292 639q0 240 -162 412t-395 172t-395 -172t-162 -412t162 -411t395 -171t395 171t162 411zM1401 639q0 -279 -194 -475q-195 -196 -473 -195q-278 0 -472 196q-194 197 -192 475q0 278 194 474t471 197q276 -1 471 -197t195 -475zM649 909v-284h25q164 0 164 145
q0 139 -176 139h-13zM518 868q0 33 -13 44t-65 22v29h262q268 0 269 -185q0 -121 -133 -168q61 -16 88 -88l37 -96q20 -52 38 -70t66 -28v-27h-211q0 45 -25 107l-38 102q-16 41 -40 54t-71 14h-33v-181q1 -33 13 -47t57 -22v-27l-125 2l-143 -2v27l67 20v520z" />
    <glyph glyph-name="macron" unicode="&#xaf;" 
d="M502 1090h-461v94h461v-94z" />
    <glyph glyph-name="degree" unicode="&#xb0;" horiz-adv-x="638" 
d="M319 809q-115 0 -187 71q-72 72 -71 184q0 112 72 182q73 70 187 71q114 0 186 -71q72 -72 72 -184t-72 -182t-187 -71zM319 893q70 0 113 49t43 121t-43 121t-113 49q-71 0 -113 -49t-42 -121t42 -121t113 -49z" />
    <glyph glyph-name="plusminus" unicode="&#xb1;" horiz-adv-x="901" 
d="M791 0h-682v100h682v-100zM791 543h-291v-291h-101v291h-290v100h290v291h101v-291h291v-100z" />
    <glyph glyph-name="twosuperior" unicode="&#xb2;" horiz-adv-x="643" 
d="M98 756v59q25 37 109 133t132 178t48 160t-29 114t-71 36q-80 0 -131 -99l-58 27q68 152 221 152q84 0 150 -56t66 -154q1 -100 -51 -170t-140 -146q-88 -77 -121 -120h178q53 0 75 18t36 58h37q-23 -76 -45 -190h-406z" />
    <glyph glyph-name="threesuperior" unicode="&#xb3;" horiz-adv-x="643" 
d="M551 969q0 -84 -71 -154t-169 -70t-149 27t-51 62t18 55q19 20 39 20q35 0 58 -52q10 -19 28 -35t41 -17q51 0 81 49t30 121t-54 115t-135 43v47q63 6 113 53q49 47 49 108q0 95 -84 95t-125 -80l-53 20q25 66 82 103t129 37t131 -46t59 -129q0 -106 -143 -161
q80 -18 128 -72t48 -139z" />
    <glyph glyph-name="acute" unicode="&#xb4;" 
d="M354 1296q14 0 29 -14l70 -70v-20l-361 -186l-18 22l245 248q21 20 35 20z" />
    <glyph glyph-name="uni00B5" unicode="&#xb5;" horiz-adv-x="1099" 
d="M436 -31q-135 0 -213 84q7 -57 21 -161t18 -158q12 -143 -82 -144q-88 0 -78 144q2 35 26 216t26 337v469q0 74 -54 94l-65 22v37q223 0 297 13v-588q0 -148 43 -200t113 -52q140 0 255 141v533q0 74 -53 94l-65 22v37q223 0 297 13v-750q0 -104 79 -104q37 0 66 14v-43
q-63 -63 -143 -63q-158 -1 -174 145q-58 -66 -144 -109t-170 -43z" />
    <glyph glyph-name="paragraph" unicode="&#xb6;" horiz-adv-x="1044" 
d="M952 1280v-41l-145 -49v-1407h-96v1407h-129v-1407h-97v827q-171 0 -283 92t-112 236t106 242q106 100 289 100h467z" />
    <glyph glyph-name="periodcentered" unicode="&#xb7;" horiz-adv-x="421" 
d="M317 453q-1 -45 -31 -75t-75 -30t-76 30t-31 75t31 75t76 29q45 1 75 -29t31 -75z" />
    <glyph glyph-name="cedilla" unicode="&#xb8;" 
d="M451 -276q1 -70 -91 -134t-245 -63l-13 49q100 8 159 49q58 41 58 109q0 82 -122 98q-37 6 -29 35l53 166h86l-41 -133q82 -14 134 -60t51 -116z" />
    <glyph glyph-name="onesuperior" unicode="&#xb9;" horiz-adv-x="643" 
d="M264 1380q0 20 -6 30t-29 15l-75 17v35q135 0 200 34h47v-671q0 -31 37 -37l72 -12v-35q-35 2 -178 2l-170 -2v35l102 24v565z" />
    <glyph glyph-name="ordmasculine" unicode="&#xba;" horiz-adv-x="659" 
d="M330 520q-127 0 -206 81t-79 214t79 214t206 81t206 -81q78 -81 78 -214t-78 -214t-206 -81zM330 588q66 0 102 60t35 166q0 106 -36 168q-35 62 -101 62t-102 -61t-36 -167t36 -168q36 -60 102 -60z" />
    <glyph glyph-name="guillemotright" unicode="&#xbb;" horiz-adv-x="802" 
d="M401 444l-260 -323l-47 37l162 284l-156 287l41 37zM705 444l-261 -323l-47 37l162 284l-156 287l41 37z" />
    <glyph glyph-name="onequarter" unicode="&#xbc;" horiz-adv-x="1556" 
d="M246 1155q0 19 -6 29t-29 16l-76 17v34q135 0 201 35h47v-672q0 -31 37 -36l72 -13v-35q-35 2 -179 2l-170 -2v35l103 25v565zM1169 279v286l-198 -286h198zM1169 195h-301v38l361 521h76v-475h110v-84h-110v-109q0 -20 7 -28t29 -11l52 -12v-35q-35 2 -156 2l-158 -2v35
l90 24v136zM1186 1311l-731 -1342h-95l732 1342h94z" />
    <glyph glyph-name="onehalf" unicode="&#xbd;" horiz-adv-x="1556" 
d="M238 1155q0 19 -6 29t-29 16l-76 17v34q135 0 201 35h47v-672q0 -31 37 -36l71 -13v-35q-35 2 -178 2l-170 -2v35l103 25v565zM958 0v59q25 37 109 133t132 179q48 81 48 159t-28 114q-29 36 -72 36q-80 0 -131 -98l-58 26q68 152 222 152q84 0 150 -55t65 -155
q1 -100 -51 -170t-140 -146q-88 -77 -121 -119h179q52 0 74 18t36 57h37q-23 -76 -45 -190h-406zM1178 1311l-732 -1342h-94l731 1342h95z" />
    <glyph glyph-name="threequarters" unicode="&#xbe;" horiz-adv-x="1556" 
d="M559 744q0 -84 -71 -154t-169 -70t-149 27t-51 61t18 56q19 20 39 20q35 0 58 -52q10 -20 28 -36t41 -16q51 0 81 49t30 121t-54 114q-54 43 -135 43v47q63 6 113 54t49 108q0 94 -88 94q-80 0 -121 -80l-53 21q25 67 82 103t129 36t131 -45t59 -129q0 -106 -143 -162
q80 -18 128 -72t48 -138zM1212 279v286l-198 -286h198zM1212 195h-301v38l361 521h76v-475h110v-84h-110v-109q0 -20 7 -28t29 -11l52 -12v-35q-35 2 -156 2l-158 -2v35l90 24v136zM1229 1311l-731 -1342h-95l732 1342h94z" />
    <glyph glyph-name="questiondown" unicode="&#xbf;" horiz-adv-x="755" 
d="M334 838q0 44 31 74t75 30t76 -30q31 -30 31 -74t-31 -75q-31 -30 -76 -30q-46 0 -76 30t-30 75zM82 -86q0 82 43 164t97 144t110 168t78 222h61q-8 -123 -60 -252q-53 -130 -99 -240t-46 -205t48 -153t126 -57q125 0 222 127l51 -39q-115 -193 -318 -192q-135 0 -224 85
t-89 228z" />
    <glyph glyph-name="Agrave" unicode="&#xc0;" horiz-adv-x="1292" 
d="M538 1618q14 0 37 -19l277 -221l-12 -24l-398 162v20l66 66q16 16 30 16zM766 535l-170 436l-166 -436h336zM233 6l-217 -6v41l136 41l462 1198h60l436 -1124q18 -44 36 -64t54 -31l68 -20v-41l-230 6l-239 -6v41l141 41l-145 377h-392l-118 -307q-8 -25 -9 -37
q0 -50 148 -74v-41z" />
    <glyph glyph-name="Aacute" unicode="&#xc1;" horiz-adv-x="1292" 
d="M838 1536v-20l-398 -162l-12 24l277 221q36 32 67 3zM766 535l-170 436l-166 -436h336zM233 6l-217 -6v41l136 41l462 1198h60l436 -1124q18 -44 36 -64t54 -31l68 -20v-41l-230 6l-239 -6v41l141 41l-145 377h-392l-118 -307q-8 -25 -9 -37q0 -50 148 -74v-41z" />
    <glyph glyph-name="Acircumflex" unicode="&#xc2;" horiz-adv-x="1292" 
d="M877 1399l-23 -21l-215 127l-215 -127l-23 21l191 221h92zM766 535l-170 436l-166 -436h336zM233 6l-217 -6v41l136 41l462 1198h60l436 -1124q18 -44 36 -64t54 -31l68 -20v-41l-230 6l-239 -6v41l141 41l-145 377h-392l-118 -307q-8 -25 -9 -37q0 -50 148 -74v-41z" />
    <glyph glyph-name="Atilde" unicode="&#xc3;" horiz-adv-x="1292" 
d="M752 1427q-41 0 -125 34t-121 34q-59 0 -82 -63l-39 4q18 180 147 180q41 0 125 -34t121 -34q59 0 82 64l39 -4q-18 -181 -147 -181zM766 535l-170 436l-166 -436h336zM233 6l-217 -6v41l136 41l462 1198h60l436 -1124q18 -44 36 -64t54 -31l68 -20v-41l-230 6l-239 -6
v41l141 41l-145 377h-392l-118 -307q-8 -25 -9 -37q0 -50 148 -74v-41z" />
    <glyph glyph-name="Adieresis" unicode="&#xc4;" horiz-adv-x="1292" 
d="M571 1511q-1 -39 -29 -67t-67 -29q-39 0 -69 29q-30 30 -29 68q0 38 29 66q28 28 68 28t68 -28t29 -67zM889 1511q0 -39 -30 -67q-31 -28 -69 -29q-38 0 -67 29q-29 30 -29 68t29 66t69 28t68 -28t29 -67zM766 535l-170 436l-166 -436h336zM233 6l-217 -6v41l136 41
l462 1198h60l436 -1124q18 -44 36 -64t54 -31l68 -20v-41l-230 6l-239 -6v41l141 41l-145 377h-392l-118 -307q-8 -25 -9 -37q0 -50 148 -74v-41z" />
    <glyph glyph-name="Aring" unicode="&#xc5;" horiz-adv-x="1292" 
d="M725 1538q0 43 -26 70q-27 26 -63 26t-62 -28t-26 -70q0 -43 26 -70q26 -26 63 -26t63 28t25 70zM807 1537q0 -71 -49 -120t-121 -49t-121 49t-49 119t49 120t121 50t121 -49t49 -120zM766 535l-170 436l-166 -436h336zM233 6l-217 -6v41l136 41l462 1198h60l436 -1124
q18 -44 36 -64t54 -31l68 -20v-41l-230 6l-239 -6v41l141 41l-145 377h-392l-118 -307q-8 -25 -9 -37q0 -50 148 -74v-41z" />
    <glyph glyph-name="AE" unicode="&#xc6;" horiz-adv-x="1736" 
d="M846 698v498l-279 -498h279zM575 1280h1020q8 -154 35 -303h-53q-37 131 -103 179t-253 48h-187v-506h140q211 0 249 15l-10 -103q-49 12 -239 13h-140v-463q0 -50 43 -66t215 -16t230 41q55 41 88 182h45q-14 -143 -15 -301h-925v41l131 41v541h-320l-262 -471
q-10 -20 -10 -37q0 -39 63 -54l82 -20v-41l-190 6l-238 -6v41l144 43l577 1038q16 29 17 49q0 55 -134 68v41z" />
    <glyph glyph-name="Ccedilla" unicode="&#xc7;" horiz-adv-x="1171" 
d="M836 -276q0 -70 -92 -134t-244 -63l-13 49q100 8 159 49q58 41 59 109q0 82 -123 98q-37 6 -29 35l33 104q-238 21 -371 203t-133 480t172 478t428 179q108 0 354 -41q16 -311 21 -334h-49q-23 145 -108 215t-206 70q-180 0 -290 -160t-110 -421q0 -262 112 -410
q111 -148 280 -148q219 0 358 188l60 -45q-70 -111 -180 -179t-252 -75l-21 -71q81 -14 133 -60t52 -116z" />
    <glyph glyph-name="Egrave" unicode="&#xc8;" horiz-adv-x="1116" 
d="M456 1618q14 0 38 -19l276 -221l-12 -24l-398 162v20l66 66q16 16 30 16zM225 1128q0 53 -29 75q-30 22 -110 36v41h889q4 -164 22 -303h-49q-26 133 -90 179t-252 46q-90 0 -192 -4v-500h139q211 0 250 15l-10 -105q-49 12 -240 13h-139v-459q0 -50 42 -66t165 -16
q223 0 282 42t90 179h41q-12 -139 -12 -301h-928v41l131 41v1046z" />
    <glyph glyph-name="Eacute" unicode="&#xc9;" horiz-adv-x="1116" 
d="M797 1536v-20l-398 -162l-12 24l277 221q36 32 67 3zM225 1128q0 53 -29 75q-30 22 -110 36v41h889q4 -164 22 -303h-49q-26 133 -90 179t-252 46q-90 0 -192 -4v-500h139q211 0 250 15l-10 -105q-49 12 -240 13h-139v-459q0 -50 42 -66t165 -16q223 0 282 42t90 179h41
q-12 -139 -12 -301h-928v41l131 41v1046z" />
    <glyph glyph-name="Ecircumflex" unicode="&#xca;" horiz-adv-x="1116" 
d="M821 1399l-22 -21l-215 127l-215 -127l-23 21l191 221h92zM225 1128q0 53 -29 75q-30 22 -110 36v41h889q4 -164 22 -303h-49q-26 133 -90 179t-252 46q-90 0 -192 -4v-500h139q211 0 250 15l-10 -105q-49 12 -240 13h-139v-459q0 -50 42 -66t165 -16q223 0 282 42
t90 179h41q-12 -139 -12 -301h-928v41l131 41v1046z" />
    <glyph glyph-name="Edieresis" unicode="&#xcb;" horiz-adv-x="1116" 
d="M516 1511q0 -39 -29 -67t-67 -29q-38 0 -69 29q-29 30 -29 68t28 66q29 28 69 28q41 0 69 -28t28 -67zM834 1511q0 -39 -30 -67t-69 -29q-39 0 -67 29q-28 30 -29 68q0 38 29 66q28 28 68 28t69 -28t29 -67zM225 1128q0 53 -29 75q-30 22 -110 36v41h889q4 -164 22 -303
h-49q-26 133 -90 179t-252 46q-90 0 -192 -4v-500h139q211 0 250 15l-10 -105q-49 12 -240 13h-139v-459q0 -50 42 -66t165 -16q223 0 282 42t90 179h41q-12 -139 -12 -301h-928v41l131 41v1046z" />
    <glyph glyph-name="Igrave" unicode="&#xcc;" horiz-adv-x="649" 
d="M218 1618q14 0 38 -19l276 -221l-12 -24l-397 162v20l65 66q16 16 30 16zM420 156q0 -76 57 -95q33 -10 80 -20v-41l-223 6l-234 -6v41l131 41v1038q0 78 -54 96t-85 23v41l219 -6l234 6v-41l-125 -43v-1040z" />
    <glyph glyph-name="Iacute" unicode="&#xcd;" horiz-adv-x="649" 
d="M512 1536v-20l-397 -162l-13 24l277 221q23 19 37 19t30 -16zM420 156q0 -76 57 -95q33 -10 80 -20v-41l-223 6l-234 -6v41l131 41v1038q0 78 -54 96t-85 23v41l219 -6l234 6v-41l-125 -43v-1040z" />
    <glyph glyph-name="Icircumflex" unicode="&#xce;" horiz-adv-x="649" 
d="M561 1399l-22 -21l-215 127l-215 -127l-23 21l190 221h93zM420 156q0 -76 57 -95q33 -10 80 -20v-41l-223 6l-234 -6v41l131 41v1038q0 78 -54 96t-85 23v41l219 -6l234 6v-41l-125 -43v-1040z" />
    <glyph glyph-name="Idieresis" unicode="&#xcf;" horiz-adv-x="649" 
d="M262 1511q0 -39 -29 -67t-67 -29q-38 0 -69 29q-29 30 -29 68t28 66q29 28 69 28q41 0 69 -28t28 -67zM580 1511q0 -39 -30 -67t-69 -29q-39 0 -67 29q-28 30 -29 68q0 38 29 66q28 28 68 28t69 -28t29 -67zM420 156q0 -76 57 -95q33 -10 80 -20v-41l-223 6l-234 -6v41
l131 41v1038q0 78 -54 96t-85 23v41l219 -6l234 6v-41l-125 -43v-1040z" />
    <glyph glyph-name="Eth" unicode="&#xd0;" horiz-adv-x="1325" 
d="M414 1194v-494h221v-88h-221v-446q0 -48 38 -66t136 -18q227 0 337 152q109 152 109 416q0 262 -120 403t-394 141h-106zM86 1280h424q735 0 735 -647q1 -279 -149 -456t-473 -177h-529v41l129 41v530h-139v88h139v428q0 53 -28 75q-29 22 -109 36v41z" />
    <glyph glyph-name="Ntilde" unicode="&#xd1;" horiz-adv-x="1439" 
d="M829 1427q-41 0 -125 34t-120 34q-59 0 -82 -63l-39 4q18 180 147 180q41 0 125 -34t121 -34q59 0 82 64l39 -4q-19 -181 -148 -181zM1231 -8h-88l-809 1038v-874q0 -45 18 -70t119 -45v-41l-184 6l-197 -6v41l135 41v1040q0 74 -63 95q-39 12 -82 22v41h293l751 -965
v811q0 45 -16 68t-123 45v41l189 -6l184 6v-41l-127 -43v-1204z" />
    <glyph glyph-name="Ograve" unicode="&#xd2;" horiz-adv-x="1282" 
d="M542 1618q14 0 38 -19l276 -221l-12 -24l-398 162v20l66 66q16 16 30 16zM987 641q0 195 -66 369q-36 94 -108 152t-170 58t-171 -58q-72 -58 -108 -152q-68 -181 -69 -372q0 -191 66 -367q36 -95 108 -153t170 -58t171 58q120 97 161 339q16 92 16 184zM1200 641
q0 -279 -146 -475t-414 -197q-268 0 -414 197q-144 198 -144 476t146 474t414 195q268 1 414 -195q144 -196 144 -475z" />
    <glyph glyph-name="Oacute" unicode="&#xd3;" horiz-adv-x="1282" 
d="M838 1536v-20l-398 -162l-12 24l277 221q36 32 67 3zM987 641q0 195 -66 369q-36 94 -108 152t-170 58t-171 -58q-72 -58 -108 -152q-68 -181 -69 -372q0 -191 66 -367q36 -95 108 -153t170 -58t171 58q120 97 161 339q16 92 16 184zM1200 641q0 -279 -146 -475
t-414 -197q-268 0 -414 197q-144 198 -144 476t146 474t414 195q268 1 414 -195q144 -196 144 -475z" />
    <glyph glyph-name="Ocircumflex" unicode="&#xd4;" horiz-adv-x="1282" 
d="M879 1399l-23 -21l-215 127l-215 -127l-23 21l191 221h92zM987 641q0 195 -66 369q-36 94 -108 152t-170 58t-171 -58q-72 -58 -108 -152q-68 -181 -69 -372q0 -191 66 -367q36 -95 108 -153t170 -58t171 58q120 97 161 339q16 92 16 184zM1200 641q0 -279 -146 -475
t-414 -197q-268 0 -414 197q-144 198 -144 476t146 474t414 195q268 1 414 -195q144 -196 144 -475z" />
    <glyph glyph-name="Otilde" unicode="&#xd5;" horiz-adv-x="1282" 
d="M750 1427q-41 0 -125 34t-121 34q-59 0 -82 -63l-39 4q18 180 147 180q41 0 125 -34t121 -34q59 0 82 64l39 -4q-18 -181 -147 -181zM987 641q0 195 -66 369q-36 94 -108 152t-170 58t-171 -58q-72 -58 -108 -152q-68 -181 -69 -372q0 -191 66 -367q36 -95 108 -153
t170 -58t171 58q120 97 161 339q16 92 16 184zM1200 641q0 -279 -146 -475t-414 -197q-268 0 -414 197q-144 198 -144 476t146 474t414 195q268 1 414 -195q144 -196 144 -475z" />
    <glyph glyph-name="Odieresis" unicode="&#xd6;" horiz-adv-x="1282" 
d="M580 1511q0 -39 -29 -67t-68 -29q-39 0 -69 29q-30 30 -29 68q0 38 29 66q28 28 68 28t69 -28t29 -67zM897 1511q0 -39 -30 -67q-31 -28 -69 -29q-38 0 -67 29q-29 30 -29 68t29 66t69 28t68 -28t29 -67zM987 641q0 195 -66 369q-36 94 -108 152t-170 58t-171 -58
q-72 -58 -108 -152q-68 -181 -69 -372q0 -191 66 -367q36 -95 108 -153t170 -58t171 58q120 97 161 339q16 92 16 184zM1200 641q0 -279 -146 -475t-414 -197q-268 0 -414 197q-144 198 -144 476t146 474t414 195q268 1 414 -195q144 -196 144 -475z" />
    <glyph glyph-name="multiply" unicode="&#xd7;" horiz-adv-x="901" 
d="M727 248l-72 -72l-204 205l-205 -205l-72 72l205 205l-205 204l72 72l205 -205l204 205l72 -72l-205 -204z" />
    <glyph glyph-name="Oslash" unicode="&#xd8;" horiz-adv-x="1282" 
d="M647 1221q-102 -1 -175 -59q-72 -58 -108 -152q-68 -181 -69 -397q0 -216 84 -377l450 911q-80 74 -182 74zM987 641q0 254 -92 420l-453 -918q80 -84 188 -84q273 0 341 398q16 92 16 184zM1200 641q0 -279 -146 -475t-415 -197q-139 0 -254 60l-59 -121h-109l86 176
q-109 92 -165 240t-56 317q0 279 146 475t415 195q129 0 240 -54l57 115h109l-82 -168q115 -90 174 -240t59 -323z" />
    <glyph glyph-name="Ugrave" unicode="&#xd9;" horiz-adv-x="1318" 
d="M578 1618q16 0 36 -19l277 -221l-12 -24l-398 162v20l66 66q15 16 31 16zM1128 500q0 -531 -460 -531q-213 0 -330 111q-137 129 -137 395v647q-1 78 -55 96t-85 23v39l220 -6l233 6v-39l-125 -43v-698q0 -432 313 -432q320 0 320 448v606q0 72 -64 97q-37 14 -73 22v39
l184 -6l184 6v-39l-125 -43v-698z" />
    <glyph glyph-name="Uacute" unicode="&#xda;" horiz-adv-x="1318" 
d="M915 1536v-20l-397 -162l-12 24l276 221q36 33 68 3zM1128 500q0 -531 -460 -531q-213 0 -330 111q-137 129 -137 395v647q-1 78 -55 96t-85 23v39l220 -6l233 6v-39l-125 -43v-698q0 -432 313 -432q320 0 320 448v606q0 72 -64 97q-37 14 -73 22v39l184 -6l184 6v-39
l-125 -43v-698z" />
    <glyph glyph-name="Ucircumflex" unicode="&#xdb;" horiz-adv-x="1318" 
d="M934 1399l-23 -21l-215 127l-215 -127l-22 21l190 221h92zM1128 500q0 -531 -460 -531q-213 0 -330 111q-137 129 -137 395v647q-1 78 -55 96t-85 23v39l220 -6l233 6v-39l-125 -43v-698q0 -432 313 -432q320 0 320 448v606q0 72 -64 97q-37 14 -73 22v39l184 -6l184 6
v-39l-125 -43v-698z" />
    <glyph glyph-name="Udieresis" unicode="&#xdc;" horiz-adv-x="1318" 
d="M629 1511q0 -39 -29 -67t-68 -29q-38 0 -68 29q-30 30 -30 68t29 66t69 28t68 -28q29 -28 29 -67zM946 1511q0 -39 -30 -67t-68 -29q-38 0 -68 29q-28 30 -28 68t28 66q29 28 69 28q41 0 69 -28t28 -67zM1128 500q0 -531 -460 -531q-213 0 -330 111q-137 129 -137 395
v647q-1 78 -55 96t-85 23v39l220 -6l233 6v-39l-125 -43v-698q0 -432 313 -432q320 0 320 448v606q0 72 -64 97q-37 14 -73 22v39l184 -6l184 6v-39l-125 -43v-698z" />
    <glyph glyph-name="Yacute" unicode="&#xdd;" horiz-adv-x="1153" 
d="M819 1536v-20l-397 -162l-12 24l276 221q23 19 37 19t31 -16zM680 156q0 -76 57 -95q33 -10 80 -20v-41l-223 6l-234 -6v41l132 41v420l-336 631q-25 49 -59 73t-93 39v35q92 -6 206 -6t243 6v-35l-127 -33l311 -583l281 581l-119 33v37q139 -6 188 -6l162 6v-37
q-82 -10 -113 -38t-61 -91l-295 -610v-348z" />
    <glyph glyph-name="Thorn" unicode="&#xde;" horiz-adv-x="1112" 
d="M510 942h-96v-596h78q322 0 321 299q0 161 -85 229t-218 68zM414 1024h108q139 0 223 -23q281 -74 281 -363q0 -152 -127 -260t-362 -108h-123v-114q0 -76 57 -95q33 -10 80 -20v-41l-223 6l-234 -6v41l131 41v1038q0 78 -57 97l-82 22v41l219 -6l234 6v-41l-125 -43
v-172z" />
    <glyph glyph-name="germandbls" unicode="&#xdf;" horiz-adv-x="1208" 
d="M377 0h-295v37l117 41v758h-148v73h148v70q0 203 105 308q106 105 270 105t262 -72q98 -73 98 -212q0 -72 -42 -134t-91 -98q-133 -98 -133 -179q0 -82 161 -147q68 -28 136 -62q69 -34 115 -93t46 -139q0 -131 -93 -209t-235 -78t-280 54v249h39q15 -104 79 -164
t150 -60t135 36q48 36 48 104t-46 112t-112 71q-65 27 -131 57t-112 87q-46 59 -46 133q0 124 127 240q127 113 127 238q0 76 -50 134t-144 59q-94 0 -150 -75t-55 -216v-1028z" />
    <glyph glyph-name="agrave" unicode="&#xe0;" horiz-adv-x="954" 
d="M393 1296q14 0 35 -20l246 -248l-19 -22l-360 186v20l70 70q14 14 28 14zM604 496h-16q-141 0 -222 -60t-81 -164q0 -106 46 -156q47 -50 125 -50t148 65v365zM397 -31q-133 0 -216 75t-83 204q0 164 142 240t364 77v84q0 197 -159 197t-232 -195l-78 31q90 260 363 260
q186 0 254 -135q31 -61 30 -219v-434q0 -86 64 -86q31 0 63 14v-43q-63 -63 -163 -63t-128 85q-88 -92 -221 -92z" />
    <glyph glyph-name="aacute" unicode="&#xe1;" horiz-adv-x="954" 
d="M578 1296q14 0 28 -14l70 -70v-20l-361 -186l-18 22l246 248q21 20 35 20zM604 496h-16q-141 0 -222 -60t-81 -164q0 -106 46 -156q47 -50 125 -50t148 65v365zM397 -31q-133 0 -216 75t-83 204q0 164 142 240t364 77v84q0 197 -159 197t-232 -195l-78 31q90 260 363 260
q186 0 254 -135q31 -61 30 -219v-434q0 -86 64 -86q31 0 63 14v-43q-63 -63 -163 -63t-128 85q-88 -92 -221 -92z" />
    <glyph glyph-name="acircumflex" unicode="&#xe2;" horiz-adv-x="954" 
d="M711 1049l-29 -19l-199 162l-198 -162l-29 19l180 262h92zM604 496h-16q-141 0 -222 -60t-81 -164q0 -106 46 -156q47 -50 125 -50t148 65v365zM397 -31q-133 0 -216 75t-83 204q0 164 142 240t364 77v84q0 197 -159 197t-232 -195l-78 31q90 260 363 260q186 0 254 -135
q31 -61 30 -219v-434q0 -86 64 -86q31 0 63 14v-43q-63 -63 -163 -63t-128 85q-88 -92 -221 -92z" />
    <glyph glyph-name="atilde" unicode="&#xe3;" horiz-adv-x="954" 
d="M590 1083q-41 0 -125 38t-121 38q-59 0 -82 -76l-39 4q18 193 148 193q41 0 125 -38t120 -38q59 0 82 76l39 -4q-18 -193 -147 -193zM604 496h-16q-141 0 -222 -60t-81 -164q0 -106 46 -156q47 -50 125 -50t148 65v365zM397 -31q-133 0 -216 75t-83 204q0 164 142 240
t364 77v84q0 197 -159 197t-232 -195l-78 31q90 260 363 260q186 0 254 -135q31 -61 30 -219v-434q0 -86 64 -86q31 0 63 14v-43q-63 -63 -163 -63t-128 85q-88 -92 -221 -92z" />
    <glyph glyph-name="adieresis" unicode="&#xe4;" horiz-adv-x="954" 
d="M418 1182q0 -39 -29 -68t-67 -29t-69 29q-30 29 -30 68q0 38 29 66t69 28q41 0 69 -28t28 -66zM735 1182q1 -39 -29 -68t-69 -29t-68 29t-28 68q1 38 29 66t68 28t68 -28t29 -66zM604 496h-16q-141 0 -222 -60t-81 -164q0 -106 46 -156q47 -50 125 -50t148 65v365z
M397 -31q-133 0 -216 75t-83 204q0 164 142 240t364 77v84q0 197 -159 197t-232 -195l-78 31q90 260 363 260q186 0 254 -135q31 -61 30 -219v-434q0 -86 64 -86q31 0 63 14v-43q-63 -63 -163 -63t-128 85q-88 -92 -221 -92z" />
    <glyph glyph-name="aring" unicode="&#xe5;" horiz-adv-x="954" 
d="M573 1188q1 44 -25 70t-63 26t-63 -28t-25 -70q0 -42 26 -70q27 -26 63 -26t62 27q25 28 25 71zM655 1188q0 -70 -49 -120t-121 -50q-73 0 -121 49t-48 120t48 120q50 49 122 49t120 -49q49 -49 49 -119zM604 496h-16q-141 0 -222 -60t-81 -164q0 -106 46 -156
q47 -50 125 -50t148 65v365zM397 -31q-133 0 -216 75t-83 204q0 164 142 240t364 77v84q0 197 -159 197t-232 -195l-78 31q90 260 363 260q186 0 254 -135q31 -61 30 -219v-434q0 -86 64 -86q31 0 63 14v-43q-63 -63 -163 -63t-128 85q-88 -92 -221 -92z" />
    <glyph glyph-name="ae" unicode="&#xe6;" horiz-adv-x="1449" 
d="M604 496h-16q-141 0 -222 -60t-81 -164t52 -155q53 -51 117 -51t110 24t102 84q-61 119 -62 297v25zM994 856q-87 0 -139 -81t-62 -214h385q-2 141 -50 218t-134 77zM387 -31q-123 0 -206 75t-83 204q0 164 142 240t364 77v60q0 109 -42 165t-118 56q-158 0 -231 -195
l-78 31q90 260 363 260q172 0 241 -129q95 129 265 129t268 -123t82 -332h-566q8 -205 82 -307t185 -102q160 0 248 145l53 -45q-52 -92 -146 -150t-200 -58t-185 37q-80 38 -120 99q-131 -137 -318 -137z" />
    <glyph glyph-name="ccedilla" unicode="&#xe7;" horiz-adv-x="890" 
d="M512 858q-114 0 -184 -105q-68 -105 -68 -291t76 -284q76 -100 201 -100q81 0 145 41t100 104l52 -45q-41 -80 -126 -140t-198 -67l-21 -71q81 -14 133 -60t52 -116t-91 -134t-245 -63l-12 49q100 8 158 49t59 109q0 82 -123 98q-37 6 -29 35l33 106q-162 19 -257 149
t-95 344t127 345t327 131q58 0 150 -13t102 -14q0 -59 10 -288h-45q-9 103 -63 167t-168 64z" />
    <glyph glyph-name="egrave" unicode="&#xe8;" horiz-adv-x="921" 
d="M384 1296q14 0 36 -20l246 -248l-19 -22l-360 186v20l69 70q14 14 28 14zM469 856q-88 0 -142 -82t-65 -213h395q-2 141 -51 218t-137 77zM72 466q0 208 111 342q112 134 282 134t270 -106t101 -291q0 -37 -2 -58h-576q0 -199 71 -304t197 -105q158 0 248 147l53 -47
q-51 -92 -145 -150t-211 -59q-197 1 -298 145t-101 352z" />
    <glyph glyph-name="eacute" unicode="&#xe9;" horiz-adv-x="921" 
d="M550 1296q14 0 30 -14l69 -70v-20l-360 -186l-19 22l246 248q20 20 34 20zM469 856q-88 0 -142 -82t-65 -213h395q-2 141 -51 218t-137 77zM72 466q0 208 111 342q112 134 282 134t270 -106t101 -291q0 -37 -2 -58h-576q0 -199 71 -304t197 -105q158 0 248 147l53 -47
q-51 -92 -145 -150t-211 -59q-197 1 -298 145t-101 352z" />
    <glyph glyph-name="ecircumflex" unicode="&#xea;" horiz-adv-x="921" 
d="M690 1049l-28 -19l-199 162l-199 -162l-28 19l180 262h92zM469 856q-88 0 -142 -82t-65 -213h395q-2 141 -51 218t-137 77zM72 466q0 208 111 342q112 134 282 134t270 -106t101 -291q0 -37 -2 -58h-576q0 -199 71 -304t197 -105q158 0 248 147l53 -47q-51 -92 -145 -150
t-211 -59q-197 1 -298 145t-101 352z" />
    <glyph glyph-name="edieresis" unicode="&#xeb;" horiz-adv-x="921" 
d="M410 1182q0 -39 -29 -68t-68 -29t-69 29t-29 68q0 38 29 66q28 28 68 28t69 -28t29 -66zM727 1182q0 -39 -30 -68q-31 -29 -69 -29t-67 29t-29 68q0 38 29 66t69 28t68 -28t29 -66zM469 856q-88 0 -142 -82t-65 -213h395q-2 141 -51 218t-137 77zM72 466q0 208 111 342
q112 134 282 134t270 -106t101 -291q0 -37 -2 -58h-576q0 -199 71 -304t197 -105q158 0 248 147l53 -47q-51 -92 -145 -150t-211 -59q-197 1 -298 145t-101 352z" />
    <glyph glyph-name="igrave" unicode="&#xec;" 
d="M164 1296q14 0 35 -20l245 -248l-18 -22l-360 186v20l69 70q15 14 29 14zM325 6q-52 0 -255 -6v37l116 41v676q0 74 -55 96q-23 10 -63 22v37q217 0 297 11v-768q0 -74 53 -95q23 -8 65 -20v-37q-106 6 -158 6z" />
    <glyph glyph-name="iacute" unicode="&#xed;" 
d="M340 1296q14 0 29 -14l69 -70v-20l-360 -186l-19 22l246 248q21 20 35 20zM325 6q-52 0 -255 -6v37l116 41v676q0 74 -55 96q-23 10 -63 22v37q217 0 297 11v-768q0 -74 53 -95q23 -8 65 -20v-37q-106 6 -158 6z" />
    <glyph glyph-name="icircumflex" unicode="&#xee;" 
d="M481 1049l-28 -19l-199 162l-199 -162l-28 19l180 262h92zM325 6q-52 0 -255 -6v37l116 41v676q0 74 -55 96q-23 10 -63 22v37q217 0 297 11v-768q0 -74 53 -95q23 -8 65 -20v-37q-106 6 -158 6z" />
    <glyph glyph-name="idieresis" unicode="&#xef;" 
d="M190 1182q0 -39 -28 -68t-68 -29q-38 0 -68 29t-30 68q0 38 29 66t69 28t68 -28t28 -66zM508 1182q0 -39 -30 -68t-68 -29t-68 29q-29 29 -29 68q0 38 29 66t69 28q41 0 69 -28t28 -66zM325 6q-52 0 -255 -6v37l116 41v676q0 74 -55 96q-23 10 -63 22v37q217 0 297 11
v-768q0 -74 53 -95q23 -8 65 -20v-37q-106 6 -158 6z" />
    <glyph glyph-name="eth" unicode="&#xf0;" horiz-adv-x="1005" 
d="M528 836q-132 0 -200 -104t-68 -284q0 -182 62 -287t177 -105q116 0 174 102t58 283t-49 350q-74 45 -154 45zM920 446q0 -196 -112 -336t-310 -140t-312 126q-114 127 -114 344t113 354q114 136 292 136q92 0 176 -45q-51 131 -114 221l-220 -53l-16 73l186 45
q-78 98 -182 170l23 54q155 -62 286 -193l230 58l16 -74l-188 -47q118 -139 182 -319q64 -178 64 -374z" />
    <glyph glyph-name="ntilde" unicode="&#xf1;" horiz-adv-x="1124" 
d="M676 1083q-41 0 -125 38t-121 38q-59 0 -82 -76l-39 4q18 193 148 193q41 0 125 -38t120 -38q59 0 82 76l39 -4q-18 -193 -147 -193zM914 6q-52 0 -255 -6v37l117 41v495q0 152 -42 202t-118 50q-139 0 -254 -137v-536q0 -74 54 -95q23 -8 65 -20v-37q-109 6 -159 6
t-254 -6v37l116 41v676q0 74 -55 96q-23 10 -63 22v37q217 0 296 11v-132q136 154 298 154t239 -106q55 -76 55 -258v-426q0 -74 54 -95q23 -8 65 -20v-37q-107 6 -159 6z" />
    <glyph glyph-name="ograve" unicode="&#xf2;" horiz-adv-x="1024" 
d="M428 1296q14 0 35 -20l246 -248l-19 -22l-360 186v20l69 70q15 14 29 14zM764 455q0 71 -11 135t-37 127t-78 101t-135 38t-143 -69q-98 -111 -100 -319q-1 -154 48 -273q26 -63 78 -101t124 -39q193 0 242 266q12 64 12 134zM952 453q0 -211 -118 -348
q-119 -136 -324 -136t-322 136q-116 135 -116 347t118 351q119 139 324 139q206 0 322 -139t116 -350z" />
    <glyph glyph-name="oacute" unicode="&#xf3;" horiz-adv-x="1024" 
d="M594 1296q14 0 29 -14l69 -70v-20l-360 -186l-19 22l246 248q21 20 35 20zM764 455q0 71 -11 135t-37 127t-78 101t-135 38t-143 -69q-98 -111 -100 -319q-1 -154 48 -273q26 -63 78 -101t124 -39q193 0 242 266q12 64 12 134zM952 453q0 -211 -118 -348
q-119 -136 -324 -136t-322 136q-116 135 -116 347t118 351q119 139 324 139q206 0 322 -139t116 -350z" />
    <glyph glyph-name="ocircumflex" unicode="&#xf4;" horiz-adv-x="1024" 
d="M739 1049l-28 -19l-199 162l-199 -162l-28 19l180 262h92zM764 455q0 71 -11 135t-37 127t-78 101t-135 38t-143 -69q-98 -111 -100 -319q-1 -154 48 -273q26 -63 78 -101t124 -39q193 0 242 266q12 64 12 134zM952 453q0 -211 -118 -348q-119 -136 -324 -136t-322 136
q-116 135 -116 347t118 351q119 139 324 139q206 0 322 -139t116 -350z" />
    <glyph glyph-name="otilde" unicode="&#xf5;" horiz-adv-x="1024" 
d="M621 1083q-41 0 -125 38t-121 38q-59 0 -82 -76l-39 4q18 193 147 193q41 0 125 -38t121 -38q59 0 82 76l39 -4q-18 -193 -147 -193zM764 455q0 71 -11 135t-37 127t-78 101t-135 38t-143 -69q-98 -111 -100 -319q-1 -154 48 -273q26 -63 78 -101t124 -39q193 0 242 266
q12 64 12 134zM952 453q0 -211 -118 -348q-119 -136 -324 -136t-322 136q-116 135 -116 347t118 351q119 139 324 139q206 0 322 -139t116 -350z" />
    <glyph glyph-name="odieresis" unicode="&#xf6;" horiz-adv-x="1024" 
d="M451 1182q0 -39 -29 -68t-68 -29q-38 0 -68 29t-30 68q0 38 29 66t69 28t68 -28q29 -28 29 -66zM768 1182q0 -39 -30 -68t-68 -29t-68 29q-29 29 -29 68q0 38 29 66t69 28q41 0 69 -28t28 -66zM764 455q0 71 -11 135t-37 127t-78 101t-135 38t-143 -69
q-98 -111 -100 -319q-1 -154 48 -273q26 -63 78 -101t124 -39q193 0 242 266q12 64 12 134zM952 453q0 -211 -118 -348q-119 -136 -324 -136t-322 136q-116 135 -116 347t118 351q119 139 324 139q206 0 322 -139t116 -350z" />
    <glyph glyph-name="divide" unicode="&#xf7;" horiz-adv-x="901" 
d="M545 193q0 -35 -26 -61q-27 -26 -61 -26t-60 26t-25 61q-1 35 25 59t61 24t61 -24t25 -59zM791 406h-682v100h682v-100zM545 723q0 -35 -26 -61q-27 -26 -61 -25q-34 0 -60 26q-26 27 -26 61t26 58t61 25q35 -1 61 -25t25 -59z" />
    <glyph glyph-name="oslash" unicode="&#xf8;" horiz-adv-x="1024" 
d="M260 455q0 -193 70 -299l299 665q-47 35 -128 35t-141 -69t-80 -153t-20 -179zM764 455q0 190 -74 303l-301 -668q51 -35 122 -35q192 0 241 266q12 64 12 134zM952 453q0 -211 -118 -348q-119 -136 -324 -136q-88 0 -162 29l-49 -111h-90l65 144q-203 125 -202 422
q0 211 118 350q119 139 324 139q82 0 158 -27l49 109h90l-66 -145q99 -61 153 -174t54 -252z" />
    <glyph glyph-name="ugrave" unicode="&#xf9;" horiz-adv-x="1095" 
d="M430 1296q14 0 35 -20l246 -248l-19 -22l-360 186v20l69 70q15 14 29 14zM489 84q134 0 250 141v531q0 74 -53 94l-65 22v37q223 0 297 13v-750q0 -104 79 -104q37 0 66 14v-43q-63 -63 -143 -63q-157 -1 -175 145q-59 -66 -143 -109t-168 -43q-152 0 -229 105
q-53 72 -53 256v426q0 74 -54 94l-65 22v37q223 0 297 13v-586q0 -148 43 -200t116 -52z" />
    <glyph glyph-name="uacute" unicode="&#xfa;" horiz-adv-x="1095" 
d="M632 1296q14 0 30 -14l69 -70v-20l-360 -186l-19 22l246 248q20 20 34 20zM489 84q134 0 250 141v531q0 74 -53 94l-65 22v37q223 0 297 13v-750q0 -104 79 -104q37 0 66 14v-43q-63 -63 -143 -63q-157 -1 -175 145q-59 -66 -143 -109t-168 -43q-152 0 -229 105
q-53 72 -53 256v426q0 74 -54 94l-65 22v37q223 0 297 13v-586q0 -148 43 -200t116 -52z" />
    <glyph glyph-name="ucircumflex" unicode="&#xfb;" horiz-adv-x="1095" 
d="M754 1049l-29 -19l-199 162l-198 -162l-29 19l180 262h92zM489 84q134 0 250 141v531q0 74 -53 94l-65 22v37q223 0 297 13v-750q0 -104 79 -104q37 0 66 14v-43q-63 -63 -143 -63q-157 -1 -175 145q-59 -66 -143 -109t-168 -43q-152 0 -229 105q-53 72 -53 256v426
q0 74 -54 94l-65 22v37q223 0 297 13v-586q0 -148 43 -200t116 -52z" />
    <glyph glyph-name="udieresis" unicode="&#xfc;" horiz-adv-x="1095" 
d="M446 1182q0 -39 -28 -68t-68 -29q-38 0 -68 29t-30 68q0 38 29 66t69 28t68 -28t28 -66zM764 1182q0 -39 -30 -68t-68 -29t-68 29q-29 29 -29 68q0 38 29 66t69 28q41 0 69 -28t28 -66zM489 84q134 0 250 141v531q0 74 -53 94l-65 22v37q223 0 297 13v-750
q0 -104 79 -104q37 0 66 14v-43q-63 -63 -143 -63q-157 -1 -175 145q-59 -66 -143 -109t-168 -43q-152 0 -229 105q-53 72 -53 256v426q0 74 -54 94l-65 22v37q223 0 297 13v-586q0 -148 43 -200t116 -52z" />
    <glyph glyph-name="yacute" unicode="&#xfd;" horiz-adv-x="972" 
d="M624 1296q14 0 29 -14l70 -70v-20l-361 -186l-18 22l246 248q20 20 34 20zM213 -481q-51 1 -80 27t-29 59q0 70 60 69l69 -8q59 0 89 26q29 26 57 99l78 211l-328 760q-23 51 -55 74q-33 23 -97 36v37l37 -2q74 -4 166 -4l236 6v-37l-121 -30l254 -594l223 598l-110 28
v35l34 -2q70 -4 150 -4l143 6v-35q-73 -10 -107 -30t-53 -74l-391 -1038q-37 -98 -88 -156t-137 -57z" />
    <glyph glyph-name="thorn" unicode="&#xfe;" horiz-adv-x="1060" 
d="M795 461q-1 178 -61 275q-60 98 -170 98t-216 -113v-578q86 -72 187 -71q127 0 193 106t67 283zM170 1206q0 60 -26 80t-93 39v37q215 0 297 10v-553q113 123 260 123q186 0 280 -138t95 -338q0 -200 -106 -348t-320 -149q-117 0 -209 74v-342q0 -31 6 -50
q11 -36 113 -65v-37q-102 6 -201 7l-213 -7v37l117 43v1577z" />
    <glyph glyph-name="ydieresis" unicode="&#xff;" horiz-adv-x="972" 
d="M479 1182q-1 -39 -29 -68t-67 -29t-69 29t-29 68q1 38 29 66t68 28t68 -28t29 -66zM797 1182q0 -39 -30 -68t-69 -29q-40 0 -68 29t-28 68q0 38 29 66t69 28t68 -28q29 -28 29 -66zM213 -481q-51 1 -80 27t-29 59q0 70 60 69l69 -8q59 0 89 26q29 26 57 99l78 211
l-328 760q-23 51 -55 74q-33 23 -97 36v37l37 -2q74 -4 166 -4l236 6v-37l-121 -30l254 -594l223 598l-110 28v35l34 -2q70 -4 150 -4l143 6v-35q-73 -10 -107 -30t-53 -74l-391 -1038q-37 -98 -88 -156t-137 -57z" />
    <glyph glyph-name="Amacron" unicode="&#x100;" horiz-adv-x="1292" 
d="M872 1434h-460v94h460v-94zM766 535l-170 436l-166 -436h336zM233 6l-217 -6v41l136 41l462 1198h60l436 -1124q18 -44 36 -64t54 -31l68 -20v-41l-230 6l-239 -6v41l141 41l-145 377h-392l-118 -307q-8 -25 -9 -37q0 -50 148 -74v-41z" />
    <glyph glyph-name="amacron" unicode="&#x101;" horiz-adv-x="954" 
d="M711 1090h-461v94h461v-94zM604 496h-16q-141 0 -222 -60t-81 -164q0 -106 46 -156q47 -50 125 -50t148 65v365zM397 -31q-133 0 -216 75t-83 204q0 164 142 240t364 77v84q0 197 -159 197t-232 -195l-78 31q90 260 363 260q186 0 254 -135q31 -61 30 -219v-434
q0 -86 64 -86q31 0 63 14v-43q-63 -63 -163 -63t-128 85q-88 -92 -221 -92z" />
    <glyph glyph-name="Abreve" unicode="&#x102;" horiz-adv-x="1292" 
d="M643 1384q-107 0 -165 58t-58 164h45q10 -109 178 -109t178 109h45q0 -106 -58 -164t-165 -58zM766 535l-170 436l-166 -436h336zM233 6l-217 -6v41l136 41l462 1198h60l436 -1124q18 -44 36 -64t54 -31l68 -20v-41l-230 6l-239 -6v41l141 41l-145 377h-392l-118 -307
q-8 -25 -9 -37q0 -50 148 -74v-41z" />
    <glyph glyph-name="abreve" unicode="&#x103;" horiz-adv-x="954" 
d="M479 1055q-104 0 -163 63q-58 63 -58 170h45q12 -121 176 -121t176 121h45q0 -106 -58 -170q-59 -63 -163 -63zM604 496h-16q-141 0 -222 -60t-81 -164q0 -106 46 -156q47 -50 125 -50t148 65v365zM397 -31q-133 0 -216 75t-83 204q0 164 142 240t364 77v84
q0 197 -159 197t-232 -195l-78 31q90 260 363 260q186 0 254 -135q31 -61 30 -219v-434q0 -86 64 -86q31 0 63 14v-43q-63 -63 -163 -63t-128 85q-88 -92 -221 -92z" />
    <glyph glyph-name="Aogonek" unicode="&#x104;" horiz-adv-x="1292" 
d="M768 535l-172 436l-166 -436h338zM967 -252q-1 -66 35 -100t90 -33q54 0 118 18l13 -49q-74 -39 -169 -39q-94 -1 -156 51t-62 142q0 139 170 268q-203 -6 -207 -6v41l141 41l-145 377h-392l-118 -307q-8 -25 -9 -37q0 -33 60 -51t88 -23v-41l-191 6l-217 -6v41l136 41
l464 1198h58l432 -1124q18 -44 38 -64t56 -33l68 -18v-41l-178 6q-123 -137 -123 -258z" />
    <glyph glyph-name="aogonek" unicode="&#x105;" horiz-adv-x="954" 
d="M604 496h-16q-141 0 -222 -60t-81 -164q0 -106 46 -156q47 -50 125 -50t148 65v365zM734 -455q-95 -1 -156 51t-62 142q0 147 211 244q-86 6 -109 79q-88 -92 -221 -92t-216 75t-83 204q0 164 142 240t364 77v84q0 197 -159 197t-232 -195l-78 31q90 260 363 260
q186 0 254 -135q31 -61 30 -219v-434q0 -86 64 -86q31 0 63 14v-43q-145 -101 -203 -163t-58 -128t35 -99q37 -34 91 -34t117 18l12 -49q-74 -39 -169 -39z" />
    <glyph glyph-name="Cacute" unicode="&#x106;" horiz-adv-x="1171" 
d="M868 1536v-20l-397 -162l-12 24l276 221q23 19 37 19t31 -16zM643 -31q-262 -1 -412 185q-149 186 -149 492t173 486t427 179q108 0 354 -41q16 -311 21 -334h-49q-23 145 -108 215t-206 70q-180 0 -290 -160t-110 -421q0 -262 112 -410q111 -148 280 -148q219 0 358 188
l60 -45q-74 -117 -193 -187t-268 -69z" />
    <glyph glyph-name="cacute" unicode="&#x107;" horiz-adv-x="890" 
d="M594 1296q14 0 29 -14l69 -70v-20l-360 -186l-19 22l246 248q21 20 35 20zM526 942q58 0 150 -13t102 -14q0 -59 10 -288h-45q-10 103 -63 167t-168 64q-116 0 -184 -105t-68 -291t76 -284q76 -100 201 -100q79 0 143 42t102 105l52 -47q-44 -86 -136 -147t-215 -62
q-184 0 -298 132q-113 131 -113 355t127 355t327 131z" />
    <glyph glyph-name="Ccircumflex" unicode="&#x108;" horiz-adv-x="1171" 
d="M918 1399l-23 -21l-215 127l-215 -127l-23 21l191 221h92zM643 -31q-262 -1 -412 185q-149 186 -149 492t173 486t427 179q108 0 354 -41q16 -311 21 -334h-49q-23 145 -108 215t-206 70q-180 0 -290 -160t-110 -421q0 -262 112 -410q111 -148 280 -148q219 0 358 188
l60 -45q-74 -117 -193 -187t-268 -69z" />
    <glyph glyph-name="ccircumflex" unicode="&#x109;" horiz-adv-x="890" 
d="M737 1049l-28 -19l-199 162l-199 -162l-28 19l180 262h92zM526 942q58 0 150 -13t102 -14q0 -59 10 -288h-45q-10 103 -63 167t-168 64q-116 0 -184 -105t-68 -291t76 -284q76 -100 201 -100q79 0 143 42t102 105l52 -47q-44 -86 -136 -147t-215 -62q-184 0 -298 132
q-113 131 -113 355t127 355t327 131z" />
    <glyph glyph-name="Cdotaccent" unicode="&#x10a;" horiz-adv-x="1171" 
d="M793 1528q0 -45 -32 -79t-77 -34t-78 34t-33 79t33 76q33 30 78 30t77 -30t32 -76zM643 -31q-262 -1 -412 185q-149 186 -149 492t173 486t427 179q108 0 354 -41q16 -311 21 -334h-49q-23 145 -108 215t-206 70q-180 0 -290 -160t-110 -421q0 -262 112 -410
q111 -148 280 -148q219 0 358 188l60 -45q-74 -117 -193 -187t-268 -69z" />
    <glyph glyph-name="cdotaccent" unicode="&#x10b;" horiz-adv-x="890" 
d="M616 1176q0 -45 -32 -79t-76 -34q-45 0 -78 34t-33 79q0 46 33 76t78 30q44 0 76 -30t32 -76zM526 942q58 0 150 -13t102 -14q0 -59 10 -288h-45q-10 103 -63 167t-168 64q-116 0 -184 -105t-68 -291t76 -284q76 -100 201 -100q79 0 143 42t102 105l52 -47
q-44 -86 -136 -147t-215 -62q-184 0 -298 132q-113 131 -113 355t127 355t327 131z" />
    <glyph glyph-name="Ccaron" unicode="&#x10c;" horiz-adv-x="1171" 
d="M905 1620l23 -21l-193 -221h-92l-190 221l22 21l215 -127zM643 -31q-262 -1 -412 185q-149 186 -149 492t173 486t427 179q108 0 354 -41q16 -311 21 -334h-49q-23 145 -108 215t-206 70q-180 0 -290 -160t-110 -421q0 -262 112 -410q111 -148 280 -148q219 0 358 188
l60 -45q-74 -117 -193 -187t-268 -69z" />
    <glyph glyph-name="ccaron" unicode="&#x10d;" horiz-adv-x="890" 
d="M709 1309l28 -19l-182 -262h-92l-180 262l28 19l199 -162zM526 942q58 0 150 -13t102 -14q0 -59 10 -288h-45q-10 103 -63 167t-168 64q-116 0 -184 -105t-68 -291t76 -284q76 -100 201 -100q79 0 143 42t102 105l52 -47q-44 -86 -136 -147t-215 -62q-184 0 -298 132
q-113 131 -113 355t127 355t327 131z" />
    <glyph glyph-name="Dcaron" unicode="&#x10e;" horiz-adv-x="1325" 
d="M868 1679l29 -18l-182 -262h-92l-181 262l29 18l199 -161zM414 1194v-1028q0 -48 38 -66t136 -18q227 0 337 152q109 152 109 416q0 262 -120 403t-394 141h-106zM86 1280h424q735 0 735 -647q1 -279 -149 -456t-473 -177h-529v41l129 41v1046q0 53 -28 75
q-29 22 -109 36v41z" />
    <glyph glyph-name="dcaron" unicode="&#x10f;" horiz-adv-x="1071" 
d="M1188 1169q0 -193 -156 -272l-18 29q84 53 84 149q0 43 -27 69t-53 45t-27 50q0 31 24 51q23 20 67 20t75 -44t31 -97zM532 836q-136 0 -202 -112t-66 -258t62 -264t183 -118q122 0 206 90v590q-78 72 -183 72zM449 -31q-177 -1 -275 139t-98 346t115 347
q116 141 307 141q127 0 217 -84v348q1 56 -17 76t-102 43v37h127q94 0 170 8v-1202q0 -100 80 -100q37 0 65 14v-43q-59 -63 -153 -64q-55 0 -100 29q-44 29 -58 86q-100 -121 -278 -121z" />
    <glyph glyph-name="Dcroat" unicode="&#x110;" horiz-adv-x="1325" 
d="M414 1194v-494h221v-88h-221v-446q0 -48 38 -66t136 -18q227 0 337 152q109 152 109 416q0 262 -120 403t-394 141h-106zM86 1280h424q735 0 735 -647q1 -279 -149 -456t-473 -177h-529v41l129 41v530h-139v88h139v428q0 53 -28 75q-29 22 -109 36v41z" />
    <glyph glyph-name="dcroat" unicode="&#x111;" horiz-adv-x="1071" 
d="M449 -31q-177 -1 -275 139t-98 346t115 347q116 141 307 141q127 0 217 -84v229h-293v72h293v47q1 56 -17 76t-102 43v37h127q94 0 170 8v-211h149v-72h-149v-919q0 -100 80 -100q37 0 65 14v-43q-59 -63 -153 -64q-55 0 -100 29q-44 29 -58 86q-100 -121 -278 -121z
M532 836q-136 0 -202 -112t-66 -258t62 -264t183 -118q122 0 206 90v590q-78 72 -183 72z" />
    <glyph glyph-name="Emacron" unicode="&#x112;" horiz-adv-x="1116" 
d="M797 1434h-461v94h461v-94zM225 1128q0 53 -29 75q-30 22 -110 36v41h889q4 -164 22 -303h-49q-26 133 -90 179t-252 46q-90 0 -192 -4v-500h139q211 0 250 15l-10 -105q-49 12 -240 13h-139v-459q0 -50 42 -66t165 -16q223 0 282 42t90 179h41q-12 -139 -12 -301h-928
v41l131 41v1046z" />
    <glyph glyph-name="emacron" unicode="&#x113;" horiz-adv-x="921" 
d="M698 1090h-460v94h460v-94zM469 856q-88 0 -142 -82t-65 -213h395q-2 141 -51 218t-137 77zM72 466q0 208 111 342q112 134 282 134t270 -106t101 -291q0 -37 -2 -58h-576q0 -199 71 -304t197 -105q158 0 248 147l53 -47q-51 -92 -145 -150t-211 -59q-197 1 -298 145
t-101 352z" />
    <glyph glyph-name="Ebreve" unicode="&#x114;" horiz-adv-x="1116" 
d="M567 1384q-107 0 -165 58t-58 164h45q10 -109 178 -109t178 109h46q0 -106 -59 -164t-165 -58zM225 1128q0 53 -29 75q-30 22 -110 36v41h889q4 -164 22 -303h-49q-26 133 -90 179t-252 46q-90 0 -192 -4v-500h139q211 0 250 15l-10 -105q-49 12 -240 13h-139v-459
q0 -50 42 -66t165 -16q223 0 282 42t90 179h41q-12 -139 -12 -301h-928v41l131 41v1046z" />
    <glyph glyph-name="ebreve" unicode="&#x115;" horiz-adv-x="921" 
d="M467 1055q-104 0 -163 63q-58 63 -58 170h45q12 -121 176 -121t176 121h45q0 -106 -58 -170q-59 -63 -163 -63zM469 856q-88 0 -142 -82t-65 -213h395q-2 141 -51 218t-137 77zM72 466q0 208 111 342q112 134 282 134t270 -106t101 -291q0 -37 -2 -58h-576
q0 -199 71 -304t197 -105q158 0 248 147l53 -47q-51 -92 -145 -150t-211 -59q-197 1 -298 145t-101 352z" />
    <glyph glyph-name="Edotaccent" unicode="&#x116;" horiz-adv-x="1116" 
d="M686 1528q0 -45 -32 -79t-76 -34t-78 34q-33 34 -33 79t33 76q33 30 78 30q44 0 76 -30t32 -76zM225 1128q0 53 -29 75q-30 22 -110 36v41h889q4 -164 22 -303h-49q-26 133 -90 179t-252 46q-90 0 -192 -4v-500h139q211 0 250 15l-10 -105q-49 12 -240 13h-139v-459
q0 -50 42 -66t165 -16q223 0 282 42t90 179h41q-12 -139 -12 -301h-928v41l131 41v1046z" />
    <glyph glyph-name="edotaccent" unicode="&#x117;" horiz-adv-x="921" 
d="M575 1176q1 -45 -31 -79t-77 -34t-78 34t-33 79q0 46 33 76t78 30t77 -30t31 -76zM469 856q-88 0 -142 -82t-65 -213h395q-2 141 -51 218t-137 77zM72 466q0 208 111 342q112 134 282 134t270 -106t101 -291q0 -37 -2 -58h-576q0 -199 71 -304t197 -105q158 0 248 147
l53 -47q-51 -92 -145 -150t-211 -59q-197 1 -298 145t-101 352z" />
    <glyph glyph-name="Eogonek" unicode="&#x118;" horiz-adv-x="1116" 
d="M849 -455q-95 -1 -157 51t-61 142q0 141 170 262h-707v41l131 41v1046q0 53 -29 75q-30 22 -110 36v41h889q4 -164 22 -303h-49q-27 133 -84 174q-74 53 -258 51q-45 2 -192 -4v-500h139q211 0 250 15l-10 -105q-49 12 -240 13h-139v-459q0 -50 43 -66t215 -16t229 41
q55 41 88 180h45q-12 -139 -12 -301h-135q-125 -119 -125 -256q0 -61 36 -95t90 -34t118 18l12 -49q-74 -39 -169 -39z" />
    <glyph glyph-name="eogonek" unicode="&#x119;" horiz-adv-x="921" 
d="M469 856q-89 0 -143 -82t-64 -213h395q-2 141 -51 218t-137 77zM543 -242q0 -76 35 -110t89 -33q54 0 117 18l13 -49q-74 -39 -169 -39q-96 -1 -156 51t-60 128t37 141q37 66 96 112q-41 -8 -74 -8q-197 1 -298 145t-101 352t111 342q112 134 282 134t270 -106t101 -291
q0 -37 -2 -58h-576q0 -199 71 -304t197 -105q160 0 248 145l53 -45q-27 -51 -75 -96q-117 -104 -163 -176t-46 -148z" />
    <glyph glyph-name="Ecaron" unicode="&#x11a;" horiz-adv-x="1116" 
d="M823 1620l23 -21l-193 -221h-92l-190 221l22 21l215 -127zM225 1128q0 53 -29 75q-30 22 -110 36v41h889q4 -164 22 -303h-49q-26 133 -90 179t-252 46q-90 0 -192 -4v-500h139q211 0 250 15l-10 -105q-49 12 -240 13h-139v-459q0 -50 42 -66t165 -16q223 0 282 42
t90 179h41q-12 -139 -12 -301h-928v41l131 41v1046z" />
    <glyph glyph-name="ecaron" unicode="&#x11b;" horiz-adv-x="921" 
d="M668 1309l28 -19l-182 -262h-92l-180 262l28 19l199 -162zM469 856q-88 0 -142 -82t-65 -213h395q-2 141 -51 218t-137 77zM72 466q0 208 111 342q112 134 282 134t270 -106t101 -291q0 -37 -2 -58h-576q0 -199 71 -304t197 -105q158 0 248 147l53 -47q-51 -92 -145 -150
t-211 -59q-197 1 -298 145t-101 352z" />
    <glyph glyph-name="Gcircumflex" unicode="&#x11c;" horiz-adv-x="1339" 
d="M932 1399l-23 -21l-215 127l-215 -127l-22 21l190 221h92zM1126 377v-305q-80 -41 -200 -72t-230 -31q-270 0 -430 156q-184 180 -184 522q0 289 183 476t468 188q114 1 220 -21t130 -24q4 -137 23 -330h-51q-35 285 -326 285q-184 0 -309 -153q-125 -154 -125 -436
t122 -427t304 -146q219 0 219 172v248l-137 43v41l231 -6l232 6v-41q-74 -14 -107 -44t-33 -101z" />
    <glyph glyph-name="gcircumflex" unicode="&#x11d;" horiz-adv-x="966" 
d="M707 1049l-29 -19l-199 162l-198 -162l-29 19l180 262h92zM476 860q-100 0 -147 -73q-46 -73 -46 -176t46 -175t146 -72t148 72q47 72 47 176q-2 104 -48 176t-146 72zM801 -177q0 83 -113 114q-55 14 -181 30t-171 29q-106 -61 -107 -191q0 -195 263 -194q141 1 225 65
t84 147zM934 821h-64q-55 0 -108 8q86 -89 86 -229t-106 -228t-267 -87q-111 0 -190 39q-17 -25 -17 -66t48 -68q48 -26 121 -32q169 -13 314 -53q73 -19 121 -75t48 -147q0 -174 -142 -269t-310 -95q-167 -1 -288 65t-121 191q1 87 59 153t144 99q-117 63 -117 176
q0 90 78 153q-119 90 -119 249t106 248t265 89q96 0 184 -39q147 8 275 31v-113z" />
    <glyph glyph-name="Gbreve" unicode="&#x11e;" horiz-adv-x="1339" 
d="M705 1384q-107 0 -165 58t-59 164h45q10 -109 178 -109t179 109h45q0 -106 -58 -164t-165 -58zM1126 377v-305q-80 -41 -200 -72t-230 -31q-270 0 -430 156q-184 180 -184 522q0 289 183 476t468 188q114 1 220 -21t130 -24q4 -137 23 -330h-51q-35 285 -326 285
q-184 0 -309 -153q-125 -154 -125 -436t122 -427t304 -146q219 0 219 172v248l-137 43v41l231 -6l232 6v-41q-74 -14 -107 -44t-33 -101z" />
    <glyph glyph-name="gbreve" unicode="&#x11f;" horiz-adv-x="966" 
d="M471 1055q-104 0 -163 63q-58 63 -58 170h45q12 -121 176 -121t176 121h45q0 -106 -58 -170q-59 -63 -163 -63zM476 860q-100 0 -147 -73q-46 -73 -46 -176t46 -175t146 -72t148 72q47 72 47 176q-2 104 -48 176t-146 72zM801 -177q0 83 -113 114q-55 14 -181 30t-171 29
q-106 -61 -107 -191q0 -195 263 -194q141 1 225 65t84 147zM934 821h-64q-55 0 -108 8q86 -89 86 -229t-106 -228t-267 -87q-111 0 -190 39q-17 -25 -17 -66t48 -68q48 -26 121 -32q169 -13 314 -53q73 -19 121 -75t48 -147q0 -174 -142 -269t-310 -95q-167 -1 -288 65
t-121 191q1 87 59 153t144 99q-117 63 -117 176q0 90 78 153q-119 90 -119 249t106 248t265 89q96 0 184 -39q147 8 275 31v-113z" />
    <glyph glyph-name="Gdotaccent" unicode="&#x120;" horiz-adv-x="1339" 
d="M829 1528q1 -45 -31 -79t-77 -34t-78 34t-33 79t33 76q33 30 78 30t77 -30q31 -31 31 -76zM1126 377v-305q-80 -41 -200 -72t-230 -31q-270 0 -430 156q-184 180 -184 522q0 289 183 476t468 188q114 1 220 -21t130 -24q4 -137 23 -330h-51q-35 285 -326 285
q-184 0 -309 -153q-125 -154 -125 -436t122 -427t304 -146q219 0 219 172v248l-137 43v41l231 -6l232 6v-41q-74 -14 -107 -44t-33 -101z" />
    <glyph glyph-name="gdotaccent" unicode="&#x121;" horiz-adv-x="966" 
d="M592 1176q0 -45 -32 -79t-77 -34t-77 34t-33 79q0 46 33 76q34 30 78 30t76 -30t32 -76zM476 860q-100 0 -147 -73q-46 -73 -46 -176t46 -175t146 -72t148 72q47 72 47 176q-2 104 -48 176t-146 72zM801 -177q0 83 -113 114q-55 14 -181 30t-171 29q-106 -61 -107 -191
q0 -195 263 -194q141 1 225 65t84 147zM934 821h-64q-55 0 -108 8q86 -89 86 -229t-106 -228t-267 -87q-111 0 -190 39q-17 -25 -17 -66t48 -68q48 -26 121 -32q169 -13 314 -53q73 -19 121 -75t48 -147q0 -174 -142 -269t-310 -95q-167 -1 -288 65t-121 191q1 87 59 153
t144 99q-117 63 -117 176q0 90 78 153q-119 90 -119 249t106 248t265 89q96 0 184 -39q147 8 275 31v-113z" />
    <glyph glyph-name="Gcommaaccent" unicode="&#x122;" horiz-adv-x="1339" 
d="M807 -246q0 -193 -156 -272l-18 29q84 53 84 149q0 43 -27 69q-28 26 -54 45t-26 50t24 51q24 21 68 21t74 -44q31 -44 31 -98zM1126 377v-305q-80 -41 -200 -72t-230 -31q-270 0 -430 156q-184 180 -184 522q0 289 183 476t468 188q114 1 220 -21t130 -24
q4 -137 23 -330h-51q-35 285 -326 285q-184 0 -309 -153q-125 -154 -125 -436t122 -427t304 -146q219 0 219 172v248l-137 43v41l231 -6l232 6v-41q-74 -14 -107 -44t-33 -101z" />
    <glyph glyph-name="gcommaaccent" unicode="&#x123;" horiz-adv-x="966" 
d="M365 1157q0 193 155 273l19 -29q-84 -53 -84 -150q1 -43 27 -69t53 -44t27 -50t-24 -52t-68 -20t-75 44q-30 44 -30 97zM476 860q-100 0 -147 -73q-46 -73 -46 -176t46 -175t146 -72t148 72q47 72 47 176q-2 104 -48 176t-146 72zM801 -177q0 83 -113 114q-55 14 -181 30
t-171 29q-106 -61 -107 -191q0 -195 263 -194q141 1 225 65t84 147zM934 821h-64q-55 0 -108 8q86 -89 86 -229t-106 -228t-267 -87q-111 0 -190 39q-17 -25 -17 -66t48 -68q48 -26 121 -32q169 -13 314 -53q73 -19 121 -75t48 -147q0 -174 -142 -269t-310 -95
q-167 -1 -288 65t-121 191q1 87 59 153t144 99q-117 63 -117 176q0 90 78 153q-119 90 -119 249t106 248t265 89q96 0 184 -39q147 8 275 31v-113z" />
    <glyph glyph-name="Hcircumflex" unicode="&#x124;" horiz-adv-x="1445" 
d="M961 1399l-23 -21l-215 127l-215 -127l-23 21l191 221h92zM1223 156q0 -76 57 -95q33 -10 80 -20v-41l-217 6l-240 -6v41l131 41v530h-620v-456q0 -76 57 -95q33 -10 80 -20v-41l-223 6l-234 -6v41l131 41v1038q0 78 -54 96t-85 23v41l219 -6l234 6v-41l-125 -43v-496
h620v420q0 78 -54 96t-85 23v41l219 -6l234 6v-41l-125 -43v-1040z" />
    <glyph glyph-name="hcircumflex" unicode="&#x125;" horiz-adv-x="1116" 
d="M475 1419l-22 -20l-215 127l-215 -127l-23 20l190 221h93zM905 6q-51 0 -254 -6v37l117 41v495q0 152 -42 202t-118 50q-139 0 -254 -137v-536q0 -74 54 -95q23 -8 65 -20v-37q-109 6 -160 6t-254 -6v37l117 41v1128q0 74 -55 97q-23 10 -64 22v37q217 0 297 10v-584
q136 154 298 154t239 -106q55 -76 55 -258v-426q0 -74 53 -95q23 -8 66 -20v-37q-109 6 -160 6z" />
    <glyph glyph-name="Hbar" unicode="&#x126;" horiz-adv-x="1445" 
d="M414 700h620v226h-620v-226zM1223 1010h168v-84h-168v-770q0 -76 57 -95q33 -10 80 -20v-41l-217 6l-240 -6v41l131 41v530h-620v-456q0 -76 57 -95q33 -10 80 -20v-41l-223 6l-234 -6v41l131 41v844h-168v84h168v110q0 78 -57 97l-82 22v41l219 -6l234 6v-41l-125 -43
v-186h620v110q0 78 -57 97l-82 22v41l219 -6l234 6v-41l-125 -43v-186z" />
    <glyph glyph-name="hbar" unicode="&#x127;" horiz-adv-x="1116" 
d="M768 573q0 152 -42 202t-118 50q-139 0 -254 -137v-536q0 -74 54 -95q23 -8 65 -20v-37q-109 6 -160 6t-254 -6v37l117 41v1009h-149v72h149v47q0 74 -55 97q-23 10 -64 22v37q217 0 297 10v-213h293v-72h-293v-299q136 154 298 154t239 -106q55 -76 55 -258v-426
q0 -74 53 -95q23 -8 66 -20v-37q-109 6 -160 6t-254 -6v37l117 41v495z" />
    <glyph glyph-name="Itilde" unicode="&#x128;" horiz-adv-x="649" 
d="M434 1427q-41 0 -125 34t-121 34q-59 0 -82 -63l-38 4q18 180 147 180q41 0 125 -34t121 -34q59 0 82 64l39 -4q-19 -181 -148 -181zM420 156q0 -76 57 -95q33 -10 80 -20v-41l-223 6l-234 -6v41l131 41v1038q0 78 -54 96t-85 23v41l219 -6l234 6v-41l-125 -43v-1040z
" />
    <glyph glyph-name="itilde" unicode="&#x129;" 
d="M350 1083q-41 0 -125 38t-121 38q-59 0 -81 -76l-39 4q18 193 147 193q41 0 125 -38t121 -38q59 0 82 76l39 -4q-19 -193 -148 -193zM325 6q-52 0 -255 -6v37l116 41v676q0 74 -55 96q-23 10 -63 22v37q217 0 297 11v-768q0 -74 53 -95q23 -8 65 -20v-37q-106 6 -158 6z
" />
    <glyph glyph-name="Imacron" unicode="&#x12a;" horiz-adv-x="649" 
d="M555 1434h-461v94h461v-94zM420 156q0 -76 57 -95q33 -10 80 -20v-41l-223 6l-234 -6v41l131 41v1038q0 78 -54 96t-85 23v41l219 -6l234 6v-41l-125 -43v-1040z" />
    <glyph glyph-name="imacron" unicode="&#x12b;" 
d="M463 1090h-461v94h461v-94zM325 6q-52 0 -255 -6v37l116 41v676q0 74 -55 96q-23 10 -63 22v37q217 0 297 11v-768q0 -74 53 -95q23 -8 65 -20v-37q-106 6 -158 6z" />
    <glyph glyph-name="Ibreve" unicode="&#x12c;" horiz-adv-x="649" 
d="M324 1384q-106 0 -164 58t-60 164h45q11 -109 179 -109t178 109h45q-1 -106 -59 -164t-164 -58zM420 156q0 -76 57 -95q33 -10 80 -20v-41l-223 6l-234 -6v41l131 41v1038q0 78 -54 96t-85 23v41l219 -6l234 6v-41l-125 -43v-1040z" />
    <glyph glyph-name="ibreve" unicode="&#x12d;" 
d="M248 1055q-104 0 -163 63q-58 63 -58 170h45q12 -121 176 -121t176 121h45q0 -106 -58 -170q-59 -63 -163 -63zM325 6q-52 0 -255 -6v37l116 41v676q0 74 -55 96q-23 10 -63 22v37q217 0 297 11v-768q0 -74 53 -95q23 -8 65 -20v-37q-106 6 -158 6z" />
    <glyph glyph-name="Iogonek" unicode="&#x12e;" horiz-adv-x="649" 
d="M268 -256q0 -61 36 -95t90 -34t118 18l12 -49q-74 -39 -169 -39q-95 -1 -156 51t-62 142q0 147 162 268q-197 -6 -199 -6v41l131 41v1038q0 78 -57 97l-82 22v41l219 -6l234 6v-41l-125 -43v-1040q0 -76 57 -95q33 -10 80 -20v-41l-178 6q-111 -115 -111 -262z" />
    <glyph glyph-name="iogonek" unicode="&#x12f;" 
d="M262 1077q-43 0 -74 31t-30 74q0 44 30 74t74 30q43 0 74 -31t31 -73t-31 -74q-31 -31 -74 -31zM207 -256q0 -61 36 -95t90 -34t118 18l12 -49q-74 -39 -169 -39q-94 -1 -156 51t-62 131t45 153t117 126l-168 -6v37l116 41v676q0 74 -55 96q-23 10 -63 22v37
q217 0 297 11v-768q0 -74 53 -95q23 -8 65 -20v-37l-170 6q-106 -117 -106 -262z" />
    <glyph glyph-name="Idotaccent" unicode="&#x130;" horiz-adv-x="649" 
d="M434 1528q0 -45 -32 -79t-76 -34t-78 34q-33 34 -33 79t33 76q33 30 78 30q44 0 76 -30t32 -76zM420 156q0 -76 57 -95q33 -10 80 -20v-41l-223 6l-234 -6v41l131 41v1038q0 78 -54 96t-85 23v41l219 -6l234 6v-41l-125 -43v-1040z" />
    <glyph glyph-name="dotlessi" unicode="&#x131;" 
d="M325 6q-52 0 -255 -6v37l116 41v676q0 74 -55 96q-23 10 -63 22v37q217 0 297 11v-768q0 -74 53 -95q23 -8 65 -20v-37q-106 6 -158 6z" />
    <glyph glyph-name="IJ" unicode="&#x132;" horiz-adv-x="1282" 
d="M1061 174q0 -117 -14 -204q-13 -87 -53 -176q-80 -180 -324 -238l-21 59q127 53 175 178t48 371v956q0 71 -39 89t-100 30v41l219 -6l234 6v-41l-125 -43v-1022zM420 156q0 -76 57 -95q33 -10 80 -20v-41l-223 6l-234 -6v41l131 41v1038q0 78 -54 96t-85 23v41l219 -6
l234 6v-41l-125 -43v-1040z" />
    <glyph glyph-name="ij" unicode="&#x133;" horiz-adv-x="1044" 
d="M780 1077q-44 0 -74 31t-30 74q0 44 31 74t73 30t74 -31q31 -31 31 -73t-31 -74q-31 -31 -74 -31zM883 -88q-1 -160 -101 -263t-237 -130l-17 59q176 63 177 350v826q0 74 -56 96q-23 10 -63 22v37q217 1 297 11v-1008zM325 6q-52 0 -255 -6v37l116 41v676q0 74 -55 96
q-23 10 -63 22v37q217 0 297 11v-768q0 -74 53 -95q23 -8 65 -20v-37q-106 6 -158 6zM262 1077q-43 0 -74 31t-30 74q0 44 30 74t74 30q43 0 74 -31t31 -73t-31 -74q-31 -31 -74 -31z" />
    <glyph glyph-name="Jcircumflex" unicode="&#x134;" horiz-adv-x="632" 
d="M553 1399l-23 -21l-215 127l-215 -127l-22 21l190 221h92zM412 174q0 -390 -188 -529q-81 -60 -204 -89l-20 59q127 53 175 178t48 371v956q0 71 -39 89t-100 30v41l219 -6l234 6v-41l-125 -43v-1022z" />
    <glyph glyph-name="jcircumflex" unicode="&#x135;" horiz-adv-x="514" 
d="M459 1049l-29 -19l-199 162l-198 -162l-29 19l180 262h92zM352 -88q0 -160 -100 -263t-238 -130l-16 59q176 63 176 350v826q0 74 -55 96q-23 10 -64 22v37q217 1 297 11v-1008z" />
    <glyph glyph-name="Kcommaaccent" unicode="&#x136;" horiz-adv-x="1212" 
d="M760 -246q0 -193 -156 -272l-18 29q84 53 84 149q0 43 -27 69t-53 45t-27 50q0 31 24 51q23 21 67 21t75 -44t31 -98zM1192 0h-346q0 63 -49 143l-291 473l-92 -114v-346q0 -80 57 -95l80 -20v-41l-227 6l-230 -6v41l131 41v1038q0 80 -57 99q-27 8 -82 20v41l229 -6
l224 6v-41l-125 -43v-559l471 571l-125 31v41l215 -8q49 0 196 8v-41q-104 -14 -155 -43t-109 -98l-278 -334l325 -522q68 -111 113 -149t125 -52v-41z" />
    <glyph glyph-name="kcommaaccent" unicode="&#x137;" horiz-adv-x="1005" 
d="M598 -246q0 -193 -156 -272l-18 29q84 53 84 149q0 43 -27 69t-53 45t-27 50q0 31 24 51q23 21 67 21t75 -44t31 -98zM787 905q103 0 161 4v-37q-104 -10 -192 -81l-205 -166l266 -443q35 -57 66 -87t80 -44l51 -14v-37h-193q-55 0 -85 17t-60 67l-256 432l-66 -53v-311
q0 -74 54 -95q23 -8 65 -20v-37q-109 6 -160 6t-254 -6v37l117 41v1130q0 74 -55 97q-6 2 -66 20v37q236 0 299 8v-815l359 293l-84 24v37q55 -4 158 -4z" />
    <glyph glyph-name="kgreenlandic" unicode="&#x138;" horiz-adv-x="1052" 
d="M810 905q74 0 132 4h27v-37q-109 -10 -183 -84l-194 -190l235 -416q37 -66 69 -94t81 -43l35 -8v-37h-191q-53 0 -81 18t-54 66l-219 391l-105 -100v-223q0 -74 54 -95q23 -8 65 -20v-37q-109 6 -159 6t-254 -6v37l116 41v678q0 74 -55 96q-6 2 -66 20v37q236 1 299 9
v-445l381 375l-94 24v37h29q58 -4 132 -4z" />
    <glyph glyph-name="Lacute" unicode="&#x139;" horiz-adv-x="1054" 
d="M518 1536v-20l-397 -162l-12 24l276 221q36 33 68 3zM414 162q0 -50 43 -66t175 -16t183 7t78 32q49 43 82 182h41q-14 -172 -15 -301h-907v41l131 41v1038q0 78 -54 96t-85 23v41l219 -6l234 6v-41l-125 -43v-1034z" />
    <glyph glyph-name="lacute" unicode="&#x13a;" horiz-adv-x="528" 
d="M338 1663q14 0 31 -16l65 -66v-20l-397 -162l-12 24l276 222q23 18 37 18zM313 6q-51 0 -254 -6v37l117 41v1130q0 74 -48 94q-22 10 -71 23v37q233 0 297 8v-1218q0 -74 54 -95q23 -8 65 -20v-37q-109 6 -160 6z" />
    <glyph glyph-name="Lcommaaccent" unicode="&#x13b;" horiz-adv-x="1054" 
d="M723 -246q0 -193 -156 -272l-18 29q84 53 84 149q0 43 -27 69q-28 26 -54 45t-26 50t24 51q24 21 68 21t74 -44q31 -44 31 -98zM414 162q0 -50 43 -66t175 -16t183 7t78 32q49 43 82 182h41q-14 -172 -15 -301h-907v41l131 41v1038q0 78 -54 96t-85 23v41l219 -6l234 6
v-41l-125 -43v-1034z" />
    <glyph glyph-name="lcommaaccent" unicode="&#x13c;" horiz-adv-x="528" 
d="M362 -246q0 -193 -155 -272l-19 29q84 53 84 149q0 43 -26 69t-54 45q-26 19 -26 50t23 51q24 21 68 21t75 -44q30 -45 30 -98zM313 6q-51 0 -254 -6v37l117 41v1130q0 74 -48 94q-22 10 -71 23v37q233 0 297 8v-1218q0 -74 54 -95q23 -8 65 -20v-37q-109 6 -160 6z" />
    <glyph glyph-name="Lcaron" unicode="&#x13d;" horiz-adv-x="1054" 
d="M819 1194q0 -193 -155 -272l-19 28q84 53 84 150q0 42 -27 68q-28 26 -54 45t-26 51t24 51q24 20 68 20t74 -44t31 -97zM414 162q0 -50 43 -66t175 -16t183 7t78 32q49 43 82 182h41q-14 -172 -15 -301h-907v41l131 41v1038q0 78 -54 96t-85 23v41l219 -6l234 6v-41
l-125 -43v-1034z" />
    <glyph glyph-name="lcaron" unicode="&#x13e;" horiz-adv-x="528" 
d="M645 1169q0 -193 -156 -272l-18 29q84 53 84 149q0 43 -27 69q-28 26 -54 45t-25 50q0 31 23 51q24 20 68 20t74 -44q31 -44 31 -97zM313 6q-51 0 -254 -6v37l117 41v1130q0 74 -48 94q-22 10 -71 23v37q233 0 297 8v-1218q0 -74 54 -95q23 -8 65 -20v-37q-109 6 -160 6z
" />
    <glyph glyph-name="Ldot" unicode="&#x13f;" horiz-adv-x="1054" 
d="M946 639q0 -45 -32 -79t-76 -34t-78 34q-33 34 -33 79t33 76t78 31q44 0 76 -32q32 -30 32 -75zM414 162q0 -50 43 -66t175 -16t183 7t78 32q49 43 82 182h41q-14 -172 -15 -301h-907v41l131 41v1038q0 78 -54 96t-85 23v41l219 -6l234 6v-41l-125 -43v-1034z" />
    <glyph glyph-name="ldot" unicode="&#x140;" horiz-adv-x="708" 
d="M713 684q0 -45 -32 -79t-77 -34t-78 34t-32 79q0 45 32 76q33 31 78 31t77 -31t32 -76zM313 6q-51 0 -254 -6v37l117 41v1130q0 74 -48 94q-22 10 -71 23v37q233 0 297 8v-1218q0 -74 54 -95q23 -8 65 -20v-37q-109 6 -160 6z" />
    <glyph glyph-name="Lslash" unicode="&#x141;" horiz-adv-x="1054" 
d="M414 162q0 -50 43 -66t175 -16t183 7t78 32q45 39 78 182h45q-14 -172 -15 -301h-907v41l131 41v418l-114 -74l-48 74l162 104v516q0 78 -57 97l-82 22v41l219 -6l234 6v-41l-125 -43v-471l278 182l47 -73l-325 -211v-461z" />
    <glyph glyph-name="lslash" unicode="&#x142;" horiz-adv-x="536" 
d="M358 152q0 -74 54 -95q23 -8 65 -20v-37q-109 6 -160 6t-254 -6v37l117 41v508l-151 -99l-47 66l198 127v528q0 74 -48 94q-22 10 -71 23v37q233 0 297 8v-573l156 100l47 -66l-203 -131v-548z" />
    <glyph glyph-name="Nacute" unicode="&#x143;" horiz-adv-x="1439" 
d="M918 1536v-20l-398 -162l-12 24l276 221q23 19 37 19t31 -16zM1231 -8h-88l-809 1038v-874q0 -45 18 -70t119 -45v-41l-184 6l-197 -6v41l135 41v1040q0 74 -63 95q-39 12 -82 22v41h293l751 -965v811q0 45 -16 68t-123 45v41l189 -6l184 6v-41l-127 -43v-1204z" />
    <glyph glyph-name="nacute" unicode="&#x144;" horiz-adv-x="1124" 
d="M650 1296q14 0 30 -14l70 -70v-20l-361 -186l-18 22l245 248q20 20 34 20zM914 6q-52 0 -255 -6v37l117 41v495q0 152 -42 202t-118 50q-139 0 -254 -137v-536q0 -74 54 -95q23 -8 65 -20v-37q-109 6 -159 6t-254 -6v37l116 41v676q0 74 -55 96q-23 10 -63 22v37
q217 0 296 11v-132q136 154 298 154t239 -106q55 -76 55 -258v-426q0 -74 54 -95q23 -8 65 -20v-37q-107 6 -159 6z" />
    <glyph glyph-name="Ncommaaccent" unicode="&#x145;" horiz-adv-x="1439" 
d="M817 -246q0 -193 -155 -272l-19 29q84 53 84 149q0 43 -27 69q-28 26 -54 45t-25 50q0 31 23 51q24 21 68 21t74 -44t31 -98zM1231 -8h-88l-809 1038v-874q0 -45 18 -70t119 -45v-41l-184 6l-197 -6v41l135 41v1040q0 74 -63 95q-39 12 -82 22v41h293l751 -965v811
q0 45 -16 68t-123 45v41l189 -6l184 6v-41l-127 -43v-1204z" />
    <glyph glyph-name="ncommaaccent" unicode="&#x146;" horiz-adv-x="1124" 
d="M670 -246q0 -193 -156 -272l-18 29q84 53 84 149q0 43 -27 69t-53 45t-27 50q0 31 24 51q23 21 67 21t75 -44t31 -98zM914 6q-52 0 -255 -6v37l117 41v495q0 152 -42 202t-118 50q-139 0 -254 -137v-536q0 -74 54 -95q23 -8 65 -20v-37q-109 6 -159 6t-254 -6v37l116 41
v676q0 74 -55 96q-23 10 -63 22v37q217 0 296 11v-132q136 154 298 154t239 -106q55 -76 55 -258v-426q0 -74 54 -95q23 -8 65 -20v-37q-107 6 -159 6z" />
    <glyph glyph-name="Ncaron" unicode="&#x147;" horiz-adv-x="1439" 
d="M934 1620l22 -21l-192 -221h-92l-191 221l23 21l215 -127zM1231 -8h-88l-809 1038v-874q0 -45 18 -70t119 -45v-41l-184 6l-197 -6v41l135 41v1040q0 74 -63 95q-39 12 -82 22v41h293l751 -965v811q0 45 -16 68t-123 45v41l189 -6l184 6v-41l-127 -43v-1204z" />
    <glyph glyph-name="ncaron" unicode="&#x148;" horiz-adv-x="1124" 
d="M766 1309l29 -19l-183 -262h-92l-180 262l29 19l198 -162zM914 6q-52 0 -255 -6v37l117 41v495q0 152 -42 202t-118 50q-139 0 -254 -137v-536q0 -74 54 -95q23 -8 65 -20v-37q-109 6 -159 6t-254 -6v37l116 41v676q0 74 -55 96q-23 10 -63 22v37q217 0 296 11v-132
q136 154 298 154t239 -106q55 -76 55 -258v-426q0 -74 54 -95q23 -8 65 -20v-37q-107 6 -159 6z" />
    <glyph glyph-name="napostrophe" unicode="&#x149;" horiz-adv-x="1286" 
d="M188 1159q0 -205 -174 -305l-24 37q102 76 102 164q0 37 -18 63t-42 39q-59 30 -60 69q-1 40 25 62q27 22 73 23q46 0 82 -43t36 -109zM1075 6q-51 0 -254 -6v37l117 41v495q0 152 -41 202t-119 50q-139 0 -254 -137v-536q0 -74 54 -95q23 -8 65 -20v-37q-107 6 -159 6
t-255 -6v37l117 41v676q0 74 -55 96q-23 10 -64 22v37q217 0 297 11v-132q136 154 298 154t239 -106q55 -76 55 -258v-426q0 -74 53 -95q23 -8 66 -20v-37q-109 6 -160 6z" />
    <glyph glyph-name="Eng" unicode="&#x14a;" horiz-adv-x="1439" 
d="M1231 14q0 -360 -250 -360q-80 0 -158 39q-16 8 -14 31l16 122l17 7q88 -41 151 -41q131 0 131 198l-790 1018v-872q0 -45 18 -70t119 -45v-41l-184 6l-197 -6v41l135 41v1040q0 74 -63 95q-39 12 -82 22v41h293l751 -963v809q0 45 -16 68t-123 45v41l189 -6l184 6v-41
l-127 -43v-1182z" />
    <glyph glyph-name="eng" unicode="&#x14b;" horiz-adv-x="1124" 
d="M776 -104v677q0 152 -42 202t-118 50q-139 0 -254 -137v-536q0 -74 54 -95q23 -8 65 -20v-37q-109 6 -159 6t-254 -6v37l116 41v676q0 74 -55 96q-23 10 -63 22v37q217 0 296 11v-132q136 154 298 154t239 -106q55 -76 55 -258v-596q0 -166 -78 -254t-201 -88
q-124 0 -208 49q-16 10 -12 28l30 150l17 2q92 -147 183 -147t91 174z" />
    <glyph glyph-name="Omacron" unicode="&#x14c;" horiz-adv-x="1282" 
d="M870 1434h-460v94h460v-94zM987 641q0 195 -66 369q-36 94 -108 152t-170 58t-171 -58q-72 -58 -108 -152q-68 -181 -69 -372q0 -191 66 -367q36 -95 108 -153t170 -58t171 58q120 97 161 339q16 92 16 184zM1200 641q0 -279 -146 -475t-414 -197q-268 0 -414 197
q-144 198 -144 476t146 474t414 195q268 1 414 -195q144 -196 144 -475z" />
    <glyph glyph-name="omacron" unicode="&#x14d;" horiz-adv-x="1024" 
d="M741 1090h-460v94h460v-94zM764 455q0 71 -11 135t-37 127t-78 101t-135 38t-143 -69q-98 -111 -100 -319q-1 -154 48 -273q26 -63 78 -101t124 -39q193 0 242 266q12 64 12 134zM952 453q0 -211 -118 -348q-119 -136 -324 -136t-322 136q-116 135 -116 347t118 351
q119 139 324 139q206 0 322 -139t116 -350z" />
    <glyph glyph-name="Obreve" unicode="&#x14e;" horiz-adv-x="1282" 
d="M641 1384q-107 0 -165 58t-58 164h45q10 -109 178 -109t178 109h45q0 -106 -58 -164t-165 -58zM987 641q0 195 -66 369q-36 94 -108 152t-170 58t-171 -58q-72 -58 -108 -152q-68 -181 -69 -372q0 -191 66 -367q36 -95 108 -153t170 -58t171 58q120 97 161 339
q16 92 16 184zM1200 641q0 -279 -146 -475t-414 -197q-268 0 -414 197q-144 198 -144 476t146 474t414 195q268 1 414 -195q144 -196 144 -475z" />
    <glyph glyph-name="obreve" unicode="&#x14f;" horiz-adv-x="1024" 
d="M512 1055q-104 0 -163 63q-58 63 -58 170h45q12 -121 176 -121t176 121h45q0 -106 -58 -170q-59 -63 -163 -63zM764 455q0 71 -11 135t-37 127t-78 101t-135 38t-143 -69q-98 -111 -100 -319q-1 -154 48 -273q26 -63 78 -101t124 -39q193 0 242 266q12 64 12 134z
M952 453q0 -211 -118 -348q-119 -136 -324 -136t-322 136q-116 135 -116 347t118 351q119 139 324 139q206 0 322 -139t116 -350z" />
    <glyph glyph-name="Ohungarumlaut" unicode="&#x150;" horiz-adv-x="1282" 
d="M967 1536v-20l-322 -154l-14 20l203 217q20 21 34 21t33 -18zM651 1536v-20l-321 -154l-15 20l203 217q20 21 34 21t34 -18zM987 641q0 195 -66 369q-36 94 -108 152t-170 58t-171 -58q-72 -58 -108 -152q-68 -181 -69 -372q0 -191 66 -367q36 -95 108 -153t170 -58
t171 58q120 97 161 339q16 92 16 184zM1200 641q0 -279 -146 -475t-414 -197q-268 0 -414 197q-144 198 -144 476t146 474t414 195q268 1 414 -195q144 -196 144 -475z" />
    <glyph glyph-name="ohungarumlaut" unicode="&#x151;" horiz-adv-x="1024" 
d="M522 1239v-18l-276 -199l-21 20l178 250q28 40 62 6zM797 1239v-18l-277 -199l-20 20l178 250q29 41 61 6zM764 455q0 71 -11 135t-37 127t-78 101t-135 38t-143 -69q-98 -111 -100 -319q-1 -154 48 -273q26 -63 78 -101t124 -39q193 0 242 266q12 64 12 134zM952 453
q0 -211 -118 -348q-119 -136 -324 -136t-322 136q-116 135 -116 347t118 351q119 139 324 139q206 0 322 -139t116 -350z" />
    <glyph glyph-name="OE" unicode="&#x152;" horiz-adv-x="1792" 
d="M901 240v800q0 109 -51 146t-170 37q-213 0 -311 -199q-78 -156 -78 -384t78 -384q98 -199 311 -199q119 0 170 37t51 146zM1696 0h-547q-104 0 -255 -15t-222 -16q-270 1 -432 189t-162 483t162 482t432 188q72 1 222 -15t255 -16h502q8 -154 35 -303h-54
q-36 131 -106 182t-250 45q-111 -2 -186 -4v-502h139q211 0 250 15l-11 -103q-49 12 -239 13h-139v-463q0 -50 43 -66t215 -16t229 41q55 41 88 182h45q-14 -143 -14 -301z" />
    <glyph glyph-name="oe" unicode="&#x153;" horiz-adv-x="1609" 
d="M764 453q0 71 -11 135t-37 127t-78 101t-135 38t-143 -69t-80 -153q-55 -240 28 -439q26 -63 78 -101t124 -39q72 0 124 38t79 100t39 127t12 135zM1154 856q-87 0 -138 -81t-62 -214h383q-2 141 -49 218t-134 77zM517 -31q-212 0 -329 136q-116 135 -116 347t118 351
q119 139 331 139t331 -160q111 160 311 160q171 0 269 -123t81 -332h-561q0 -139 48 -264q26 -65 81 -105t133 -40q160 0 248 145l54 -45q-52 -92 -146 -150t-211 -59q-199 0 -307 160q-123 -160 -335 -160z" />
    <glyph glyph-name="Racute" unicode="&#x154;" horiz-adv-x="1234" 
d="M807 1536v-20l-397 -162l-13 24l277 221q23 19 37 19t30 -16zM457 635q180 0 264 79t84 209q0 129 -66 201t-247 72h-78v-561h43zM225 1120q0 42 -12 59t-16 23q-3 6 -23 13t-26 9t-32 8q-26 5 -30 7v41h418q291 0 411 -104q100 -84 101 -242q0 -111 -69 -195t-206 -123
q63 -14 99 -47t67 -106l111 -246q41 -92 85 -127t124 -49v-41h-346q0 51 -45 154l-111 245q-47 104 -82 131t-133 27h-96v-401q0 -57 25 -77q26 -19 112 -38v-41l-223 6l-234 -6v41l131 41v1038z" />
    <glyph glyph-name="racute" unicode="&#x155;" horiz-adv-x="729" 
d="M524 1296q14 0 29 -14l70 -70v-20l-361 -186l-18 22l245 248q21 20 35 20zM184 754q0 54 -20 76t-98 42v37q215 0 296 11v-125q109 147 222 147q51 0 91 -26t40 -62q0 -37 -27 -69q-28 -31 -52 -31t-58 30t-62 31q-80 0 -154 -113v-550q0 -52 25 -72t109 -43v-37l-217 6
l-209 -6v37l114 41v676z" />
    <glyph glyph-name="Rcommaaccent" unicode="&#x156;" horiz-adv-x="1234" 
d="M772 -246q0 -193 -156 -272l-18 29q84 53 84 149q0 43 -27 69t-53 45t-27 50q0 31 24 51q23 21 67 21t75 -44t31 -98zM457 635q180 0 264 79t84 209q0 129 -66 201t-247 72h-78v-561h43zM225 1120q0 42 -12 59t-16 23q-3 6 -23 13t-26 9t-32 8q-26 5 -30 7v41h418
q291 0 411 -104q100 -84 101 -242q0 -111 -69 -195t-206 -123q63 -14 99 -47t67 -106l111 -246q41 -92 85 -127t124 -49v-41h-346q0 51 -45 154l-111 245q-47 104 -82 131t-133 27h-96v-401q0 -57 25 -77q26 -19 112 -38v-41l-223 6l-234 -6v41l131 41v1038z" />
    <glyph glyph-name="rcommaaccent" unicode="&#x157;" horiz-adv-x="729" 
d="M383 -246q0 -193 -156 -272l-18 29q84 53 84 149q0 43 -27 69q-28 26 -54 45t-26 50t24 51q24 21 68 21t74 -44q31 -44 31 -98zM184 754q0 54 -20 76t-98 42v37q215 0 296 11v-125q109 147 222 147q51 0 91 -26t40 -62q0 -37 -27 -69q-28 -31 -52 -31t-58 30t-62 31
q-80 0 -154 -113v-550q0 -52 25 -72t109 -43v-37l-217 6l-209 -6v37l114 41v676z" />
    <glyph glyph-name="Rcaron" unicode="&#x158;" horiz-adv-x="1234" 
d="M799 1620l22 -21l-192 -221h-92l-191 221l23 21l215 -127zM457 635q180 0 264 79t84 209q0 129 -66 201t-247 72h-78v-561h43zM225 1120q0 42 -12 59t-16 23q-3 6 -23 13t-26 9t-32 8q-26 5 -30 7v41h418q291 0 411 -104q100 -84 101 -242q0 -111 -69 -195t-206 -123
q63 -14 99 -47t67 -106l111 -246q41 -92 85 -127t124 -49v-41h-346q0 51 -45 154l-111 245q-47 104 -82 131t-133 27h-96v-401q0 -57 25 -77q26 -19 112 -38v-41l-223 6l-234 -6v41l131 41v1038z" />
    <glyph glyph-name="rcaron" unicode="&#x159;" horiz-adv-x="729" 
d="M647 1309l29 -19l-182 -262h-93l-180 262l29 19l199 -162zM184 754q0 54 -20 76t-98 42v37q215 0 296 11v-125q109 147 222 147q51 0 91 -26t40 -62q0 -37 -27 -69q-28 -31 -52 -31t-58 30t-62 31q-80 0 -154 -113v-550q0 -52 25 -72t109 -43v-37l-217 6l-209 -6v37
l114 41v676z" />
    <glyph glyph-name="Sacute" unicode="&#x15a;" horiz-adv-x="1032" 
d="M735 1536v-20l-397 -162l-12 24l276 221q36 33 68 3zM143 328h47q14 -127 88 -201t190 -74t184 70t67 167q1 98 -59 160t-145 107t-171 94t-145 132t-59 212t115 223q116 94 292 93q57 1 163 -13t132 -16q0 -135 18 -305h-51q-14 117 -82 183t-168 65q-100 1 -169 -57
q-68 -58 -68 -146t60 -148t146 -106q86 -45 171 -95t145 -137t61 -204q-1 -152 -115 -257t-304 -105t-343 53v305z" />
    <glyph glyph-name="sacute" unicode="&#x15b;" horiz-adv-x="819" 
d="M508 1296q14 0 29 -14l69 -70v-20l-360 -186l-19 22l246 248q21 20 35 20zM721 258q0 -135 -97 -212q-98 -77 -242 -77t-269 54v237h41q12 -90 75 -151t151 -61t135 36q48 36 48 104t-47 114t-114 76q-68 30 -134 62t-112 92q-46 59 -47 144q0 122 97 194t224 72
q53 0 143 -16l89 -15q0 -133 10 -245h-41q-35 201 -199 200q-78 0 -121 -36t-43 -94t47 -99t114 -72t133 -65t112 -96q47 -62 47 -146z" />
    <glyph glyph-name="Scircumflex" unicode="&#x15c;" horiz-adv-x="1032" 
d="M772 1399l-22 -21l-215 127l-216 -127l-22 21l190 221h93zM143 328h47q14 -127 88 -201t190 -74t184 70t67 167q1 98 -59 160t-145 107t-171 94t-145 132t-59 212t115 223q116 94 292 93q57 1 163 -13t132 -16q0 -135 18 -305h-51q-14 117 -82 183t-168 65
q-100 1 -169 -57q-68 -58 -68 -146t60 -148t146 -106q86 -45 171 -95t145 -137t61 -204q-1 -152 -115 -257t-304 -105t-343 53v305z" />
    <glyph glyph-name="scircumflex" unicode="&#x15d;" horiz-adv-x="819" 
d="M643 1049l-29 -19l-198 162l-199 -162l-29 19l181 262h92zM721 258q0 -135 -97 -212q-98 -77 -242 -77t-269 54v237h41q12 -90 75 -151t151 -61t135 36q48 36 48 104t-47 114t-114 76q-68 30 -134 62t-112 92q-46 59 -47 144q0 122 97 194t224 72q53 0 143 -16l89 -15
q0 -133 10 -245h-41q-35 201 -199 200q-78 0 -121 -36t-43 -94t47 -99t114 -72t133 -65t112 -96q47 -62 47 -146z" />
    <glyph glyph-name="Scedilla" unicode="&#x15e;" horiz-adv-x="1032" 
d="M143 328h47q14 -127 88 -201t190 -74t184 70t67 167q1 98 -59 160t-145 107t-171 94t-145 132t-59 212t115 223q116 94 292 93q57 1 163 -13t132 -16q0 -135 18 -305h-51q-14 117 -82 183t-168 65q-100 1 -169 -57q-68 -58 -68 -146t60 -148t146 -106q86 -45 171 -95
t145 -137t61 -216q0 -130 -100 -232t-270 -117l-23 -71q82 -14 133 -60t51 -116t-91 -134t-245 -63l-12 49q100 8 159 49q58 41 58 109q0 82 -123 98q-37 6 -28 35l32 104q-168 6 -303 52v305z" />
    <glyph glyph-name="scedilla" unicode="&#x15f;" horiz-adv-x="819" 
d="M588 -276q0 -70 -91 -134t-245 -63l-12 49q100 8 158 49t59 109q0 82 -123 98q-37 6 -29 35l33 104q-127 10 -225 52v237h41q12 -90 75 -151t151 -61t135 36q48 36 48 104t-47 114t-114 75q-68 29 -134 61t-112 92q-46 59 -47 146q0 122 97 194t224 72q53 0 143 -16
l89 -15q0 -133 10 -245h-41q-35 201 -199 200q-78 0 -121 -36t-43 -94t47 -99t114 -71t133 -64t112 -96q47 -61 47 -148q0 -125 -84 -200t-211 -87l-23 -71q81 -14 133 -60t52 -116z" />
    <glyph glyph-name="Scaron" unicode="&#x160;" horiz-adv-x="1032" 
d="M754 1620l22 -21l-192 -221h-92l-191 221l23 21l215 -127zM143 328h47q14 -127 88 -201t190 -74t184 70t67 167q1 98 -59 160t-145 107t-171 94t-145 132t-59 212t115 223q116 94 292 93q57 1 163 -13t132 -16q0 -135 18 -305h-51q-14 117 -82 183t-168 65
q-100 1 -169 -57q-68 -58 -68 -146t60 -148t146 -106q86 -45 171 -95t145 -137t61 -204q-1 -152 -115 -257t-304 -105t-343 53v305z" />
    <glyph glyph-name="scaron" unicode="&#x161;" horiz-adv-x="819" 
d="M621 1309l28 -19l-182 -262h-92l-180 262l28 19l199 -162zM721 258q0 -135 -97 -212q-98 -77 -242 -77t-269 54v237h41q12 -90 75 -151t151 -61t135 36q48 36 48 104t-47 114t-114 76q-68 30 -134 62t-112 92q-46 59 -47 144q0 122 97 194t224 72q53 0 143 -16l89 -15
q0 -133 10 -245h-41q-35 201 -199 200q-78 0 -121 -36t-43 -94t47 -99t114 -72t133 -65t112 -96q47 -62 47 -146z" />
    <glyph glyph-name="Tcommaaccent" unicode="&#x162;" horiz-adv-x="1159" 
d="M678 -246q0 -193 -156 -272l-18 29q84 53 84 149q0 43 -27 69t-53 45t-27 50q0 31 24 51q23 21 67 21t75 -44t31 -98zM485 1202h-110q-162 0 -213 -51q-35 -35 -76 -174h-45q14 244 14 303h1049q0 -59 14 -303h-45q-41 139 -76 174q-51 51 -213 51h-110v-1046
q0 -76 57 -95q33 -10 80 -20v-41l-221 6l-236 -6v41l131 41v1120z" />
    <glyph glyph-name="tcommaaccent" unicode="&#x163;" horiz-adv-x="677" 
d="M502 -246q0 -193 -156 -272l-18 29q84 53 84 149q0 43 -27 69t-53 45t-27 50q0 31 24 51q23 21 67 21t75 -44t31 -98zM174 215v621h-137v73h137v207l178 58v-265h246l-16 -73h-230v-592q0 -86 25 -129t93 -43t124 80l47 -43q-98 -139 -256 -140q-211 0 -211 246z" />
    <glyph glyph-name="Tcaron" unicode="&#x164;" horiz-adv-x="1159" 
d="M795 1620l22 -21l-192 -221h-93l-190 221l23 21l215 -127zM485 1202h-110q-162 0 -213 -51q-35 -35 -76 -174h-45q14 244 14 303h1049q0 -59 14 -303h-45q-41 139 -76 174q-51 51 -213 51h-110v-1046q0 -76 57 -95q33 -10 80 -20v-41l-221 6l-236 -6v41l131 41v1120z" />
    <glyph glyph-name="tcaron" unicode="&#x165;" horiz-adv-x="677" 
d="M602 1270q0 -193 -156 -273l-18 29q84 53 84 150q0 42 -27 68t-53 45t-26 50t23 52q23 20 67 20t75 -44t31 -97zM174 215v621h-137v73h137v207l178 58v-265h246l-16 -73h-230v-592q0 -86 25 -129t93 -43t124 80l47 -43q-98 -139 -256 -140q-211 0 -211 246z" />
    <glyph glyph-name="Tbar" unicode="&#x166;" horiz-adv-x="1159" 
d="M485 614h-258v84h258v504h-110q-162 0 -213 -51q-35 -35 -76 -174h-45q14 244 14 303h1049q0 -59 14 -303h-45q-41 139 -76 174q-51 51 -213 51h-110v-504h258v-84h-258v-458q0 -76 57 -95q33 -10 80 -20v-41l-221 6l-236 -6v41l131 41v532z" />
    <glyph glyph-name="tbar" unicode="&#x167;" horiz-adv-x="677" 
d="M174 215v236h-129v71h129v314h-137v73h137v207l178 58v-265h246l-16 -73h-230v-314h189v-71h-189v-207q0 -86 25 -129t93 -43t124 80l47 -43q-98 -139 -256 -140q-211 0 -211 246z" />
    <glyph glyph-name="Utilde" unicode="&#x168;" horiz-adv-x="1318" 
d="M807 1427q-41 0 -125 34t-121 34q-59 0 -82 -63l-39 4q18 180 148 180q41 0 125 -34t121 -34q59 0 81 64l39 -4q-18 -181 -147 -181zM1128 500q0 -531 -460 -531q-213 0 -330 111q-137 129 -137 395v647q-1 78 -55 96t-85 23v39l220 -6l233 6v-39l-125 -43v-698
q0 -432 313 -432q320 0 320 448v606q0 72 -64 97q-37 14 -73 22v39l184 -6l184 6v-39l-125 -43v-698z" />
    <glyph glyph-name="utilde" unicode="&#x169;" horiz-adv-x="1095" 
d="M618 1083q-40 0 -124 38t-121 38q-59 0 -82 -76l-39 4q18 193 147 193q41 0 125 -38t121 -38q59 0 82 76l39 -4q-19 -193 -148 -193zM489 84q134 0 250 141v531q0 74 -53 94l-65 22v37q223 0 297 13v-750q0 -104 79 -104q37 0 66 14v-43q-63 -63 -143 -63
q-157 -1 -175 145q-59 -66 -143 -109t-168 -43q-152 0 -229 105q-53 72 -53 256v426q0 74 -54 94l-65 22v37q223 0 297 13v-586q0 -148 43 -200t116 -52z" />
    <glyph glyph-name="Umacron" unicode="&#x16a;" horiz-adv-x="1318" 
d="M926 1434h-461v94h461v-94zM1128 500q0 -531 -460 -531q-213 0 -330 111q-137 129 -137 395v647q-1 78 -55 96t-85 23v39l220 -6l233 6v-39l-125 -43v-698q0 -432 313 -432q320 0 320 448v606q0 72 -64 97q-37 14 -73 22v39l184 -6l184 6v-39l-125 -43v-698z" />
    <glyph glyph-name="umacron" unicode="&#x16b;" horiz-adv-x="1095" 
d="M729 1090h-461v94h461v-94zM489 84q134 0 250 141v531q0 74 -53 94l-65 22v37q223 0 297 13v-750q0 -104 79 -104q37 0 66 14v-43q-63 -63 -143 -63q-157 -1 -175 145q-59 -66 -143 -109t-168 -43q-152 0 -229 105q-53 72 -53 256v426q0 74 -54 94l-65 22v37
q223 0 297 13v-586q0 -148 43 -200t116 -52z" />
    <glyph glyph-name="Ubreve" unicode="&#x16c;" horiz-adv-x="1318" 
d="M705 1384q-107 0 -165 58t-59 164h45q10 -109 178 -109t179 109h45q0 -106 -58 -164t-165 -58zM1128 500q0 -531 -460 -531q-213 0 -330 111q-137 129 -137 395v647q-1 78 -55 96t-85 23v39l220 -6l233 6v-39l-125 -43v-698q0 -432 313 -432q320 0 320 448v606
q0 72 -64 97q-37 14 -73 22v39l184 -6l184 6v-39l-125 -43v-698z" />
    <glyph glyph-name="ubreve" unicode="&#x16d;" horiz-adv-x="1095" 
d="M518 1055q-104 0 -163 63q-58 63 -58 170h45q12 -121 176 -121t176 121h45q0 -106 -58 -170q-59 -63 -163 -63zM489 84q134 0 250 141v531q0 74 -53 94l-65 22v37q223 0 297 13v-750q0 -104 79 -104q37 0 66 14v-43q-63 -63 -143 -63q-157 -1 -175 145q-59 -66 -143 -109
t-168 -43q-152 0 -229 105q-53 72 -53 256v426q0 74 -54 94l-65 22v37q223 0 297 13v-586q0 -148 43 -200t116 -52z" />
    <glyph glyph-name="Uring" unicode="&#x16e;" horiz-adv-x="1318" 
d="M805 1538q0 43 -26 70q-27 26 -63 26t-62 -28t-26 -70q0 -43 26 -70q26 -26 63 -26t63 28t25 70zM887 1537q0 -71 -50 -120t-121 -49t-120 49t-49 119t50 120t121 50t120 -49t49 -120zM1128 500q0 -531 -460 -531q-213 0 -330 111q-137 129 -137 395v647q-1 78 -55 96
t-85 23v39l220 -6l233 6v-39l-125 -43v-698q0 -432 313 -432q320 0 320 448v606q0 72 -64 97q-37 14 -73 22v39l184 -6l184 6v-39l-125 -43v-698z" />
    <glyph glyph-name="uring" unicode="&#x16f;" horiz-adv-x="1095" 
d="M606 1188q0 44 -26 70t-62 26t-62 -28t-26 -70t26 -70q26 -26 62 -26t63 27q25 28 25 71zM688 1188q0 -70 -49 -120t-121 -50t-121 49t-49 120t49 120t121 49t121 -49t49 -119zM489 84q134 0 250 141v531q0 74 -53 94l-65 22v37q223 0 297 13v-750q0 -104 79 -104
q37 0 66 14v-43q-63 -63 -143 -63q-157 -1 -175 145q-59 -66 -143 -109t-168 -43q-152 0 -229 105q-53 72 -53 256v426q0 74 -54 94l-65 22v37q223 0 297 13v-586q0 -148 43 -200t116 -52z" />
    <glyph glyph-name="Uhungarumlaut" unicode="&#x170;" horiz-adv-x="1318" 
d="M1042 1536v-20l-321 -154l-14 20l202 217q21 21 35 21t33 -18zM727 1536v-20l-321 -154l-15 20l203 217q20 21 34 21t34 -18zM1128 500q0 -531 -460 -531q-213 0 -330 111q-137 129 -137 395v647q-1 78 -55 96t-85 23v39l220 -6l233 6v-39l-125 -43v-698q0 -432 313 -432
q320 0 320 448v606q0 72 -64 97q-37 14 -73 22v39l184 -6l184 6v-39l-125 -43v-698z" />
    <glyph glyph-name="uhungarumlaut" unicode="&#x171;" horiz-adv-x="1095" 
d="M549 1239v-18l-277 -199l-20 20l178 250q28 40 62 6zM823 1239v-18l-276 -199l-21 20l179 250q28 39 61 6zM489 84q134 0 250 141v531q0 74 -53 94l-65 22v37q223 0 297 13v-750q0 -104 79 -104q37 0 66 14v-43q-63 -63 -143 -63q-157 -1 -175 145q-59 -66 -143 -109
t-168 -43q-152 0 -229 105q-53 72 -53 256v426q0 74 -54 94l-65 22v37q223 0 297 13v-586q0 -148 43 -200t116 -52z" />
    <glyph glyph-name="Uogonek" unicode="&#x172;" horiz-adv-x="1318" 
d="M1128 514q0 -248 -100 -385q-32 -45 -106 -101t-101 -83q-90 -96 -90 -201q0 -61 36 -95t90 -34t118 18l12 -49q-74 -39 -169 -39q-95 -1 -156 51t-62 142q0 129 160 237q-43 -6 -92 -6q-213 0 -330 111q-137 129 -137 395v647q-1 78 -55 96t-85 23v39l220 -6l233 6v-39
l-125 -43v-698q0 -432 313 -432q320 0 320 448v606q0 72 -64 97q-37 14 -73 22v39l184 -6l184 6v-39l-125 -43v-684z" />
    <glyph glyph-name="uogonek" unicode="&#x173;" horiz-adv-x="1095" 
d="M670 -262q0 143 200 239q-109 20 -125 144q-59 -66 -144 -109t-169 -43q-154 0 -229 105q-53 72 -53 256v426q0 74 -54 94l-65 22v37q223 0 297 13v-588q0 -148 43 -200t113 -52q141 0 255 141v533q0 74 -53 94l-65 22v37q223 0 297 13v-750q0 -104 79 -104q37 0 66 14
v-43q-145 -101 -203 -163t-59 -128q0 -66 36 -99q36 -34 90 -34t117 18l13 -49q-74 -39 -169 -39q-94 -1 -156 51t-62 142z" />
    <glyph glyph-name="Wcircumflex" unicode="&#x174;" horiz-adv-x="1873" 
d="M1174 1399l-23 -21l-215 127l-215 -127l-23 21l191 221h92zM202 1274q110 0 240 6v-37l-125 -33l326 -911l254 692l-47 139q-18 53 -48 75t-97 38v37q92 -6 198 -6t236 6v-37l-129 -33l315 -907l297 907l-125 31v39q147 -6 197 -6l180 6v-39q-90 -10 -123 -35t-55 -92
l-367 -1118h-82l-295 854l-313 -854h-80l-405 1134q-20 56 -50 76t-104 37v37q92 -6 202 -6z" />
    <glyph glyph-name="wcircumflex" unicode="&#x175;" horiz-adv-x="1402" 
d="M948 1049l-28 -19l-199 162l-199 -162l-28 19l180 262h92zM-20 909h12q28 -4 77 -4l101 -2l110 2q61 0 93 4h14v-37l-111 -30l238 -582l164 463l-14 39q-18 51 -46 73t-86 37v37h13q24 -4 71 -4l93 -2q98 0 180 4l41 2v-37l-117 -22l213 -584l176 580l-108 28v35l170 -6
q71 0 125 4l26 2v-35q-81 -14 -109 -34t-49 -82l-233 -758h-76l-225 625l-223 -625h-74l-303 762q-20 52 -49 72t-94 38v37z" />
    <glyph glyph-name="Ycircumflex" unicode="&#x176;" horiz-adv-x="1153" 
d="M872 1399l-22 -21l-215 127l-215 -127l-23 21l191 221h92zM680 156q0 -76 57 -95q33 -10 80 -20v-41l-223 6l-234 -6v41l132 41v420l-336 631q-25 49 -59 73t-93 39v35q92 -6 206 -6t243 6v-35l-127 -33l311 -583l281 581l-119 33v37q139 -6 188 -6l162 6v-37
q-82 -10 -113 -38t-61 -91l-295 -610v-348z" />
    <glyph glyph-name="ycircumflex" unicode="&#x177;" horiz-adv-x="972" 
d="M770 1049l-29 -19l-198 162l-199 -162l-29 19l181 262h92zM213 -481q-51 1 -80 27t-29 59q0 70 60 69l69 -8q59 0 89 26q29 26 57 99l78 211l-328 760q-23 51 -55 74q-33 23 -97 36v37l37 -2q74 -4 166 -4l236 6v-37l-121 -30l254 -594l223 598l-110 28v35l34 -2
q70 -4 150 -4l143 6v-35q-73 -10 -107 -30t-53 -74l-391 -1038q-37 -98 -88 -156t-137 -57z" />
    <glyph glyph-name="Ydieresis" unicode="&#x178;" horiz-adv-x="1153" 
d="M563 1511q-1 -39 -29 -67t-67 -29q-39 0 -69 29q-30 30 -30 68t29 66t69 28t68 -28t29 -67zM881 1511q0 -39 -30 -67t-69 -29q-40 0 -68 29q-28 30 -28 68t29 66t69 28t68 -28q29 -28 29 -67zM680 156q0 -76 57 -95q33 -10 80 -20v-41l-223 6l-234 -6v41l132 41v420
l-336 631q-25 49 -59 73t-93 39v35q92 -6 206 -6t243 6v-35l-127 -33l311 -583l281 581l-119 33v37q139 -6 188 -6l162 6v-37q-82 -10 -113 -38t-61 -91l-295 -610v-348z" />
    <glyph glyph-name="Zacute" unicode="&#x179;" horiz-adv-x="1136" 
d="M793 1536v-20l-398 -162l-12 24l276 221q36 33 68 3zM1016 0h-905v74l686 1128h-516l-105 -215h-41q10 102 10 293h873v-72l-690 -1130h415q115 0 168 55t74 168h45q-14 -168 -14 -301z" />
    <glyph glyph-name="zacute" unicode="&#x17a;" horiz-adv-x="870" 
d="M542 1296q14 0 29 -14l70 -70v-20l-360 -186l-19 22l246 248q20 20 34 20zM553 70q92 0 127 36t59 140h39q-4 -168 -4 -246h-692v57l489 783h-342l-82 -176h-34q4 78 4 245h663v-53l-493 -786h266z" />
    <glyph glyph-name="Zdotaccent" unicode="&#x17b;" horiz-adv-x="1136" 
d="M696 1528q0 -45 -32 -79t-76 -34q-45 0 -78 34t-33 79t33 76q33 30 78 30t77 -30q31 -31 31 -76zM1016 0h-905v74l686 1128h-516l-105 -215h-41q10 102 10 293h873v-72l-690 -1130h415q115 0 168 55t74 168h45q-14 -168 -14 -301z" />
    <glyph glyph-name="zdotaccent" unicode="&#x17c;" horiz-adv-x="870" 
d="M555 1176q0 -45 -32 -79t-77 -34q-46 0 -78 34t-32 79q0 46 33 76t77 30t77 -30q32 -30 32 -76zM553 70q92 0 127 36t59 140h39q-4 -168 -4 -246h-692v57l489 783h-342l-82 -176h-34q4 78 4 245h663v-53l-493 -786h266z" />
    <glyph glyph-name="Zcaron" unicode="&#x17d;" horiz-adv-x="1136" 
d="M795 1620l22 -21l-192 -221h-93l-190 221l23 21l215 -127zM1016 0h-905v74l686 1128h-516l-105 -215h-41q10 102 10 293h873v-72l-690 -1130h415q115 0 168 55t74 168h45q-14 -168 -14 -301z" />
    <glyph glyph-name="zcaron" unicode="&#x17e;" horiz-adv-x="870" 
d="M647 1309l29 -19l-182 -262h-93l-180 262l29 19l199 -162zM553 70q92 0 127 36t59 140h39q-4 -168 -4 -246h-692v57l489 783h-342l-82 -176h-34q4 78 4 245h663v-53l-493 -786h266z" />
    <glyph glyph-name="longs" unicode="&#x17f;" horiz-adv-x="581" 
d="M199 836h-140v73h140q0 137 20 223t78 156q88 104 242 105q75 0 149 -31t74 -84q0 -37 -23 -71q-23 -33 -49 -33t-42 15q-15 15 -41 55t-51 60q-26 19 -62 19q-119 0 -117 -299v-872q0 -54 20 -74t99 -41v-37l-205 6l-209 -6v37l117 41v758z" />
    <glyph glyph-name="florin" unicode="&#x192;" horiz-adv-x="1007" 
d="M844 1309q98 0 160 -36t61 -74q0 -38 -23 -71q-22 -34 -48 -36t-40 13t-42 55t-52 58q-25 17 -61 17q-74 0 -137 -120t-101 -355h219l-37 -84h-194l-68 -436q-51 -330 -163 -499t-305 -169t-263 152l68 40q53 -113 172 -112q207 0 278 418l103 606h-191l37 84h160
q33 186 98 305q133 244 369 244z" />
    <glyph glyph-name="Acaron" unicode="&#x1cd;" horiz-adv-x="1292" 
d="M858 1620l23 -21l-193 -221h-92l-190 221l22 21l215 -127zM766 535l-170 436l-166 -436h336zM233 6l-217 -6v41l136 41l462 1198h60l436 -1124q18 -44 36 -64t54 -31l68 -20v-41l-230 6l-239 -6v41l141 41l-145 377h-392l-118 -307q-8 -25 -9 -37q0 -50 148 -74v-41z" />
    <glyph glyph-name="acaron" unicode="&#x1ce;" horiz-adv-x="954" 
d="M680 1309l29 -19l-183 -262h-92l-180 262l29 19l198 -162zM604 496h-16q-141 0 -222 -60t-81 -164q0 -106 46 -156q47 -50 125 -50t148 65v365zM397 -31q-133 0 -216 75t-83 204q0 164 142 240t364 77v84q0 197 -159 197t-232 -195l-78 31q90 260 363 260q186 0 254 -135
q31 -61 30 -219v-434q0 -86 64 -86q31 0 63 14v-43q-63 -63 -163 -63t-128 85q-88 -92 -221 -92z" />
    <glyph glyph-name="Aringacute" unicode="&#x1fa;" horiz-adv-x="1292" 
d="M823 1907v-21l-360 -186l-19 22l246 248q35 35 64 6zM731 1518q1 44 -25 70t-63 26t-63 -28t-25 -70q0 -42 26 -70q27 -27 63 -27t62 28q25 28 25 71zM473 1516q0 70 50 120t121 50t120 -49t49 -120t-50 -120t-121 -49t-120 49t-49 119zM766 535l-170 436l-166 -436h336z
M233 6l-217 -6v41l136 41l462 1198h60l436 -1124q18 -44 36 -64t54 -31l68 -20v-41l-230 6l-239 -6v41l141 41l-145 377h-392l-118 -307q-8 -25 -9 -37q0 -50 148 -74v-41z" />
    <glyph glyph-name="aringacute" unicode="&#x1fb;" horiz-adv-x="954" 
d="M662 1567v-21l-361 -186l-18 22l245 248q35 35 64 6zM567 1180q1 44 -25 70t-63 26t-63 -28t-25 -70q0 -42 26 -70q27 -27 63 -27t62 28q25 28 25 71zM649 1180q0 -70 -50 -120t-121 -50t-120 49t-49 120t50 119t121 50q71 0 120 -49t49 -119zM604 496h-16
q-141 0 -222 -60t-81 -164q0 -106 46 -156q47 -50 125 -50t148 65v365zM397 -31q-133 0 -216 75t-83 204q0 164 142 240t364 77v84q0 197 -159 197t-232 -195l-78 31q90 260 363 260q186 0 254 -135q31 -61 30 -219v-434q0 -86 64 -86q31 0 63 14v-43q-63 -63 -163 -63
t-128 85q-88 -92 -221 -92z" />
    <glyph glyph-name="AEacute" unicode="&#x1fc;" horiz-adv-x="1736" 
d="M1331 1536v-20l-397 -162l-12 24l276 221q23 19 37 19t31 -16zM846 698v498l-279 -498h279zM575 1280h1020q8 -154 35 -303h-53q-37 131 -103 179t-253 48h-187v-506h140q211 0 249 15l-10 -103q-49 12 -239 13h-140v-463q0 -50 43 -66t215 -16t230 41q55 41 88 182h45
q-14 -143 -15 -301h-925v41l131 41v541h-320l-262 -471q-10 -20 -10 -37q0 -39 63 -54l82 -20v-41l-190 6l-238 -6v41l144 43l577 1038q16 29 17 49q0 55 -134 68v41z" />
    <glyph glyph-name="aeacute" unicode="&#x1fd;" horiz-adv-x="1449" 
d="M838 1296q14 0 28 -14l70 -70v-20l-361 -186l-18 22l246 248q21 20 35 20zM604 496h-16q-141 0 -222 -60t-81 -164t52 -155q53 -51 117 -51t110 24t102 84q-61 119 -62 297v25zM994 856q-87 0 -139 -81t-62 -214h385q-2 141 -50 218t-134 77zM387 -31q-123 0 -206 75
t-83 204q0 164 142 240t364 77v60q0 109 -42 165t-118 56q-158 0 -231 -195l-78 31q90 260 363 260q172 0 241 -129q95 129 265 129t268 -123t82 -332h-566q8 -205 82 -307t185 -102q160 0 248 145l53 -45q-52 -92 -146 -150t-200 -58t-185 37q-80 38 -120 99
q-131 -137 -318 -137z" />
    <glyph glyph-name="Oslashacute" unicode="&#x1fe;" horiz-adv-x="1282" 
d="M838 1536v-20l-398 -162l-12 24l277 221q36 32 67 3zM647 1221q-102 -1 -175 -59q-72 -58 -108 -152q-68 -181 -69 -397q0 -216 84 -377l450 911q-80 74 -182 74zM987 641q0 254 -92 420l-453 -918q80 -84 188 -84q273 0 341 398q16 92 16 184zM1200 641
q0 -279 -146 -475t-415 -197q-139 0 -254 60l-59 -121h-109l86 176q-109 92 -165 240t-56 317q0 279 146 475t415 195q129 0 240 -54l57 115h109l-82 -168q115 -90 174 -240t59 -323z" />
    <glyph glyph-name="oslashacute" unicode="&#x1ff;" horiz-adv-x="1024" 
d="M260 455q0 -193 70 -299l299 665q-47 35 -128 35t-141 -69t-80 -153t-20 -179zM764 455q0 190 -74 303l-301 -668q51 -35 122 -35q192 0 241 266q12 64 12 134zM952 453q0 -211 -118 -348q-119 -136 -324 -136q-88 0 -162 29l-49 -111h-90l65 144q-203 125 -202 422
q0 211 118 350q119 139 324 139q82 0 158 -27l49 109h90l-66 -145q99 -61 153 -174t54 -252zM594 1296q14 0 29 -14l69 -70v-20l-360 -186l-19 22l246 248q21 20 35 20z" />
    <glyph glyph-name="Scommaaccent" unicode="&#x218;" horiz-adv-x="1032" 
d="M608 -246q0 -193 -155 -272l-19 29q84 53 84 149q0 43 -26 69q-27 26 -54 45t-26 50q0 31 23 51q24 21 68 21t75 -44q30 -45 30 -98zM143 328h47q14 -127 88 -201t190 -74t184 70t67 167q1 98 -59 160t-145 107t-171 94t-145 132t-59 212t115 223q116 94 292 93
q57 1 163 -13t132 -16q0 -135 18 -305h-51q-14 117 -82 183t-168 65q-100 1 -169 -57q-68 -58 -68 -146t60 -148t146 -106q86 -45 171 -95t145 -137t61 -204q-1 -152 -115 -257t-304 -105t-343 53v305z" />
    <glyph glyph-name="scommaaccent" unicode="&#x219;" horiz-adv-x="819" 
d="M502 -246q0 -193 -156 -272l-18 29q84 53 84 149q0 43 -27 69t-53 45t-27 50q0 31 24 51q23 21 67 21t75 -44t31 -98zM721 258q0 -135 -97 -212q-98 -77 -242 -77t-269 54v237h41q12 -90 75 -151t151 -61t135 36q48 36 48 104t-47 114t-114 76q-68 30 -134 62t-112 92
q-46 59 -47 144q0 122 97 194t224 72q53 0 143 -16l89 -15q0 -133 10 -245h-41q-35 201 -199 200q-78 0 -121 -36t-43 -94t47 -99t114 -72t133 -65t112 -96q47 -62 47 -146z" />
    <glyph glyph-name="uni021A" unicode="&#x21a;" horiz-adv-x="1159" 
d="M678 -246q0 -193 -156 -272l-18 29q84 53 84 149q0 43 -27 69t-53 45t-27 50q0 31 24 51q23 21 67 21t75 -44t31 -98zM485 1202h-110q-162 0 -213 -51q-35 -35 -76 -174h-45q14 244 14 303h1049q0 -59 14 -303h-45q-41 139 -76 174q-51 51 -213 51h-110v-1046
q0 -76 57 -95q33 -10 80 -20v-41l-221 6l-236 -6v41l131 41v1120z" />
    <glyph glyph-name="uni021B" unicode="&#x21b;" horiz-adv-x="677" 
d="M502 -246q0 -193 -156 -272l-18 29q84 53 84 149q0 43 -27 69t-53 45t-27 50q0 31 24 51q23 21 67 21t75 -44t31 -98zM174 215v621h-137v73h137v207l178 58v-265h246l-16 -73h-230v-592q0 -86 25 -129t93 -43t124 80l47 -43q-98 -139 -256 -140q-211 0 -211 246z" />
    <glyph glyph-name="circumflex" unicode="&#x2c6;" 
d="M500 1049l-29 -19l-199 162l-198 -162l-29 19l180 262h92z" />
    <glyph glyph-name="caron" unicode="&#x2c7;" 
d="M471 1309l29 -19l-183 -262h-92l-180 262l29 19l198 -162z" />
    <glyph glyph-name="breve" unicode="&#x2d8;" 
d="M270 1055q-104 0 -162 63t-59 170h45q12 -121 176 -121t176 121h46q0 -106 -59 -170t-163 -63z" />
    <glyph glyph-name="dotaccent" unicode="&#x2d9;" 
d="M381 1176q0 -45 -32 -79t-77 -34q-46 0 -78 34t-32 79q0 46 33 76t77 30t77 -30q32 -30 32 -76z" />
    <glyph glyph-name="ring" unicode="&#x2da;" 
d="M358 1188q0 44 -26 70t-62 26t-62 -28t-26 -70t26 -70q26 -26 62 -26t63 27q25 28 25 71zM440 1188q0 -70 -50 -120t-121 -50t-119 49t-50 120q0 71 50 120t122 49q70 0 119 -49t49 -119z" />
    <glyph glyph-name="ogonek" unicode="&#x2db;" 
d="M296 -455q-94 -1 -156 51t-62 144t88 177t217 130l25 -14q-90 -53 -144 -131t-55 -148q0 -70 36 -105q37 -34 91 -34t117 18l12 -49q-74 -39 -169 -39z" />
    <glyph glyph-name="tilde" unicode="&#x2dc;" 
d="M381 1083q-41 0 -125 38t-121 38q-59 0 -82 -76l-39 4q18 193 148 193q41 0 125 -38t121 -38q59 0 81 76l39 -4q-18 -193 -147 -193z" />
    <glyph glyph-name="hungarumlaut" unicode="&#x2dd;" 
d="M285 1239v-18l-277 -199l-20 20l178 250q29 41 61 6zM559 1239v-18l-276 -199l-21 20l178 250q28 40 62 6z" />
    <glyph glyph-name="uni0374" unicode="&#x374;" 
d="M264 1407h125l14 -16l-233 -390l-33 13l80 346q10 47 47 47z" />
    <glyph glyph-name="uni0375" unicode="&#x375;" 
d="M276 -461h-124l-15 17l234 389l32 -13l-79 -346q-10 -47 -48 -47z" />
    <glyph glyph-name="uni037E" unicode="&#x37e;" horiz-adv-x="421" 
d="M326 25q0 -205 -174 -306l-25 37q102 76 102 164q0 47 -30 76q-31 28 -61 50t-30 54t26 54t73 22t83 -42t36 -109zM317 632q-1 -44 -31 -74t-75 -30t-76 30t-31 74t31 75t76 31t76 -31q30 -31 30 -75z" />
    <glyph glyph-name="tonos" unicode="&#x384;" 
d="M264 1407h125l14 -16l-233 -390l-33 13l80 346q10 47 47 47z" />
    <glyph glyph-name="dieresistonos" unicode="&#x385;" 
d="M123 1182q0 -39 -29 -68q-30 -29 -68 -29t-68 29t-30 68q0 38 29 66t69 28t68 -28t29 -66zM604 1182q0 -39 -30 -68t-68 -29t-68 29q-29 29 -28 68q0 38 28 66t69 28t69 -28t28 -66zM297 1407h125l14 -16l-233 -390l-33 13l80 346q10 47 47 47z" />
    <glyph glyph-name="Alphatonos" unicode="&#x386;" horiz-adv-x="1292" 
d="M346 1358h125l14 -17l-233 -389l-33 13l80 346q10 47 47 47zM766 535l-170 436l-166 -436h336zM233 6l-217 -6v41l136 41l462 1198h60l436 -1124q18 -44 36 -64t54 -31l68 -20v-41l-230 6l-239 -6v41l141 41l-145 377h-392l-118 -307q-8 -25 -9 -37q0 -50 148 -74v-41z
" />
    <glyph glyph-name="anoteleia" unicode="&#x387;" horiz-adv-x="421" 
d="M317 453q-1 -45 -31 -75t-75 -30t-76 30t-31 75t31 75t76 29q45 1 75 -29t31 -75z" />
    <glyph glyph-name="Epsilontonos" unicode="&#x388;" horiz-adv-x="1316" 
d="M104 1358h125l15 -17l-234 -389l-33 13l80 346q10 47 47 47zM426 1128q0 53 -30 75t-109 36v41h889q4 -164 22 -303h-49q-27 133 -91 179t-251 46q-90 0 -193 -4v-500h140q211 0 250 15l-11 -105q-49 12 -239 13h-140v-459q0 -50 42 -66t165 -16q223 0 283 42t90 179h41
q-12 -139 -12 -301h-928v41l131 41v1046z" />
    <glyph glyph-name="Etatonos" unicode="&#x389;" horiz-adv-x="1644" 
d="M104 1358h125l15 -17l-234 -389l-33 13l80 346q10 47 47 47zM1421 156q0 -76 58 -95q33 -10 80 -20v-41l-218 6l-239 -6v41l131 41v530h-621v-456q0 -76 58 -95q33 -10 80 -20v-41l-224 6l-233 -6v41l131 41v1038q0 78 -54 96t-85 23v41l219 -6l233 6v-41l-125 -43v-496
h621v420q0 78 -54 96t-85 23v41l219 -6l233 6v-41l-125 -43v-1040z" />
    <glyph glyph-name="Iotatonos" unicode="&#x38a;" horiz-adv-x="841" 
d="M104 1358h125l15 -17l-234 -389l-33 13l80 346q10 47 47 47zM612 156q0 -76 58 -95q33 -10 80 -20v-41l-224 6l-233 -6v41l131 41v1038q0 78 -54 96t-85 23v41l219 -6l233 6v-41l-125 -43v-1040z" />
    <glyph glyph-name="Omicrontonos" unicode="&#x38c;" horiz-adv-x="1351" 
d="M104 1358h125l15 -17l-234 -389l-33 13l80 346q10 47 47 47zM1057 641q0 192 -67 369q-36 94 -107 152q-72 58 -170 58t-171 -58q-119 -95 -161 -339q-16 -92 -16 -183q0 -193 66 -369q36 -95 108 -153t170 -58t171 58q118 96 160 339q17 92 17 184zM1270 641
q0 -279 -146 -475t-415 -197q-268 0 -413 197q-144 198 -144 476t146 474t414 195q268 1 414 -195q144 -196 144 -475z" />
    <glyph glyph-name="Upsilontonos" unicode="&#x38e;" horiz-adv-x="1431" 
d="M104 1358h125l15 -17l-234 -389l-33 13l80 346q10 47 47 47zM958 156q0 -76 58 -95q33 -10 80 -20v-41l-224 6l-233 -6v41l131 41v420l-336 631q-24 49 -58 73t-93 39v35q91 -6 205 -6t243 6v-35l-127 -33l311 -583l281 581l-119 33v37q139 -6 189 -6l161 6v-37
q-83 -10 -113 -38t-61 -91l-295 -610v-348z" />
    <glyph glyph-name="Omegatonos" unicode="&#x38f;" horiz-adv-x="1468" 
d="M104 1358h125l15 -17l-234 -389l-33 13l80 346q10 47 47 47zM743 1225q-182 1 -281 -145q-100 -146 -100 -356t76 -370t244 -338l-10 -16h-568q0 98 -20 340h41q27 -119 45 -145q35 -45 160 -45h151q-139 100 -231 252t-92 331q0 236 160 407q161 171 425 171t425 -171
t161 -407q0 -180 -92 -332t-231 -251h151q115 0 147 32t54 135q2 14 4 23h41q-20 -240 -21 -340h-567l-10 16q168 178 244 338q75 160 75 370t-100 356t-281 145z" />
    <glyph glyph-name="iotadieresistonos" unicode="&#x390;" horiz-adv-x="534" 
d="M125 1182q0 -39 -29 -68q-30 -29 -68 -29t-68 29t-30 68q0 38 29 66t69 28t68 -28t29 -66zM606 1182q0 -39 -30 -68t-68 -29q-39 0 -68 29t-28 68q0 38 28 66t69 28t69 -28t28 -66zM299 1407h125l14 -16l-233 -390l-33 13l80 346q10 47 47 47zM326 483v-311q0 -55 19 -79
q19 -23 63 -23t92 18v-43q-92 -68 -191 -68q-162 0 -162 146v352q0 295 -8 428l193 39q-6 -137 -6 -459z" />
    <glyph glyph-name="Alpha" unicode="&#x391;" horiz-adv-x="1292" 
d="M766 535l-170 436l-166 -436h336zM233 6l-217 -6v41l136 41l462 1198h60l436 -1124q18 -44 36 -64t54 -31l68 -20v-41l-230 6l-239 -6v41l141 41l-145 377h-392l-118 -307q-8 -25 -9 -37q0 -50 148 -74v-41z" />
    <glyph glyph-name="Beta" unicode="&#x392;" horiz-adv-x="1138" 
d="M541 731q125 0 189 68q64 67 65 177t-57 168t-216 58h-108v-471h127zM414 649v-485q0 -48 35 -66t149 -18t184 72t70 212t-74 212t-264 73h-100zM86 1280h481q250 0 351 -98q72 -68 72 -178t-63 -189q-62 -78 -177 -113q147 -30 229 -116t82 -230t-106 -250t-332 -106
h-529v41l131 41v1036q0 59 -30 83q-31 24 -109 38v41z" />
    <glyph glyph-name="Gamma" unicode="&#x393;" horiz-adv-x="1019" 
d="M225 1128q0 53 -29 75q-30 22 -110 36v41h877q6 -227 18 -322h-49q-29 147 -98 195q-70 47 -209 47t-211 -4v-1040q0 -74 61 -90t121 -23v-43l-268 6l-234 -6v41l131 41v1046z" />
    <glyph glyph-name="Delta" unicode="&#x394;" horiz-adv-x="1142" 
d="M868 90l-340 881l-335 -881h675zM57 0l-8 18l479 1262h80l486 -1262l-13 -18h-1024z" />
    <glyph glyph-name="Epsilon" unicode="&#x395;" horiz-adv-x="1116" 
d="M225 1128q0 53 -29 75q-30 22 -110 36v41h889q4 -164 22 -303h-49q-26 133 -90 179t-252 46q-90 0 -192 -4v-500h139q211 0 250 15l-10 -105q-49 12 -240 13h-139v-459q0 -50 42 -66t165 -16q223 0 282 42t90 179h41q-12 -139 -12 -301h-928v41l131 41v1046z" />
    <glyph glyph-name="Zeta" unicode="&#x396;" horiz-adv-x="1136" 
d="M1016 0h-905v74l686 1128h-516l-105 -215h-41q10 102 10 293h873v-72l-690 -1130h415q115 0 168 55t74 168h45q-14 -168 -14 -301z" />
    <glyph glyph-name="Eta" unicode="&#x397;" horiz-adv-x="1445" 
d="M1223 156q0 -76 57 -95q33 -10 80 -20v-41l-217 6l-240 -6v41l131 41v530h-620v-456q0 -76 57 -95q33 -10 80 -20v-41l-223 6l-234 -6v41l131 41v1038q0 78 -54 96t-85 23v41l219 -6l234 6v-41l-125 -43v-496h620v420q0 78 -54 96t-85 23v41l219 -6l234 6v-41l-125 -43
v-1040z" />
    <glyph glyph-name="Theta" unicode="&#x398;" horiz-adv-x="1282" 
d="M987 641q0 195 -66 369q-36 94 -108 152t-170 58t-171 -58q-72 -58 -108 -152q-68 -181 -69 -372q0 -191 66 -367q36 -95 108 -153t170 -58t171 58q120 97 161 339q16 92 16 184zM1200 641q0 -279 -146 -475t-414 -197q-268 0 -414 197q-144 198 -144 476t146 474
t414 195q268 1 414 -195q144 -196 144 -475zM739 584h-194q-43 0 -58 -45l-22 -68h-45q8 82 8 169t-8 194h45l22 -68q14 -45 58 -45h194q43 0 58 45l22 68h45q-8 -106 -8 -194t8 -169h-45l-22 68q-15 45 -58 45z" />
    <glyph glyph-name="Iota" unicode="&#x399;" horiz-adv-x="649" 
d="M420 156q0 -76 57 -95q33 -10 80 -20v-41l-223 6l-234 -6v41l131 41v1038q0 78 -54 96t-85 23v41l219 -6l234 6v-41l-125 -43v-1040z" />
    <glyph glyph-name="Kappa" unicode="&#x39a;" horiz-adv-x="1212" 
d="M1192 0h-346q0 63 -49 143l-291 473l-92 -114v-346q0 -80 57 -95l80 -20v-41l-227 6l-230 -6v41l131 41v1038q0 80 -57 99q-27 8 -82 20v41l229 -6l224 6v-41l-125 -43v-559l471 571l-125 31v41l215 -8q49 0 196 8v-41q-104 -14 -155 -43t-109 -98l-278 -334l325 -522
q68 -111 113 -149t125 -52v-41z" />
    <glyph glyph-name="Lambda" unicode="&#x39b;" horiz-adv-x="1292" 
d="M1038 6l-239 -6v41l141 41l-344 889l-311 -819q-8 -25 -9 -37q0 -33 60 -51t88 -23v-41l-191 6l-217 -6v41l136 41l462 1198h60l436 -1124q18 -44 36 -64t54 -31l68 -20v-41z" />
    <glyph glyph-name="Mu" unicode="&#x39c;" horiz-adv-x="1716" 
d="M225 1120q0 72 -63 97q-35 14 -76 22v41h340l434 -985l440 985h318v-41l-125 -43v-1040q0 -76 57 -95q33 -10 80 -20v-41l-223 6l-229 -6v41l127 41v954l-463 -1044h-45l-463 1042v-878q0 -78 61 -95l76 -20v-41l-184 6l-193 -6v41l131 41v1038z" />
    <glyph glyph-name="Nu" unicode="&#x39d;" horiz-adv-x="1439" 
d="M1231 -8h-88l-809 1038v-874q0 -45 18 -70t119 -45v-41l-184 6l-197 -6v41l135 41v1040q0 74 -63 95q-39 12 -82 22v41h293l751 -965v811q0 45 -16 68t-123 45v41l189 -6l184 6v-41l-127 -43v-1204z" />
    <glyph glyph-name="Xi" unicode="&#x39e;" horiz-adv-x="1089" 
d="M707 584h-320q-43 0 -57 -45l-23 -68h-45q8 82 8 169t-8 194h45l23 -68q14 -45 57 -45h320q43 0 57 45l22 68h45q-8 -106 -8 -194t8 -169h-45l-22 68q-14 45 -57 45zM1028 0h-967q0 208 7 311h38q29 -98 53 -132q23 -34 63 -42t149 -8h348q109 0 149 8t63 42
q24 34 52 132h39q6 -135 6 -311zM991 1280q0 -74 15 -317h-45q-39 129 -93 163t-202 33h-244q-148 0 -202 -34t-93 -162h-45q12 198 14 317h895z" />
    <glyph glyph-name="Omicron" unicode="&#x39f;" horiz-adv-x="1282" 
d="M987 641q0 195 -66 369q-36 94 -108 152t-170 58t-171 -58q-72 -58 -108 -152q-68 -181 -69 -372q0 -191 66 -367q36 -95 108 -153t170 -58t171 58q120 97 161 339q16 92 16 184zM1200 641q0 -279 -146 -475t-414 -197q-268 0 -414 197q-144 198 -144 476t146 474
t414 195q268 1 414 -195q144 -196 144 -475z" />
    <glyph glyph-name="Pi" unicode="&#x3a0;" horiz-adv-x="1394" 
d="M225 1118q0 80 -57 96l-86 25v41h1221v-41l-132 -45v-1038q0 -76 58 -95q33 -10 80 -20v-41l-217 6l-240 -6v41l131 41v1118h-569v-1044q0 -76 57 -95q33 -10 80 -20v-41l-223 6l-234 -6v41l131 41v1036z" />
    <glyph glyph-name="Rho" unicode="&#x3a1;" horiz-adv-x="1091" 
d="M225 1120q0 45 -11 58q-11 14 -15 19q-16 20 -61 30q-44 9 -52 12v41h434q139 0 223 -23q133 -35 207 -123t74 -225q0 -169 -129 -277t-371 -108h-110v-370q0 -72 63 -93q16 -4 86 -20v-41l-235 6l-234 -6v41l131 41v1038zM479 604q334 0 334 305q0 141 -73 214t-240 73
h-86v-592h65z" />
    <glyph glyph-name="Sigma" unicode="&#x3a3;" horiz-adv-x="1079" 
d="M635 1212h-326l400 -501v-27l-447 -534h508q129 0 176 36t70 146h41q-20 -242 -21 -332h-1011l-11 16l516 619l-497 631l10 14h952q4 -152 23 -293h-49q-27 141 -86 183t-248 42z" />
    <glyph glyph-name="Tau" unicode="&#x3a4;" horiz-adv-x="1159" 
d="M485 1202h-110q-162 0 -213 -51q-35 -35 -76 -174h-45q14 244 14 303h1049q0 -59 14 -303h-45q-41 139 -76 174q-51 51 -213 51h-110v-1046q0 -76 57 -95q33 -10 80 -20v-41l-221 6l-236 -6v41l131 41v1120z" />
    <glyph glyph-name="Upsilon" unicode="&#x3a5;" horiz-adv-x="1153" 
d="M680 156q0 -76 57 -95q33 -10 80 -20v-41l-223 6l-234 -6v41l132 41v420l-336 631q-25 49 -59 73t-93 39v35q92 -6 206 -6t243 6v-35l-127 -33l311 -583l281 581l-119 33v37q139 -6 188 -6l162 6v-37q-82 -10 -113 -38t-61 -91l-295 -610v-348z" />
    <glyph glyph-name="Phi" unicode="&#x3a6;" horiz-adv-x="1406" 
d="M1167 641q0 183 -104 277t-270 102v-758q166 8 270 102t104 277zM240 641q0 -187 103 -279t271 -100v758q-168 -8 -271 -100t-103 -279zM1366 641q0 -213 -157 -329t-416 -126v-30q0 -76 57 -95q33 -10 80 -20v-41l-217 6l-230 -6v41l131 41v104q-260 10 -416 126
t-157 329q0 213 157 329t416 124v26q0 78 -57 97l-82 22v41l215 -6l228 6v-41l-125 -43v-102q261 -8 417 -124t156 -329z" />
    <glyph glyph-name="Chi" unicode="&#x3a7;" horiz-adv-x="1253" 
d="M1016 1274l127 4l28 2v-33q-88 -10 -129 -33t-77 -84l-263 -444l369 -539q53 -80 170 -110v-37l-27 2q-81 6 -176 6l-264 -8v37l119 33l-297 460l-289 -462l129 -33v-35l-207 8l-196 -8v35q96 19 137 39t70 65l297 475l-359 519q-63 90 -168 112v35l37 -2l174 -4l244 6
v-35l-111 -33l287 -438l266 445l-106 28v33l14 -2h41z" />
    <glyph glyph-name="Psi" unicode="&#x3a8;" horiz-adv-x="1654" 
d="M920 156q0 -76 57 -95q33 -10 80 -20v-41l-221 6l-232 -6v41l131 41v371q-276 -2 -411 136t-136 398l2 143q0 42 -10 60t-57 32t-78 17v41q57 -2 173 -2t159 2q-4 -115 -4 -297q0 -457 362 -457v598q0 76 -57 95q-33 10 -80 20v41l221 -6l232 6v-41l-131 -41v-672
q362 0 362 457q0 182 -4 297q43 -2 159 -2t173 2v-41q-117 -15 -135 -49q-10 -18 -11 -60l2 -143q0 -260 -135 -398t-411 -136v-297z" />
    <glyph glyph-name="Omega" unicode="&#x3a9;" horiz-adv-x="1449" 
d="M725 1225q-181 1 -281 -145t-100 -356t76 -370t244 -338l-11 -16h-567q0 98 -20 340h40q27 -119 46 -145q35 -45 159 -45h152q-139 100 -231 252t-93 331q0 236 161 407t425 171t425 -171t161 -407q0 -180 -92 -332t-232 -251h152q115 0 147 32t53 135q2 14 4 23h41
q-20 -240 -20 -340h-567l-11 16q168 178 244 338t76 370t-100 356t-281 145z" />
    <glyph glyph-name="Iotadieresis" unicode="&#x3aa;" horiz-adv-x="649" 
d="M262 1511q0 -39 -29 -67t-67 -29q-38 0 -69 29q-29 30 -29 68t28 66q29 28 69 28q41 0 69 -28t28 -67zM580 1511q0 -39 -30 -67t-69 -29q-39 0 -67 29q-28 30 -29 68q0 38 29 66q28 28 68 28t69 -28t29 -67zM420 156q0 -76 57 -95q33 -10 80 -20v-41l-223 6l-234 -6v41
l131 41v1038q0 78 -54 96t-85 23v41l219 -6l234 6v-41l-125 -43v-1040z" />
    <glyph glyph-name="Upsilondieresis" unicode="&#x3ab;" horiz-adv-x="1153" 
d="M563 1511q-1 -39 -29 -67t-67 -29q-39 0 -69 29q-30 30 -30 68t29 66t69 28t68 -28t29 -67zM881 1511q0 -39 -30 -67t-69 -29q-40 0 -68 29q-28 30 -28 68t29 66t69 28t68 -28q29 -28 29 -67zM680 156q0 -76 57 -95q33 -10 80 -20v-41l-223 6l-234 -6v41l132 41v420
l-336 631q-25 49 -59 73t-93 39v35q92 -6 206 -6t243 6v-35l-127 -33l311 -583l281 581l-119 33v37q139 -6 188 -6l162 6v-37q-82 -10 -113 -38t-61 -91l-295 -610v-348z" />
    <glyph glyph-name="alphatonos" unicode="&#x3ac;" horiz-adv-x="1167" 
d="M606 1407h125l14 -16l-233 -390l-33 13l80 346q10 47 47 47zM260 442q0 -170 62 -262t158 -92q95 0 163 83t107 224q-29 233 -94 337q-64 104 -172 106q-108 0 -166 -113t-58 -283zM438 -31q-182 0 -274 133t-92 343t117 354q118 143 303 143q127 0 213 -91t110 -278
q57 199 129 349l205 20q-201 -338 -289 -569q48 -168 104 -242q76 -102 212 -102v-41q-221 -40 -284 1q-32 19 -54 85t-47 178q-53 -129 -143 -206t-210 -77z" />
    <glyph glyph-name="epsilontonos" unicode="&#x3ad;" horiz-adv-x="866" 
d="M555 1407h125l14 -16l-233 -390l-33 13l80 346q10 47 47 47zM532 446q-122 0 -200 -47t-78 -144t74 -149t201 -51q128 0 255 66l21 -60q-145 -92 -331 -92t-297 67q-112 67 -111 206q0 88 62 152t161 89q-199 53 -199 219q0 106 110 172t281 66q81 0 137 -12
q57 -12 154 -33q0 -176 6 -250h-41q-39 217 -248 217q-100 0 -160 -46q-61 -46 -61 -129t70 -130t194 -47h109v-64h-109z" />
    <glyph glyph-name="etatonos" unicode="&#x3ae;" horiz-adv-x="1056" 
d="M627 1407h125l14 -16l-234 -390l-32 13l80 346q10 47 47 47zM750 573q0 152 -41 202t-119 50q-139 0 -254 -137v-258q0 -92 6 -412l-176 -38l-2 442v315q0 61 -35 81t-123 26v39q136 37 206 37t93 -31t25 -105q61 70 146 114t169 44q152 0 227 -102q42 -55 49 -164
q1 -31 1 -98v-592q0 -92 6 -412l-176 -39l-2 442v596z" />
    <glyph glyph-name="iotatonos" unicode="&#x3af;" horiz-adv-x="534" 
d="M328 1407h125l14 -16l-234 -390l-32 13l80 346q10 47 47 47zM326 483v-311q0 -55 19 -79q19 -23 63 -23t92 18v-43q-92 -68 -191 -68q-162 0 -162 146v352q0 295 -8 428l193 39q-6 -137 -6 -459z" />
    <glyph glyph-name="upsilondieresistonos" unicode="&#x3b0;" horiz-adv-x="978" 
d="M397 1182q-1 -39 -29 -68t-67 -29t-69 29t-29 68q1 38 29 66t68 28t68 -28t29 -66zM879 1182q0 -39 -30 -68t-69 -29q-40 0 -68 29t-28 68q0 38 29 66t69 28t68 -28q29 -28 29 -66zM571 1407h125l15 -16l-234 -390l-33 13l80 346q10 47 47 47zM215 920q69 0 99 -26
t30 -97l-20 -396q0 -334 217 -333q119 0 189 104t71 274q0 268 -139 469l184 27q80 -215 80 -416t-110 -373q-52 -81 -139 -133t-194 -51q-338 0 -338 398l21 370q0 61 -35 81t-123 26v39q137 37 207 37z" />
    <glyph glyph-name="alpha" unicode="&#x3b1;" horiz-adv-x="1167" 
d="M260 442q0 -170 62 -262t158 -92q95 0 163 83t107 224q-29 233 -94 337q-64 104 -172 106q-108 0 -166 -113t-58 -283zM438 -31q-182 0 -274 133t-92 343t117 354q118 143 303 143q127 0 213 -91t110 -278q57 199 129 349l205 20q-201 -338 -289 -569q48 -168 104 -242
q76 -102 212 -102v-41q-221 -40 -284 1q-32 19 -54 85t-47 178q-53 -129 -143 -206t-210 -77z" />
    <glyph glyph-name="beta" unicode="&#x3b2;" horiz-adv-x="1050" 
d="M530 59q115 0 193 78t78 221q0 358 -402 328v68q326 16 326 297q0 119 -54 185t-151 67q-215 0 -215 -291v-906q110 -47 225 -47zM133 -8v928q0 231 115 352t292 121t275 -87t98 -215t-86 -215t-206 -131q162 -16 265 -109t103 -262t-120 -287t-304 -118q-147 0 -260 64
v-33q0 -278 23 -432l-181 -33q-14 229 -14 457z" />
    <glyph glyph-name="gamma" unicode="&#x3b3;" horiz-adv-x="972" 
d="M389 -98q0 164 -73 415q-73 250 -169 420q-35 59 -74 83q-40 24 -114 26v39q143 35 203 35t91 -27q30 -27 80 -129t107 -282q57 -181 82 -326q160 330 234 755l200 31q-76 -190 -216 -494t-201 -452q12 -283 12 -416l-178 -39q16 197 16 361z" />
    <glyph glyph-name="delta" unicode="&#x3b4;" horiz-adv-x="1011" 
d="M250 388q0 -157 66 -245t182 -88q114 0 184 87t70 209t-70 220t-190 201l-27 23q-111 -63 -163 -157t-52 -250zM550 1368q152 0 275 -41q8 -98 9 -162q-203 111 -357 111t-153 -90q0 -82 229 -242q387 -272 387 -524q0 -201 -128 -326t-316 -125t-309 114
q-120 114 -119 294q0 313 344 459q-105 87 -147 133q-70 76 -70 174q0 97 102 161q101 64 253 64z" />
    <glyph glyph-name="epsilon" unicode="&#x3b5;" horiz-adv-x="872" 
d="M260 255q0 -97 74 -149t201 -51q128 0 256 66l20 -60q-145 -92 -331 -92t-297 67q-112 67 -111 206q0 88 62 152t161 89q-199 53 -199 219q0 106 110 172t281 66q81 0 137 -12q57 -12 154 -33q0 -176 6 -250h-41q-39 217 -247 217q-100 0 -160 -46t-62 -129
q0 -83 70 -130t195 -47h108v-64h-108q-121 0 -200 -47t-79 -144z" />
    <glyph glyph-name="zeta" unicode="&#x3b6;" horiz-adv-x="815" 
d="M778 24q23 -38 23 -90q-1 -52 -17 -87q-16 -36 -29 -70t-68 -118q-55 -85 -64 -103h-66q92 184 92 269t-51 123t-176 74t-173 54q-135 51 -171 140q-20 52 -21 128q-1 216 185 488t452 434q-375 -49 -506 -64q-16 109 -32 152q529 -24 684 2v-49q-262 -185 -434 -437
t-173 -454q-1 -96 51 -146t168 -85q116 -36 156 -51q41 -15 94 -44q53 -28 76 -66z" />
    <glyph glyph-name="eta" unicode="&#x3b7;" horiz-adv-x="1036" 
d="M750 573q0 152 -41 202t-119 50q-139 0 -254 -137v-258q0 -92 6 -412l-176 -38l-2 442v315q0 61 -35 81t-123 26v39q136 37 206 37t93 -31t25 -105q61 70 146 114t169 44q152 0 227 -102q42 -55 49 -164q1 -31 1 -98v-592q0 -92 6 -412l-176 -39l-2 442v596z" />
    <glyph glyph-name="theta" unicode="&#x3b8;" horiz-adv-x="972" 
d="M488 1307q-62 1 -109 -61t-82 -197t-43 -314h463q-4 170 -49 351q-25 97 -71 159q-47 62 -109 62zM484 55q163 0 221 419q12 87 14 167h-465q4 -177 37 -316q63 -270 193 -270zM903 650q0 -156 -40 -311t-137 -263q-96 -108 -240 -107q-144 0 -241 109q-175 197 -175 592
t184 607q100 116 238 116q108 0 190 -66t129 -174q92 -213 92 -503z" />
    <glyph glyph-name="iota" unicode="&#x3b9;" horiz-adv-x="534" 
d="M326 483v-311q0 -55 19 -79q19 -23 63 -23t92 18v-43q-92 -68 -191 -68q-162 0 -162 146v352q0 295 -8 428l193 39q-6 -137 -6 -459z" />
    <glyph glyph-name="kappa" unicode="&#x3ba;" horiz-adv-x="1056" 
d="M342 797v-381q45 78 92 145l41 60q102 151 217 231t221 80q39 0 76 -8q-10 -55 -18 -152q-33 8 -120 8t-162 -40t-142 -140q201 -328 289 -433t144 -111t77 -5v-41q-123 -33 -185 -33q-62 -1 -94 13q-33 14 -49 29t-58 69t-229 354q-66 -94 -100 -184q2 -66 12 -240
l-192 -38q2 133 2 442v315q0 61 -35 81t-123 26v39q137 37 209 37q71 0 99 -26t28 -97z" />
    <glyph glyph-name="lambda" unicode="&#x3bb;" horiz-adv-x="1083" 
d="M1081 31v-41q-255 -50 -303 24q-29 45 -112 338l-97 336l-329 -688q-94 -4 -199 -14l463 932l-35 120q-57 207 -348 207q-12 88 -37 148q188 1 299 -65t166 -261l194 -670q53 -184 105 -255q80 -111 233 -111z" />
    <glyph glyph-name="mu" unicode="&#x3bc;" horiz-adv-x="1079" 
d="M133 109v366q0 295 -8 428l188 39q-6 -137 -6 -459v-176q0 -117 40 -171t145 -54q135 0 231 141v252q0 295 -8 428l192 39q-6 -137 -6 -459v-311q-1 -55 19 -79q20 -23 64 -23t91 18v-43q-92 -68 -190 -68q-137 1 -160 140q-119 -147 -253 -147t-187 110q6 -252 16 -506
l-174 -39q6 260 6 574z" />
    <glyph glyph-name="nu" unicode="&#x3bd;" horiz-adv-x="921" 
d="M161 920q56 0 88 -24t60 -93q84 -201 219 -615q201 319 201 578q0 72 -16 143l190 33v-10q0 -318 -414 -932h-88q-125 412 -270 737q-27 59 -70 83t-120 28v39q164 33 220 33z" />
    <glyph glyph-name="xi" unicode="&#x3be;" horiz-adv-x="772" 
d="M768 -53q0 -91 -84 -238q-29 -49 -94 -153h-66q92 184 92 272t-51 123t-166 67t-161 50q-130 56 -168 136q-25 50 -25 115q0 111 96 212t295 157q-137 24 -222 90t-85 160t91 176t257 141q-172 -27 -399 -53q-14 96 -33 152q533 -24 684 2v-56q-173 -61 -239 -96
q-66 -34 -101 -66q-82 -74 -82 -170q-1 -94 99 -156t282 -67v-57q-248 -39 -353 -123t-106 -188q0 -72 44 -120q45 -48 141 -78t178 -57t112 -55q64 -62 64 -120z" />
    <glyph glyph-name="omicron" unicode="&#x3bf;" horiz-adv-x="1024" 
d="M764 455q0 71 -11 135t-37 127t-78 101t-135 38t-143 -69q-98 -111 -100 -319q-1 -154 48 -273q26 -63 78 -101t124 -39q193 0 242 266q12 64 12 134zM952 453q0 -211 -118 -348q-119 -136 -324 -136t-322 136q-116 135 -116 347t118 351q119 139 324 139q206 0 322 -139
t116 -350z" />
    <glyph glyph-name="pi" unicode="&#x3c0;" horiz-adv-x="1212" 
d="M342 909h627q90 -1 136 13t85 49l22 -19l-51 -78q-76 -115 -192 -114h-64q-10 -332 -10 -537q0 -83 19 -113t77 -30t135 78l37 -54q-127 -137 -278 -135q-90 2 -131 49q-41 46 -41 178t59 564h-307q-12 -141 -36 -393t-34 -363l-196 -18q20 145 141 772l-115 -2
q-119 -2 -209 -90l-24 28q100 131 165 173t185 42z" />
    <glyph glyph-name="rho" unicode="&#x3c1;" horiz-adv-x="1040" 
d="M307 0q0 -279 23 -432l-183 -33q-14 229 -14 457v510q0 216 112 328t300 112t303 -129t115 -348q0 -278 -186 -418q-101 -78 -239 -78t-231 76v-45zM774 464q0 179 -66 278q-67 99 -178 100q-223 0 -223 -248v-451q86 -71 207 -71t191 106q69 107 69 286z" />
    <glyph glyph-name="sigma1" unicode="&#x3c2;" horiz-adv-x="860" 
d="M72 463q0 211 137 345t336 134q57 0 149 -13t103 -14q0 -59 10 -288h-45q-10 103 -63 167t-169 64t-193 -93t-77 -245t58 -244t203 -156t202 -107q57 -44 57 -111q0 -94 -172 -346h-65q84 168 84 243t-69 118q-40 26 -175 85q-311 129 -311 461z" />
    <glyph glyph-name="sigma" unicode="&#x3c3;" horiz-adv-x="1099" 
d="M768 406q0 246 -170 360h-45q-143 0 -222 -98t-79 -251t73 -257t195 -104t186 94q62 96 62 256zM854 766h-143q238 -150 237 -369q0 -180 -122 -304t-326 -124t-316 135t-112 349t142 335t384 121h258q90 -1 136 13t85 49l23 -19l-51 -78q-43 -64 -85 -86t-110 -22z" />
    <glyph glyph-name="tau" unicode="&#x3c4;" horiz-adv-x="995" 
d="M553 223q0 -83 19 -113t77 -30t135 78l37 -54q-127 -137 -278 -135q-90 2 -131 49t-41 158q0 191 61 586l-209 -2q-69 -2 -111 -20t-94 -68l-26 26q86 121 156 166q71 45 192 45l405 -2q162 0 224 62l26 -17l-47 -71q-47 -72 -84 -96t-121 -23h-180q-10 -332 -10 -539z
" />
    <glyph glyph-name="upsilon" unicode="&#x3c5;" horiz-adv-x="978" 
d="M215 920q69 0 99 -26t30 -97l-20 -396q0 -334 217 -333q119 0 189 104t71 274q0 268 -139 469l184 27q80 -215 80 -416t-110 -373q-52 -81 -139 -133t-194 -51q-338 0 -338 398l21 370q0 61 -35 81t-123 26v39q137 37 207 37z" />
    <glyph glyph-name="phi" unicode="&#x3c6;" horiz-adv-x="1382" 
d="M258 453q0 -162 92 -270t266 -126l-14 795q-162 -25 -253 -131t-91 -268zM1124 455q0 164 -94 270t-266 127l-2 -795q170 20 266 127t96 271zM1313 469q0 -189 -151 -333t-400 -163v-405l-135 -25l-9 430q-262 17 -405 149t-143 317t139 329t391 170l-8 416l174 24
l-2 -438q250 -20 400 -152t149 -319z" />
    <glyph glyph-name="chi" unicode="&#x3c7;" horiz-adv-x="958" 
d="M-59 856v41q113 23 199 23t115 -42q30 -42 122 -288l76 -205q25 43 131 242t166 295l204 20q-244 -352 -442 -713l94 -239q72 -182 126 -258q82 -115 226 -115v-41q-112 -22 -190 -22t-106 48t-140 349l-69 186q-100 -184 -289 -575l-191 -19q66 123 416 750l-76 190
q-76 189 -133 265t-134 92t-105 16z" />
    <glyph glyph-name="psi" unicode="&#x3c8;" horiz-adv-x="1345" 
d="M1149 489q0 221 -123 420l176 33q72 -176 72 -386t-122 -377t-353 -202v-409l-135 -25l-9 426q-260 10 -383 136t-122 329l16 303q0 61 -35 81t-123 26v39q137 37 207 37q69 0 99 -27t30 -96l-16 -334q0 -365 325 -402l-24 1293l174 24l-4 -1317q170 21 260 141t90 287z
" />
    <glyph glyph-name="omega" unicode="&#x3c9;" horiz-adv-x="1488" 
d="M1421 410q0 -190 -107 -316q-108 -125 -280 -125q-217 0 -291 199h-4q-41 -86 -115 -142t-167 -57q-180 0 -285 124q-104 124 -104 317q0 279 299 524l71 -21q-182 -229 -182 -483q0 -172 61 -269t151 -97t143 79q55 79 55 205t-19 273l191 20q-12 -133 -12 -273t50 -222
t143 -83t153 99t61 278q0 264 -182 473l67 21q137 -96 220 -242t83 -282z" />
    <glyph glyph-name="iotadieresis" unicode="&#x3ca;" horiz-adv-x="534" 
d="M170 1182q0 -39 -29 -68t-67 -29t-69 29q-30 29 -30 68q0 38 29 66t69 28q41 0 69 -28t28 -66zM487 1182q1 -39 -29 -68t-69 -29t-67 29t-29 68q0 38 29 66q28 28 68 28t68 -28t29 -66zM326 483v-311q0 -55 19 -79q19 -23 63 -23t92 18v-43q-92 -68 -191 -68
q-162 0 -162 146v352q0 295 -8 428l193 39q-6 -137 -6 -459z" />
    <glyph glyph-name="upsilondieresis" unicode="&#x3cb;" horiz-adv-x="978" 
d="M463 1182q0 -39 -29 -68q-30 -29 -68 -29t-68 29t-30 68q0 38 29 66t69 28t68 -28t29 -66zM780 1182q0 -39 -30 -68t-68 -29q-39 0 -68 29t-28 68q0 38 28 66t69 28t69 -28t28 -66zM215 920q69 0 99 -26t30 -97l-20 -396q0 -334 217 -333q119 0 189 104t71 274
q0 268 -139 469l184 27q80 -215 80 -416t-110 -373q-52 -81 -139 -133t-194 -51q-338 0 -338 398l21 370q0 61 -35 81t-123 26v39q137 37 207 37z" />
    <glyph glyph-name="omicrontonos" unicode="&#x3cc;" horiz-adv-x="1024" 
d="M608 1407h125l15 -16l-234 -390l-33 13l80 346q10 47 47 47zM764 455q0 71 -11 135t-37 127t-78 101t-135 38t-143 -69q-98 -111 -100 -319q-1 -154 48 -273q26 -63 78 -101t124 -39q193 0 242 266q12 64 12 134zM952 453q0 -211 -118 -348q-119 -136 -324 -136t-322 136
q-116 135 -116 347t118 351q119 139 324 139q206 0 322 -139t116 -350z" />
    <glyph glyph-name="upsilontonos" unicode="&#x3cd;" horiz-adv-x="978" 
d="M596 1407h125l14 -16l-233 -390l-33 13l80 346q10 47 47 47zM215 920q69 0 99 -26t30 -97l-20 -396q0 -334 217 -333q119 0 189 104t71 274q0 268 -139 469l184 27q80 -215 80 -416t-110 -373q-52 -81 -139 -133t-194 -51q-338 0 -338 398l21 370q0 61 -35 81t-123 26v39
q137 37 207 37z" />
    <glyph glyph-name="omegatonos" unicode="&#x3ce;" horiz-adv-x="1488" 
d="M838 1407h125l14 -16l-234 -390l-32 13l80 346q10 47 47 47zM1421 410q0 -190 -107 -316q-108 -125 -280 -125q-217 0 -291 199h-4q-41 -86 -115 -142t-167 -57q-180 0 -285 124q-104 124 -104 317q0 279 299 524l71 -21q-182 -229 -182 -483q0 -172 61 -269t151 -97
t143 79q55 79 55 205t-19 273l191 20q-12 -133 -12 -273t50 -222t143 -83t153 99t61 278q0 264 -182 473l67 21q137 -96 220 -242t83 -282z" />
    <glyph glyph-name="uni03D0" unicode="&#x3d0;" horiz-adv-x="993" 
d="M545 1305q-123 1 -201 -145t-86 -449l72 28q358 141 358 389q0 90 -41 134t-102 43zM524 55q98 -1 160 95t64 237q0 303 -246 303q-96 0 -244 -74q2 -258 68 -410t198 -151zM508 -31q-219 1 -329 183q-109 182 -109 496t131 529q131 216 368 216q133 0 221 -74t87 -192
t-95 -211t-213 -146q163 -6 265 -106t102 -268t-128 -298q-128 -129 -300 -129z" />
    <glyph glyph-name="theta1" unicode="&#x3d1;" horiz-adv-x="995" 
d="M522 770q114 0 217 59q-35 479 -262 480q-90 0 -151 -71q-62 -72 -62 -188t72 -198t186 -82zM324 450q0 -78 -5 -153q0 -242 189 -242q238 0 237 570q0 45 -4 131q-129 -82 -285 -82t-266 94q-108 94 -108 250t120 266t287 111q199 0 318 -175t119 -532q0 -272 -93 -484
q-103 -234 -371 -234q-142 0 -231 79q-88 80 -88 227l2 125q0 63 -25 81q-26 17 -110 22v39q116 37 188 37t99 -26t27 -104z" />
    <glyph glyph-name="phi1" unicode="&#x3d5;" horiz-adv-x="1390" 
d="M776 621v-568q180 20 270 135q89 115 89 286t-68 269t-149 99q-142 0 -142 -221zM602 463q0 479 326 479q160 0 278 -124t117 -327q0 -205 -135 -351t-412 -167q0 -254 15 -405l-183 -33q-6 197 -6 438q-231 21 -383 143t-151 343q0 168 102 293t276 194l60 -45
q-250 -129 -250 -438q0 -171 92 -277t254 -131v408z" />
    <glyph glyph-name="uni0400" unicode="&#x400;" horiz-adv-x="1116" 
d="M466 1667q14 0 36 -20l246 -248l-19 -23l-360 187v20l69 70q14 14 28 14zM225 1128q0 53 -29 75q-30 22 -110 36v41h889q4 -164 22 -303h-49q-27 133 -84 174q-74 53 -258 51q-45 2 -192 -4v-500h139q211 0 250 15l-10 -105q-49 12 -240 13h-139v-459q0 -50 42 -66
t165 -16q223 0 282 42t90 179h41q-12 -139 -12 -301h-928v41l131 41v1046z" />
    <glyph glyph-name="afii10023" unicode="&#x401;" horiz-adv-x="1116" 
d="M496 1552q0 -40 -29 -68t-68 -28t-69 29t-29 67q0 38 29 67q28 28 68 28t69 -28t29 -67zM813 1552q0 -40 -30 -68q-31 -28 -69 -28t-67 29t-29 67t29 67q29 28 69 28t68 -28t29 -67zM225 1128q0 53 -29 75q-30 22 -110 36v41h889q4 -164 22 -303h-49q-27 133 -84 174
q-74 53 -258 51q-45 2 -192 -4v-500h139q211 0 250 15l-10 -105q-49 12 -240 13h-139v-459q0 -50 42 -66t165 -16q223 0 282 42t90 179h41q-12 -139 -12 -301h-928v41l131 41v1046z" />
    <glyph glyph-name="afii10051" unicode="&#x402;" horiz-adv-x="1452" 
d="M485 1202h-110q-162 0 -213 -51q-35 -35 -76 -174h-45q14 244 14 303h1045q0 -59 14 -303h-45q-41 139 -76 174q-51 51 -213 51h-106v-565q164 129 307 129t245 -111t103 -291q0 -180 -116 -336q-116 -155 -365 -329l-43 47q176 162 259 302t83 292q1 152 -63 230
q-64 77 -174 77t-236 -90v-401q0 -76 57 -95q33 -10 80 -20v-41l-221 6l-236 -6v41l131 41v1120z" />
    <glyph glyph-name="afii10052" unicode="&#x403;" horiz-adv-x="1019" 
d="M674 1667q14 0 28 -14l70 -70v-20l-360 -187l-19 23l246 248q21 20 35 20zM225 1128q0 53 -29 75q-30 22 -110 36v41h877q6 -227 18 -322h-49q-29 147 -98 195q-70 47 -209 47t-211 -4v-1040q0 -74 61 -90t121 -23v-43l-268 6l-234 -6v41l131 41v1046z" />
    <glyph glyph-name="afii10053" unicode="&#x404;" horiz-adv-x="1193" 
d="M694 -31q-283 0 -432 150q-176 176 -176 524q0 301 163 484t437 184q123 -1 223 -19t127 -20q18 -315 21 -336h-47q-43 287 -312 287q-192 -1 -290 -147t-109 -380h121q426 0 454 11l-10 -103q-41 10 -444 10h-121q10 -557 414 -557q280 0 325 301h45q-14 -156 -18 -338
q-255 -51 -371 -51z" />
    <glyph glyph-name="afii10054" unicode="&#x405;" horiz-adv-x="1032" 
d="M143 328h47q14 -127 88 -201t190 -74t184 70t67 167q1 98 -59 160t-145 107t-171 94t-145 132t-59 212t115 223q116 94 292 93q57 1 163 -13t132 -16q0 -135 18 -305h-51q-14 117 -82 183t-168 65q-100 1 -169 -57q-68 -58 -68 -146t60 -148t146 -106q86 -45 171 -95
t145 -137t61 -204q-1 -152 -115 -257t-304 -105t-343 53v305z" />
    <glyph glyph-name="afii10055" unicode="&#x406;" horiz-adv-x="649" 
d="M420 156q0 -76 57 -95q33 -10 80 -20v-41l-223 6l-234 -6v41l131 41v1038q0 78 -54 96t-85 23v41l219 -6l234 6v-41l-125 -43v-1040z" />
    <glyph glyph-name="afii10056" unicode="&#x407;" horiz-adv-x="649" 
d="M262 1552q0 -40 -29 -68t-67 -28t-69 29q-29 29 -29 67t28 67q29 28 69 28q41 0 69 -28t28 -67zM580 1552q0 -40 -30 -68t-69 -28t-67 29t-29 67q0 38 29 67q28 28 68 28t69 -28t29 -67zM420 156q0 -76 57 -95q33 -10 80 -20v-41l-223 6l-234 -6v41l131 41v1038
q0 78 -54 96t-85 23v41l219 -6l234 6v-41l-125 -43v-1040z" />
    <glyph glyph-name="afii10057" unicode="&#x408;" horiz-adv-x="620" 
d="M412 174q0 -390 -188 -529q-81 -60 -204 -89l-20 59q127 53 175 178t48 371v956q0 71 -39 89t-100 30v41l219 -6l234 6v-41l-125 -43v-1022z" />
    <glyph glyph-name="afii10058" unicode="&#x409;" horiz-adv-x="1810" 
d="M1079 164q0 -48 36 -66t145 -18q260 0 260 295q0 151 -68 217t-217 65q-84 0 -156 -16v-477zM793 1200h-258v-123q0 -350 -56 -620q-94 -467 -301 -467q-39 0 -96 4l-74 6v41l39 12q264 84 346 522q37 199 37 496v53q0 50 -26 70t-125 45v41h925v-41l-125 -43v-477
q80 20 189 20q221 0 341 -95t120 -264q0 -168 -105 -274t-332 -106h-532v41l131 41v1051q1 43 -17 55t-81 12z" />
    <glyph glyph-name="afii10059" unicode="&#x40a;" horiz-adv-x="1908" 
d="M1174 612v-448q0 -49 37 -67q38 -17 147 -17q260 0 260 274q0 121 -57 185q-70 74 -277 73h-110zM1174 700h157q285 0 400 -108q96 -92 96 -240t-90 -237q-115 -115 -351 -115h-532v41l131 41v530h-571v-456q0 -76 57 -95q33 -10 80 -20v-41l-223 6l-234 -6v41l131 41
v1038q0 78 -54 96t-85 23v41l219 -6l234 6v-41l-125 -43v-496h571v420q0 78 -54 96t-85 23v41l219 -6l233 6v-41l-124 -43v-496z" />
    <glyph glyph-name="afii10060" unicode="&#x40b;" horiz-adv-x="1470" 
d="M485 1202h-110q-162 0 -213 -51q-35 -35 -76 -174h-45q14 244 14 303h1049q0 -59 14 -303h-45q-41 139 -76 174q-51 51 -213 51h-110v-557q68 55 154 90t161 35q162 0 246 -88t84 -236v-286q0 -78 57 -97l82 -22v-41l-219 6l-233 -6v41l124 43v360q0 100 -44 152t-161 53
q-118 0 -251 -94v-399q0 -76 57 -95q33 -10 80 -20v-41l-221 6l-236 -6v41l131 41v1120z" />
    <glyph glyph-name="afii10061" unicode="&#x40c;" horiz-adv-x="1261" 
d="M830 1628q14 0 30 -16l66 -66v-20l-398 -162l-12 25l277 221q23 18 37 18zM223 1124q0 76 -57 95q-33 10 -80 20v41l225 -6l232 6v-41l-131 -41v-508h110q86 0 119 32t78 146l164 412h307v-41q-94 -4 -136 -38t-118 -171l-109 -199q-72 -129 -118 -165q61 -20 103 -66
t93 -149l94 -187q66 -129 103 -163t139 -60v-41h-348q-12 78 -82 219l-84 170q-78 154 -116 189t-138 34h-61v-456q0 -76 57 -95q33 -10 80 -20v-41l-221 6l-236 -6v41l131 41v1042z" />
    <glyph glyph-name="uni040D" unicode="&#x40d;" horiz-adv-x="1458" 
d="M620 1618q14 0 37 -19l277 -221l-12 -24l-398 162v20l66 66q16 16 30 16zM1047 1280h313v-41l-125 -43v-1040q0 -76 57 -95q33 -10 80 -20v-41l-223 6l-234 -6v41l132 41v926l-578 -811q-37 -51 -46 -78t-9 -76v-43h-320v41l131 41v1038q0 78 -57 97l-82 22v41l219 -6
l234 6v-41l-125 -43v-928l577 811q37 51 46 78t10 76v47z" />
    <glyph glyph-name="afii10062" unicode="&#x40e;" horiz-adv-x="1161" 
d="M651 1384q-107 0 -165 58t-58 164h45q10 -109 178 -109t178 109h45q0 -106 -58 -164t-165 -58zM358 -14q-47 0 -139 10l-37 4v41l43 10q121 29 199 95t141 192l-391 792q-27 55 -62 76q-36 20 -116 37v37q92 -6 210 -6t247 6v-37l-115 -33l317 -671l291 671l-121 31v39
q129 -6 193 -6l172 6v-39q-84 -10 -115 -32t-63 -95l-295 -678q-127 -294 -189 -372t-170 -78z" />
    <glyph glyph-name="afii10145" unicode="&#x40f;" horiz-adv-x="1382" 
d="M1159 156q0 -76 58 -95q33 -10 79 -20v-41h-471q-47 0 -61 -49q-23 -78 -47 -260h-49q-25 183 -40 237q-16 54 -32 63t-53 9h-449v41l131 41v1038q0 78 -57 97l-82 22v41l219 -6l234 6v-41l-125 -43v-1116h557v1040q0 78 -58 97l-82 22v41l220 -6l233 6v-41l-125 -43
v-1040z" />
    <glyph glyph-name="afii10017" unicode="&#x410;" horiz-adv-x="1292" 
d="M766 535l-170 436l-166 -436h336zM233 6l-217 -6v41l136 41l462 1198h60l436 -1124q18 -44 36 -64t54 -31l68 -20v-41l-230 6l-239 -6v41l141 41l-145 377h-392l-118 -307q-8 -25 -9 -37q0 -50 148 -74v-41z" />
    <glyph glyph-name="afii10018" unicode="&#x411;" horiz-adv-x="1175" 
d="M602 739q223 0 345 -95t122 -264q-1 -168 -105 -274t-331 -106h-539v41l131 41v1046q0 53 -29 75q-30 22 -110 36v41h887q8 -264 12 -303h-49q-33 147 -92 185q-58 38 -208 38t-222 -4v-477q80 20 188 20zM414 164q0 -48 39 -66t147 -18q260 0 260 295q0 147 -69 215
q-70 68 -222 67q-83 0 -155 -16v-477z" />
    <glyph glyph-name="afii10019" unicode="&#x412;" horiz-adv-x="1138" 
d="M541 731q125 0 189 68q64 67 65 177t-57 168t-216 58h-108v-471h127zM414 649v-485q0 -48 35 -66t149 -18t184 72t70 212t-74 212t-264 73h-100zM86 1280h481q250 0 351 -98q72 -68 72 -178t-63 -189q-62 -78 -177 -113q147 -30 229 -116t82 -230t-106 -250t-332 -106
h-529v41l131 41v1036q0 59 -30 83q-31 24 -109 38v41z" />
    <glyph glyph-name="afii10020" unicode="&#x413;" horiz-adv-x="1019" 
d="M225 1128q0 53 -29 75q-30 22 -110 36v41h877q6 -227 18 -322h-49q-29 147 -98 195q-70 47 -209 47t-211 -4v-1040q0 -74 61 -90t121 -23v-43l-268 6l-234 -6v41l131 41v1046z" />
    <glyph glyph-name="afii10021" unicode="&#x414;" horiz-adv-x="1329" 
d="M885 80v1053q1 43 -17 55t-82 12h-270v-194q0 -369 -72 -596q-53 -174 -151 -330h592zM987 0h-678q-78 0 -118 -16q-92 -37 -121 -287h-50v375l9 10h71q45 0 67 9t40 40q102 186 150 388t49 489v116q0 49 -31 72t-131 43v41h954v-41l-129 -49v-1110h209l6 -8
q-8 -125 -8 -377h-49q-29 245 -122 288q-40 17 -118 17z" />
    <glyph glyph-name="afii10022" unicode="&#x415;" horiz-adv-x="1116" 
d="M225 1128q0 53 -29 75q-30 22 -110 36v41h889q4 -164 22 -303h-49q-27 133 -84 174q-74 53 -258 51q-45 2 -192 -4v-500h139q211 0 250 15l-10 -105q-49 12 -240 13h-139v-459q0 -50 42 -66t165 -16q223 0 282 42t90 179h41q-12 -139 -12 -301h-928v41l131 41v1046z" />
    <glyph glyph-name="afii10024" unicode="&#x416;" horiz-adv-x="1904" 
d="M860 612h-55q-100 0 -141 -36t-117 -187l-84 -170q-70 -141 -82 -219h-340v41q102 27 139 61t103 162l94 187q51 102 93 148t103 67q-51 41 -118 165l-109 199q-76 137 -118 171t-136 38v41h242q43 0 57 -9t29 -44l143 -359q45 -114 78 -146t119 -32h100v434q0 76 -57 95
q-33 10 -80 20v41l221 -6l232 6v-41l-132 -41v-508h101q86 0 119 32t77 146l144 359q14 35 28 44t58 9h241v-41q-94 -4 -136 -38t-117 -171l-109 -199q-72 -129 -119 -165q61 -20 103 -66t94 -149l94 -187q66 -129 102 -163t140 -60v-41h-340q-12 78 -82 219l-84 170
q-76 152 -117 188t-141 35h-56v-456q0 -76 58 -95q33 -10 80 -20v-41l-221 6l-232 -6v41l131 41v530z" />
    <glyph glyph-name="afii10025" unicode="&#x417;" horiz-adv-x="1044" 
d="M462 55q134 0 210 79t76 223t-76 212t-258 68h-27v76h25q137 1 215 71t78 191t-66 185q-65 64 -181 65t-184 -59t-98 -201h-43q10 170 10 292q227 53 330 54q205 0 315 -83t109 -235q0 -217 -256 -297q313 -55 313 -344q0 -176 -124 -279t-355 -104q-119 0 -360 58
q-1 29 -9 299h44q22 -125 100 -198t212 -73z" />
    <glyph glyph-name="afii10026" unicode="&#x418;" horiz-adv-x="1458" 
d="M1047 1280h313v-41l-125 -43v-1040q0 -76 57 -95q33 -10 80 -20v-41l-223 6l-234 -6v41l132 41v926l-578 -811q-37 -51 -46 -78t-9 -76v-43h-320v41l131 41v1038q0 78 -57 97l-82 22v41l219 -6l234 6v-41l-125 -43v-928l577 811q37 51 46 78t10 76v47z" />
    <glyph glyph-name="afii10027" unicode="&#x419;" horiz-adv-x="1458" 
d="M756 1384q-106 0 -164 58t-60 164h46q10 -109 178 -109t178 109h45q-1 -106 -59 -164t-164 -58zM1047 1280h313v-41l-125 -43v-1040q0 -76 57 -95q33 -10 80 -20v-41l-223 6l-234 -6v41l132 41v926l-578 -811q-37 -51 -46 -78t-9 -76v-43h-320v41l131 41v1038
q0 78 -57 97l-82 22v41l219 -6l234 6v-41l-125 -43v-928l577 811q37 51 46 78t10 76v47z" />
    <glyph glyph-name="afii10028" unicode="&#x41a;" horiz-adv-x="1271" 
d="M223 1124q0 76 -57 95q-33 10 -80 20v41l225 -6l232 6v-41l-131 -41v-508h118q86 0 118 32t79 146l166 412h313v-41q-98 -8 -145 -43t-117 -166l-108 -199q-72 -129 -119 -165q61 -20 103 -66t93 -149l95 -187q66 -127 104 -162t139 -61v-41h-346q-12 78 -82 219l-84 170
q-76 152 -116 188q-41 36 -142 35h-69v-456q0 -76 57 -95q33 -10 80 -20v-41l-221 6l-236 -6v41l131 41v1042z" />
    <glyph glyph-name="afii10029" unicode="&#x41b;" horiz-adv-x="1325" 
d="M913 1133q0 43 -17 55t-81 12h-276v-123q0 -350 -56 -620q-94 -467 -301 -467q-39 0 -96 4l-78 6v41l39 12q264 84 346 522q37 199 37 496v53q0 50 -26 70t-125 45v41h948v-41l-125 -43v-1040q0 -76 57 -95q33 -10 80 -20v-41l-217 6l-240 -6v41l131 41v1051z" />
    <glyph glyph-name="afii10030" unicode="&#x41c;" horiz-adv-x="1716" 
d="M225 1120q0 72 -63 97q-35 14 -76 22v41h340l434 -985l440 985h318v-41l-125 -43v-1040q0 -76 57 -95q33 -10 80 -20v-41l-223 6l-229 -6v41l127 41v954l-463 -1044h-45l-463 1042v-878q0 -78 61 -95l76 -20v-41l-184 6l-193 -6v41l131 41v1038z" />
    <glyph glyph-name="afii10031" unicode="&#x41d;" horiz-adv-x="1445" 
d="M1223 156q0 -76 57 -95q33 -10 80 -20v-41l-217 6l-240 -6v41l131 41v530h-620v-456q0 -76 57 -95q33 -10 80 -20v-41l-223 6l-234 -6v41l131 41v1038q0 78 -54 96t-85 23v41l219 -6l234 6v-41l-125 -43v-496h620v420q0 78 -54 96t-85 23v41l219 -6l234 6v-41l-125 -43
v-1040z" />
    <glyph glyph-name="afii10032" unicode="&#x41e;" horiz-adv-x="1282" 
d="M987 641q0 195 -66 369q-36 94 -108 152t-170 58t-171 -58q-72 -58 -108 -152q-68 -181 -69 -372q0 -191 66 -367q36 -95 108 -153t170 -58t171 58q120 97 161 339q16 92 16 184zM1200 641q0 -279 -146 -475t-414 -197q-268 0 -414 197q-144 198 -144 476t146 474
t414 195q268 1 414 -195q144 -196 144 -475z" />
    <glyph glyph-name="afii10033" unicode="&#x41f;" horiz-adv-x="1398" 
d="M229 1118q0 80 -57 96l-86 25v41h1221v-41l-131 -45v-1038q0 -76 57 -95q33 -10 80 -20v-41l-217 6l-240 -6v41l131 41v1118h-569v-1044q0 -76 57 -95q33 -10 80 -20v-41l-223 6l-234 -6v41l131 41v1036z" />
    <glyph glyph-name="afii10034" unicode="&#x420;" horiz-adv-x="1091" 
d="M225 1120q0 45 -11 58q-11 14 -15 19q-16 20 -61 30q-44 9 -52 12v41h434q139 0 223 -23q133 -35 207 -123t74 -225q0 -169 -129 -277t-371 -108h-110v-370q0 -72 63 -93q16 -4 86 -20v-41l-235 6l-234 -6v41l131 41v1038zM479 604q334 0 334 305q0 141 -73 214t-240 73
h-86v-592h65z" />
    <glyph glyph-name="afii10035" unicode="&#x421;" horiz-adv-x="1171" 
d="M643 -31q-262 -1 -412 185q-149 186 -149 492t173 486t427 179q108 0 354 -41q16 -311 21 -334h-49q-23 145 -108 215t-206 70q-180 0 -290 -160t-110 -421q0 -262 112 -410q111 -148 280 -148q219 0 358 188l60 -45q-74 -117 -193 -187t-268 -69z" />
    <glyph glyph-name="afii10036" unicode="&#x422;" horiz-adv-x="1159" 
d="M485 1202h-110q-162 0 -213 -51q-35 -35 -76 -174h-45q14 244 14 303h1049q0 -59 14 -303h-45q-41 139 -76 174q-51 51 -213 51h-110v-1046q0 -76 57 -95q33 -10 80 -20v-41l-221 6l-236 -6v41l131 41v1120z" />
    <glyph glyph-name="afii10037" unicode="&#x423;" horiz-adv-x="1161" 
d="M358 -14q-47 0 -139 10l-37 4v41l43 10q121 29 199 95t141 192l-391 792q-27 55 -62 76q-36 20 -116 37v37q92 -6 210 -6t247 6v-37l-115 -33l317 -671l291 671l-121 31v39q129 -6 193 -6l172 6v-39q-84 -10 -115 -32t-63 -95l-295 -678q-127 -294 -189 -372t-170 -78z
" />
    <glyph glyph-name="afii10038" unicode="&#x424;" horiz-adv-x="1529" 
d="M1229 641q-1 183 -105 277t-270 102v-758q166 8 270 102t105 277zM301 641q0 -187 103 -279t272 -100v758q-168 -8 -272 -100q-103 -93 -103 -279zM1427 641q-1 -213 -157 -329t-416 -126v-30q0 -76 57 -95q33 -10 80 -20v-41l-217 6l-229 -6v41l131 41v104
q-260 10 -417 126t-157 329t157 329t417 124v26q0 78 -58 97l-81 22v41l215 -6l227 6v-41l-125 -43v-102q260 -8 416 -124t157 -329z" />
    <glyph glyph-name="afii10039" unicode="&#x425;" horiz-adv-x="1253" 
d="M1016 1274l127 4l28 2v-33q-88 -10 -129 -33t-77 -84l-263 -444l369 -539q53 -80 170 -110v-37l-27 2q-81 6 -176 6l-264 -8v37l119 33l-297 460l-289 -462l129 -33v-35l-207 8l-196 -8v35q96 19 137 39t70 65l297 475l-359 519q-63 90 -168 112v35l37 -2l174 -4l244 6
v-35l-111 -33l287 -438l266 445l-106 28v33l14 -2h41z" />
    <glyph glyph-name="afii10040" unicode="&#x426;" horiz-adv-x="1415" 
d="M1159 80h209l6 -8q-8 -125 -8 -377h-49q-29 246 -122 288q-40 17 -118 17h-983v41l131 41v1038q0 78 -54 96t-85 23v41l219 -6l234 6v-41l-125 -43v-1116h557v1040q-1 78 -55 96t-85 23v41l220 -6l233 6v-41l-125 -43v-1116z" />
    <glyph glyph-name="afii10041" unicode="&#x427;" horiz-adv-x="1222" 
d="M481 512q-162 0 -246 88t-83 236v284q0 78 -58 97l-82 22v41l219 -6l234 6v-41l-125 -43v-360q0 -100 44 -152t148 -53q141 0 279 117v372q0 78 -57 97l-82 22v41l219 -6l233 6v-41l-125 -43v-1040q0 -76 58 -95q33 -10 80 -20v-41l-217 6l-240 -6v41l131 41v571
q-72 -61 -162 -101t-168 -40z" />
    <glyph glyph-name="afii10042" unicode="&#x428;" horiz-adv-x="1873" 
d="M1651 156q0 -76 57 -95q33 -10 80 -20v-41h-1694v41l131 41v1038q0 78 -57 97l-82 22v41l219 -6l232 6v-41l-125 -43v-1116h434v1040q0 78 -58 97l-81 22v41l219 -6l231 6v-41l-125 -43v-1116h432v1040q0 78 -57 97l-82 22v41l219 -6l232 6v-41l-125 -43v-1040z" />
    <glyph glyph-name="afii10043" unicode="&#x429;" horiz-adv-x="1906" 
d="M1651 80h209l6 -8q-8 -125 -8 -377h-50q-29 245 -121 288q-40 17 -118 17h-1475v41l131 41v1038q0 78 -57 97l-82 22v41l219 -6l232 6v-41l-125 -43v-1116h434v1040q0 78 -58 97l-81 22v41l219 -6l231 6v-41l-125 -43v-1116h432v1040q0 78 -57 97l-82 22v41l219 -6l232 6
v-41l-125 -43v-1116z" />
    <glyph glyph-name="afii10044" unicode="&#x42a;" horiz-adv-x="1400" 
d="M670 164q0 -48 36 -66t144 -18q260 0 260 295q0 151 -68 217t-217 65q-83 0 -155 -16v-477zM481 1135q0 43 -17 55t-81 12h-25q-147 0 -200 -42t-84 -197h-49q4 51 12 317h758v-41l-125 -43v-477q80 20 188 20q221 0 341 -95t120 -264q-1 -168 -105 -274t-331 -106h-533
v41l131 41v1053z" />
    <glyph glyph-name="afii10045" unicode="&#x42b;" horiz-adv-x="1654" 
d="M600 782q217 0 342 -105t125 -279t-102 -277q-117 -121 -351 -121h-520v41l131 41v1038q0 78 -54 96t-85 23v41l219 -6l234 6v-41l-125 -43v-434q92 20 186 20zM1432 156q0 -76 57 -95q33 -10 80 -20v-41l-223 6l-234 -6v41l131 41v1038q0 78 -54 96t-85 23v41l219 -6
l233 6v-41l-124 -43v-1040zM414 164q0 -48 38 -66t146 -18q260 0 260 317q0 162 -72 233t-215 70q-85 0 -157 -16v-520z" />
    <glyph glyph-name="afii10046" unicode="&#x42c;" horiz-adv-x="1157" 
d="M602 782q217 0 345 -105t128 -279t-102 -277q-117 -121 -357 -121h-522v41l131 41v1038q0 78 -54 96t-85 23v41l219 -6l234 6v-41l-125 -43v-434q92 20 188 20zM414 164q0 -48 39 -66t147 -18q266 0 266 317q0 162 -72 233t-221 70q-87 0 -159 -16v-520z" />
    <glyph glyph-name="afii10047" unicode="&#x42d;" horiz-adv-x="1206" 
d="M498 57q399 0 409 557h-96q-403 0 -444 -10l-11 103q29 -10 455 -11h94q-6 219 -84 353q-102 174 -305 174q-283 0 -334 -293h-45q10 70 25 334q14 2 144 24t214 23q283 0 445 -191q155 -180 155 -481t-150 -485t-454 -185q-80 0 -230 27t-157 27q-4 179 -18 335h45
q24 -152 112 -226t230 -75z" />
    <glyph glyph-name="afii10048" unicode="&#x42e;" horiz-adv-x="1792" 
d="M1499 641q0 258 -80 419q-79 161 -243 161t-244 -161t-80 -419q0 -350 138 -501q75 -81 186 -81q112 0 186 81q138 149 137 501zM408 700h239q15 260 153 436t376 175q170 -1 292 -97q238 -187 238 -576q0 -390 -238 -572q-123 -96 -292 -97q-246 -1 -385 185t-146 458
h-237v-456q0 -76 57 -95q33 -10 80 -20v-41l-221 6l-230 -6v41l131 41v1038q0 78 -57 97l-82 22v41l215 -6l231 6v-41l-124 -43v-496z" />
    <glyph glyph-name="afii10049" unicode="&#x42f;" horiz-adv-x="1245" 
d="M834 557h-105q-100 0 -141 -35t-101 -168l-86 -192q-41 -92 -41 -162h-340v41q96 23 134 61q37 39 96 170l59 131q47 103 87 151t106 62q-137 39 -206 123t-69 195q0 158 101 242q121 104 411 104h408v-41l-125 -43v-1040q0 -76 57 -95q33 -10 80 -20v-41l-223 6l-234 -6
v41l132 41v475zM752 1196q-182 0 -248 -72t-66 -201q0 -130 84 -209t264 -79h48v561h-82z" />
    <glyph glyph-name="afii10065" unicode="&#x430;" horiz-adv-x="954" 
d="M604 496h-16q-141 0 -222 -60t-81 -164q0 -106 46 -156q47 -50 125 -50t148 65v365zM397 -31q-133 0 -216 75t-83 204q0 164 142 240t364 77v84q0 197 -159 197t-232 -195l-78 31q90 260 363 260q186 0 254 -135q31 -61 30 -219v-434q0 -86 64 -86q31 0 63 14v-43
q-63 -63 -163 -63t-128 85q-88 -92 -221 -92z" />
    <glyph glyph-name="afii10066" unicode="&#x431;" horiz-adv-x="1026" 
d="M524 803q-170 0 -219 -131q-27 -72 -26 -248q1 -369 243 -369t242 369q0 207 -59 293q-60 86 -181 86zM543 889q201 0 305 -128t104 -332t-116 -332t-324 -128q-206 1 -318 145t-112 421q0 436 168 612q109 113 332 129l131 10q81 6 109 22t48 62l37 -6
q-18 -135 -46 -178t-118 -53l-182 -21q-197 -23 -278 -111q-96 -102 -107 -364h2q119 252 365 252z" />
    <glyph glyph-name="afii10067" unicode="&#x432;" horiz-adv-x="976" 
d="M489 520q193 0 193 163q0 79 -42 119t-165 40h-110v-322h124zM729 266q0 98 -53 142t-189 45h-122v-310q1 -43 29 -58t124 -15q211 -1 211 196zM70 0v37l116 41v680q0 68 -53 92q-31 14 -65 22v37h469q193 0 268 -80q51 -55 51 -131q0 -139 -172 -198q227 -55 227 -238
q0 -106 -65 -170q-92 -92 -314 -92h-462z" />
    <glyph glyph-name="afii10068" unicode="&#x433;" horiz-adv-x="890" 
d="M68 909h761q0 -190 9 -280h-41q-25 119 -66 164t-133 45h-231v-686q0 -72 57 -93q35 -12 84 -22v-37q-106 6 -170 6t-266 -6v37l116 41v680q0 68 -53 92q-27 12 -67 22v37z" />
    <glyph glyph-name="afii10069" unicode="&#x434;" horiz-adv-x="1077" 
d="M688 838h-242q0 -301 -32 -454t-133 -312h407v766zM86 72q84 0 125 65q80 123 111 269t30 382q0 31 -9 46t-110 38v37h742v-37l-113 -41v-759h185l6 -9q-10 -111 -11 -311h-45q-20 158 -65 213q-31 35 -119 35h-561q-88 0 -119 -35q-43 -53 -63 -213h-45v311l6 9h55z" />
    <glyph glyph-name="afii10070" unicode="&#x435;" horiz-adv-x="921" 
d="M469 856q-88 0 -142 -82t-65 -213h395q-2 141 -51 218t-137 77zM72 466q0 208 111 342q112 134 282 134t270 -106t101 -291q0 -37 -2 -58h-576q0 -199 71 -304t197 -105q158 0 248 147l53 -47q-51 -92 -145 -150t-211 -59q-197 1 -298 145t-101 352z" />
    <glyph glyph-name="afii10072" unicode="&#x436;" horiz-adv-x="1495" 
d="M831 506h62q59 0 87 15t50 65l144 323h245v-37q-71 -8 -103 -32t-79 -99l-92 -151q-37 -63 -86 -103q65 -18 99 -51t67 -110l61 -138q35 -80 70 -110t106 -41v-37h-282q-6 49 -58 160l-75 162q-37 80 -71 100t-108 20h-37v-290q0 -74 54 -95q23 -8 65 -20v-37
q-106 6 -153 6t-250 -6v37l117 41v364h-37q-74 0 -108 -20t-70 -100l-76 -162q-51 -111 -58 -160h-282v37q73 12 107 42t69 109l61 138q33 78 67 110t99 51q-49 39 -86 103l-92 151q-47 74 -80 99t-102 32v37h246l143 -323q23 -49 50 -65q28 -15 87 -15h62v252q0 74 -54 94
q-23 8 -65 20v37q106 -6 153 -6t250 6v-37l-117 -41v-325z" />
    <glyph glyph-name="afii10073" unicode="&#x437;" horiz-adv-x="868" 
d="M377 446h-51v64h51q215 0 215 178q0 80 -47 127t-144 47t-155 -52t-80 -165h-41q6 74 6 250q12 1 102 23q90 21 181 22q162 0 254 -62t92 -171q0 -152 -193 -215q240 -49 240 -242q0 -111 -76 -180q-104 -98 -319 -99q-141 0 -310 52q0 145 -4 260h41q39 -231 264 -232
q100 0 159 52q58 52 59 155q0 188 -244 188z" />
    <glyph glyph-name="afii10074" unicode="&#x438;" horiz-adv-x="1210" 
d="M362 43v-43h-294v37l116 41v680q0 74 -53 94q-23 8 -65 20v37q106 -6 158 -6t255 6v-37l-117 -41v-604l422 510q41 49 53 73q11 24 11 69v30h295v-37l-117 -41v-679q0 -74 53 -95q23 -8 66 -20v-37q-109 6 -160 6t-254 -6v37l117 41v616l-422 -510q-40 -46 -52 -72
t-12 -69z" />
    <glyph glyph-name="afii10075" unicode="&#x439;" horiz-adv-x="1210" 
d="M621 1055q-104 0 -163 63q-58 63 -59 170h45q12 -121 176 -121t177 121h45q0 -106 -58 -170t-163 -63zM362 43v-43h-294v37l116 41v680q0 74 -53 94q-23 8 -65 20v37q106 -6 158 -6t255 6v-37l-117 -41v-604l422 510q41 49 53 73q11 24 11 69v30h295v-37l-117 -41v-679
q0 -74 53 -95q23 -8 66 -20v-37q-109 6 -160 6t-254 -6v37l117 41v616l-422 -510q-40 -46 -52 -72t-12 -69z" />
    <glyph glyph-name="afii10076" unicode="&#x43a;" horiz-adv-x="1034" 
d="M184 758q0 74 -53 94q-23 8 -65 20v37q106 -6 158 -6t255 6v-37l-117 -41v-325h52q63 0 87 14t50 66l166 323h246v-37q-70 -8 -102 -30t-85 -97l-110 -157q-39 -55 -88 -96q102 -35 167 -152l86 -152q49 -88 80 -112t99 -39v-37h-285q-10 70 -61 160l-93 162
q-43 78 -77 100t-103 20h-29v-290q0 -74 54 -95q23 -8 65 -20v-37q-109 6 -159 6t-254 -6v37l116 41v680z" />
    <glyph glyph-name="afii10077" unicode="&#x43b;" horiz-adv-x="1077" 
d="M893 152q0 -74 53 -95q23 -8 66 -20v-37q-106 6 -158 6t-256 -6v37l117 41v760h-271q17 -122 -23 -390q-40 -267 -114 -382q-51 -76 -143 -76q-25 0 -78 4l-74 6v37l39 8q121 25 185 140q64 116 92 286t28 250t-14 103t-106 48v37h776v-37l-119 -41v-679z" />
    <glyph glyph-name="afii10078" unicode="&#x43c;" horiz-adv-x="1372" 
d="M188 764q0 68 -57 88q-23 8 -65 20v37h303l315 -698l322 698h299v-37l-117 -41v-679q0 -74 53 -95q23 -8 66 -20v-37q-105 6 -157 6t-255 -6v37l117 41v649l-336 -735h-62l-338 723v-570q0 -68 58 -88q23 -8 65 -20v-37q-139 4 -167 4t-164 -4v37l120 41v686z" />
    <glyph glyph-name="afii10079" unicode="&#x43d;" horiz-adv-x="1179" 
d="M817 434h-455v-282q0 -74 54 -95q23 -8 65 -20v-37q-109 6 -159 6t-254 -6v37l116 41v680q0 74 -53 94q-23 8 -65 20v37q106 -6 158 -6t255 6v-37l-117 -41v-325h455v252q0 74 -53 94q-23 8 -66 20v37q106 -6 158 -6t256 6v-37l-117 -41v-679q0 -74 54 -95q23 -8 65 -20
v-37q-106 6 -158 6t-256 -6v37l117 41v356z" />
    <glyph glyph-name="afii10080" unicode="&#x43e;" horiz-adv-x="1024" 
d="M764 455q0 71 -11 135t-37 127t-78 101t-135 38t-143 -69q-98 -111 -100 -319q-1 -154 48 -273q26 -63 78 -101t124 -39q193 0 242 266q12 64 12 134zM952 453q0 -211 -118 -348q-119 -136 -324 -136t-322 136q-116 135 -116 347t118 351q119 139 324 139q206 0 322 -139
t116 -350z" />
    <glyph glyph-name="afii10081" unicode="&#x43f;" horiz-adv-x="1148" 
d="M786 838h-424v-686q0 -74 54 -95q23 -8 65 -20v-37q-109 6 -159 6t-254 -6v37l116 41v676q0 74 -55 96q-23 10 -63 22v37h1015v-37l-116 -41v-679q0 -74 53 -95q23 -8 65 -20v-37q-109 6 -159 6t-254 -6v37l116 41v760z" />
    <glyph glyph-name="afii10082" unicode="&#x440;" horiz-adv-x="1060" 
d="M170 754q0 60 -26 80t-93 38v37q215 0 297 11v-101q115 123 260 123q186 0 280 -138t95 -339q0 -279 -179 -418q-98 -78 -230 -78t-226 76v-344q0 -51 27 -71t112 -44v-37l-225 7l-209 -7v37l117 43v1125zM795 461q-1 178 -61 275q-60 98 -170 98t-216 -113v-578
q86 -72 187 -71q127 0 193 106t67 283z" />
    <glyph glyph-name="afii10083" unicode="&#x441;" horiz-adv-x="890" 
d="M526 942q58 0 150 -13t102 -14q0 -59 10 -288h-45q-10 103 -63 167t-168 64q-116 0 -184 -105t-68 -291t76 -284q76 -100 201 -100q79 0 143 42t102 105l52 -47q-44 -86 -136 -147t-215 -62q-184 0 -298 132q-113 131 -113 355t127 355t327 131z" />
    <glyph glyph-name="afii10084" unicode="&#x442;" horiz-adv-x="997" 
d="M410 840h-109q-90 0 -139 -52t-66 -157h-41q8 90 8 278h871q0 -188 8 -278h-41q-16 106 -64 157t-141 52h-108v-688q0 -68 53 -93q27 -12 68 -22v-37q-105 6 -159 6t-257 -6v37l117 41v762z" />
    <glyph glyph-name="afii10085" unicode="&#x443;" horiz-adv-x="972" 
d="M213 -481q-51 1 -80 27t-29 59q0 70 60 69l69 -8q59 0 89 26q29 26 57 99l78 211l-328 760q-23 51 -55 74q-33 23 -97 36v37l37 -2q74 -4 166 -4l236 6v-37l-121 -30l254 -594l223 598l-110 28v35l34 -2q70 -4 150 -4l143 6v-35q-73 -10 -107 -30t-53 -74l-391 -1038
q-37 -98 -88 -156t-137 -57z" />
    <glyph glyph-name="afii10086" unicode="&#x444;" horiz-adv-x="1406" 
d="M504 68q63 0 112 41v694q-49 41 -112 41q-113 0 -176 -106q-64 -106 -64 -283q0 -175 64 -281t176 -106zM903 844q-66 0 -117 -45v-688q49 -43 117 -43q113 0 176 105t63 281t-62 284q-64 106 -177 106zM1321 455q0 -199 -101 -342t-274 -144q-94 0 -160 60v-328
q0 -74 54 -94q23 -8 65 -21v-37q-106 7 -154 7t-251 -7v37l116 41v398q-66 -55 -155 -56q-171 -1 -273 143t-102 343t101 343t274 144q92 0 155 -57v323q0 74 -48 94q-22 10 -70 23v37q225 0 288 8v-489q66 61 160 61q172 0 274 -144t101 -343z" />
    <glyph glyph-name="afii10087" unicode="&#x445;" horiz-adv-x="968" 
d="M383 0h-35q-111 6 -162 6l-166 -6v37q84 14 127 36t72 66l184 279l-235 344q-37 51 -72 74t-96 36v37h12q28 -4 80 -4l103 -2q104 0 186 4l41 2v-37l-98 -30l182 -264l178 270l-106 22v39h12q28 -4 77 -4l101 -2l154 6v-39q-82 -6 -122 -28t-79 -82l-166 -250l248 -363
q35 -51 69 -73t103 -37v-37l-70 4l-117 2l-140 -2l-111 -4v35l114 35l-196 282l-185 -284l113 -31v-37z" />
    <glyph glyph-name="afii10088" unicode="&#x446;" horiz-adv-x="1193" 
d="M932 0h-864v37l116 41v680q0 74 -53 94q-23 8 -65 20v37q106 -6 156 -6t253 6v-37l-117 -41v-759h428v686q0 76 -51 94l-63 20v37q106 -6 152 -6t249 6v-37l-112 -41v-759h202l6 -9q-10 -111 -10 -311h-45q-20 160 -63 213q-31 35 -119 35z" />
    <glyph glyph-name="afii10089" unicode="&#x447;" horiz-adv-x="1101" 
d="M313 600q0 -188 168 -188q133 0 258 145v201q0 74 -53 94q-23 8 -65 20v37q106 -6 158 -6t255 6v-37l-116 -41v-679q0 -74 53 -95q23 -8 65 -20v-37q-106 6 -168 6t-264 -6v37l135 41v393q-147 -166 -309 -166q-135 0 -213 78t-78 205v170q0 74 -53 94q-23 8 -66 20v37
q106 -6 156 -6t254 6v-37l-117 -41v-231z" />
    <glyph glyph-name="afii10090" unicode="&#x448;" horiz-adv-x="1669" 
d="M358 72h390v686q0 76 -52 94q-31 10 -63 20v37q106 -6 152 -6t249 6v-37l-112 -41v-759h389v686q0 76 -54 94q-23 8 -65 20v37q109 -6 158 -6t252 6v-37l-117 -41v-696q0 -59 53 -78q23 -8 66 -20v-37h-1536v37l116 41v680q0 74 -53 94q-23 8 -65 20v37q106 -6 156 -6
t253 6v-37l-117 -41v-759z" />
    <glyph glyph-name="afii10091" unicode="&#x449;" horiz-adv-x="1718" 
d="M358 72h390v686q0 76 -52 94l-63 20v37q106 -6 152 -6t249 6v-37l-112 -41v-759h389v686q0 76 -54 94q-23 8 -65 20v37q109 -6 158 -6t252 6v-37l-117 -41v-759h203l6 -9q-10 -111 -11 -311h-45q-20 160 -63 213q-31 35 -119 35h-1388v37l116 41v680q0 74 -53 94
q-23 8 -65 20v37q106 -6 156 -6t253 6v-37l-117 -41v-759z" />
    <glyph glyph-name="afii10092" unicode="&#x44a;" horiz-adv-x="1212" 
d="M375 840h-68q-92 0 -133 -43t-72 -168h-41q8 90 9 280h661v-37l-117 -41v-290q76 14 152 14q180 0 282 -70q102 -69 103 -191q0 -122 -72 -194q-100 -100 -309 -100h-451v37l117 41v717q0 29 -12 37t-49 8zM748 485q-78 0 -134 -12v-328q0 -45 30 -61t123 -16t148 56
t56 163q0 198 -223 198z" />
    <glyph glyph-name="afii10093" unicode="&#x44b;" horiz-adv-x="1396" 
d="M700 287q0 198 -221 198q-70 0 -117 -8v-338q0 -45 24 -59t113 -14q90 0 146 57q55 57 55 164zM1212 152q0 -74 54 -95q23 -8 65 -20v-37q-107 6 -159 6t-254 -6v37l116 41v680q0 74 -53 94q-23 8 -66 20v37q109 -6 160 -6t254 6v-37l-117 -41v-679zM496 555
q180 0 282 -70q102 -69 102 -191t-71 -194q-100 -100 -309 -100h-432v37l116 41v680q0 74 -53 94q-23 8 -65 20v37q106 -6 158 -6t255 6v-37l-117 -41v-288q78 12 134 12z" />
    <glyph glyph-name="afii10094" unicode="&#x44c;" horiz-adv-x="960" 
d="M514 555q180 0 282 -70q102 -69 103 -191q0 -122 -72 -194q-100 -100 -309 -100h-450v37l116 41v680q0 74 -53 94q-23 8 -65 20v37q106 -6 158 -6t255 6v-37l-117 -41v-290q76 14 152 14zM719 287q0 198 -223 198q-78 0 -134 -12v-328q0 -45 30 -61t123 -16t149 56
q55 56 55 163z" />
    <glyph glyph-name="afii10095" unicode="&#x44d;" horiz-adv-x="931" 
d="M668 508q-16 350 -251 350q-120 0 -181 -53t-82 -178h-43q14 203 14 286q232 29 287 29q208 0 326 -130t118 -355t-114 -357t-306 -131q-133 1 -231 61t-148 150l52 47q104 -150 274 -149q274 0 287 354h-418l-16 76h432z" />
    <glyph glyph-name="afii10096" unicode="&#x44e;" horiz-adv-x="1488" 
d="M991 55q233 0 234 400q0 142 -42 261q-24 64 -73 102t-119 38t-119 -38q-50 -38 -82 -127t-32 -236q0 -400 233 -400zM993 -31q-195 0 -307 130t-117 331h-213v-278q0 -74 54 -95q23 -8 65 -20v-37q-105 6 -155 6t-252 -6v37l116 41v680q0 74 -53 94q-23 8 -65 20v37
q106 -6 155 -6t252 6v-37l-117 -41v-329h213q12 196 124 318q113 122 305 122t304 -137t112 -348t-114 -349q-112 -138 -307 -139z" />
    <glyph glyph-name="afii10097" unicode="&#x44f;" horiz-adv-x="1007" 
d="M823 152q0 -78 54 -95q37 -12 65 -20v-37q-106 6 -158 6t-256 -6v37l117 41v319h-82q-69 1 -99 -21t-58 -95l-56 -140q-31 -88 -39 -141h-299v35q80 12 111 39t63 112l41 111q20 57 48 88t77 49q-88 25 -142 84t-54 151t71 158q94 82 314 82h401v-37l-119 -38v-682z
M645 457v383h-41q-164 0 -215 -52t-51 -140q0 -89 47 -136q59 -55 201 -55h59z" />
    <glyph glyph-name="uni0450" unicode="&#x450;" horiz-adv-x="921" 
d="M368 1296q14 0 35 -20l246 -248l-18 -22l-361 186v20l70 70q14 14 28 14zM469 856q-88 0 -142 -82t-65 -213h395q-2 141 -51 218t-137 77zM72 466q0 208 111 342q112 134 282 134t270 -106t101 -291q0 -37 -2 -58h-576q0 -199 71 -304t197 -105q158 0 248 147l53 -47
q-51 -92 -145 -150t-211 -59q-197 1 -298 145t-101 352z" />
    <glyph glyph-name="afii10071" unicode="&#x451;" horiz-adv-x="921" 
d="M399 1182q-1 -39 -29 -68t-67 -29t-69 29t-29 68q1 38 29 66t68 28t68 -28t29 -66zM717 1182q0 -39 -30 -68t-69 -29q-40 0 -68 29t-28 68q0 38 29 66t69 28t68 -28q29 -28 29 -66zM469 856q-88 0 -142 -82t-65 -213h395q-2 141 -51 218t-137 77zM72 466q0 208 111 342
q112 134 282 134t270 -106t101 -291q0 -37 -2 -58h-576q0 -199 71 -304t197 -105q158 0 248 147l53 -47q-51 -92 -145 -150t-211 -59q-197 1 -298 145t-101 352z" />
    <glyph glyph-name="afii10099" unicode="&#x452;" horiz-adv-x="1038" 
d="M354 152q0 -74 54 -95q23 -8 65 -20v-37q-109 6 -160 6t-254 -6v37l117 41v948h-141v76h141v104q0 74 -55 97q-23 10 -64 22v37q217 0 297 10v-270h320v-76h-320v-315q160 127 293 127t223 -109t91 -283q0 -360 -478 -741l-43 47q344 315 344 686q0 281 -204 281
q-105 0 -226 -86v-481z" />
    <glyph glyph-name="afii10100" unicode="&#x453;" horiz-adv-x="888" 
d="M610 1296q14 0 29 -14l70 -70v-20l-361 -186l-18 22l245 248q21 20 35 20zM66 909h761q0 -190 9 -280h-41q-25 119 -66 164t-133 45h-231v-686q0 -72 57 -93q35 -12 84 -22v-37q-109 6 -171 6t-265 -6v37l116 41v680q0 68 -53 92q-27 12 -67 22v37z" />
    <glyph glyph-name="afii10101" unicode="&#x454;" horiz-adv-x="931" 
d="M539 942q63 0 152 -14t126 -17q0 -55 10 -284h-43q-33 231 -237 231q-266 0 -285 -350h436l-16 -76h-420q6 -174 81 -264t206 -90q176 -1 274 149l51 -45q-51 -90 -148 -151t-228 -62q-195 0 -309 131q-113 132 -113 360t128 355t335 127z" />
    <glyph glyph-name="afii10102" unicode="&#x455;" horiz-adv-x="819" 
d="M721 258q0 -135 -97 -212q-98 -77 -242 -77t-269 54v237h41q12 -90 75 -151t151 -61t135 36q48 36 48 104t-47 114t-114 76q-68 30 -134 62t-112 92q-46 59 -47 144q0 122 97 194t224 72q53 0 143 -16l89 -15q0 -133 10 -245h-41q-35 201 -199 200q-78 0 -121 -36
t-43 -94t47 -99t114 -72t133 -65t112 -96q47 -62 47 -146z" />
    <glyph glyph-name="afii10103" unicode="&#x456;" 
d="M325 6q-52 0 -255 -6v37l116 41v676q0 74 -55 96q-23 10 -63 22v37q217 0 297 11v-768q0 -74 53 -95q23 -8 65 -20v-37q-106 6 -158 6zM262 1077q-43 0 -74 31t-30 74q0 44 30 74t74 30q43 0 74 -31t31 -73t-31 -74q-31 -31 -74 -31z" />
    <glyph glyph-name="afii10104" unicode="&#x457;" 
d="M205 1182q0 -39 -29 -68q-30 -29 -68 -29t-68 29t-30 68q0 38 29 66t69 28t68 -28t29 -66zM522 1182q0 -39 -30 -68t-68 -29q-39 0 -68 29t-28 68q0 38 28 66t69 28t69 -28t28 -66zM325 6q-52 0 -255 -6v37l116 41v676q0 74 -55 96q-23 10 -63 22v37q217 0 297 11v-768
q0 -74 53 -95q23 -8 65 -20v-37q-106 6 -158 6z" />
    <glyph glyph-name="afii10105" unicode="&#x458;" horiz-adv-x="509" 
d="M246 1077q-43 0 -74 31t-31 74q0 44 31 74t74 30q44 0 74 -31t30 -73t-30 -74q-30 -31 -74 -31zM348 -88q0 -160 -100 -263t-238 -130l-16 59q176 63 176 350v826q0 74 -55 96q-23 10 -64 22v37q217 1 297 11v-1008z" />
    <glyph glyph-name="afii10106" unicode="&#x459;" horiz-adv-x="1507" 
d="M731 838h-287q17 -122 -23 -390q-40 -267 -114 -382q-51 -76 -143 -76q-25 0 -78 4l-74 6v37l39 8q121 25 185 140q64 116 92 286t28 250t-14 103t-106 48v37h792v-37l-119 -41v-290q76 14 152 14q180 0 282 -70q103 -69 103 -191t-72 -194q-100 -100 -309 -100h-451v37
l117 41v760zM1042 485q-78 0 -133 -12v-328q0 -45 30 -61t123 -16t148 56t56 163q0 198 -224 198z" />
    <glyph glyph-name="afii10107" unicode="&#x45a;" horiz-adv-x="1597" 
d="M817 434h-455v-282q0 -74 54 -95q23 -8 65 -20v-37q-109 6 -159 6t-254 -6v37l116 41v680q0 74 -53 94q-23 8 -65 20v37q106 -6 158 -6t255 6v-37l-117 -41v-325h455v252q0 74 -53 94q-23 8 -66 20v37q106 -6 158 -6t256 6v-37l-117 -41v-317q76 14 152 14q181 0 285 -63
t104 -178q0 -287 -393 -287h-443v37l117 41v356zM1139 68q217 0 217 208q0 182 -228 183q-78 0 -133 -13v-301q0 -45 30 -61t114 -16z" />
    <glyph glyph-name="afii10108" unicode="&#x45b;" horiz-adv-x="1116" 
d="M946 481v-329q0 -74 53 -95q23 -8 66 -20v-37q-109 6 -160 6t-254 -6v37l117 41v399q0 152 -42 202t-118 50q-139 0 -254 -137v-440q0 -74 54 -95q23 -8 65 -20v-37q-109 6 -160 6t-254 -6v37l117 41v948h-141v76h141v104q0 74 -55 97q-23 10 -64 22v37q217 0 297 10
v-270h320v-76h-320v-334q136 154 298 154t239 -107q55 -76 55 -258z" />
    <glyph glyph-name="afii10109" unicode="&#x45c;" horiz-adv-x="1034" 
d="M684 1296q14 0 29 -14l69 -70v-20l-360 -186l-19 22l246 248q21 20 35 20zM184 758q0 74 -53 94q-23 8 -65 20v37q106 -6 158 -6t255 6v-37l-117 -41v-325h52q63 0 87 14t50 66l166 323h246v-37q-70 -8 -102 -30t-85 -97l-110 -157q-39 -55 -88 -96q102 -35 167 -152
l86 -152q49 -88 80 -112t99 -39v-37h-285q-10 70 -61 160l-93 162q-43 78 -77 100t-103 20h-29v-290q0 -74 54 -95q23 -8 65 -20v-37q-109 6 -159 6t-254 -6v37l116 41v680z" />
    <glyph glyph-name="uni045D" unicode="&#x45d;" horiz-adv-x="1210" 
d="M502 1296q14 0 35 -20l245 -248l-18 -22l-361 186v20l70 70q15 14 29 14zM362 43v-43h-294v37l116 41v680q0 74 -53 94q-23 8 -65 20v37q106 -6 158 -6t255 6v-37l-117 -41v-604l422 510q41 49 53 73q11 24 11 69v30h295v-37l-117 -41v-679q0 -74 53 -95q23 -8 66 -20
v-37q-109 6 -160 6t-254 -6v37l117 41v616l-422 -510q-40 -46 -52 -72t-12 -69z" />
    <glyph glyph-name="afii10110" unicode="&#x45e;" horiz-adv-x="972" 
d="M541 1055q-104 0 -163 63q-58 63 -59 170h46q12 -121 176 -121t176 121h45q0 -106 -58 -170t-163 -63zM213 -481q-51 1 -80 27t-29 59q0 70 60 69l69 -8q59 0 89 26q29 26 57 99l78 211l-328 760q-23 51 -55 74q-33 23 -97 36v37l37 -2q74 -4 166 -4l236 6v-37l-121 -30
l254 -594l223 598l-110 28v35l34 -2q70 -4 150 -4l143 6v-35q-73 -10 -107 -30t-53 -74l-391 -1038q-37 -98 -88 -156t-137 -57z" />
    <glyph glyph-name="afii10193" unicode="&#x45f;" horiz-adv-x="1155" 
d="M451 0h-383v37l116 41v680q0 74 -53 94q-23 8 -65 20v37q106 -6 156 -6t253 6v-37l-117 -41v-759h439v686q0 76 -52 94l-63 20v37q106 -6 152 -6t249 6v-37l-112 -41v-679q0 -74 53 -95q23 -8 66 -20v-37h-385q-55 0 -66 -41q-29 -106 -41 -227h-41q-12 121 -41 227
q-10 41 -65 41z" />
    <glyph glyph-name="afii10050" unicode="&#x490;" horiz-adv-x="983" 
d="M225 1128q0 53 -29 75q-30 22 -110 36v41h559q143 0 181 41t69 211h47q0 -250 8 -330l-6 -8q-117 8 -288 8t-242 -4v-1042q0 -74 61 -90t121 -23v-43l-268 6l-234 -6v41l131 41v1046z" />
    <glyph glyph-name="afii10098" unicode="&#x491;" horiz-adv-x="868" 
d="M365 836v-684q0 -72 57 -93q35 -12 84 -22v-37q-109 6 -171 6t-265 -6v37l116 41v680q0 68 -53 92q-27 12 -67 22v37h514q94 0 127 36t55 173h41q0 -200 8 -276l-8 -6h-438z" />
    <glyph glyph-name="uni0492" unicode="&#x492;" horiz-adv-x="1024" 
d="M229 616h-147v80h147v432q0 53 -29 75q-30 22 -110 36v41h877q6 -227 18 -322h-49q-29 150 -98 196q-70 46 -210 46t-210 -4v-500h293v-80h-293v-460q0 -74 61 -90t121 -23v-43l-268 6l-234 -6v41l131 41v534z" />
    <glyph glyph-name="uni0493" unicode="&#x493;" horiz-adv-x="899" 
d="M375 414v-262q0 -72 57 -93q35 -12 84 -22v-37q-106 6 -170 6t-266 -6v37l117 41v336h-140v69h140v275q0 68 -54 92q-27 12 -67 22v37h762q0 -190 8 -280h-41q-25 119 -66 164t-133 45h-231v-355h256v-69h-256z" />
    <glyph glyph-name="uni049A" unicode="&#x49a;" horiz-adv-x="1343" 
d="M223 1124q0 76 -57 95q-33 10 -80 20v41l225 -6l232 6v-41l-131 -41v-508h110q86 0 118 32t79 146l166 412h305v-41q-94 -4 -136 -38t-118 -171l-109 -199q-72 -129 -118 -165q61 -20 103 -66t93 -149l189 -373h211l6 -8q-8 -125 -8 -375h-50q-16 137 -56 221t-155 84
h-145q-12 78 -82 219l-84 170q-76 152 -117 188t-141 35h-61v-456q0 -76 57 -95q33 -10 80 -20v-41l-221 6l-236 -6v41l131 41v1042z" />
    <glyph glyph-name="uni049B" unicode="&#x49b;" horiz-adv-x="1099" 
d="M362 442v-290q0 -74 54 -95q23 -8 65 -20v-37q-109 6 -159 6t-254 -6v37l116 41v680q0 74 -53 94q-23 8 -65 20v37q106 -6 158 -6t255 6v-37l-117 -41v-325h52q63 0 87 14t50 66l166 323h246v-37q-70 -8 -102 -30t-85 -97l-112 -157q-49 -66 -86 -96q102 -35 167 -152
l152 -266h172l6 -8q-10 -111 -10 -314h-45q-20 162 -64 215q-27 33 -84 33h-147q-10 70 -61 160l-93 162q-43 78 -77 100t-103 20h-29z" />
    <glyph glyph-name="uni04A2" unicode="&#x4a2;" horiz-adv-x="1478" 
d="M1223 78h209l6 -8q-8 -125 -8 -375h-50q-29 246 -122 288q-40 17 -117 17h-238v41l131 41v530h-620v-456q0 -76 57 -95q33 -10 80 -20v-41l-223 6l-234 -6v41l131 41v1038q0 78 -57 97l-82 22v41l219 -6l234 6v-41l-125 -43v-496h620v420q0 78 -57 97l-82 22v41l219 -6
l234 6v-41l-125 -43v-1118z" />
    <glyph glyph-name="uni04A3" unicode="&#x4a3;" horiz-adv-x="1196" 
d="M1071 74h94l6 -8q-10 -111 -10 -314h-45q-20 160 -63 213q-29 35 -95 35h-256v37l117 41v352h-454v-278q0 -74 53 -95q23 -8 65 -20v-37q-106 6 -158 6t-255 -6v37l116 41v680q0 74 -53 94q-23 8 -65 20v37q110 -6 160 -6t253 6v-37l-116 -41v-329h454v256q0 74 -53 94
q-23 8 -66 20v37q109 -6 160 -6t254 6v-37l-117 -41v-694q1 -35 17 -49t57 -14z" />
    <glyph glyph-name="uni04AE" unicode="&#x4ae;" horiz-adv-x="1153" 
d="M680 156q0 -76 57 -95q33 -10 80 -20v-41l-223 6l-234 -6v41l132 41v420l-336 631q-25 49 -59 73t-93 39v35q92 -6 206 -6t243 6v-35l-127 -33l311 -583l281 581l-119 33v37q139 -6 188 -6l162 6v-37q-82 -10 -113 -38t-61 -91l-295 -610v-348z" />
    <glyph glyph-name="uni04AF" unicode="&#x4af;" horiz-adv-x="991" 
d="M412 0q0 76 -21 125l-260 637q-20 49 -49 69t-102 41v37q92 -6 190 -6t227 6v-37l-104 -30l252 -656l248 660l-107 26v37q123 -6 172 -6l146 6v-37q-74 -12 -103 -32t-49 -70l-242 -645q-20 -55 -20 -125v-248q0 -74 53 -94q23 -8 66 -20v-37q-106 6 -205 6l-209 -6v37
l117 40v322z" />
    <glyph glyph-name="uni04B0" unicode="&#x4b0;" horiz-adv-x="1153" 
d="M952 569v-80h-272v-333q0 -76 57 -95q33 -10 80 -20v-41l-223 6l-234 -6v41l132 41v407h-273v80h240l-303 564q-45 84 -152 112v35q92 -6 206 -6t243 6v-35l-127 -33l311 -583l281 581l-119 33v37q139 -6 188 -6l162 6v-37q-82 -10 -113 -38t-61 -91l-266 -545h243z" />
    <glyph glyph-name="uni04B1" unicode="&#x4b1;" horiz-adv-x="991" 
d="M834 84v-74h-244v-258q0 -74 53 -94q23 -8 66 -20v-37q-106 6 -205 6l-209 -6v37l117 40v332h-244v74h240l-277 678q-20 49 -49 69t-102 41v37q92 -6 190 -6t227 6v-37l-104 -30l252 -656l248 660l-107 26v37q25 -6 172 -6l146 6v-37q-74 -12 -104 -32t-48 -70l-258 -686
h240z" />
    <glyph glyph-name="uni04BA" unicode="&#x4ba;" horiz-adv-x="1226" 
d="M741 858q162 0 246 -88t84 -235v-375q0 -78 57 -97l82 -22v-41l-219 6l-233 -6v41l125 43v448q0 100 -44 152t-149 53q-141 0 -278 -116v-461q0 -78 57 -97l82 -22v-41l-219 6l-234 -6v41l125 43v1040q0 76 -57 95q-33 10 -80 20v41l217 -6l240 6v-41l-131 -41v-481
q72 61 162 101t167 40z" />
    <glyph glyph-name="uni04BB" unicode="&#x4bb;" horiz-adv-x="1116" 
d="M905 6q-51 0 -254 -6v37l117 41v495q0 152 -42 202t-118 50q-139 0 -254 -137v-536q0 -74 54 -95q23 -8 65 -20v-37q-109 6 -160 6t-254 -6v37l117 41v1128q0 74 -55 97q-23 10 -64 22v37q217 0 297 10v-584q136 154 298 154t239 -106q55 -76 55 -258v-426q0 -74 53 -95
q23 -8 66 -20v-37q-109 6 -160 6z" />
    <glyph glyph-name="uni04D8" unicode="&#x4d8;" horiz-adv-x="1210" 
d="M586 63q148 0 229 124q82 124 96 341h-624q3 -209 77 -337t222 -128zM541 1194q-213 0 -363 -219l-61 55q80 133 200 207q121 74 267 74q262 0 403 -196q141 -195 141 -485t-142 -475t-386 -185t-377 160q-133 161 -133 396q0 59 6 88h815q-10 580 -370 580z" />
    <glyph glyph-name="afii10846" unicode="&#x4d9;" horiz-adv-x="929" 
d="M456 55q88 0 144 82q54 82 64 213h-396q2 -141 51 -218t137 -77zM455 942q197 0 298 -144t101 -352t-112 -342t-282 -135q-170 1 -270 107t-100 291q0 37 2 57h576q0 199 -71 304t-198 106q-157 -1 -247 -148l-54 47q52 93 146 151t211 58z" />
    <glyph glyph-name="uni04E8" unicode="&#x4e8;" horiz-adv-x="1306" 
d="M652 1221q-161 -1 -252 -143t-101 -380h707q-10 238 -102 380t-252 143zM653 61q166 0 258 151t97 402h-709q4 -252 96 -402t258 -151zM1221 641q0 -291 -153 -480t-415 -189q-263 0 -415 188q-152 190 -152 481t153 480t415 189t414 -188q153 -190 153 -481z" />
    <glyph glyph-name="uni04E9" unicode="&#x4e9;" horiz-adv-x="1044" 
d="M523 856q-87 0 -146 -57t-83 -132t-30 -167h514q-4 92 -27 167q-24 75 -82 132q-59 57 -146 57zM520 55q90 1 150 61t84 138q23 78 26 172h-516q6 -152 66 -262t190 -109zM969 454q0 -210 -122 -348t-327 -137q-204 0 -324 136q-120 135 -120 347t122 351t326 139
t325 -139q120 -139 120 -349z" />
    </font>
</defs>
</svg>
