<?xml version="1.0" encoding="UTF-8"?>
<svg xmlns="http://www.w3.org/2000/svg" xmlns:xlink="http://www.w3.org/1999/xlink" version="1.2" >
<font id="Cadillac Sans Bold">
<font-face  font-family="Cadillac Sans" units-per-em="1000" ascent="750" descent="-250" font-style="normal" font-weight="700" font-stretch="normal" cap-height="700" x-height="544" underline-position="-75" underline-thickness="50" />
<missing-glyph  horiz-adv-x="604" d="M49 -100 L49 800 L555 800 L555 -100 L49 -100 Z M176 10 L428 10 L428 690 L176 690 L176 10 Z " />
<glyph glyph-name=".null" d="" />
<glyph glyph-name="nonmarkingreturn" unicode="&#xd;" horiz-adv-x="196" d="" />
<glyph glyph-name="space" unicode="&#x20;" horiz-adv-x="202" d="" />
<glyph glyph-name="A" unicode="A" horiz-adv-x="636" d="M613 0 L441 0 L407 148 L212 148 L177 0 L23 0 L23 101 L187 700 L449 700 L613 101 L613 0 Z M313 562 L310 562 L245 289 L375 289 L313 562 Z " />
<glyph glyph-name="B" unicode="B" horiz-adv-x="611" d="M495 369 Q515 360 536 343.5 Q557 327 573 301 L573 120 Q561 98 541.5 76.5 Q522 55 495.5 38 Q469 21 436 10.5 Q403 0 364 0 L51 0 L51 700 L360 700 Q399 700 431.5 689 Q464 678 489.5 661 Q515 644 533.5 623 Q552 602 563 581 L563 436 Q553 418 534 399 Q515 380 495 369 Z M321 419 Q345 419 363.5 429 Q382 439 393 456 L393 527 Q374 564 318 564 L237 564 L237 419 L321 419 Z M403 263 Q394 279 374 289.5 Q354 300 328 300 L237 300 L237 136 L325 136 Q356 136 374.5 147 Q393 158 403 175 L403 263 Z " />
<glyph glyph-name="C" unicode="C" horiz-adv-x="607" d="M313 715 Q373 715 418 700.5 Q463 686 494.5 665 Q526 644 546 619.5 Q566 595 577 576 L577 494 L417 494 Q407 528 382 549.5 Q357 571 316 571 Q282 571 260 557.5 Q238 544 228 524 L228 176 Q238 156 260 142.5 Q282 129 316 129 Q357 129 382 150.5 Q407 172 417 206 L577 206 L577 124 Q566 104 546 80 Q526 56 494.5 35 Q463 14 418 -0.5 Q373 -15 313 -15 Q252 -15 206.5 0 Q161 15 128 37.5 Q95 60 74 87 Q53 114 42 138 L42 562 Q53 586 74 613 Q95 640 128 662.5 Q161 685 206.5 700 Q252 715 313 715 Z " />
<glyph glyph-name="D" unicode="D" horiz-adv-x="630" d="M356 700 Q404 700 442.5 687.5 Q481 675 509.5 655.5 Q538 636 557.5 611.5 Q577 587 588 562 L588 138 Q577 113 557.5 88.5 Q538 64 509.5 44.5 Q481 25 442.5 12.5 Q404 0 356 0 L51 0 L51 700 L356 700 Z M237 139 L317 139 Q351 139 372.5 151.5 Q394 164 402 183 L402 517 Q394 536 372.5 548.5 Q351 561 317 561 L237 561 L237 139 Z " />
<glyph glyph-name="E" unicode="E" horiz-adv-x="537" d="M237 559 L237 428 L479 428 L479 287 L237 287 L237 141 L502 141 L502 0 L51 0 L51 700 L496 700 L496 559 L237 559 Z " />
<glyph glyph-name="F" unicode="F" horiz-adv-x="517" d="M237 559 L237 420 L473 420 L473 278 L237 278 L237 0 L51 0 L51 700 L483 700 L483 559 L237 559 Z " />
<glyph glyph-name="G" unicode="G" horiz-adv-x="625" d="M316 571 Q282 571 260 556.5 Q238 542 228 524 L228 176 Q236 157 259 143 Q282 129 316 129 Q352 129 373 142 Q394 155 404 171 L404 264 L318 264 L318 402 L577 402 L577 0 L434 0 L434 46 Q408 19 371 2 Q334 -15 278 -15 Q226 -15 186.5 0 Q147 15 118.5 37.5 Q90 60 71.5 87 Q53 114 42 138 L42 562 Q53 586 74 613 Q95 640 128 662.5 Q161 685 206.5 700 Q252 715 313 715 Q373 715 418 700.5 Q463 686 494.5 665 Q526 644 546 619.5 Q566 595 577 576 L577 494 L417 494 Q407 528 382 549.5 Q357 571 316 571 Z " />
<glyph glyph-name="H" unicode="H" horiz-adv-x="660" d="M422 0 L422 290 L237 290 L237 0 L51 0 L51 700 L237 700 L237 431 L422 431 L422 700 L608 700 L608 0 L422 0 Z " />
<glyph glyph-name="I" unicode="I" horiz-adv-x="288" d="M51 0 L51 700 L237 700 L237 0 L51 0 Z " />
<glyph glyph-name="J" unicode="J" horiz-adv-x="387" d="M339 138 Q324 108 303 82 Q282 56 251 37.5 Q220 19 178 8 Q136 -3 81 -3 Q58 -3 42.5 -2 Q27 -1 19 0 L19 140 L66 140 Q100 140 122 152.5 Q144 165 153 185 L153 700 L339 700 L339 138 Z " />
<glyph glyph-name="K" unicode="K" horiz-adv-x="628" d="M601 0 L449 0 L288 277 L237 220 L237 0 L51 0 L51 700 L237 700 L237 455 L443 700 L575 700 L575 599 L409 413 L601 101 L601 0 Z " />
<glyph glyph-name="L" unicode="L" horiz-adv-x="460" d="M439 141 L439 0 L51 0 L51 700 L237 700 L237 141 L439 141 Z " />
<glyph glyph-name="M" unicode="M" horiz-adv-x="811" d="M586 0 L586 452 L583 452 L455 130 L355 130 L227 452 L224 452 L224 0 L51 0 L51 700 L292 700 L408 399 L411 399 L522 700 L760 700 L760 0 L586 0 Z " />
<glyph glyph-name="N" unicode="N" horiz-adv-x="671" d="M416 0 L227 414 L224 414 L224 0 L51 0 L51 700 L255 700 L444 286 L447 286 L447 700 L620 700 L620 0 L416 0 Z " />
<glyph glyph-name="O" unicode="O" horiz-adv-x="626" d="M313 715 Q373 715 419 700 Q465 685 498 662.5 Q531 640 552 613 Q573 586 584 562 L584 138 Q573 114 552 87 Q531 60 498 37.5 Q465 15 419.5 0 Q374 -15 313 -15 Q253 -15 207 0 Q161 15 128 37.5 Q95 60 74 87 Q53 114 42 138 L42 562 Q53 586 74 613 Q95 640 128 662.5 Q161 685 206.5 700 Q252 715 313 715 Z M313 571 Q279 571 258 557 Q237 543 228 524 L228 176 Q237 157 258 143 Q279 129 313 129 Q347 129 368 143 Q389 157 398 176 L398 524 Q389 543 368 557 Q347 571 313 571 Z " />
<glyph glyph-name="P" unicode="P" horiz-adv-x="600" d="M356 700 Q424 700 480 669.5 Q536 639 570 581 L570 365 Q557 341 537 319 Q517 297 490 280.5 Q463 264 429.5 254.5 Q396 245 356 245 L237 245 L237 0 L51 0 L51 700 L356 700 Z M237 384 L313 384 Q340 384 360 393.5 Q380 403 391 423 L391 521 Q380 542 359 551.5 Q338 561 313 561 L237 561 L237 384 Z " />
<glyph glyph-name="Q" unicode="Q" horiz-adv-x="626" d="M590 -151 L502 -151 Q478 -151 450 -141 Q422 -131 395.5 -113 Q369 -95 346 -70 Q323 -45 310 -15 Q250 -15 205 0 Q160 15 127.5 37.5 Q95 60 74 87 Q53 114 42 138 L42 562 Q53 586 74 613 Q95 640 128 662.5 Q161 685 206.5 700 Q252 715 313 715 Q373 715 419 700 Q465 685 498 662.5 Q531 640 552 613 Q573 586 584 562 L584 138 Q570 108 541 74 Q512 40 464 17 Q474 -2 491.5 -12 Q509 -22 523 -22 L590 -22 L590 -151 Z M228 176 Q237 157 258 143 Q279 129 313 129 Q347 129 368 143 Q389 157 398 176 L398 524 Q389 543 368 557 Q347 571 313 571 Q279 571 258 557 Q237 543 228 524 L228 176 Z " />
<glyph glyph-name="R" unicode="R" horiz-adv-x="614" d="M583 0 L433 0 L291 265 L237 265 L237 0 L51 0 L51 700 L360 700 Q428 700 484 669 Q540 638 572 581 L572 386 Q554 355 528.5 330.5 Q503 306 469 290 L583 101 L583 0 Z M318 395 Q375 395 397 434 L397 521 Q386 541 365.5 551 Q345 561 318 561 L237 561 L237 395 L318 395 Z " />
<glyph glyph-name="S" unicode="S" horiz-adv-x="593" d="M296 715 Q352 715 395 701.5 Q438 688 469 668.5 Q500 649 520 626.5 Q540 604 549 586 L549 504 L389 504 Q381 531 359.5 551 Q338 571 296 571 Q267 571 247.5 559.5 Q228 548 220 534 L220 474 Q226 463 239.5 454.5 Q253 446 284 438 L326 427 Q383 413 422.5 397.5 Q462 382 488.5 365.5 Q515 349 531 332 Q547 315 556 299 L556 120 Q546 102 526.5 78.5 Q507 55 475.5 34 Q444 13 399.5 -1 Q355 -15 295 -15 Q234 -15 189 -1 Q144 13 112.5 33.5 Q81 54 61.5 77 Q42 100 32 119 L32 202 L193 202 Q202 168 228.5 148.5 Q255 129 293 129 Q328 129 348.5 143 Q369 157 377 172 L377 236 Q370 250 354.5 259.5 Q339 269 307 277 L264 287 Q210 300 172.5 314.5 Q135 329 109.5 344 Q84 359 68 375.5 Q52 392 41 410 L41 586 Q51 604 70.5 626 Q90 648 121 668 Q152 688 195.5 701.5 Q239 715 296 715 Z " />
<glyph glyph-name="T" unicode="T" horiz-adv-x="552" d="M370 559 L370 0 L184 0 L184 559 L25 559 L25 700 L527 700 L527 559 L370 559 Z " />
<glyph glyph-name="U" unicode="U" horiz-adv-x="638" d="M590 138 Q579 114 558 87 Q537 60 504 37.5 Q471 15 425.5 0 Q380 -15 319 -15 Q259 -15 213 0 Q167 15 134 37.5 Q101 60 80 87 Q59 114 48 138 L48 700 L234 700 L234 177 Q242 158 263.5 144 Q285 130 319 130 Q353 130 373.5 144 Q394 158 404 177 L404 700 L590 700 L590 138 Z " />
<glyph glyph-name="V" unicode="V" horiz-adv-x="635" d="M444 0 L191 0 L24 599 L24 700 L200 700 L322 184 L325 184 L449 700 L611 700 L611 599 L444 0 Z " />
<glyph glyph-name="W" unicode="W" horiz-adv-x="928" d="M782 0 L553 0 L466 391 L463 391 L377 0 L146 0 L29 599 L29 700 L206 700 L285 222 L288 222 L390 700 L549 700 L654 222 L657 222 L734 700 L899 700 L899 599 L782 0 Z " />
<glyph glyph-name="X" unicode="X" horiz-adv-x="604" d="M422 356 L573 101 L573 0 L405 0 L298 237 L295 237 L183 0 L31 0 L31 101 L181 356 L36 599 L36 700 L201 700 L307 474 L310 474 L417 700 L568 700 L568 599 L422 356 Z " />
<glyph glyph-name="Y" unicode="Y" horiz-adv-x="590" d="M384 267 L384 0 L197 0 L197 286 L25 599 L25 700 L187 700 L299 455 L302 455 L414 700 L566 700 L566 599 L384 267 Z " />
<glyph glyph-name="Z" unicode="Z" horiz-adv-x="556" d="M252 141 L524 141 L524 0 L31 0 L31 120 L301 559 L35 559 L35 700 L524 700 L524 580 L252 141 Z " />
<glyph glyph-name="Agrave" unicode="&#xc0;" horiz-adv-x="636" d="M613 0 L441 0 L407 148 L212 148 L177 0 L23 0 L23 101 L187 700 L449 700 L613 101 L613 0 Z M313 562 L310 562 L245 289 L375 289 L313 562 Z M393 743 L270 743 L190 835 L190 907 L343 907 L393 759 L393 743 Z " />
<glyph glyph-name="Aacute" unicode="&#xc1;" horiz-adv-x="636" d="M613 0 L441 0 L407 148 L212 148 L177 0 L23 0 L23 101 L187 700 L449 700 L613 101 L613 0 Z M313 562 L310 562 L245 289 L375 289 L313 562 Z M363 743 L240 743 L240 759 L288 907 L443 907 L443 835 L363 743 Z " />
<glyph glyph-name="Acircumflex" unicode="&#xc2;" horiz-adv-x="636" d="M613 0 L441 0 L407 148 L212 148 L177 0 L23 0 L23 101 L187 700 L449 700 L613 101 L613 0 Z M313 562 L310 562 L245 289 L375 289 L313 562 Z M503 743 L380 743 L319 834 L256 743 L133 743 L133 759 L208 907 L429 907 L503 759 L503 743 Z " />
<glyph glyph-name="Atilde" unicode="&#xc3;" horiz-adv-x="636" d="M613 0 L441 0 L407 148 L212 148 L177 0 L23 0 L23 101 L187 700 L449 700 L613 101 L613 0 Z M313 562 L310 562 L245 289 L375 289 L313 562 Z M245 897 Q273 897 291.5 889.5 Q310 882 323.5 873 Q337 864 348.5 856.5 Q360 849 374 849 Q400 849 405 871 L405 892 L503 892 L503 826 Q500 810 491 795 Q482 780 468 768 Q454 756 434.5 749 Q415 742 391 742 Q362 742 343.5 749.5 Q325 757 311.5 766.5 Q298 776 287 783.5 Q276 791 262 791 Q249 791 241.5 784 Q234 777 232 768 L232 747 L134 747 L134 813 Q139 846 168 871.5 Q197 897 245 897 Z " />
<glyph glyph-name="Adieresis" unicode="&#xc4;" horiz-adv-x="636" d="M613 0 L441 0 L407 148 L212 148 L177 0 L23 0 L23 101 L187 700 L449 700 L613 101 L613 0 Z M313 562 L310 562 L245 289 L375 289 L313 562 Z M207 896 Q240 896 260.5 884.5 Q281 873 288 863 L288 776 Q285 772 279 766.5 Q273 761 263.5 755.5 Q254 750 240 746.5 Q226 743 207 743 Q188 743 174.5 746.5 Q161 750 151 755.5 Q141 761 135 766.5 Q129 772 126 776 L126 863 Q129 867 135.5 872.5 Q142 878 151.5 883 Q161 888 174.5 892 Q188 896 207 896 Z M429 896 Q463 896 483.5 884.5 Q504 873 510 863 L510 776 Q504 767 486 755 Q468 743 429 743 Q410 743 396.5 746.5 Q383 750 373.5 755.5 Q364 761 358 766.5 Q352 772 348 776 L348 863 Q352 867 358 872.5 Q364 878 373.5 883 Q383 888 396.5 892 Q410 896 429 896 Z " />
<glyph glyph-name="Amacron" unicode="&#x100;" horiz-adv-x="636" d="M613 0 L441 0 L407 148 L212 148 L177 0 L23 0 L23 101 L187 700 L449 700 L613 101 L613 0 Z M313 562 L310 562 L245 289 L375 289 L313 562 Z M139 755 L139 867 L497 867 L497 755 L139 755 Z " />
<glyph glyph-name="Abreve" unicode="&#x102;" horiz-adv-x="636" d="M613 0 L441 0 L407 148 L212 148 L177 0 L23 0 L23 101 L187 700 L449 700 L613 101 L613 0 Z M313 562 L310 562 L245 289 L375 289 L313 562 Z M502 832 Q482 790 436 763.5 Q390 737 319 737 Q247 737 200.5 763.5 Q154 790 134 832 L134 894 L258 894 L258 856 Q262 848 276.5 836.5 Q291 825 319 825 Q346 825 360 836.5 Q374 848 378 856 L378 894 L502 894 L502 832 Z " />
<glyph glyph-name="Aring" unicode="&#xc5;" horiz-adv-x="636" d="M613 0 L441 0 L407 148 L212 148 L177 0 L23 0 L23 101 L187 700 L230 700 Q201 716 185 745 L185 839 Q201 869 236 887 Q271 905 318 905 Q365 905 400 887 Q435 869 451 839 L451 745 Q435 716 406 700 L449 700 L613 101 L613 0 Z M262 767 Q267 760 280.5 752 Q294 744 318 744 Q343 744 356.5 752 Q370 760 375 767 L375 816 Q370 824 356.5 832 Q343 840 318 840 Q294 840 280.5 832 Q267 824 262 816 L262 767 Z M313 562 L310 562 L245 289 L375 289 L313 562 Z " />
<glyph glyph-name="Aogonek" unicode="&#x104;" horiz-adv-x="636" d="M613 0 Q569 -40 551.5 -63 Q534 -86 529 -97 L529 -119 Q534 -126 545 -129.5 Q556 -133 570 -133 Q578 -133 588.5 -132 Q599 -131 613 -127 L613 -216 Q601 -222 583.5 -226 Q566 -230 535 -230 Q493 -230 457 -218 Q421 -206 406 -175 L406 -94 Q414 -77 434.5 -51 Q455 -25 487 0 L441 0 L407 148 L212 148 L177 0 L23 0 L23 101 L187 700 L449 700 L613 101 L613 0 Z M313 562 L310 562 L245 289 L375 289 L313 562 Z " />
<glyph glyph-name="AE" unicode="&#xc6;" horiz-adv-x="867" d="M831 0 L384 0 L384 155 L232 155 L176 0 L23 0 L23 101 L260 700 L825 700 L825 559 L570 559 L570 428 L809 428 L809 287 L570 287 L570 141 L831 141 L831 0 Z M384 560 L380 560 L284 296 L384 296 L384 560 Z " />
<glyph glyph-name="Cacute" unicode="&#x106;" horiz-adv-x="607" d="M313 715 Q373 715 418 700.5 Q463 686 494.5 665 Q526 644 546 619.5 Q566 595 577 576 L577 494 L417 494 Q407 528 382 549.5 Q357 571 316 571 Q282 571 260 557.5 Q238 544 228 524 L228 176 Q238 156 260 142.5 Q282 129 316 129 Q357 129 382 150.5 Q407 172 417 206 L577 206 L577 124 Q566 104 546 80 Q526 56 494.5 35 Q463 14 418 -0.5 Q373 -15 313 -15 Q252 -15 206.5 0 Q161 15 128 37.5 Q95 60 74 87 Q53 114 42 138 L42 562 Q53 586 74 613 Q95 640 128 662.5 Q161 685 206.5 700 Q252 715 313 715 Z M361 743 L238 743 L238 759 L286 907 L441 907 L441 835 L361 743 Z " />
<glyph glyph-name="Ccircumflex" unicode="&#x108;" horiz-adv-x="607" d="M313 715 Q373 715 418 700.5 Q463 686 494.5 665 Q526 644 546 619.5 Q566 595 577 576 L577 494 L417 494 Q407 528 382 549.5 Q357 571 316 571 Q282 571 260 557.5 Q238 544 228 524 L228 176 Q238 156 260 142.5 Q282 129 316 129 Q357 129 382 150.5 Q407 172 417 206 L577 206 L577 124 Q566 104 546 80 Q526 56 494.5 35 Q463 14 418 -0.5 Q373 -15 313 -15 Q252 -15 206.5 0 Q161 15 128 37.5 Q95 60 74 87 Q53 114 42 138 L42 562 Q53 586 74 613 Q95 640 128 662.5 Q161 685 206.5 700 Q252 715 313 715 Z M501 743 L378 743 L317 834 L254 743 L131 743 L131 759 L206 907 L427 907 L501 759 L501 743 Z " />
<glyph glyph-name="Ccaron" unicode="&#x10c;" horiz-adv-x="607" d="M313 715 Q373 715 418 700.5 Q463 686 494.5 665 Q526 644 546 619.5 Q566 595 577 576 L577 494 L417 494 Q407 528 382 549.5 Q357 571 316 571 Q282 571 260 557.5 Q238 544 228 524 L228 176 Q238 156 260 142.5 Q282 129 316 129 Q357 129 382 150.5 Q407 172 417 206 L577 206 L577 124 Q566 104 546 80 Q526 56 494.5 35 Q463 14 418 -0.5 Q373 -15 313 -15 Q252 -15 206.5 0 Q161 15 128 37.5 Q95 60 74 87 Q53 114 42 138 L42 562 Q53 586 74 613 Q95 640 128 662.5 Q161 685 206.5 700 Q252 715 313 715 Z M427 743 L206 743 L131 892 L131 907 L254 907 L317 816 L378 907 L501 907 L501 892 L427 743 Z " />
<glyph glyph-name="Cdotaccent" unicode="&#x10a;" horiz-adv-x="607" d="M313 715 Q373 715 418 700.5 Q463 686 494.5 665 Q526 644 546 619.5 Q566 595 577 576 L577 494 L417 494 Q407 528 382 549.5 Q357 571 316 571 Q282 571 260 557.5 Q238 544 228 524 L228 176 Q238 156 260 142.5 Q282 129 316 129 Q357 129 382 150.5 Q407 172 417 206 L577 206 L577 124 Q566 104 546 80 Q526 56 494.5 35 Q463 14 418 -0.5 Q373 -15 313 -15 Q252 -15 206.5 0 Q161 15 128 37.5 Q95 60 74 87 Q53 114 42 138 L42 562 Q53 586 74 613 Q95 640 128 662.5 Q161 685 206.5 700 Q252 715 313 715 Z M316 907 Q356 907 377.5 892 Q399 877 406 860 L406 794 Q399 777 377.5 762 Q356 747 316 747 Q278 747 256 762 Q234 777 226 794 L226 860 Q234 877 256 892 Q278 907 316 907 Z " />
<glyph glyph-name="Ccedilla" unicode="&#xc7;" horiz-adv-x="607" d="M316 571 Q282 571 260 557.5 Q238 544 228 524 L228 176 Q238 156 260 142.5 Q282 129 316 129 Q357 129 382 150.5 Q407 172 417 206 L577 206 L577 124 Q567 106 548.5 83 Q530 60 501.5 40 Q473 20 433.5 4.5 Q394 -11 340 -14 L331 -40 L338 -40 Q379 -40 400 -56 Q421 -72 429 -91 L429 -168 Q415 -198 379.5 -215 Q344 -232 296 -232 Q261 -232 234 -227 Q207 -222 194 -214 L217 -145 Q234 -149 251.5 -151.5 Q269 -154 286 -154 Q305 -154 318 -149 Q331 -144 335 -136 L335 -116 Q331 -108 318.5 -104.5 Q306 -101 289 -101 L228 -101 L259 -11 Q212 -5 175.5 11 Q139 27 113 48 Q87 69 69.5 93 Q52 117 42 138 L42 562 Q53 586 74 613 Q95 640 128 662.5 Q161 685 206.5 700 Q252 715 313 715 Q373 715 418 700.5 Q463 686 494.5 665 Q526 644 546 619.5 Q566 595 577 576 L577 494 L417 494 Q407 528 382 549.5 Q357 571 316 571 Z " />
<glyph glyph-name="Dcaron" unicode="&#x10e;" horiz-adv-x="630" d="M356 700 Q404 700 442.5 687.5 Q481 675 509.5 655.5 Q538 636 557.5 611.5 Q577 587 588 562 L588 138 Q577 113 557.5 88.5 Q538 64 509.5 44.5 Q481 25 442.5 12.5 Q404 0 356 0 L51 0 L51 700 L356 700 Z M237 139 L317 139 Q351 139 372.5 151.5 Q394 164 402 183 L402 517 Q394 536 372.5 548.5 Q351 561 317 561 L237 561 L237 139 Z M426 743 L205 743 L130 892 L130 907 L253 907 L316 816 L377 907 L500 907 L500 892 L426 743 Z " />
<glyph glyph-name="Dcroat" unicode="&#x110;" horiz-adv-x="653" d="M371 700 Q419 700 457 687.5 Q495 675 523.5 655.5 Q552 636 571.5 611.5 Q591 587 602 562 L602 138 Q591 113 571.5 88.5 Q552 64 523.5 44.5 Q495 25 457 12.5 Q419 0 371 0 L65 0 L65 287 L28 287 L28 423 L65 423 L65 700 L371 700 Z M416 517 Q408 536 386.5 548.5 Q365 561 332 561 L251 561 L251 423 L344 423 L344 287 L251 287 L251 139 L332 139 Q365 139 386.5 151.5 Q408 164 416 183 L416 517 Z " />
<glyph glyph-name="Egrave" unicode="&#xc8;" horiz-adv-x="537" d="M237 559 L237 428 L479 428 L479 287 L237 287 L237 141 L502 141 L502 0 L51 0 L51 700 L496 700 L496 559 L237 559 Z M346 743 L223 743 L143 835 L143 907 L296 907 L346 759 L346 743 Z " />
<glyph glyph-name="Eacute" unicode="&#xc9;" horiz-adv-x="537" d="M237 559 L237 428 L479 428 L479 287 L237 287 L237 141 L502 141 L502 0 L51 0 L51 700 L496 700 L496 559 L237 559 Z M315 743 L192 743 L192 759 L240 907 L395 907 L395 835 L315 743 Z " />
<glyph glyph-name="Ecircumflex" unicode="&#xca;" horiz-adv-x="537" d="M237 559 L237 428 L479 428 L479 287 L237 287 L237 141 L502 141 L502 0 L51 0 L51 700 L496 700 L496 559 L237 559 Z M455 743 L332 743 L271 834 L208 743 L85 743 L85 759 L160 907 L381 907 L455 759 L455 743 Z " />
<glyph glyph-name="Ecaron" unicode="&#x11a;" horiz-adv-x="537" d="M237 559 L237 428 L479 428 L479 287 L237 287 L237 141 L502 141 L502 0 L51 0 L51 700 L496 700 L496 559 L237 559 Z M381 743 L160 743 L85 892 L85 907 L208 907 L271 816 L332 907 L455 907 L455 892 L381 743 Z " />
<glyph glyph-name="Edieresis" unicode="&#xcb;" horiz-adv-x="537" d="M237 559 L237 428 L479 428 L479 287 L237 287 L237 141 L502 141 L502 0 L51 0 L51 700 L496 700 L496 559 L237 559 Z M159 896 Q192 896 212.5 884.5 Q233 873 240 863 L240 776 Q237 772 231 766.5 Q225 761 215.5 755.5 Q206 750 192 746.5 Q178 743 159 743 Q140 743 126.5 746.5 Q113 750 103 755.5 Q93 761 87 766.5 Q81 772 78 776 L78 863 Q81 867 87.5 872.5 Q94 878 103.5 883 Q113 888 126.5 892 Q140 896 159 896 Z M381 896 Q415 896 435.5 884.5 Q456 873 462 863 L462 776 Q456 767 438 755 Q420 743 381 743 Q362 743 348.5 746.5 Q335 750 325.5 755.5 Q316 761 310 766.5 Q304 772 300 776 L300 863 Q304 867 310 872.5 Q316 878 325.5 883 Q335 888 348.5 892 Q362 896 381 896 Z " />
<glyph glyph-name="Emacron" unicode="&#x112;" horiz-adv-x="537" d="M237 559 L237 428 L479 428 L479 287 L237 287 L237 141 L502 141 L502 0 L51 0 L51 700 L496 700 L496 559 L237 559 Z M92 755 L92 867 L450 867 L450 755 L92 755 Z " />
<glyph glyph-name="Ebreve" unicode="&#x114;" horiz-adv-x="537" d="M237 559 L237 428 L479 428 L479 287 L237 287 L237 141 L502 141 L502 0 L51 0 L51 700 L496 700 L496 559 L237 559 Z M454 832 Q434 790 388 763.5 Q342 737 271 737 Q199 737 152.5 763.5 Q106 790 86 832 L86 894 L210 894 L210 856 Q214 848 228.5 836.5 Q243 825 271 825 Q298 825 312 836.5 Q326 848 330 856 L330 894 L454 894 L454 832 Z " />
<glyph glyph-name="Edotaccent" unicode="&#x116;" horiz-adv-x="537" d="M237 559 L237 428 L479 428 L479 287 L237 287 L237 141 L502 141 L502 0 L51 0 L51 700 L496 700 L496 559 L237 559 Z M270 907 Q310 907 331.5 892 Q353 877 360 860 L360 794 Q353 777 331.5 762 Q310 747 270 747 Q232 747 210 762 Q188 777 180 794 L180 860 Q188 877 210 892 Q232 907 270 907 Z " />
<glyph glyph-name="Eogonek" unicode="&#x118;" horiz-adv-x="537" d="M502 0 Q459 -38 441 -61 Q423 -84 418 -97 L418 -119 Q423 -126 434 -129.5 Q445 -133 459 -133 Q467 -133 477.5 -132 Q488 -131 502 -127 L502 -216 Q491 -222 473.5 -226 Q456 -230 424 -230 Q404 -230 384 -227 Q364 -224 347 -217.5 Q330 -211 316.5 -200.5 Q303 -190 296 -175 L296 -94 Q304 -77 324 -51 Q344 -25 376 0 L51 0 L51 700 L496 700 L496 559 L237 559 L237 428 L479 428 L479 287 L237 287 L237 141 L502 141 L502 0 Z " />
<glyph glyph-name="Gcircumflex" unicode="&#x11c;" horiz-adv-x="625" d="M316 571 Q282 571 260 556.5 Q238 542 228 524 L228 176 Q236 157 259 143 Q282 129 316 129 Q352 129 373 142 Q394 155 404 171 L404 264 L318 264 L318 402 L577 402 L577 0 L434 0 L434 46 Q408 19 371 2 Q334 -15 278 -15 Q226 -15 186.5 0 Q147 15 118.5 37.5 Q90 60 71.5 87 Q53 114 42 138 L42 562 Q53 586 74 613 Q95 640 128 662.5 Q161 685 206.5 700 Q252 715 313 715 Q373 715 418 700.5 Q463 686 494.5 665 Q526 644 546 619.5 Q566 595 577 576 L577 494 L417 494 Q407 528 382 549.5 Q357 571 316 571 Z M498 743 L375 743 L314 834 L251 743 L128 743 L128 759 L203 907 L424 907 L498 759 L498 743 Z " />
<glyph glyph-name="Gbreve" unicode="&#x11e;" horiz-adv-x="625" d="M316 571 Q282 571 260 556.5 Q238 542 228 524 L228 176 Q236 157 259 143 Q282 129 316 129 Q352 129 373 142 Q394 155 404 171 L404 264 L318 264 L318 402 L577 402 L577 0 L434 0 L434 46 Q408 19 371 2 Q334 -15 278 -15 Q226 -15 186.5 0 Q147 15 118.5 37.5 Q90 60 71.5 87 Q53 114 42 138 L42 562 Q53 586 74 613 Q95 640 128 662.5 Q161 685 206.5 700 Q252 715 313 715 Q373 715 418 700.5 Q463 686 494.5 665 Q526 644 546 619.5 Q566 595 577 576 L577 494 L417 494 Q407 528 382 549.5 Q357 571 316 571 Z M497 832 Q477 790 431 763.5 Q385 737 314 737 Q242 737 195.5 763.5 Q149 790 129 832 L129 894 L253 894 L253 856 Q257 848 271.5 836.5 Q286 825 314 825 Q341 825 355 836.5 Q369 848 373 856 L373 894 L497 894 L497 832 Z " />
<glyph glyph-name="Gdotaccent" unicode="&#x120;" horiz-adv-x="625" d="M316 571 Q282 571 260 556.5 Q238 542 228 524 L228 176 Q236 157 259 143 Q282 129 316 129 Q352 129 373 142 Q394 155 404 171 L404 264 L318 264 L318 402 L577 402 L577 0 L434 0 L434 46 Q408 19 371 2 Q334 -15 278 -15 Q226 -15 186.5 0 Q147 15 118.5 37.5 Q90 60 71.5 87 Q53 114 42 138 L42 562 Q53 586 74 613 Q95 640 128 662.5 Q161 685 206.5 700 Q252 715 313 715 Q373 715 418 700.5 Q463 686 494.5 665 Q526 644 546 619.5 Q566 595 577 576 L577 494 L417 494 Q407 528 382 549.5 Q357 571 316 571 Z M313 907 Q353 907 374.5 892 Q396 877 403 860 L403 794 Q396 777 374.5 762 Q353 747 313 747 Q275 747 253 762 Q231 777 223 794 L223 860 Q231 877 253 892 Q275 907 313 907 Z " />
<glyph glyph-name="Gcommaaccent" unicode="&#x122;" horiz-adv-x="625" d="M316 571 Q282 571 260 556.5 Q238 542 228 524 L228 176 Q236 157 259 143 Q282 129 316 129 Q352 129 373 142 Q394 155 404 171 L404 264 L318 264 L318 402 L577 402 L577 0 L434 0 L434 46 Q408 19 371 2 Q334 -15 278 -15 Q226 -15 186.5 0 Q147 15 118.5 37.5 Q90 60 71.5 87 Q53 114 42 138 L42 562 Q53 586 74 613 Q95 640 128 662.5 Q161 685 206.5 700 Q252 715 313 715 Q373 715 418 700.5 Q463 686 494.5 665 Q526 644 546 619.5 Q566 595 577 576 L577 494 L417 494 Q407 528 382 549.5 Q357 571 316 571 Z M314 -46 Q352 -46 372.5 -54.5 Q393 -63 401 -71 L401 -181 Q398 -191 389.5 -202.5 Q381 -214 367.5 -223.5 Q354 -233 335 -239.5 Q316 -246 290 -246 L233 -246 L233 -193 L274 -193 Q288 -193 300 -190.5 Q312 -188 317 -177 L317 -159 L314 -159 Q276 -159 254.5 -152.5 Q233 -146 226 -138 L226 -71 Q233 -63 254.5 -54.5 Q276 -46 314 -46 Z " />
<glyph glyph-name="Hcircumflex" unicode="&#x124;" horiz-adv-x="660" d="M422 0 L422 290 L237 290 L237 0 L51 0 L51 700 L237 700 L237 431 L422 431 L422 700 L608 700 L608 0 L422 0 Z M514 743 L391 743 L330 834 L267 743 L144 743 L144 759 L219 907 L440 907 L514 759 L514 743 Z " />
<glyph glyph-name="Hbar" unicode="&#x126;" horiz-adv-x="660" d="M608 528 L608 0 L422 0 L422 290 L237 290 L237 0 L51 0 L51 528 L23 528 L23 637 L51 637 L51 700 L237 700 L237 637 L422 637 L422 700 L608 700 L608 637 L637 637 L637 528 L608 528 Z M237 528 L237 431 L422 431 L422 528 L237 528 Z " />
<glyph glyph-name="Igrave" unicode="&#xcc;" horiz-adv-x="288" d="M51 0 L51 700 L237 700 L237 0 L51 0 Z M219 743 L96 743 L16 835 L16 907 L169 907 L219 759 L219 743 Z " />
<glyph glyph-name="Iacute" unicode="&#xcd;" horiz-adv-x="288" d="M51 0 L51 700 L237 700 L237 0 L51 0 Z M189 743 L66 743 L66 759 L114 907 L269 907 L269 835 L189 743 Z " />
<glyph glyph-name="Icircumflex" unicode="&#xce;" horiz-adv-x="288" d="M51 0 L51 700 L237 700 L237 0 L51 0 Z M329 743 L206 743 L145 834 L82 743 L-41 743 L-41 759 L34 907 L255 907 L329 759 L329 743 Z " />
<glyph glyph-name="Itilde" unicode="&#x128;" horiz-adv-x="288" d="M51 0 L51 700 L237 700 L237 0 L51 0 Z M71 897 Q99 897 117.5 889.5 Q136 882 149.5 873 Q163 864 174.5 856.5 Q186 849 200 849 Q226 849 231 871 L231 892 L329 892 L329 826 Q326 810 317 795 Q308 780 294 768 Q280 756 260.5 749 Q241 742 217 742 Q188 742 169.5 749.5 Q151 757 137.5 766.5 Q124 776 113 783.5 Q102 791 88 791 Q75 791 67.5 784 Q60 777 58 768 L58 747 L-40 747 L-40 813 Q-35 846 -6 871.5 Q23 897 71 897 Z " />
<glyph glyph-name="Idieresis" unicode="&#xcf;" horiz-adv-x="288" d="M51 0 L51 700 L237 700 L237 0 L51 0 Z M33 896 Q66 896 86.5 884.5 Q107 873 114 863 L114 776 Q111 772 105 766.5 Q99 761 89.5 755.5 Q80 750 66 746.5 Q52 743 33 743 Q14 743 0.5 746.5 Q-13 750 -23 755.5 Q-33 761 -39 766.5 Q-45 772 -48 776 L-48 863 Q-45 867 -38.5 872.5 Q-32 878 -22.5 883 Q-13 888 0.5 892 Q14 896 33 896 Z M255 896 Q289 896 309.5 884.5 Q330 873 336 863 L336 776 Q330 767 312 755 Q294 743 255 743 Q236 743 222.5 746.5 Q209 750 199.5 755.5 Q190 761 184 766.5 Q178 772 174 776 L174 863 Q178 867 184 872.5 Q190 878 199.5 883 Q209 888 222.5 892 Q236 896 255 896 Z " />
<glyph glyph-name="Imacron" unicode="&#x12a;" horiz-adv-x="288" d="M51 0 L51 700 L237 700 L237 0 L51 0 Z M-35 755 L-35 867 L323 867 L323 755 L-35 755 Z " />
<glyph glyph-name="Ibreve" unicode="&#x12c;" horiz-adv-x="288" d="M51 0 L51 700 L237 700 L237 0 L51 0 Z M328 832 Q308 790 262 763.5 Q216 737 145 737 Q73 737 26.5 763.5 Q-20 790 -40 832 L-40 894 L84 894 L84 856 Q88 848 102.5 836.5 Q117 825 145 825 Q172 825 186 836.5 Q200 848 204 856 L204 894 L328 894 L328 832 Z " />
<glyph glyph-name="Iogonek" unicode="&#x12e;" horiz-adv-x="288" d="M237 0 Q196 -36 177 -61 Q158 -86 153 -97 L153 -119 Q158 -126 169 -129.5 Q180 -133 194 -133 Q202 -133 212.5 -132 Q223 -131 237 -127 L237 -216 Q226 -222 208.5 -226 Q191 -230 159 -230 Q139 -230 119 -227 Q99 -224 82 -217.5 Q65 -211 51.5 -200.5 Q38 -190 31 -175 L31 -94 Q39 -77 59.5 -51 Q80 -25 112 0 L51 0 L51 700 L237 700 L237 0 Z " />
<glyph glyph-name="IJ" unicode="&#x132;" horiz-adv-x="675" d="M51 0 L51 700 L237 700 L237 0 L51 0 Z M627 138 Q612 108 591 82 Q570 56 539 37.5 Q508 19 466 8 Q424 -3 369 -3 Q346 -3 330.5 -2 Q315 -1 307 0 L307 140 L354 140 Q388 140 410 152.5 Q432 165 441 185 L441 700 L627 700 L627 138 Z " />
<glyph glyph-name="Jcircumflex" unicode="&#x134;" horiz-adv-x="387" d="M339 138 Q324 108 303 82 Q282 56 251 37.5 Q220 19 178 8 Q136 -3 81 -3 Q58 -3 42.5 -2 Q27 -1 19 0 L19 140 L66 140 Q100 140 122 152.5 Q144 165 153 185 L153 700 L339 700 L339 138 Z M429 743 L306 743 L245 834 L182 743 L59 743 L59 759 L134 907 L355 907 L429 759 L429 743 Z " />
<glyph glyph-name="Kcommaaccent" unicode="&#x136;" horiz-adv-x="628" d="M601 0 L449 0 L288 277 L237 220 L237 0 L51 0 L51 700 L237 700 L237 455 L443 700 L575 700 L575 599 L409 413 L601 101 L601 0 Z M315 -46 Q353 -46 373.5 -54.5 Q394 -63 402 -71 L402 -181 Q399 -191 390.5 -202.5 Q382 -214 368.5 -223.5 Q355 -233 336 -239.5 Q317 -246 291 -246 L234 -246 L234 -193 L275 -193 Q289 -193 301 -190.5 Q313 -188 318 -177 L318 -159 L315 -159 Q277 -159 255.5 -152.5 Q234 -146 227 -138 L227 -71 Q234 -63 255.5 -54.5 Q277 -46 315 -46 Z " />
<glyph glyph-name="Lacute" unicode="&#x139;" horiz-adv-x="460" d="M439 141 L439 0 L51 0 L51 700 L237 700 L237 141 L439 141 Z M202 743 L79 743 L79 759 L127 907 L282 907 L282 835 L202 743 Z " />
<glyph glyph-name="Lcaron" unicode="&#x13d;" horiz-adv-x="460" d="M439 141 L439 0 L51 0 L51 700 L237 700 L237 141 L439 141 Z M395 477 L293 477 L293 492 L314 700 L447 700 L447 612 L395 477 Z " />
<glyph glyph-name="Lcommaaccent" unicode="&#x13b;" horiz-adv-x="460" d="M439 141 L439 0 L51 0 L51 700 L237 700 L237 141 L439 141 Z M231 -46 Q269 -46 289.5 -54.5 Q310 -63 318 -71 L318 -181 Q315 -191 306.5 -202.5 Q298 -214 284.5 -223.5 Q271 -233 252 -239.5 Q233 -246 207 -246 L150 -246 L150 -193 L191 -193 Q205 -193 217 -190.5 Q229 -188 234 -177 L234 -159 L231 -159 Q193 -159 171.5 -152.5 Q150 -146 143 -138 L143 -71 Q150 -63 171.5 -54.5 Q193 -46 231 -46 Z " />
<glyph glyph-name="Lslash" unicode="&#x141;" horiz-adv-x="496" d="M475 0 L87 0 L87 173 L22 139 L22 276 L87 310 L87 700 L273 700 L273 406 L390 466 L390 330 L273 269 L273 141 L475 141 L475 0 Z " />
<glyph glyph-name="Ldot" unicode="&#x13f;" horiz-adv-x="495" d="M439 141 L439 0 L51 0 L51 700 L237 700 L237 141 L439 141 Z M484 433 L484 348 Q476 329 452.5 315 Q429 301 393 301 Q358 301 335.5 315 Q313 329 304 348 L304 433 Q313 452 335.5 466 Q358 480 393 480 Q429 480 452.5 466 Q476 452 484 433 Z " />
<glyph glyph-name="Nacute" unicode="&#x143;" horiz-adv-x="671" d="M416 0 L227 414 L224 414 L224 0 L51 0 L51 700 L255 700 L444 286 L447 286 L447 700 L620 700 L620 0 L416 0 Z M388 743 L265 743 L265 759 L313 907 L468 907 L468 835 L388 743 Z " />
<glyph glyph-name="Ncaron" unicode="&#x147;" horiz-adv-x="671" d="M416 0 L227 414 L224 414 L224 0 L51 0 L51 700 L255 700 L444 286 L447 286 L447 700 L620 700 L620 0 L416 0 Z M454 743 L233 743 L158 892 L158 907 L281 907 L344 816 L405 907 L528 907 L528 892 L454 743 Z " />
<glyph glyph-name="Ntilde" unicode="&#xd1;" horiz-adv-x="671" d="M416 0 L227 414 L224 414 L224 0 L51 0 L51 700 L255 700 L444 286 L447 286 L447 700 L620 700 L620 0 L416 0 Z M270 897 Q298 897 316.5 889.5 Q335 882 348.5 873 Q362 864 373.5 856.5 Q385 849 399 849 Q425 849 430 871 L430 892 L528 892 L528 826 Q525 810 516 795 Q507 780 493 768 Q479 756 459.5 749 Q440 742 416 742 Q387 742 368.5 749.5 Q350 757 336.5 766.5 Q323 776 312 783.5 Q301 791 287 791 Q274 791 266.5 784 Q259 777 257 768 L257 747 L159 747 L159 813 Q164 846 193 871.5 Q222 897 270 897 Z " />
<glyph glyph-name="Ncommaaccent" unicode="&#x145;" horiz-adv-x="671" d="M416 0 L227 414 L224 414 L224 0 L51 0 L51 700 L255 700 L444 286 L447 286 L447 700 L620 700 L620 0 L416 0 Z M336 -46 Q374 -46 394.5 -54.5 Q415 -63 423 -71 L423 -181 Q420 -191 411.5 -202.5 Q403 -214 389.5 -223.5 Q376 -233 357 -239.5 Q338 -246 312 -246 L255 -246 L255 -193 L296 -193 Q310 -193 322 -190.5 Q334 -188 339 -177 L339 -159 L336 -159 Q298 -159 276.5 -152.5 Q255 -146 248 -138 L248 -71 Q255 -63 276.5 -54.5 Q298 -46 336 -46 Z " />
<glyph glyph-name="Ograve" unicode="&#xd2;" horiz-adv-x="626" d="M313 715 Q373 715 419 700 Q465 685 498 662.5 Q531 640 552 613 Q573 586 584 562 L584 138 Q573 114 552 87 Q531 60 498 37.5 Q465 15 419.5 0 Q374 -15 313 -15 Q253 -15 207 0 Q161 15 128 37.5 Q95 60 74 87 Q53 114 42 138 L42 562 Q53 586 74 613 Q95 640 128 662.5 Q161 685 206.5 700 Q252 715 313 715 Z M313 571 Q279 571 258 557 Q237 543 228 524 L228 176 Q237 157 258 143 Q279 129 313 129 Q347 129 368 143 Q389 157 398 176 L398 524 Q389 543 368 557 Q347 571 313 571 Z M388 743 L265 743 L185 835 L185 907 L338 907 L388 759 L388 743 Z " />
<glyph glyph-name="Oacute" unicode="&#xd3;" horiz-adv-x="626" d="M313 715 Q373 715 419 700 Q465 685 498 662.5 Q531 640 552 613 Q573 586 584 562 L584 138 Q573 114 552 87 Q531 60 498 37.5 Q465 15 419.5 0 Q374 -15 313 -15 Q253 -15 207 0 Q161 15 128 37.5 Q95 60 74 87 Q53 114 42 138 L42 562 Q53 586 74 613 Q95 640 128 662.5 Q161 685 206.5 700 Q252 715 313 715 Z M313 571 Q279 571 258 557 Q237 543 228 524 L228 176 Q237 157 258 143 Q279 129 313 129 Q347 129 368 143 Q389 157 398 176 L398 524 Q389 543 368 557 Q347 571 313 571 Z M357 743 L234 743 L234 759 L282 907 L437 907 L437 835 L357 743 Z " />
<glyph glyph-name="Ocircumflex" unicode="&#xd4;" horiz-adv-x="626" d="M313 715 Q373 715 419 700 Q465 685 498 662.5 Q531 640 552 613 Q573 586 584 562 L584 138 Q573 114 552 87 Q531 60 498 37.5 Q465 15 419.5 0 Q374 -15 313 -15 Q253 -15 207 0 Q161 15 128 37.5 Q95 60 74 87 Q53 114 42 138 L42 562 Q53 586 74 613 Q95 640 128 662.5 Q161 685 206.5 700 Q252 715 313 715 Z M313 571 Q279 571 258 557 Q237 543 228 524 L228 176 Q237 157 258 143 Q279 129 313 129 Q347 129 368 143 Q389 157 398 176 L398 524 Q389 543 368 557 Q347 571 313 571 Z M497 743 L374 743 L313 834 L250 743 L127 743 L127 759 L202 907 L423 907 L497 759 L497 743 Z " />
<glyph glyph-name="Otilde" unicode="&#xd5;" horiz-adv-x="626" d="M313 715 Q373 715 419 700 Q465 685 498 662.5 Q531 640 552 613 Q573 586 584 562 L584 138 Q573 114 552 87 Q531 60 498 37.5 Q465 15 419.5 0 Q374 -15 313 -15 Q253 -15 207 0 Q161 15 128 37.5 Q95 60 74 87 Q53 114 42 138 L42 562 Q53 586 74 613 Q95 640 128 662.5 Q161 685 206.5 700 Q252 715 313 715 Z M313 571 Q279 571 258 557 Q237 543 228 524 L228 176 Q237 157 258 143 Q279 129 313 129 Q347 129 368 143 Q389 157 398 176 L398 524 Q389 543 368 557 Q347 571 313 571 Z M239 897 Q267 897 285.5 889.5 Q304 882 317.5 873 Q331 864 342.5 856.5 Q354 849 368 849 Q394 849 399 871 L399 892 L497 892 L497 826 Q494 810 485 795 Q476 780 462 768 Q448 756 428.5 749 Q409 742 385 742 Q356 742 337.5 749.5 Q319 757 305.5 766.5 Q292 776 281 783.5 Q270 791 256 791 Q243 791 235.5 784 Q228 777 226 768 L226 747 L128 747 L128 813 Q133 846 162 871.5 Q191 897 239 897 Z " />
<glyph glyph-name="Odieresis" unicode="&#xd6;" horiz-adv-x="626" d="M313 715 Q373 715 419 700 Q465 685 498 662.5 Q531 640 552 613 Q573 586 584 562 L584 138 Q573 114 552 87 Q531 60 498 37.5 Q465 15 419.5 0 Q374 -15 313 -15 Q253 -15 207 0 Q161 15 128 37.5 Q95 60 74 87 Q53 114 42 138 L42 562 Q53 586 74 613 Q95 640 128 662.5 Q161 685 206.5 700 Q252 715 313 715 Z M313 571 Q279 571 258 557 Q237 543 228 524 L228 176 Q237 157 258 143 Q279 129 313 129 Q347 129 368 143 Q389 157 398 176 L398 524 Q389 543 368 557 Q347 571 313 571 Z M201 896 Q234 896 254.5 884.5 Q275 873 282 863 L282 776 Q279 772 273 766.5 Q267 761 257.5 755.5 Q248 750 234 746.5 Q220 743 201 743 Q182 743 168.5 746.5 Q155 750 145 755.5 Q135 761 129 766.5 Q123 772 120 776 L120 863 Q123 867 129.5 872.5 Q136 878 145.5 883 Q155 888 168.5 892 Q182 896 201 896 Z M423 896 Q457 896 477.5 884.5 Q498 873 504 863 L504 776 Q498 767 480 755 Q462 743 423 743 Q404 743 390.5 746.5 Q377 750 367.5 755.5 Q358 761 352 766.5 Q346 772 342 776 L342 863 Q346 867 352 872.5 Q358 878 367.5 883 Q377 888 390.5 892 Q404 896 423 896 Z " />
<glyph glyph-name="Omacron" unicode="&#x14c;" horiz-adv-x="626" d="M313 715 Q373 715 419 700 Q465 685 498 662.5 Q531 640 552 613 Q573 586 584 562 L584 138 Q573 114 552 87 Q531 60 498 37.5 Q465 15 419.5 0 Q374 -15 313 -15 Q253 -15 207 0 Q161 15 128 37.5 Q95 60 74 87 Q53 114 42 138 L42 562 Q53 586 74 613 Q95 640 128 662.5 Q161 685 206.5 700 Q252 715 313 715 Z M313 571 Q279 571 258 557 Q237 543 228 524 L228 176 Q237 157 258 143 Q279 129 313 129 Q347 129 368 143 Q389 157 398 176 L398 524 Q389 543 368 557 Q347 571 313 571 Z M134 755 L134 867 L492 867 L492 755 L134 755 Z " />
<glyph glyph-name="Obreve" unicode="&#x14e;" horiz-adv-x="626" d="M313 715 Q373 715 419 700 Q465 685 498 662.5 Q531 640 552 613 Q573 586 584 562 L584 138 Q573 114 552 87 Q531 60 498 37.5 Q465 15 419.5 0 Q374 -15 313 -15 Q253 -15 207 0 Q161 15 128 37.5 Q95 60 74 87 Q53 114 42 138 L42 562 Q53 586 74 613 Q95 640 128 662.5 Q161 685 206.5 700 Q252 715 313 715 Z M313 571 Q279 571 258 557 Q237 543 228 524 L228 176 Q237 157 258 143 Q279 129 313 129 Q347 129 368 143 Q389 157 398 176 L398 524 Q389 543 368 557 Q347 571 313 571 Z M496 832 Q476 790 430 763.5 Q384 737 313 737 Q241 737 194.5 763.5 Q148 790 128 832 L128 894 L252 894 L252 856 Q256 848 270.5 836.5 Q285 825 313 825 Q340 825 354 836.5 Q368 848 372 856 L372 894 L496 894 L496 832 Z " />
<glyph glyph-name="Ohungarumlaut" unicode="&#x150;" horiz-adv-x="626" d="M313 715 Q373 715 419 700 Q465 685 498 662.5 Q531 640 552 613 Q573 586 584 562 L584 138 Q573 114 552 87 Q531 60 498 37.5 Q465 15 419.5 0 Q374 -15 313 -15 Q253 -15 207 0 Q161 15 128 37.5 Q95 60 74 87 Q53 114 42 138 L42 562 Q53 586 74 613 Q95 640 128 662.5 Q161 685 206.5 700 Q252 715 313 715 Z M313 571 Q279 571 258 557 Q237 543 228 524 L228 176 Q237 157 258 143 Q279 129 313 129 Q347 129 368 143 Q389 157 398 176 L398 524 Q389 543 368 557 Q347 571 313 571 Z M267 743 L156 743 L156 758 L191 907 L322 907 L322 848 L267 743 Z M470 743 L359 743 L359 758 L393 907 L524 907 L524 848 L470 743 Z " />
<glyph glyph-name="Oslash" unicode="&#xd8;" horiz-adv-x="626" d="M557 607 Q566 596 572.5 584.5 Q579 573 584 562 L584 138 Q573 114 552 87 Q531 60 498 37.5 Q465 15 419.5 0 Q374 -15 313 -15 Q256 -15 213 -2 Q170 11 137 31 L115 0 L42 0 L42 55 L69 93 Q60 104 53.5 115.5 Q47 127 42 138 L42 562 Q53 586 74 613 Q95 640 128 662.5 Q161 685 206.5 700 Q252 715 313 715 Q370 715 413 702 Q456 689 489 669 L511 700 L584 700 L584 645 L557 607 Z M391 535 Q380 550 361 560.5 Q342 571 313 571 Q279 571 258 557 Q237 543 228 524 L228 311 L391 535 Z M235 165 Q246 150 265 139.5 Q284 129 313 129 Q347 129 368 143 Q389 157 398 176 L398 389 L235 165 Z " />
<glyph glyph-name="OE" unicode="&#x152;" horiz-adv-x="884" d="M419 0 Q396 -7 370 -11 Q344 -15 313 -15 Q252 -15 206.5 0 Q161 15 128 37.5 Q95 60 74 87 Q53 114 42 138 L42 562 Q53 586 74 613 Q95 640 128 662.5 Q161 685 206.5 700 Q252 715 313 715 Q344 715 370 711 Q396 707 419 700 L842 700 L842 559 L583 559 L583 428 L826 428 L826 287 L583 287 L583 141 L848 141 L848 0 L419 0 Z M313 129 Q347 129 367 143 Q387 157 397 176 L397 524 Q389 543 368 557 Q347 571 313 571 Q279 571 258.5 557 Q238 543 228 524 L228 176 Q236 157 257.5 143 Q279 129 313 129 Z " />
<glyph glyph-name="Racute" unicode="&#x154;" horiz-adv-x="614" d="M583 0 L433 0 L291 265 L237 265 L237 0 L51 0 L51 700 L360 700 Q428 700 484 669 Q540 638 572 581 L572 386 Q554 355 528.5 330.5 Q503 306 469 290 L583 101 L583 0 Z M318 395 Q375 395 397 434 L397 521 Q386 541 365.5 551 Q345 561 318 561 L237 561 L237 395 L318 395 Z M352 743 L229 743 L229 759 L277 907 L432 907 L432 835 L352 743 Z " />
<glyph glyph-name="Rcaron" unicode="&#x158;" horiz-adv-x="614" d="M583 0 L433 0 L291 265 L237 265 L237 0 L51 0 L51 700 L360 700 Q428 700 484 669 Q540 638 572 581 L572 386 Q554 355 528.5 330.5 Q503 306 469 290 L583 101 L583 0 Z M318 395 Q375 395 397 434 L397 521 Q386 541 365.5 551 Q345 561 318 561 L237 561 L237 395 L318 395 Z M418 743 L197 743 L122 892 L122 907 L245 907 L308 816 L369 907 L492 907 L492 892 L418 743 Z " />
<glyph glyph-name="Rcommaaccent" unicode="&#x156;" horiz-adv-x="614" d="M583 0 L433 0 L291 265 L237 265 L237 0 L51 0 L51 700 L360 700 Q428 700 484 669 Q540 638 572 581 L572 386 Q554 355 528.5 330.5 Q503 306 469 290 L583 101 L583 0 Z M318 395 Q375 395 397 434 L397 521 Q386 541 365.5 551 Q345 561 318 561 L237 561 L237 395 L318 395 Z M308 -46 Q346 -46 366.5 -54.5 Q387 -63 395 -71 L395 -181 Q392 -191 383.5 -202.5 Q375 -214 361.5 -223.5 Q348 -233 329 -239.5 Q310 -246 284 -246 L227 -246 L227 -193 L268 -193 Q282 -193 294 -190.5 Q306 -188 311 -177 L311 -159 L308 -159 Q270 -159 248.5 -152.5 Q227 -146 220 -138 L220 -71 Q227 -63 248.5 -54.5 Q270 -46 308 -46 Z " />
<glyph glyph-name="Sacute" unicode="&#x15a;" horiz-adv-x="593" d="M296 715 Q352 715 395 701.5 Q438 688 469 668.5 Q500 649 520 626.5 Q540 604 549 586 L549 504 L389 504 Q381 531 359.5 551 Q338 571 296 571 Q267 571 247.5 559.5 Q228 548 220 534 L220 474 Q226 463 239.5 454.5 Q253 446 284 438 L326 427 Q383 413 422.5 397.5 Q462 382 488.5 365.5 Q515 349 531 332 Q547 315 556 299 L556 120 Q546 102 526.5 78.5 Q507 55 475.5 34 Q444 13 399.5 -1 Q355 -15 295 -15 Q234 -15 189 -1 Q144 13 112.5 33.5 Q81 54 61.5 77 Q42 100 32 119 L32 202 L193 202 Q202 168 228.5 148.5 Q255 129 293 129 Q328 129 348.5 143 Q369 157 377 172 L377 236 Q370 250 354.5 259.5 Q339 269 307 277 L264 287 Q210 300 172.5 314.5 Q135 329 109.5 344 Q84 359 68 375.5 Q52 392 41 410 L41 586 Q51 604 70.5 626 Q90 648 121 668 Q152 688 195.5 701.5 Q239 715 296 715 Z M350 743 L227 743 L227 759 L275 907 L430 907 L430 835 L350 743 Z " />
<glyph glyph-name="Scircumflex" unicode="&#x15c;" horiz-adv-x="593" d="M296 715 Q352 715 395 701.5 Q438 688 469 668.5 Q500 649 520 626.5 Q540 604 549 586 L549 504 L389 504 Q381 531 359.5 551 Q338 571 296 571 Q267 571 247.5 559.5 Q228 548 220 534 L220 474 Q226 463 239.5 454.5 Q253 446 284 438 L326 427 Q383 413 422.5 397.5 Q462 382 488.5 365.5 Q515 349 531 332 Q547 315 556 299 L556 120 Q546 102 526.5 78.5 Q507 55 475.5 34 Q444 13 399.5 -1 Q355 -15 295 -15 Q234 -15 189 -1 Q144 13 112.5 33.5 Q81 54 61.5 77 Q42 100 32 119 L32 202 L193 202 Q202 168 228.5 148.5 Q255 129 293 129 Q328 129 348.5 143 Q369 157 377 172 L377 236 Q370 250 354.5 259.5 Q339 269 307 277 L264 287 Q210 300 172.5 314.5 Q135 329 109.5 344 Q84 359 68 375.5 Q52 392 41 410 L41 586 Q51 604 70.5 626 Q90 648 121 668 Q152 688 195.5 701.5 Q239 715 296 715 Z M490 743 L367 743 L306 834 L243 743 L120 743 L120 759 L195 907 L416 907 L490 759 L490 743 Z " />
<glyph glyph-name="Scaron" unicode="&#x160;" horiz-adv-x="593" d="M296 715 Q352 715 395 701.5 Q438 688 469 668.5 Q500 649 520 626.5 Q540 604 549 586 L549 504 L389 504 Q381 531 359.5 551 Q338 571 296 571 Q267 571 247.5 559.5 Q228 548 220 534 L220 474 Q226 463 239.5 454.5 Q253 446 284 438 L326 427 Q383 413 422.5 397.5 Q462 382 488.5 365.5 Q515 349 531 332 Q547 315 556 299 L556 120 Q546 102 526.5 78.5 Q507 55 475.5 34 Q444 13 399.5 -1 Q355 -15 295 -15 Q234 -15 189 -1 Q144 13 112.5 33.5 Q81 54 61.5 77 Q42 100 32 119 L32 202 L193 202 Q202 168 228.5 148.5 Q255 129 293 129 Q328 129 348.5 143 Q369 157 377 172 L377 236 Q370 250 354.5 259.5 Q339 269 307 277 L264 287 Q210 300 172.5 314.5 Q135 329 109.5 344 Q84 359 68 375.5 Q52 392 41 410 L41 586 Q51 604 70.5 626 Q90 648 121 668 Q152 688 195.5 701.5 Q239 715 296 715 Z M416 743 L195 743 L120 892 L120 907 L243 907 L306 816 L367 907 L490 907 L490 892 L416 743 Z " />
<glyph glyph-name="Scedilla" unicode="&#x15e;" horiz-adv-x="593" d="M326 427 Q383 413 422.5 397.5 Q462 382 488.5 365.5 Q515 349 531 332 Q547 315 556 299 L556 120 Q547 103 529.5 81.5 Q512 60 484.5 40 Q457 20 418.5 5 Q380 -10 329 -14 L319 -40 L327 -40 Q368 -40 388.5 -56 Q409 -72 417 -91 L417 -168 Q403 -198 368 -215 Q333 -232 284 -232 Q249 -232 222 -227 Q195 -222 182 -214 L205 -145 Q222 -149 239.5 -151.5 Q257 -154 274 -154 Q293 -154 306 -149 Q319 -144 323 -136 L323 -116 Q319 -108 306.5 -104.5 Q294 -101 277 -101 L217 -101 L247 -12 Q198 -7 161.5 8 Q125 23 99 42 Q73 61 57 81.5 Q41 102 32 119 L32 202 L193 202 Q202 168 228.5 148.5 Q255 129 293 129 Q328 129 348.5 143 Q369 157 377 172 L377 236 Q370 250 354.5 259.5 Q339 269 307 277 L264 287 Q210 300 172.5 314.5 Q135 329 109.5 344.5 Q84 360 68 376.5 Q52 393 41 411 L41 586 Q51 604 70.5 626 Q90 648 121 668 Q152 688 195.5 701.5 Q239 715 296 715 Q352 715 395 701.5 Q438 688 469 668.5 Q500 649 520 626.5 Q540 604 549 586 L549 504 L389 504 Q381 531 359.5 551 Q338 571 296 571 Q267 571 247.5 559.5 Q228 548 220 534 L220 474 Q226 463 239.5 454.5 Q253 446 284 438 L326 427 Z " />
<glyph glyph-name="Scommaaccent" unicode="&#x218;" horiz-adv-x="593" d="M296 715 Q352 715 395 701.5 Q438 688 469 668.5 Q500 649 520 626.5 Q540 604 549 586 L549 504 L389 504 Q381 531 359.5 551 Q338 571 296 571 Q267 571 247.5 559.5 Q228 548 220 534 L220 474 Q226 463 239.5 454.5 Q253 446 284 438 L326 427 Q383 413 422.5 397.5 Q462 382 488.5 365.5 Q515 349 531 332 Q547 315 556 299 L556 120 Q546 102 526.5 78.5 Q507 55 475.5 34 Q444 13 399.5 -1 Q355 -15 295 -15 Q234 -15 189 -1 Q144 13 112.5 33.5 Q81 54 61.5 77 Q42 100 32 119 L32 202 L193 202 Q202 168 228.5 148.5 Q255 129 293 129 Q328 129 348.5 143 Q369 157 377 172 L377 236 Q370 250 354.5 259.5 Q339 269 307 277 L264 287 Q210 300 172.5 314.5 Q135 329 109.5 344 Q84 359 68 375.5 Q52 392 41 410 L41 586 Q51 604 70.5 626 Q90 648 121 668 Q152 688 195.5 701.5 Q239 715 296 715 Z M295 -46 Q333 -46 353.5 -54.5 Q374 -63 382 -71 L382 -181 Q379 -191 370.5 -202.5 Q362 -214 348.5 -223.5 Q335 -233 316 -239.5 Q297 -246 271 -246 L214 -246 L214 -193 L255 -193 Q269 -193 281 -190.5 Q293 -188 298 -177 L298 -159 L295 -159 Q257 -159 235.5 -152.5 Q214 -146 207 -138 L207 -71 Q214 -63 235.5 -54.5 Q257 -46 295 -46 Z " />
<glyph glyph-name="Tcaron" unicode="&#x164;" horiz-adv-x="552" d="M370 559 L370 0 L184 0 L184 559 L25 559 L25 700 L527 700 L527 559 L370 559 Z M387 743 L166 743 L91 892 L91 907 L214 907 L277 816 L338 907 L461 907 L461 892 L387 743 Z " />
<glyph glyph-name="uni021A" unicode="&#x21a;" horiz-adv-x="552" d="M370 559 L370 0 L184 0 L184 559 L25 559 L25 700 L527 700 L527 559 L370 559 Z M277 -46 Q315 -46 335.5 -54.5 Q356 -63 364 -71 L364 -181 Q361 -191 352.5 -202.5 Q344 -214 330.5 -223.5 Q317 -233 298 -239.5 Q279 -246 253 -246 L196 -246 L196 -193 L237 -193 Q251 -193 263 -190.5 Q275 -188 280 -177 L280 -159 L277 -159 Q239 -159 217.5 -152.5 Q196 -146 189 -138 L189 -71 Q196 -63 217.5 -54.5 Q239 -46 277 -46 Z " />
<glyph glyph-name="Tbar" unicode="&#x166;" horiz-adv-x="552" d="M370 417 L479 417 L479 308 L370 308 L370 0 L184 0 L184 308 L76 308 L76 417 L184 417 L184 559 L25 559 L25 700 L527 700 L527 559 L370 559 L370 417 Z " />
<glyph glyph-name="Ugrave" unicode="&#xd9;" horiz-adv-x="638" d="M590 138 Q579 114 558 87 Q537 60 504 37.5 Q471 15 425.5 0 Q380 -15 319 -15 Q259 -15 213 0 Q167 15 134 37.5 Q101 60 80 87 Q59 114 48 138 L48 700 L234 700 L234 177 Q242 158 263.5 144 Q285 130 319 130 Q353 130 373.5 144 Q394 158 404 177 L404 700 L590 700 L590 138 Z M394 743 L271 743 L191 835 L191 907 L344 907 L394 759 L394 743 Z " />
<glyph glyph-name="Uacute" unicode="&#xda;" horiz-adv-x="638" d="M590 138 Q579 114 558 87 Q537 60 504 37.5 Q471 15 425.5 0 Q380 -15 319 -15 Q259 -15 213 0 Q167 15 134 37.5 Q101 60 80 87 Q59 114 48 138 L48 700 L234 700 L234 177 Q242 158 263.5 144 Q285 130 319 130 Q353 130 373.5 144 Q394 158 404 177 L404 700 L590 700 L590 138 Z M363 743 L240 743 L240 759 L288 907 L443 907 L443 835 L363 743 Z " />
<glyph glyph-name="Ucircumflex" unicode="&#xdb;" horiz-adv-x="638" d="M590 138 Q579 114 558 87 Q537 60 504 37.5 Q471 15 425.5 0 Q380 -15 319 -15 Q259 -15 213 0 Q167 15 134 37.5 Q101 60 80 87 Q59 114 48 138 L48 700 L234 700 L234 177 Q242 158 263.5 144 Q285 130 319 130 Q353 130 373.5 144 Q394 158 404 177 L404 700 L590 700 L590 138 Z M503 743 L380 743 L319 834 L256 743 L133 743 L133 759 L208 907 L429 907 L503 759 L503 743 Z " />
<glyph glyph-name="Utilde" unicode="&#x168;" horiz-adv-x="638" d="M590 138 Q579 114 558 87 Q537 60 504 37.5 Q471 15 425.5 0 Q380 -15 319 -15 Q259 -15 213 0 Q167 15 134 37.5 Q101 60 80 87 Q59 114 48 138 L48 700 L234 700 L234 177 Q242 158 263.5 144 Q285 130 319 130 Q353 130 373.5 144 Q394 158 404 177 L404 700 L590 700 L590 138 Z M245 897 Q273 897 291.5 889.5 Q310 882 323.5 873 Q337 864 348.5 856.5 Q360 849 374 849 Q400 849 405 871 L405 892 L503 892 L503 826 Q500 810 491 795 Q482 780 468 768 Q454 756 434.5 749 Q415 742 391 742 Q362 742 343.5 749.5 Q325 757 311.5 766.5 Q298 776 287 783.5 Q276 791 262 791 Q249 791 241.5 784 Q234 777 232 768 L232 747 L134 747 L134 813 Q139 846 168 871.5 Q197 897 245 897 Z " />
<glyph glyph-name="Udieresis" unicode="&#xdc;" horiz-adv-x="638" d="M590 138 Q579 114 558 87 Q537 60 504 37.5 Q471 15 425.5 0 Q380 -15 319 -15 Q259 -15 213 0 Q167 15 134 37.5 Q101 60 80 87 Q59 114 48 138 L48 700 L234 700 L234 177 Q242 158 263.5 144 Q285 130 319 130 Q353 130 373.5 144 Q394 158 404 177 L404 700 L590 700 L590 138 Z M207 896 Q240 896 260.5 884.5 Q281 873 288 863 L288 776 Q285 772 279 766.5 Q273 761 263.5 755.5 Q254 750 240 746.5 Q226 743 207 743 Q188 743 174.5 746.5 Q161 750 151 755.5 Q141 761 135 766.5 Q129 772 126 776 L126 863 Q129 867 135.5 872.5 Q142 878 151.5 883 Q161 888 174.5 892 Q188 896 207 896 Z M429 896 Q463 896 483.5 884.5 Q504 873 510 863 L510 776 Q504 767 486 755 Q468 743 429 743 Q410 743 396.5 746.5 Q383 750 373.5 755.5 Q364 761 358 766.5 Q352 772 348 776 L348 863 Q352 867 358 872.5 Q364 878 373.5 883 Q383 888 396.5 892 Q410 896 429 896 Z " />
<glyph glyph-name="Umacron" unicode="&#x16a;" horiz-adv-x="638" d="M590 138 Q579 114 558 87 Q537 60 504 37.5 Q471 15 425.5 0 Q380 -15 319 -15 Q259 -15 213 0 Q167 15 134 37.5 Q101 60 80 87 Q59 114 48 138 L48 700 L234 700 L234 177 Q242 158 263.5 144 Q285 130 319 130 Q353 130 373.5 144 Q394 158 404 177 L404 700 L590 700 L590 138 Z M140 755 L140 867 L498 867 L498 755 L140 755 Z " />
<glyph glyph-name="Ubreve" unicode="&#x16c;" horiz-adv-x="638" d="M590 138 Q579 114 558 87 Q537 60 504 37.5 Q471 15 425.5 0 Q380 -15 319 -15 Q259 -15 213 0 Q167 15 134 37.5 Q101 60 80 87 Q59 114 48 138 L48 700 L234 700 L234 177 Q242 158 263.5 144 Q285 130 319 130 Q353 130 373.5 144 Q394 158 404 177 L404 700 L590 700 L590 138 Z M502 832 Q482 790 436 763.5 Q390 737 319 737 Q247 737 200.5 763.5 Q154 790 134 832 L134 894 L258 894 L258 856 Q262 848 276.5 836.5 Q291 825 319 825 Q346 825 360 836.5 Q374 848 378 856 L378 894 L502 894 L502 832 Z " />
<glyph glyph-name="Uring" unicode="&#x16e;" horiz-adv-x="638" d="M590 138 Q579 114 558 87 Q537 60 504 37.5 Q471 15 425.5 0 Q380 -15 319 -15 Q259 -15 213 0 Q167 15 134 37.5 Q101 60 80 87 Q59 114 48 138 L48 700 L231 700 Q202 716 186 745 L186 839 Q202 869 237 887 Q272 905 319 905 Q366 905 401 887 Q436 869 452 839 L452 745 Q436 716 407 700 L590 700 L590 138 Z M263 767 Q267 760 281 752 Q295 744 319 744 Q343 744 357 752 Q371 760 375 767 L375 816 Q371 824 357 832 Q343 840 319 840 Q295 840 281 832 Q267 824 263 816 L263 767 Z M319 130 Q353 130 373.5 144 Q394 158 404 177 L404 699 Q369 679 319 679 Q269 679 234 699 L234 177 Q242 158 263.5 144 Q285 130 319 130 Z " />
<glyph glyph-name="Uhungarumlaut" unicode="&#x170;" horiz-adv-x="638" d="M590 138 Q579 114 558 87 Q537 60 504 37.5 Q471 15 425.5 0 Q380 -15 319 -15 Q259 -15 213 0 Q167 15 134 37.5 Q101 60 80 87 Q59 114 48 138 L48 700 L234 700 L234 177 Q242 158 263.5 144 Q285 130 319 130 Q353 130 373.5 144 Q394 158 404 177 L404 700 L590 700 L590 138 Z M273 743 L162 743 L162 758 L197 907 L328 907 L328 848 L273 743 Z M476 743 L365 743 L365 758 L399 907 L530 907 L530 848 L476 743 Z " />
<glyph glyph-name="Uogonek" unicode="&#x172;" horiz-adv-x="638" d="M590 138 Q581 118 566.5 98 Q552 78 529 55 Q504 30 484 5.5 Q464 -19 449 -39.5 Q434 -60 425 -75.5 Q416 -91 413 -97 L413 -119 Q418 -126 429 -129.5 Q440 -133 454 -133 Q462 -133 472.5 -132 Q483 -131 497 -127 L497 -216 Q486 -222 468.5 -226 Q451 -230 419 -230 Q399 -230 379 -227 Q359 -224 342 -217.5 Q325 -211 311.5 -200.5 Q298 -190 291 -175 L291 -94 Q298 -80 314.5 -58 Q331 -36 356 -13 Q348 -14 338 -14.5 Q328 -15 319 -15 Q259 -15 213 0 Q167 15 134 37.5 Q101 60 80 87 Q59 114 48 138 L48 700 L234 700 L234 177 Q242 158 263.5 144 Q285 130 319 130 Q353 130 373.5 144 Q394 158 404 177 L404 700 L590 700 L590 138 Z " />
<glyph glyph-name="Wgrave" unicode="&#x1e80;" horiz-adv-x="928" d="M782 0 L553 0 L466 391 L463 391 L377 0 L146 0 L29 599 L29 700 L206 700 L285 222 L288 222 L390 700 L549 700 L654 222 L657 222 L734 700 L899 700 L899 599 L782 0 Z M545 743 L422 743 L342 835 L342 907 L495 907 L545 759 L545 743 Z " />
<glyph glyph-name="Wacute" unicode="&#x1e82;" horiz-adv-x="928" d="M782 0 L553 0 L466 391 L463 391 L377 0 L146 0 L29 599 L29 700 L206 700 L285 222 L288 222 L390 700 L549 700 L654 222 L657 222 L734 700 L899 700 L899 599 L782 0 Z M514 743 L391 743 L391 759 L439 907 L594 907 L594 835 L514 743 Z " />
<glyph glyph-name="Wcircumflex" unicode="&#x174;" horiz-adv-x="928" d="M782 0 L553 0 L466 391 L463 391 L377 0 L146 0 L29 599 L29 700 L206 700 L285 222 L288 222 L390 700 L549 700 L654 222 L657 222 L734 700 L899 700 L899 599 L782 0 Z M654 743 L531 743 L470 834 L407 743 L284 743 L284 759 L359 907 L580 907 L654 759 L654 743 Z " />
<glyph glyph-name="Wdieresis" unicode="&#x1e84;" horiz-adv-x="928" d="M782 0 L553 0 L466 391 L463 391 L377 0 L146 0 L29 599 L29 700 L206 700 L285 222 L288 222 L390 700 L549 700 L654 222 L657 222 L734 700 L899 700 L899 599 L782 0 Z M358 896 Q391 896 411.5 884.5 Q432 873 439 863 L439 776 Q436 772 430 766.5 Q424 761 414.5 755.5 Q405 750 391 746.5 Q377 743 358 743 Q339 743 325.5 746.5 Q312 750 302 755.5 Q292 761 286 766.5 Q280 772 277 776 L277 863 Q280 867 286.5 872.5 Q293 878 302.5 883 Q312 888 325.5 892 Q339 896 358 896 Z M580 896 Q614 896 634.5 884.5 Q655 873 661 863 L661 776 Q655 767 637 755 Q619 743 580 743 Q561 743 547.5 746.5 Q534 750 524.5 755.5 Q515 761 509 766.5 Q503 772 499 776 L499 863 Q503 867 509 872.5 Q515 878 524.5 883 Q534 888 547.5 892 Q561 896 580 896 Z " />
<glyph glyph-name="Ygrave" unicode="&#x1ef2;" horiz-adv-x="590" d="M384 267 L384 0 L197 0 L197 286 L25 599 L25 700 L187 700 L299 455 L302 455 L414 700 L566 700 L566 599 L384 267 Z M370 743 L247 743 L167 835 L167 907 L320 907 L370 759 L370 743 Z " />
<glyph glyph-name="Yacute" unicode="&#xdd;" horiz-adv-x="590" d="M384 267 L384 0 L197 0 L197 286 L25 599 L25 700 L187 700 L299 455 L302 455 L414 700 L566 700 L566 599 L384 267 Z M339 743 L216 743 L216 759 L264 907 L419 907 L419 835 L339 743 Z " />
<glyph glyph-name="Ycircumflex" unicode="&#x176;" horiz-adv-x="590" d="M384 267 L384 0 L197 0 L197 286 L25 599 L25 700 L187 700 L299 455 L302 455 L414 700 L566 700 L566 599 L384 267 Z M480 743 L357 743 L296 834 L233 743 L110 743 L110 759 L185 907 L406 907 L480 759 L480 743 Z " />
<glyph glyph-name="Ydieresis" unicode="&#x178;" horiz-adv-x="590" d="M384 267 L384 0 L197 0 L197 286 L25 599 L25 700 L187 700 L299 455 L302 455 L414 700 L566 700 L566 599 L384 267 Z M184 896 Q217 896 237.5 884.5 Q258 873 265 863 L265 776 Q262 772 256 766.5 Q250 761 240.5 755.5 Q231 750 217 746.5 Q203 743 184 743 Q165 743 151.5 746.5 Q138 750 128 755.5 Q118 761 112 766.5 Q106 772 103 776 L103 863 Q106 867 112.5 872.5 Q119 878 128.5 883 Q138 888 151.5 892 Q165 896 184 896 Z M406 896 Q440 896 460.5 884.5 Q481 873 487 863 L487 776 Q481 767 463 755 Q445 743 406 743 Q387 743 373.5 746.5 Q360 750 350.5 755.5 Q341 761 335 766.5 Q329 772 325 776 L325 863 Q329 867 335 872.5 Q341 878 350.5 883 Q360 888 373.5 892 Q387 896 406 896 Z " />
<glyph glyph-name="Zacute" unicode="&#x179;" horiz-adv-x="556" d="M252 141 L524 141 L524 0 L31 0 L31 120 L301 559 L35 559 L35 700 L524 700 L524 580 L252 141 Z M322 743 L199 743 L199 759 L247 907 L402 907 L402 835 L322 743 Z " />
<glyph glyph-name="Zcaron" unicode="&#x17d;" horiz-adv-x="556" d="M252 141 L524 141 L524 0 L31 0 L31 120 L301 559 L35 559 L35 700 L524 700 L524 580 L252 141 Z M388 743 L167 743 L92 892 L92 907 L215 907 L278 816 L339 907 L462 907 L462 892 L388 743 Z " />
<glyph glyph-name="Zdotaccent" unicode="&#x17b;" horiz-adv-x="556" d="M252 141 L524 141 L524 0 L31 0 L31 120 L301 559 L35 559 L35 700 L524 700 L524 580 L252 141 Z M277 907 Q317 907 338.5 892 Q360 877 367 860 L367 794 Q360 777 338.5 762 Q317 747 277 747 Q239 747 217 762 Q195 777 187 794 L187 860 Q195 877 217 892 Q239 907 277 907 Z " />
<glyph glyph-name="Eng" unicode="&#x14a;" horiz-adv-x="671" d="M620 -33 Q608 -61 584.5 -87 Q561 -113 527.5 -133 Q494 -153 449.5 -165 Q405 -177 350 -177 Q336 -177 325 -176.5 Q314 -176 309 -175 L309 -39 Q314 -40 325.5 -40.5 Q337 -41 347 -41 Q401 -41 425 -12 L227 414 L224 414 L224 0 L51 0 L51 700 L255 700 L444 286 L447 286 L447 700 L620 700 L620 -33 Z " />
<glyph glyph-name="Eth" unicode="&#xd0;" horiz-adv-x="653" d="M371 700 Q419 700 457 687.5 Q495 675 523.5 655.5 Q552 636 571.5 611.5 Q591 587 602 562 L602 138 Q591 113 571.5 88.5 Q552 64 523.5 44.5 Q495 25 457 12.5 Q419 0 371 0 L65 0 L65 287 L28 287 L28 423 L65 423 L65 700 L371 700 Z M416 517 Q408 536 386.5 548.5 Q365 561 332 561 L251 561 L251 423 L344 423 L344 287 L251 287 L251 139 L332 139 Q365 139 386.5 151.5 Q408 164 416 183 L416 517 Z " />
<glyph glyph-name="Thorn" unicode="&#xde;" horiz-adv-x="600" d="M356 591 Q424 591 480 561 Q536 531 570 472 L570 258 Q557 234 537 212 Q517 190 490 173.5 Q463 157 429.5 147.5 Q396 138 356 138 L237 138 L237 0 L51 0 L51 700 L237 700 L237 591 L356 591 Z M391 413 Q380 433 359 442.5 Q338 452 313 452 L237 452 L237 277 L313 277 Q369 277 391 317 L391 413 Z " />
<glyph glyph-name="a" unicode="a" horiz-adv-x="562" d="M276 559 Q331 559 372.5 545.5 Q414 532 444 512 Q474 492 493 467.5 Q512 443 521 422 L521 0 L355 0 L355 38 Q332 15 297.5 0 Q263 -15 213 -15 Q172 -15 141.5 -5.5 Q111 4 89 17 Q67 30 54 44 Q41 58 36 68 L36 240 Q42 251 55 267 Q68 283 89.5 297.5 Q111 312 141.5 322 Q172 332 213 332 L349 332 L349 388 Q341 404 322 415 Q303 426 276 426 Q247 426 227.5 413 Q208 400 197 378 L48 378 L48 453 Q54 463 70 480.5 Q86 498 113 515.5 Q140 533 180.5 546 Q221 559 276 559 Z M273 101 Q301 101 319.5 109.5 Q338 118 349 130 L349 222 L273 222 Q244 222 227.5 213 Q211 204 205 196 L205 130 Q211 122 227.5 111.5 Q244 101 273 101 Z " />
<glyph glyph-name="b" unicode="b" horiz-adv-x="565" d="M347 555 Q387 555 418 542.5 Q449 530 471 511 Q493 492 507 470 Q521 448 528 428 L528 116 Q521 96 507 74 Q493 52 471 33 Q449 14 418 1.5 Q387 -11 347 -11 Q299 -11 265.5 4.5 Q232 20 209 44 L209 0 L43 0 L43 700 L215 700 L215 505 Q238 527 270.5 541 Q303 555 347 555 Z M355 389 Q350 399 331.5 410 Q313 421 286 421 Q262 421 244 414 Q226 407 215 396 L215 148 Q226 138 244 130.5 Q262 123 287 123 Q313 123 331 133.5 Q349 144 355 155 L355 389 Z " />
<glyph glyph-name="c" unicode="c" horiz-adv-x="547" d="M283 559 Q338 559 378.5 546 Q419 533 447 514.5 Q475 496 492 476.5 Q509 457 516 444 L516 370 L367 370 Q355 398 335 412 Q315 426 283 426 Q255 426 236 414 Q217 402 210 387 L210 157 Q218 142 236 130 Q254 118 283 118 Q315 118 335 132 Q355 146 367 174 L516 174 L516 100 Q509 87 492 67.5 Q475 48 447 29.5 Q419 11 378.5 -2 Q338 -15 283 -15 Q228 -15 186.5 -1.5 Q145 12 115 32 Q85 52 66 76.5 Q47 101 38 122 L38 422 Q47 443 66 467.5 Q85 492 115 512 Q145 532 186.5 545.5 Q228 559 283 559 Z " />
<glyph glyph-name="d" unicode="d" horiz-adv-x="565" d="M522 0 L357 0 L357 45 Q334 21 300.5 5 Q267 -11 219 -11 Q178 -11 147.5 1.5 Q117 14 95 33 Q73 52 59 74 Q45 96 38 116 L38 428 Q45 448 59 470 Q73 492 95 511 Q117 530 147.5 542.5 Q178 555 219 555 Q263 555 295 541.5 Q327 528 350 506 L350 700 L522 700 L522 0 Z M210 155 Q216 145 233 134 Q250 123 279 123 Q304 123 321.5 130 Q339 137 350 147 L350 396 Q339 407 321.5 414 Q304 421 279 421 Q251 421 232.5 409.5 Q214 398 210 389 L210 155 Z " />
<glyph glyph-name="e" unicode="e" horiz-adv-x="553" d="M283 559 Q338 559 378.5 545.5 Q419 532 447.5 513.5 Q476 495 492.5 475.5 Q509 456 516 444 L516 223 L210 223 L210 153 Q218 138 237 126 Q256 114 284 114 Q316 114 336 128 Q356 142 370 170 L516 170 L516 100 Q509 88 492.5 68.5 Q476 49 447 30 Q418 11 378 -2 Q338 -15 283 -15 Q228 -15 186.5 -2 Q145 11 115 31.5 Q85 52 66 76.5 Q47 101 38 122 L38 422 Q46 442 65.5 467 Q85 492 115 512 Q145 532 186.5 545.5 Q228 559 283 559 Z M283 430 Q255 430 236 418 Q217 406 210 391 L210 334 L357 334 L357 391 Q350 406 330.5 418 Q311 430 283 430 Z " />
<glyph glyph-name="f" unicode="f" horiz-adv-x="354" d="M251 732 Q286 732 311 727.5 Q336 723 347 719 L347 602 Q339 604 316 604 Q284 604 266.5 596.5 Q249 589 244 579 L244 544 L333 544 L333 420 L244 420 L244 0 L71 0 L71 420 L21 420 L21 544 L71 544 L71 636 Q77 653 90 670 Q103 687 124.5 701 Q146 715 177.5 723.5 Q209 732 251 732 Z " />
<glyph glyph-name="g" unicode="g" horiz-adv-x="565" d="M522 -48 Q512 -70 493 -93.5 Q474 -117 444 -136.5 Q414 -156 372.5 -168.5 Q331 -181 276 -181 Q220 -181 179 -168.5 Q138 -156 109.5 -138 Q81 -120 63.5 -100 Q46 -80 38 -65 L38 -3 L193 -3 Q205 -26 226.5 -37.5 Q248 -49 277 -49 Q306 -49 324 -38.5 Q342 -28 350 -12 L350 82 Q327 60 294.5 46 Q262 32 219 32 Q178 32 147.5 44.5 Q117 57 95 76 Q73 95 59 117 Q45 139 38 159 L38 428 Q45 448 59 470 Q73 492 95 511 Q117 530 147.5 542.5 Q178 555 219 555 Q264 555 299 539 Q334 523 357 498 L357 544 L522 544 L522 -48 Z M279 167 Q304 167 321.5 174 Q339 181 350 191 L350 397 Q339 407 321 414 Q303 421 279 421 Q252 421 233.5 410 Q215 399 210 389 L210 199 Q215 188 233.5 177.5 Q252 167 279 167 Z " />
<glyph glyph-name="h" unicode="h" horiz-adv-x="570" d="M347 555 Q387 555 418 542.5 Q449 530 471 511 Q493 492 507 470.5 Q521 449 528 428 L528 0 L355 0 L355 389 Q350 400 331.5 410.5 Q313 421 286 421 Q261 421 243.5 414 Q226 407 215 396 L215 0 L43 0 L43 700 L215 700 L215 505 Q239 527 271 541 Q303 555 347 555 Z " />
<glyph glyph-name="i" unicode="i" horiz-adv-x="263" d="M45 0 L45 544 L217 544 L217 0 L45 0 Z M131 754 Q169 754 191 738.5 Q213 723 221 706 L221 641 Q213 624 191 609 Q169 594 131 594 Q93 594 71 609 Q49 624 41 641 L41 706 Q49 723 71 738.5 Q93 754 131 754 Z " />
<glyph glyph-name="j" unicode="j" horiz-adv-x="259" d="M215 -46 Q206 -69 188 -92.5 Q170 -116 141 -135.5 Q112 -155 69.5 -167.5 Q27 -180 -30 -180 L-30 -48 Q-1 -47 17.5 -33.5 Q36 -20 43 -1 L43 544 L215 544 L215 -46 Z M130 754 Q168 754 190 738.5 Q212 723 220 706 L220 641 Q212 624 190 609 Q168 594 130 594 Q92 594 70 609 Q48 624 40 641 L40 706 Q48 723 70 738.5 Q92 754 130 754 Z " />
<glyph glyph-name="k" unicode="k" horiz-adv-x="553" d="M533 0 L394 0 L265 201 L215 148 L215 0 L43 0 L43 700 L215 700 L215 355 L390 544 L507 544 L507 452 L382 322 L533 92 L533 0 Z " />
<glyph glyph-name="l" unicode="l" horiz-adv-x="258" d="M43 0 L43 700 L215 700 L215 0 L43 0 Z " />
<glyph glyph-name="m" unicode="m" horiz-adv-x="839" d="M628 555 Q667 555 696 543 Q725 531 745 512.5 Q765 494 778 472.5 Q791 451 797 431 L797 0 L625 0 L625 392 Q620 403 605 412 Q590 421 566 421 Q545 421 530 415 Q515 409 506 400 L506 0 L334 0 L334 392 Q328 404 313 412.5 Q298 421 275 421 Q255 421 239.5 415 Q224 409 215 400 L215 0 L43 0 L43 544 L203 544 L203 497 Q226 523 259 539 Q292 555 337 555 Q388 555 424.5 534 Q461 513 481 482 Q503 513 540 534 Q577 555 628 555 Z " />
<glyph glyph-name="n" unicode="n" horiz-adv-x="569" d="M347 555 Q387 555 418 542.5 Q449 530 471 511 Q493 492 507 469.5 Q521 447 527 428 L527 0 L355 0 L355 389 Q348 401 330.5 411 Q313 421 286 421 Q261 421 243.5 414 Q226 407 215 397 L215 0 L43 0 L43 544 L203 544 L203 494 Q227 520 262.5 537.5 Q298 555 347 555 Z " />
<glyph glyph-name="o" unicode="o" horiz-adv-x="567" d="M284 559 Q339 559 380.5 545.5 Q422 532 451.5 512 Q481 492 500 467.5 Q519 443 529 422 L529 122 Q520 101 500.5 76.5 Q481 52 451.5 32 Q422 12 380.5 -1.5 Q339 -15 284 -15 Q229 -15 187 -1.5 Q145 12 115 32 Q85 52 66 76.5 Q47 101 38 122 L38 422 Q47 443 66.5 467.5 Q86 492 115.5 512 Q145 532 187 545.5 Q229 559 284 559 Z M283 426 Q255 426 236 414 Q217 402 210 387 L210 157 Q218 142 236.5 130 Q255 118 283 118 Q312 118 331 130 Q350 142 357 157 L357 387 Q350 402 331 414 Q312 426 283 426 Z " />
<glyph glyph-name="p" unicode="p" horiz-adv-x="565" d="M347 555 Q387 555 418 542.5 Q449 530 471 511 Q493 492 507 469.5 Q521 447 528 428 L528 116 Q521 96 507 74 Q493 52 471 33 Q449 14 418 1.5 Q387 -11 347 -11 Q302 -11 270 3 Q238 17 215 39 L215 -166 L43 -166 L43 544 L209 544 L209 500 Q233 525 267 540 Q301 555 347 555 Z M355 389 Q348 402 329.5 411.5 Q311 421 286 421 Q263 421 244.5 414 Q226 407 215 396 L215 148 Q226 138 244 130.5 Q262 123 287 123 Q313 123 331.5 134 Q350 145 355 155 L355 389 Z " />
<glyph glyph-name="q" unicode="q" horiz-adv-x="565" d="M522 -166 L350 -166 L350 38 Q327 16 295 2.5 Q263 -11 219 -11 Q178 -11 147.5 1.5 Q117 14 95 33 Q73 52 59 74 Q45 96 38 116 L38 428 Q45 447 59 469.5 Q73 492 95 511 Q117 530 147.5 542.5 Q178 555 219 555 Q264 555 298.5 539.5 Q333 524 357 499 L357 544 L522 544 L522 -166 Z M279 123 Q303 123 321 130 Q339 137 350 147 L350 396 Q339 407 321 414 Q303 421 279 421 Q253 421 234.5 410.5 Q216 400 210 389 L210 155 Q216 144 234 133.5 Q252 123 279 123 Z " />
<glyph glyph-name="r" unicode="r" horiz-adv-x="390" d="M348 545 Q351 545 356 545 Q361 545 369 544 L369 386 Q361 387 354.5 387 Q348 387 343 387 Q292 387 260.5 377 Q229 367 215 353 L215 0 L42 0 L42 544 L203 544 L203 469 Q223 500 256.5 522.5 Q290 545 348 545 Z " />
<glyph glyph-name="s" unicode="s" horiz-adv-x="515" d="M258 559 Q309 559 347 547.5 Q385 536 411.5 519.5 Q438 503 454.5 486.5 Q471 470 479 457 L479 393 L329 393 Q320 413 303 424.5 Q286 436 257 436 Q234 436 217.5 428 Q201 420 194 410 L194 371 Q200 361 215 354.5 Q230 348 250 343 L299 333 Q344 324 376.5 312.5 Q409 301 431.5 288.5 Q454 276 466.5 264 Q479 252 485 242 L485 91 Q477 79 460.5 61 Q444 43 416.5 26 Q389 9 349.5 -3 Q310 -15 257 -15 Q204 -15 164.5 -3 Q125 9 97.5 26 Q70 43 53.5 61 Q37 79 30 91 L30 156 L179 156 Q190 133 209.5 120.5 Q229 108 258 108 Q284 108 301.5 117 Q319 126 327 138 L327 176 Q320 187 305 194 Q290 201 269 205 L220 214 Q175 223 143 234.5 Q111 246 89.5 259 Q68 272 55 284.5 Q42 297 36 306 L36 457 Q42 468 59 485.5 Q76 503 102.5 519.5 Q129 536 167.5 547.5 Q206 559 258 559 Z " />
<glyph glyph-name="t" unicode="t" horiz-adv-x="367" d="M316 118 Q327 118 336 119 Q345 120 347 120 L347 0 Q333 -5 308 -9 Q283 -13 251 -13 Q209 -13 178 -4.5 Q147 4 125 18 Q103 32 90 49 Q77 66 71 83 L71 420 L21 420 L21 544 L71 544 L71 656 L244 656 L244 544 L333 544 L333 420 L244 420 L244 143 Q250 134 267 126 Q284 118 316 118 Z " />
<glyph glyph-name="u" unicode="u" horiz-adv-x="564" d="M521 0 L361 0 L361 49 Q338 23 303.5 6 Q269 -11 220 -11 Q179 -11 149 1.5 Q119 14 97 33 Q75 52 61.5 74 Q48 96 41 115 L41 544 L214 544 L214 155 Q219 145 236 134 Q253 123 280 123 Q304 123 321.5 130 Q339 137 349 148 L349 544 L521 544 L521 0 Z " />
<glyph glyph-name="v" unicode="v" horiz-adv-x="545" d="M379 0 L167 0 L27 452 L27 544 L189 544 L279 183 L282 183 L373 544 L518 544 L518 452 L379 0 Z " />
<glyph glyph-name="w" unicode="w" horiz-adv-x="807" d="M664 0 L479 0 L409 288 L406 288 L336 0 L145 0 L29 452 L29 544 L191 544 L258 191 L261 191 L342 544 L485 544 L564 191 L567 191 L635 544 L780 544 L780 452 L664 0 Z " />
<glyph glyph-name="x" unicode="x" horiz-adv-x="529" d="M385 278 L503 92 L503 0 L348 0 L266 181 L263 181 L178 0 L26 0 L26 92 L143 278 L33 452 L33 544 L185 544 L263 374 L266 374 L345 544 L496 544 L496 452 L385 278 Z " />
<glyph glyph-name="y" unicode="y" horiz-adv-x="540" d="M278 223 L363 544 L514 544 L514 452 L334 -98 Q308 -130 260 -153.5 Q212 -177 134 -177 Q105 -177 80.5 -174 Q56 -171 42 -166 L42 -45 Q51 -46 63 -46.5 Q75 -47 88 -47 Q130 -47 151.5 -38 Q173 -29 183 -18 L190 7 L27 451 L27 544 L189 544 L275 223 L278 223 Z " />
<glyph glyph-name="z" unicode="z" horiz-adv-x="493" d="M223 127 L467 127 L467 0 L26 0 L26 118 L262 417 L34 417 L34 544 L467 544 L467 434 L223 127 Z " />
<glyph glyph-name="agrave" unicode="&#xe0;" horiz-adv-x="562" d="M276 559 Q331 559 372.5 545.5 Q414 532 444 512 Q474 492 493 467.5 Q512 443 521 422 L521 0 L355 0 L355 38 Q332 15 297.5 0 Q263 -15 213 -15 Q172 -15 141.5 -5.5 Q111 4 89 17 Q67 30 54 44 Q41 58 36 68 L36 240 Q42 251 55 267 Q68 283 89.5 297.5 Q111 312 141.5 322 Q172 332 213 332 L349 332 L349 388 Q341 404 322 415 Q303 426 276 426 Q247 426 227.5 413 Q208 400 197 378 L48 378 L48 453 Q54 463 70 480.5 Q86 498 113 515.5 Q140 533 180.5 546 Q221 559 276 559 Z M273 101 Q301 101 319.5 109.5 Q338 118 349 130 L349 222 L273 222 Q244 222 227.5 213 Q211 204 205 196 L205 130 Q211 122 227.5 111.5 Q244 101 273 101 Z M351 601 L223 601 L143 695 L143 768 L301 768 L351 616 L351 601 Z " />
<glyph glyph-name="aacute" unicode="&#xe1;" horiz-adv-x="562" d="M276 559 Q331 559 372.5 545.5 Q414 532 444 512 Q474 492 493 467.5 Q512 443 521 422 L521 0 L355 0 L355 38 Q332 15 297.5 0 Q263 -15 213 -15 Q172 -15 141.5 -5.5 Q111 4 89 17 Q67 30 54 44 Q41 58 36 68 L36 240 Q42 251 55 267 Q68 283 89.5 297.5 Q111 312 141.5 322 Q172 332 213 332 L349 332 L349 388 Q341 404 322 415 Q303 426 276 426 Q247 426 227.5 413 Q208 400 197 378 L48 378 L48 453 Q54 463 70 480.5 Q86 498 113 515.5 Q140 533 180.5 546 Q221 559 276 559 Z M273 101 Q301 101 319.5 109.5 Q338 118 349 130 L349 222 L273 222 Q244 222 227.5 213 Q211 204 205 196 L205 130 Q211 122 227.5 111.5 Q244 101 273 101 Z M347 601 L218 601 L218 616 L267 768 L427 768 L427 696 L347 601 Z " />
<glyph glyph-name="acircumflex" unicode="&#xe2;" horiz-adv-x="562" d="M276 559 Q331 559 372.5 545.5 Q414 532 444 512 Q474 492 493 467.5 Q512 443 521 422 L521 0 L355 0 L355 38 Q332 15 297.5 0 Q263 -15 213 -15 Q172 -15 141.5 -5.5 Q111 4 89 17 Q67 30 54 44 Q41 58 36 68 L36 240 Q42 251 55 267 Q68 283 89.5 297.5 Q111 312 141.5 322 Q172 332 213 332 L349 332 L349 388 Q341 404 322 415 Q303 426 276 426 Q247 426 227.5 413 Q208 400 197 378 L48 378 L48 453 Q54 463 70 480.5 Q86 498 113 515.5 Q140 533 180.5 546 Q221 559 276 559 Z M273 101 Q301 101 319.5 109.5 Q338 118 349 130 L349 222 L273 222 Q244 222 227.5 213 Q211 204 205 196 L205 130 Q211 122 227.5 111.5 Q244 101 273 101 Z M470 597 L347 597 L286 691 L223 597 L100 597 L100 613 L175 764 L396 764 L470 613 L470 597 Z " />
<glyph glyph-name="atilde" unicode="&#xe3;" horiz-adv-x="562" d="M276 559 Q331 559 372.5 545.5 Q414 532 444 512 Q474 492 493 467.5 Q512 443 521 422 L521 0 L355 0 L355 38 Q332 15 297.5 0 Q263 -15 213 -15 Q172 -15 141.5 -5.5 Q111 4 89 17 Q67 30 54 44 Q41 58 36 68 L36 240 Q42 251 55 267 Q68 283 89.5 297.5 Q111 312 141.5 322 Q172 332 213 332 L349 332 L349 388 Q341 404 322 415 Q303 426 276 426 Q247 426 227.5 413 Q208 400 197 378 L48 378 L48 453 Q54 463 70 480.5 Q86 498 113 515.5 Q140 533 180.5 546 Q221 559 276 559 Z M273 101 Q301 101 319.5 109.5 Q338 118 349 130 L349 222 L273 222 Q244 222 227.5 213 Q211 204 205 196 L205 130 Q211 122 227.5 111.5 Q244 101 273 101 Z M212 753 Q240 753 258.5 745.5 Q277 738 290.5 729 Q304 720 315.5 712.5 Q327 705 341 705 Q367 705 372 728 L372 748 L470 748 L470 683 Q467 667 458 651.5 Q449 636 435 624 Q421 612 402 605 Q383 598 359 598 Q330 598 311.5 605.5 Q293 613 279.5 622.5 Q266 632 254.5 639.5 Q243 647 229 647 Q216 647 208.5 640 Q201 633 199 624 L199 604 L101 604 L101 669 Q106 702 135 727.5 Q164 753 212 753 Z " />
<glyph glyph-name="adieresis" unicode="&#xe4;" horiz-adv-x="562" d="M276 559 Q331 559 372.5 545.5 Q414 532 444 512 Q474 492 493 467.5 Q512 443 521 422 L521 0 L355 0 L355 38 Q332 15 297.5 0 Q263 -15 213 -15 Q172 -15 141.5 -5.5 Q111 4 89 17 Q67 30 54 44 Q41 58 36 68 L36 240 Q42 251 55 267 Q68 283 89.5 297.5 Q111 312 141.5 322 Q172 332 213 332 L349 332 L349 388 Q341 404 322 415 Q303 426 276 426 Q247 426 227.5 413 Q208 400 197 378 L48 378 L48 453 Q54 463 70 480.5 Q86 498 113 515.5 Q140 533 180.5 546 Q221 559 276 559 Z M273 101 Q301 101 319.5 109.5 Q338 118 349 130 L349 222 L273 222 Q244 222 227.5 213 Q211 204 205 196 L205 130 Q211 122 227.5 111.5 Q244 101 273 101 Z M173 751 Q192 751 206 747 Q220 743 229.5 738 Q239 733 245 727 Q251 721 254 717 L254 626 Q251 622 245 616 Q239 610 229.5 605 Q220 600 206 596 Q192 592 173 592 Q138 592 117.5 604.5 Q97 617 92 626 L92 717 Q98 727 118.5 739 Q139 751 173 751 Z M398 751 Q417 751 431 747 Q445 743 454.5 738 Q464 733 470 727 Q476 721 479 717 L479 626 Q476 622 470 616 Q464 610 454.5 605 Q445 600 431 596 Q417 592 398 592 Q363 592 342 605 Q321 618 317 626 L317 717 Q322 726 342.5 738.5 Q363 751 398 751 Z " />
<glyph glyph-name="amacron" unicode="&#x101;" horiz-adv-x="562" d="M276 559 Q331 559 372.5 545.5 Q414 532 444 512 Q474 492 493 467.5 Q512 443 521 422 L521 0 L355 0 L355 38 Q332 15 297.5 0 Q263 -15 213 -15 Q172 -15 141.5 -5.5 Q111 4 89 17 Q67 30 54 44 Q41 58 36 68 L36 240 Q42 251 55 267 Q68 283 89.5 297.5 Q111 312 141.5 322 Q172 332 213 332 L349 332 L349 388 Q341 404 322 415 Q303 426 276 426 Q247 426 227.5 413 Q208 400 197 378 L48 378 L48 453 Q54 463 70 480.5 Q86 498 113 515.5 Q140 533 180.5 546 Q221 559 276 559 Z M273 101 Q301 101 319.5 109.5 Q338 118 349 130 L349 222 L273 222 Q244 222 227.5 213 Q211 204 205 196 L205 130 Q211 122 227.5 111.5 Q244 101 273 101 Z M107 617 L107 729 L465 729 L465 617 L107 617 Z " />
<glyph glyph-name="abreve" unicode="&#x103;" horiz-adv-x="562" d="M276 559 Q331 559 372.5 545.5 Q414 532 444 512 Q474 492 493 467.5 Q512 443 521 422 L521 0 L355 0 L355 38 Q332 15 297.5 0 Q263 -15 213 -15 Q172 -15 141.5 -5.5 Q111 4 89 17 Q67 30 54 44 Q41 58 36 68 L36 240 Q42 251 55 267 Q68 283 89.5 297.5 Q111 312 141.5 322 Q172 332 213 332 L349 332 L349 388 Q341 404 322 415 Q303 426 276 426 Q247 426 227.5 413 Q208 400 197 378 L48 378 L48 453 Q54 463 70 480.5 Q86 498 113 515.5 Q140 533 180.5 546 Q221 559 276 559 Z M273 101 Q301 101 319.5 109.5 Q338 118 349 130 L349 222 L273 222 Q244 222 227.5 213 Q211 204 205 196 L205 130 Q211 122 227.5 111.5 Q244 101 273 101 Z M469 687 Q449 645 403 619 Q357 593 286 593 Q214 593 167.5 619 Q121 645 101 687 L101 749 L225 749 L225 711 Q229 703 243.5 692 Q258 681 286 681 Q313 681 327 692 Q341 703 345 711 L345 749 L469 749 L469 687 Z " />
<glyph glyph-name="aring" unicode="&#xe5;" horiz-adv-x="562" d="M276 559 Q331 559 372.5 545.5 Q414 532 444 512 Q474 492 493 467.5 Q512 443 521 422 L521 0 L355 0 L355 38 Q332 15 297.5 0 Q263 -15 213 -15 Q172 -15 141.5 -5.5 Q111 4 89 17 Q67 30 54 44 Q41 58 36 68 L36 240 Q42 251 55 267 Q68 283 89.5 297.5 Q111 312 141.5 322 Q172 332 213 332 L349 332 L349 388 Q341 404 322 415 Q303 426 276 426 Q247 426 227.5 413 Q208 400 197 378 L48 378 L48 453 Q54 463 70 480.5 Q86 498 113 515.5 Q140 533 180.5 546 Q221 559 276 559 Z M273 101 Q301 101 319.5 109.5 Q338 118 349 130 L349 222 L273 222 Q244 222 227.5 213 Q211 204 205 196 L205 130 Q211 122 227.5 111.5 Q244 101 273 101 Z M284 820 Q331 820 366 802 Q401 784 417 754 L417 656 Q401 626 366 607.5 Q331 589 284 589 Q237 589 202 607.5 Q167 626 151 656 L151 754 Q167 784 202 802 Q237 820 284 820 Z M284 755 Q260 755 246 747 Q232 739 228 732 L228 678 Q232 670 246 662 Q260 654 284 654 Q308 654 322 662 Q336 670 340 678 L340 732 Q336 739 322 747 Q308 755 284 755 Z " />
<glyph glyph-name="aogonek" unicode="&#x105;" horiz-adv-x="562" d="M489 -133 Q497 -133 507.5 -132 Q518 -131 532 -127 L532 -216 Q521 -222 503.5 -226 Q486 -230 454 -230 Q434 -230 414 -227 Q394 -224 377 -217.5 Q360 -211 346.5 -200.5 Q333 -190 326 -175 L326 -94 Q334 -77 354 -51 Q374 -25 406 0 L355 0 L355 38 Q332 15 297.5 0 Q263 -15 213 -15 Q172 -15 141.5 -6 Q111 3 89 16.5 Q67 30 54 44 Q41 58 36 68 L36 240 Q42 252 55 267.5 Q68 283 89.5 297.5 Q111 312 141.5 322 Q172 332 213 332 L349 332 L349 388 Q341 404 322 415 Q303 426 276 426 Q247 426 227.5 413 Q208 400 197 378 L48 378 L48 453 Q54 463 70 480.5 Q86 498 113 515.5 Q140 533 180 546 Q220 559 276 559 Q331 559 372.5 545.5 Q414 532 444 512 Q474 492 493 467.5 Q512 443 521 422 L521 0 Q501 -21 488 -36.5 Q475 -52 467 -63.5 Q459 -75 455 -83 Q451 -91 448 -97 L448 -119 Q453 -126 464 -129.5 Q475 -133 489 -133 Z M273 101 Q301 101 319.5 109.5 Q338 118 349 130 L349 222 L273 222 Q247 222 229 213.5 Q211 205 205 196 L205 130 Q210 121 228.5 111 Q247 101 273 101 Z " />
<glyph glyph-name="ae" unicode="&#xe6;" horiz-adv-x="864" d="M521 153 Q529 138 548 126 Q567 114 595 114 Q627 114 647 128 Q667 142 680 170 L827 170 L827 100 Q820 88 803.5 68.5 Q787 49 758.5 30.5 Q730 12 689.5 -1.5 Q649 -15 594 -15 Q531 -15 486.5 2 Q442 19 412 44 Q381 17 336 1 Q291 -15 225 -15 Q183 -15 150 -5.5 Q117 4 93.5 17 Q70 30 55.5 44 Q41 58 36 68 L36 240 Q42 251 55 267 Q68 283 89.5 297.5 Q111 312 141.5 322 Q172 332 213 332 L349 332 L349 388 Q341 404 322 415 Q303 426 276 426 Q247 426 227.5 413 Q208 400 197 378 L48 378 L48 453 Q54 462 70 480 Q86 498 113 515.5 Q140 533 180 546 Q220 559 276 559 Q328 559 367 547 Q406 535 435 516 Q464 535 503 547 Q542 559 594 559 Q649 559 689.5 545.5 Q730 532 758.5 513.5 Q787 495 803.5 475.5 Q820 456 827 444 L827 223 L521 223 L521 153 Z M668 334 L668 391 Q661 406 641.5 418 Q622 430 594 430 Q565 430 547 418 Q529 406 521 391 L521 334 L668 334 Z M273 222 Q244 222 227.5 213 Q211 204 205 196 L205 130 Q211 122 227.5 111.5 Q244 101 273 101 Q301 101 320 110 Q339 119 349 131 L349 222 L273 222 Z " />
<glyph glyph-name="cacute" unicode="&#x107;" horiz-adv-x="547" d="M283 559 Q338 559 378.5 546 Q419 533 447 514.5 Q475 496 492 476.5 Q509 457 516 444 L516 370 L367 370 Q355 398 335 412 Q315 426 283 426 Q255 426 236 414 Q217 402 210 387 L210 157 Q218 142 236 130 Q254 118 283 118 Q315 118 335 132 Q355 146 367 174 L516 174 L516 100 Q509 87 492 67.5 Q475 48 447 29.5 Q419 11 378.5 -2 Q338 -15 283 -15 Q228 -15 186.5 -1.5 Q145 12 115 32 Q85 52 66 76.5 Q47 101 38 122 L38 422 Q47 443 66 467.5 Q85 492 115 512 Q145 532 186.5 545.5 Q228 559 283 559 Z M347 601 L218 601 L218 616 L267 768 L427 768 L427 696 L347 601 Z " />
<glyph glyph-name="ccircumflex" unicode="&#x109;" horiz-adv-x="547" d="M283 559 Q338 559 378.5 546 Q419 533 447 514.5 Q475 496 492 476.5 Q509 457 516 444 L516 370 L367 370 Q355 398 335 412 Q315 426 283 426 Q255 426 236 414 Q217 402 210 387 L210 157 Q218 142 236 130 Q254 118 283 118 Q315 118 335 132 Q355 146 367 174 L516 174 L516 100 Q509 87 492 67.5 Q475 48 447 29.5 Q419 11 378.5 -2 Q338 -15 283 -15 Q228 -15 186.5 -1.5 Q145 12 115 32 Q85 52 66 76.5 Q47 101 38 122 L38 422 Q47 443 66 467.5 Q85 492 115 512 Q145 532 186.5 545.5 Q228 559 283 559 Z M470 597 L347 597 L286 691 L223 597 L100 597 L100 613 L175 764 L396 764 L470 613 L470 597 Z " />
<glyph glyph-name="ccaron" unicode="&#x10d;" horiz-adv-x="547" d="M283 559 Q338 559 378.5 546 Q419 533 447 514.5 Q475 496 492 476.5 Q509 457 516 444 L516 370 L367 370 Q355 398 335 412 Q315 426 283 426 Q255 426 236 414 Q217 402 210 387 L210 157 Q218 142 236 130 Q254 118 283 118 Q315 118 335 132 Q355 146 367 174 L516 174 L516 100 Q509 87 492 67.5 Q475 48 447 29.5 Q419 11 378.5 -2 Q338 -15 283 -15 Q228 -15 186.5 -1.5 Q145 12 115 32 Q85 52 66 76.5 Q47 101 38 122 L38 422 Q47 443 66 467.5 Q85 492 115 512 Q145 532 186.5 545.5 Q228 559 283 559 Z M396 597 L175 597 L100 749 L100 764 L223 764 L286 670 L347 764 L470 764 L470 749 L396 597 Z " />
<glyph glyph-name="cdotaccent" unicode="&#x10b;" horiz-adv-x="547" d="M283 559 Q338 559 378.5 546 Q419 533 447 514.5 Q475 496 492 476.5 Q509 457 516 444 L516 370 L367 370 Q355 398 335 412 Q315 426 283 426 Q255 426 236 414 Q217 402 210 387 L210 157 Q218 142 236 130 Q254 118 283 118 Q315 118 335 132 Q355 146 367 174 L516 174 L516 100 Q509 87 492 67.5 Q475 48 447 29.5 Q419 11 378.5 -2 Q338 -15 283 -15 Q228 -15 186.5 -1.5 Q145 12 115 32 Q85 52 66 76.5 Q47 101 38 122 L38 422 Q47 443 66 467.5 Q85 492 115 512 Q145 532 186.5 545.5 Q228 559 283 559 Z M285 754 Q323 754 345 738.5 Q367 723 375 706 L375 641 Q367 624 345 609 Q323 594 285 594 Q247 594 225 609 Q203 624 195 641 L195 706 Q203 723 225 738.5 Q247 754 285 754 Z " />
<glyph glyph-name="ccedilla" unicode="&#xe7;" horiz-adv-x="547" d="M283 426 Q254 426 236 414 Q218 402 210 387 L210 157 Q218 142 236 130 Q254 118 283 118 Q315 118 335 132 Q355 146 367 174 L516 174 L516 100 Q509 88 494 70 Q479 52 453.5 34 Q428 16 392 2.5 Q356 -11 307 -14 L297 -40 L305 -40 Q346 -40 366.5 -56 Q387 -72 395 -91 L395 -168 Q381 -198 346 -215 Q311 -232 263 -232 Q228 -232 201 -227 Q174 -222 160 -214 L184 -145 Q200 -149 218 -151.5 Q236 -154 253 -154 Q293 -154 301 -136 L301 -116 Q297 -108 284.5 -104.5 Q272 -101 255 -101 L195 -101 L225 -11 Q184 -4 152.5 10.5 Q121 25 98.5 44 Q76 63 61 83.5 Q46 104 38 122 L38 422 Q47 443 66 467.5 Q85 492 115 512 Q145 532 186.5 545.5 Q228 559 283 559 Q338 559 378.5 546 Q419 533 447 514.5 Q475 496 492 476.5 Q509 457 516 444 L516 370 L367 370 Q355 398 335 412 Q315 426 283 426 Z " />
<glyph glyph-name="dcaron" unicode="&#x10f;" horiz-adv-x="747" d="M522 0 L357 0 L357 45 Q334 21 300.5 5 Q267 -11 219 -11 Q178 -11 147.5 1.5 Q117 14 95 33 Q73 52 59 74 Q45 96 38 116 L38 428 Q45 448 59 470 Q73 492 95 511 Q117 530 147.5 542.5 Q178 555 219 555 Q263 555 295 541.5 Q327 528 350 506 L350 700 L522 700 L522 0 Z M210 155 Q216 145 233 134 Q250 123 279 123 Q304 123 321.5 130 Q339 137 350 147 L350 396 Q339 407 321.5 414 Q304 421 279 421 Q251 421 232.5 409.5 Q214 398 210 389 L210 155 Z M674 477 L572 477 L572 492 L593 700 L726 700 L726 612 L674 477 Z " />
<glyph glyph-name="egrave" unicode="&#xe8;" horiz-adv-x="553" d="M283 559 Q338 559 378.5 545.5 Q419 532 447.5 513.5 Q476 495 492.5 475.5 Q509 456 516 444 L516 223 L210 223 L210 153 Q218 138 237 126 Q256 114 284 114 Q316 114 336 128 Q356 142 370 170 L516 170 L516 100 Q509 88 492.5 68.5 Q476 49 447 30 Q418 11 378 -2 Q338 -15 283 -15 Q228 -15 186.5 -2 Q145 11 115 31.5 Q85 52 66 76.5 Q47 101 38 122 L38 422 Q46 442 65.5 467 Q85 492 115 512 Q145 532 186.5 545.5 Q228 559 283 559 Z M283 430 Q255 430 236 418 Q217 406 210 391 L210 334 L357 334 L357 391 Q350 406 330.5 418 Q311 430 283 430 Z M354 601 L226 601 L146 695 L146 768 L304 768 L354 616 L354 601 Z " />
<glyph glyph-name="eacute" unicode="&#xe9;" horiz-adv-x="553" d="M283 559 Q338 559 378.5 545.5 Q419 532 447.5 513.5 Q476 495 492.5 475.5 Q509 456 516 444 L516 223 L210 223 L210 153 Q218 138 237 126 Q256 114 284 114 Q316 114 336 128 Q356 142 370 170 L516 170 L516 100 Q509 88 492.5 68.5 Q476 49 447 30 Q418 11 378 -2 Q338 -15 283 -15 Q228 -15 186.5 -2 Q145 11 115 31.5 Q85 52 66 76.5 Q47 101 38 122 L38 422 Q46 442 65.5 467 Q85 492 115 512 Q145 532 186.5 545.5 Q228 559 283 559 Z M283 430 Q255 430 236 418 Q217 406 210 391 L210 334 L357 334 L357 391 Q350 406 330.5 418 Q311 430 283 430 Z M350 601 L221 601 L221 616 L270 768 L430 768 L430 696 L350 601 Z " />
<glyph glyph-name="ecircumflex" unicode="&#xea;" horiz-adv-x="553" d="M283 559 Q338 559 378.5 545.5 Q419 532 447.5 513.5 Q476 495 492.5 475.5 Q509 456 516 444 L516 223 L210 223 L210 153 Q218 138 237 126 Q256 114 284 114 Q316 114 336 128 Q356 142 370 170 L516 170 L516 100 Q509 88 492.5 68.5 Q476 49 447 30 Q418 11 378 -2 Q338 -15 283 -15 Q228 -15 186.5 -2 Q145 11 115 31.5 Q85 52 66 76.5 Q47 101 38 122 L38 422 Q46 442 65.5 467 Q85 492 115 512 Q145 532 186.5 545.5 Q228 559 283 559 Z M283 430 Q255 430 236 418 Q217 406 210 391 L210 334 L357 334 L357 391 Q350 406 330.5 418 Q311 430 283 430 Z M472 597 L349 597 L288 691 L225 597 L102 597 L102 613 L177 764 L398 764 L472 613 L472 597 Z " />
<glyph glyph-name="ecaron" unicode="&#x11b;" horiz-adv-x="553" d="M283 559 Q338 559 378.5 545.5 Q419 532 447.5 513.5 Q476 495 492.5 475.5 Q509 456 516 444 L516 223 L210 223 L210 153 Q218 138 237 126 Q256 114 284 114 Q316 114 336 128 Q356 142 370 170 L516 170 L516 100 Q509 88 492.5 68.5 Q476 49 447 30 Q418 11 378 -2 Q338 -15 283 -15 Q228 -15 186.5 -2 Q145 11 115 31.5 Q85 52 66 76.5 Q47 101 38 122 L38 422 Q46 442 65.5 467 Q85 492 115 512 Q145 532 186.5 545.5 Q228 559 283 559 Z M283 430 Q255 430 236 418 Q217 406 210 391 L210 334 L357 334 L357 391 Q350 406 330.5 418 Q311 430 283 430 Z M398 597 L177 597 L102 749 L102 764 L225 764 L288 670 L349 764 L472 764 L472 749 L398 597 Z " />
<glyph glyph-name="edieresis" unicode="&#xeb;" horiz-adv-x="553" d="M283 559 Q338 559 378.5 545.5 Q419 532 447.5 513.5 Q476 495 492.5 475.5 Q509 456 516 444 L516 223 L210 223 L210 153 Q218 138 237 126 Q256 114 284 114 Q316 114 336 128 Q356 142 370 170 L516 170 L516 100 Q509 88 492.5 68.5 Q476 49 447 30 Q418 11 378 -2 Q338 -15 283 -15 Q228 -15 186.5 -2 Q145 11 115 31.5 Q85 52 66 76.5 Q47 101 38 122 L38 422 Q46 442 65.5 467 Q85 492 115 512 Q145 532 186.5 545.5 Q228 559 283 559 Z M283 430 Q255 430 236 418 Q217 406 210 391 L210 334 L357 334 L357 391 Q350 406 330.5 418 Q311 430 283 430 Z M175 751 Q194 751 208 747 Q222 743 231.5 738 Q241 733 247 727 Q253 721 256 717 L256 626 Q253 622 247 616 Q241 610 231.5 605 Q222 600 208 596 Q194 592 175 592 Q140 592 119.5 604.5 Q99 617 94 626 L94 717 Q100 727 120.5 739 Q141 751 175 751 Z M400 751 Q419 751 433 747 Q447 743 456.5 738 Q466 733 472 727 Q478 721 481 717 L481 626 Q478 622 472 616 Q466 610 456.5 605 Q447 600 433 596 Q419 592 400 592 Q365 592 344 605 Q323 618 319 626 L319 717 Q324 726 344.5 738.5 Q365 751 400 751 Z " />
<glyph glyph-name="emacron" unicode="&#x113;" horiz-adv-x="553" d="M283 559 Q338 559 378.5 545.5 Q419 532 447.5 513.5 Q476 495 492.5 475.5 Q509 456 516 444 L516 223 L210 223 L210 153 Q218 138 237 126 Q256 114 284 114 Q316 114 336 128 Q356 142 370 170 L516 170 L516 100 Q509 88 492.5 68.5 Q476 49 447 30 Q418 11 378 -2 Q338 -15 283 -15 Q228 -15 186.5 -2 Q145 11 115 31.5 Q85 52 66 76.5 Q47 101 38 122 L38 422 Q46 442 65.5 467 Q85 492 115 512 Q145 532 186.5 545.5 Q228 559 283 559 Z M283 430 Q255 430 236 418 Q217 406 210 391 L210 334 L357 334 L357 391 Q350 406 330.5 418 Q311 430 283 430 Z M109 617 L109 729 L467 729 L467 617 L109 617 Z " />
<glyph glyph-name="ebreve" unicode="&#x115;" horiz-adv-x="553" d="M283 559 Q338 559 378.5 545.5 Q419 532 447.5 513.5 Q476 495 492.5 475.5 Q509 456 516 444 L516 223 L210 223 L210 153 Q218 138 237 126 Q256 114 284 114 Q316 114 336 128 Q356 142 370 170 L516 170 L516 100 Q509 88 492.5 68.5 Q476 49 447 30 Q418 11 378 -2 Q338 -15 283 -15 Q228 -15 186.5 -2 Q145 11 115 31.5 Q85 52 66 76.5 Q47 101 38 122 L38 422 Q46 442 65.5 467 Q85 492 115 512 Q145 532 186.5 545.5 Q228 559 283 559 Z M283 430 Q255 430 236 418 Q217 406 210 391 L210 334 L357 334 L357 391 Q350 406 330.5 418 Q311 430 283 430 Z M471 687 Q451 645 405 619 Q359 593 288 593 Q216 593 169.5 619 Q123 645 103 687 L103 749 L227 749 L227 711 Q231 703 245.5 692 Q260 681 288 681 Q315 681 329 692 Q343 703 347 711 L347 749 L471 749 L471 687 Z " />
<glyph glyph-name="edotaccent" unicode="&#x117;" horiz-adv-x="553" d="M283 559 Q338 559 378.5 545.5 Q419 532 447.5 513.5 Q476 495 492.5 475.5 Q509 456 516 444 L516 223 L210 223 L210 153 Q218 138 237 126 Q256 114 284 114 Q316 114 336 128 Q356 142 370 170 L516 170 L516 100 Q509 88 492.5 68.5 Q476 49 447 30 Q418 11 378 -2 Q338 -15 283 -15 Q228 -15 186.5 -2 Q145 11 115 31.5 Q85 52 66 76.5 Q47 101 38 122 L38 422 Q46 442 65.5 467 Q85 492 115 512 Q145 532 186.5 545.5 Q228 559 283 559 Z M283 430 Q255 430 236 418 Q217 406 210 391 L210 334 L357 334 L357 391 Q350 406 330.5 418 Q311 430 283 430 Z M288 754 Q326 754 348 738.5 Q370 723 378 706 L378 641 Q370 624 348 609 Q326 594 288 594 Q250 594 228 609 Q206 624 198 641 L198 706 Q206 723 228 738.5 Q250 754 288 754 Z " />
<glyph glyph-name="eogonek" unicode="&#x119;" horiz-adv-x="553" d="M283 559 Q338 559 378.5 545.5 Q419 532 447.5 513.5 Q476 495 492.5 475.5 Q509 456 516 444 L516 223 L210 223 L210 153 Q218 138 237 126 Q256 114 284 114 Q316 114 336 128 Q356 142 370 170 L516 170 L516 100 Q502 72 487 43.5 Q472 15 459 -11 Q446 -37 436.5 -59.5 Q427 -82 424 -97 L424 -119 Q429 -126 439.5 -129.5 Q450 -133 464 -133 Q473 -133 483.5 -132 Q494 -131 507 -127 L507 -216 Q496 -222 478.5 -226 Q461 -230 430 -230 Q388 -230 352 -218 Q316 -206 301 -175 L301 -94 Q306 -80 318.5 -57.5 Q331 -35 352 -8 Q336 -11 319 -13 Q302 -15 283 -15 Q228 -15 186.5 -1.5 Q145 12 115 32 Q85 52 66 76.5 Q47 101 38 122 L38 422 Q47 443 66 467.5 Q85 492 115 512 Q145 532 186.5 545.5 Q228 559 283 559 Z M283 430 Q254 430 236 418 Q218 406 210 391 L210 334 L357 334 L357 391 Q350 406 330.5 418 Q311 430 283 430 Z " />
<glyph glyph-name="gcircumflex" unicode="&#x11d;" horiz-adv-x="565" d="M522 -48 Q512 -70 493 -93.5 Q474 -117 444 -136.5 Q414 -156 372.5 -168.5 Q331 -181 276 -181 Q220 -181 179 -168.5 Q138 -156 109.5 -138 Q81 -120 63.5 -100 Q46 -80 38 -65 L38 -3 L193 -3 Q205 -26 226.5 -37.5 Q248 -49 277 -49 Q306 -49 324 -38.5 Q342 -28 350 -12 L350 82 Q327 60 294.5 46 Q262 32 219 32 Q178 32 147.5 44.5 Q117 57 95 76 Q73 95 59 117 Q45 139 38 159 L38 428 Q45 448 59 470 Q73 492 95 511 Q117 530 147.5 542.5 Q178 555 219 555 Q264 555 299 539 Q334 523 357 498 L357 544 L522 544 L522 -48 Z M279 167 Q304 167 321.5 174 Q339 181 350 191 L350 397 Q339 407 321 414 Q303 421 279 421 Q252 421 233.5 410 Q215 399 210 389 L210 199 Q215 188 233.5 177.5 Q252 167 279 167 Z M467 597 L344 597 L283 691 L220 597 L97 597 L97 613 L172 764 L393 764 L467 613 L467 597 Z " />
<glyph glyph-name="gbreve" unicode="&#x11f;" horiz-adv-x="565" d="M522 -48 Q512 -70 493 -93.5 Q474 -117 444 -136.5 Q414 -156 372.5 -168.5 Q331 -181 276 -181 Q220 -181 179 -168.5 Q138 -156 109.5 -138 Q81 -120 63.5 -100 Q46 -80 38 -65 L38 -3 L193 -3 Q205 -26 226.5 -37.5 Q248 -49 277 -49 Q306 -49 324 -38.5 Q342 -28 350 -12 L350 82 Q327 60 294.5 46 Q262 32 219 32 Q178 32 147.5 44.5 Q117 57 95 76 Q73 95 59 117 Q45 139 38 159 L38 428 Q45 448 59 470 Q73 492 95 511 Q117 530 147.5 542.5 Q178 555 219 555 Q264 555 299 539 Q334 523 357 498 L357 544 L522 544 L522 -48 Z M279 167 Q304 167 321.5 174 Q339 181 350 191 L350 397 Q339 407 321 414 Q303 421 279 421 Q252 421 233.5 410 Q215 399 210 389 L210 199 Q215 188 233.5 177.5 Q252 167 279 167 Z M466 687 Q446 645 400 619 Q354 593 283 593 Q211 593 164.5 619 Q118 645 98 687 L98 749 L222 749 L222 711 Q226 703 240.5 692 Q255 681 283 681 Q310 681 324 692 Q338 703 342 711 L342 749 L466 749 L466 687 Z " />
<glyph glyph-name="gdotaccent" unicode="&#x121;" horiz-adv-x="565" d="M522 -48 Q512 -70 493 -93.5 Q474 -117 444 -136.5 Q414 -156 372.5 -168.5 Q331 -181 276 -181 Q220 -181 179 -168.5 Q138 -156 109.5 -138 Q81 -120 63.5 -100 Q46 -80 38 -65 L38 -3 L193 -3 Q205 -26 226.5 -37.5 Q248 -49 277 -49 Q306 -49 324 -38.5 Q342 -28 350 -12 L350 82 Q327 60 294.5 46 Q262 32 219 32 Q178 32 147.5 44.5 Q117 57 95 76 Q73 95 59 117 Q45 139 38 159 L38 428 Q45 448 59 470 Q73 492 95 511 Q117 530 147.5 542.5 Q178 555 219 555 Q264 555 299 539 Q334 523 357 498 L357 544 L522 544 L522 -48 Z M279 167 Q304 167 321.5 174 Q339 181 350 191 L350 397 Q339 407 321 414 Q303 421 279 421 Q252 421 233.5 410 Q215 399 210 389 L210 199 Q215 188 233.5 177.5 Q252 167 279 167 Z M283 754 Q321 754 343 738.5 Q365 723 373 706 L373 641 Q365 624 343 609 Q321 594 283 594 Q245 594 223 609 Q201 624 193 641 L193 706 Q201 723 223 738.5 Q245 754 283 754 Z " />
<glyph glyph-name="gcommaaccent" unicode="&#x123;" horiz-adv-x="565" d="M522 -48 Q512 -70 493 -93.5 Q474 -117 444 -136.5 Q414 -156 372.5 -168.5 Q331 -181 276 -181 Q220 -181 179 -168.5 Q138 -156 109.5 -138 Q81 -120 63.5 -100 Q46 -80 38 -65 L38 -3 L193 -3 Q205 -26 226.5 -37.5 Q248 -49 277 -49 Q306 -49 324 -38.5 Q342 -28 350 -12 L350 82 Q327 60 294.5 46 Q262 32 219 32 Q178 32 147.5 44.5 Q117 57 95 76 Q73 95 59 117 Q45 139 38 159 L38 428 Q45 448 59 470 Q73 492 95 511 Q117 530 147.5 542.5 Q178 555 219 555 Q264 555 299 539 Q334 523 357 498 L357 544 L522 544 L522 -48 Z M279 167 Q304 167 321.5 174 Q339 181 350 191 L350 397 Q339 407 321 414 Q303 421 279 421 Q252 421 233.5 410 Q215 399 210 389 L210 199 Q215 188 233.5 177.5 Q252 167 279 167 Z M282 730 Q320 730 342 714.5 Q364 699 372 683 L372 631 Q364 615 342 599.5 Q320 584 282 584 Q243 584 221 599.5 Q199 615 192 631 L192 765 Q195 775 204.5 786 Q214 797 229.5 806.5 Q245 816 266 822.5 Q287 829 313 829 L356 829 L356 765 L331 765 Q286 765 278 750 L278 730 L282 730 Z " />
<glyph glyph-name="hcircumflex" unicode="&#x125;" horiz-adv-x="570" d="M347 555 Q387 555 418 542.5 Q449 530 471 511 Q493 492 507 470.5 Q521 449 528 428 L528 0 L355 0 L355 389 Q350 400 331.5 410.5 Q313 421 286 421 Q261 421 243.5 414 Q226 407 215 396 L215 0 L43 0 L43 700 L215 700 L215 505 Q239 527 271 541 Q303 555 347 555 Z M476 738 L353 738 L292 829 L229 738 L106 738 L106 754 L181 902 L402 902 L476 754 L476 738 Z " />
<glyph glyph-name="hbar" unicode="&#x127;" horiz-adv-x="584" d="M372 655 L372 567 L230 567 L230 479 Q253 500 285.5 513.5 Q318 527 362 527 Q402 527 433 514.5 Q464 502 486 483 Q508 464 521.5 441.5 Q535 419 542 400 L542 0 L370 0 L370 361 Q365 371 347.5 382 Q330 393 301 393 Q276 393 258.5 385.5 Q241 378 230 367 L230 0 L58 0 L58 567 L20 567 L20 655 L58 655 L58 700 L230 700 L230 655 L372 655 Z " />
<glyph glyph-name="igrave" unicode="&#xec;" horiz-adv-x="263" d="M45 0 L45 544 L217 544 L217 0 L45 0 Z M197 601 L69 601 L-11 695 L-11 768 L147 768 L197 616 L197 601 Z " />
<glyph glyph-name="iacute" unicode="&#xed;" horiz-adv-x="263" d="M45 0 L45 544 L217 544 L217 0 L45 0 Z M193 601 L64 601 L64 616 L113 768 L273 768 L273 696 L193 601 Z " />
<glyph glyph-name="icircumflex" unicode="&#xee;" horiz-adv-x="263" d="M45 0 L45 544 L217 544 L217 0 L45 0 Z M316 597 L193 597 L132 691 L69 597 L-54 597 L-54 613 L21 764 L242 764 L316 613 L316 597 Z " />
<glyph glyph-name="itilde" unicode="&#x129;" horiz-adv-x="263" d="M45 0 L45 544 L217 544 L217 0 L45 0 Z M58 753 Q86 753 104.5 745.5 Q123 738 136.5 729 Q150 720 161.5 712.5 Q173 705 187 705 Q213 705 218 728 L218 748 L316 748 L316 683 Q313 667 304 651.5 Q295 636 281 624 Q267 612 248 605 Q229 598 205 598 Q176 598 157.5 605.5 Q139 613 125.5 622.5 Q112 632 100.5 639.5 Q89 647 75 647 Q62 647 54.5 640 Q47 633 45 624 L45 604 L-53 604 L-53 669 Q-48 702 -19 727.5 Q10 753 58 753 Z " />
<glyph glyph-name="idieresis" unicode="&#xef;" horiz-adv-x="263" d="M45 0 L45 544 L217 544 L217 0 L45 0 Z M19 751 Q38 751 52 747 Q66 743 75.5 738 Q85 733 91 727 Q97 721 100 717 L100 626 Q97 622 91 616 Q85 610 75.5 605 Q66 600 52 596 Q38 592 19 592 Q-16 592 -36.5 604.5 Q-57 617 -62 626 L-62 717 Q-56 727 -35.5 739 Q-15 751 19 751 Z M244 751 Q263 751 277 747 Q291 743 300.5 738 Q310 733 316 727 Q322 721 325 717 L325 626 Q322 622 316 616 Q310 610 300.5 605 Q291 600 277 596 Q263 592 244 592 Q209 592 188 605 Q167 618 163 626 L163 717 Q168 726 188.5 738.5 Q209 751 244 751 Z " />
<glyph glyph-name="imacron" unicode="&#x12b;" horiz-adv-x="263" d="M45 0 L45 544 L217 544 L217 0 L45 0 Z M-48 617 L-48 729 L310 729 L310 617 L-48 617 Z " />
<glyph glyph-name="ibreve" unicode="&#x12d;" horiz-adv-x="263" d="M45 0 L45 544 L217 544 L217 0 L45 0 Z M315 687 Q295 645 249 619 Q203 593 132 593 Q60 593 13.5 619 Q-33 645 -53 687 L-53 749 L71 749 L71 711 Q75 703 89.5 692 Q104 681 132 681 Q159 681 173 692 Q187 703 191 711 L191 749 L315 749 L315 687 Z " />
<glyph glyph-name="iogonek" unicode="&#x12f;" horiz-adv-x="263" d="M131 754 Q170 754 191.5 738.5 Q213 723 221 706 L221 642 Q213 625 191.5 610 Q170 595 131 595 Q93 595 71.5 610 Q50 625 42 642 L42 706 Q50 723 71.5 738.5 Q93 754 131 754 Z M217 544 L217 0 Q174 -41 156.5 -63 Q139 -85 134 -97 L134 -119 Q139 -126 150 -129.5 Q161 -133 174 -133 Q183 -133 193.5 -132 Q204 -131 217 -127 L217 -216 Q206 -222 188.5 -226 Q171 -230 140 -230 Q98 -230 62 -218 Q26 -206 11 -175 L11 -94 Q19 -77 40 -51 Q61 -25 94 0 L45 0 L45 544 L217 544 Z " />
<glyph glyph-name="dotlessi" unicode="&#x131;" horiz-adv-x="263" d="M45 0 L45 544 L217 544 L217 0 L45 0 Z " />
<glyph glyph-name="ij" unicode="&#x133;" horiz-adv-x="522" d="M45 0 L45 544 L217 544 L217 0 L45 0 Z M131 754 Q169 754 191 738.5 Q213 723 221 706 L221 641 Q213 624 191 609 Q169 594 131 594 Q93 594 71 609 Q49 624 41 641 L41 706 Q49 723 71 738.5 Q93 754 131 754 Z M478 -46 Q469 -69 451 -92.5 Q433 -116 404 -135.5 Q375 -155 332.5 -167.5 Q290 -180 233 -180 L233 -48 Q262 -47 280.5 -33.5 Q299 -20 306 -1 L306 544 L478 544 L478 -46 Z M393 754 Q431 754 453 738.5 Q475 723 483 706 L483 641 Q475 624 453 609 Q431 594 393 594 Q355 594 333 609 Q311 624 303 641 L303 706 Q311 723 333 738.5 Q355 754 393 754 Z " />
<glyph glyph-name="dotlessj" unicode="&#x237;" horiz-adv-x="259" d="M215 -46 Q206 -69 188 -92.5 Q170 -116 141 -135.5 Q112 -155 69.5 -167.5 Q27 -180 -30 -180 L-30 -48 Q-1 -47 17.5 -33.5 Q36 -20 43 -1 L43 544 L215 544 L215 -46 Z " />
<glyph glyph-name="jcircumflex" unicode="&#x135;" horiz-adv-x="259" d="M215 -46 Q206 -69 188 -92.5 Q170 -116 141 -135.5 Q112 -155 69.5 -167.5 Q27 -180 -30 -180 L-30 -48 Q-1 -47 17.5 -33.5 Q36 -20 43 -1 L43 544 L215 544 L215 -46 Z M314 597 L191 597 L130 691 L67 597 L-56 597 L-56 613 L19 764 L240 764 L314 613 L314 597 Z " />
<glyph glyph-name="kcommaaccent" unicode="&#x137;" horiz-adv-x="553" d="M533 0 L394 0 L265 201 L215 148 L215 0 L43 0 L43 700 L215 700 L215 355 L390 544 L507 544 L507 452 L382 322 L533 92 L533 0 Z M277 -46 Q315 -46 335.5 -54.5 Q356 -63 364 -71 L364 -181 Q361 -191 352.5 -202.5 Q344 -214 330.5 -223.5 Q317 -233 298 -239.5 Q279 -246 253 -246 L196 -246 L196 -193 L237 -193 Q251 -193 263 -190.5 Q275 -188 280 -177 L280 -159 L277 -159 Q239 -159 217.5 -152.5 Q196 -146 189 -138 L189 -71 Q196 -63 217.5 -54.5 Q239 -46 277 -46 Z " />
<glyph glyph-name="lacute" unicode="&#x13a;" horiz-adv-x="258" d="M43 0 L43 700 L215 700 L215 0 L43 0 Z M180 740 L57 740 L57 756 L105 904 L260 904 L260 832 L180 740 Z " />
<glyph glyph-name="lcaron" unicode="&#x13e;" horiz-adv-x="440" d="M43 0 L43 700 L215 700 L215 0 L43 0 Z M367 477 L265 477 L265 492 L286 700 L419 700 L419 612 L367 477 Z " />
<glyph glyph-name="lcommaaccent" unicode="&#x13c;" horiz-adv-x="258" d="M43 0 L43 700 L215 700 L215 0 L43 0 Z M129 -46 Q167 -46 187.5 -54.5 Q208 -63 216 -71 L216 -181 Q213 -191 204.5 -202.5 Q196 -214 182.5 -223.5 Q169 -233 150 -239.5 Q131 -246 105 -246 L48 -246 L48 -193 L89 -193 Q103 -193 115 -190.5 Q127 -188 132 -177 L132 -159 L129 -159 Q91 -159 69.5 -152.5 Q48 -146 41 -138 L41 -71 Q48 -63 69.5 -54.5 Q91 -46 129 -46 Z " />
<glyph glyph-name="lslash" unicode="&#x142;" horiz-adv-x="352" d="M262 348 L262 0 L90 0 L90 248 L28 212 L28 349 L90 385 L90 700 L262 700 L262 485 L324 521 L324 384 L262 348 Z " />
<glyph glyph-name="ldot" unicode="&#x140;" horiz-adv-x="459" d="M43 0 L43 700 L215 700 L215 0 L43 0 Z M358 443 Q396 443 418 427.5 Q440 412 448 395 L448 330 Q440 313 418 298 Q396 283 358 283 Q320 283 298 298 Q276 313 268 330 L268 395 Q276 412 298 427.5 Q320 443 358 443 Z " />
<glyph glyph-name="nacute" unicode="&#x144;" horiz-adv-x="569" d="M347 555 Q387 555 418 542.5 Q449 530 471 511 Q493 492 507 469.5 Q521 447 527 428 L527 0 L355 0 L355 389 Q348 401 330.5 411 Q313 421 286 421 Q261 421 243.5 414 Q226 407 215 397 L215 0 L43 0 L43 544 L203 544 L203 494 Q227 520 262.5 537.5 Q298 555 347 555 Z M346 601 L217 601 L217 616 L266 768 L426 768 L426 696 L346 601 Z " />
<glyph glyph-name="ncaron" unicode="&#x148;" horiz-adv-x="569" d="M347 555 Q387 555 418 542.5 Q449 530 471 511 Q493 492 507 469.5 Q521 447 527 428 L527 0 L355 0 L355 389 Q348 401 330.5 411 Q313 421 286 421 Q261 421 243.5 414 Q226 407 215 397 L215 0 L43 0 L43 544 L203 544 L203 494 Q227 520 262.5 537.5 Q298 555 347 555 Z M395 597 L174 597 L99 749 L99 764 L222 764 L285 670 L346 764 L469 764 L469 749 L395 597 Z " />
<glyph glyph-name="ntilde" unicode="&#xf1;" horiz-adv-x="569" d="M347 555 Q387 555 418 542.5 Q449 530 471 511 Q493 492 507 469.5 Q521 447 527 428 L527 0 L355 0 L355 389 Q348 401 330.5 411 Q313 421 286 421 Q261 421 243.5 414 Q226 407 215 397 L215 0 L43 0 L43 544 L203 544 L203 494 Q227 520 262.5 537.5 Q298 555 347 555 Z M211 753 Q239 753 257.5 745.5 Q276 738 289.5 729 Q303 720 314.5 712.5 Q326 705 340 705 Q366 705 371 728 L371 748 L469 748 L469 683 Q466 667 457 651.5 Q448 636 434 624 Q420 612 401 605 Q382 598 358 598 Q329 598 310.5 605.5 Q292 613 278.5 622.5 Q265 632 253.5 639.5 Q242 647 228 647 Q215 647 207.5 640 Q200 633 198 624 L198 604 L100 604 L100 669 Q105 702 134 727.5 Q163 753 211 753 Z " />
<glyph glyph-name="ncommaaccent" unicode="&#x146;" horiz-adv-x="569" d="M347 555 Q387 555 418 542.5 Q449 530 471 511 Q493 492 507 469.5 Q521 447 527 428 L527 0 L355 0 L355 389 Q348 401 330.5 411 Q313 421 286 421 Q261 421 243.5 414 Q226 407 215 397 L215 0 L43 0 L43 544 L203 544 L203 494 Q227 520 262.5 537.5 Q298 555 347 555 Z M285 -46 Q323 -46 343.5 -54.5 Q364 -63 372 -71 L372 -181 Q369 -191 360.5 -202.5 Q352 -214 338.5 -223.5 Q325 -233 306 -239.5 Q287 -246 261 -246 L204 -246 L204 -193 L245 -193 Q259 -193 271 -190.5 Q283 -188 288 -177 L288 -159 L285 -159 Q247 -159 225.5 -152.5 Q204 -146 197 -138 L197 -71 Q204 -63 225.5 -54.5 Q247 -46 285 -46 Z " />
<glyph glyph-name="napostrophe" unicode="&#x149;" horiz-adv-x="569" d="M347 555 Q387 555 418 542.5 Q449 530 471 511 Q493 492 507 469.5 Q521 447 527 428 L527 0 L355 0 L355 389 Q348 401 330.5 411 Q313 421 286 421 Q261 421 243.5 414 Q226 407 215 397 L215 0 L43 0 L43 544 L203 544 L203 494 Q227 520 262.5 537.5 Q298 555 347 555 Z M103 771 Q141 771 161.5 762.5 Q182 754 190 746 L190 636 Q187 626 178.5 614.5 Q170 603 156.5 593.5 Q143 584 124 577.5 Q105 571 79 571 L22 571 L22 624 L63 624 Q77 624 89 626.5 Q101 629 106 640 L106 658 L103 658 Q65 658 43.5 664.5 Q22 671 15 679 L15 746 Q22 754 43.5 762.5 Q65 771 103 771 Z " />
<glyph glyph-name="ograve" unicode="&#xf2;" horiz-adv-x="567" d="M284 559 Q339 559 380.5 545.5 Q422 532 451.5 512 Q481 492 500 467.5 Q519 443 529 422 L529 122 Q520 101 500.5 76.5 Q481 52 451.5 32 Q422 12 380.5 -1.5 Q339 -15 284 -15 Q229 -15 187 -1.5 Q145 12 115 32 Q85 52 66 76.5 Q47 101 38 122 L38 422 Q47 443 66.5 467.5 Q86 492 115.5 512 Q145 532 187 545.5 Q229 559 284 559 Z M283 426 Q255 426 236 414 Q217 402 210 387 L210 157 Q218 142 236.5 130 Q255 118 283 118 Q312 118 331 130 Q350 142 357 157 L357 387 Q350 402 331 414 Q312 426 283 426 Z M349 601 L221 601 L141 695 L141 768 L299 768 L349 616 L349 601 Z " />
<glyph glyph-name="oacute" unicode="&#xf3;" horiz-adv-x="567" d="M284 559 Q339 559 380.5 545.5 Q422 532 451.5 512 Q481 492 500 467.5 Q519 443 529 422 L529 122 Q520 101 500.5 76.5 Q481 52 451.5 32 Q422 12 380.5 -1.5 Q339 -15 284 -15 Q229 -15 187 -1.5 Q145 12 115 32 Q85 52 66 76.5 Q47 101 38 122 L38 422 Q47 443 66.5 467.5 Q86 492 115.5 512 Q145 532 187 545.5 Q229 559 284 559 Z M283 426 Q255 426 236 414 Q217 402 210 387 L210 157 Q218 142 236.5 130 Q255 118 283 118 Q312 118 331 130 Q350 142 357 157 L357 387 Q350 402 331 414 Q312 426 283 426 Z M345 601 L216 601 L216 616 L265 768 L425 768 L425 696 L345 601 Z " />
<glyph glyph-name="ocircumflex" unicode="&#xf4;" horiz-adv-x="567" d="M284 559 Q339 559 380.5 545.5 Q422 532 451.5 512 Q481 492 500 467.5 Q519 443 529 422 L529 122 Q520 101 500.5 76.5 Q481 52 451.5 32 Q422 12 380.5 -1.5 Q339 -15 284 -15 Q229 -15 187 -1.5 Q145 12 115 32 Q85 52 66 76.5 Q47 101 38 122 L38 422 Q47 443 66.5 467.5 Q86 492 115.5 512 Q145 532 187 545.5 Q229 559 284 559 Z M283 426 Q255 426 236 414 Q217 402 210 387 L210 157 Q218 142 236.5 130 Q255 118 283 118 Q312 118 331 130 Q350 142 357 157 L357 387 Q350 402 331 414 Q312 426 283 426 Z M468 597 L345 597 L284 691 L221 597 L98 597 L98 613 L173 764 L394 764 L468 613 L468 597 Z " />
<glyph glyph-name="otilde" unicode="&#xf5;" horiz-adv-x="567" d="M284 559 Q339 559 380.5 545.5 Q422 532 451.5 512 Q481 492 500 467.5 Q519 443 529 422 L529 122 Q520 101 500.5 76.5 Q481 52 451.5 32 Q422 12 380.5 -1.5 Q339 -15 284 -15 Q229 -15 187 -1.5 Q145 12 115 32 Q85 52 66 76.5 Q47 101 38 122 L38 422 Q47 443 66.5 467.5 Q86 492 115.5 512 Q145 532 187 545.5 Q229 559 284 559 Z M283 426 Q255 426 236 414 Q217 402 210 387 L210 157 Q218 142 236.5 130 Q255 118 283 118 Q312 118 331 130 Q350 142 357 157 L357 387 Q350 402 331 414 Q312 426 283 426 Z M210 753 Q238 753 256.5 745.5 Q275 738 288.5 729 Q302 720 313.5 712.5 Q325 705 339 705 Q365 705 370 728 L370 748 L468 748 L468 683 Q465 667 456 651.5 Q447 636 433 624 Q419 612 400 605 Q381 598 357 598 Q328 598 309.5 605.5 Q291 613 277.5 622.5 Q264 632 252.5 639.5 Q241 647 227 647 Q214 647 206.5 640 Q199 633 197 624 L197 604 L99 604 L99 669 Q104 702 133 727.5 Q162 753 210 753 Z " />
<glyph glyph-name="odieresis" unicode="&#xf6;" horiz-adv-x="567" d="M284 559 Q339 559 380.5 545.5 Q422 532 451.5 512 Q481 492 500 467.5 Q519 443 529 422 L529 122 Q520 101 500.5 76.5 Q481 52 451.5 32 Q422 12 380.5 -1.5 Q339 -15 284 -15 Q229 -15 187 -1.5 Q145 12 115 32 Q85 52 66 76.5 Q47 101 38 122 L38 422 Q47 443 66.5 467.5 Q86 492 115.5 512 Q145 532 187 545.5 Q229 559 284 559 Z M283 426 Q255 426 236 414 Q217 402 210 387 L210 157 Q218 142 236.5 130 Q255 118 283 118 Q312 118 331 130 Q350 142 357 157 L357 387 Q350 402 331 414 Q312 426 283 426 Z M171 751 Q190 751 204 747 Q218 743 227.5 738 Q237 733 243 727 Q249 721 252 717 L252 626 Q249 622 243 616 Q237 610 227.5 605 Q218 600 204 596 Q190 592 171 592 Q136 592 115.5 604.5 Q95 617 90 626 L90 717 Q96 727 116.5 739 Q137 751 171 751 Z M396 751 Q415 751 429 747 Q443 743 452.5 738 Q462 733 468 727 Q474 721 477 717 L477 626 Q474 622 468 616 Q462 610 452.5 605 Q443 600 429 596 Q415 592 396 592 Q361 592 340 605 Q319 618 315 626 L315 717 Q320 726 340.5 738.5 Q361 751 396 751 Z " />
<glyph glyph-name="omacron" unicode="&#x14d;" horiz-adv-x="567" d="M284 559 Q339 559 380.5 545.5 Q422 532 451.5 512 Q481 492 500 467.5 Q519 443 529 422 L529 122 Q520 101 500.5 76.5 Q481 52 451.5 32 Q422 12 380.5 -1.5 Q339 -15 284 -15 Q229 -15 187 -1.5 Q145 12 115 32 Q85 52 66 76.5 Q47 101 38 122 L38 422 Q47 443 66.5 467.5 Q86 492 115.5 512 Q145 532 187 545.5 Q229 559 284 559 Z M283 426 Q255 426 236 414 Q217 402 210 387 L210 157 Q218 142 236.5 130 Q255 118 283 118 Q312 118 331 130 Q350 142 357 157 L357 387 Q350 402 331 414 Q312 426 283 426 Z M104 617 L104 729 L462 729 L462 617 L104 617 Z " />
<glyph glyph-name="obreve" unicode="&#x14f;" horiz-adv-x="567" d="M284 559 Q339 559 380.5 545.5 Q422 532 451.5 512 Q481 492 500 467.5 Q519 443 529 422 L529 122 Q520 101 500.5 76.5 Q481 52 451.5 32 Q422 12 380.5 -1.5 Q339 -15 284 -15 Q229 -15 187 -1.5 Q145 12 115 32 Q85 52 66 76.5 Q47 101 38 122 L38 422 Q47 443 66.5 467.5 Q86 492 115.5 512 Q145 532 187 545.5 Q229 559 284 559 Z M283 426 Q255 426 236 414 Q217 402 210 387 L210 157 Q218 142 236.5 130 Q255 118 283 118 Q312 118 331 130 Q350 142 357 157 L357 387 Q350 402 331 414 Q312 426 283 426 Z M467 687 Q447 645 401 619 Q355 593 284 593 Q212 593 165.5 619 Q119 645 99 687 L99 749 L223 749 L223 711 Q227 703 241.5 692 Q256 681 284 681 Q311 681 325 692 Q339 703 343 711 L343 749 L467 749 L467 687 Z " />
<glyph glyph-name="ohungarumlaut" unicode="&#x151;" horiz-adv-x="567" d="M284 559 Q339 559 380.5 545.5 Q422 532 451.5 512 Q481 492 500 467.5 Q519 443 529 422 L529 122 Q520 101 500.5 76.5 Q481 52 451.5 32 Q422 12 380.5 -1.5 Q339 -15 284 -15 Q229 -15 187 -1.5 Q145 12 115 32 Q85 52 66 76.5 Q47 101 38 122 L38 422 Q47 443 66.5 467.5 Q86 492 115.5 512 Q145 532 187 545.5 Q229 559 284 559 Z M283 426 Q255 426 236 414 Q217 402 210 387 L210 157 Q218 142 236.5 130 Q255 118 283 118 Q312 118 331 130 Q350 142 357 157 L357 387 Q350 402 331 414 Q312 426 283 426 Z M238 596 L127 596 L127 611 L162 762 L293 762 L293 703 L238 596 Z M441 596 L330 596 L330 611 L364 762 L495 762 L495 703 L441 596 Z " />
<glyph glyph-name="oslash" unicode="&#xf8;" horiz-adv-x="567" d="M504 463 Q519 444 529 422 L529 122 Q519 101 500 76.5 Q481 52 451.5 32 Q422 12 380.5 -1.5 Q339 -15 284 -15 Q235 -15 196.5 -4.5 Q158 6 129 23 L109 0 L38 0 L38 53 L62 81 Q48 101 38 122 L38 422 Q47 443 66.5 467.5 Q86 492 115.5 512 Q145 532 187 545.5 Q229 559 284 559 Q333 559 371 548.5 Q409 538 438 521 L458 544 L529 544 L529 492 L504 463 Z M348 415 Q337 426 321 432.5 Q305 439 283 439 Q255 439 236.5 427.5 Q218 416 210 401 L210 254 L348 415 Z M220 130 Q230 119 246 112 Q262 105 283 105 Q312 105 331 116.5 Q350 128 357 143 L357 291 L220 130 Z " />
<glyph glyph-name="oe" unicode="&#x153;" horiz-adv-x="871" d="M529 153 Q536 138 555.5 126 Q575 114 603 114 Q635 114 655 128 Q675 142 689 170 L835 170 L835 100 Q829 88 812 68.5 Q795 49 766.5 30 Q738 11 697.5 -2 Q657 -15 602 -15 Q551 -15 511.5 -3.5 Q472 8 443 26 Q414 8 374.5 -3.5 Q335 -15 284 -15 Q229 -15 187 -1.5 Q145 12 115 32 Q85 52 66 76.5 Q47 101 38 122 L38 422 Q47 443 66.5 467.5 Q86 492 115.5 512 Q145 532 187 545.5 Q229 559 284 559 Q335 559 374.5 547.5 Q414 536 443 518 Q472 536 511.5 547.5 Q551 559 602 559 Q657 559 697 546 Q737 533 766 514 Q795 495 812 475.5 Q829 456 835 444 L835 223 L529 223 L529 153 Z M602 430 Q574 430 555 418 Q536 406 529 391 L529 334 L676 334 L676 391 Q669 406 650 418 Q631 430 602 430 Z M283 118 Q312 118 331 130 Q350 142 357 157 L357 387 Q350 402 331 414 Q312 426 283 426 Q255 426 236.5 414 Q218 402 210 387 L210 157 Q218 142 236.5 130 Q255 118 283 118 Z " />
<glyph glyph-name="racute" unicode="&#x155;" horiz-adv-x="390" d="M348 545 Q351 545 356 545 Q361 545 369 544 L369 386 Q361 387 354.5 387 Q348 387 343 387 Q292 387 260.5 377 Q229 367 215 353 L215 0 L42 0 L42 544 L203 544 L203 469 Q223 500 256.5 522.5 Q290 545 348 545 Z M271 601 L142 601 L142 616 L191 768 L351 768 L351 696 L271 601 Z " />
<glyph glyph-name="rcaron" unicode="&#x159;" horiz-adv-x="390" d="M348 545 Q351 545 356 545 Q361 545 369 544 L369 386 Q361 387 354.5 387 Q348 387 343 387 Q292 387 260.5 377 Q229 367 215 353 L215 0 L42 0 L42 544 L203 544 L203 469 Q223 500 256.5 522.5 Q290 545 348 545 Z M320 597 L99 597 L24 749 L24 764 L147 764 L210 670 L271 764 L394 764 L394 749 L320 597 Z " />
<glyph glyph-name="rcommaaccent" unicode="&#x157;" horiz-adv-x="390" d="M348 545 Q351 545 356 545 Q361 545 369 544 L369 386 Q361 387 354.5 387 Q348 387 343 387 Q292 387 260.5 377 Q229 367 215 353 L215 0 L42 0 L42 544 L203 544 L203 469 Q223 500 256.5 522.5 Q290 545 348 545 Z M128 -46 Q166 -46 186.5 -54.5 Q207 -63 215 -71 L215 -181 Q212 -191 203.5 -202.5 Q195 -214 181.5 -223.5 Q168 -233 149 -239.5 Q130 -246 104 -246 L47 -246 L47 -193 L88 -193 Q102 -193 114 -190.5 Q126 -188 131 -177 L131 -159 L128 -159 Q90 -159 68.5 -152.5 Q47 -146 40 -138 L40 -71 Q47 -63 68.5 -54.5 Q90 -46 128 -46 Z " />
<glyph glyph-name="sacute" unicode="&#x15b;" horiz-adv-x="515" d="M258 559 Q309 559 347 547.5 Q385 536 411.5 519.5 Q438 503 454.5 486.5 Q471 470 479 457 L479 393 L329 393 Q320 413 303 424.5 Q286 436 257 436 Q234 436 217.5 428 Q201 420 194 410 L194 371 Q200 361 215 354.5 Q230 348 250 343 L299 333 Q344 324 376.5 312.5 Q409 301 431.5 288.5 Q454 276 466.5 264 Q479 252 485 242 L485 91 Q477 79 460.5 61 Q444 43 416.5 26 Q389 9 349.5 -3 Q310 -15 257 -15 Q204 -15 164.5 -3 Q125 9 97.5 26 Q70 43 53.5 61 Q37 79 30 91 L30 156 L179 156 Q190 133 209.5 120.5 Q229 108 258 108 Q284 108 301.5 117 Q319 126 327 138 L327 176 Q320 187 305 194 Q290 201 269 205 L220 214 Q175 223 143 234.5 Q111 246 89.5 259 Q68 272 55 284.5 Q42 297 36 306 L36 457 Q42 468 59 485.5 Q76 503 102.5 519.5 Q129 536 167.5 547.5 Q206 559 258 559 Z M324 601 L195 601 L195 616 L244 768 L404 768 L404 696 L324 601 Z " />
<glyph glyph-name="scircumflex" unicode="&#x15d;" horiz-adv-x="515" d="M258 559 Q309 559 347 547.5 Q385 536 411.5 519.5 Q438 503 454.5 486.5 Q471 470 479 457 L479 393 L329 393 Q320 413 303 424.5 Q286 436 257 436 Q234 436 217.5 428 Q201 420 194 410 L194 371 Q200 361 215 354.5 Q230 348 250 343 L299 333 Q344 324 376.5 312.5 Q409 301 431.5 288.5 Q454 276 466.5 264 Q479 252 485 242 L485 91 Q477 79 460.5 61 Q444 43 416.5 26 Q389 9 349.5 -3 Q310 -15 257 -15 Q204 -15 164.5 -3 Q125 9 97.5 26 Q70 43 53.5 61 Q37 79 30 91 L30 156 L179 156 Q190 133 209.5 120.5 Q229 108 258 108 Q284 108 301.5 117 Q319 126 327 138 L327 176 Q320 187 305 194 Q290 201 269 205 L220 214 Q175 223 143 234.5 Q111 246 89.5 259 Q68 272 55 284.5 Q42 297 36 306 L36 457 Q42 468 59 485.5 Q76 503 102.5 519.5 Q129 536 167.5 547.5 Q206 559 258 559 Z M446 597 L323 597 L262 691 L199 597 L76 597 L76 613 L151 764 L372 764 L446 613 L446 597 Z " />
<glyph glyph-name="scaron" unicode="&#x161;" horiz-adv-x="515" d="M258 559 Q309 559 347 547.5 Q385 536 411.5 519.5 Q438 503 454.5 486.5 Q471 470 479 457 L479 393 L329 393 Q320 413 303 424.5 Q286 436 257 436 Q234 436 217.5 428 Q201 420 194 410 L194 371 Q200 361 215 354.5 Q230 348 250 343 L299 333 Q344 324 376.5 312.5 Q409 301 431.5 288.5 Q454 276 466.5 264 Q479 252 485 242 L485 91 Q477 79 460.5 61 Q444 43 416.5 26 Q389 9 349.5 -3 Q310 -15 257 -15 Q204 -15 164.5 -3 Q125 9 97.5 26 Q70 43 53.5 61 Q37 79 30 91 L30 156 L179 156 Q190 133 209.5 120.5 Q229 108 258 108 Q284 108 301.5 117 Q319 126 327 138 L327 176 Q320 187 305 194 Q290 201 269 205 L220 214 Q175 223 143 234.5 Q111 246 89.5 259 Q68 272 55 284.5 Q42 297 36 306 L36 457 Q42 468 59 485.5 Q76 503 102.5 519.5 Q129 536 167.5 547.5 Q206 559 258 559 Z M372 597 L151 597 L76 749 L76 764 L199 764 L262 670 L323 764 L446 764 L446 749 L372 597 Z " />
<glyph glyph-name="scedilla" unicode="&#x15f;" horiz-adv-x="515" d="M299 333 Q344 324 376.5 312.5 Q409 301 431.5 288.5 Q454 276 466.5 264 Q479 252 485 242 L485 91 Q478 80 464 64 Q450 48 427 32 Q404 16 371 3.5 Q338 -9 295 -13 L285 -40 L293 -40 Q334 -40 354.5 -56.5 Q375 -73 383 -91 L383 -169 Q369 -199 334 -215.5 Q299 -232 250 -232 Q215 -232 188 -227 Q161 -222 148 -215 L171 -146 Q188 -149 205.5 -152 Q223 -155 240 -155 Q259 -155 272 -150 Q285 -145 289 -137 L289 -116 Q285 -108 272.5 -105 Q260 -102 243 -102 L183 -102 L213 -12 Q171 -7 139.5 5.5 Q108 18 86 33.5 Q64 49 50 64.5 Q36 80 30 91 L30 156 L179 156 Q190 133 209.5 120.5 Q229 108 258 108 Q284 108 301.5 117.5 Q319 127 327 138 L327 176 Q321 187 305.5 193.5 Q290 200 269 205 L220 214 Q175 223 143 234.5 Q111 246 89.5 259 Q68 272 55 284.5 Q42 297 36 306 L36 457 Q43 468 59 485.5 Q75 503 102 519.5 Q129 536 167.5 547.5 Q206 559 258 559 Q309 559 347 547.5 Q385 536 412 519.5 Q439 503 455 485.5 Q471 468 479 457 L479 393 L329 393 Q320 413 303 424.5 Q286 436 257 436 Q233 436 217 428 Q201 420 194 410 L194 371 Q200 361 215 354.5 Q230 348 250 343 L299 333 Z " />
<glyph glyph-name="scommaaccent" unicode="&#x219;" horiz-adv-x="515" d="M258 559 Q309 559 347 547.5 Q385 536 411.5 519.5 Q438 503 454.5 486.5 Q471 470 479 457 L479 393 L329 393 Q320 413 303 424.5 Q286 436 257 436 Q234 436 217.5 428 Q201 420 194 410 L194 371 Q200 361 215 354.5 Q230 348 250 343 L299 333 Q344 324 376.5 312.5 Q409 301 431.5 288.5 Q454 276 466.5 264 Q479 252 485 242 L485 91 Q477 79 460.5 61 Q444 43 416.5 26 Q389 9 349.5 -3 Q310 -15 257 -15 Q204 -15 164.5 -3 Q125 9 97.5 26 Q70 43 53.5 61 Q37 79 30 91 L30 156 L179 156 Q190 133 209.5 120.5 Q229 108 258 108 Q284 108 301.5 117 Q319 126 327 138 L327 176 Q320 187 305 194 Q290 201 269 205 L220 214 Q175 223 143 234.5 Q111 246 89.5 259 Q68 272 55 284.5 Q42 297 36 306 L36 457 Q42 468 59 485.5 Q76 503 102.5 519.5 Q129 536 167.5 547.5 Q206 559 258 559 Z M261 -47 Q299 -47 319.5 -55.5 Q340 -64 348 -72 L348 -182 Q345 -192 336.5 -203.5 Q328 -215 314.5 -224.5 Q301 -234 282 -240.5 Q263 -247 237 -247 L180 -247 L180 -194 L221 -194 Q235 -194 247 -191.5 Q259 -189 264 -178 L264 -160 L261 -160 Q223 -160 201.5 -153.5 Q180 -147 173 -139 L173 -72 Q180 -64 201.5 -55.5 Q223 -47 261 -47 Z " />
<glyph glyph-name="germandbls" unicode="&#xdf;" horiz-adv-x="567" d="M284 715 Q337 715 377 702.5 Q417 690 445.5 672.5 Q474 655 491 636.5 Q508 618 516 605 L516 425 Q506 409 488.5 393 Q471 377 454 367 Q489 344 507 321.5 Q525 299 534 278 L534 122 Q520 93 500.5 70.5 Q481 48 451 32.5 Q421 17 379 8.5 Q337 0 279 0 L279 134 Q311 134 329 139 Q347 144 362 169 L362 255 Q352 275 331.5 284.5 Q311 294 286 294 L286 422 Q309 422 328.5 431 Q348 440 358 457 L358 547 Q348 564 328.5 573 Q309 582 284 582 Q258 582 240.5 571.5 Q223 561 215 547 L215 0 L43 0 L43 583 Q53 603 72 626.5 Q91 650 120.5 669.5 Q150 689 190.5 702 Q231 715 284 715 Z " />
<glyph glyph-name="tcaron" unicode="&#x165;" horiz-adv-x="462" d="M445 726 L393 593 L296 593 L296 609 L318 813 L445 813 L445 726 Z M244 143 Q249 136 264 127 Q279 118 316 118 Q327 118 335.5 119 Q344 120 347 120 L347 0 Q334 -4 311 -8.5 Q288 -13 251 -13 Q209 -13 177.5 -4.5 Q146 4 124.5 18 Q103 32 90 49 Q77 66 71 83 L71 420 L21 420 L21 544 L71 544 L71 656 L244 656 L244 544 L333 544 L333 420 L244 420 L244 143 Z " />
<glyph glyph-name="uni021B" unicode="&#x21b;" horiz-adv-x="367" d="M316 118 Q327 118 336 119 Q345 120 347 120 L347 0 Q333 -5 308 -9 Q283 -13 251 -13 Q209 -13 178 -4.5 Q147 4 125 18 Q103 32 90 49 Q77 66 71 83 L71 420 L21 420 L21 544 L71 544 L71 656 L244 656 L244 544 L333 544 L333 420 L244 420 L244 143 Q250 134 267 126 Q284 118 316 118 Z M216 -46 Q254 -46 274.5 -54.5 Q295 -63 303 -71 L303 -181 Q300 -191 291.5 -202.5 Q283 -214 269.5 -223.5 Q256 -233 237 -239.5 Q218 -246 192 -246 L135 -246 L135 -193 L176 -193 Q190 -193 202 -190.5 Q214 -188 219 -177 L219 -159 L216 -159 Q178 -159 156.5 -152.5 Q135 -146 128 -138 L128 -71 Q135 -63 156.5 -54.5 Q178 -46 216 -46 Z " />
<glyph glyph-name="tbar" unicode="&#x167;" horiz-adv-x="367" d="M316 118 Q327 118 335.5 119 Q344 120 347 120 L347 0 Q334 -4 311 -8.5 Q288 -13 251 -13 Q209 -13 177.5 -4.5 Q146 4 124.5 18 Q103 32 90 49 Q77 66 71 83 L71 216 L21 216 L21 340 L71 340 L71 420 L21 420 L21 544 L71 544 L71 656 L244 656 L244 544 L333 544 L333 420 L244 420 L244 340 L333 340 L333 216 L244 216 L244 143 Q249 136 264 127 Q279 118 316 118 Z " />
<glyph glyph-name="ugrave" unicode="&#xf9;" horiz-adv-x="564" d="M521 0 L361 0 L361 49 Q338 23 303.5 6 Q269 -11 220 -11 Q179 -11 149 1.5 Q119 14 97 33 Q75 52 61.5 74 Q48 96 41 115 L41 544 L214 544 L214 155 Q219 145 236 134 Q253 123 280 123 Q304 123 321.5 130 Q339 137 349 148 L349 544 L521 544 L521 0 Z M348 601 L220 601 L140 695 L140 768 L298 768 L348 616 L348 601 Z " />
<glyph glyph-name="uacute" unicode="&#xfa;" horiz-adv-x="564" d="M521 0 L361 0 L361 49 Q338 23 303.5 6 Q269 -11 220 -11 Q179 -11 149 1.5 Q119 14 97 33 Q75 52 61.5 74 Q48 96 41 115 L41 544 L214 544 L214 155 Q219 145 236 134 Q253 123 280 123 Q304 123 321.5 130 Q339 137 349 148 L349 544 L521 544 L521 0 Z M344 601 L215 601 L215 616 L264 768 L424 768 L424 696 L344 601 Z " />
<glyph glyph-name="ucircumflex" unicode="&#xfb;" horiz-adv-x="564" d="M521 0 L361 0 L361 49 Q338 23 303.5 6 Q269 -11 220 -11 Q179 -11 149 1.5 Q119 14 97 33 Q75 52 61.5 74 Q48 96 41 115 L41 544 L214 544 L214 155 Q219 145 236 134 Q253 123 280 123 Q304 123 321.5 130 Q339 137 349 148 L349 544 L521 544 L521 0 Z M467 597 L344 597 L283 691 L220 597 L97 597 L97 613 L172 764 L393 764 L467 613 L467 597 Z " />
<glyph glyph-name="utilde" unicode="&#x169;" horiz-adv-x="564" d="M521 0 L361 0 L361 49 Q338 23 303.5 6 Q269 -11 220 -11 Q179 -11 149 1.5 Q119 14 97 33 Q75 52 61.5 74 Q48 96 41 115 L41 544 L214 544 L214 155 Q219 145 236 134 Q253 123 280 123 Q304 123 321.5 130 Q339 137 349 148 L349 544 L521 544 L521 0 Z M209 753 Q237 753 255.5 745.5 Q274 738 287.5 729 Q301 720 312.5 712.5 Q324 705 338 705 Q364 705 369 728 L369 748 L467 748 L467 683 Q464 667 455 651.5 Q446 636 432 624 Q418 612 399 605 Q380 598 356 598 Q327 598 308.5 605.5 Q290 613 276.5 622.5 Q263 632 251.5 639.5 Q240 647 226 647 Q213 647 205.5 640 Q198 633 196 624 L196 604 L98 604 L98 669 Q103 702 132 727.5 Q161 753 209 753 Z " />
<glyph glyph-name="udieresis" unicode="&#xfc;" horiz-adv-x="564" d="M521 0 L361 0 L361 49 Q338 23 303.5 6 Q269 -11 220 -11 Q179 -11 149 1.5 Q119 14 97 33 Q75 52 61.5 74 Q48 96 41 115 L41 544 L214 544 L214 155 Q219 145 236 134 Q253 123 280 123 Q304 123 321.5 130 Q339 137 349 148 L349 544 L521 544 L521 0 Z M170 751 Q189 751 203 747 Q217 743 226.5 738 Q236 733 242 727 Q248 721 251 717 L251 626 Q248 622 242 616 Q236 610 226.5 605 Q217 600 203 596 Q189 592 170 592 Q135 592 114.5 604.5 Q94 617 89 626 L89 717 Q95 727 115.5 739 Q136 751 170 751 Z M395 751 Q414 751 428 747 Q442 743 451.5 738 Q461 733 467 727 Q473 721 476 717 L476 626 Q473 622 467 616 Q461 610 451.5 605 Q442 600 428 596 Q414 592 395 592 Q360 592 339 605 Q318 618 314 626 L314 717 Q319 726 339.5 738.5 Q360 751 395 751 Z " />
<glyph glyph-name="umacron" unicode="&#x16b;" horiz-adv-x="564" d="M521 0 L361 0 L361 49 Q338 23 303.5 6 Q269 -11 220 -11 Q179 -11 149 1.5 Q119 14 97 33 Q75 52 61.5 74 Q48 96 41 115 L41 544 L214 544 L214 155 Q219 145 236 134 Q253 123 280 123 Q304 123 321.5 130 Q339 137 349 148 L349 544 L521 544 L521 0 Z M104 617 L104 729 L462 729 L462 617 L104 617 Z " />
<glyph glyph-name="ubreve" unicode="&#x16d;" horiz-adv-x="564" d="M521 0 L361 0 L361 49 Q338 23 303.5 6 Q269 -11 220 -11 Q179 -11 149 1.5 Q119 14 97 33 Q75 52 61.5 74 Q48 96 41 115 L41 544 L214 544 L214 155 Q219 145 236 134 Q253 123 280 123 Q304 123 321.5 130 Q339 137 349 148 L349 544 L521 544 L521 0 Z M466 687 Q446 645 400 619 Q354 593 283 593 Q211 593 164.5 619 Q118 645 98 687 L98 749 L222 749 L222 711 Q226 703 240.5 692 Q255 681 283 681 Q310 681 324 692 Q338 703 342 711 L342 749 L466 749 L466 687 Z " />
<glyph glyph-name="uring" unicode="&#x16f;" horiz-adv-x="564" d="M521 0 L361 0 L361 49 Q338 23 303.5 6 Q269 -11 220 -11 Q179 -11 149 1.5 Q119 14 97 33 Q75 52 61.5 74 Q48 96 41 115 L41 544 L214 544 L214 155 Q219 145 236 134 Q253 123 280 123 Q304 123 321.5 130 Q339 137 349 148 L349 544 L521 544 L521 0 Z M281 820 Q328 820 363 802 Q398 784 414 754 L414 656 Q398 626 363 607.5 Q328 589 281 589 Q234 589 199 607.5 Q164 626 148 656 L148 754 Q164 784 199 802 Q234 820 281 820 Z M281 755 Q257 755 243 747 Q229 739 225 732 L225 678 Q229 670 243 662 Q257 654 281 654 Q305 654 319 662 Q333 670 337 678 L337 732 Q333 739 319 747 Q305 755 281 755 Z " />
<glyph glyph-name="uhungarumlaut" unicode="&#x171;" horiz-adv-x="564" d="M521 0 L361 0 L361 49 Q338 23 303.5 6 Q269 -11 220 -11 Q179 -11 149 1.5 Q119 14 97 33 Q75 52 61.5 74 Q48 96 41 115 L41 544 L214 544 L214 155 Q219 145 236 134 Q253 123 280 123 Q304 123 321.5 130 Q339 137 349 148 L349 544 L521 544 L521 0 Z M238 596 L127 596 L127 611 L162 762 L293 762 L293 703 L238 596 Z M441 596 L330 596 L330 611 L364 762 L495 762 L495 703 L441 596 Z " />
<glyph glyph-name="uogonek" unicode="&#x173;" horiz-adv-x="564" d="M521 0 Q480 -38 461 -61.5 Q442 -85 437 -97 L437 -119 Q442 -126 453 -129.5 Q464 -133 478 -133 Q486 -133 496.5 -132 Q507 -131 521 -127 L521 -216 Q510 -222 492.5 -226 Q475 -230 443 -230 Q423 -230 403 -227 Q383 -224 366 -217.5 Q349 -211 335.5 -200.5 Q322 -190 315 -175 L315 -94 Q323 -77 343 -51 Q363 -25 395 0 L361 0 L361 49 Q338 23 303.5 6 Q269 -11 220 -11 Q179 -11 149 1.5 Q119 14 97 33 Q75 52 61.5 74 Q48 96 41 115 L41 544 L214 544 L214 155 Q219 146 235 134.5 Q251 123 280 123 Q305 123 322 130 Q339 137 349 148 L349 544 L521 544 L521 0 Z " />
<glyph glyph-name="wgrave" unicode="&#x1e81;" horiz-adv-x="807" d="M664 0 L479 0 L409 288 L406 288 L336 0 L145 0 L29 452 L29 544 L191 544 L258 191 L261 191 L342 544 L485 544 L564 191 L567 191 L635 544 L780 544 L780 452 L664 0 Z M469 601 L341 601 L261 695 L261 768 L419 768 L469 616 L469 601 Z " />
<glyph glyph-name="wacute" unicode="&#x1e83;" horiz-adv-x="807" d="M664 0 L479 0 L409 288 L406 288 L336 0 L145 0 L29 452 L29 544 L191 544 L258 191 L261 191 L342 544 L485 544 L564 191 L567 191 L635 544 L780 544 L780 452 L664 0 Z M465 601 L336 601 L336 616 L385 768 L545 768 L545 696 L465 601 Z " />
<glyph glyph-name="wcircumflex" unicode="&#x175;" horiz-adv-x="807" d="M664 0 L479 0 L409 288 L406 288 L336 0 L145 0 L29 452 L29 544 L191 544 L258 191 L261 191 L342 544 L485 544 L564 191 L567 191 L635 544 L780 544 L780 452 L664 0 Z M588 597 L465 597 L404 691 L341 597 L218 597 L218 613 L293 764 L514 764 L588 613 L588 597 Z " />
<glyph glyph-name="wdieresis" unicode="&#x1e85;" horiz-adv-x="807" d="M664 0 L479 0 L409 288 L406 288 L336 0 L145 0 L29 452 L29 544 L191 544 L258 191 L261 191 L342 544 L485 544 L564 191 L567 191 L635 544 L780 544 L780 452 L664 0 Z M291 751 Q310 751 324 747 Q338 743 347.5 738 Q357 733 363 727 Q369 721 372 717 L372 626 Q369 622 363 616 Q357 610 347.5 605 Q338 600 324 596 Q310 592 291 592 Q256 592 235.5 604.5 Q215 617 210 626 L210 717 Q216 727 236.5 739 Q257 751 291 751 Z M516 751 Q535 751 549 747 Q563 743 572.5 738 Q582 733 588 727 Q594 721 597 717 L597 626 Q594 622 588 616 Q582 610 572.5 605 Q563 600 549 596 Q535 592 516 592 Q481 592 460 605 Q439 618 435 626 L435 717 Q440 726 460.5 738.5 Q481 751 516 751 Z " />
<glyph glyph-name="ygrave" unicode="&#x1ef3;" horiz-adv-x="540" d="M278 223 L363 544 L514 544 L514 452 L334 -98 Q308 -130 260 -153.5 Q212 -177 134 -177 Q105 -177 80.5 -174 Q56 -171 42 -166 L42 -45 Q51 -46 63 -46.5 Q75 -47 88 -47 Q130 -47 151.5 -38 Q173 -29 183 -18 L190 7 L27 451 L27 544 L189 544 L275 223 L278 223 Z M332 601 L204 601 L124 695 L124 768 L282 768 L332 616 L332 601 Z " />
<glyph glyph-name="yacute" unicode="&#xfd;" horiz-adv-x="540" d="M278 223 L363 544 L514 544 L514 452 L334 -98 Q308 -130 260 -153.5 Q212 -177 134 -177 Q105 -177 80.5 -174 Q56 -171 42 -166 L42 -45 Q51 -46 63 -46.5 Q75 -47 88 -47 Q130 -47 151.5 -38 Q173 -29 183 -18 L190 7 L27 451 L27 544 L189 544 L275 223 L278 223 Z M328 601 L199 601 L199 616 L248 768 L408 768 L408 696 L328 601 Z " />
<glyph glyph-name="ycircumflex" unicode="&#x177;" horiz-adv-x="540" d="M278 223 L363 544 L514 544 L514 452 L334 -98 Q308 -130 260 -153.5 Q212 -177 134 -177 Q105 -177 80.5 -174 Q56 -171 42 -166 L42 -45 Q51 -46 63 -46.5 Q75 -47 88 -47 Q130 -47 151.5 -38 Q173 -29 183 -18 L190 7 L27 451 L27 544 L189 544 L275 223 L278 223 Z M451 597 L328 597 L267 691 L204 597 L81 597 L81 613 L156 764 L377 764 L451 613 L451 597 Z " />
<glyph glyph-name="ydieresis" unicode="&#xff;" horiz-adv-x="540" d="M278 223 L363 544 L514 544 L514 452 L334 -98 Q308 -130 260 -153.5 Q212 -177 134 -177 Q105 -177 80.5 -174 Q56 -171 42 -166 L42 -45 Q51 -46 63 -46.5 Q75 -47 88 -47 Q130 -47 151.5 -38 Q173 -29 183 -18 L190 7 L27 451 L27 544 L189 544 L275 223 L278 223 Z M154 751 Q173 751 187 747 Q201 743 210.5 738 Q220 733 226 727 Q232 721 235 717 L235 626 Q232 622 226 616 Q220 610 210.5 605 Q201 600 187 596 Q173 592 154 592 Q119 592 98.5 604.5 Q78 617 73 626 L73 717 Q79 727 99.5 739 Q120 751 154 751 Z M379 751 Q398 751 412 747 Q426 743 435.5 738 Q445 733 451 727 Q457 721 460 717 L460 626 Q457 622 451 616 Q445 610 435.5 605 Q426 600 412 596 Q398 592 379 592 Q344 592 323 605 Q302 618 298 626 L298 717 Q303 726 323.5 738.5 Q344 751 379 751 Z " />
<glyph glyph-name="zacute" unicode="&#x17a;" horiz-adv-x="493" d="M223 127 L467 127 L467 0 L26 0 L26 118 L262 417 L34 417 L34 544 L467 544 L467 434 L223 127 Z M305 601 L176 601 L176 616 L225 768 L385 768 L385 696 L305 601 Z " />
<glyph glyph-name="zcaron" unicode="&#x17e;" horiz-adv-x="493" d="M223 127 L467 127 L467 0 L26 0 L26 118 L262 417 L34 417 L34 544 L467 544 L467 434 L223 127 Z M354 597 L133 597 L58 749 L58 764 L181 764 L244 670 L305 764 L428 764 L428 749 L354 597 Z " />
<glyph glyph-name="zdotaccent" unicode="&#x17c;" horiz-adv-x="493" d="M223 127 L467 127 L467 0 L26 0 L26 118 L262 417 L34 417 L34 544 L467 544 L467 434 L223 127 Z M244 754 Q282 754 304 738.5 Q326 723 334 706 L334 641 Q326 624 304 609 Q282 594 244 594 Q206 594 184 609 Q162 624 154 641 L154 706 Q162 723 184 738.5 Q206 754 244 754 Z " />
<glyph glyph-name="eng" unicode="&#x14b;" horiz-adv-x="570" d="M347 555 Q387 555 418 542.5 Q449 530 471 511 Q493 492 507 469.5 Q521 447 528 428 L528 -36 Q519 -57 500 -81.5 Q481 -106 451 -126.5 Q421 -147 379.5 -160.5 Q338 -174 283 -174 L283 -42 Q311 -42 329.5 -28 Q348 -14 355 6 L355 389 Q350 399 332.5 410 Q315 421 286 421 Q261 421 243.5 413.5 Q226 406 215 395 L215 0 L43 0 L43 544 L203 544 L203 493 Q226 520 261.5 537.5 Q297 555 347 555 Z " />
<glyph glyph-name="eth" unicode="&#xf0;" horiz-adv-x="567" d="M489 583 Q501 569 511 554 Q521 539 528 523 L528 123 Q518 101 499 77 Q480 53 450.5 32.5 Q421 12 379.5 -1.5 Q338 -15 283 -15 Q228 -15 186.5 -1.5 Q145 12 115 32 Q85 52 66 76.5 Q47 101 37 122 L37 333 Q43 355 58.5 378.5 Q74 402 98 421.5 Q122 441 155 454 Q188 467 229 467 Q274 467 303 456.5 Q332 446 356 429 L356 485 Q347 507 326 530 L179 482 L179 568 L245 589 Q216 606 186 619 Q156 632 129 642 L215 735 Q268 721 319.5 698.5 Q371 676 416 646 L528 682 L528 596 L489 583 Z M356 305 Q348 316 329 325.5 Q310 335 283 335 Q255 335 236 323.5 Q217 312 209 297 L209 157 Q217 142 235.5 130 Q254 118 282 118 Q311 118 330 130 Q349 142 356 157 L356 305 Z " />
<glyph glyph-name="thorn" unicode="&#xfe;" horiz-adv-x="565" d="M347 555 Q387 555 418 542.5 Q449 530 471 511 Q493 492 507 469.5 Q521 447 528 428 L528 116 Q521 96 507 74 Q493 52 471 33 Q449 14 418 1.5 Q387 -11 347 -11 Q302 -11 270 3 Q238 17 215 39 L215 -166 L43 -166 L43 700 L215 700 L215 505 Q238 527 270 541 Q302 555 347 555 Z M355 389 Q350 399 332.5 410 Q315 421 286 421 Q261 421 243.5 414 Q226 407 215 396 L215 148 Q226 138 244 130.5 Q262 123 287 123 Q316 123 333 134.5 Q350 146 355 155 L355 389 Z " />
<glyph glyph-name="longs" unicode="&#x17f;" horiz-adv-x="339" d="M222 715 Q257 715 282.5 710.5 Q308 706 318 702 L318 582 Q315 582 306.5 583 Q298 584 287 584 Q250 584 235.5 575 Q221 566 215 559 L215 0 L42 0 L42 619 Q48 636 61 653 Q74 670 95.5 684 Q117 698 148.5 706.5 Q180 715 222 715 Z " />
<glyph glyph-name="fi" unicode="&#xfb01;" horiz-adv-x="617" d="M251 732 Q286 732 311 727.5 Q336 723 347 719 L347 602 Q339 604 316 604 Q284 604 266.5 596.5 Q249 589 244 579 L244 544 L333 544 L333 420 L244 420 L244 0 L71 0 L71 420 L21 420 L21 544 L71 544 L71 636 Q77 653 90 670 Q103 687 124.5 701 Q146 715 177.5 723.5 Q209 732 251 732 Z M399 0 L399 544 L571 544 L571 0 L399 0 Z M485 754 Q523 754 545 738.5 Q567 723 575 706 L575 641 Q567 624 545 609 Q523 594 485 594 Q447 594 425 609 Q403 624 395 641 L395 706 Q403 723 425 738.5 Q447 754 485 754 Z " />
<glyph glyph-name="fl" unicode="&#xfb02;" horiz-adv-x="612" d="M251 732 Q286 732 311 727.5 Q336 723 347 719 L347 602 Q339 604 316 604 Q284 604 266.5 596.5 Q249 589 244 579 L244 544 L333 544 L333 420 L244 420 L244 0 L71 0 L71 420 L21 420 L21 544 L71 544 L71 636 Q77 653 90 670 Q103 687 124.5 701 Q146 715 177.5 723.5 Q209 732 251 732 Z M397 0 L397 700 L569 700 L569 0 L397 0 Z " />
<glyph glyph-name="ampersand" unicode="&#x26;" horiz-adv-x="692" d="M673 0 L571 0 L519 49 Q483 20 435 2.5 Q387 -15 316 -15 Q254 -15 207 -2 Q160 11 126 31.5 Q92 52 71 76 Q50 100 40 122 L40 277 Q55 306 85.5 335.5 Q116 365 165 384 Q136 411 117.5 431 Q99 451 91 465 L91 591 Q100 608 118.5 629.5 Q137 651 166.5 669.5 Q196 688 237 701 Q278 714 332 714 Q386 714 427 701 Q468 688 497.5 669 Q527 650 545.5 628.5 Q564 607 574 590 L574 525 L415 525 Q408 548 387.5 566.5 Q367 585 332 585 Q306 585 288.5 575.5 Q271 566 263 556 L263 502 Q269 489 281.5 476 Q294 463 308 450 L455 310 L455 390 L604 390 L604 169 L673 103 L673 0 Z M213 158 Q223 140 254 127 Q285 114 322 114 Q381 114 418 145 L267 288 Q248 283 233.5 273 Q219 263 213 250 L213 158 Z " />
<glyph glyph-name="grave" unicode="&#x60;" horiz-adv-x="473" d="M341 601 L213 601 L133 695 L133 768 L291 768 L341 616 L341 601 Z " />
<glyph glyph-name="acute" unicode="&#xb4;" horiz-adv-x="473" d="M261 601 L132 601 L132 616 L181 768 L341 768 L341 696 L261 601 Z " />
<glyph glyph-name="circumflex" unicode="&#x2c6;" horiz-adv-x="473" d="M421 597 L298 597 L237 691 L174 597 L51 597 L51 613 L126 764 L347 764 L421 613 L421 597 Z " />
<glyph glyph-name="caron" unicode="&#x2c7;" horiz-adv-x="473" d="M347 597 L126 597 L51 749 L51 764 L174 764 L237 670 L298 764 L421 764 L421 749 L347 597 Z " />
<glyph glyph-name="tilde" unicode="&#x2dc;" horiz-adv-x="473" d="M163 753 Q191 753 209.5 745.5 Q228 738 241.5 729 Q255 720 266.5 712.5 Q278 705 292 705 Q318 705 323 728 L323 748 L421 748 L421 683 Q418 667 409 651.5 Q400 636 386 624 Q372 612 353 605 Q334 598 310 598 Q281 598 262.5 605.5 Q244 613 230.5 622.5 Q217 632 205.5 639.5 Q194 647 180 647 Q167 647 159.5 640 Q152 633 150 624 L150 604 L52 604 L52 669 Q57 702 86 727.5 Q115 753 163 753 Z " />
<glyph glyph-name="dieresis" unicode="&#xa8;" horiz-adv-x="473" d="M125 751 Q144 751 158 747 Q172 743 181.5 738 Q191 733 197 727 Q203 721 206 717 L206 626 Q203 622 197 616 Q191 610 181.5 605 Q172 600 158 596 Q144 592 125 592 Q90 592 69.5 604.5 Q49 617 44 626 L44 717 Q50 727 70.5 739 Q91 751 125 751 Z M350 751 Q369 751 383 747 Q397 743 406.5 738 Q416 733 422 727 Q428 721 431 717 L431 626 Q428 622 422 616 Q416 610 406.5 605 Q397 600 383 596 Q369 592 350 592 Q315 592 294 605 Q273 618 269 626 L269 717 Q274 726 294.5 738.5 Q315 751 350 751 Z " />
<glyph glyph-name="breve" unicode="&#x2d8;" horiz-adv-x="473" d="M420 687 Q400 645 354 619 Q308 593 237 593 Q165 593 118.5 619 Q72 645 52 687 L52 749 L176 749 L176 711 Q180 703 194.5 692 Q209 681 237 681 Q264 681 278 692 Q292 703 296 711 L296 749 L420 749 L420 687 Z " />
<glyph glyph-name="ring" unicode="&#x2da;" horiz-adv-x="473" d="M236 820 Q283 820 318 802 Q353 784 369 754 L369 656 Q353 626 318 607.5 Q283 589 236 589 Q189 589 154 607.5 Q119 626 103 656 L103 754 Q119 784 154 802 Q189 820 236 820 Z M236 755 Q212 755 198 747 Q184 739 180 732 L180 678 Q184 670 198 662 Q212 654 236 654 Q260 654 274 662 Q288 670 292 678 L292 732 Q288 739 274 747 Q260 755 236 755 Z " />
<glyph glyph-name="hungarumlaut" unicode="&#x2dd;" horiz-adv-x="473" d="M165 596 L54 596 L54 611 L89 762 L220 762 L220 703 L165 596 Z M368 596 L257 596 L257 611 L291 762 L422 762 L422 703 L368 596 Z " />
<glyph glyph-name="dotaccent" unicode="&#x2d9;" horiz-adv-x="473" d="M236 754 Q274 754 296 738.5 Q318 723 326 706 L326 641 Q318 624 296 609 Q274 594 236 594 Q198 594 176 609 Q154 624 146 641 L146 706 Q154 723 176 738.5 Q198 754 236 754 Z " />
<glyph glyph-name="cedilla" unicode="&#xb8;" horiz-adv-x="473" d="M267 -40 Q308 -40 328.5 -56 Q349 -72 357 -91 L357 -168 Q343 -198 308 -215 Q273 -232 225 -232 Q190 -232 163 -227 Q136 -222 122 -214 L146 -145 Q162 -149 180 -151.5 Q198 -154 215 -154 Q255 -154 263 -136 L263 -116 Q259 -108 246.5 -104.5 Q234 -101 217 -101 L157 -101 L192 4 L276 4 L259 -40 L267 -40 Z " />
<glyph glyph-name="ogonek" unicode="&#x2db;" horiz-adv-x="473" d="M341 0 Q300 -41 286.5 -63.5 Q273 -86 268 -97 L268 -119 Q273 -126 284 -129.5 Q295 -133 309 -133 Q317 -133 327.5 -132 Q338 -131 352 -127 L352 -216 Q341 -222 323.5 -226 Q306 -230 274 -230 Q254 -230 234 -227 Q214 -224 197 -217.5 Q180 -211 166.5 -200.5 Q153 -190 146 -175 L146 -94 Q150 -84 160 -69.5 Q170 -55 184.5 -38.5 Q199 -22 218.5 -6 Q238 10 261 23 L341 0 Z " />
<glyph glyph-name="comma" unicode="&#x2c;" horiz-adv-x="240" d="M119 167 Q159 167 181 151.5 Q203 136 210 119 L210 -56 Q207 -66 197.5 -80 Q188 -94 172.5 -107 Q157 -120 136 -129 Q115 -138 89 -138 L46 -138 L46 -66 L80 -66 Q91 -66 102.5 -58.5 Q114 -51 119 -40 L119 -14 Q81 -14 59.5 1.5 Q38 17 30 33 L30 119 Q38 136 59.5 151.5 Q81 167 119 167 Z " />
<glyph glyph-name="semicolon" unicode="&#x3b;" horiz-adv-x="252" d="M125 167 Q165 167 187 151.5 Q209 136 216 119 L216 -56 Q213 -66 203.5 -80 Q194 -94 178.5 -107 Q163 -120 142 -129 Q121 -138 95 -138 L52 -138 L52 -66 L86 -66 Q97 -66 108.5 -58.5 Q120 -51 125 -40 L125 -14 Q87 -14 65.5 1.5 Q44 17 36 33 L36 119 Q44 136 65.5 151.5 Q87 167 125 167 Z M125 520 Q165 520 187 504.5 Q209 489 216 472 L216 387 Q209 371 187 355.5 Q165 340 125 340 Q87 340 65.5 355.5 Q44 371 36 387 L36 472 Q44 489 65.5 504.5 Q87 520 125 520 Z " />
<glyph glyph-name="colon" unicode="&#x3a;" horiz-adv-x="252" d="M125 167 Q165 167 187 151.5 Q209 136 216 119 L216 34 Q209 18 187 2.5 Q165 -13 125 -13 Q87 -13 65.5 2.5 Q44 18 36 34 L36 119 Q44 136 65.5 151.5 Q87 167 125 167 Z M125 520 Q165 520 187 504.5 Q209 489 216 472 L216 387 Q209 371 187 355.5 Q165 340 125 340 Q87 340 65.5 355.5 Q44 371 36 387 L36 472 Q44 489 65.5 504.5 Q87 520 125 520 Z " />
<glyph glyph-name="period" unicode="&#x2e;" horiz-adv-x="240" d="M119 167 Q159 167 181 151.5 Q203 136 210 119 L210 34 Q203 18 181 2.5 Q159 -13 119 -13 Q81 -13 59.5 2.5 Q38 18 30 34 L30 119 Q38 136 59.5 151.5 Q81 167 119 167 Z " />
<glyph glyph-name="ellipsis" unicode="&#x2026;" horiz-adv-x="704" d="M119 166 Q159 166 181 150.5 Q203 135 210 118 L210 34 Q203 18 181 2.5 Q159 -13 119 -13 Q81 -13 59.5 2.5 Q38 18 30 34 L30 118 Q38 135 59.5 150.5 Q81 166 119 166 Z M352 166 Q391 166 413 150.5 Q435 135 442 118 L442 34 Q435 18 413 2.5 Q391 -13 352 -13 Q314 -13 292 2.5 Q270 18 262 34 L262 118 Q270 135 292 150.5 Q314 166 352 166 Z M584 166 Q623 166 645 150.5 Q667 135 674 118 L674 34 Q667 18 645 2.5 Q623 -13 584 -13 Q546 -13 524 2.5 Q502 18 494 34 L494 118 Q502 135 524 150.5 Q546 166 584 166 Z " />
<glyph glyph-name="hyphen" unicode="&#x2d;" horiz-adv-x="368" d="M31 266 L31 401 L336 401 L336 266 L31 266 Z " />
<glyph glyph-name="exclam" unicode="&#x21;" horiz-adv-x="295" d="M223 202 L72 202 L51 543 L51 700 L245 700 L245 543 L223 202 Z M147 159 Q187 159 209 143.5 Q231 128 238 112 L238 34 Q231 18 209 2.5 Q187 -13 147 -13 Q109 -13 87.5 2.5 Q66 18 58 34 L58 112 Q66 128 87.5 143.5 Q109 159 147 159 Z " />
<glyph glyph-name="exclamdown" unicode="&#xa1;" horiz-adv-x="295" d="M72 343 L223 343 L244 2 L244 -155 L50 -155 L50 2 L72 343 Z M148 386 Q108 386 86 401.5 Q64 417 57 433 L57 511 Q64 527 86 542.5 Q108 558 148 558 Q186 558 207.5 542.5 Q229 527 237 511 L237 433 Q229 417 207.5 401.5 Q186 386 148 386 Z " />
<glyph glyph-name="question" unicode="&#x3f;" horiz-adv-x="545" d="M265 715 Q323 715 366.5 701.5 Q410 688 441.5 668 Q473 648 492.5 626 Q512 604 523 586 L523 415 Q512 394 488 375 Q464 356 444 342 L316 255 L316 209 L140 209 L140 321 L274 412 Q300 429 318.5 444 Q337 459 344 473 L344 534 Q334 549 313.5 560 Q293 571 265 571 Q231 571 209.5 556.5 Q188 542 180 521 L21 521 L21 608 Q32 623 51.5 641.5 Q71 660 101 676.5 Q131 693 171.5 704 Q212 715 265 715 Z M227 167 Q267 167 289 151.5 Q311 136 318 119 L318 34 Q311 18 289 2.5 Q267 -13 227 -13 Q189 -13 167.5 2.5 Q146 18 138 34 L138 119 Q146 136 167.5 151.5 Q189 167 227 167 Z " />
<glyph glyph-name="questiondown" unicode="&#xbf;" horiz-adv-x="545" d="M280 -168 Q222 -168 178.5 -154.5 Q135 -141 103.5 -121 Q72 -101 52.5 -79 Q33 -57 22 -39 L22 132 Q33 153 57 172 Q81 191 101 205 L229 292 L229 338 L405 338 L405 226 L271 135 Q245 118 226.5 103 Q208 88 201 74 L201 13 Q211 -2 231.5 -13 Q252 -24 280 -24 Q314 -24 335.5 -9.5 Q357 5 365 26 L524 26 L524 -61 Q513 -76 493.5 -94.5 Q474 -113 444 -129.5 Q414 -146 373.5 -157 Q333 -168 280 -168 Z M318 380 Q278 380 256 395.5 Q234 411 227 428 L227 513 Q234 529 256 544.5 Q278 560 318 560 Q356 560 377.5 544.5 Q399 529 407 513 L407 428 Q399 411 377.5 395.5 Q356 380 318 380 Z " />
<glyph glyph-name="quoteleft" unicode="&#x2018;" horiz-adv-x="241" d="M122 407 Q82 407 60 422.5 Q38 438 31 455 L31 630 Q34 640 43.5 654 Q53 668 68.5 681 Q84 694 105 703 Q126 712 152 712 L195 712 L195 640 L161 640 Q150 640 138.5 632.5 Q127 625 122 614 L122 588 Q160 588 181.5 572.5 Q203 557 211 541 L211 455 Q203 438 181.5 422.5 Q160 407 122 407 Z " />
<glyph glyph-name="quoteright" unicode="&#x2019;" horiz-adv-x="241" d="M119 716 Q159 716 181 700.5 Q203 685 210 668 L210 493 Q207 483 197.5 469 Q188 455 172.5 442 Q157 429 136 420 Q115 411 89 411 L46 411 L46 483 L80 483 Q91 483 102.5 490.5 Q114 498 119 509 L119 535 Q81 535 59.5 550.5 Q38 566 30 582 L30 668 Q38 685 59.5 700.5 Q81 716 119 716 Z " />
<glyph glyph-name="quotedblleft" unicode="&#x201c;" horiz-adv-x="473" d="M122 407 Q82 407 60 422.5 Q38 438 31 455 L31 630 Q34 640 43.5 654 Q53 668 68.5 681 Q84 694 105 703 Q126 712 152 712 L195 712 L195 640 L161 640 Q150 640 138.5 632.5 Q127 625 122 614 L122 588 Q160 588 181.5 572.5 Q203 557 211 541 L211 455 Q203 438 181.5 422.5 Q160 407 122 407 Z M353 407 Q313 407 291 422.5 Q269 438 262 455 L262 630 Q265 640 274.5 654 Q284 668 299.5 681 Q315 694 336 703 Q357 712 383 712 L426 712 L426 640 L392 640 Q381 640 369.5 632.5 Q358 625 353 614 L353 588 Q391 588 412.5 572.5 Q434 557 442 541 L442 455 Q434 438 412.5 422.5 Q391 407 353 407 Z " />
<glyph glyph-name="quotedblright" unicode="&#x201d;" horiz-adv-x="473" d="M119 716 Q159 716 181 700.5 Q203 685 210 668 L210 493 Q207 483 197.5 469 Q188 455 172.5 442 Q157 429 136 420 Q115 411 89 411 L46 411 L46 483 L80 483 Q91 483 102.5 490.5 Q114 498 119 509 L119 535 Q81 535 59.5 550.5 Q38 566 30 582 L30 668 Q38 685 59.5 700.5 Q81 716 119 716 Z M351 716 Q391 716 413 700.5 Q435 685 442 668 L442 493 Q439 483 429.5 469 Q420 455 404.5 442 Q389 429 368 420 Q347 411 321 411 L278 411 L278 483 L312 483 Q323 483 334.5 490.5 Q346 498 351 509 L351 535 Q313 535 291.5 550.5 Q270 566 262 582 L262 668 Q270 685 291.5 700.5 Q313 716 351 716 Z " />
<glyph glyph-name="quotesinglbase" unicode="&#x201a;" horiz-adv-x="241" d="M119 167 Q159 167 181 151.5 Q203 136 210 119 L210 -56 Q207 -66 197.5 -80 Q188 -94 172.5 -107 Q157 -120 136 -129 Q115 -138 89 -138 L46 -138 L46 -66 L80 -66 Q91 -66 102.5 -58.5 Q114 -51 119 -40 L119 -14 Q81 -14 59.5 1.5 Q38 17 30 33 L30 119 Q38 136 59.5 151.5 Q81 167 119 167 Z " />
<glyph glyph-name="quotedblbase" unicode="&#x201e;" horiz-adv-x="473" d="M119 167 Q159 167 181 151.5 Q203 136 210 119 L210 -56 Q207 -66 197.5 -80 Q188 -94 172.5 -107 Q157 -120 136 -129 Q115 -138 89 -138 L46 -138 L46 -66 L80 -66 Q91 -66 102.5 -58.5 Q114 -51 119 -40 L119 -14 Q81 -14 59.5 1.5 Q38 17 30 33 L30 119 Q38 136 59.5 151.5 Q81 167 119 167 Z M351 167 Q391 167 413 151.5 Q435 136 442 119 L442 -56 Q439 -66 429.5 -80 Q420 -94 404.5 -107 Q389 -120 368 -129 Q347 -138 321 -138 L278 -138 L278 -66 L312 -66 Q323 -66 334.5 -58.5 Q346 -51 351 -40 L351 -14 Q313 -14 291.5 1.5 Q270 17 262 33 L262 119 Q270 136 291.5 151.5 Q313 167 351 167 Z " />
<glyph glyph-name="guilsinglleft" unicode="&#x2039;" horiz-adv-x="361" d="M171 285 L327 115 L327 25 L202 25 L31 217 L31 351 L202 544 L327 544 L327 454 L171 285 Z " />
<glyph glyph-name="guilsinglright" unicode="&#x203a;" horiz-adv-x="361" d="M330 217 L160 25 L34 25 L34 115 L190 285 L34 454 L34 544 L160 544 L330 351 L330 217 Z " />
<glyph glyph-name="guillemotleft" unicode="&#xab;" horiz-adv-x="638" d="M171 285 L327 115 L327 25 L202 25 L31 217 L31 352 L202 544 L327 544 L327 454 L171 285 Z M449 285 L606 115 L606 25 L480 25 L310 217 L310 352 L480 544 L606 544 L606 454 L449 285 Z " />
<glyph glyph-name="guillemotright" unicode="&#xbb;" horiz-adv-x="638" d="M330 217 L160 25 L34 25 L34 115 L190 285 L34 454 L34 544 L160 544 L330 352 L330 217 Z M607 217 L438 25 L311 25 L311 115 L468 285 L311 454 L311 544 L438 544 L607 352 L607 217 Z " />
<glyph glyph-name="slash" unicode="&#x2f;" horiz-adv-x="420" d="M180 -110 L34 -110 L34 -19 L240 731 L385 731 L385 640 L180 -110 Z " />
<glyph glyph-name="bar" unicode="&#x7c;" horiz-adv-x="318" d="M66 -130 L66 790 L251 790 L251 -130 L66 -130 Z " />
<glyph glyph-name="endash" unicode="&#x2013;" horiz-adv-x="568" d="M31 266 L31 401 L536 401 L536 266 L31 266 Z " />
<glyph glyph-name="emdash" unicode="&#x2014;" horiz-adv-x="868" d="M31 266 L31 401 L836 401 L836 266 L31 266 Z " />
<glyph glyph-name="bullet" unicode="&#x2022;" horiz-adv-x="360" d="M179 483 Q228 483 263.5 464 Q299 445 318 417 L318 266 Q299 237 263.5 217.5 Q228 198 179 198 Q129 198 94 218.5 Q59 239 42 267 L42 417 Q59 443 94 463 Q129 483 179 483 Z " />
<glyph glyph-name="parenleft" unicode="&#x28;" horiz-adv-x="360" d="M319 577 Q281 577 261.5 557.5 Q242 538 234 512 L234 19 Q242 -8 263 -26.5 Q284 -45 319 -45 L330 -45 L330 -168 L319 -168 Q258 -168 211.5 -153 Q165 -138 131 -113.5 Q97 -89 75 -59 Q53 -29 42 1 L42 531 Q53 561 75 591 Q97 621 131 645.5 Q165 670 211.5 685 Q258 700 319 700 L330 700 L330 577 L319 577 Z " />
<glyph glyph-name="parenright" unicode="&#x29;" horiz-adv-x="360" d="M41 700 Q101 700 148 685 Q195 670 228.5 645.5 Q262 621 284 591 Q306 561 317 531 L317 1 Q306 -29 284 -59 Q262 -89 228.5 -113.5 Q195 -138 148 -153 Q101 -168 41 -168 L29 -168 L29 -45 L41 -45 Q75 -45 96.5 -26.5 Q118 -8 125 19 L125 512 Q118 538 98.5 557.5 Q79 577 41 577 L29 577 L29 700 L41 700 Z " />
<glyph glyph-name="bracketleft" unicode="&#x5b;" horiz-adv-x="368" d="M235 577 L235 -45 L335 -45 L335 -168 L49 -168 L49 700 L335 700 L335 577 L235 577 Z " />
<glyph glyph-name="bracketright" unicode="&#x5d;" horiz-adv-x="368" d="M33 -168 L33 -45 L133 -45 L133 577 L33 577 L33 700 L319 700 L319 -168 L33 -168 Z " />
<glyph glyph-name="braceleft" unicode="&#x7b;" horiz-adv-x="379" d="M266 350 Q246 294 196 260 Q246 226 266 170 L266 31 Q268 13 273 -3 Q278 -19 287 -31 Q296 -43 311.5 -50 Q327 -57 350 -57 L350 -179 Q290 -179 243 -164 Q196 -149 162 -125 Q128 -101 106 -71 Q84 -41 73 -11 L73 148 Q71 178 58.5 188.5 Q46 199 27 199 L27 322 Q46 322 58.5 332.5 Q71 343 73 373 L73 531 Q84 561 106 591 Q128 621 162 645.5 Q196 670 243 685 Q290 700 350 700 L350 577 Q327 577 311.5 570 Q296 563 287 551 Q278 539 273 523 Q268 507 266 489 L266 350 Z " />
<glyph glyph-name="braceright" unicode="&#x7d;" horiz-adv-x="379" d="M305 373 Q308 343 320 332.5 Q332 322 352 322 L352 199 Q332 199 320 188.5 Q308 178 305 148 L305 -11 Q294 -41 272 -71 Q250 -101 216 -125 Q182 -149 135.5 -164 Q89 -179 28 -179 L28 -57 Q52 -57 67 -50 Q82 -43 91.5 -31 Q101 -19 106 -3 Q111 13 113 31 L113 170 Q132 225 182 260 Q133 294 113 350 L113 489 Q111 507 106 523 Q101 539 91.5 551 Q82 563 67 570 Q52 577 28 577 L28 700 Q89 700 135.5 685 Q182 670 216 645.5 Q250 621 272 591 Q294 561 305 531 L305 373 Z " />
<glyph glyph-name="asterisk" unicode="&#x2a;" horiz-adv-x="491" d="M451 606 Q456 589 458.5 571 Q461 553 457 534 L322 515 L421 419 Q413 402 400.5 388 Q388 374 373 363 Q343 339 306 335 L245 459 L185 335 Q148 339 118 363 Q103 374 90 388 Q77 402 70 419 L169 515 L33 534 Q27 571 40 606 Q46 624 55 640.5 Q64 657 78 669 L197 605 L174 739 Q191 748 209 751.5 Q227 755 245 755 Q264 755 282 751.5 Q300 748 316 739 L292 605 L413 669 Q426 657 435.5 640.5 Q445 624 451 606 Z " />
<glyph glyph-name="dagger" unicode="&#x2020;" horiz-adv-x="650" d="M626 330 L526 330 L411 342 L395 -168 L251 -168 L236 342 L123 330 L24 330 L24 483 L123 483 L232 471 L230 543 L230 700 L417 700 L417 543 L415 472 L526 483 L626 483 L626 330 Z " />
<glyph glyph-name="daggerdbl" unicode="&#x2021;" horiz-adv-x="670" d="M406 201 L526 213 L626 213 L626 60 L526 60 L402 73 L395 -168 L251 -168 L244 73 L123 60 L24 60 L24 213 L123 213 L240 201 L235 372 L123 360 L24 360 L24 513 L123 513 L231 502 L230 543 L230 700 L417 700 L417 543 L416 502 L526 513 L626 513 L626 360 L526 360 L412 372 L406 201 Z " />
<glyph glyph-name="section" unicode="&#xa7;" horiz-adv-x="528" d="M263 598 Q238 598 220.5 588.5 Q203 579 195 568 L195 527 Q201 516 217 510 Q233 504 253 499 L305 488 Q350 479 382.5 467 Q415 455 437.5 442.5 Q460 430 473 418 Q486 406 492 397 L492 248 Q486 239 475 226.5 Q464 214 447 201 Q465 189 476 178 Q487 167 492 159 L492 16 Q484 4 467.5 -14 Q451 -32 423.5 -49 Q396 -66 356.5 -78.5 Q317 -91 263 -91 Q209 -91 169.5 -78.5 Q130 -66 103 -48.5 Q76 -31 59.5 -13 Q43 5 36 16 L36 72 L190 72 Q194 53 213.5 39.5 Q233 26 264 26 Q290 26 307.5 36 Q325 46 332 57 L332 97 Q327 108 311 114.5 Q295 121 275 126 L223 137 Q178 146 145.5 157.5 Q113 169 90.5 181.5 Q68 194 55 206 Q42 218 36 227 L36 377 Q42 386 53 398 Q64 410 81 424 Q63 435 52 446 Q41 457 36 466 L36 609 Q43 620 60 638 Q77 656 104.5 673 Q132 690 171.5 702.5 Q211 715 264 715 Q318 715 357.5 702.5 Q397 690 424.5 673 Q452 656 468.5 638 Q485 620 492 609 L492 552 L338 552 Q334 571 314.5 584.5 Q295 598 263 598 Z M332 334 Q327 345 311.5 352 Q296 359 275 363 L257 367 Q234 365 218 356 Q202 347 195 336 L195 290 Q201 279 216.5 272.5 Q232 266 253 261 L268 258 Q292 259 308.5 268.5 Q325 278 332 289 L332 334 Z " />
<glyph glyph-name="paragraph" unicode="&#xb6;" horiz-adv-x="675" d="M288 -100 L288 225 L251 225 Q211 225 177.5 234.5 Q144 244 117 260.5 Q90 277 69.5 299 Q49 321 36 345 L36 581 Q70 639 126.5 669.5 Q183 700 251 700 L415 700 L415 -100 L288 -100 Z M494 -100 L494 700 L621 700 L621 -100 L494 -100 Z " />
<glyph glyph-name="asciicircum" unicode="&#x5e;" horiz-adv-x="501" d="M467 342 L356 342 L261 529 L241 529 L146 342 L34 342 L34 442 L172 700 L328 700 L467 442 L467 342 Z " />
<glyph glyph-name="asciitilde" unicode="&#x7e;" horiz-adv-x="586" d="M172 461 Q208 461 242 453 Q276 445 309 435.5 Q342 426 374.5 418 Q407 410 440 410 Q465 410 485.5 417 Q506 424 521 432 Q539 442 552 454 L552 307 Q539 297 522 290 Q508 283 487.5 278 Q467 273 441 273 Q402 273 368 281 Q334 289 301.5 298.5 Q269 308 237 316 Q205 324 170 324 Q141 324 116 316 Q91 308 73 298 Q52 287 34 273 L34 415 Q50 427 71 438 Q89 446 114.5 453.5 Q140 461 172 461 Z " />
<glyph glyph-name="brokenbar" unicode="&#xa6;" horiz-adv-x="319" d="M66 384 L66 790 L251 790 L251 384 L66 384 Z M66 -129 L66 310 L251 310 L251 -129 L66 -129 Z " />
<glyph glyph-name="backslash" unicode="&#x5c;" horiz-adv-x="420" d="M385 -110 L240 -110 L34 640 L34 731 L180 731 L385 -19 L385 -110 Z " />
<glyph glyph-name="underscore" unicode="&#x5f;" horiz-adv-x="527" d="M-5 -154 L-5 -47 L532 -47 L532 -154 L-5 -154 Z " />
<glyph glyph-name="quotesingle" unicode="&#x27;" horiz-adv-x="210" d="M159 417 L51 417 L30 561 L30 700 L179 700 L179 562 L159 417 Z " />
<glyph glyph-name="quotedbl" unicode="&#x22;" horiz-adv-x="424" d="M159 417 L51 417 L30 561 L30 700 L179 700 L179 562 L159 417 Z M373 417 L265 417 L244 561 L244 700 L393 700 L393 562 L373 417 Z " />
<glyph glyph-name="at" unicode="&#x40;" horiz-adv-x="915" d="M467 715 Q557 715 629 689 Q701 663 753.5 624 Q806 585 839 539 Q872 493 886 454 L886 104 Q860 66 813.5 48.5 Q767 31 717 31 Q661 31 621.5 48.5 Q582 66 553 98 Q527 72 490.5 54 Q454 36 405 36 Q369 36 340.5 47.5 Q312 59 290 76.5 Q268 94 254 114.5 Q240 135 234 153 L234 395 Q240 413 253 433.5 Q266 454 286.5 471.5 Q307 489 335 500.5 Q363 512 399 512 Q442 512 473 497.5 Q504 483 526 460 L526 498 L678 498 L678 142 Q692 118 729 118 Q748 118 759 124.5 Q770 131 780 142 L780 433 Q769 458 745 490.5 Q721 523 682.5 551.5 Q644 580 589.5 600 Q535 620 463 620 Q355 620 271 571.5 Q187 523 147 430 L147 124 Q167 78 199 42.5 Q231 7 272.5 -17.5 Q314 -42 362 -55 Q410 -68 463 -68 Q559 -68 637 -23 L690 -99 Q640 -129 583 -145.5 Q526 -162 463 -162 Q391 -162 325 -144.5 Q259 -127 204 -93.5 Q149 -60 107 -12 Q65 36 40 98 L40 455 Q65 516 109 564.5 Q153 613 210 646.5 Q267 680 333 697.5 Q399 715 467 715 Z M453 149 Q479 149 497 158 Q515 167 526 178 L526 371 Q515 382 497 391 Q479 400 453 400 Q425 400 408.5 389 Q392 378 387 369 L387 180 Q392 171 408.5 160 Q425 149 453 149 Z " />
<glyph glyph-name="copyright" unicode="&#xa9;" horiz-adv-x="792" d="M396 715 Q471 715 538 686.5 Q605 658 655.5 609 Q706 560 735 493 Q764 426 764 350 Q764 273 735 206.5 Q706 140 655.5 91 Q605 42 538 13.5 Q471 -15 396 -15 Q320 -15 253 13.5 Q186 42 136 91 Q86 140 57 206.5 Q28 273 28 350 Q28 426 57 493 Q86 560 136 609 Q186 658 253 686.5 Q320 715 396 715 Z M396 648 Q334 648 280.5 624.5 Q227 601 187.5 560.5 Q148 520 125.5 466 Q103 412 103 350 Q103 288 125.5 234 Q148 180 187.5 139.5 Q227 99 280.5 75.5 Q334 52 396 52 Q458 52 511.5 75.5 Q565 99 604 139.5 Q643 180 665.5 234 Q688 288 688 350 Q688 412 665.5 466 Q643 520 604 560.5 Q565 601 511.5 624.5 Q458 648 396 648 Z M394 581 Q440 581 474 570.5 Q508 560 531.5 545.5 Q555 531 569 515.5 Q583 500 589 490 L589 431 L466 431 Q461 447 444.5 461 Q428 475 397 475 Q373 475 357 466 Q341 457 336 447 L336 252 Q341 242 357 233.5 Q373 225 397 225 Q428 225 444.5 238.5 Q461 252 466 268 L589 268 L589 209 Q583 200 569 184.5 Q555 169 531.5 154.5 Q508 140 474 129.5 Q440 119 394 119 Q347 119 312.5 130.5 Q278 142 254 159 Q230 176 215 194 Q200 212 194 226 L194 473 Q200 486 215 505 Q230 524 254 540.5 Q278 557 312.5 569 Q347 581 394 581 Z " />
<glyph glyph-name="registered" unicode="&#xae;" horiz-adv-x="518" d="M259 824 Q308 824 352 805 Q396 786 429 753.5 Q462 721 481 677.5 Q500 634 500 585 Q500 536 481 492.5 Q462 449 429 416.5 Q396 384 352 365 Q308 346 259 346 Q210 346 166 365 Q122 384 89 416.5 Q56 449 37 492.5 Q18 536 18 585 Q18 634 37 677.5 Q56 721 89 753.5 Q122 786 166 805 Q210 824 259 824 Z M259 393 Q299 393 333.5 408 Q368 423 393.5 449 Q419 475 434 510 Q449 545 449 585 Q449 625 434 660 Q419 695 393.5 721 Q368 747 333.5 762 Q299 777 259 777 Q219 777 184.5 762 Q150 747 124.5 721 Q99 695 84.5 660 Q70 625 70 585 Q70 545 84.5 510 Q99 475 124.5 449 Q150 423 184.5 408 Q219 393 259 393 Z M285 723 Q311 723 336 709 Q361 695 372 670 L372 591 Q360 564 332 551 L371 502 L371 457 L305 457 L261 540 L230 540 L230 457 L156 457 L156 723 L285 723 Z M270 595 Q278 595 286 598.5 Q294 602 298 611 L298 650 Q294 659 286 662.5 Q278 666 270 666 L230 666 L230 595 L270 595 Z " />
<glyph glyph-name="trademark" unicode="&#x2122;" horiz-adv-x="813" d="M224 611 L224 310 L110 310 L110 611 L22 611 L22 700 L312 700 L312 611 L224 611 Z M668 310 L668 526 L666 526 L588 310 L528 310 L450 526 L448 526 L448 310 L342 310 L342 700 L490 700 L560 508 L562 508 L633 700 L774 700 L774 310 L668 310 Z " />
<glyph glyph-name="uni2117" unicode="&#x2117;" horiz-adv-x="792" d="M396 715 Q471 715 538 686.5 Q605 658 655.5 609 Q706 560 735 493 Q764 426 764 350 Q764 273 735 206.5 Q706 140 655.5 91 Q605 42 538 13.5 Q471 -15 396 -15 Q320 -15 253 13.5 Q186 42 136 91 Q86 140 57 206.5 Q28 273 28 350 Q28 426 57 493 Q86 560 136 609 Q186 658 253 686.5 Q320 715 396 715 Z M396 648 Q334 648 280.5 624.5 Q227 601 187.5 560.5 Q148 520 125.5 466 Q103 412 103 350 Q103 288 125.5 234 Q148 180 187.5 139.5 Q227 99 280.5 75.5 Q334 52 396 52 Q458 52 511.5 75.5 Q565 99 604 139.5 Q643 180 665.5 234 Q688 288 688 350 Q688 412 665.5 466 Q643 520 604 560.5 Q565 601 511.5 624.5 Q458 648 396 648 Z M447 562 Q492 562 530.5 538.5 Q569 515 586 475 L586 344 Q569 304 530.5 280.5 Q492 257 447 257 L366 257 L366 134 L247 134 L247 562 L447 562 Z M366 345 L425 345 Q439 345 451 352 Q463 359 470 374 L470 447 Q463 461 451 467.5 Q439 474 425 474 L366 474 L366 345 Z " />
<glyph glyph-name="currency" unicode="&#xa4;" horiz-adv-x="591" d="M522 482 Q532 464 540 449 L540 217 Q534 201 522 185 L543 164 L543 81 L433 81 L414 100 Q389 90 359.5 84.5 Q330 79 295 79 Q260 79 231 84.5 Q202 90 178 100 L159 81 L46 81 L46 164 L67 185 Q62 193 57 201 Q52 209 49 217 L49 449 Q53 457 57.5 465 Q62 473 68 482 L46 503 L46 586 L159 586 L179 566 Q203 575 232 580.5 Q261 586 295 586 Q330 586 359 580.5 Q388 575 412 565 L433 586 L543 586 L543 503 L522 482 Z M369 418 Q362 433 343 445 Q324 457 295 457 Q267 457 248 445 Q229 433 222 418 L222 248 Q229 232 248 220.5 Q267 209 295 209 Q324 209 343 220.5 Q362 232 369 248 L369 418 Z " />
<glyph glyph-name="Euro" unicode="&#x20ac;" horiz-adv-x="601" d="M327 581 Q298 581 277.5 569.5 Q257 558 249 542 L249 465 L456 465 L456 378 L249 378 L249 330 L456 330 L456 242 L249 242 L249 158 Q257 142 277.5 130.5 Q298 119 327 119 Q364 119 385.5 137.5 Q407 156 413 187 L568 187 L568 97 Q561 86 543 67 Q525 48 495.5 30 Q466 12 424 -1.5 Q382 -15 327 -15 Q272 -15 228.5 -1.5 Q185 12 153 32 Q121 52 100.5 75.5 Q80 99 71 119 L71 242 L27 242 L27 330 L71 330 L71 378 L27 378 L27 465 L71 465 L71 581 Q80 601 100.5 624.5 Q121 648 153 668 Q185 688 228.5 701.5 Q272 715 327 715 Q382 715 424 701.5 Q466 688 495.5 670 Q525 652 543 633 Q561 614 568 603 L568 513 L413 513 Q407 544 385.5 562.5 Q364 581 327 581 Z " />
<glyph glyph-name="dollar" unicode="&#x24;" horiz-adv-x="596" d="M328 427 Q385 413 424 397.5 Q463 382 489 365.5 Q515 349 531 332 Q547 315 556 299 L556 120 Q547 105 532.5 85.5 Q518 66 495.5 48 Q473 30 441.5 14.5 Q410 -1 368 -9 L368 -91 L229 -91 L229 -9 Q186 -2 154 13 Q122 28 99 46.5 Q76 65 61 84 Q46 103 38 119 L38 198 L198 198 Q207 165 233 145.5 Q259 126 296 126 Q329 126 349 139.5 Q369 153 378 169 L378 236 Q371 250 355.5 259.5 Q340 269 310 277 L268 287 Q215 300 177.5 314.5 Q140 329 114.5 344.5 Q89 360 73 376.5 Q57 393 47 411 L47 586 Q55 601 69.5 619 Q84 637 106 654.5 Q128 672 158.5 686.5 Q189 701 229 709 L229 791 L368 791 L368 709 Q407 701 437.5 687 Q468 673 490.5 655.5 Q513 638 527.5 619.5 Q542 601 550 586 L550 508 L389 508 Q381 535 360 555 Q339 575 299 575 Q271 575 252.5 563.5 Q234 552 226 538 L226 474 Q231 463 244 454.5 Q257 446 287 438 L328 427 Z " />
<glyph glyph-name="cent" unicode="&#xa2;" horiz-adv-x="547" d="M283 426 Q254 426 236 414 Q218 402 210 387 L210 157 Q218 142 236 130 Q254 118 283 118 Q315 118 335 132 Q355 146 367 174 L516 174 L516 100 Q510 89 497.5 74 Q485 59 465.5 43 Q446 27 418.5 13 Q391 -1 354 -8 L354 -91 L214 -91 L214 -9 Q176 -1 146.5 14 Q117 29 95.5 47 Q74 65 60 84.5 Q46 104 38 122 L38 422 Q46 440 60 459.5 Q74 479 95.5 497 Q117 515 146.5 530 Q176 545 214 553 L214 635 L354 635 L354 552 Q391 544 418.5 530.5 Q446 517 465.5 501 Q485 485 497.5 469.5 Q510 454 516 444 L516 370 L367 370 Q355 398 335 412 Q315 426 283 426 Z " />
<glyph glyph-name="sterling" unicode="&#xa3;" horiz-adv-x="608" d="M330 581 Q301 581 281 569.5 Q261 558 253 542 L253 396 L472 396 L472 293 L253 293 L253 189 Q248 176 241 163.5 Q234 151 224 138 L571 138 L571 0 L38 0 L38 117 Q46 118 57.5 125.5 Q69 133 74 149 L74 293 L30 293 L30 396 L74 396 L74 581 Q84 601 104.5 624.5 Q125 648 157 668 Q189 688 232 701.5 Q275 715 330 715 Q385 715 427 701.5 Q469 688 498.5 670 Q528 652 546 633.5 Q564 615 571 603 L571 513 L417 513 Q411 543 389 562 Q367 581 330 581 Z " />
<glyph glyph-name="florin" unicode="&#x192;" horiz-adv-x="417" d="M345 587 Q312 587 299.5 577 Q287 567 283 559 L283 516 L377 516 L377 392 L283 392 L283 -83 Q277 -100 264.5 -117.5 Q252 -135 231 -149 Q210 -163 180.5 -172 Q151 -181 111 -181 Q76 -181 48.5 -176.5 Q21 -172 8 -168 L8 -53 L50 -53 Q83 -53 95 -43 Q107 -33 111 -25 L111 392 L53 392 L53 516 L111 516 L111 617 Q117 634 130 651 Q143 668 164 682 Q185 696 214.5 705 Q244 714 284 714 Q319 714 346.5 709.5 Q374 705 387 701 L387 587 L345 587 Z " />
<glyph glyph-name="yen" unicode="&#xa5;" horiz-adv-x="607" d="M401 281 L579 281 L579 194 L393 194 L393 0 L206 0 L206 194 L28 194 L28 281 L206 281 L206 286 L175 342 L28 342 L28 429 L127 429 L34 599 L34 700 L196 700 L308 455 L311 455 L423 700 L575 700 L575 599 L482 429 L579 429 L579 342 L434 342 L401 281 Z " />
<glyph glyph-name="uni20A8" unicode="&#x20a8;" horiz-adv-x="512" d="M403 612 Q410 604 416 595.5 Q422 587 427 577 L427 514 L494 514 L494 426 L427 426 L427 376 Q403 328 358.5 297.5 Q314 267 261 256 L426 91 L426 0 L266 0 L42 252 L42 360 L172 360 Q196 360 218 371 Q240 382 248 403 L248 426 L42 426 L42 514 L248 514 L248 537 Q239 557 217.5 568 Q196 579 172 579 L42 579 L42 700 L494 700 L494 612 L403 612 Z " />
<glyph glyph-name="uni20BA" unicode="&#x20ba;" horiz-adv-x="597" d="M559 112 Q553 100 535 81 Q517 62 487 44 Q457 26 414.5 13 Q372 0 317 0 L85 0 L85 200 L24 170 L24 271 L85 301 L85 365 L24 335 L24 435 L85 465 L85 700 L263 700 L263 551 L428 631 L428 531 L263 451 L263 387 L428 467 L428 367 L263 287 L263 134 L317 134 Q356 134 376.5 153 Q397 172 404 202 L559 202 L559 112 Z " />
<glyph glyph-name="uni20BD" unicode="&#x20bd;" horiz-adv-x="615" d="M371 700 Q439 700 494.5 669.5 Q550 639 585 581 L585 385 Q571 361 551 339.5 Q531 318 504 301.5 Q477 285 443.5 275.5 Q410 266 371 266 L252 266 L252 218 L485 218 L485 130 L252 130 L252 0 L66 0 L66 130 L20 130 L20 218 L66 218 L66 266 L20 266 L20 386 L66 386 L66 700 L371 700 Z M406 524 Q395 544 373.5 553.5 Q352 563 328 563 L252 563 L252 386 L328 386 Q354 386 374.5 395.5 Q395 405 406 425 L406 524 Z " />
<glyph glyph-name="ordfeminine" unicode="&#xaa;" horiz-adv-x="400" d="M197 712 Q231 712 258.5 703 Q286 694 305.5 680.5 Q325 667 338 649.5 Q351 632 357 616 L357 354 L257 354 L257 376 Q240 363 216.5 354.5 Q193 346 163 346 Q136 346 115 352 Q94 358 79.5 366.5 Q65 375 56.5 384 Q48 393 44 400 L44 500 Q48 507 57 518 Q66 529 80.5 538.5 Q95 548 115.5 555 Q136 562 163 562 L253 562 L253 601 Q247 616 233.5 626 Q220 636 197 636 Q175 636 160.5 625.5 Q146 615 139 600 L51 600 L51 640 Q56 648 66.5 660 Q77 672 94 683.5 Q111 695 136.5 703.5 Q162 712 197 712 Z M192 419 Q215 419 230 425 Q245 431 253 440 L253 497 L192 497 Q170 497 159 489.5 Q148 482 143 475 L143 442 Q147 435 158 427 Q169 419 192 419 Z " />
<glyph glyph-name="ordmasculine" unicode="&#xba;" horiz-adv-x="407" d="M203 712 Q238 712 265 703 Q292 694 312 680.5 Q332 667 345 649.5 Q358 632 364 616 L364 441 Q358 424 345 407 Q332 390 312 376.5 Q292 363 265 354.5 Q238 346 203 346 Q168 346 141.5 354.5 Q115 363 95 376.5 Q75 390 62.5 407 Q50 424 44 441 L44 616 Q50 632 62.5 649.5 Q75 667 95 680.5 Q115 694 141.5 703 Q168 712 203 712 Z M203 633 Q181 633 166.5 623 Q152 613 146 598 L146 457 Q152 444 166.5 434.5 Q181 425 203 425 Q225 425 240.5 434.5 Q256 444 261 457 L261 598 Q256 613 240.5 623 Q225 633 203 633 Z " />
<glyph glyph-name="numbersign" unicode="&#x23;" horiz-adv-x="564" d="M458 307 L505 307 L505 185 L438 185 L409 0 L289 0 L289 91 L304 185 L205 185 L175 0 L56 0 L56 91 L71 185 L24 185 L24 307 L91 307 L106 401 L59 401 L59 523 L126 523 L154 700 L274 700 L274 609 L260 523 L359 523 L387 700 L506 700 L506 609 L492 523 L540 523 L540 401 L473 401 L458 307 Z M240 401 L225 307 L324 307 L339 401 L240 401 Z " />
<glyph glyph-name="uni2116" unicode="&#x2116;" horiz-adv-x="1037" d="M821 708 Q864 708 896.5 697.5 Q929 687 952.5 671 Q976 655 990.5 636 Q1005 617 1013 601 L1013 444 Q1005 428 990.5 409 Q976 390 952.5 374 Q929 358 896.5 347.5 Q864 337 821 337 Q777 337 744.5 347.5 Q712 358 689 374 Q666 390 651 409 Q636 428 629 444 L629 601 Q636 617 651 636 Q666 655 689 671 Q712 687 744.5 697.5 Q777 708 821 708 Z M384 0 L227 381 L224 381 L224 0 L51 0 L51 700 L238 700 L395 318 L398 318 L398 700 L571 700 L571 0 L384 0 Z M822 610 Q796 610 780.5 599.5 Q765 589 759 577 L759 468 Q765 456 780.5 445.5 Q796 435 822 435 Q847 435 862.5 445.5 Q878 456 884 468 L884 577 Q878 589 862.5 599.5 Q847 610 822 610 Z M629 196 L629 300 L1013 300 L1013 196 L629 196 Z " />
<glyph glyph-name="zero" unicode="0" horiz-adv-x="596" d="M298 715 Q353 715 396.5 701.5 Q440 688 471.5 668 Q503 648 523.5 624.5 Q544 601 554 581 L554 119 Q544 99 523.5 75.5 Q503 52 471.5 32 Q440 12 396.5 -1.5 Q353 -15 298 -15 Q243 -15 200 -1.5 Q157 12 125 32 Q93 52 72.5 75.5 Q52 99 42 119 L42 581 Q52 601 72.5 624.5 Q93 648 125 668 Q157 688 200 701.5 Q243 715 298 715 Z M298 581 Q269 581 248.5 569.5 Q228 558 221 542 L221 158 Q228 143 248.5 131 Q269 119 298 119 Q327 119 347.5 131 Q368 143 375 158 L375 542 Q368 558 347.5 569.5 Q327 581 298 581 Z " />
<glyph glyph-name="one" unicode="1" horiz-adv-x="462" d="M430 119 L430 0 L48 0 L48 119 L154 119 L154 528 L48 487 L48 614 L203 700 L332 700 L332 119 L430 119 Z " />
<glyph glyph-name="two" unicode="2" horiz-adv-x="573" d="M279 715 Q334 715 377 701.5 Q420 688 451.5 668 Q483 648 503.5 624.5 Q524 601 534 581 L534 429 Q528 413 519 398.5 Q510 384 494.5 368.5 Q479 353 455.5 336 Q432 319 396 298 L317 251 Q277 228 250 208 Q223 188 215 171 L215 142 L537 142 L537 0 L37 0 L37 209 Q54 251 90 282.5 Q126 314 182 347 L275 401 Q311 423 331 440 Q351 457 356 476 L356 543 Q348 557 328 569 Q308 581 280 581 Q248 581 224 565.5 Q200 550 192 513 L37 513 L37 603 Q45 615 63.5 634 Q82 653 111.5 671 Q141 689 182.5 702 Q224 715 279 715 Z " />
<glyph glyph-name="three" unicode="3" horiz-adv-x="572" d="M275 715 Q330 715 372.5 701.5 Q415 688 446.5 668.5 Q478 649 498 626 Q518 603 527 585 L527 436 Q518 420 493 400.5 Q468 381 434 365 Q469 347 494.5 323 Q520 299 531 278 L531 119 Q522 100 501.5 76.5 Q481 53 449.5 33 Q418 13 374.5 -1 Q331 -15 276 -15 Q221 -15 178.5 -2 Q136 11 106 29 Q76 47 57.5 66 Q39 85 32 97 L32 187 L187 187 Q194 155 217.5 137 Q241 119 276 119 Q305 119 325 131 Q345 143 353 158 L353 247 Q346 267 325.5 281 Q305 295 276 295 L185 295 L185 422 L273 422 Q302 422 321.5 435 Q341 448 348 462 L348 547 Q341 559 322.5 570 Q304 581 275 581 Q237 581 216.5 561 Q196 541 192 517 L36 517 L36 607 Q43 618 61 636.5 Q79 655 108.5 672.5 Q138 690 179.5 702.5 Q221 715 275 715 Z " />
<glyph glyph-name="four" unicode="4" horiz-adv-x="602" d="M583 272 L583 139 L511 139 L511 0 L341 0 L341 139 L26 139 L26 267 L265 700 L511 700 L511 272 L583 272 Z M190 272 L341 272 L341 541 L338 541 L190 272 Z " />
<glyph glyph-name="five" unicode="5" horiz-adv-x="562" d="M210 557 L210 409 Q234 428 265.5 439.5 Q297 451 338 451 Q374 451 404 442 Q434 433 458 418 Q482 403 498.5 384.5 Q515 366 524 347 L524 97 Q516 84 497.5 65 Q479 46 450 28 Q421 10 379.5 -2.5 Q338 -15 283 -15 Q228 -15 186.5 -2.5 Q145 10 115.5 27.5 Q86 45 67.5 64 Q49 83 40 97 L40 187 L195 187 Q201 158 223.5 138.5 Q246 119 283 119 Q311 119 331.5 130.5 Q352 142 360 158 L360 288 Q352 304 332 316 Q312 328 285 328 Q257 328 237 316 Q217 304 210 292 L46 292 L46 700 L522 700 L522 557 L210 557 Z " />
<glyph glyph-name="six" unicode="6" horiz-adv-x="581" d="M298 581 Q270 581 249.5 569 Q229 557 221 542 L221 403 Q247 422 280 433.5 Q313 445 355 445 Q391 445 421 436 Q451 427 474 412.5 Q497 398 514 379.5 Q531 361 540 341 L540 97 Q532 85 514 66 Q496 47 466.5 29 Q437 11 395 -2 Q353 -15 298 -15 Q243 -15 200 -1.5 Q157 12 125 32 Q93 52 72.5 75.5 Q52 99 43 119 L43 581 Q53 602 73.5 625.5 Q94 649 125.5 669 Q157 689 200 702 Q243 715 298 715 Q353 715 395 702.5 Q437 690 466.5 672 Q496 654 514 635 Q532 616 540 603 L540 513 L385 513 Q379 545 357.5 563 Q336 581 298 581 Z M296 321 Q274 321 256 315.5 Q238 310 221 299 L221 158 Q229 143 249.5 131 Q270 119 298 119 Q327 119 348 131 Q369 143 376 158 L376 284 Q369 299 347.5 310 Q326 321 296 321 Z " />
<glyph glyph-name="seven" unicode="7" horiz-adv-x="518" d="M249 0 L93 0 L93 101 L318 558 L17 558 L17 700 L495 700 L495 572 L249 0 Z " />
<glyph glyph-name="eight" unicode="8" horiz-adv-x="595" d="M480 372 Q511 354 529 335 Q547 316 557 297 L557 119 Q548 101 528.5 78 Q509 55 478 34.5 Q447 14 402 -0.5 Q357 -15 297 -15 Q238 -15 194 -1 Q150 13 119 34 Q88 55 68 78 Q48 101 38 119 L38 297 Q48 315 66.5 331.5 Q85 348 116 362 Q90 379 74 396 Q58 413 50 428 L50 591 Q60 608 79 629.5 Q98 651 128 670 Q158 689 200 702 Q242 715 297 715 Q352 715 394.5 702 Q437 689 467 670 Q497 651 516 629.5 Q535 608 545 591 L545 428 Q537 414 521 399.5 Q505 385 480 372 Z M225 470 Q230 461 244 451.5 Q258 442 286 435 L313 429 Q335 436 350 447.5 Q365 459 370 470 L370 547 Q362 559 344 570.5 Q326 582 297 582 Q269 582 251 570.5 Q233 559 225 547 L225 470 Z M379 256 Q372 268 354.5 279.5 Q337 291 306 298 L282 303 Q253 295 236.5 280.5 Q220 266 216 256 L216 159 Q224 145 244.5 131.5 Q265 118 297 118 Q330 118 350.5 131.5 Q371 145 379 159 L379 256 Z " />
<glyph glyph-name="nine" unicode="9" horiz-adv-x="581" d="M283 715 Q338 715 381 701.5 Q424 688 456 668 Q488 648 508.5 624.5 Q529 601 538 581 L538 119 Q528 98 507.5 74.5 Q487 51 455.5 31 Q424 11 381 -2 Q338 -15 283 -15 Q228 -15 186 -2.5 Q144 10 114.5 28 Q85 46 67 65 Q49 84 41 97 L41 187 L196 187 Q202 155 223.5 137 Q245 119 283 119 Q311 119 331.5 131 Q352 143 360 158 L360 287 Q334 268 301 256.5 Q268 245 226 245 Q190 245 160 254 Q130 263 107 277.5 Q84 292 67 310.5 Q50 329 41 349 L41 603 Q48 615 66.5 634 Q85 653 114.5 671 Q144 689 186 702 Q228 715 283 715 Z M285 369 Q307 369 325 374.5 Q343 380 360 391 L360 542 Q352 557 331.5 569 Q311 581 283 581 Q254 581 233.5 569 Q213 557 206 542 L206 406 Q213 391 234 380 Q255 369 285 369 Z " />
<glyph glyph-name="uni00A0" unicode="&#xa0;" horiz-adv-x="202" d="" />
<glyph glyph-name="fraction" unicode="&#x2044;" horiz-adv-x="197" d="M-99 0 L-174 0 L-174 71 L297 700 L372 700 L372 629 L-99 0 Z " />
<glyph glyph-name="onequarter" unicode="&#xbc;" horiz-adv-x="926" d="M264 0 L189 0 L189 71 L660 700 L735 700 L735 629 L264 0 Z M297 359 L297 280 L43 280 L43 359 L110 359 L110 599 L42 599 L42 671 L129 700 L233 700 L233 359 L297 359 Z M886 168 L886 78 L838 78 L838 0 L721 0 L721 78 L503 78 L503 165 L674 420 L838 420 L838 168 L886 168 Z M619 168 L721 168 L721 316 L718 316 L619 168 Z " />
<glyph glyph-name="onehalf" unicode="&#xbd;" horiz-adv-x="976" d="M298 359 L298 280 L44 280 L44 359 L111 359 L111 599 L43 599 L43 671 L130 700 L234 700 L234 359 L298 359 Z M264 0 L189 0 L189 71 L660 700 L735 700 L735 629 L264 0 Z M930 0 L589 0 L589 106 Q600 132 624.5 155 Q649 178 687 201 L752 240 Q775 254 787.5 263.5 Q800 273 806 285 L806 318 Q800 325 787 330.5 Q774 336 754 336 Q727 336 713 324.5 Q699 313 695 302 L589 302 L589 363 Q594 371 606.5 382.5 Q619 394 640 404.5 Q661 415 689.5 422.5 Q718 430 754 430 Q791 430 820.5 422 Q850 414 872 401.5 Q894 389 908 374.5 Q922 360 928 347 L928 263 Q919 240 897 221.5 Q875 203 830 177 L776 146 Q753 132 735 120 Q717 108 712 97 L930 97 L930 0 Z " />
<glyph glyph-name="threequarters" unicode="&#xbe;" horiz-adv-x="965" d="M302 0 L227 0 L227 71 L698 700 L773 700 L773 629 L302 0 Z M921 168 L921 78 L873 78 L873 0 L756 0 L756 78 L538 78 L538 165 L709 420 L873 420 L873 168 L921 168 Z M654 168 L756 168 L756 316 L753 316 L654 168 Z M207 710 Q244 710 273 702 Q302 694 323 682 Q344 670 357.5 656 Q371 642 377 630 L377 539 Q372 530 357 518 Q342 506 319 497 Q343 488 358.5 474.5 Q374 461 381 449 L381 352 Q375 340 360.5 326 Q346 312 324.5 300 Q303 288 273 279.5 Q243 271 205 271 Q167 271 138.5 279 Q110 287 89.5 297.5 Q69 308 56.5 319 Q44 330 39 336 L39 399 L144 399 Q148 385 164.5 374.5 Q181 364 205 364 Q225 364 239.5 369.5 Q254 375 259 382 L259 428 Q254 437 240.5 443.5 Q227 450 207 450 L148 450 L148 537 L206 537 Q224 537 237.5 543 Q251 549 256 556 L256 600 Q251 606 238 611 Q225 616 207 616 Q181 616 167.5 605.5 Q154 595 149 583 L45 583 L45 646 Q50 652 61.5 663 Q73 674 93 684.5 Q113 695 141 702.5 Q169 710 207 710 Z " />
<glyph glyph-name="fiveeighths" unicode="&#x215d;" horiz-adv-x="1021" d="M932 218 Q953 206 966.5 192 Q980 178 987 166 L987 72 Q980 60 966 46 Q952 32 930.5 19.5 Q909 7 879.5 -1 Q850 -9 812 -9 Q775 -9 745.5 -1 Q716 7 694.5 19.5 Q673 32 659 46 Q645 60 638 72 L638 166 Q645 177 658.5 191 Q672 205 693 217 Q676 228 665.5 237.5 Q655 247 650 253 L650 365 Q655 371 667 382 Q679 393 699 403.5 Q719 414 747 422 Q775 430 813 430 Q850 430 878.5 422 Q907 414 926.5 403 Q946 392 958 381.5 Q970 371 975 365 L975 253 Q970 248 959.5 238 Q949 228 932 218 Z M763 270 Q768 265 780.5 260 Q793 255 813 255 Q832 255 844.5 260 Q857 265 862 270 L862 325 Q857 330 844.5 335.5 Q832 341 813 341 Q793 341 780.5 335.5 Q768 330 763 325 L763 270 Z M864 160 Q859 167 845.5 172.5 Q832 178 813 178 Q793 178 779.5 172.5 Q766 167 761 160 L761 97 Q766 90 779.5 84.5 Q793 79 813 79 Q832 79 845.5 84.5 Q859 90 864 97 L864 160 Z M154 603 L154 531 Q170 542 191.5 548 Q213 554 241 554 Q289 554 322 535.5 Q355 517 367 495 L367 336 Q362 329 349.5 318 Q337 307 316.5 296.5 Q296 286 267.5 278.5 Q239 271 202 271 Q164 271 135.5 278.5 Q107 286 86.5 296.5 Q66 307 53.5 318 Q41 329 35 336 L35 399 L140 399 Q144 384 160.5 374 Q177 364 202 364 Q221 364 235 369.5 Q249 375 255 383 L255 453 Q250 460 237 466 Q224 472 204 472 Q184 472 171 464 Q158 456 154 451 L41 451 L41 700 L365 700 L365 603 L154 603 Z M313 0 L238 0 L238 71 L709 700 L784 700 L784 629 L313 0 Z " />
<glyph glyph-name="oneeighth" unicode="&#x215b;" horiz-adv-x="982" d="M271 0 L196 0 L196 71 L667 700 L742 700 L742 629 L271 0 Z M294 359 L294 280 L40 280 L40 359 L107 359 L107 599 L39 599 L39 671 L126 700 L230 700 L230 359 L294 359 Z M889 218 Q910 206 923.5 192 Q937 178 944 166 L944 72 Q937 60 923 46 Q909 32 887.5 19.5 Q866 7 836.5 -1 Q807 -9 769 -9 Q732 -9 702.5 -1 Q673 7 651.5 19.5 Q630 32 616 46 Q602 60 595 72 L595 166 Q602 177 615.5 191 Q629 205 650 217 Q633 228 622.5 237.5 Q612 247 607 253 L607 365 Q612 371 624 382 Q636 393 656 403.5 Q676 414 704 422 Q732 430 770 430 Q807 430 835.5 422 Q864 414 883.5 403 Q903 392 915 381.5 Q927 371 932 365 L932 253 Q927 248 916.5 238 Q906 228 889 218 Z M720 270 Q725 265 737.5 260 Q750 255 770 255 Q789 255 801.5 260 Q814 265 819 270 L819 325 Q814 330 801.5 335.5 Q789 341 770 341 Q750 341 737.5 335.5 Q725 330 720 325 L720 270 Z M821 160 Q816 167 802.5 172.5 Q789 178 770 178 Q750 178 736.5 172.5 Q723 167 718 160 L718 97 Q723 90 736.5 84.5 Q750 79 770 79 Q789 79 802.5 84.5 Q816 90 821 97 L821 160 Z " />
<glyph glyph-name="seveneighths" unicode="&#x215e;" horiz-adv-x="952" d="M866 218 Q887 206 900.5 192 Q914 178 921 166 L921 72 Q914 60 900 46 Q886 32 864.5 19.5 Q843 7 813.5 -1 Q784 -9 746 -9 Q709 -9 679.5 -1 Q650 7 628.5 19.5 Q607 32 593 46 Q579 60 572 72 L572 166 Q579 177 592.5 191 Q606 205 627 217 Q610 228 599.5 237.5 Q589 247 584 253 L584 365 Q589 371 601 382 Q613 393 633 403.5 Q653 414 681 422 Q709 430 747 430 Q784 430 812.5 422 Q841 414 860.5 403 Q880 392 892 381.5 Q904 371 909 365 L909 253 Q904 248 893.5 238 Q883 228 866 218 Z M697 270 Q702 265 714.5 260 Q727 255 747 255 Q766 255 778.5 260 Q791 265 796 270 L796 325 Q791 330 778.5 335.5 Q766 341 747 341 Q727 341 714.5 335.5 Q702 330 697 325 L697 270 Z M798 160 Q793 167 779.5 172.5 Q766 178 747 178 Q727 178 713.5 172.5 Q700 167 695 160 L695 97 Q700 90 713.5 84.5 Q727 79 747 79 Q766 79 779.5 84.5 Q793 90 798 97 L798 160 Z M203 280 L97 280 L97 347 L237 600 L237 603 L39 603 L39 700 L361 700 L361 617 L203 280 Z M239 0 L164 0 L164 71 L635 700 L710 700 L710 629 L239 0 Z " />
<glyph glyph-name="threeeighths" unicode="&#x215c;" horiz-adv-x="1012" d="M921 218 Q942 206 955.5 192 Q969 178 976 166 L976 72 Q969 60 955 46 Q941 32 919.5 19.5 Q898 7 868.5 -1 Q839 -9 801 -9 Q764 -9 734.5 -1 Q705 7 683.5 19.5 Q662 32 648 46 Q634 60 627 72 L627 166 Q634 177 647.5 191 Q661 205 682 217 Q665 228 654.5 237.5 Q644 247 639 253 L639 365 Q644 371 656 382 Q668 393 688 403.5 Q708 414 736 422 Q764 430 802 430 Q839 430 867.5 422 Q896 414 915.5 403 Q935 392 947 381.5 Q959 371 964 365 L964 253 Q959 248 948.5 238 Q938 228 921 218 Z M752 270 Q757 265 769.5 260 Q782 255 802 255 Q821 255 833.5 260 Q846 265 851 270 L851 325 Q846 330 833.5 335.5 Q821 341 802 341 Q782 341 769.5 335.5 Q757 330 752 325 L752 270 Z M853 160 Q848 167 834.5 172.5 Q821 178 802 178 Q782 178 768.5 172.5 Q755 167 750 160 L750 97 Q755 90 768.5 84.5 Q782 79 802 79 Q821 79 834.5 84.5 Q848 90 853 97 L853 160 Z M204 710 Q241 710 270 702 Q299 694 320 682 Q341 670 354.5 656 Q368 642 374 630 L374 539 Q369 530 354 518 Q339 506 316 497 Q340 488 355.5 474.5 Q371 461 378 449 L378 352 Q372 340 357.5 326 Q343 312 321.5 300 Q300 288 270 279.5 Q240 271 202 271 Q164 271 135.5 279 Q107 287 86.5 297.5 Q66 308 53.5 319 Q41 330 36 336 L36 399 L141 399 Q145 385 161.5 374.5 Q178 364 202 364 Q222 364 236.5 369.5 Q251 375 256 382 L256 428 Q251 437 237.5 443.5 Q224 450 204 450 L145 450 L145 537 L203 537 Q221 537 234.5 543 Q248 549 253 556 L253 600 Q248 606 235 611 Q222 616 204 616 Q178 616 164.5 605.5 Q151 595 146 583 L42 583 L42 646 Q47 652 58.5 663 Q70 674 90 684.5 Q110 695 138 702.5 Q166 710 204 710 Z M309 0 L234 0 L234 71 L705 700 L780 700 L780 629 L309 0 Z " />
<glyph glyph-name="twothirds" unicode="&#x2154;" horiz-adv-x="1059" d="M833 430 Q870 430 899 422 Q928 414 949 402 Q970 390 983.5 376 Q997 362 1003 350 L1003 259 Q998 250 983 238 Q968 226 945 217 Q969 208 984.5 194.5 Q1000 181 1007 169 L1007 72 Q1001 60 986.5 46 Q972 32 950.5 20 Q929 8 899 -0.5 Q869 -9 831 -9 Q793 -9 764.5 -1 Q736 7 715.5 17.5 Q695 28 682.5 39 Q670 50 665 56 L665 119 L770 119 Q774 105 790.5 94.5 Q807 84 831 84 Q851 84 865.5 89.5 Q880 95 885 102 L885 148 Q880 157 866.5 163.5 Q853 170 833 170 L774 170 L774 257 L832 257 Q850 257 863.5 263 Q877 269 882 276 L882 320 Q877 326 864 331 Q851 336 833 336 Q807 336 793.5 325.5 Q780 315 775 303 L671 303 L671 366 Q676 372 687.5 383 Q699 394 719 404.5 Q739 415 767 422.5 Q795 430 833 430 Z M381 280 L40 280 L40 386 Q51 412 75.5 435 Q100 458 138 481 L203 520 Q226 534 238.5 543.5 Q251 553 257 565 L257 598 Q251 605 238 610.5 Q225 616 205 616 Q178 616 164 604.5 Q150 593 146 582 L40 582 L40 643 Q45 651 57.5 662.5 Q70 674 91 684.5 Q112 695 140.5 702.5 Q169 710 205 710 Q242 710 271.5 702 Q301 694 323 681.5 Q345 669 359 654.5 Q373 640 379 627 L379 543 Q370 520 348 501.5 Q326 483 281 457 L227 426 Q204 412 186 400 Q168 388 163 377 L381 377 L381 280 Z M344 0 L269 0 L269 71 L740 700 L815 700 L815 629 L344 0 Z " />
<glyph glyph-name="uniE000" unicode="&#xe000;" horiz-adv-x="1048" d="M318 0 L243 0 L243 71 L714 700 L789 700 L789 629 L318 0 Z M214 617 Q194 617 181 611 Q168 605 163 598 L163 521 Q180 533 202.5 540.5 Q225 548 253 548 Q303 548 335 530 Q367 512 380 489 L380 336 Q375 330 362.5 319 Q350 308 329.5 297.5 Q309 287 280.5 279 Q252 271 215 271 Q177 271 148 279 Q119 287 97 299.5 Q75 312 61 326 Q47 340 41 352 L41 629 Q48 641 62 655 Q76 669 97.5 681.5 Q119 694 148 702 Q177 710 215 710 Q252 710 281 702 Q310 694 330.5 683.5 Q351 673 363 662 Q375 651 380 644 L380 586 L273 586 Q268 600 252.5 608.5 Q237 617 214 617 Z M214 465 Q185 465 163 453 L163 377 Q168 370 181.5 364 Q195 358 215 358 Q234 358 248 364 Q262 370 267 377 L267 448 Q262 455 248.5 460 Q235 465 214 465 Z M936 218 Q957 206 970.5 192 Q984 178 991 166 L991 72 Q984 60 970 46 Q956 32 934.5 19.5 Q913 7 883.5 -1 Q854 -9 816 -9 Q779 -9 749.5 -1 Q720 7 698.5 19.5 Q677 32 663 46 Q649 60 642 72 L642 166 Q649 177 662.5 191 Q676 205 697 217 Q680 228 669.5 237.5 Q659 247 654 253 L654 365 Q659 371 671 382 Q683 393 703 403.5 Q723 414 751 422 Q779 430 817 430 Q854 430 882.5 422 Q911 414 930.5 403 Q950 392 962 381.5 Q974 371 979 365 L979 253 Q974 248 963.5 238 Q953 228 936 218 Z M767 270 Q772 265 784.5 260 Q797 255 817 255 Q836 255 848.5 260 Q861 265 866 270 L866 325 Q861 330 848.5 335.5 Q836 341 817 341 Q797 341 784.5 335.5 Q772 330 767 325 L767 270 Z M868 160 Q863 167 849.5 172.5 Q836 178 817 178 Q797 178 783.5 172.5 Q770 167 765 160 L765 97 Q770 90 783.5 84.5 Q797 79 817 79 Q836 79 849.5 84.5 Q863 90 868 97 L868 160 Z " />
<glyph glyph-name="uniE001" unicode="&#xe001;" horiz-adv-x="1280" d="M291 359 L291 280 L37 280 L37 359 L104 359 L104 599 L36 599 L36 671 L123 700 L227 700 L227 359 L291 359 Z M1071 337 Q1051 337 1038 331 Q1025 325 1020 318 L1020 241 Q1037 253 1059.5 260.5 Q1082 268 1110 268 Q1160 268 1192 250 Q1224 232 1237 209 L1237 56 Q1232 50 1219.5 39 Q1207 28 1186.5 17.5 Q1166 7 1137.5 -1 Q1109 -9 1072 -9 Q1034 -9 1005 -1 Q976 7 954 19.5 Q932 32 918 46 Q904 60 898 72 L898 349 Q905 361 919 375 Q933 389 954.5 401.5 Q976 414 1005 422 Q1034 430 1072 430 Q1109 430 1138 422 Q1167 414 1187.5 403.5 Q1208 393 1220 382 Q1232 371 1237 364 L1237 306 L1130 306 Q1125 320 1109.5 328.5 Q1094 337 1071 337 Z M1071 185 Q1042 185 1020 173 L1020 97 Q1025 90 1038.5 84 Q1052 78 1072 78 Q1091 78 1105 84 Q1119 90 1124 97 L1124 168 Q1119 175 1105.5 180 Q1092 185 1071 185 Z M252 0 L177 0 L177 71 L648 700 L723 700 L723 629 L252 0 Z M855 79 L855 0 L601 0 L601 79 L668 79 L668 319 L600 319 L600 391 L687 420 L791 420 L791 79 L855 79 Z " />
<glyph glyph-name="percent" unicode="&#x25;" horiz-adv-x="917" d="M216 710 Q253 710 282.5 701.5 Q312 693 333.5 679.5 Q355 666 369 649 Q383 632 389 615 L389 437 Q383 420 369 403.5 Q355 387 333.5 373.5 Q312 360 282.5 351.5 Q253 343 216 343 Q178 343 149 351.5 Q120 360 98.5 373.5 Q77 387 63 403.5 Q49 420 42 437 L42 615 Q49 632 63 649 Q77 666 98.5 679.5 Q120 693 149 701.5 Q178 710 216 710 Z M262 0 L186 0 L186 71 L657 700 L732 700 L732 629 L262 0 Z M216 622 Q197 622 183.5 615 Q170 608 165 598 L165 454 Q170 444 183.5 437 Q197 430 216 430 Q235 430 248.5 437 Q262 444 267 454 L267 598 Q262 608 248.5 615 Q235 622 216 622 Z M701 357 Q738 357 767.5 348.5 Q797 340 818.5 326.5 Q840 313 854 296.5 Q868 280 875 263 L875 85 Q868 68 854 51.5 Q840 35 818.5 21.5 Q797 8 767.5 -0.5 Q738 -9 701 -9 Q663 -9 634 -0.5 Q605 8 583.5 21.5 Q562 35 548 51.5 Q534 68 527 85 L527 263 Q534 280 548 296.5 Q562 313 583.5 326.5 Q605 340 634 348.5 Q663 357 701 357 Z M701 270 Q682 270 668.5 263 Q655 256 650 246 L650 102 Q655 92 668.5 85 Q682 78 701 78 Q721 78 734 85 Q747 92 752 102 L752 246 Q747 256 734 263 Q721 270 701 270 Z " />
<glyph glyph-name="perthousand" unicode="&#x2030;" horiz-adv-x="1310" d="M216 710 Q253 710 282.5 701.5 Q312 693 333.5 679.5 Q355 666 369 649 Q383 632 389 615 L389 437 Q383 420 369 403.5 Q355 387 333.5 373.5 Q312 360 282.5 351.5 Q253 343 216 343 Q178 343 149 351.5 Q120 360 98.5 373.5 Q77 387 63 403.5 Q49 420 42 437 L42 615 Q49 632 63 649 Q77 666 98.5 679.5 Q120 693 149 701.5 Q178 710 216 710 Z M262 0 L186 0 L186 71 L657 700 L732 700 L732 629 L262 0 Z M216 622 Q197 622 183.5 615 Q170 608 165 598 L165 454 Q170 444 183.5 437 Q197 430 216 430 Q235 430 248.5 437 Q262 444 267 454 L267 598 Q262 608 248.5 615 Q235 622 216 622 Z M701 357 Q738 357 767.5 348.5 Q797 340 818.5 326.5 Q840 313 854 296.5 Q868 280 875 263 L875 85 Q868 68 854 51.5 Q840 35 818.5 21.5 Q797 8 767.5 -0.5 Q738 -9 701 -9 Q663 -9 634 -0.5 Q605 8 583.5 21.5 Q562 35 548 51.5 Q534 68 527 85 L527 263 Q534 280 548 296.5 Q562 313 583.5 326.5 Q605 340 634 348.5 Q663 357 701 357 Z M1095 357 Q1132 357 1161 348.5 Q1190 340 1211.5 326.5 Q1233 313 1247 296.5 Q1261 280 1268 263 L1268 85 Q1261 68 1247 51.5 Q1233 35 1211.5 21.5 Q1190 8 1161 -0.5 Q1132 -9 1095 -9 Q1057 -9 1028 -0.5 Q999 8 977.5 21.5 Q956 35 942 51.5 Q928 68 921 85 L921 263 Q928 280 942 296.5 Q956 313 977.5 326.5 Q999 340 1028 348.5 Q1057 357 1095 357 Z M701 270 Q682 270 668.5 263 Q655 256 650 246 L650 102 Q655 92 668.5 85 Q682 78 701 78 Q721 78 734 85 Q747 92 752 102 L752 246 Q747 256 734 263 Q721 270 701 270 Z M1095 270 Q1076 270 1062.5 263 Q1049 256 1044 246 L1044 102 Q1049 92 1062.5 85 Q1076 78 1095 78 Q1114 78 1127.5 85 Q1141 92 1146 102 L1146 246 Q1141 256 1127.5 263 Q1114 270 1095 270 Z " />
<glyph glyph-name="plus" unicode="&#x2b;" horiz-adv-x="588" d="M363 266 L363 70 L225 70 L225 266 L31 266 L31 401 L225 401 L225 596 L363 596 L363 401 L556 401 L556 266 L363 266 Z " />
<glyph glyph-name="minus" unicode="&#x2212;" horiz-adv-x="588" d="M31 266 L31 401 L556 401 L556 266 L31 266 Z " />
<glyph glyph-name="plusminus" unicode="&#xb1;" horiz-adv-x="588" d="M556 358 L363 358 L363 189 L225 189 L225 358 L31 358 L31 494 L225 494 L225 662 L363 662 L363 494 L556 494 L556 358 Z M556 149 L556 13 L31 13 L31 149 L556 149 Z " />
<glyph glyph-name="multiply" unicode="&#xd7;" horiz-adv-x="588" d="M391 334 L552 171 L552 81 L450 81 L294 235 L139 81 L35 81 L35 171 L196 334 L35 495 L35 586 L139 586 L294 431 L450 586 L552 586 L552 495 L391 334 Z " />
<glyph glyph-name="divide" unicode="&#xf7;" horiz-adv-x="588" d="M31 266 L31 401 L556 401 L556 266 L31 266 Z M293 218 Q333 218 355 202.5 Q377 187 384 170 L384 85 Q377 69 355 53.5 Q333 38 293 38 Q255 38 233.5 53.5 Q212 69 204 85 L204 170 Q212 187 233.5 202.5 Q255 218 293 218 Z M293 630 Q333 630 355 614.5 Q377 599 384 582 L384 497 Q377 481 355 465.5 Q333 450 293 450 Q255 450 233.5 465.5 Q212 481 204 497 L204 582 Q212 599 233.5 614.5 Q255 630 293 630 Z " />
<glyph glyph-name="equal" unicode="&#x3d;" horiz-adv-x="588" d="M31 158 L31 293 L556 293 L556 158 L31 158 Z M31 374 L31 509 L556 509 L556 374 L31 374 Z " />
<glyph glyph-name="notequal" unicode="&#x2260;" horiz-adv-x="588" d="M348 294 L556 294 L556 158 L296 158 L263 70 L125 70 L158 158 L31 158 L31 294 L210 294 L241 374 L31 374 L31 510 L292 510 L325 596 L463 596 L430 510 L556 510 L556 374 L379 374 L348 294 Z " />
<glyph glyph-name="approxequal" unicode="&#x2248;" horiz-adv-x="588" d="M173 319 Q209 319 243 311 Q277 303 310 293.5 Q343 284 375.5 276 Q408 268 441 268 Q466 268 486.5 275 Q507 282 522 290 Q540 300 553 312 L553 165 Q540 155 523 148 Q509 141 488.5 136 Q468 131 442 131 Q403 131 369 139 Q335 147 302.5 156.5 Q270 166 238 174 Q206 182 171 182 Q142 182 117 174 Q92 166 74 156 Q53 145 35 131 L35 273 Q51 285 72 296 Q90 304 115.5 311.5 Q141 319 173 319 Z M173 537 Q209 537 243 529 Q277 521 310 511.5 Q343 502 375.5 494 Q408 486 441 486 Q466 486 486.5 493 Q507 500 522 508 Q540 518 553 530 L553 383 Q540 373 523 366 Q509 359 488.5 354 Q468 349 442 349 Q403 349 369 357 Q335 365 302.5 374.5 Q270 384 238 392 Q206 400 171 400 Q142 400 117 392 Q92 384 74 374 Q53 363 35 349 L35 491 Q51 503 72 514 Q90 522 115.5 529.5 Q141 537 173 537 Z " />
<glyph glyph-name="less" unicode="&#x3c;" horiz-adv-x="588" d="M201 294 L562 137 L562 45 L437 45 L26 233 L26 355 L437 544 L562 544 L562 452 L201 294 Z " />
<glyph glyph-name="greater" unicode="&#x3e;" horiz-adv-x="588" d="M562 233 L151 45 L26 45 L26 137 L387 294 L26 452 L26 544 L151 544 L562 355 L562 233 Z " />
<glyph glyph-name="lessequal" unicode="&#x2264;" horiz-adv-x="588" d="M248 401 L556 288 L556 196 L431 196 L31 339 L31 429 L431 606 L556 606 L556 514 L248 401 Z M31 13 L31 149 L556 149 L556 13 L31 13 Z " />
<glyph glyph-name="greaterequal" unicode="&#x2265;" horiz-adv-x="588" d="M556 339 L157 196 L31 196 L31 288 L341 401 L31 514 L31 606 L157 606 L556 429 L556 339 Z M31 13 L31 149 L556 149 L556 13 L31 13 Z " />
<glyph glyph-name="logicalnot" unicode="&#xac;" horiz-adv-x="588" d="M419 70 L419 266 L31 266 L31 401 L556 401 L556 70 L419 70 Z " />
<glyph glyph-name="Delta" unicode="&#x2206;" horiz-adv-x="636" d="M613 0 L23 0 L23 101 L187 700 L449 700 L613 101 L613 0 Z M313 562 L310 562 L210 141 L409 141 L313 562 Z " />
<glyph glyph-name="Omega" unicode="&#x2126;" horiz-adv-x="632" d="M474 141 L587 141 L587 0 L347 0 L347 192 Q366 196 380 208 Q394 220 401 235 L401 523 Q392 543 369.5 556.5 Q347 570 316 570 Q285 570 262.5 556.5 Q240 543 231 523 L231 235 Q238 220 252 207.5 Q266 195 285 192 L285 0 L45 0 L45 141 L158 141 Q76 182 45 250 L45 562 Q72 623 139.5 669 Q207 715 316 715 Q425 715 492.5 668.5 Q560 622 587 562 L587 250 Q556 183 474 141 Z " />
<glyph glyph-name="mu" unicode="&#xb5;" horiz-adv-x="564" d="M521 0 L361 0 L361 49 Q338 23 304 6 Q270 -11 221 -11 L214 -11 L214 -166 L41 -166 L41 544 L214 544 L214 151 Q219 142 235 130.5 Q251 119 280 119 Q306 119 322.5 126.5 Q339 134 349 144 L349 544 L521 544 L521 0 Z " />
<glyph glyph-name="pi" unicode="&#x3c0;" horiz-adv-x="693" d="M561 420 L561 139 Q566 132 581 123.5 Q596 115 633 115 Q644 115 652.5 115.5 Q661 116 664 116 L664 0 Q652 -4 628.5 -8.5 Q605 -13 568 -13 Q526 -13 494.5 -4.5 Q463 4 441.5 18 Q420 32 407 49 Q394 66 388 83 L388 420 L269 420 L269 0 L97 0 L97 420 L29 420 L29 544 L660 544 L660 420 L561 420 Z " />
<glyph glyph-name="degree" unicode="&#xb0;" horiz-adv-x="399" d="M199 807 Q238 807 267 798 Q296 789 317 775 Q338 761 351 745 Q364 729 370 716 L370 584 Q364 571 351 555 Q338 539 317 525.5 Q296 512 267 502.5 Q238 493 199 493 Q161 493 132 502 Q103 511 82 525 Q61 539 48 554.5 Q35 570 28 584 L28 716 Q35 729 48 745 Q61 761 82 775 Q103 789 132 798 Q161 807 199 807 Z M199 710 Q179 710 165.5 702 Q152 694 147 685 L147 615 Q152 606 165.5 598 Q179 590 199 590 Q219 590 232.5 598 Q246 606 252 615 L252 685 Q246 694 232.5 702 Q219 710 199 710 Z " />
<glyph glyph-name="infinity" unicode="&#x221e;" horiz-adv-x="792" d="M538 529 Q575 529 604.5 520.5 Q634 512 656 498.5 Q678 485 692 468.5 Q706 452 712 435 L712 270 Q706 253 692 236.5 Q678 220 656 206.5 Q634 193 604.5 184.5 Q575 176 538 176 Q484 176 451.5 193 Q419 210 398 233 Q376 210 341.5 193 Q307 176 253 176 Q216 176 187 184.5 Q158 193 136.5 206.5 Q115 220 101 237 Q87 254 80 271 L80 435 Q87 452 101 468.5 Q115 485 136.5 498.5 Q158 512 187 520.5 Q216 529 253 529 Q309 529 342.5 511.5 Q376 494 396 469 Q416 494 449 511.5 Q482 529 538 529 Z M254 265 Q274 265 290.5 272 Q307 279 312 289 L338 353 L312 417 Q307 426 290.5 433 Q274 440 254 440 Q235 440 221.5 433 Q208 426 203 417 L203 289 Q208 279 221.5 272 Q235 265 254 265 Z M589 417 Q584 426 571 433 Q558 440 539 440 Q520 440 505.5 433 Q491 426 486 417 L457 345 L480 288 Q485 279 502.5 272 Q520 265 539 265 Q558 265 571 272 Q584 279 589 288 L589 417 Z " />
<glyph glyph-name="partialdiff" unicode="&#x2202;" horiz-adv-x="567" d="M215 735 Q264 722 312.5 701.5 Q361 681 403.5 654 Q446 627 478.5 594 Q511 561 528 523 L528 123 Q518 101 499 77 Q480 53 450.5 32.5 Q421 12 379.5 -1.5 Q338 -15 283 -15 Q228 -15 186.5 -1.5 Q145 12 115 32 Q85 52 66 76.5 Q47 101 37 122 L37 333 Q43 355 58.5 378.5 Q74 402 98 421.5 Q122 441 155 454 Q188 467 229 467 Q274 467 303 456.5 Q332 446 356 429 L356 485 Q347 510 322 533.5 Q297 557 264.5 577.5 Q232 598 196 614.5 Q160 631 129 642 L215 735 Z M283 339 Q255 339 236 327.5 Q217 316 209 301 L209 153 Q217 138 235.5 126 Q254 114 282 114 Q311 114 330 126 Q349 138 356 153 L356 309 Q348 320 329 329.5 Q310 339 283 339 Z " />
<glyph glyph-name="integral" unicode="&#x222b;" horiz-adv-x="420" d="M296 714 Q331 714 358.5 709.5 Q386 705 399 701 L399 587 L357 587 Q324 587 312 577 Q300 567 296 559 L296 -83 Q290 -100 277 -117.5 Q264 -135 243 -149 Q222 -163 192.5 -172 Q163 -181 123 -181 Q88 -181 60.5 -176.5 Q33 -172 20 -168 L20 -53 L62 -53 Q95 -53 107 -43 Q119 -33 123 -25 L123 617 Q129 634 142 651 Q155 668 176 682 Q197 696 226.5 705 Q256 714 296 714 Z " />
<glyph glyph-name="radical" unicode="&#x221a;" horiz-adv-x="596" d="M574 609 L398 0 L198 0 L72 415 L22 415 L22 544 L204 544 L296 210 L299 210 L420 700 L574 700 L574 609 Z " />
<glyph glyph-name="summation" unicode="&#x2211;" horiz-adv-x="552" d="M384 358 L384 243 L254 36 L521 36 L521 -100 L31 -100 L31 15 L203 300 L31 585 L31 700 L521 700 L521 564 L255 564 L384 358 Z " />
<glyph glyph-name="product" unicode="&#x220f;" horiz-adv-x="631" d="M397 -100 L397 564 L235 564 L235 -100 L49 -100 L49 700 L583 700 L583 -100 L397 -100 Z " />
<glyph glyph-name="lozenge" unicode="&#x25ca;" horiz-adv-x="608" d="M400 0 L212 0 L31 350 L212 700 L400 700 L581 350 L400 0 Z M306 187 L394 350 L306 513 L219 350 L306 187 Z " />
<glyph glyph-name="arrowleft" unicode="&#x2190;" horiz-adv-x="760" d="M0 392 L308 700 L424 700 L424 594 L239 419 L760 419 L760 280 L239 280 L424 106 L424 0 L308 0 L0 308 L0 392 Z " />
<glyph glyph-name="arrowright" unicode="&#x2192;" horiz-adv-x="760" d="M760 308 L452 0 L336 0 L336 106 L521 280 L0 280 L0 419 L521 419 L336 594 L336 700 L452 700 L760 392 L760 308 Z " />
<glyph glyph-name="arrowup" unicode="&#x2191;" horiz-adv-x="760" d="M730 351 L629 351 L460 524 L460 0 L301 0 L301 524 L131 351 L30 351 L30 453 L338 760 L422 760 L730 453 L730 351 Z " />
<glyph glyph-name="arrowdown" unicode="&#x2193;" horiz-adv-x="760" d="M730 247 L422 -60 L338 -60 L30 247 L30 349 L131 349 L301 176 L301 700 L460 700 L460 176 L629 349 L730 349 L730 247 Z " />
<glyph glyph-name="uni0410" unicode="&#x410;" horiz-adv-x="636" d="M613 0 L441 0 L407 148 L212 148 L177 0 L23 0 L23 101 L187 700 L449 700 L613 101 L613 0 Z M313 562 L310 562 L245 289 L375 289 L313 562 Z " />
<glyph glyph-name="uni0411" unicode="&#x411;" horiz-adv-x="600" d="M359 445 Q425 445 481 414.5 Q537 384 569 328 L569 120 Q557 98 537.5 76.5 Q518 55 492 38 Q466 21 433 10.5 Q400 0 361 0 L51 0 L51 700 L555 700 L555 563 L237 563 L237 445 L359 445 Z M399 273 Q389 289 369.5 300 Q350 311 324 311 L237 311 L237 134 L321 134 Q353 134 371 145.5 Q389 157 399 174 L399 273 Z " />
<glyph glyph-name="uni0412" unicode="&#x412;" horiz-adv-x="611" d="M495 369 Q515 360 536 343.5 Q557 327 573 301 L573 120 Q561 98 541.5 76.5 Q522 55 495.5 38 Q469 21 436 10.5 Q403 0 364 0 L51 0 L51 700 L360 700 Q399 700 431.5 689 Q464 678 489.5 661 Q515 644 533.5 623 Q552 602 563 581 L563 436 Q553 418 534 399 Q515 380 495 369 Z M321 419 Q345 419 363.5 429 Q382 439 393 456 L393 527 Q374 564 318 564 L237 564 L237 419 L321 419 Z M403 263 Q394 279 374 289.5 Q354 300 328 300 L237 300 L237 136 L325 136 Q356 136 374.5 147 Q393 158 403 175 L403 263 Z " />
<glyph glyph-name="uni0413" unicode="&#x413;" horiz-adv-x="523" d="M237 563 L237 0 L51 0 L51 700 L498 700 L498 563 L237 563 Z " />
<glyph glyph-name="uni0414" unicode="&#x414;" horiz-adv-x="730" d="M706 -127 L550 -127 L550 0 L178 0 L178 -127 L22 -127 L22 138 Q35 141 49.5 148 Q64 155 77 164 Q90 173 100.5 183.5 Q111 194 117 205 L176 700 L627 700 L627 138 L706 138 L706 -127 Z M441 563 L329 563 L285 180 Q271 156 246 138 L441 138 L441 563 Z " />
<glyph glyph-name="uni0415" unicode="&#x415;" horiz-adv-x="537" d="M237 559 L237 428 L479 428 L479 287 L237 287 L237 141 L502 141 L502 0 L51 0 L51 700 L496 700 L496 559 L237 559 Z " />
<glyph glyph-name="uni0416" unicode="&#x416;" horiz-adv-x="901" d="M740 374 L873 101 L873 0 L718 0 L586 293 L538 293 L538 0 L363 0 L363 293 L314 293 L182 0 L27 0 L27 101 L161 375 L33 599 L33 700 L178 700 L313 431 L363 431 L363 700 L538 700 L538 431 L587 431 L723 700 L867 700 L867 599 L740 374 Z " />
<glyph glyph-name="uni0417" unicode="&#x417;" horiz-adv-x="598" d="M558 443 Q549 425 528.5 400.5 Q508 376 474 355 Q507 334 528 309.5 Q549 285 558 267 L558 119 Q549 102 529.5 79 Q510 56 478.5 35 Q447 14 402.5 -0.5 Q358 -15 297 -15 Q237 -15 192 -0.5 Q147 14 115 35 Q83 56 63.5 79 Q44 102 35 119 L35 198 L196 198 Q205 163 231.5 144 Q258 125 296 125 Q329 125 350 139 Q371 153 379 168 L379 243 Q371 259 350.5 273 Q330 287 297 286 L197 286 L197 424 L297 424 Q330 423 350.5 437 Q371 451 379 466 L379 532 Q371 547 350 561 Q329 575 296 575 Q258 575 231.5 556 Q205 537 196 502 L35 502 L35 581 Q44 598 63.5 621 Q83 644 115 665 Q147 686 192 700.5 Q237 715 297 715 Q358 715 402.5 700.5 Q447 686 478.5 665 Q510 644 529.5 621 Q549 598 558 581 L558 443 Z " />
<glyph glyph-name="uni0418" unicode="&#x418;" horiz-adv-x="671" d="M447 0 L447 414 L444 414 L228 0 L51 0 L51 700 L224 700 L224 286 L227 286 L443 700 L620 700 L620 0 L447 0 Z " />
<glyph glyph-name="uni0419" unicode="&#x419;" horiz-adv-x="671" d="M447 0 L447 414 L444 414 L228 0 L51 0 L51 700 L224 700 L224 286 L227 286 L443 700 L620 700 L620 0 L447 0 Z M519 832 Q499 790 453 763.5 Q407 737 336 737 Q264 737 217.5 763.5 Q171 790 151 832 L151 894 L275 894 L275 856 Q279 848 293.5 836.5 Q308 825 336 825 Q363 825 377 836.5 Q391 848 395 856 L395 894 L519 894 L519 832 Z " />
<glyph glyph-name="uni041A" unicode="&#x41a;" horiz-adv-x="607" d="M424 370 L580 101 L580 0 L425 0 L274 293 L229 293 L229 0 L43 0 L43 700 L229 700 L229 431 L274 431 L429 700 L574 700 L574 599 L424 370 Z " />
<glyph glyph-name="uni041B" unicode="&#x41b;" horiz-adv-x="667" d="M430 0 L430 563 L321 563 L266 87 Q247 58 224.5 40 Q202 22 172.5 12 Q143 2 105.5 -1.5 Q68 -5 20 -5 L20 136 Q51 136 72.5 147.5 Q94 159 102 175 L165 700 L616 700 L616 0 L430 0 Z " />
<glyph glyph-name="uni041C" unicode="&#x41c;" horiz-adv-x="775" d="M551 0 L551 429 L548 429 L433 141 L341 141 L227 429 L224 429 L224 0 L51 0 L51 700 L276 700 L391 406 L394 406 L503 700 L725 700 L725 0 L551 0 Z " />
<glyph glyph-name="uni041D" unicode="&#x41d;" horiz-adv-x="660" d="M422 0 L422 290 L237 290 L237 0 L51 0 L51 700 L237 700 L237 431 L422 431 L422 700 L608 700 L608 0 L422 0 Z " />
<glyph glyph-name="uni041E" unicode="&#x41e;" horiz-adv-x="626" d="M313 715 Q373 715 419 700 Q465 685 498 662.5 Q531 640 552 613 Q573 586 584 562 L584 138 Q573 114 552 87 Q531 60 498 37.5 Q465 15 419.5 0 Q374 -15 313 -15 Q253 -15 207 0 Q161 15 128 37.5 Q95 60 74 87 Q53 114 42 138 L42 562 Q53 586 74 613 Q95 640 128 662.5 Q161 685 206.5 700 Q252 715 313 715 Z M313 571 Q279 571 258 557 Q237 543 228 524 L228 176 Q237 157 258 143 Q279 129 313 129 Q347 129 368 143 Q389 157 398 176 L398 524 Q389 543 368 557 Q347 571 313 571 Z " />
<glyph glyph-name="uni041F" unicode="&#x41f;" horiz-adv-x="645" d="M409 0 L409 563 L237 563 L237 0 L51 0 L51 700 L595 700 L595 0 L409 0 Z " />
<glyph glyph-name="uni0420" unicode="&#x420;" horiz-adv-x="600" d="M356 700 Q424 700 480 669.5 Q536 639 570 581 L570 365 Q557 341 537 319 Q517 297 490 280.5 Q463 264 429.5 254.5 Q396 245 356 245 L237 245 L237 0 L51 0 L51 700 L356 700 Z M237 384 L313 384 Q340 384 360 393.5 Q380 403 391 423 L391 521 Q380 542 359 551.5 Q338 561 313 561 L237 561 L237 384 Z " />
<glyph glyph-name="uni0421" unicode="&#x421;" horiz-adv-x="607" d="M313 715 Q373 715 418 700.5 Q463 686 494.5 665 Q526 644 546 619.5 Q566 595 577 576 L577 494 L417 494 Q407 528 382 549.5 Q357 571 316 571 Q282 571 260 557.5 Q238 544 228 524 L228 176 Q238 156 260 142.5 Q282 129 316 129 Q357 129 382 150.5 Q407 172 417 206 L577 206 L577 124 Q566 104 546 80 Q526 56 494.5 35 Q463 14 418 -0.5 Q373 -15 313 -15 Q252 -15 206.5 0 Q161 15 128 37.5 Q95 60 74 87 Q53 114 42 138 L42 562 Q53 586 74 613 Q95 640 128 662.5 Q161 685 206.5 700 Q252 715 313 715 Z " />
<glyph glyph-name="uni0422" unicode="&#x422;" horiz-adv-x="552" d="M370 559 L370 0 L184 0 L184 559 L25 559 L25 700 L527 700 L527 559 L370 559 Z " />
<glyph glyph-name="uni0423" unicode="&#x423;" horiz-adv-x="587" d="M558 599 L351 71 Q310 26 261 9 Q212 -8 144 -8 Q124 -8 106.5 -6 Q89 -4 79 -2 L79 130 Q87 129 96.5 128.5 Q106 128 118 128 Q147 128 170.5 135 Q194 142 205 154 L216 186 L29 599 L29 700 L181 700 L307 392 L412 700 L558 700 L558 599 Z " />
<glyph glyph-name="uni0424" unicode="&#x424;" horiz-adv-x="802" d="M516 649 Q553 649 590.5 638 Q628 627 661 607.5 Q694 588 720.5 561 Q747 534 762 503 L762 197 Q747 166 720.5 139 Q694 112 661 92.5 Q628 73 590.5 62 Q553 51 516 51 L484 51 L484 -40 L321 -40 L321 51 L289 51 Q251 51 214 62 Q177 73 144 92.5 Q111 112 84.5 139 Q58 166 42 197 L42 503 Q58 534 84.5 561 Q111 588 144 607.5 Q177 627 214 638 Q251 649 289 649 L321 649 L321 740 L484 740 L484 649 L516 649 Z M321 512 L303 512 Q275 512 249.5 499.5 Q224 487 213 468 L213 232 Q224 213 249.5 200.5 Q275 188 303 188 L321 188 L321 512 Z M592 468 Q581 487 555.5 499.5 Q530 512 501 512 L484 512 L484 188 L501 188 Q530 188 555.5 200.5 Q581 213 592 232 L592 468 Z " />
<glyph glyph-name="uni0425" unicode="&#x425;" horiz-adv-x="604" d="M422 356 L573 101 L573 0 L405 0 L298 237 L295 237 L183 0 L31 0 L31 101 L181 356 L36 599 L36 700 L201 700 L307 474 L310 474 L417 700 L568 700 L568 599 L422 356 Z " />
<glyph glyph-name="uni0426" unicode="&#x426;" horiz-adv-x="698" d="M674 138 L674 -127 L519 -127 L519 0 L51 0 L51 700 L237 700 L237 138 L409 138 L409 700 L595 700 L595 138 L674 138 Z " />
<glyph glyph-name="uni0427" unicode="&#x427;" horiz-adv-x="637" d="M585 0 L399 0 L399 250 Q374 237 343.5 230 Q313 223 276 223 Q231 223 193.5 232.5 Q156 242 127 257.5 Q98 273 77.5 293 Q57 313 46 334 L46 700 L232 700 L232 390 Q240 377 261.5 366 Q283 355 317 355 Q343 355 364 362 Q385 369 399 379 L399 700 L585 700 L585 0 Z " />
<glyph glyph-name="uni0428" unicode="&#x428;" horiz-adv-x="931" d="M51 0 L51 700 L237 700 L237 137 L373 137 L373 700 L559 700 L559 137 L694 137 L694 700 L880 700 L880 0 L51 0 Z " />
<glyph glyph-name="uni0429" unicode="&#x429;" horiz-adv-x="983" d="M960 138 L960 -127 L805 -127 L805 0 L51 0 L51 700 L237 700 L237 138 L373 138 L373 700 L559 700 L559 138 L694 138 L694 700 L880 700 L880 138 L960 138 Z " />
<glyph glyph-name="uni042A" unicode="&#x42a;" horiz-adv-x="689" d="M447 453 Q513 453 569 422 Q625 391 657 336 L657 120 Q645 98 625.5 76.5 Q606 55 580 38 Q554 21 521 10.5 Q488 0 450 0 L140 0 L140 563 L25 563 L25 700 L326 700 L326 453 L447 453 Z M326 134 L410 134 Q441 134 459 145.5 Q477 157 487 174 L487 280 Q478 297 458 307.5 Q438 318 412 318 L326 318 L326 134 Z " />
<glyph glyph-name="uni042B" unicode="&#x42b;" horiz-adv-x="860" d="M346 453 Q412 453 468.5 422 Q525 391 557 336 L557 120 Q545 98 525.5 76.5 Q506 55 479.5 38 Q453 21 420 10.5 Q387 0 349 0 L51 0 L51 700 L237 700 L237 453 L346 453 Z M623 0 L623 700 L809 700 L809 0 L623 0 Z M237 134 L309 134 Q340 134 358.5 145.5 Q377 157 387 174 L387 280 Q378 297 357.5 307.5 Q337 318 311 318 L237 318 L237 134 Z " />
<glyph glyph-name="uni042C" unicode="&#x42c;" horiz-adv-x="601" d="M359 453 Q425 453 481 422 Q537 391 569 336 L569 120 Q557 98 537.5 76.5 Q518 55 492 38 Q466 21 433 10.5 Q400 0 361 0 L51 0 L51 700 L237 700 L237 453 L359 453 Z M237 134 L321 134 Q353 134 371 145.5 Q389 157 399 174 L399 280 Q389 297 369.5 307.5 Q350 318 324 318 L237 318 L237 134 Z " />
<glyph glyph-name="uni042D" unicode="&#x42d;" horiz-adv-x="614" d="M298 571 Q257 571 232 549.5 Q207 528 197 494 L37 494 L37 576 Q47 595 67.5 619.5 Q88 644 119.5 665 Q151 686 196 700.5 Q241 715 301 715 Q362 715 407.5 700 Q453 685 486 662.5 Q519 640 540 613 Q561 586 572 562 L572 138 Q562 114 540.5 87 Q519 60 486 37.5 Q453 15 407.5 0 Q362 -15 301 -15 Q241 -15 196 -0.5 Q151 14 119.5 35 Q88 56 67.5 80 Q47 104 37 124 L37 206 L197 206 Q207 172 232 150.5 Q257 129 298 129 Q332 129 354 142.5 Q376 156 386 176 L386 291 L194 291 L194 421 L386 421 L386 524 Q376 544 354 557.5 Q332 571 298 571 Z " />
<glyph glyph-name="uni042E" unicode="&#x42e;" horiz-adv-x="897" d="M590 715 Q650 715 695 700 Q740 685 772 662.5 Q804 640 824 613 Q844 586 855 562 L855 138 Q844 114 824 87 Q804 60 772 37.5 Q740 15 695 0 Q650 -15 590 -15 Q530 -15 485.5 0 Q441 15 409 37.5 Q377 60 357 87 Q337 114 326 138 L326 288 L237 288 L237 0 L51 0 L51 700 L237 700 L237 426 L326 426 L326 562 Q337 586 357 613 Q377 640 409 662.5 Q441 685 485.5 700 Q530 715 590 715 Z M669 528 Q661 547 642 561 Q623 575 590 575 Q558 575 539 561 Q520 547 512 528 L512 173 Q520 153 539 139.5 Q558 126 590 126 Q623 126 642 139.5 Q661 153 669 173 L669 528 Z " />
<glyph glyph-name="uni042F" unicode="&#x42f;" horiz-adv-x="621" d="M571 0 L385 0 L385 256 L329 256 L194 0 L41 0 L41 101 L149 278 Q79 310 42 376 L42 581 Q74 638 130 669 Q186 700 254 700 L571 700 L571 0 Z M296 563 Q268 563 247.5 553 Q227 543 217 523 L217 426 Q227 407 247 396.5 Q267 386 296 386 L385 386 L385 563 L296 563 Z " />
<glyph glyph-name="uni0490" unicode="&#x490;" horiz-adv-x="509" d="M237 563 L237 0 L51 0 L51 700 L329 700 L329 811 L485 811 L485 563 L237 563 Z " />
<glyph glyph-name="uni0406" unicode="&#x406;" horiz-adv-x="288" d="M51 0 L51 700 L237 700 L237 0 L51 0 Z " />
<glyph glyph-name="uni0402" unicode="&#x402;" horiz-adv-x="719" d="M459 452 Q504 452 541.5 442.5 Q579 433 607.5 418 Q636 403 656.5 383 Q677 363 688 342 L688 109 Q677 88 656.5 68 Q636 48 607.5 33 Q579 18 541.5 8.5 Q504 -1 459 -1 L416 -1 L416 131 Q451 131 472.5 142 Q494 153 502 166 L502 285 Q494 298 473 308.5 Q452 319 418 319 Q392 319 371 312 Q350 305 336 295 L336 0 L150 0 L150 563 L25 563 L25 700 L506 700 L506 563 L336 563 L336 426 Q361 438 391.5 445 Q422 452 459 452 Z " />
<glyph glyph-name="uni0452" unicode="&#x452;" horiz-adv-x="584" d="M372 655 L372 567 L230 567 L230 479 Q253 500 285.5 513.5 Q318 527 362 527 Q402 527 433 514.5 Q464 502 486 483 Q508 464 521.5 441.5 Q535 419 542 400 L542 -31 Q533 -52 514.5 -76.5 Q496 -101 466 -121.5 Q436 -142 394 -155.5 Q352 -169 297 -169 L297 -41 Q326 -41 344.5 -27 Q363 -13 370 7 L370 361 Q365 371 347.5 382 Q330 393 301 393 Q276 393 258.5 385.5 Q241 378 230 367 L230 0 L58 0 L58 567 L20 567 L20 655 L58 655 L58 700 L230 700 L230 655 L372 655 Z " />
<glyph glyph-name="uni0403" unicode="&#x403;" horiz-adv-x="523" d="M237 563 L237 0 L51 0 L51 700 L498 700 L498 563 L237 563 Z M306 743 L183 743 L183 759 L231 907 L386 907 L386 835 L306 743 Z " />
<glyph glyph-name="uni0453" unicode="&#x453;" horiz-adv-x="458" d="M216 418 L216 0 L44 0 L44 544 L433 544 L433 418 L216 418 Z M291 601 L162 601 L162 616 L211 768 L371 768 L371 696 L291 601 Z " />
<glyph glyph-name="uni0456" unicode="&#x456;" horiz-adv-x="263" d="M45 0 L45 544 L217 544 L217 0 L45 0 Z " />
<glyph glyph-name="uni0491" unicode="&#x491;" horiz-adv-x="468" d="M216 418 L216 0 L44 0 L44 544 L294 544 L294 628 L438 628 L438 418 L216 418 Z " />
<glyph glyph-name="uni0408" unicode="&#x408;" horiz-adv-x="387" d="M339 138 Q324 108 303 82 Q282 56 251 37.5 Q220 19 178 8 Q136 -3 81 -3 Q58 -3 42.5 -2 Q27 -1 19 0 L19 140 L66 140 Q100 140 122 152.5 Q144 165 153 185 L153 700 L339 700 L339 138 Z " />
<glyph glyph-name="uni0404" unicode="&#x404;" horiz-adv-x="614" d="M316 571 Q282 571 260 557.5 Q238 544 228 524 L228 421 L420 421 L420 291 L228 291 L228 176 Q238 156 260 142.5 Q282 129 316 129 Q357 129 382 150.5 Q407 172 417 206 L577 206 L577 124 Q567 104 546.5 80 Q526 56 494.5 35 Q463 14 418 -0.5 Q373 -15 313 -15 Q252 -15 206.5 0 Q161 15 128 37.5 Q95 60 73.5 87 Q52 114 42 138 L42 562 Q53 586 74 613 Q95 640 128 662.5 Q161 685 206.5 700 Q252 715 313 715 Q373 715 418 700.5 Q463 686 494.5 665 Q526 644 546.5 619.5 Q567 595 577 576 L577 494 L417 494 Q407 528 382 549.5 Q357 571 316 571 Z " />
<glyph glyph-name="uni0454" unicode="&#x454;" horiz-adv-x="547" d="M283 426 Q254 426 236 414 Q218 402 210 387 L210 328 L369 328 L369 220 L210 220 L210 157 Q218 142 236 130 Q254 118 283 118 Q315 118 335 132 Q355 146 367 174 L516 174 L516 100 Q509 87 492 67.5 Q475 48 447 29.5 Q419 11 378.5 -2 Q338 -15 283 -15 Q228 -15 186.5 -1.5 Q145 12 115 32 Q85 52 66 76.5 Q47 101 38 122 L38 422 Q47 443 66 467.5 Q85 492 115 512 Q145 532 186.5 545.5 Q228 559 283 559 Q338 559 378.5 546 Q419 533 447 514.5 Q475 496 492 476.5 Q509 457 516 444 L516 370 L367 370 Q355 398 335 412 Q315 426 283 426 Z " />
</font>
</svg>
