<?xml version="1.0" encoding="UTF-8"?>
<svg xmlns="http://www.w3.org/2000/svg" xmlns:xlink="http://www.w3.org/1999/xlink" version="1.2" >
<font id="Cadillac Sans Bold Italic">
<font-face  font-family="Cadillac Sans" units-per-em="1000" ascent="750" descent="-250" font-style="italic" font-weight="700" font-stretch="normal" slope="-12" cap-height="700" x-height="544" underline-position="-75" underline-thickness="50" />
<missing-glyph  horiz-adv-x="604" d="M473 -100 L-29 -100 L164 800 L666 800 L473 -100 Z M264 693 L117 7 L372 7 L519 693 L264 693 Z " />
<glyph glyph-name=".null" d="" />
<glyph glyph-name="nonmarkingreturn" unicode="&#xd;" horiz-adv-x="196" d="" />
<glyph glyph-name="space" unicode="&#x20;" horiz-adv-x="202" d="" />
<glyph glyph-name="A" unicode="A" horiz-adv-x="634" d="M552 0 L394 0 L390 152 L190 152 L121 0 L-34 0 L-14 98 L282 700 L535 700 L573 98 L552 0 Z M386 288 L379 565 L376 565 L251 288 L386 288 Z " />
<glyph glyph-name="B" unicode="B" horiz-adv-x="609" d="M511 365 Q533 355 551 338.5 Q569 322 577 300 L538 120 Q507 68 447.5 34 Q388 0 313 0 L-5 0 L144 700 L424 700 Q507 700 558.5 664.5 Q610 629 627 581 L597 437 Q584 415 560 395.5 Q536 376 511 365 Z M452 529 Q439 568 377 568 L296 568 L264 418 L353 418 Q407 418 436 459 L452 529 Z M405 264 Q397 281 377.5 291.5 Q358 302 328 302 L239 302 L203 132 L292 132 Q327 132 349 143 Q371 154 386 175 L405 264 Z " />
<glyph glyph-name="C" unicode="C" horiz-adv-x="607" d="M641 576 L624 495 L470 495 Q468 531 444 553 Q420 575 377 575 Q344 575 318.5 561 Q293 547 278 525 L203 175 Q208 153 230.5 139 Q253 125 287 125 Q366 125 406 205 L562 205 L544 124 Q510 67 443 26 Q376 -15 267 -15 Q192 -15 138 8.5 Q84 32 54 67 Q24 102 15 138 L106 562 Q141 625 213 670 Q285 715 395 715 Q469 715 521 692.5 Q573 670 602 638.5 Q631 607 641 576 Z " />
<glyph glyph-name="D" unicode="D" horiz-adv-x="630" d="M649 562 L558 138 Q524 75 458.5 37.5 Q393 0 297 0 L-5 0 L144 700 L425 700 Q524 700 579.5 659.5 Q635 619 649 562 Z M295 565 L203 135 L284 135 Q320 135 346.5 148.5 Q373 162 388 184 L460 520 Q446 565 374 565 L295 565 Z " />
<glyph glyph-name="E" unicode="E" horiz-adv-x="537" d="M295 563 L265 426 L511 426 L482 289 L236 289 L204 137 L473 137 L443 0 L-5 0 L144 700 L586 700 L557 563 L295 563 Z " />
<glyph glyph-name="F" unicode="F" horiz-adv-x="516" d="M295 563 L263 418 L502 418 L474 281 L234 281 L175 0 L-5 0 L144 700 L574 700 L545 563 L295 563 Z " />
<glyph glyph-name="G" unicode="G" horiz-adv-x="623" d="M278 525 L203 175 Q208 154 230 139.5 Q252 125 286 125 Q320 125 346 138 Q372 151 386 170 L407 265 L317 265 L346 399 L603 399 L518 0 L379 0 L389 48 Q362 20 322.5 2.5 Q283 -15 232 -15 Q168 -15 122 8.5 Q76 32 49.5 67 Q23 102 15 138 L106 562 Q140 623 213.5 669 Q287 715 396 715 Q470 715 522 692.5 Q574 670 602.5 638.5 Q631 607 641 576 L624 495 L470 495 Q467 531 443 553 Q419 575 378 575 Q344 575 318.5 561 Q293 547 278 525 Z " />
<glyph glyph-name="H" unicode="H" horiz-adv-x="659" d="M368 0 L430 292 L237 292 L175 0 L-5 0 L144 700 L324 700 L266 429 L459 429 L517 700 L697 700 L548 0 L368 0 Z " />
<glyph glyph-name="I" unicode="I" horiz-adv-x="285" d="M175 0 L-5 0 L144 700 L324 700 L175 0 Z " />
<glyph glyph-name="J" unicode="J" horiz-adv-x="387" d="M309 138 Q269 67 201.5 32 Q134 -3 31 -3 Q-9 -3 -39 0 L-9 136 L28 136 Q104 136 139 185 L249 700 L429 700 L309 138 Z " />
<glyph glyph-name="K" unicode="K" horiz-adv-x="625" d="M540 0 L403 0 L293 284 L221 218 L175 0 L-5 0 L144 700 L324 700 L273 461 L527 700 L663 700 L642 602 L433 412 L561 98 L540 0 Z " />
<glyph glyph-name="L" unicode="L" horiz-adv-x="460" d="M204 137 L410 137 L381 0 L-5 0 L144 700 L324 700 L204 137 Z " />
<glyph glyph-name="M" unicode="M" horiz-adv-x="810" d="M531 0 L629 462 L626 462 L424 132 L325 132 L263 462 L260 462 L162 0 L-5 0 L144 700 L370 700 L426 391 L429 391 L608 700 L849 700 L699 0 L531 0 Z " />
<glyph glyph-name="N" unicode="N" horiz-adv-x="670" d="M367 0 L256 425 L253 425 L162 0 L-5 0 L144 700 L336 700 L448 275 L451 275 L542 700 L709 700 L560 0 L367 0 Z " />
<glyph glyph-name="O" unicode="O" horiz-adv-x="626" d="M645 562 L554 138 Q515 73 445 29 Q375 -15 265 -15 Q190 -15 136.5 8.5 Q83 32 53 67 Q23 102 15 138 L106 562 Q144 627 214.5 671 Q285 715 394 715 Q469 715 523 691.5 Q577 668 607 633 Q637 598 645 562 Z M278 525 L203 175 Q207 154 229 139.5 Q251 125 284 125 Q317 125 342 139 Q367 153 382 175 L457 525 Q452 546 430.5 560.5 Q409 575 375 575 Q342 575 317 561 Q292 547 278 525 Z " />
<glyph glyph-name="P" unicode="P" horiz-adv-x="598" d="M633 581 L587 367 Q545 305 487.5 276 Q430 247 349 247 L227 247 L175 0 L-5 0 L144 700 L422 700 Q499 700 553 670 Q607 640 633 581 Z M448 524 Q442 544 422 554.5 Q402 565 376 565 L295 565 L256 382 L334 382 Q398 382 427 425 L448 524 Z " />
<glyph glyph-name="Q" unicode="Q" horiz-adv-x="626" d="M406 10 Q414 -7 429 -16.5 Q444 -26 458 -26 L524 -26 L498 -151 L412 -151 Q379 -151 344 -133 Q309 -115 283 -84 Q257 -53 249 -15 Q179 -12 129 11.5 Q79 35 51 69 Q23 103 15 138 L106 562 Q144 627 214.5 671 Q285 715 394 715 Q469 715 523 691.5 Q577 668 607 633 Q637 598 645 562 L554 138 Q501 48 406 10 Z M457 525 Q452 546 430.5 560.5 Q409 575 375 575 Q342 575 317 561 Q292 547 278 525 L203 175 Q207 154 229 139.5 Q251 125 284 125 Q317 125 342 139 Q367 153 382 175 L457 525 Z " />
<glyph glyph-name="R" unicode="R" horiz-adv-x="613" d="M636 581 L595 388 Q545 313 469 285 L543 98 L523 0 L385 0 L293 267 L232 267 L175 0 L-5 0 L144 700 L429 700 Q510 700 562.5 669 Q615 638 636 581 Z M258 393 L339 393 Q372 393 396.5 404 Q421 415 435 435 L453 523 Q448 543 428.5 554 Q409 565 380 565 L295 565 L258 393 Z " />
<glyph glyph-name="S" unicode="S" horiz-adv-x="592" d="M615 587 L598 507 L445 507 Q441 537 420 556 Q399 575 359 575 Q331 575 308.5 563 Q286 551 273 535 L258 470 Q262 458 274.5 450 Q287 442 317 433 L370 418 Q460 393 499.5 364 Q539 335 559 293 L522 120 Q485 64 419.5 24.5 Q354 -15 247 -15 Q172 -15 119.5 6.5 Q67 28 38 59 Q9 90 0 119 L18 200 L171 200 Q175 165 200 145 Q225 125 265 125 Q326 125 360 171 L375 239 Q371 252 356 261.5 Q341 271 309 280 L254 297 Q169 320 131 346.5 Q93 373 74 415 L110 587 Q145 639 212 677 Q279 715 381 715 Q450 715 500 694.5 Q550 674 578.5 644.5 Q607 615 615 587 Z " />
<glyph glyph-name="T" unicode="T" horiz-adv-x="551" d="M588 563 L428 563 L308 0 L128 0 L248 563 L87 563 L116 700 L617 700 L588 563 Z " />
<glyph glyph-name="U" unicode="U" horiz-adv-x="638" d="M560 138 Q524 76 451 30.5 Q378 -15 269 -15 Q194 -15 141 8.5 Q88 32 59 67 Q30 102 21 138 L141 700 L321 700 L209 176 Q214 154 234 140 Q254 126 288 126 Q321 126 346.5 140 Q372 154 388 176 L500 700 L680 700 L560 138 Z " />
<glyph glyph-name="V" unicode="V" horiz-adv-x="634" d="M382 0 L136 0 L94 602 L115 700 L277 700 L292 177 L295 177 L536 700 L701 700 L680 602 L382 0 Z " />
<glyph glyph-name="W" unicode="W" horiz-adv-x="926" d="M721 0 L498 0 L493 403 L490 403 L314 0 L89 0 L99 602 L120 700 L284 700 L262 213 L265 213 L474 700 L630 700 L633 213 L636 213 L821 700 L988 700 L967 602 L721 0 Z " />
<glyph glyph-name="X" unicode="X" horiz-adv-x="603" d="M434 355 L533 98 L512 0 L360 0 L299 241 L296 241 L130 0 L-26 0 L-6 98 L203 357 L107 602 L128 700 L278 700 L340 470 L343 470 L502 700 L657 700 L636 602 L434 355 Z " />
<glyph glyph-name="Y" unicode="Y" horiz-adv-x="588" d="M380 269 L322 0 L141 0 L203 287 L96 602 L117 700 L262 700 L326 451 L329 451 L498 700 L654 700 L633 602 L380 269 Z " />
<glyph glyph-name="Z" unicode="Z" horiz-adv-x="556" d="M224 137 L495 137 L465 0 L-26 0 L-1 116 L363 563 L98 563 L128 700 L615 700 L590 584 L224 137 Z " />
<glyph glyph-name="Agrave" unicode="&#xc0;" horiz-adv-x="634" d="M552 0 L394 0 L390 152 L190 152 L121 0 L-34 0 L-14 98 L282 700 L535 700 L573 98 L552 0 Z M386 288 L379 565 L376 565 L251 288 L386 288 Z M466 744 L352 744 L291 837 L307 907 L450 907 L470 760 L466 744 Z " />
<glyph glyph-name="Aacute" unicode="&#xc1;" horiz-adv-x="634" d="M552 0 L394 0 L390 152 L190 152 L121 0 L-34 0 L-14 98 L282 700 L535 700 L573 98 L552 0 Z M386 288 L379 565 L376 565 L251 288 L386 288 Z M462 744 L344 744 L347 760 L427 907 L579 907 L564 837 L462 744 Z " />
<glyph glyph-name="Acircumflex" unicode="&#xc2;" horiz-adv-x="634" d="M552 0 L394 0 L390 152 L190 152 L121 0 L-34 0 L-14 98 L282 700 L535 700 L573 98 L552 0 Z M386 288 L379 565 L376 565 L251 288 L386 288 Z M601 744 L487 744 L442 836 L359 744 L236 744 L239 760 L347 907 L560 907 L605 760 L601 744 Z " />
<glyph glyph-name="Atilde" unicode="&#xc3;" horiz-adv-x="634" d="M552 0 L394 0 L390 152 L190 152 L121 0 L-34 0 L-14 98 L282 700 L535 700 L573 98 L552 0 Z M386 288 L379 565 L376 565 L251 288 L386 288 Z M458 864 Q469 855 477 850.5 Q485 846 496 846 Q522 846 533 870 L537 890 L633 890 L619 826 Q605 792 570 767.5 Q535 743 490 743 Q460 743 443.5 751 Q427 759 409 774 Q399 783 391 787.5 Q383 792 372 792 Q349 792 336 769 L332 748 L236 748 L250 812 Q263 847 297.5 871 Q332 895 377 895 Q406 895 423 887 Q440 879 458 864 Z " />
<glyph glyph-name="Adieresis" unicode="&#xc4;" horiz-adv-x="634" d="M552 0 L394 0 L390 152 L190 152 L121 0 L-34 0 L-14 98 L282 700 L535 700 L573 98 L552 0 Z M386 288 L379 565 L376 565 L251 288 L386 288 Z M412 863 L394 777 Q379 763 360 753.5 Q341 744 308 744 Q276 744 260.5 754 Q245 764 236 777 L254 863 Q270 876 289 885.5 Q308 895 340 895 Q372 895 387 885.5 Q402 876 412 863 Z M633 863 L615 777 Q582 744 529 744 Q497 744 481.5 754 Q466 764 457 777 L475 863 Q491 876 510 885.5 Q529 895 561 895 Q612 895 633 863 Z " />
<glyph glyph-name="Amacron" unicode="&#x100;" horiz-adv-x="634" d="M552 0 L394 0 L390 152 L190 152 L121 0 L-34 0 L-14 98 L282 700 L535 700 L573 98 L552 0 Z M386 288 L379 565 L376 565 L251 288 L386 288 Z M599 756 L244 756 L267 865 L622 865 L599 756 Z " />
<glyph glyph-name="Abreve" unicode="&#x102;" horiz-adv-x="634" d="M552 0 L394 0 L390 152 L190 152 L121 0 L-34 0 L-14 98 L282 700 L535 700 L573 98 L552 0 Z M386 288 L379 565 L376 565 L251 288 L386 288 Z M617 831 Q592 788 544 763 Q496 738 429 738 Q359 738 314 763.5 Q269 789 254 831 L268 893 L389 893 L380 855 Q383 843 396 833.5 Q409 824 434 824 Q460 824 477.5 833.5 Q495 843 502 855 L510 893 L631 893 L617 831 Z " />
<glyph glyph-name="Aring" unicode="&#xc5;" horiz-adv-x="634" d="M573 98 L552 0 L394 0 L390 152 L190 152 L121 0 L-34 0 L-14 98 L282 700 L323 700 Q294 717 283 745 L302 838 Q323 867 359.5 885 Q396 903 440 903 Q486 903 520 885 Q554 867 565 838 L546 745 Q525 716 495 700 L535 700 L573 98 Z M362 766 Q366 757 379 750 Q392 743 414 743 Q435 743 451 750 Q467 757 475 766 L486 816 Q482 825 469 832.5 Q456 840 434 840 Q412 840 396 832.5 Q380 825 373 816 L362 766 Z M386 288 L379 565 L376 565 L251 288 L386 288 Z " />
<glyph glyph-name="Aogonek" unicode="&#x104;" horiz-adv-x="634" d="M448 -97 L442 -120 Q445 -127 456 -131 Q467 -135 481 -135 Q498 -135 525 -128 L506 -215 Q478 -229 430 -229 Q388 -229 354.5 -214 Q321 -199 312 -173 L330 -92 Q341 -74 368.5 -48 Q396 -22 430 0 L394 0 L390 152 L190 152 L121 0 L-34 0 L-14 98 L282 700 L535 700 L573 98 L552 0 L553 0 Q472 -58 448 -97 Z M386 288 L379 565 L376 565 L251 288 L386 288 Z " />
<glyph glyph-name="AE" unicode="&#xc6;" horiz-adv-x="866" d="M627 563 L597 426 L840 426 L811 289 L568 289 L536 137 L801 137 L772 0 L326 0 L360 159 L210 159 L119 0 L-34 0 L-14 98 L351 700 L915 700 L886 563 L627 563 Z M389 296 L447 565 L443 565 L289 296 L389 296 Z " />
<glyph glyph-name="Cacute" unicode="&#x106;" horiz-adv-x="607" d="M641 576 L624 495 L470 495 Q468 531 444 553 Q420 575 377 575 Q344 575 318.5 561 Q293 547 278 525 L203 175 Q208 153 230.5 139 Q253 125 287 125 Q366 125 406 205 L562 205 L544 124 Q510 67 443 26 Q376 -15 267 -15 Q192 -15 138 8.5 Q84 32 54 67 Q24 102 15 138 L106 562 Q141 625 213 670 Q285 715 395 715 Q469 715 521 692.5 Q573 670 602 638.5 Q631 607 641 576 Z M460 744 L342 744 L345 760 L425 907 L577 907 L562 837 L460 744 Z " />
<glyph glyph-name="Ccircumflex" unicode="&#x108;" horiz-adv-x="607" d="M641 576 L624 495 L470 495 Q468 531 444 553 Q420 575 377 575 Q344 575 318.5 561 Q293 547 278 525 L203 175 Q208 153 230.5 139 Q253 125 287 125 Q366 125 406 205 L562 205 L544 124 Q510 67 443 26 Q376 -15 267 -15 Q192 -15 138 8.5 Q84 32 54 67 Q24 102 15 138 L106 562 Q141 625 213 670 Q285 715 395 715 Q469 715 521 692.5 Q573 670 602 638.5 Q631 607 641 576 Z M600 744 L486 744 L441 836 L358 744 L235 744 L238 760 L346 907 L559 907 L604 760 L600 744 Z " />
<glyph glyph-name="Ccaron" unicode="&#x10c;" horiz-adv-x="607" d="M641 576 L624 495 L470 495 Q468 531 444 553 Q420 575 377 575 Q344 575 318.5 561 Q293 547 278 525 L203 175 Q208 153 230.5 139 Q253 125 287 125 Q366 125 406 205 L562 205 L544 124 Q510 67 443 26 Q376 -15 267 -15 Q192 -15 138 8.5 Q84 32 54 67 Q24 102 15 138 L106 562 Q141 625 213 670 Q285 715 395 715 Q469 715 521 692.5 Q573 670 602 638.5 Q631 607 641 576 Z M524 744 L311 744 L266 892 L270 907 L381 907 L426 815 L509 907 L635 907 L631 892 L524 744 Z " />
<glyph glyph-name="Cdotaccent" unicode="&#x10a;" horiz-adv-x="607" d="M641 576 L624 495 L470 495 Q468 531 444 553 Q420 575 377 575 Q344 575 318.5 561 Q293 547 278 525 L203 175 Q208 153 230.5 139 Q253 125 287 125 Q366 125 406 205 L562 205 L544 124 Q510 67 443 26 Q376 -15 267 -15 Q192 -15 138 8.5 Q84 32 54 67 Q24 102 15 138 L106 562 Q141 625 213 670 Q285 715 395 715 Q469 715 521 692.5 Q573 670 602 638.5 Q631 607 641 576 Z M529 859 L516 794 Q504 775 478.5 762 Q453 749 418 749 Q383 749 363.5 762 Q344 775 341 794 L354 859 Q366 878 391.5 891.5 Q417 905 451 905 Q486 905 506 891.5 Q526 878 529 859 Z " />
<glyph glyph-name="Ccedilla" unicode="&#xc7;" horiz-adv-x="607" d="M278 525 L203 175 Q208 153 230.5 139 Q253 125 287 125 Q366 125 406 205 L562 205 L544 124 Q512 69 449 29 Q386 -11 285 -15 L270 -41 L277 -41 Q313 -41 333 -55.5 Q353 -70 357 -91 L340 -168 Q300 -231 200 -231 Q169 -231 141.5 -225.5 Q114 -220 97 -213 L135 -146 Q173 -155 203 -155 Q222 -155 236 -150 Q250 -145 255 -137 L260 -116 Q256 -101 217 -101 L157 -101 L206 -10 Q124 3 75 46 Q26 89 15 138 L106 562 Q141 625 213 670 Q285 715 395 715 Q469 715 521 692.5 Q573 670 602 638.5 Q631 607 641 576 L624 495 L470 495 Q468 531 444 553 Q420 575 377 575 Q344 575 318.5 561 Q293 547 278 525 Z " />
<glyph glyph-name="Dcaron" unicode="&#x10e;" horiz-adv-x="630" d="M649 562 L558 138 Q524 75 458.5 37.5 Q393 0 297 0 L-5 0 L144 700 L425 700 Q524 700 579.5 659.5 Q635 619 649 562 Z M295 565 L203 135 L284 135 Q320 135 346.5 148.5 Q373 162 388 184 L460 520 Q446 565 374 565 L295 565 Z M523 744 L310 744 L265 892 L269 907 L380 907 L425 815 L508 907 L634 907 L630 892 L523 744 Z " />
<glyph glyph-name="Dcroat" unicode="&#x110;" horiz-adv-x="645" d="M664 562 L573 138 Q539 75 473 37.5 Q407 0 311 0 L9 0 L71 289 L32 289 L61 421 L99 421 L159 700 L440 700 Q539 700 594.5 659.5 Q650 619 664 562 Z M475 520 Q469 541 447.5 553 Q426 565 389 565 L310 565 L279 421 L377 421 L348 289 L251 289 L218 135 L299 135 Q335 135 361.5 148.5 Q388 162 402 184 L475 520 Z " />
<glyph glyph-name="Egrave" unicode="&#xc8;" horiz-adv-x="537" d="M295 563 L265 426 L511 426 L482 289 L236 289 L204 137 L473 137 L443 0 L-5 0 L144 700 L586 700 L557 563 L295 563 Z M425 744 L311 744 L250 837 L266 907 L409 907 L429 760 L425 744 Z " />
<glyph glyph-name="Eacute" unicode="&#xc9;" horiz-adv-x="537" d="M295 563 L265 426 L511 426 L482 289 L236 289 L204 137 L473 137 L443 0 L-5 0 L144 700 L586 700 L557 563 L295 563 Z M421 744 L303 744 L306 760 L386 907 L538 907 L523 837 L421 744 Z " />
<glyph glyph-name="Ecircumflex" unicode="&#xca;" horiz-adv-x="537" d="M295 563 L265 426 L511 426 L482 289 L236 289 L204 137 L473 137 L443 0 L-5 0 L144 700 L586 700 L557 563 L295 563 Z M560 744 L446 744 L401 836 L318 744 L195 744 L198 760 L306 907 L519 907 L564 760 L560 744 Z " />
<glyph glyph-name="Ecaron" unicode="&#x11a;" horiz-adv-x="537" d="M295 563 L265 426 L511 426 L482 289 L236 289 L204 137 L473 137 L443 0 L-5 0 L144 700 L586 700 L557 563 L295 563 Z M484 744 L271 744 L226 892 L230 907 L341 907 L386 815 L469 907 L595 907 L591 892 L484 744 Z " />
<glyph glyph-name="Edieresis" unicode="&#xcb;" horiz-adv-x="537" d="M295 563 L265 426 L511 426 L482 289 L236 289 L204 137 L473 137 L443 0 L-5 0 L144 700 L586 700 L557 563 L295 563 Z M371 863 L353 777 Q338 763 319 753.5 Q300 744 267 744 Q235 744 219.5 754 Q204 764 195 777 L213 863 Q229 876 248 885.5 Q267 895 299 895 Q331 895 346 885.5 Q361 876 371 863 Z M592 863 L574 777 Q541 744 488 744 Q456 744 440.5 754 Q425 764 416 777 L434 863 Q450 876 469 885.5 Q488 895 520 895 Q571 895 592 863 Z " />
<glyph glyph-name="Emacron" unicode="&#x112;" horiz-adv-x="537" d="M295 563 L265 426 L511 426 L482 289 L236 289 L204 137 L473 137 L443 0 L-5 0 L144 700 L586 700 L557 563 L295 563 Z M558 756 L203 756 L226 865 L581 865 L558 756 Z " />
<glyph glyph-name="Ebreve" unicode="&#x114;" horiz-adv-x="537" d="M295 563 L265 426 L511 426 L482 289 L236 289 L204 137 L473 137 L443 0 L-5 0 L144 700 L586 700 L557 563 L295 563 Z M576 831 Q551 788 503 763 Q455 738 388 738 Q318 738 273 763.5 Q228 789 213 831 L227 893 L348 893 L339 855 Q342 843 355 833.5 Q368 824 393 824 Q419 824 436.5 833.5 Q454 843 461 855 L469 893 L590 893 L576 831 Z " />
<glyph glyph-name="Edotaccent" unicode="&#x116;" horiz-adv-x="537" d="M295 563 L265 426 L511 426 L482 289 L236 289 L204 137 L473 137 L443 0 L-5 0 L144 700 L586 700 L557 563 L295 563 Z M489 859 L476 794 Q464 775 438.5 762 Q413 749 378 749 Q343 749 323.5 762 Q304 775 301 794 L314 859 Q326 878 351.5 891.5 Q377 905 411 905 Q446 905 466 891.5 Q486 878 489 859 Z " />
<glyph glyph-name="Eogonek" unicode="&#x118;" horiz-adv-x="537" d="M295 563 L265 426 L511 426 L482 289 L236 289 L204 137 L473 137 L443 0 Q361 -59 338 -97 L332 -120 Q335 -127 346 -131 Q357 -135 371 -135 Q388 -135 415 -128 L396 -215 Q368 -229 320 -229 Q278 -229 244.5 -214 Q211 -199 202 -172 L220 -92 Q231 -73 259.5 -47.5 Q288 -22 325 0 L-5 0 L144 700 L586 700 L557 563 L295 563 Z " />
<glyph glyph-name="Gcircumflex" unicode="&#x11c;" horiz-adv-x="623" d="M278 525 L203 175 Q208 154 230 139.5 Q252 125 286 125 Q320 125 346 138 Q372 151 386 170 L407 265 L317 265 L346 399 L603 399 L518 0 L379 0 L389 48 Q362 20 322.5 2.5 Q283 -15 232 -15 Q168 -15 122 8.5 Q76 32 49.5 67 Q23 102 15 138 L106 562 Q140 623 213.5 669 Q287 715 396 715 Q470 715 522 692.5 Q574 670 602.5 638.5 Q631 607 641 576 L624 495 L470 495 Q467 531 443 553 Q419 575 378 575 Q344 575 318.5 561 Q293 547 278 525 Z M594 744 L480 744 L435 836 L352 744 L229 744 L232 760 L340 907 L553 907 L598 760 L594 744 Z " />
<glyph glyph-name="Gbreve" unicode="&#x11e;" horiz-adv-x="623" d="M278 525 L203 175 Q208 154 230 139.5 Q252 125 286 125 Q320 125 346 138 Q372 151 386 170 L407 265 L317 265 L346 399 L603 399 L518 0 L379 0 L389 48 Q362 20 322.5 2.5 Q283 -15 232 -15 Q168 -15 122 8.5 Q76 32 49.5 67 Q23 102 15 138 L106 562 Q140 623 213.5 669 Q287 715 396 715 Q470 715 522 692.5 Q574 670 602.5 638.5 Q631 607 641 576 L624 495 L470 495 Q467 531 443 553 Q419 575 378 575 Q344 575 318.5 561 Q293 547 278 525 Z M610 831 Q585 788 537 763 Q489 738 422 738 Q352 738 307 763.5 Q262 789 247 831 L261 893 L382 893 L373 855 Q376 843 389 833.5 Q402 824 427 824 Q453 824 470.5 833.5 Q488 843 495 855 L503 893 L624 893 L610 831 Z " />
<glyph glyph-name="Gdotaccent" unicode="&#x120;" horiz-adv-x="623" d="M278 525 L203 175 Q208 154 230 139.5 Q252 125 286 125 Q320 125 346 138 Q372 151 386 170 L407 265 L317 265 L346 399 L603 399 L518 0 L379 0 L389 48 Q362 20 322.5 2.5 Q283 -15 232 -15 Q168 -15 122 8.5 Q76 32 49.5 67 Q23 102 15 138 L106 562 Q140 623 213.5 669 Q287 715 396 715 Q470 715 522 692.5 Q574 670 602.5 638.5 Q631 607 641 576 L624 495 L470 495 Q467 531 443 553 Q419 575 378 575 Q344 575 318.5 561 Q293 547 278 525 Z M523 859 L510 794 Q498 775 472.5 762 Q447 749 412 749 Q377 749 357.5 762 Q338 775 335 794 L348 859 Q360 878 385.5 891.5 Q411 905 445 905 Q480 905 500 891.5 Q520 878 523 859 Z " />
<glyph glyph-name="Gcommaaccent" unicode="&#x122;" horiz-adv-x="623" d="M278 525 L203 175 Q208 154 230 139.5 Q252 125 286 125 Q320 125 346 138 Q372 151 386 170 L407 265 L317 265 L346 399 L603 399 L518 0 L379 0 L389 48 Q362 20 322.5 2.5 Q283 -15 232 -15 Q168 -15 122 8.5 Q76 32 49.5 67 Q23 102 15 138 L106 562 Q140 623 213.5 669 Q287 715 396 715 Q470 715 522 692.5 Q574 670 602.5 638.5 Q631 607 641 576 L624 495 L470 495 Q467 531 443 553 Q419 575 378 575 Q344 575 318.5 561 Q293 547 278 525 Z M136 -192 L174 -192 Q209 -192 220 -176 L224 -158 Q190 -158 168 -152.5 Q146 -147 141 -137 L155 -71 Q164 -61 186.5 -54 Q209 -47 243 -47 Q277 -47 297 -54 Q317 -61 324 -71 L302 -180 Q289 -208 259 -225.5 Q229 -243 182 -243 L125 -243 L136 -192 Z " />
<glyph glyph-name="Hcircumflex" unicode="&#x124;" horiz-adv-x="659" d="M368 0 L430 292 L237 292 L175 0 L-5 0 L144 700 L324 700 L266 429 L459 429 L517 700 L697 700 L548 0 L368 0 Z M613 744 L499 744 L454 836 L371 744 L248 744 L251 760 L359 907 L572 907 L617 760 L613 744 Z " />
<glyph glyph-name="Hbar" unicode="&#x126;" horiz-adv-x="659" d="M671 530 L558 0 L378 0 L440 292 L246 292 L184 0 L4 0 L117 530 L86 530 L109 636 L140 636 L154 700 L334 700 L320 636 L513 636 L527 700 L707 700 L693 636 L722 636 L700 530 L671 530 Z M298 530 L276 429 L469 429 L491 530 L298 530 Z " />
<glyph glyph-name="Igrave" unicode="&#xcc;" horiz-adv-x="285" d="M175 0 L-5 0 L144 700 L324 700 L175 0 Z M291 744 L177 744 L116 837 L132 907 L275 907 L295 760 L291 744 Z " />
<glyph glyph-name="Iacute" unicode="&#xcd;" horiz-adv-x="285" d="M175 0 L-5 0 L144 700 L324 700 L175 0 Z M287 744 L169 744 L172 760 L252 907 L404 907 L389 837 L287 744 Z " />
<glyph glyph-name="Icircumflex" unicode="&#xce;" horiz-adv-x="285" d="M175 0 L-5 0 L144 700 L324 700 L175 0 Z M427 744 L313 744 L268 836 L185 744 L62 744 L65 760 L173 907 L386 907 L431 760 L427 744 Z " />
<glyph glyph-name="Itilde" unicode="&#x128;" horiz-adv-x="285" d="M175 0 L-5 0 L144 700 L324 700 L175 0 Z M284 864 Q295 855 303 850.5 Q311 846 322 846 Q348 846 359 870 L363 890 L459 890 L445 826 Q431 792 396 767.5 Q361 743 316 743 Q286 743 269.5 751 Q253 759 235 774 Q225 783 217 787.5 Q209 792 198 792 Q175 792 162 769 L158 748 L62 748 L76 812 Q89 847 123.5 871 Q158 895 203 895 Q232 895 249 887 Q266 879 284 864 Z " />
<glyph glyph-name="Idieresis" unicode="&#xcf;" horiz-adv-x="285" d="M175 0 L-5 0 L144 700 L324 700 L175 0 Z M238 863 L220 777 Q205 763 186 753.5 Q167 744 134 744 Q102 744 86.5 754 Q71 764 62 777 L80 863 Q96 876 115 885.5 Q134 895 166 895 Q198 895 213 885.5 Q228 876 238 863 Z M459 863 L441 777 Q408 744 355 744 Q323 744 307.5 754 Q292 764 283 777 L301 863 Q317 876 336 885.5 Q355 895 387 895 Q438 895 459 863 Z " />
<glyph glyph-name="Imacron" unicode="&#x12a;" horiz-adv-x="285" d="M175 0 L-5 0 L144 700 L324 700 L175 0 Z M424 756 L69 756 L92 865 L447 865 L424 756 Z " />
<glyph glyph-name="Ibreve" unicode="&#x12c;" horiz-adv-x="285" d="M175 0 L-5 0 L144 700 L324 700 L175 0 Z M443 831 Q418 788 370 763 Q322 738 255 738 Q185 738 140 763.5 Q95 789 80 831 L94 893 L215 893 L206 855 Q209 843 222 833.5 Q235 824 260 824 Q286 824 303.5 833.5 Q321 843 328 855 L336 893 L457 893 L443 831 Z " />
<glyph glyph-name="Iogonek" unicode="&#x12e;" horiz-adv-x="285" d="M69 -97 L64 -120 Q67 -127 78 -131 Q89 -135 103 -135 Q120 -135 147 -128 L128 -215 Q100 -229 52 -229 Q10 -229 -23.5 -214 Q-57 -199 -66 -173 L-48 -92 Q-37 -74 -9 -48 Q19 -22 55 0 L-5 0 L144 700 L324 700 L175 0 Q97 -54 69 -97 Z " />
<glyph glyph-name="IJ" unicode="&#x132;" horiz-adv-x="672" d="M175 0 L-5 0 L144 700 L324 700 L175 0 Z M594 138 Q554 67 486.5 32 Q419 -3 316 -3 Q276 -3 246 0 L276 136 L313 136 Q389 136 424 185 L534 700 L714 700 L594 138 Z " />
<glyph glyph-name="Jcircumflex" unicode="&#x134;" horiz-adv-x="387" d="M309 138 Q269 67 201.5 32 Q134 -3 31 -3 Q-9 -3 -39 0 L-9 136 L28 136 Q104 136 139 185 L249 700 L429 700 L309 138 Z M530 744 L416 744 L371 836 L288 744 L165 744 L168 760 L276 907 L489 907 L534 760 L530 744 Z " />
<glyph glyph-name="Kcommaaccent" unicode="&#x136;" horiz-adv-x="625" d="M540 0 L403 0 L293 284 L221 218 L175 0 L-5 0 L144 700 L324 700 L273 461 L527 700 L663 700 L642 602 L433 412 L561 98 L540 0 Z M164 -192 L202 -192 Q237 -192 248 -176 L252 -158 Q218 -158 196 -152.5 Q174 -147 169 -137 L183 -71 Q192 -61 214.5 -54 Q237 -47 271 -47 Q305 -47 325 -54 Q345 -61 352 -71 L330 -180 Q317 -208 287 -225.5 Q257 -243 210 -243 L153 -243 L164 -192 Z " />
<glyph glyph-name="Lacute" unicode="&#x139;" horiz-adv-x="460" d="M204 137 L410 137 L381 0 L-5 0 L144 700 L324 700 L204 137 Z M300 744 L182 744 L185 760 L265 907 L417 907 L402 837 L300 744 Z " />
<glyph glyph-name="Lcaron" unicode="&#x13d;" horiz-adv-x="478" d="M204 137 L410 137 L381 0 L-5 0 L144 700 L324 700 L204 137 Z M513 615 L433 480 L336 480 L339 495 L404 700 L531 700 L513 615 Z " />
<glyph glyph-name="Lcommaaccent" unicode="&#x13b;" horiz-adv-x="460" d="M204 137 L410 137 L381 0 L-5 0 L144 700 L324 700 L204 137 Z M53 -192 L91 -192 Q126 -192 137 -176 L141 -158 Q107 -158 85 -152.5 Q63 -147 58 -137 L72 -71 Q81 -61 103.5 -54 Q126 -47 160 -47 Q194 -47 214 -54 Q234 -61 241 -71 L219 -180 Q206 -208 176 -225.5 Q146 -243 99 -243 L42 -243 L53 -192 Z " />
<glyph glyph-name="Lslash" unicode="&#x141;" horiz-adv-x="496" d="M416 0 L31 0 L68 175 L-6 140 L23 275 L96 309 L180 700 L360 700 L296 402 L430 464 L402 331 L268 268 L240 137 L446 137 L416 0 Z " />
<glyph glyph-name="Ldot" unicode="&#x13f;" horiz-adv-x="489" d="M204 137 L410 137 L381 0 L-5 0 L144 700 L324 700 L204 137 Z M512 432 L494 349 Q482 329 459 316 Q436 303 403 303 Q368 303 346.5 317 Q325 331 319 349 L337 432 Q349 451 372.5 464.5 Q396 478 426 478 Q463 478 484.5 464.5 Q506 451 512 432 Z " />
<glyph glyph-name="Nacute" unicode="&#x143;" horiz-adv-x="670" d="M367 0 L256 425 L253 425 L162 0 L-5 0 L144 700 L336 700 L448 275 L451 275 L542 700 L709 700 L560 0 L367 0 Z M487 744 L369 744 L372 760 L452 907 L604 907 L589 837 L487 744 Z " />
<glyph glyph-name="Ncaron" unicode="&#x147;" horiz-adv-x="670" d="M367 0 L256 425 L253 425 L162 0 L-5 0 L144 700 L336 700 L448 275 L451 275 L542 700 L709 700 L560 0 L367 0 Z M551 744 L338 744 L293 892 L297 907 L408 907 L453 815 L536 907 L662 907 L658 892 L551 744 Z " />
<glyph glyph-name="Ntilde" unicode="&#xd1;" horiz-adv-x="670" d="M367 0 L256 425 L253 425 L162 0 L-5 0 L144 700 L336 700 L448 275 L451 275 L542 700 L709 700 L560 0 L367 0 Z M484 864 Q495 855 503 850.5 Q511 846 522 846 Q548 846 559 870 L563 890 L659 890 L645 826 Q631 792 596 767.5 Q561 743 516 743 Q486 743 469.5 751 Q453 759 435 774 Q425 783 417 787.5 Q409 792 398 792 Q375 792 362 769 L358 748 L262 748 L276 812 Q289 847 323.5 871 Q358 895 403 895 Q432 895 449 887 Q466 879 484 864 Z " />
<glyph glyph-name="Ncommaaccent" unicode="&#x145;" horiz-adv-x="670" d="M367 0 L256 425 L253 425 L162 0 L-5 0 L144 700 L336 700 L448 275 L451 275 L542 700 L709 700 L560 0 L367 0 Z M158 -192 L196 -192 Q231 -192 242 -176 L246 -158 Q212 -158 190 -152.5 Q168 -147 163 -137 L177 -71 Q186 -61 208.5 -54 Q231 -47 265 -47 Q299 -47 319 -54 Q339 -61 346 -71 L324 -180 Q311 -208 281 -225.5 Q251 -243 204 -243 L147 -243 L158 -192 Z " />
<glyph glyph-name="Ograve" unicode="&#xd2;" horiz-adv-x="626" d="M645 562 L554 138 Q515 73 445 29 Q375 -15 265 -15 Q190 -15 136.5 8.5 Q83 32 53 67 Q23 102 15 138 L106 562 Q144 627 214.5 671 Q285 715 394 715 Q469 715 523 691.5 Q577 668 607 633 Q637 598 645 562 Z M278 525 L203 175 Q207 154 229 139.5 Q251 125 284 125 Q317 125 342 139 Q367 153 382 175 L457 525 Q452 546 430.5 560.5 Q409 575 375 575 Q342 575 317 561 Q292 547 278 525 Z M462 744 L348 744 L287 837 L303 907 L446 907 L466 760 L462 744 Z " />
<glyph glyph-name="Oacute" unicode="&#xd3;" horiz-adv-x="626" d="M645 562 L554 138 Q515 73 445 29 Q375 -15 265 -15 Q190 -15 136.5 8.5 Q83 32 53 67 Q23 102 15 138 L106 562 Q144 627 214.5 671 Q285 715 394 715 Q469 715 523 691.5 Q577 668 607 633 Q637 598 645 562 Z M278 525 L203 175 Q207 154 229 139.5 Q251 125 284 125 Q317 125 342 139 Q367 153 382 175 L457 525 Q452 546 430.5 560.5 Q409 575 375 575 Q342 575 317 561 Q292 547 278 525 Z M457 744 L339 744 L342 760 L422 907 L574 907 L559 837 L457 744 Z " />
<glyph glyph-name="Ocircumflex" unicode="&#xd4;" horiz-adv-x="626" d="M645 562 L554 138 Q515 73 445 29 Q375 -15 265 -15 Q190 -15 136.5 8.5 Q83 32 53 67 Q23 102 15 138 L106 562 Q144 627 214.5 671 Q285 715 394 715 Q469 715 523 691.5 Q577 668 607 633 Q637 598 645 562 Z M278 525 L203 175 Q207 154 229 139.5 Q251 125 284 125 Q317 125 342 139 Q367 153 382 175 L457 525 Q452 546 430.5 560.5 Q409 575 375 575 Q342 575 317 561 Q292 547 278 525 Z M597 744 L483 744 L438 836 L355 744 L232 744 L235 760 L343 907 L556 907 L601 760 L597 744 Z " />
<glyph glyph-name="Otilde" unicode="&#xd5;" horiz-adv-x="626" d="M645 562 L554 138 Q515 73 445 29 Q375 -15 265 -15 Q190 -15 136.5 8.5 Q83 32 53 67 Q23 102 15 138 L106 562 Q144 627 214.5 671 Q285 715 394 715 Q469 715 523 691.5 Q577 668 607 633 Q637 598 645 562 Z M278 525 L203 175 Q207 154 229 139.5 Q251 125 284 125 Q317 125 342 139 Q367 153 382 175 L457 525 Q452 546 430.5 560.5 Q409 575 375 575 Q342 575 317 561 Q292 547 278 525 Z M454 864 Q465 855 473 850.5 Q481 846 492 846 Q518 846 529 870 L533 890 L629 890 L615 826 Q601 792 566 767.5 Q531 743 486 743 Q456 743 439.5 751 Q423 759 405 774 Q395 783 387 787.5 Q379 792 368 792 Q345 792 332 769 L328 748 L232 748 L246 812 Q259 847 293.5 871 Q328 895 373 895 Q402 895 419 887 Q436 879 454 864 Z " />
<glyph glyph-name="Odieresis" unicode="&#xd6;" horiz-adv-x="626" d="M645 562 L554 138 Q515 73 445 29 Q375 -15 265 -15 Q190 -15 136.5 8.5 Q83 32 53 67 Q23 102 15 138 L106 562 Q144 627 214.5 671 Q285 715 394 715 Q469 715 523 691.5 Q577 668 607 633 Q637 598 645 562 Z M278 525 L203 175 Q207 154 229 139.5 Q251 125 284 125 Q317 125 342 139 Q367 153 382 175 L457 525 Q452 546 430.5 560.5 Q409 575 375 575 Q342 575 317 561 Q292 547 278 525 Z M408 863 L390 777 Q375 763 356 753.5 Q337 744 304 744 Q272 744 256.5 754 Q241 764 232 777 L250 863 Q266 876 285 885.5 Q304 895 336 895 Q368 895 383 885.5 Q398 876 408 863 Z M629 863 L611 777 Q578 744 525 744 Q493 744 477.5 754 Q462 764 453 777 L471 863 Q487 876 506 885.5 Q525 895 557 895 Q608 895 629 863 Z " />
<glyph glyph-name="Omacron" unicode="&#x14c;" horiz-adv-x="626" d="M645 562 L554 138 Q515 73 445 29 Q375 -15 265 -15 Q190 -15 136.5 8.5 Q83 32 53 67 Q23 102 15 138 L106 562 Q144 627 214.5 671 Q285 715 394 715 Q469 715 523 691.5 Q577 668 607 633 Q637 598 645 562 Z M278 525 L203 175 Q207 154 229 139.5 Q251 125 284 125 Q317 125 342 139 Q367 153 382 175 L457 525 Q452 546 430.5 560.5 Q409 575 375 575 Q342 575 317 561 Q292 547 278 525 Z M594 756 L239 756 L262 865 L617 865 L594 756 Z " />
<glyph glyph-name="Obreve" unicode="&#x14e;" horiz-adv-x="626" d="M645 562 L554 138 Q515 73 445 29 Q375 -15 265 -15 Q190 -15 136.5 8.5 Q83 32 53 67 Q23 102 15 138 L106 562 Q144 627 214.5 671 Q285 715 394 715 Q469 715 523 691.5 Q577 668 607 633 Q637 598 645 562 Z M278 525 L203 175 Q207 154 229 139.5 Q251 125 284 125 Q317 125 342 139 Q367 153 382 175 L457 525 Q452 546 430.5 560.5 Q409 575 375 575 Q342 575 317 561 Q292 547 278 525 Z M613 831 Q588 788 540 763 Q492 738 425 738 Q355 738 310 763.5 Q265 789 250 831 L264 893 L385 893 L376 855 Q379 843 392 833.5 Q405 824 430 824 Q456 824 473.5 833.5 Q491 843 498 855 L506 893 L627 893 L613 831 Z " />
<glyph glyph-name="Ohungarumlaut" unicode="&#x150;" horiz-adv-x="626" d="M645 562 L554 138 Q515 73 445 29 Q375 -15 265 -15 Q190 -15 136.5 8.5 Q83 32 53 67 Q23 102 15 138 L106 562 Q144 627 214.5 671 Q285 715 394 715 Q469 715 523 691.5 Q577 668 607 633 Q637 598 645 562 Z M278 525 L203 175 Q207 154 229 139.5 Q251 125 284 125 Q317 125 342 139 Q367 153 382 175 L457 525 Q452 546 430.5 560.5 Q409 575 375 575 Q342 575 317 561 Q292 547 278 525 Z M367 744 L260 744 L263 759 L330 907 L458 907 L444 849 L367 744 Z M568 744 L461 744 L464 759 L530 907 L658 907 L645 849 L568 744 Z " />
<glyph glyph-name="Oslash" unicode="&#xd8;" horiz-adv-x="626" d="M662 646 L626 607 Q641 580 645 562 L554 138 Q515 73 445 29 Q375 -15 265 -15 Q161 -15 91 33 L61 0 L-14 0 L-3 54 L33 94 Q20 116 15 138 L106 562 Q144 627 214.5 671 Q285 715 394 715 Q498 715 568 667 L598 700 L674 700 L662 646 Z M231 306 L450 541 Q441 557 421.5 566 Q402 575 375 575 Q342 575 317 561 Q292 547 278 525 L231 306 Z M429 395 L209 159 Q218 144 238 134.5 Q258 125 284 125 Q317 125 342 139 Q367 153 382 175 L429 395 Z " />
<glyph glyph-name="OE" unicode="&#x152;" horiz-adv-x="888" d="M645 563 L616 426 L861 426 L832 289 L586 289 L554 137 L823 137 L794 0 L351 0 Q301 -15 255 -15 Q185 -15 133.5 8.5 Q82 32 52.5 67 Q23 102 15 138 L106 562 Q144 627 214.5 671 Q285 715 394 715 Q456 715 496 700 L937 700 L907 563 L645 563 Z M284 125 Q312 125 337.5 134.5 Q363 144 379 160 L460 540 Q449 555 426 565 Q403 575 375 575 Q342 575 317 561 Q292 547 278 525 L203 175 Q207 154 229 139.5 Q251 125 284 125 Z " />
<glyph glyph-name="Racute" unicode="&#x154;" horiz-adv-x="613" d="M636 581 L595 388 Q545 313 469 285 L543 98 L523 0 L385 0 L293 267 L232 267 L175 0 L-5 0 L144 700 L429 700 Q510 700 562.5 669 Q615 638 636 581 Z M258 393 L339 393 Q372 393 396.5 404 Q421 415 435 435 L453 523 Q448 543 428.5 554 Q409 565 380 565 L295 565 L258 393 Z M451 744 L333 744 L336 760 L416 907 L568 907 L553 837 L451 744 Z " />
<glyph glyph-name="Rcaron" unicode="&#x158;" horiz-adv-x="613" d="M636 581 L595 388 Q545 313 469 285 L543 98 L523 0 L385 0 L293 267 L232 267 L175 0 L-5 0 L144 700 L429 700 Q510 700 562.5 669 Q615 638 636 581 Z M258 393 L339 393 Q372 393 396.5 404 Q421 415 435 435 L453 523 Q448 543 428.5 554 Q409 565 380 565 L295 565 L258 393 Z M514 744 L301 744 L256 892 L260 907 L371 907 L416 815 L499 907 L625 907 L621 892 L514 744 Z " />
<glyph glyph-name="Rcommaaccent" unicode="&#x156;" horiz-adv-x="613" d="M636 581 L595 388 Q545 313 469 285 L543 98 L523 0 L385 0 L293 267 L232 267 L175 0 L-5 0 L144 700 L429 700 Q510 700 562.5 669 Q615 638 636 581 Z M258 393 L339 393 Q372 393 396.5 404 Q421 415 435 435 L453 523 Q448 543 428.5 554 Q409 565 380 565 L295 565 L258 393 Z M129 -192 L167 -192 Q202 -192 213 -176 L217 -158 Q183 -158 161 -152.5 Q139 -147 134 -137 L148 -71 Q157 -61 179.5 -54 Q202 -47 236 -47 Q270 -47 290 -54 Q310 -61 317 -71 L295 -180 Q282 -208 252 -225.5 Q222 -243 175 -243 L118 -243 L129 -192 Z " />
<glyph glyph-name="Sacute" unicode="&#x15a;" horiz-adv-x="592" d="M615 587 L598 507 L445 507 Q441 537 420 556 Q399 575 359 575 Q331 575 308.5 563 Q286 551 273 535 L258 470 Q262 458 274.5 450 Q287 442 317 433 L370 418 Q460 393 499.5 364 Q539 335 559 293 L522 120 Q485 64 419.5 24.5 Q354 -15 247 -15 Q172 -15 119.5 6.5 Q67 28 38 59 Q9 90 0 119 L18 200 L171 200 Q175 165 200 145 Q225 125 265 125 Q326 125 360 171 L375 239 Q371 252 356 261.5 Q341 271 309 280 L254 297 Q169 320 131 346.5 Q93 373 74 415 L110 587 Q145 639 212 677 Q279 715 381 715 Q450 715 500 694.5 Q550 674 578.5 644.5 Q607 615 615 587 Z M450 744 L332 744 L335 760 L415 907 L567 907 L552 837 L450 744 Z " />
<glyph glyph-name="Scircumflex" unicode="&#x15c;" horiz-adv-x="592" d="M615 587 L598 507 L445 507 Q441 537 420 556 Q399 575 359 575 Q331 575 308.5 563 Q286 551 273 535 L258 470 Q262 458 274.5 450 Q287 442 317 433 L370 418 Q460 393 499.5 364 Q539 335 559 293 L522 120 Q485 64 419.5 24.5 Q354 -15 247 -15 Q172 -15 119.5 6.5 Q67 28 38 59 Q9 90 0 119 L18 200 L171 200 Q175 165 200 145 Q225 125 265 125 Q326 125 360 171 L375 239 Q371 252 356 261.5 Q341 271 309 280 L254 297 Q169 320 131 346.5 Q93 373 74 415 L110 587 Q145 639 212 677 Q279 715 381 715 Q450 715 500 694.5 Q550 674 578.5 644.5 Q607 615 615 587 Z M589 744 L475 744 L430 836 L347 744 L224 744 L227 760 L335 907 L548 907 L593 760 L589 744 Z " />
<glyph glyph-name="Scaron" unicode="&#x160;" horiz-adv-x="592" d="M615 587 L598 507 L445 507 Q441 537 420 556 Q399 575 359 575 Q331 575 308.5 563 Q286 551 273 535 L258 470 Q262 458 274.5 450 Q287 442 317 433 L370 418 Q460 393 499.5 364 Q539 335 559 293 L522 120 Q485 64 419.5 24.5 Q354 -15 247 -15 Q172 -15 119.5 6.5 Q67 28 38 59 Q9 90 0 119 L18 200 L171 200 Q175 165 200 145 Q225 125 265 125 Q326 125 360 171 L375 239 Q371 252 356 261.5 Q341 271 309 280 L254 297 Q169 320 131 346.5 Q93 373 74 415 L110 587 Q145 639 212 677 Q279 715 381 715 Q450 715 500 694.5 Q550 674 578.5 644.5 Q607 615 615 587 Z M513 744 L300 744 L255 892 L259 907 L370 907 L415 815 L498 907 L624 907 L620 892 L513 744 Z " />
<glyph glyph-name="Scedilla" unicode="&#x15e;" horiz-adv-x="592" d="M273 535 L258 470 Q262 458 274.5 450 Q287 442 317 433 L370 418 Q460 393 499.5 364 Q539 335 559 293 L522 120 Q437 -7 270 -15 L255 -41 L263 -41 Q298 -41 318.5 -56 Q339 -71 342 -91 L325 -168 Q286 -231 185 -231 Q154 -231 127 -225.5 Q100 -220 83 -213 L121 -146 Q157 -155 188 -155 Q207 -155 221 -150 Q235 -145 240 -137 L245 -116 Q241 -101 202 -101 L142 -101 L191 -11 Q109 0 60.5 39 Q12 78 0 119 L18 200 L171 200 Q175 165 200 145 Q225 125 265 125 Q326 125 360 171 L375 239 Q371 252 356 261.5 Q341 271 309 280 L254 297 Q169 320 131 346.5 Q93 373 74 415 L110 587 Q145 639 212 677 Q279 715 381 715 Q450 715 500 694.5 Q550 674 578.5 644.5 Q607 615 615 587 L598 507 L445 507 Q441 537 420 556 Q399 575 359 575 Q331 575 308.5 563 Q286 551 273 535 Z " />
<glyph glyph-name="Scommaaccent" unicode="&#x218;" horiz-adv-x="592" d="M615 587 L598 507 L445 507 Q441 537 420 556 Q399 575 359 575 Q331 575 308.5 563 Q286 551 273 535 L258 470 Q262 458 274.5 450 Q287 442 317 433 L370 418 Q460 393 499.5 364 Q539 335 559 293 L522 120 Q485 64 419.5 24.5 Q354 -15 247 -15 Q172 -15 119.5 6.5 Q67 28 38 59 Q9 90 0 119 L18 200 L171 200 Q175 165 200 145 Q225 125 265 125 Q326 125 360 171 L375 239 Q371 252 356 261.5 Q341 271 309 280 L254 297 Q169 320 131 346.5 Q93 373 74 415 L110 587 Q145 639 212 677 Q279 715 381 715 Q450 715 500 694.5 Q550 674 578.5 644.5 Q607 615 615 587 Z M122 -192 L160 -192 Q195 -192 206 -176 L210 -158 Q176 -158 154 -152.5 Q132 -147 127 -137 L141 -71 Q150 -61 172.5 -54 Q195 -47 229 -47 Q263 -47 283 -54 Q303 -61 310 -71 L288 -180 Q275 -208 245 -225.5 Q215 -243 168 -243 L111 -243 L122 -192 Z " />
<glyph glyph-name="Tcaron" unicode="&#x164;" horiz-adv-x="551" d="M588 563 L428 563 L308 0 L128 0 L248 563 L87 563 L116 700 L617 700 L588 563 Z M483 744 L270 744 L225 892 L229 907 L340 907 L385 815 L468 907 L594 907 L590 892 L483 744 Z " />
<glyph glyph-name="uni021A" unicode="&#x21a;" horiz-adv-x="551" d="M588 563 L428 563 L308 0 L128 0 L248 563 L87 563 L116 700 L617 700 L588 563 Z M98 -192 L136 -192 Q171 -192 182 -176 L186 -158 Q152 -158 130 -152.5 Q108 -147 103 -137 L117 -71 Q126 -61 148.5 -54 Q171 -47 205 -47 Q239 -47 259 -54 Q279 -61 286 -71 L264 -180 Q251 -208 221 -225.5 Q191 -243 144 -243 L87 -243 L98 -192 Z " />
<glyph glyph-name="Tbar" unicode="&#x166;" horiz-adv-x="551" d="M406 416 L518 416 L495 310 L384 310 L317 0 L137 0 L204 310 L95 310 L117 416 L226 416 L258 563 L97 563 L126 700 L627 700 L597 563 L438 563 L406 416 Z " />
<glyph glyph-name="Ugrave" unicode="&#xd9;" horiz-adv-x="638" d="M560 138 Q524 76 451 30.5 Q378 -15 269 -15 Q194 -15 141 8.5 Q88 32 59 67 Q30 102 21 138 L141 700 L321 700 L209 176 Q214 154 234 140 Q254 126 288 126 Q321 126 346.5 140 Q372 154 388 176 L500 700 L680 700 L560 138 Z M468 744 L354 744 L293 837 L309 907 L452 907 L472 760 L468 744 Z " />
<glyph glyph-name="Uacute" unicode="&#xda;" horiz-adv-x="638" d="M560 138 Q524 76 451 30.5 Q378 -15 269 -15 Q194 -15 141 8.5 Q88 32 59 67 Q30 102 21 138 L141 700 L321 700 L209 176 Q214 154 234 140 Q254 126 288 126 Q321 126 346.5 140 Q372 154 388 176 L500 700 L680 700 L560 138 Z M463 744 L345 744 L348 760 L428 907 L580 907 L565 837 L463 744 Z " />
<glyph glyph-name="Ucircumflex" unicode="&#xdb;" horiz-adv-x="638" d="M560 138 Q524 76 451 30.5 Q378 -15 269 -15 Q194 -15 141 8.5 Q88 32 59 67 Q30 102 21 138 L141 700 L321 700 L209 176 Q214 154 234 140 Q254 126 288 126 Q321 126 346.5 140 Q372 154 388 176 L500 700 L680 700 L560 138 Z M603 744 L489 744 L444 836 L361 744 L238 744 L241 760 L349 907 L562 907 L607 760 L603 744 Z " />
<glyph glyph-name="Utilde" unicode="&#x168;" horiz-adv-x="638" d="M560 138 Q524 76 451 30.5 Q378 -15 269 -15 Q194 -15 141 8.5 Q88 32 59 67 Q30 102 21 138 L141 700 L321 700 L209 176 Q214 154 234 140 Q254 126 288 126 Q321 126 346.5 140 Q372 154 388 176 L500 700 L680 700 L560 138 Z M460 864 Q471 855 479 850.5 Q487 846 498 846 Q524 846 535 870 L539 890 L635 890 L621 826 Q607 792 572 767.5 Q537 743 492 743 Q462 743 445.5 751 Q429 759 411 774 Q401 783 393 787.5 Q385 792 374 792 Q351 792 338 769 L334 748 L238 748 L252 812 Q265 847 299.5 871 Q334 895 379 895 Q408 895 425 887 Q442 879 460 864 Z " />
<glyph glyph-name="Udieresis" unicode="&#xdc;" horiz-adv-x="638" d="M560 138 Q524 76 451 30.5 Q378 -15 269 -15 Q194 -15 141 8.5 Q88 32 59 67 Q30 102 21 138 L141 700 L321 700 L209 176 Q214 154 234 140 Q254 126 288 126 Q321 126 346.5 140 Q372 154 388 176 L500 700 L680 700 L560 138 Z M414 863 L396 777 Q381 763 362 753.5 Q343 744 310 744 Q278 744 262.5 754 Q247 764 238 777 L256 863 Q272 876 291 885.5 Q310 895 342 895 Q374 895 389 885.5 Q404 876 414 863 Z M635 863 L617 777 Q584 744 531 744 Q499 744 483.5 754 Q468 764 459 777 L477 863 Q493 876 512 885.5 Q531 895 563 895 Q614 895 635 863 Z " />
<glyph glyph-name="Umacron" unicode="&#x16a;" horiz-adv-x="638" d="M560 138 Q524 76 451 30.5 Q378 -15 269 -15 Q194 -15 141 8.5 Q88 32 59 67 Q30 102 21 138 L141 700 L321 700 L209 176 Q214 154 234 140 Q254 126 288 126 Q321 126 346.5 140 Q372 154 388 176 L500 700 L680 700 L560 138 Z M601 756 L246 756 L269 865 L624 865 L601 756 Z " />
<glyph glyph-name="Ubreve" unicode="&#x16c;" horiz-adv-x="638" d="M560 138 Q524 76 451 30.5 Q378 -15 269 -15 Q194 -15 141 8.5 Q88 32 59 67 Q30 102 21 138 L141 700 L321 700 L209 176 Q214 154 234 140 Q254 126 288 126 Q321 126 346.5 140 Q372 154 388 176 L500 700 L680 700 L560 138 Z M619 831 Q594 788 546 763 Q498 738 431 738 Q361 738 316 763.5 Q271 789 256 831 L270 893 L391 893 L382 855 Q385 843 398 833.5 Q411 824 436 824 Q462 824 479.5 833.5 Q497 843 504 855 L512 893 L633 893 L619 831 Z " />
<glyph glyph-name="Uring" unicode="&#x16e;" horiz-adv-x="638" d="M680 700 L560 138 Q524 76 451 30.5 Q378 -15 269 -15 Q194 -15 141 8.5 Q88 32 59 67 Q30 102 21 138 L141 700 L321 700 L209 176 Q214 154 234 140 Q254 126 288 126 Q321 126 346.5 140 Q372 154 388 176 L500 699 Q463 679 415 679 Q369 679 335 697 Q301 715 290 745 L309 838 Q330 867 366.5 885 Q403 903 447 903 Q493 903 527 885 Q561 867 572 838 L553 745 Q532 716 502 700 L680 700 Z M493 816 Q490 825 477 832.5 Q464 840 442 840 Q420 840 403.5 832.5 Q387 825 380 816 L369 766 Q373 757 386 750 Q399 743 421 743 Q442 743 458 750 Q474 757 482 766 L493 816 Z " />
<glyph glyph-name="Uhungarumlaut" unicode="&#x170;" horiz-adv-x="638" d="M560 138 Q524 76 451 30.5 Q378 -15 269 -15 Q194 -15 141 8.5 Q88 32 59 67 Q30 102 21 138 L141 700 L321 700 L209 176 Q214 154 234 140 Q254 126 288 126 Q321 126 346.5 140 Q372 154 388 176 L500 700 L680 700 L560 138 Z M374 744 L267 744 L270 759 L337 907 L465 907 L451 849 L374 744 Z M575 744 L468 744 L471 759 L537 907 L665 907 L652 849 L575 744 Z " />
<glyph glyph-name="Uogonek" unicode="&#x172;" horiz-adv-x="638" d="M680 700 L560 138 Q532 91 474 43 Q413 -7 377 -43.5 Q341 -80 332 -97 L326 -120 Q330 -127 341 -131 Q352 -135 366 -135 Q383 -135 410 -128 L391 -215 Q363 -229 315 -229 Q273 -229 239.5 -214 Q206 -199 197 -173 L215 -92 Q225 -77 246.5 -55.5 Q268 -34 296 -14 Q287 -15 269 -15 Q194 -15 141 8.5 Q88 32 59 67 Q30 102 21 138 L141 700 L321 700 L209 176 Q214 154 234 140 Q254 126 288 126 Q321 126 346.5 140 Q372 154 388 176 L500 700 L680 700 Z " />
<glyph glyph-name="Wgrave" unicode="&#x1e80;" horiz-adv-x="926" d="M721 0 L498 0 L493 403 L490 403 L314 0 L89 0 L99 602 L120 700 L284 700 L262 213 L265 213 L474 700 L630 700 L633 213 L636 213 L821 700 L988 700 L967 602 L721 0 Z M617 744 L503 744 L442 837 L458 907 L601 907 L621 760 L617 744 Z " />
<glyph glyph-name="Wacute" unicode="&#x1e82;" horiz-adv-x="926" d="M721 0 L498 0 L493 403 L490 403 L314 0 L89 0 L99 602 L120 700 L284 700 L262 213 L265 213 L474 700 L630 700 L633 213 L636 213 L821 700 L988 700 L967 602 L721 0 Z M613 744 L495 744 L498 760 L578 907 L730 907 L715 837 L613 744 Z " />
<glyph glyph-name="Wcircumflex" unicode="&#x174;" horiz-adv-x="926" d="M721 0 L498 0 L493 403 L490 403 L314 0 L89 0 L99 602 L120 700 L284 700 L262 213 L265 213 L474 700 L630 700 L633 213 L636 213 L821 700 L988 700 L967 602 L721 0 Z M752 744 L638 744 L593 836 L510 744 L387 744 L390 760 L498 907 L711 907 L756 760 L752 744 Z " />
<glyph glyph-name="Wdieresis" unicode="&#x1e84;" horiz-adv-x="926" d="M721 0 L498 0 L493 403 L490 403 L314 0 L89 0 L99 602 L120 700 L284 700 L262 213 L265 213 L474 700 L630 700 L633 213 L636 213 L821 700 L988 700 L967 602 L721 0 Z M563 863 L545 777 Q530 763 511 753.5 Q492 744 459 744 Q427 744 411.5 754 Q396 764 387 777 L405 863 Q421 876 440 885.5 Q459 895 491 895 Q523 895 538 885.5 Q553 876 563 863 Z M784 863 L766 777 Q733 744 680 744 Q648 744 632.5 754 Q617 764 608 777 L626 863 Q642 876 661 885.5 Q680 895 712 895 Q763 895 784 863 Z " />
<glyph glyph-name="Ygrave" unicode="&#x1ef2;" horiz-adv-x="588" d="M380 269 L322 0 L141 0 L203 287 L96 602 L117 700 L262 700 L326 451 L329 451 L498 700 L654 700 L633 602 L380 269 Z M443 744 L329 744 L268 837 L284 907 L427 907 L447 760 L443 744 Z " />
<glyph glyph-name="Yacute" unicode="&#xdd;" horiz-adv-x="588" d="M380 269 L322 0 L141 0 L203 287 L96 602 L117 700 L262 700 L326 451 L329 451 L498 700 L654 700 L633 602 L380 269 Z M438 744 L320 744 L323 760 L403 907 L555 907 L540 837 L438 744 Z " />
<glyph glyph-name="Ycircumflex" unicode="&#x176;" horiz-adv-x="588" d="M380 269 L322 0 L141 0 L203 287 L96 602 L117 700 L262 700 L326 451 L329 451 L498 700 L654 700 L633 602 L380 269 Z M578 744 L464 744 L419 836 L336 744 L213 744 L216 760 L324 907 L537 907 L582 760 L578 744 Z " />
<glyph glyph-name="Ydieresis" unicode="&#x178;" horiz-adv-x="588" d="M380 269 L322 0 L141 0 L203 287 L96 602 L117 700 L262 700 L326 451 L329 451 L498 700 L654 700 L633 602 L380 269 Z M389 863 L371 777 Q356 763 337 753.5 Q318 744 285 744 Q253 744 237.5 754 Q222 764 213 777 L231 863 Q247 876 266 885.5 Q285 895 317 895 Q349 895 364 885.5 Q379 876 389 863 Z M610 863 L592 777 Q559 744 506 744 Q474 744 458.5 754 Q443 764 434 777 L452 863 Q468 876 487 885.5 Q506 895 538 895 Q589 895 610 863 Z " />
<glyph glyph-name="Zacute" unicode="&#x179;" horiz-adv-x="556" d="M224 137 L495 137 L465 0 L-26 0 L-1 116 L363 563 L98 563 L128 700 L615 700 L590 584 L224 137 Z M422 744 L304 744 L307 760 L387 907 L539 907 L524 837 L422 744 Z " />
<glyph glyph-name="Zcaron" unicode="&#x17d;" horiz-adv-x="556" d="M224 137 L495 137 L465 0 L-26 0 L-1 116 L363 563 L98 563 L128 700 L615 700 L590 584 L224 137 Z M486 744 L273 744 L228 892 L232 907 L343 907 L388 815 L471 907 L597 907 L593 892 L486 744 Z " />
<glyph glyph-name="Zdotaccent" unicode="&#x17b;" horiz-adv-x="556" d="M224 137 L495 137 L465 0 L-26 0 L-1 116 L363 563 L98 563 L128 700 L615 700 L590 584 L224 137 Z M491 859 L478 794 Q466 775 440.5 762 Q415 749 380 749 Q345 749 325.5 762 Q306 775 303 794 L316 859 Q328 878 353.5 891.5 Q379 905 413 905 Q448 905 468 891.5 Q488 878 491 859 Z " />
<glyph glyph-name="Eng" unicode="&#x14a;" horiz-adv-x="670" d="M553 -34 Q516 -103 442 -140 Q368 -177 266 -177 Q226 -177 212 -175 L241 -43 Q255 -45 278 -45 Q306 -45 330 -35.5 Q354 -26 370 -10 L256 425 L253 425 L162 0 L-5 0 L144 700 L336 700 L448 275 L451 275 L542 700 L709 700 L553 -34 Z " />
<glyph glyph-name="Eth" unicode="&#xd0;" horiz-adv-x="645" d="M664 562 L573 138 Q539 75 473 37.5 Q407 0 311 0 L9 0 L71 289 L32 289 L61 421 L99 421 L159 700 L440 700 Q539 700 594.5 659.5 Q650 619 664 562 Z M475 520 Q469 541 447.5 553 Q426 565 389 565 L310 565 L279 421 L377 421 L348 289 L251 289 L218 135 L299 135 Q335 135 361.5 148.5 Q388 162 402 184 L475 520 Z " />
<glyph glyph-name="Thorn" unicode="&#xde;" horiz-adv-x="598" d="M610 472 L564 257 Q522 195 464.5 166.5 Q407 138 326 138 L204 138 L175 0 L-5 0 L144 700 L324 700 L301 591 L399 591 Q475 591 529 561 Q583 531 610 472 Z M425 415 Q419 435 399 445.5 Q379 456 352 456 L272 456 L233 273 L311 273 Q375 273 404 316 L425 415 Z " />
<glyph glyph-name="a" unicode="a" horiz-adv-x="561" d="M551 422 L460 0 L300 0 L308 38 Q244 -15 165 -15 Q114 -15 77.5 -0.5 Q41 14 20 33 Q-1 52 -6 68 L30 240 Q52 274 101 303 Q150 332 220 332 L365 332 L377 389 Q372 406 354 417.5 Q336 429 309 429 Q248 429 220 380 L72 380 L88 453 Q116 491 173.5 525 Q231 559 326 559 Q393 559 441 537.5 Q489 516 516.5 484 Q544 452 551 422 Z M236 99 Q284 99 321 130 L341 224 L261 224 Q213 224 184 195 L170 128 Q176 117 192.5 108 Q209 99 236 99 Z " />
<glyph glyph-name="b" unicode="b" horiz-adv-x="564" d="M559 429 L492 115 Q463 65 411.5 27 Q360 -11 287 -11 Q200 -11 157 48 L147 0 L-14 0 L136 700 L302 700 L261 506 Q322 555 401 555 Q451 555 485.5 535 Q520 515 537.5 486.5 Q555 458 559 429 Z M383 391 Q379 403 363 414 Q347 425 319 425 Q271 425 237 397 L184 148 Q195 135 213 127 Q231 119 255 119 Q283 119 303 129 Q323 139 333 153 L383 391 Z " />
<glyph glyph-name="c" unicode="c" horiz-adv-x="545" d="M551 443 L536 371 L394 371 Q390 398 368.5 413.5 Q347 429 314 429 Q287 429 264.5 417 Q242 405 231 388 L180 154 Q185 137 204 125.5 Q223 114 251 114 Q314 114 349 173 L493 173 L477 97 Q448 56 389.5 20.5 Q331 -15 236 -15 Q168 -15 119 6 Q70 27 42 58.5 Q14 90 7 122 L71 422 Q103 478 168.5 518.5 Q234 559 332 559 Q398 559 445 539 Q492 519 517.5 492 Q543 465 551 443 Z " />
<glyph glyph-name="d" unicode="d" horiz-adv-x="564" d="M611 700 L461 0 L301 0 L311 43 Q252 -11 173 -11 Q122 -11 85.5 9 Q49 29 29 58 Q9 87 5 115 L73 429 Q98 478 150 516.5 Q202 555 275 555 Q358 555 402 504 L444 700 L611 700 Z M248 119 Q292 119 326 147 L380 400 Q357 425 309 425 Q282 425 261.5 414.5 Q241 404 231 391 L181 153 Q185 140 202 129.5 Q219 119 248 119 Z " />
<glyph glyph-name="e" unicode="e" horiz-adv-x="552" d="M551 442 L504 225 L196 225 L180 151 Q185 134 203.5 122.5 Q222 111 251 111 Q314 111 346 169 L492 169 L477 98 Q449 56 389.5 20.5 Q330 -15 234 -15 Q166 -15 117 6 Q68 27 41 58.5 Q14 90 7 122 L71 422 Q102 477 168 518 Q234 559 332 559 Q398 559 445.5 538.5 Q493 518 518.5 490.5 Q544 463 551 442 Z M231 391 L219 333 L373 333 L386 393 Q382 410 363 421.5 Q344 433 315 433 Q287 433 265 421 Q243 409 231 391 Z " />
<glyph glyph-name="f" unicode="f" horiz-adv-x="353" d="M442 718 L417 605 Q415 605 406.5 606 Q398 607 383 607 Q328 607 306 582 L297 544 L390 544 L364 423 L271 423 L181 0 L15 0 L105 423 L54 423 L79 544 L131 544 L150 635 Q171 674 222 702.5 Q273 731 346 731 Q408 731 442 718 Z " />
<glyph glyph-name="g" unicode="g" horiz-adv-x="564" d="M577 544 L451 -48 Q419 -105 354 -143 Q289 -181 189 -181 Q92 -181 38 -144 Q-16 -107 -33 -65 L-20 -4 L124 -4 Q132 -28 154 -40.5 Q176 -53 207 -53 Q265 -53 292 -14 L312 79 Q255 31 182 31 Q131 31 94.5 51 Q58 71 38 100 Q18 129 14 158 L73 429 Q100 479 151 517 Q202 555 275 555 Q362 555 408 497 L417 544 L577 544 Z M336 192 L381 399 Q370 410 351.5 417.5 Q333 425 309 425 Q282 425 261.5 414.5 Q241 404 231 391 L189 196 Q194 183 211 172.5 Q228 162 256 162 Q304 162 336 192 Z " />
<glyph glyph-name="h" unicode="h" horiz-adv-x="569" d="M559 429 L468 0 L301 0 L384 391 Q378 404 361 414.5 Q344 425 317 425 Q269 425 238 398 L153 0 L-14 0 L136 700 L302 700 L261 506 Q320 555 397 555 Q447 555 482.5 535.5 Q518 516 537 487 Q556 458 559 429 Z " />
<glyph glyph-name="i" unicode="i" horiz-adv-x="260" d="M155 0 L-11 0 L105 544 L271 544 L155 0 Z M311 706 L297 641 Q285 623 259.5 609.5 Q234 596 200 596 Q165 596 145.5 609 Q126 622 123 641 L137 706 Q149 725 174 738.5 Q199 752 234 752 Q269 752 288 738.5 Q307 725 311 706 Z " />
<glyph glyph-name="j" unicode="j" horiz-adv-x="256" d="M143 -46 Q114 -107 45 -143.5 Q-24 -180 -129 -180 L-103 -53 Q-75 -53 -50.5 -37.5 Q-26 -22 -14 -1 L102 544 L269 544 L143 -46 Z M309 706 L295 641 Q283 623 257.5 609.5 Q232 596 198 596 Q163 596 143.5 609 Q124 622 121 641 L135 706 Q147 725 172 738.5 Q197 752 232 752 Q267 752 286 738.5 Q305 725 309 706 Z " />
<glyph glyph-name="k" unicode="k" horiz-adv-x="550" d="M472 0 L346 0 L255 209 L185 149 L153 0 L-14 0 L136 700 L302 700 L229 358 L441 544 L562 544 L543 454 L388 322 L491 89 L472 0 Z " />
<glyph glyph-name="l" unicode="l" horiz-adv-x="255" d="M153 0 L-14 0 L136 700 L303 700 L153 0 Z " />
<glyph glyph-name="m" unicode="m" horiz-adv-x="837" d="M828 432 L736 0 L569 0 L654 395 Q650 407 636 416 Q622 425 598 425 Q559 425 531 403 L445 0 L278 0 L363 395 Q358 407 344.5 416 Q331 425 307 425 Q266 425 238 401 L153 0 L-14 0 L102 544 L257 544 L246 494 Q304 555 386 555 Q436 555 469 535 Q502 515 520 484 Q587 555 678 555 Q727 555 760 536 Q793 517 809 488.5 Q825 460 828 432 Z " />
<glyph glyph-name="n" unicode="n" horiz-adv-x="568" d="M559 429 L467 0 L300 0 L383 391 Q378 404 361.5 414.5 Q345 425 318 425 Q292 425 271.5 417 Q251 409 237 396 L153 0 L-14 0 L102 544 L257 544 L246 494 Q310 555 395 555 Q446 555 481.5 535.5 Q517 516 536 487 Q555 458 559 429 Z " />
<glyph glyph-name="o" unicode="o" horiz-adv-x="566" d="M559 422 L494 122 Q461 66 397 25.5 Q333 -15 234 -15 Q166 -15 117.5 6 Q69 27 41.5 58.5 Q14 90 7 122 L71 422 Q104 478 168.5 518.5 Q233 559 332 559 Q400 559 449 537.5 Q498 516 525 484.5 Q552 453 559 422 Z M231 387 L180 154 Q185 137 203.5 125.5 Q222 114 250 114 Q280 114 302 126.5 Q324 139 335 157 L386 389 Q382 406 363 417.5 Q344 429 315 429 Q286 429 264 417 Q242 405 231 387 Z " />
<glyph glyph-name="p" unicode="p" horiz-adv-x="564" d="M559 429 L492 115 Q463 65 411.5 27 Q360 -11 287 -11 Q205 -11 161 42 L116 -166 L-50 -166 L102 544 L263 544 L254 500 Q318 555 401 555 Q451 555 485.5 535 Q520 515 537.5 486.5 Q555 458 559 429 Z M383 391 Q379 403 363 414 Q347 425 319 425 Q270 425 238 398 L184 147 Q195 135 213 127 Q231 119 255 119 Q283 119 303 129 Q323 139 333 153 L383 391 Z " />
<glyph glyph-name="q" unicode="q" horiz-adv-x="564" d="M577 544 L425 -166 L258 -166 L301 35 Q246 -11 173 -11 Q122 -11 85.5 9 Q49 29 29 58 Q9 87 5 115 L73 429 Q100 479 151 517 Q202 555 275 555 Q362 555 407 498 L417 544 L577 544 Z M326 147 L380 400 Q357 425 309 425 Q282 425 261.5 414.5 Q241 404 231 391 L181 153 Q185 140 202 129.5 Q219 119 248 119 Q292 119 326 147 Z " />
<glyph glyph-name="r" unicode="r" horiz-adv-x="387" d="M424 544 L392 390 Q381 391 366 391 Q319 391 284 381 Q249 371 229 356 L153 0 L-14 0 L102 544 L257 544 L241 469 Q270 505 306 525 Q342 545 394 545 Q416 545 424 544 Z " />
<glyph glyph-name="s" unicode="s" horiz-adv-x="513" d="M516 458 L502 394 L362 394 Q357 414 337.5 426.5 Q318 439 290 439 Q265 439 247.5 431.5 Q230 424 221 412 L211 370 Q219 351 263 341 L311 330 Q388 312 423 288.5 Q458 265 475 236 L443 91 Q415 50 358 17.5 Q301 -15 210 -15 Q144 -15 97.5 3 Q51 21 25.5 45.5 Q0 70 -9 91 L5 154 L148 154 Q155 130 174.5 117 Q194 104 225 104 Q250 104 269 113.5 Q288 123 300 137 L309 179 Q301 199 256 210 L208 220 Q133 236 98.5 260 Q64 284 46 315 L77 458 Q105 495 162 527 Q219 559 307 559 Q395 559 447 526.5 Q499 494 516 458 Z " />
<glyph glyph-name="t" unicode="t" horiz-adv-x="366" d="M272 423 L211 139 Q226 114 281 114 Q294 114 302 115 Q310 116 313 116 L288 0 Q249 -13 200 -13 Q123 -13 83.5 15 Q44 43 33 83 L106 423 L54 423 L79 544 L131 544 L156 656 L322 656 L298 544 L390 544 L364 423 L272 423 Z " />
<glyph glyph-name="u" unicode="u" horiz-adv-x="563" d="M576 544 L460 0 L306 0 L316 47 Q258 -11 173 -11 Q123 -11 86.5 9 Q50 29 31 58 Q12 87 9 114 L101 544 L267 544 L184 153 Q188 141 205 130 Q222 119 249 119 Q295 119 325 145 L410 544 L576 544 Z " />
<glyph glyph-name="v" unicode="v" horiz-adv-x="543" d="M316 0 L111 0 L66 454 L85 544 L233 544 L248 177 L251 177 L424 544 L574 544 L555 454 L316 0 Z " />
<glyph glyph-name="w" unicode="w" horiz-adv-x="805" d="M603 0 L423 0 L411 296 L408 296 L274 0 L88 0 L68 454 L87 544 L236 544 L229 185 L232 185 L392 544 L532 544 L537 185 L540 185 L688 544 L836 544 L817 454 L603 0 Z " />
<glyph glyph-name="x" unicode="x" horiz-adv-x="526" d="M380 277 L460 90 L442 0 L300 0 L252 182 L249 182 L123 0 L-31 0 L-12 90 L149 279 L73 454 L92 544 L231 544 L277 372 L280 372 L397 544 L550 544 L531 454 L380 277 Z " />
<glyph glyph-name="y" unicode="y" horiz-adv-x="537" d="M413 544 L569 544 L550 454 L250 -101 Q214 -140 163.5 -158.5 Q113 -177 38 -177 Q12 -177 -13 -173.5 Q-38 -170 -53 -166 L-27 -48 Q-3 -50 19 -50 Q84 -50 119 -21 L135 11 L66 453 L85 544 L230 544 L255 217 L258 217 L413 544 Z " />
<glyph glyph-name="z" unicode="z" horiz-adv-x="492" d="M193 123 L434 123 L407 0 L-32 0 L-8 114 L291 421 L66 421 L92 544 L523 544 L501 437 L193 123 Z " />
<glyph glyph-name="agrave" unicode="&#xe0;" horiz-adv-x="561" d="M551 422 L460 0 L300 0 L308 38 Q244 -15 165 -15 Q114 -15 77.5 -0.5 Q41 14 20 33 Q-1 52 -6 68 L30 240 Q52 274 101 303 Q150 332 220 332 L365 332 L377 389 Q372 406 354 417.5 Q336 429 309 429 Q248 429 220 380 L72 380 L88 453 Q116 491 173.5 525 Q231 559 326 559 Q393 559 441 537.5 Q489 516 516.5 484 Q544 452 551 422 Z M236 99 Q284 99 321 130 L341 224 L261 224 Q213 224 184 195 L170 128 Q176 117 192.5 108 Q209 99 236 99 Z M418 602 L298 602 L238 697 L253 768 L402 768 L420 617 L418 602 Z " />
<glyph glyph-name="aacute" unicode="&#xe1;" horiz-adv-x="561" d="M551 422 L460 0 L300 0 L308 38 Q244 -15 165 -15 Q114 -15 77.5 -0.5 Q41 14 20 33 Q-1 52 -6 68 L30 240 Q52 274 101 303 Q150 332 220 332 L365 332 L377 389 Q372 406 354 417.5 Q336 429 309 429 Q248 429 220 380 L72 380 L88 453 Q116 491 173.5 525 Q231 559 326 559 Q393 559 441 537.5 Q489 516 516.5 484 Q544 452 551 422 Z M236 99 Q284 99 321 130 L341 224 L261 224 Q213 224 184 195 L170 128 Q176 117 192.5 108 Q209 99 236 99 Z M419 602 L289 602 L292 617 L375 768 L536 768 L520 697 L419 602 Z " />
<glyph glyph-name="acircumflex" unicode="&#xe2;" horiz-adv-x="561" d="M551 422 L460 0 L300 0 L308 38 Q244 -15 165 -15 Q114 -15 77.5 -0.5 Q41 14 20 33 Q-1 52 -6 68 L30 240 Q52 274 101 303 Q150 332 220 332 L365 332 L377 389 Q372 406 354 417.5 Q336 429 309 429 Q248 429 220 380 L72 380 L88 453 Q116 491 173.5 525 Q231 559 326 559 Q393 559 441 537.5 Q489 516 516.5 484 Q544 452 551 422 Z M236 99 Q284 99 321 130 L341 224 L261 224 Q213 224 184 195 L170 128 Q176 117 192.5 108 Q209 99 236 99 Z M537 598 L423 598 L380 693 L295 598 L172 598 L175 614 L284 764 L497 764 L541 614 L537 598 Z " />
<glyph glyph-name="atilde" unicode="&#xe3;" horiz-adv-x="561" d="M551 422 L460 0 L300 0 L308 38 Q244 -15 165 -15 Q114 -15 77.5 -0.5 Q41 14 20 33 Q-1 52 -6 68 L30 240 Q52 274 101 303 Q150 332 220 332 L365 332 L377 389 Q372 406 354 417.5 Q336 429 309 429 Q248 429 220 380 L72 380 L88 453 Q116 491 173.5 525 Q231 559 326 559 Q393 559 441 537.5 Q489 516 516.5 484 Q544 452 551 422 Z M236 99 Q284 99 321 130 L341 224 L261 224 Q213 224 184 195 L170 128 Q176 117 192.5 108 Q209 99 236 99 Z M392 722 Q407 712 416 707.5 Q425 703 436 703 Q459 703 471 726 L475 747 L570 747 L556 683 Q542 648 510.5 624 Q479 600 436 600 Q407 600 388.5 608 Q370 616 351 630 Q335 640 326.5 644.5 Q318 649 307 649 Q284 649 273 626 L269 605 L174 605 L187 669 Q201 705 232.5 728.5 Q264 752 307 752 Q335 752 354 744 Q373 736 392 722 Z " />
<glyph glyph-name="adieresis" unicode="&#xe4;" horiz-adv-x="561" d="M551 422 L460 0 L300 0 L308 38 Q244 -15 165 -15 Q114 -15 77.5 -0.5 Q41 14 20 33 Q-1 52 -6 68 L30 240 Q52 274 101 303 Q150 332 220 332 L365 332 L377 389 Q372 406 354 417.5 Q336 429 309 429 Q248 429 220 380 L72 380 L88 453 Q116 491 173.5 525 Q231 559 326 559 Q393 559 441 537.5 Q489 516 516.5 484 Q544 452 551 422 Z M236 99 Q284 99 321 130 L341 224 L261 224 Q213 224 184 195 L170 128 Q176 117 192.5 108 Q209 99 236 99 Z M347 717 L328 627 Q295 594 242 594 Q190 594 170 627 L190 717 Q222 749 275 749 Q328 749 347 717 Z M571 717 L552 627 Q537 614 517.5 604 Q498 594 466 594 Q414 594 394 627 L413 717 Q445 749 499 749 Q531 749 546.5 739.5 Q562 730 571 717 Z " />
<glyph glyph-name="amacron" unicode="&#x101;" horiz-adv-x="561" d="M551 422 L460 0 L300 0 L308 38 Q244 -15 165 -15 Q114 -15 77.5 -0.5 Q41 14 20 33 Q-1 52 -6 68 L30 240 Q52 274 101 303 Q150 332 220 332 L365 332 L377 389 Q372 406 354 417.5 Q336 429 309 429 Q248 429 220 380 L72 380 L88 453 Q116 491 173.5 525 Q231 559 326 559 Q393 559 441 537.5 Q489 516 516.5 484 Q544 452 551 422 Z M236 99 Q284 99 321 130 L341 224 L261 224 Q213 224 184 195 L170 128 Q176 117 192.5 108 Q209 99 236 99 Z M537 619 L181 619 L205 728 L560 728 L537 619 Z " />
<glyph glyph-name="abreve" unicode="&#x103;" horiz-adv-x="561" d="M551 422 L460 0 L300 0 L308 38 Q244 -15 165 -15 Q114 -15 77.5 -0.5 Q41 14 20 33 Q-1 52 -6 68 L30 240 Q52 274 101 303 Q150 332 220 332 L365 332 L377 389 Q372 406 354 417.5 Q336 429 309 429 Q248 429 220 380 L72 380 L88 453 Q116 491 173.5 525 Q231 559 326 559 Q393 559 441 537.5 Q489 516 516.5 484 Q544 452 551 422 Z M236 99 Q284 99 321 130 L341 224 L261 224 Q213 224 184 195 L170 128 Q176 117 192.5 108 Q209 99 236 99 Z M555 687 Q529 644 480.5 618.5 Q432 593 366 593 Q297 593 252 619 Q207 645 192 687 L205 748 L326 748 L318 710 Q320 699 333 689 Q346 679 372 679 Q398 679 415 688.5 Q432 698 439 710 L448 748 L568 748 L555 687 Z " />
<glyph glyph-name="aring" unicode="&#xe5;" horiz-adv-x="561" d="M551 422 L460 0 L300 0 L308 38 Q244 -15 165 -15 Q114 -15 77.5 -0.5 Q41 14 20 33 Q-1 52 -6 68 L30 240 Q52 274 101 303 Q150 332 220 332 L365 332 L377 389 Q372 406 354 417.5 Q336 429 309 429 Q248 429 220 380 L72 380 L88 453 Q116 491 173.5 525 Q231 559 326 559 Q393 559 441 537.5 Q489 516 516.5 484 Q544 452 551 422 Z M236 99 Q284 99 321 130 L341 224 L261 224 Q213 224 184 195 L170 128 Q176 117 192.5 108 Q209 99 236 99 Z M518 753 L498 655 Q476 625 440.5 607.5 Q405 590 360 590 Q314 590 280 608 Q246 626 235 655 L255 753 Q276 783 312.5 801 Q349 819 393 819 Q438 819 472.5 801 Q507 783 518 753 Z M326 731 L314 677 Q318 668 331 660.5 Q344 653 366 653 Q388 653 404 660.5 Q420 668 427 677 L439 731 Q435 740 422 747.5 Q409 755 387 755 Q365 755 349 747.5 Q333 740 326 731 Z " />
<glyph glyph-name="aogonek" unicode="&#x105;" horiz-adv-x="561" d="M355 -97 L349 -120 Q353 -127 364 -131 Q375 -135 389 -135 Q406 -135 433 -128 L414 -215 Q386 -229 338 -229 Q296 -229 262.5 -214 Q229 -199 220 -173 L238 -92 Q249 -74 277 -48 Q305 -22 341 0 L300 0 L308 38 Q244 -15 165 -15 Q114 -15 77.5 -0.5 Q41 14 20 33 Q-1 52 -6 68 L30 240 Q52 274 101 303 Q150 332 220 332 L365 332 L377 389 Q372 406 354 417.5 Q336 429 309 429 Q248 429 220 380 L72 380 L88 453 Q116 491 173.5 525 Q231 559 326 559 Q393 559 441 537.5 Q489 516 516.5 484 Q544 452 551 422 L460 0 Q383 -55 355 -97 Z M236 99 Q284 99 321 130 L341 224 L261 224 Q213 224 184 195 L170 128 Q176 117 192.5 108 Q209 99 236 99 Z " />
<glyph glyph-name="ae" unicode="&#xe6;" horiz-adv-x="865" d="M509 225 L493 151 Q497 134 515.5 122.5 Q534 111 563 111 Q628 111 658 169 L805 169 L790 98 Q763 56 703 20.5 Q643 -15 546 -15 Q488 -15 443.5 1 Q399 17 369 44 Q292 -15 184 -15 Q102 -15 56.5 12 Q11 39 -6 68 L30 240 Q52 274 101 303.5 Q150 333 220 333 L365 333 L378 393 Q371 408 353 418.5 Q335 429 309 429 Q248 429 220 380 L72 380 L88 453 Q116 491 173.5 525 Q231 559 326 559 Q416 559 479 517 Q550 559 645 559 Q711 559 758 538.5 Q805 518 831 490.5 Q857 463 864 442 L817 225 L509 225 Z M544 391 L532 333 L686 333 L699 393 Q694 410 675.5 421.5 Q657 433 628 433 Q600 433 578 421 Q556 409 544 391 Z M236 99 Q284 99 321 130 L342 225 L261 225 Q214 225 184 195 L170 128 Q176 117 193 108 Q210 99 236 99 Z " />
<glyph glyph-name="cacute" unicode="&#x107;" horiz-adv-x="545" d="M551 443 L536 371 L394 371 Q390 398 368.5 413.5 Q347 429 314 429 Q287 429 264.5 417 Q242 405 231 388 L180 154 Q185 137 204 125.5 Q223 114 251 114 Q314 114 349 173 L493 173 L477 97 Q448 56 389.5 20.5 Q331 -15 236 -15 Q168 -15 119 6 Q70 27 42 58.5 Q14 90 7 122 L71 422 Q103 478 168.5 518.5 Q234 559 332 559 Q398 559 445 539 Q492 519 517.5 492 Q543 465 551 443 Z M419 602 L289 602 L292 617 L375 768 L536 768 L520 697 L419 602 Z " />
<glyph glyph-name="ccircumflex" unicode="&#x109;" horiz-adv-x="545" d="M551 443 L536 371 L394 371 Q390 398 368.5 413.5 Q347 429 314 429 Q287 429 264.5 417 Q242 405 231 388 L180 154 Q185 137 204 125.5 Q223 114 251 114 Q314 114 349 173 L493 173 L477 97 Q448 56 389.5 20.5 Q331 -15 236 -15 Q168 -15 119 6 Q70 27 42 58.5 Q14 90 7 122 L71 422 Q103 478 168.5 518.5 Q234 559 332 559 Q398 559 445 539 Q492 519 517.5 492 Q543 465 551 443 Z M537 598 L423 598 L380 693 L295 598 L172 598 L175 614 L284 764 L497 764 L541 614 L537 598 Z " />
<glyph glyph-name="ccaron" unicode="&#x10d;" horiz-adv-x="545" d="M551 443 L536 371 L394 371 Q390 398 368.5 413.5 Q347 429 314 429 Q287 429 264.5 417 Q242 405 231 388 L180 154 Q185 137 204 125.5 Q223 114 251 114 Q314 114 349 173 L493 173 L477 97 Q448 56 389.5 20.5 Q331 -15 236 -15 Q168 -15 119 6 Q70 27 42 58.5 Q14 90 7 122 L71 422 Q103 478 168.5 518.5 Q234 559 332 559 Q398 559 445 539 Q492 519 517.5 492 Q543 465 551 443 Z M461 598 L248 598 L204 749 L208 764 L319 764 L364 669 L447 764 L573 764 L569 749 L461 598 Z " />
<glyph glyph-name="cdotaccent" unicode="&#x10b;" horiz-adv-x="545" d="M551 443 L536 371 L394 371 Q390 398 368.5 413.5 Q347 429 314 429 Q287 429 264.5 417 Q242 405 231 388 L180 154 Q185 137 204 125.5 Q223 114 251 114 Q314 114 349 173 L493 173 L477 97 Q448 56 389.5 20.5 Q331 -15 236 -15 Q168 -15 119 6 Q70 27 42 58.5 Q14 90 7 122 L71 422 Q103 478 168.5 518.5 Q234 559 332 559 Q398 559 445 539 Q492 519 517.5 492 Q543 465 551 443 Z M465 706 L451 641 Q439 623 413.5 609.5 Q388 596 354 596 Q319 596 299.5 609 Q280 622 277 641 L291 706 Q303 725 328 738.5 Q353 752 388 752 Q423 752 442 738.5 Q461 725 465 706 Z " />
<glyph glyph-name="ccedilla" unicode="&#xe7;" horiz-adv-x="545" d="M231 388 L180 154 Q185 137 204 125.5 Q223 114 251 114 Q314 114 349 173 L493 173 L477 97 Q449 57 393 22.5 Q337 -12 247 -15 L232 -41 L240 -41 Q275 -41 295.5 -56 Q316 -71 319 -91 L302 -168 Q263 -231 162 -231 Q131 -231 104 -225.5 Q77 -220 60 -213 L98 -146 Q134 -155 165 -155 Q184 -155 198 -150 Q212 -145 217 -137 L222 -116 Q218 -101 179 -101 L119 -101 L169 -9 Q100 5 58.5 43 Q17 81 7 122 L71 422 Q103 478 168.5 518.5 Q234 559 332 559 Q398 559 445 539 Q492 519 517.5 492 Q543 465 551 443 L536 371 L394 371 Q390 398 368.5 413.5 Q347 429 314 429 Q287 429 264.5 417 Q242 405 231 388 Z " />
<glyph glyph-name="dcaron" unicode="&#x10f;" horiz-adv-x="743" d="M611 700 L461 0 L301 0 L311 43 Q252 -11 173 -11 Q122 -11 85.5 9 Q49 29 29 58 Q9 87 5 115 L73 429 Q98 478 150 516.5 Q202 555 275 555 Q358 555 402 504 L444 700 L611 700 Z M248 119 Q292 119 326 147 L380 400 Q357 425 309 425 Q282 425 261.5 414.5 Q241 404 231 391 L181 153 Q185 140 202 129.5 Q219 119 248 119 Z M794 615 L714 480 L617 480 L620 495 L685 700 L812 700 L794 615 Z " />
<glyph glyph-name="egrave" unicode="&#xe8;" horiz-adv-x="552" d="M551 442 L504 225 L196 225 L180 151 Q185 134 203.5 122.5 Q222 111 251 111 Q314 111 346 169 L492 169 L477 98 Q449 56 389.5 20.5 Q330 -15 234 -15 Q166 -15 117 6 Q68 27 41 58.5 Q14 90 7 122 L71 422 Q102 477 168 518 Q234 559 332 559 Q398 559 445.5 538.5 Q493 518 518.5 490.5 Q544 463 551 442 Z M231 391 L219 333 L373 333 L386 393 Q382 410 363 421.5 Q344 433 315 433 Q287 433 265 421 Q243 409 231 391 Z M421 602 L301 602 L241 697 L256 768 L405 768 L423 617 L421 602 Z " />
<glyph glyph-name="eacute" unicode="&#xe9;" horiz-adv-x="552" d="M551 442 L504 225 L196 225 L180 151 Q185 134 203.5 122.5 Q222 111 251 111 Q314 111 346 169 L492 169 L477 98 Q449 56 389.5 20.5 Q330 -15 234 -15 Q166 -15 117 6 Q68 27 41 58.5 Q14 90 7 122 L71 422 Q102 477 168 518 Q234 559 332 559 Q398 559 445.5 538.5 Q493 518 518.5 490.5 Q544 463 551 442 Z M231 391 L219 333 L373 333 L386 393 Q382 410 363 421.5 Q344 433 315 433 Q287 433 265 421 Q243 409 231 391 Z M421 602 L291 602 L294 617 L377 768 L538 768 L522 697 L421 602 Z " />
<glyph glyph-name="ecircumflex" unicode="&#xea;" horiz-adv-x="552" d="M551 442 L504 225 L196 225 L180 151 Q185 134 203.5 122.5 Q222 111 251 111 Q314 111 346 169 L492 169 L477 98 Q449 56 389.5 20.5 Q330 -15 234 -15 Q166 -15 117 6 Q68 27 41 58.5 Q14 90 7 122 L71 422 Q102 477 168 518 Q234 559 332 559 Q398 559 445.5 538.5 Q493 518 518.5 490.5 Q544 463 551 442 Z M231 391 L219 333 L373 333 L386 393 Q382 410 363 421.5 Q344 433 315 433 Q287 433 265 421 Q243 409 231 391 Z M539 598 L425 598 L382 693 L297 598 L174 598 L177 614 L286 764 L499 764 L543 614 L539 598 Z " />
<glyph glyph-name="ecaron" unicode="&#x11b;" horiz-adv-x="552" d="M551 442 L504 225 L196 225 L180 151 Q185 134 203.5 122.5 Q222 111 251 111 Q314 111 346 169 L492 169 L477 98 Q449 56 389.5 20.5 Q330 -15 234 -15 Q166 -15 117 6 Q68 27 41 58.5 Q14 90 7 122 L71 422 Q102 477 168 518 Q234 559 332 559 Q398 559 445.5 538.5 Q493 518 518.5 490.5 Q544 463 551 442 Z M231 391 L219 333 L373 333 L386 393 Q382 410 363 421.5 Q344 433 315 433 Q287 433 265 421 Q243 409 231 391 Z M463 598 L250 598 L206 749 L210 764 L321 764 L366 669 L449 764 L575 764 L571 749 L463 598 Z " />
<glyph glyph-name="edieresis" unicode="&#xeb;" horiz-adv-x="552" d="M551 442 L504 225 L196 225 L180 151 Q185 134 203.5 122.5 Q222 111 251 111 Q314 111 346 169 L492 169 L477 98 Q449 56 389.5 20.5 Q330 -15 234 -15 Q166 -15 117 6 Q68 27 41 58.5 Q14 90 7 122 L71 422 Q102 477 168 518 Q234 559 332 559 Q398 559 445.5 538.5 Q493 518 518.5 490.5 Q544 463 551 442 Z M231 391 L219 333 L373 333 L386 393 Q382 410 363 421.5 Q344 433 315 433 Q287 433 265 421 Q243 409 231 391 Z M349 717 L330 627 Q297 594 244 594 Q192 594 172 627 L192 717 Q224 749 277 749 Q330 749 349 717 Z M573 717 L554 627 Q539 614 519.5 604 Q500 594 468 594 Q416 594 396 627 L415 717 Q447 749 501 749 Q533 749 548.5 739.5 Q564 730 573 717 Z " />
<glyph glyph-name="emacron" unicode="&#x113;" horiz-adv-x="552" d="M551 442 L504 225 L196 225 L180 151 Q185 134 203.5 122.5 Q222 111 251 111 Q314 111 346 169 L492 169 L477 98 Q449 56 389.5 20.5 Q330 -15 234 -15 Q166 -15 117 6 Q68 27 41 58.5 Q14 90 7 122 L71 422 Q102 477 168 518 Q234 559 332 559 Q398 559 445.5 538.5 Q493 518 518.5 490.5 Q544 463 551 442 Z M231 391 L219 333 L373 333 L386 393 Q382 410 363 421.5 Q344 433 315 433 Q287 433 265 421 Q243 409 231 391 Z M540 619 L184 619 L208 728 L563 728 L540 619 Z " />
<glyph glyph-name="ebreve" unicode="&#x115;" horiz-adv-x="552" d="M551 442 L504 225 L196 225 L180 151 Q185 134 203.5 122.5 Q222 111 251 111 Q314 111 346 169 L492 169 L477 98 Q449 56 389.5 20.5 Q330 -15 234 -15 Q166 -15 117 6 Q68 27 41 58.5 Q14 90 7 122 L71 422 Q102 477 168 518 Q234 559 332 559 Q398 559 445.5 538.5 Q493 518 518.5 490.5 Q544 463 551 442 Z M231 391 L219 333 L373 333 L386 393 Q382 410 363 421.5 Q344 433 315 433 Q287 433 265 421 Q243 409 231 391 Z M557 687 Q531 644 482.5 618.5 Q434 593 368 593 Q299 593 254 619 Q209 645 194 687 L207 748 L328 748 L320 710 Q322 699 335 689 Q348 679 374 679 Q400 679 417 688.5 Q434 698 441 710 L450 748 L570 748 L557 687 Z " />
<glyph glyph-name="edotaccent" unicode="&#x117;" horiz-adv-x="552" d="M551 442 L504 225 L196 225 L180 151 Q185 134 203.5 122.5 Q222 111 251 111 Q314 111 346 169 L492 169 L477 98 Q449 56 389.5 20.5 Q330 -15 234 -15 Q166 -15 117 6 Q68 27 41 58.5 Q14 90 7 122 L71 422 Q102 477 168 518 Q234 559 332 559 Q398 559 445.5 538.5 Q493 518 518.5 490.5 Q544 463 551 442 Z M231 391 L219 333 L373 333 L386 393 Q382 410 363 421.5 Q344 433 315 433 Q287 433 265 421 Q243 409 231 391 Z M468 706 L454 641 Q442 623 416.5 609.5 Q391 596 357 596 Q322 596 302.5 609 Q283 622 280 641 L294 706 Q306 725 331 738.5 Q356 752 391 752 Q426 752 445 738.5 Q464 725 468 706 Z " />
<glyph glyph-name="eogonek" unicode="&#x119;" horiz-adv-x="552" d="M196 225 L180 151 Q185 134 203.5 122.5 Q222 111 251 111 Q314 111 346 169 L492 169 L477 98 Q469 84 432 47 Q393 8 364.5 -33 Q336 -74 327 -97 L321 -120 Q325 -127 336 -131 Q347 -135 361 -135 Q378 -135 405 -128 L386 -215 Q358 -229 309 -229 Q267 -229 233.5 -214 Q200 -199 192 -173 L210 -92 Q224 -62 278 -13 Q263 -15 234 -15 Q166 -15 117 6 Q68 27 41 58.5 Q14 90 7 122 L71 422 Q102 477 168 518 Q234 559 332 559 Q398 559 445.5 538.5 Q493 518 518.5 490.5 Q544 463 551 442 L504 225 L196 225 Z M219 333 L373 333 L386 393 Q382 410 363 421.5 Q344 433 315 433 Q287 433 265 421 Q243 409 231 391 L219 333 Z " />
<glyph glyph-name="gcircumflex" unicode="&#x11d;" horiz-adv-x="564" d="M577 544 L451 -48 Q419 -105 354 -143 Q289 -181 189 -181 Q92 -181 38 -144 Q-16 -107 -33 -65 L-20 -4 L124 -4 Q132 -28 154 -40.5 Q176 -53 207 -53 Q265 -53 292 -14 L312 79 Q255 31 182 31 Q131 31 94.5 51 Q58 71 38 100 Q18 129 14 158 L73 429 Q100 479 151 517 Q202 555 275 555 Q362 555 408 497 L417 544 L577 544 Z M336 192 L381 399 Q370 410 351.5 417.5 Q333 425 309 425 Q282 425 261.5 414.5 Q241 404 231 391 L189 196 Q194 183 211 172.5 Q228 162 256 162 Q304 162 336 192 Z M534 598 L420 598 L377 693 L292 598 L169 598 L172 614 L281 764 L494 764 L538 614 L534 598 Z " />
<glyph glyph-name="gbreve" unicode="&#x11f;" horiz-adv-x="564" d="M577 544 L451 -48 Q419 -105 354 -143 Q289 -181 189 -181 Q92 -181 38 -144 Q-16 -107 -33 -65 L-20 -4 L124 -4 Q132 -28 154 -40.5 Q176 -53 207 -53 Q265 -53 292 -14 L312 79 Q255 31 182 31 Q131 31 94.5 51 Q58 71 38 100 Q18 129 14 158 L73 429 Q100 479 151 517 Q202 555 275 555 Q362 555 408 497 L417 544 L577 544 Z M336 192 L381 399 Q370 410 351.5 417.5 Q333 425 309 425 Q282 425 261.5 414.5 Q241 404 231 391 L189 196 Q194 183 211 172.5 Q228 162 256 162 Q304 162 336 192 Z M552 687 Q526 644 477.5 618.5 Q429 593 363 593 Q294 593 249 619 Q204 645 189 687 L202 748 L323 748 L315 710 Q317 699 330 689 Q343 679 369 679 Q395 679 412 688.5 Q429 698 436 710 L445 748 L565 748 L552 687 Z " />
<glyph glyph-name="gdotaccent" unicode="&#x121;" horiz-adv-x="564" d="M577 544 L451 -48 Q419 -105 354 -143 Q289 -181 189 -181 Q92 -181 38 -144 Q-16 -107 -33 -65 L-20 -4 L124 -4 Q132 -28 154 -40.5 Q176 -53 207 -53 Q265 -53 292 -14 L312 79 Q255 31 182 31 Q131 31 94.5 51 Q58 71 38 100 Q18 129 14 158 L73 429 Q100 479 151 517 Q202 555 275 555 Q362 555 408 497 L417 544 L577 544 Z M336 192 L381 399 Q370 410 351.5 417.5 Q333 425 309 425 Q282 425 261.5 414.5 Q241 404 231 391 L189 196 Q194 183 211 172.5 Q228 162 256 162 Q304 162 336 192 Z M463 706 L449 641 Q437 623 411.5 609.5 Q386 596 352 596 Q317 596 297.5 609 Q278 622 275 641 L289 706 Q301 725 326 738.5 Q351 752 386 752 Q421 752 440 738.5 Q459 725 463 706 Z " />
<glyph glyph-name="gcommaaccent" unicode="&#x123;" horiz-adv-x="564" d="M577 544 L451 -48 Q419 -105 354 -143 Q289 -181 189 -181 Q92 -181 38 -144 Q-16 -107 -33 -65 L-20 -4 L124 -4 Q132 -28 154 -40.5 Q176 -53 207 -53 Q265 -53 292 -14 L312 79 Q255 31 182 31 Q131 31 94.5 51 Q58 71 38 100 Q18 129 14 158 L73 429 Q100 479 151 517 Q202 555 275 555 Q362 555 408 497 L417 544 L577 544 Z M336 192 L381 399 Q370 410 351.5 417.5 Q333 425 309 425 Q282 425 261.5 414.5 Q241 404 231 391 L189 196 Q194 183 211 172.5 Q228 162 256 162 Q304 162 336 192 Z M321 748 L317 728 Q382 728 398 682 L388 631 Q357 585 297 585 Q263 585 241 599 Q219 613 213 631 L241 762 Q254 786 286 805 Q318 824 364 824 L414 824 L400 762 L377 762 Q334 762 321 748 Z " />
<glyph glyph-name="hcircumflex" unicode="&#x125;" horiz-adv-x="569" d="M559 429 L468 0 L301 0 L384 391 Q378 404 361 414.5 Q344 425 317 425 Q269 425 238 398 L153 0 L-14 0 L136 700 L302 700 L261 506 Q320 555 397 555 Q447 555 482.5 535.5 Q518 516 537 487 Q556 458 559 429 Z M574 739 L460 739 L415 831 L332 739 L209 739 L212 755 L320 902 L533 902 L578 755 L574 739 Z " />
<glyph glyph-name="hbar" unicode="&#x127;" horiz-adv-x="583" d="M569 402 L483 0 L316 0 L393 364 Q387 377 370 387.5 Q353 398 326 398 Q279 398 247 371 L168 0 L1 0 L123 569 L85 569 L104 654 L141 654 L151 700 L317 700 L308 654 L453 654 L434 569 L289 569 L270 479 Q329 528 406 528 Q456 528 491.5 508.5 Q527 489 546 460 Q565 431 569 402 Z " />
<glyph glyph-name="igrave" unicode="&#xec;" horiz-adv-x="260" d="M155 0 L-11 0 L105 544 L271 544 L155 0 Z M263 602 L143 602 L83 697 L98 768 L247 768 L265 617 L263 602 Z " />
<glyph glyph-name="iacute" unicode="&#xed;" horiz-adv-x="260" d="M155 0 L-11 0 L105 544 L271 544 L155 0 Z M264 602 L134 602 L137 617 L220 768 L381 768 L365 697 L264 602 Z " />
<glyph glyph-name="icircumflex" unicode="&#xee;" horiz-adv-x="260" d="M155 0 L-11 0 L105 544 L271 544 L155 0 Z M382 598 L268 598 L225 693 L140 598 L17 598 L20 614 L129 764 L342 764 L386 614 L382 598 Z " />
<glyph glyph-name="itilde" unicode="&#x129;" horiz-adv-x="260" d="M155 0 L-11 0 L105 544 L271 544 L155 0 Z M237 722 Q252 712 261 707.5 Q270 703 281 703 Q304 703 316 726 L320 747 L415 747 L401 683 Q387 648 355.5 624 Q324 600 281 600 Q252 600 233.5 608 Q215 616 196 630 Q180 640 171.5 644.5 Q163 649 152 649 Q129 649 118 626 L114 605 L19 605 L32 669 Q46 705 77.5 728.5 Q109 752 152 752 Q180 752 199 744 Q218 736 237 722 Z " />
<glyph glyph-name="idieresis" unicode="&#xef;" horiz-adv-x="260" d="M155 0 L-11 0 L105 544 L271 544 L155 0 Z M192 717 L173 627 Q140 594 87 594 Q35 594 15 627 L35 717 Q67 749 120 749 Q173 749 192 717 Z M416 717 L397 627 Q382 614 362.5 604 Q343 594 311 594 Q259 594 239 627 L258 717 Q290 749 344 749 Q376 749 391.5 739.5 Q407 730 416 717 Z " />
<glyph glyph-name="imacron" unicode="&#x12b;" horiz-adv-x="260" d="M155 0 L-11 0 L105 544 L271 544 L155 0 Z M383 619 L27 619 L51 728 L406 728 L383 619 Z " />
<glyph glyph-name="ibreve" unicode="&#x12d;" horiz-adv-x="260" d="M155 0 L-11 0 L105 544 L271 544 L155 0 Z M400 687 Q374 644 325.5 618.5 Q277 593 211 593 Q142 593 97 619 Q52 645 37 687 L50 748 L171 748 L163 710 Q165 699 178 689 Q191 679 217 679 Q243 679 260 688.5 Q277 698 284 710 L293 748 L413 748 L400 687 Z " />
<glyph glyph-name="iogonek" unicode="&#x12f;" horiz-adv-x="260" d="M311 706 L297 641 Q284 622 259 609 Q234 596 199 596 Q165 596 145.5 609 Q126 622 122 641 L137 706 Q149 725 174 738.5 Q199 752 233 752 Q268 752 287.5 738.5 Q307 725 311 706 Z M105 544 L271 544 L155 0 Q78 -55 50 -97 L44 -120 Q48 -127 59 -131 Q70 -135 84 -135 Q101 -135 128 -128 L109 -215 Q81 -229 33 -229 Q-9 -229 -42.5 -214 Q-76 -199 -85 -173 L-67 -92 Q-56 -74 -28 -48 Q0 -22 36 0 L-11 0 L105 544 Z " />
<glyph glyph-name="dotlessi" unicode="&#x131;" horiz-adv-x="260" d="M155 0 L-11 0 L105 544 L271 544 L155 0 Z " />
<glyph glyph-name="ij" unicode="&#x133;" horiz-adv-x="516" d="M155 0 L-11 0 L105 544 L271 544 L155 0 Z M311 706 L297 641 Q285 623 259.5 609.5 Q234 596 200 596 Q165 596 145.5 609 Q126 622 123 641 L137 706 Q149 725 174 738.5 Q199 752 234 752 Q269 752 288 738.5 Q307 725 311 706 Z M403 -46 Q374 -107 305 -143.5 Q236 -180 131 -180 L157 -53 Q185 -53 209.5 -37.5 Q234 -22 246 -1 L362 544 L529 544 L403 -46 Z M569 706 L555 641 Q543 623 517.5 609.5 Q492 596 458 596 Q423 596 403.5 609 Q384 622 381 641 L395 706 Q407 725 432 738.5 Q457 752 492 752 Q527 752 546 738.5 Q565 725 569 706 Z " />
<glyph glyph-name="jcircumflex" unicode="&#x135;" horiz-adv-x="256" d="M143 -46 Q114 -107 45 -143.5 Q-24 -180 -129 -180 L-103 -53 Q-75 -53 -50.5 -37.5 Q-26 -22 -14 -1 L102 544 L269 544 L143 -46 Z M380 598 L266 598 L223 693 L138 598 L15 598 L18 614 L127 764 L340 764 L384 614 L380 598 Z " />
<glyph glyph-name="kcommaaccent" unicode="&#x137;" horiz-adv-x="550" d="M472 0 L346 0 L255 209 L185 149 L153 0 L-14 0 L136 700 L302 700 L229 358 L441 544 L562 544 L543 454 L388 322 L491 89 L472 0 Z M98 -192 L136 -192 Q171 -192 182 -176 L186 -158 Q152 -158 130 -152.5 Q108 -147 103 -137 L117 -71 Q126 -61 148.5 -54 Q171 -47 205 -47 Q239 -47 259 -54 Q279 -61 286 -71 L264 -180 Q251 -208 221 -225.5 Q191 -243 144 -243 L87 -243 L98 -192 Z " />
<glyph glyph-name="lacute" unicode="&#x13a;" horiz-adv-x="255" d="M153 0 L-14 0 L136 700 L303 700 L153 0 Z M277 741 L159 741 L162 757 L242 904 L394 904 L379 834 L277 741 Z " />
<glyph glyph-name="lcaron" unicode="&#x13e;" horiz-adv-x="434" d="M153 0 L-14 0 L136 700 L303 700 L153 0 Z M485 615 L405 480 L308 480 L311 495 L376 700 L503 700 L485 615 Z " />
<glyph glyph-name="lcommaaccent" unicode="&#x13c;" horiz-adv-x="255" d="M153 0 L-14 0 L136 700 L303 700 L153 0 Z M-50 -192 L-12 -192 Q23 -192 34 -176 L38 -158 Q4 -158 -18 -152.5 Q-40 -147 -45 -137 L-31 -71 Q-22 -61 0.5 -54 Q23 -47 57 -47 Q91 -47 111 -54 Q131 -61 138 -71 L116 -180 Q103 -208 73 -225.5 Q43 -243 -4 -243 L-61 -243 L-50 -192 Z " />
<glyph glyph-name="lslash" unicode="&#x142;" horiz-adv-x="351" d="M275 349 L201 0 L34 0 L88 252 L16 215 L44 348 L116 385 L183 700 L350 700 L303 482 L376 519 L348 387 L275 349 Z " />
<glyph glyph-name="ldot" unicode="&#x140;" horiz-adv-x="454" d="M153 0 L-14 0 L136 700 L303 700 L153 0 Z M469 395 L455 330 Q443 312 417.5 298.5 Q392 285 358 285 Q323 285 303.5 298 Q284 311 281 330 L295 395 Q307 414 332 427.5 Q357 441 392 441 Q427 441 446 427.5 Q465 414 469 395 Z " />
<glyph glyph-name="nacute" unicode="&#x144;" horiz-adv-x="568" d="M559 429 L467 0 L300 0 L383 391 Q378 404 361.5 414.5 Q345 425 318 425 Q292 425 271.5 417 Q251 409 237 396 L153 0 L-14 0 L102 544 L257 544 L246 494 Q310 555 395 555 Q446 555 481.5 535.5 Q517 516 536 487 Q555 458 559 429 Z M418 602 L288 602 L291 617 L374 768 L535 768 L519 697 L418 602 Z " />
<glyph glyph-name="ncaron" unicode="&#x148;" horiz-adv-x="568" d="M559 429 L467 0 L300 0 L383 391 Q378 404 361.5 414.5 Q345 425 318 425 Q292 425 271.5 417 Q251 409 237 396 L153 0 L-14 0 L102 544 L257 544 L246 494 Q310 555 395 555 Q446 555 481.5 535.5 Q517 516 536 487 Q555 458 559 429 Z M460 598 L247 598 L203 749 L207 764 L318 764 L363 669 L446 764 L572 764 L568 749 L460 598 Z " />
<glyph glyph-name="ntilde" unicode="&#xf1;" horiz-adv-x="568" d="M559 429 L467 0 L300 0 L383 391 Q378 404 361.5 414.5 Q345 425 318 425 Q292 425 271.5 417 Q251 409 237 396 L153 0 L-14 0 L102 544 L257 544 L246 494 Q310 555 395 555 Q446 555 481.5 535.5 Q517 516 536 487 Q555 458 559 429 Z M391 722 Q406 712 415 707.5 Q424 703 435 703 Q458 703 470 726 L474 747 L569 747 L555 683 Q541 648 509.5 624 Q478 600 435 600 Q406 600 387.5 608 Q369 616 350 630 Q334 640 325.5 644.5 Q317 649 306 649 Q283 649 272 626 L268 605 L173 605 L186 669 Q200 705 231.5 728.5 Q263 752 306 752 Q334 752 353 744 Q372 736 391 722 Z " />
<glyph glyph-name="ncommaaccent" unicode="&#x146;" horiz-adv-x="568" d="M559 429 L467 0 L300 0 L383 391 Q378 404 361.5 414.5 Q345 425 318 425 Q292 425 271.5 417 Q251 409 237 396 L153 0 L-14 0 L102 544 L257 544 L246 494 Q310 555 395 555 Q446 555 481.5 535.5 Q517 516 536 487 Q555 458 559 429 Z M107 -192 L145 -192 Q180 -192 191 -176 L195 -158 Q161 -158 139 -152.5 Q117 -147 112 -137 L126 -71 Q135 -61 157.5 -54 Q180 -47 214 -47 Q248 -47 268 -54 Q288 -61 295 -71 L273 -180 Q260 -208 230 -225.5 Q200 -243 153 -243 L96 -243 L107 -192 Z " />
<glyph glyph-name="napostrophe" unicode="&#x149;" horiz-adv-x="568" d="M559 429 L467 0 L300 0 L383 391 Q378 404 361.5 414.5 Q345 425 318 425 Q292 425 271.5 417 Q251 409 237 396 L153 0 L-14 0 L102 544 L257 544 L246 494 Q310 555 395 555 Q446 555 481.5 535.5 Q517 516 536 487 Q555 458 559 429 Z M40 624 L78 624 Q113 624 124 640 L128 658 Q94 658 72 663.5 Q50 669 45 679 L59 745 Q68 755 90.5 762 Q113 769 147 769 Q181 769 201 762 Q221 755 228 745 L206 636 Q193 608 163 590.5 Q133 573 86 573 L29 573 L40 624 Z " />
<glyph glyph-name="ograve" unicode="&#xf2;" horiz-adv-x="566" d="M559 422 L494 122 Q461 66 397 25.5 Q333 -15 234 -15 Q166 -15 117.5 6 Q69 27 41.5 58.5 Q14 90 7 122 L71 422 Q104 478 168.5 518.5 Q233 559 332 559 Q400 559 449 537.5 Q498 516 525 484.5 Q552 453 559 422 Z M231 387 L180 154 Q185 137 203.5 125.5 Q222 114 250 114 Q280 114 302 126.5 Q324 139 335 157 L386 389 Q382 406 363 417.5 Q344 429 315 429 Q286 429 264 417 Q242 405 231 387 Z M416 602 L296 602 L236 697 L251 768 L400 768 L418 617 L416 602 Z " />
<glyph glyph-name="oacute" unicode="&#xf3;" horiz-adv-x="566" d="M559 422 L494 122 Q461 66 397 25.5 Q333 -15 234 -15 Q166 -15 117.5 6 Q69 27 41.5 58.5 Q14 90 7 122 L71 422 Q104 478 168.5 518.5 Q233 559 332 559 Q400 559 449 537.5 Q498 516 525 484.5 Q552 453 559 422 Z M231 387 L180 154 Q185 137 203.5 125.5 Q222 114 250 114 Q280 114 302 126.5 Q324 139 335 157 L386 389 Q382 406 363 417.5 Q344 429 315 429 Q286 429 264 417 Q242 405 231 387 Z M416 602 L286 602 L289 617 L372 768 L533 768 L517 697 L416 602 Z " />
<glyph glyph-name="ocircumflex" unicode="&#xf4;" horiz-adv-x="566" d="M559 422 L494 122 Q461 66 397 25.5 Q333 -15 234 -15 Q166 -15 117.5 6 Q69 27 41.5 58.5 Q14 90 7 122 L71 422 Q104 478 168.5 518.5 Q233 559 332 559 Q400 559 449 537.5 Q498 516 525 484.5 Q552 453 559 422 Z M231 387 L180 154 Q185 137 203.5 125.5 Q222 114 250 114 Q280 114 302 126.5 Q324 139 335 157 L386 389 Q382 406 363 417.5 Q344 429 315 429 Q286 429 264 417 Q242 405 231 387 Z M535 598 L421 598 L378 693 L293 598 L170 598 L173 614 L282 764 L495 764 L539 614 L535 598 Z " />
<glyph glyph-name="otilde" unicode="&#xf5;" horiz-adv-x="566" d="M559 422 L494 122 Q461 66 397 25.5 Q333 -15 234 -15 Q166 -15 117.5 6 Q69 27 41.5 58.5 Q14 90 7 122 L71 422 Q104 478 168.5 518.5 Q233 559 332 559 Q400 559 449 537.5 Q498 516 525 484.5 Q552 453 559 422 Z M231 387 L180 154 Q185 137 203.5 125.5 Q222 114 250 114 Q280 114 302 126.5 Q324 139 335 157 L386 389 Q382 406 363 417.5 Q344 429 315 429 Q286 429 264 417 Q242 405 231 387 Z M390 722 Q405 712 414 707.5 Q423 703 434 703 Q457 703 469 726 L473 747 L568 747 L554 683 Q540 648 508.5 624 Q477 600 434 600 Q405 600 386.5 608 Q368 616 349 630 Q333 640 324.5 644.5 Q316 649 305 649 Q282 649 271 626 L267 605 L172 605 L185 669 Q199 705 230.5 728.5 Q262 752 305 752 Q333 752 352 744 Q371 736 390 722 Z " />
<glyph glyph-name="odieresis" unicode="&#xf6;" horiz-adv-x="566" d="M559 422 L494 122 Q461 66 397 25.5 Q333 -15 234 -15 Q166 -15 117.5 6 Q69 27 41.5 58.5 Q14 90 7 122 L71 422 Q104 478 168.5 518.5 Q233 559 332 559 Q400 559 449 537.5 Q498 516 525 484.5 Q552 453 559 422 Z M231 387 L180 154 Q185 137 203.5 125.5 Q222 114 250 114 Q280 114 302 126.5 Q324 139 335 157 L386 389 Q382 406 363 417.5 Q344 429 315 429 Q286 429 264 417 Q242 405 231 387 Z M345 717 L326 627 Q293 594 240 594 Q188 594 168 627 L188 717 Q220 749 273 749 Q326 749 345 717 Z M569 717 L550 627 Q535 614 515.5 604 Q496 594 464 594 Q412 594 392 627 L411 717 Q443 749 497 749 Q529 749 544.5 739.5 Q560 730 569 717 Z " />
<glyph glyph-name="omacron" unicode="&#x14d;" horiz-adv-x="566" d="M559 422 L494 122 Q461 66 397 25.5 Q333 -15 234 -15 Q166 -15 117.5 6 Q69 27 41.5 58.5 Q14 90 7 122 L71 422 Q104 478 168.5 518.5 Q233 559 332 559 Q400 559 449 537.5 Q498 516 525 484.5 Q552 453 559 422 Z M231 387 L180 154 Q185 137 203.5 125.5 Q222 114 250 114 Q280 114 302 126.5 Q324 139 335 157 L386 389 Q382 406 363 417.5 Q344 429 315 429 Q286 429 264 417 Q242 405 231 387 Z M535 619 L179 619 L203 728 L558 728 L535 619 Z " />
<glyph glyph-name="obreve" unicode="&#x14f;" horiz-adv-x="566" d="M559 422 L494 122 Q461 66 397 25.5 Q333 -15 234 -15 Q166 -15 117.5 6 Q69 27 41.5 58.5 Q14 90 7 122 L71 422 Q104 478 168.5 518.5 Q233 559 332 559 Q400 559 449 537.5 Q498 516 525 484.5 Q552 453 559 422 Z M231 387 L180 154 Q185 137 203.5 125.5 Q222 114 250 114 Q280 114 302 126.5 Q324 139 335 157 L386 389 Q382 406 363 417.5 Q344 429 315 429 Q286 429 264 417 Q242 405 231 387 Z M553 687 Q527 644 478.5 618.5 Q430 593 364 593 Q295 593 250 619 Q205 645 190 687 L203 748 L324 748 L316 710 Q318 699 331 689 Q344 679 370 679 Q396 679 413 688.5 Q430 698 437 710 L446 748 L566 748 L553 687 Z " />
<glyph glyph-name="ohungarumlaut" unicode="&#x151;" horiz-adv-x="566" d="M559 422 L494 122 Q461 66 397 25.5 Q333 -15 234 -15 Q166 -15 117.5 6 Q69 27 41.5 58.5 Q14 90 7 122 L71 422 Q104 478 168.5 518.5 Q233 559 332 559 Q400 559 449 537.5 Q498 516 525 484.5 Q552 453 559 422 Z M231 387 L180 154 Q185 137 203.5 125.5 Q222 114 250 114 Q280 114 302 126.5 Q324 139 335 157 L386 389 Q382 406 363 417.5 Q344 429 315 429 Q286 429 264 417 Q242 405 231 387 Z M307 596 L197 596 L200 611 L268 762 L398 762 L385 705 L307 596 Z M508 596 L399 596 L403 611 L469 762 L599 762 L587 705 L508 596 Z " />
<glyph glyph-name="oslash" unicode="&#xf8;" horiz-adv-x="566" d="M574 492 L542 462 Q553 444 559 422 L494 122 Q461 66 397 25.5 Q333 -15 234 -15 Q143 -15 81 25 L55 0 L-19 0 L-8 52 L24 82 Q13 100 7 122 L71 422 Q104 478 168.5 518.5 Q233 559 332 559 Q421 559 485 519 L511 544 L585 544 L574 492 Z M201 250 L371 412 Q351 429 315 429 Q286 429 264 417 Q242 405 231 387 L201 250 Z M365 294 L194 132 Q217 114 250 114 Q280 114 302 126.5 Q324 139 335 157 L365 294 Z " />
<glyph glyph-name="oe" unicode="&#x153;" horiz-adv-x="873" d="M517 225 L501 151 Q506 134 524.5 122.5 Q543 111 572 111 Q637 111 667 169 L813 169 L799 98 Q769 56 710 20.5 Q651 -15 555 -15 Q460 -15 400 27 Q329 -15 234 -15 Q166 -15 117.5 6 Q69 27 41.5 58.5 Q14 90 7 122 L71 422 Q104 478 168.5 518.5 Q233 559 332 559 Q424 559 487 517 Q558 559 653 559 Q719 559 766.5 538.5 Q814 518 839.5 491 Q865 464 873 442 L826 225 L517 225 Z M553 392 L540 333 L695 333 L707 393 Q703 410 684 421.5 Q665 433 636 433 Q609 433 587 421.5 Q565 410 553 392 Z M335 157 L386 389 Q382 406 363 417.5 Q344 429 315 429 Q286 429 264 417 Q242 405 231 387 L180 154 Q185 137 203.5 125.5 Q222 114 250 114 Q280 114 302 126.5 Q324 139 335 157 Z " />
<glyph glyph-name="racute" unicode="&#x155;" horiz-adv-x="387" d="M424 544 L392 390 Q381 391 366 391 Q319 391 284 381 Q249 371 229 356 L153 0 L-14 0 L102 544 L257 544 L241 469 Q270 505 306 525 Q342 545 394 545 Q416 545 424 544 Z M342 602 L212 602 L215 617 L298 768 L459 768 L443 697 L342 602 Z " />
<glyph glyph-name="rcaron" unicode="&#x159;" horiz-adv-x="387" d="M424 544 L392 390 Q381 391 366 391 Q319 391 284 381 Q249 371 229 356 L153 0 L-14 0 L102 544 L257 544 L241 469 Q270 505 306 525 Q342 545 394 545 Q416 545 424 544 Z M385 598 L172 598 L128 749 L132 764 L243 764 L288 669 L371 764 L497 764 L493 749 L385 598 Z " />
<glyph glyph-name="rcommaaccent" unicode="&#x157;" horiz-adv-x="387" d="M424 544 L392 390 Q381 391 366 391 Q319 391 284 381 Q249 371 229 356 L153 0 L-14 0 L102 544 L257 544 L241 469 Q270 505 306 525 Q342 545 394 545 Q416 545 424 544 Z M-51 -192 L-13 -192 Q22 -192 33 -176 L37 -158 Q3 -158 -19 -152.5 Q-41 -147 -46 -137 L-32 -71 Q-23 -61 -0.5 -54 Q22 -47 56 -47 Q90 -47 110 -54 Q130 -61 137 -71 L115 -180 Q102 -208 72 -225.5 Q42 -243 -5 -243 L-62 -243 L-51 -192 Z " />
<glyph glyph-name="sacute" unicode="&#x15b;" horiz-adv-x="513" d="M516 458 L502 394 L362 394 Q357 414 337.5 426.5 Q318 439 290 439 Q265 439 247.5 431.5 Q230 424 221 412 L211 370 Q219 351 263 341 L311 330 Q388 312 423 288.5 Q458 265 475 236 L443 91 Q415 50 358 17.5 Q301 -15 210 -15 Q144 -15 97.5 3 Q51 21 25.5 45.5 Q0 70 -9 91 L5 154 L148 154 Q155 130 174.5 117 Q194 104 225 104 Q250 104 269 113.5 Q288 123 300 137 L309 179 Q301 199 256 210 L208 220 Q133 236 98.5 260 Q64 284 46 315 L77 458 Q105 495 162 527 Q219 559 307 559 Q395 559 447 526.5 Q499 494 516 458 Z M395 602 L265 602 L268 617 L351 768 L512 768 L496 697 L395 602 Z " />
<glyph glyph-name="scircumflex" unicode="&#x15d;" horiz-adv-x="513" d="M516 458 L502 394 L362 394 Q357 414 337.5 426.5 Q318 439 290 439 Q265 439 247.5 431.5 Q230 424 221 412 L211 370 Q219 351 263 341 L311 330 Q388 312 423 288.5 Q458 265 475 236 L443 91 Q415 50 358 17.5 Q301 -15 210 -15 Q144 -15 97.5 3 Q51 21 25.5 45.5 Q0 70 -9 91 L5 154 L148 154 Q155 130 174.5 117 Q194 104 225 104 Q250 104 269 113.5 Q288 123 300 137 L309 179 Q301 199 256 210 L208 220 Q133 236 98.5 260 Q64 284 46 315 L77 458 Q105 495 162 527 Q219 559 307 559 Q395 559 447 526.5 Q499 494 516 458 Z M513 598 L399 598 L356 693 L271 598 L148 598 L151 614 L260 764 L473 764 L517 614 L513 598 Z " />
<glyph glyph-name="scaron" unicode="&#x161;" horiz-adv-x="513" d="M516 458 L502 394 L362 394 Q357 414 337.5 426.5 Q318 439 290 439 Q265 439 247.5 431.5 Q230 424 221 412 L211 370 Q219 351 263 341 L311 330 Q388 312 423 288.5 Q458 265 475 236 L443 91 Q415 50 358 17.5 Q301 -15 210 -15 Q144 -15 97.5 3 Q51 21 25.5 45.5 Q0 70 -9 91 L5 154 L148 154 Q155 130 174.5 117 Q194 104 225 104 Q250 104 269 113.5 Q288 123 300 137 L309 179 Q301 199 256 210 L208 220 Q133 236 98.5 260 Q64 284 46 315 L77 458 Q105 495 162 527 Q219 559 307 559 Q395 559 447 526.5 Q499 494 516 458 Z M437 598 L224 598 L180 749 L184 764 L295 764 L340 669 L423 764 L549 764 L545 749 L437 598 Z " />
<glyph glyph-name="scedilla" unicode="&#x15f;" horiz-adv-x="513" d="M221 412 L211 370 Q219 351 263 341 L311 330 Q388 312 423 288.5 Q458 265 475 236 L443 91 Q417 54 366.5 22.5 Q316 -9 237 -14 L221 -41 L229 -41 Q264 -41 284.5 -56 Q305 -71 309 -92 L292 -169 Q253 -231 151 -231 Q120 -231 92.5 -226 Q65 -221 49 -214 L87 -146 Q122 -156 154 -156 Q173 -156 187.5 -150.5 Q202 -145 207 -137 L211 -116 Q207 -102 168 -102 L108 -102 L157 -12 Q86 -2 44.5 29.5 Q3 61 -9 91 L5 154 L148 154 Q155 130 174.5 117 Q194 104 225 104 Q250 104 269 113.5 Q288 123 300 137 L309 179 Q301 199 256 210 L208 220 Q133 236 98.5 260 Q64 284 46 315 L77 458 Q105 495 162 527 Q219 559 307 559 Q395 559 447 526.5 Q499 494 516 458 L502 394 L362 394 Q357 414 337.5 426.5 Q318 439 290 439 Q265 439 247.5 431.5 Q230 424 221 412 Z " />
<glyph glyph-name="scommaaccent" unicode="&#x219;" horiz-adv-x="513" d="M516 458 L502 394 L362 394 Q357 414 337.5 426.5 Q318 439 290 439 Q265 439 247.5 431.5 Q230 424 221 412 L211 370 Q219 351 263 341 L311 330 Q388 312 423 288.5 Q458 265 475 236 L443 91 Q415 50 358 17.5 Q301 -15 210 -15 Q144 -15 97.5 3 Q51 21 25.5 45.5 Q0 70 -9 91 L5 154 L148 154 Q155 130 174.5 117 Q194 104 225 104 Q250 104 269 113.5 Q288 123 300 137 L309 179 Q301 199 256 210 L208 220 Q133 236 98.5 260 Q64 284 46 315 L77 458 Q105 495 162 527 Q219 559 307 559 Q395 559 447 526.5 Q499 494 516 458 Z M89 -193 L127 -193 Q162 -193 173 -177 L177 -159 Q143 -159 121 -153.5 Q99 -148 94 -138 L108 -72 Q117 -62 139.5 -55 Q162 -48 196 -48 Q230 -48 250 -55 Q270 -62 277 -72 L255 -181 Q242 -209 212 -226.5 Q182 -244 135 -244 L78 -244 L89 -193 Z " />
<glyph glyph-name="germandbls" unicode="&#xdf;" horiz-adv-x="566" d="M585 605 L547 426 Q525 390 468 362 Q498 339 513.5 319.5 Q529 300 534 277 L500 122 Q464 57 398 28.5 Q332 0 221 0 L249 129 Q286 129 306 136 Q326 143 343 167 L362 255 Q355 275 336.5 285.5 Q318 296 292 296 L318 421 Q341 421 363 430.5 Q385 440 401 457 L420 549 Q413 566 395 576 Q377 586 351 586 Q325 586 304 575.5 Q283 565 271 549 L153 0 L-14 0 L111 584 Q128 615 163 645 Q198 675 250.5 695 Q303 715 367 715 Q459 715 512.5 679.5 Q566 644 585 605 Z " />
<glyph glyph-name="tcaron" unicode="&#x165;" horiz-adv-x="457" d="M282 423 L221 139 Q236 114 291 114 Q304 114 312 115 Q320 116 323 116 L298 0 Q259 -13 210 -13 Q133 -13 93.5 15 Q54 43 43 83 L116 423 L64 423 L89 544 L141 544 L166 656 L332 656 L308 544 L400 544 L374 423 L282 423 Z M550 729 L470 594 L373 594 L376 609 L441 814 L568 814 L550 729 Z " />
<glyph glyph-name="uni021B" unicode="&#x21b;" horiz-adv-x="366" d="M272 423 L211 139 Q226 114 281 114 Q294 114 302 115 Q310 116 313 116 L288 0 Q249 -13 200 -13 Q123 -13 83.5 15 Q44 43 33 83 L106 423 L54 423 L79 544 L131 544 L156 656 L322 656 L298 544 L390 544 L364 423 L272 423 Z M43 -192 L81 -192 Q116 -192 127 -176 L131 -158 Q97 -158 75 -152.5 Q53 -147 48 -137 L62 -71 Q71 -61 93.5 -54 Q116 -47 150 -47 Q184 -47 204 -54 Q224 -61 231 -71 L209 -180 Q196 -208 166 -225.5 Q136 -243 89 -243 L32 -243 L43 -192 Z " />
<glyph glyph-name="tbar" unicode="&#x167;" horiz-adv-x="366" d="M282 423 L264 339 L356 339 L331 218 L238 218 L221 139 Q236 114 291 114 Q304 114 311.5 115 Q319 116 322 116 L298 0 Q257 -13 209 -13 Q132 -13 92.5 15 Q53 43 42 83 L71 218 L20 218 L45 339 L97 339 L115 423 L63 423 L89 544 L141 544 L165 656 L332 656 L308 544 L400 544 L374 423 L282 423 Z " />
<glyph glyph-name="ugrave" unicode="&#xf9;" horiz-adv-x="563" d="M576 544 L460 0 L306 0 L316 47 Q258 -11 173 -11 Q123 -11 86.5 9 Q50 29 31 58 Q12 87 9 114 L101 544 L267 544 L184 153 Q188 141 205 130 Q222 119 249 119 Q295 119 325 145 L410 544 L576 544 Z M415 602 L295 602 L235 697 L250 768 L399 768 L417 617 L415 602 Z " />
<glyph glyph-name="uacute" unicode="&#xfa;" horiz-adv-x="563" d="M576 544 L460 0 L306 0 L316 47 Q258 -11 173 -11 Q123 -11 86.5 9 Q50 29 31 58 Q12 87 9 114 L101 544 L267 544 L184 153 Q188 141 205 130 Q222 119 249 119 Q295 119 325 145 L410 544 L576 544 Z M416 602 L286 602 L289 617 L372 768 L533 768 L517 697 L416 602 Z " />
<glyph glyph-name="ucircumflex" unicode="&#xfb;" horiz-adv-x="563" d="M576 544 L460 0 L306 0 L316 47 Q258 -11 173 -11 Q123 -11 86.5 9 Q50 29 31 58 Q12 87 9 114 L101 544 L267 544 L184 153 Q188 141 205 130 Q222 119 249 119 Q295 119 325 145 L410 544 L576 544 Z M534 598 L420 598 L377 693 L292 598 L169 598 L172 614 L281 764 L494 764 L538 614 L534 598 Z " />
<glyph glyph-name="utilde" unicode="&#x169;" horiz-adv-x="563" d="M576 544 L460 0 L306 0 L316 47 Q258 -11 173 -11 Q123 -11 86.5 9 Q50 29 31 58 Q12 87 9 114 L101 544 L267 544 L184 153 Q188 141 205 130 Q222 119 249 119 Q295 119 325 145 L410 544 L576 544 Z M389 722 Q404 712 413 707.5 Q422 703 433 703 Q456 703 468 726 L472 747 L567 747 L553 683 Q539 648 507.5 624 Q476 600 433 600 Q404 600 385.5 608 Q367 616 348 630 Q332 640 323.5 644.5 Q315 649 304 649 Q281 649 270 626 L266 605 L171 605 L184 669 Q198 705 229.5 728.5 Q261 752 304 752 Q332 752 351 744 Q370 736 389 722 Z " />
<glyph glyph-name="udieresis" unicode="&#xfc;" horiz-adv-x="563" d="M576 544 L460 0 L306 0 L316 47 Q258 -11 173 -11 Q123 -11 86.5 9 Q50 29 31 58 Q12 87 9 114 L101 544 L267 544 L184 153 Q188 141 205 130 Q222 119 249 119 Q295 119 325 145 L410 544 L576 544 Z M344 717 L325 627 Q292 594 239 594 Q187 594 167 627 L187 717 Q219 749 272 749 Q325 749 344 717 Z M568 717 L549 627 Q534 614 514.5 604 Q495 594 463 594 Q411 594 391 627 L410 717 Q442 749 496 749 Q528 749 543.5 739.5 Q559 730 568 717 Z " />
<glyph glyph-name="umacron" unicode="&#x16b;" horiz-adv-x="563" d="M576 544 L460 0 L306 0 L316 47 Q258 -11 173 -11 Q123 -11 86.5 9 Q50 29 31 58 Q12 87 9 114 L101 544 L267 544 L184 153 Q188 141 205 130 Q222 119 249 119 Q295 119 325 145 L410 544 L576 544 Z M535 619 L179 619 L203 728 L558 728 L535 619 Z " />
<glyph glyph-name="ubreve" unicode="&#x16d;" horiz-adv-x="563" d="M576 544 L460 0 L306 0 L316 47 Q258 -11 173 -11 Q123 -11 86.5 9 Q50 29 31 58 Q12 87 9 114 L101 544 L267 544 L184 153 Q188 141 205 130 Q222 119 249 119 Q295 119 325 145 L410 544 L576 544 Z M552 687 Q526 644 477.5 618.5 Q429 593 363 593 Q294 593 249 619 Q204 645 189 687 L202 748 L323 748 L315 710 Q317 699 330 689 Q343 679 369 679 Q395 679 412 688.5 Q429 698 436 710 L445 748 L565 748 L552 687 Z " />
<glyph glyph-name="uring" unicode="&#x16f;" horiz-adv-x="563" d="M576 544 L460 0 L306 0 L316 47 Q258 -11 173 -11 Q123 -11 86.5 9 Q50 29 31 58 Q12 87 9 114 L101 544 L267 544 L184 153 Q188 141 205 130 Q222 119 249 119 Q295 119 325 145 L410 544 L576 544 Z M515 753 L495 655 Q473 625 437.5 607.5 Q402 590 357 590 Q311 590 277 608 Q243 626 232 655 L252 753 Q273 783 309.5 801 Q346 819 390 819 Q435 819 469.5 801 Q504 783 515 753 Z M323 731 L311 677 Q315 668 328 660.5 Q341 653 363 653 Q385 653 401 660.5 Q417 668 424 677 L436 731 Q432 740 419 747.5 Q406 755 384 755 Q362 755 346 747.5 Q330 740 323 731 Z " />
<glyph glyph-name="uhungarumlaut" unicode="&#x171;" horiz-adv-x="563" d="M576 544 L460 0 L306 0 L316 47 Q258 -11 173 -11 Q123 -11 86.5 9 Q50 29 31 58 Q12 87 9 114 L101 544 L267 544 L184 153 Q188 141 205 130 Q222 119 249 119 Q295 119 325 145 L410 544 L576 544 Z M306 596 L196 596 L199 611 L267 762 L397 762 L384 705 L306 596 Z M507 596 L398 596 L402 611 L468 762 L598 762 L586 705 L507 596 Z " />
<glyph glyph-name="uogonek" unicode="&#x173;" horiz-adv-x="563" d="M355 -97 L349 -120 Q353 -127 364 -131 Q375 -135 389 -135 Q406 -135 433 -128 L414 -215 Q386 -229 338 -229 Q296 -229 262.5 -214 Q229 -199 220 -173 L238 -92 Q249 -74 277 -48 Q305 -22 341 0 L306 0 L316 47 Q258 -11 173 -11 Q123 -11 86.5 9 Q50 29 31 58 Q12 87 9 114 L101 544 L267 544 L184 153 Q188 141 205 130 Q222 119 249 119 Q295 119 325 145 L410 544 L576 544 L460 0 Q383 -55 355 -97 Z " />
<glyph glyph-name="wgrave" unicode="&#x1e81;" horiz-adv-x="805" d="M603 0 L423 0 L411 296 L408 296 L274 0 L88 0 L68 454 L87 544 L236 544 L229 185 L232 185 L392 544 L532 544 L537 185 L540 185 L688 544 L836 544 L817 454 L603 0 Z M535 602 L415 602 L355 697 L370 768 L519 768 L537 617 L535 602 Z " />
<glyph glyph-name="wacute" unicode="&#x1e83;" horiz-adv-x="805" d="M603 0 L423 0 L411 296 L408 296 L274 0 L88 0 L68 454 L87 544 L236 544 L229 185 L232 185 L392 544 L532 544 L537 185 L540 185 L688 544 L836 544 L817 454 L603 0 Z M536 602 L406 602 L409 617 L492 768 L653 768 L637 697 L536 602 Z " />
<glyph glyph-name="wcircumflex" unicode="&#x175;" horiz-adv-x="805" d="M603 0 L423 0 L411 296 L408 296 L274 0 L88 0 L68 454 L87 544 L236 544 L229 185 L232 185 L392 544 L532 544 L537 185 L540 185 L688 544 L836 544 L817 454 L603 0 Z M654 598 L540 598 L497 693 L412 598 L289 598 L292 614 L401 764 L614 764 L658 614 L654 598 Z " />
<glyph glyph-name="wdieresis" unicode="&#x1e85;" horiz-adv-x="805" d="M603 0 L423 0 L411 296 L408 296 L274 0 L88 0 L68 454 L87 544 L236 544 L229 185 L232 185 L392 544 L532 544 L537 185 L540 185 L688 544 L836 544 L817 454 L603 0 Z M464 717 L445 627 Q412 594 359 594 Q307 594 287 627 L307 717 Q339 749 392 749 Q445 749 464 717 Z M688 717 L669 627 Q654 614 634.5 604 Q615 594 583 594 Q531 594 511 627 L530 717 Q562 749 616 749 Q648 749 663.5 739.5 Q679 730 688 717 Z " />
<glyph glyph-name="ygrave" unicode="&#x1ef3;" horiz-adv-x="537" d="M413 544 L569 544 L550 454 L250 -101 Q214 -140 163.5 -158.5 Q113 -177 38 -177 Q12 -177 -13 -173.5 Q-38 -170 -53 -166 L-27 -48 Q-3 -50 19 -50 Q84 -50 119 -21 L135 11 L66 453 L85 544 L230 544 L255 217 L258 217 L413 544 Z M399 602 L279 602 L219 697 L234 768 L383 768 L401 617 L399 602 Z " />
<glyph glyph-name="yacute" unicode="&#xfd;" horiz-adv-x="537" d="M413 544 L569 544 L550 454 L250 -101 Q214 -140 163.5 -158.5 Q113 -177 38 -177 Q12 -177 -13 -173.5 Q-38 -170 -53 -166 L-27 -48 Q-3 -50 19 -50 Q84 -50 119 -21 L135 11 L66 453 L85 544 L230 544 L255 217 L258 217 L413 544 Z M399 602 L269 602 L272 617 L355 768 L516 768 L500 697 L399 602 Z " />
<glyph glyph-name="ycircumflex" unicode="&#x177;" horiz-adv-x="537" d="M413 544 L569 544 L550 454 L250 -101 Q214 -140 163.5 -158.5 Q113 -177 38 -177 Q12 -177 -13 -173.5 Q-38 -170 -53 -166 L-27 -48 Q-3 -50 19 -50 Q84 -50 119 -21 L135 11 L66 453 L85 544 L230 544 L255 217 L258 217 L413 544 Z M517 598 L403 598 L360 693 L275 598 L152 598 L155 614 L264 764 L477 764 L521 614 L517 598 Z " />
<glyph glyph-name="ydieresis" unicode="&#xff;" horiz-adv-x="537" d="M413 544 L569 544 L550 454 L250 -101 Q214 -140 163.5 -158.5 Q113 -177 38 -177 Q12 -177 -13 -173.5 Q-38 -170 -53 -166 L-27 -48 Q-3 -50 19 -50 Q84 -50 119 -21 L135 11 L66 453 L85 544 L230 544 L255 217 L258 217 L413 544 Z M327 717 L308 627 Q275 594 222 594 Q170 594 150 627 L170 717 Q202 749 255 749 Q308 749 327 717 Z M551 717 L532 627 Q517 614 497.5 604 Q478 594 446 594 Q394 594 374 627 L393 717 Q425 749 479 749 Q511 749 526.5 739.5 Q542 730 551 717 Z " />
<glyph glyph-name="zacute" unicode="&#x17a;" horiz-adv-x="492" d="M193 123 L434 123 L407 0 L-32 0 L-8 114 L291 421 L66 421 L92 544 L523 544 L501 437 L193 123 Z M377 602 L247 602 L250 617 L333 768 L494 768 L478 697 L377 602 Z " />
<glyph glyph-name="zcaron" unicode="&#x17e;" horiz-adv-x="492" d="M193 123 L434 123 L407 0 L-32 0 L-8 114 L291 421 L66 421 L92 544 L523 544 L501 437 L193 123 Z M419 598 L206 598 L162 749 L166 764 L277 764 L322 669 L405 764 L531 764 L527 749 L419 598 Z " />
<glyph glyph-name="zdotaccent" unicode="&#x17c;" horiz-adv-x="492" d="M193 123 L434 123 L407 0 L-32 0 L-8 114 L291 421 L66 421 L92 544 L523 544 L501 437 L193 123 Z M423 706 L409 641 Q397 623 371.5 609.5 Q346 596 312 596 Q277 596 257.5 609 Q238 622 235 641 L249 706 Q261 725 286 738.5 Q311 752 346 752 Q381 752 400 738.5 Q419 725 423 706 Z " />
<glyph glyph-name="eng" unicode="&#x14b;" horiz-adv-x="568" d="M559 429 L457 -46 Q428 -107 359 -143.5 Q290 -180 185 -180 L211 -53 Q239 -53 263.5 -38 Q288 -23 299 -2 L383 391 Q378 404 361.5 414.5 Q345 425 318 425 Q292 425 271.5 417 Q251 409 237 396 L153 0 L-14 0 L102 544 L257 544 L246 494 Q310 555 395 555 Q446 555 481.5 535.5 Q517 516 536 487 Q555 458 559 429 Z " />
<glyph glyph-name="eth" unicode="&#xf0;" horiz-adv-x="565" d="M596 597 L549 583 Q569 556 580 523 L494 123 Q460 67 394.5 26 Q329 -15 233 -15 Q135 -15 79 26.5 Q23 68 6 122 L51 334 Q64 366 95.5 397 Q127 428 171 448 Q215 468 265 468 Q344 468 393 428 L406 489 Q403 511 386 533 L225 484 L243 568 L322 592 Q270 628 210 646 L312 734 Q362 720 408 697 Q454 674 491 644 L614 681 L596 597 Z M334 156 L368 313 Q339 340 295 340 Q267 340 245 329 Q223 318 211 300 L180 156 Q184 139 203 126.5 Q222 114 251 114 Q279 114 301 126 Q323 138 334 156 Z " />
<glyph glyph-name="thorn" unicode="&#xfe;" horiz-adv-x="564" d="M559 429 L492 115 Q463 65 411.5 27 Q360 -11 287 -11 Q205 -11 161 42 L116 -166 L-50 -166 L136 700 L302 700 L261 506 Q322 555 401 555 Q451 555 485.5 535 Q520 515 537.5 486.5 Q555 458 559 429 Z M383 391 Q379 403 363 414 Q347 425 319 425 Q268 425 237 396 L184 148 Q194 136 212 127.5 Q230 119 255 119 Q283 119 303 129 Q323 139 333 153 L383 391 Z " />
<glyph glyph-name="longs" unicode="&#x17f;" horiz-adv-x="338" d="M415 718 L390 605 Q388 605 379.5 606 Q371 607 356 607 Q298 607 279 582 L154 0 L-13 0 L123 635 Q144 675 194.5 703 Q245 731 319 731 Q381 731 415 718 Z " />
<glyph glyph-name="fi" unicode="&#xfb01;" horiz-adv-x="613" d="M442 718 L417 605 Q415 605 406.5 606 Q398 607 383 607 Q328 607 306 582 L297 544 L390 544 L364 423 L271 423 L181 0 L15 0 L105 423 L54 423 L79 544 L131 544 L150 635 Q171 674 222 702.5 Q273 731 346 731 Q408 731 442 718 Z M508 0 L342 0 L458 544 L624 544 L508 0 Z M664 706 L650 641 Q638 623 612.5 609.5 Q587 596 553 596 Q518 596 498.5 609 Q479 622 476 641 L490 706 Q502 725 527 738.5 Q552 752 587 752 Q622 752 641 738.5 Q660 725 664 706 Z " />
<glyph glyph-name="fl" unicode="&#xfb02;" horiz-adv-x="608" d="M442 718 L417 605 Q415 605 406.5 606 Q398 607 383 607 Q328 607 306 582 L297 544 L390 544 L364 423 L271 423 L181 0 L15 0 L105 423 L54 423 L79 544 L131 544 L150 635 Q171 674 222 702.5 Q273 731 346 731 Q408 731 442 718 Z M506 0 L339 0 L489 700 L656 700 L506 0 Z " />
<glyph glyph-name="ampersand" unicode="&#x26;" horiz-adv-x="690" d="M578 168 L635 100 L614 0 L518 0 L475 50 Q432 19 381 2 Q330 -15 264 -15 Q153 -15 90.5 26 Q28 67 9 122 L43 277 Q66 310 104 338 Q142 366 192 383 Q144 440 135 468 L161 593 Q194 640 257.5 677 Q321 714 417 714 Q511 714 564.5 676 Q618 638 639 592 L625 527 L479 527 Q473 554 453.5 571.5 Q434 589 398 589 Q372 589 351 579.5 Q330 570 321 558 L308 502 Q313 481 350 439 L463 304 L481 389 L626 389 L578 168 Z M288 111 Q349 111 395 145 L271 289 Q250 285 232 274 Q214 263 204 249 L183 156 Q190 137 221 124 Q252 111 288 111 Z " />
<glyph glyph-name="grave" unicode="&#x60;" horiz-adv-x="470" d="M407 602 L287 602 L227 697 L242 768 L391 768 L409 617 L407 602 Z " />
<glyph glyph-name="acute" unicode="&#xb4;" horiz-adv-x="470" d="M332 602 L202 602 L205 617 L288 768 L449 768 L433 697 L332 602 Z " />
<glyph glyph-name="circumflex" unicode="&#x2c6;" horiz-adv-x="463" d="M480 598 L366 598 L323 693 L238 598 L115 598 L118 614 L227 764 L440 764 L484 614 L480 598 Z " />
<glyph glyph-name="caron" unicode="&#x2c7;" horiz-adv-x="470" d="M411 598 L198 598 L154 749 L158 764 L269 764 L314 669 L397 764 L523 764 L519 749 L411 598 Z " />
<glyph glyph-name="tilde" unicode="&#x2dc;" horiz-adv-x="470" d="M342 722 Q357 712 366 707.5 Q375 703 386 703 Q409 703 421 726 L425 747 L520 747 L506 683 Q492 648 460.5 624 Q429 600 386 600 Q357 600 338.5 608 Q320 616 301 630 Q285 640 276.5 644.5 Q268 649 257 649 Q234 649 223 626 L219 605 L124 605 L137 669 Q151 705 182.5 728.5 Q214 752 257 752 Q285 752 304 744 Q323 736 342 722 Z " />
<glyph glyph-name="dieresis" unicode="&#xa8;" horiz-adv-x="470" d="M298 717 L279 627 Q246 594 193 594 Q141 594 121 627 L141 717 Q173 749 226 749 Q279 749 298 717 Z M522 717 L503 627 Q488 614 468.5 604 Q449 594 417 594 Q365 594 345 627 L364 717 Q396 749 450 749 Q482 749 497.5 739.5 Q513 730 522 717 Z " />
<glyph glyph-name="breve" unicode="&#x2d8;" horiz-adv-x="470" d="M505 687 Q479 644 430.5 618.5 Q382 593 316 593 Q247 593 202 619 Q157 645 142 687 L155 748 L276 748 L268 710 Q270 699 283 689 Q296 679 322 679 Q348 679 365 688.5 Q382 698 389 710 L398 748 L518 748 L505 687 Z " />
<glyph glyph-name="ring" unicode="&#x2da;" horiz-adv-x="470" d="M469 753 L449 655 Q427 625 391.5 607.5 Q356 590 311 590 Q265 590 231 608 Q197 626 186 655 L206 753 Q227 783 263.5 801 Q300 819 344 819 Q389 819 423.5 801 Q458 783 469 753 Z M277 731 L265 677 Q269 668 282 660.5 Q295 653 317 653 Q339 653 355 660.5 Q371 668 378 677 L390 731 Q386 740 373 747.5 Q360 755 338 755 Q316 755 300 747.5 Q284 740 277 731 Z " />
<glyph glyph-name="hungarumlaut" unicode="&#x2dd;" horiz-adv-x="470" d="M233 596 L123 596 L126 611 L194 762 L324 762 L311 705 L233 596 Z M434 596 L325 596 L329 611 L395 762 L525 762 L513 705 L434 596 Z " />
<glyph glyph-name="dotaccent" unicode="&#x2d9;" horiz-adv-x="470" d="M415 706 L401 641 Q389 623 363.5 609.5 Q338 596 304 596 Q269 596 249.5 609 Q230 622 227 641 L241 706 Q253 725 278 738.5 Q303 752 338 752 Q373 752 392 738.5 Q411 725 415 706 Z " />
<glyph glyph-name="cedilla" unicode="&#xb8;" horiz-adv-x="470" d="M190 -41 L197 -41 Q233 -41 253 -55.5 Q273 -70 277 -91 L260 -168 Q220 -231 120 -231 Q89 -231 61.5 -225.5 Q34 -220 17 -213 L55 -146 Q93 -155 123 -155 Q142 -155 156 -150 Q170 -145 175 -137 L180 -116 Q176 -101 137 -101 L77 -101 L134 4 L216 4 L190 -41 Z " />
<glyph glyph-name="ogonek" unicode="&#x2db;" horiz-adv-x="470" d="M292 0 Q211 -58 187 -97 L181 -120 Q184 -127 195 -131 Q206 -135 220 -135 Q239 -135 264 -128 L245 -215 Q217 -229 169 -229 Q127 -229 93.5 -214 Q60 -199 51 -173 L69 -92 Q84 -68 124.5 -34 Q165 0 214 23 L292 0 Z " />
<glyph glyph-name="comma" unicode="&#x2c;" horiz-adv-x="236" d="M173 116 L135 -57 Q117 -92 84 -114 Q51 -136 1 -136 L-41 -136 L-26 -66 L6 -66 Q19 -66 30.5 -59 Q42 -52 50 -41 L56 -14 Q22 -14 2.5 0 Q-17 14 -20 32 L-2 117 Q10 136 33.5 149 Q57 162 91 162 Q124 162 145 148 Q166 134 173 116 Z " />
<glyph glyph-name="semicolon" unicode="&#x3b;" horiz-adv-x="249" d="M179 116 L141 -57 Q123 -92 90 -114 Q57 -136 7 -136 L-35 -136 L-20 -66 L12 -66 Q25 -66 36.5 -59 Q48 -52 56 -41 L62 -14 Q28 -14 8.5 0 Q-11 14 -14 32 L4 117 Q16 136 39.5 149 Q63 162 97 162 Q130 162 151 148 Q172 134 179 116 Z M256 472 L238 389 Q226 370 203 356.5 Q180 343 147 343 Q112 343 90.5 357 Q69 371 63 389 L81 472 Q93 491 116 504.5 Q139 518 170 518 Q207 518 228.5 504.5 Q250 491 256 472 Z " />
<glyph glyph-name="colon" unicode="&#x3a;" horiz-adv-x="249" d="M179 116 L161 33 Q149 14 126 0.5 Q103 -13 70 -13 Q35 -13 13.5 1 Q-8 15 -14 33 L4 116 Q16 135 39 148.5 Q62 162 93 162 Q130 162 151.5 148.5 Q173 135 179 116 Z M255 472 L237 389 Q225 370 202 356.5 Q179 343 146 343 Q111 343 89.5 357 Q68 371 62 389 L80 472 Q92 491 115 504.5 Q138 518 169 518 Q206 518 227.5 504.5 Q249 491 255 472 Z " />
<glyph glyph-name="period" unicode="&#x2e;" horiz-adv-x="236" d="M173 116 L155 33 Q143 14 120 0.5 Q97 -13 64 -13 Q29 -13 7.5 1 Q-14 15 -20 33 L-2 116 Q10 135 33 148.5 Q56 162 87 162 Q124 162 145.5 148.5 Q167 135 173 116 Z " />
<glyph glyph-name="ellipsis" unicode="&#x2026;" horiz-adv-x="694" d="M172 115 L155 33 Q142 15 117 1 Q92 -13 57 -13 Q23 -13 4 1 Q-15 15 -20 33 L-3 115 Q9 133 34.5 147 Q60 161 94 161 Q129 161 149 147 Q169 133 172 115 Z M401 115 L384 33 Q371 15 346 1 Q321 -13 286 -13 Q252 -13 233 1 Q214 15 209 33 L226 115 Q238 133 263.5 147 Q289 161 323 161 Q358 161 378 147 Q398 133 401 115 Z M630 115 L612 33 Q600 15 574.5 1 Q549 -13 514 -13 Q480 -13 461 1 Q442 15 438 33 L455 115 Q467 133 492.5 147 Q518 161 552 161 Q587 161 606.5 147.5 Q626 134 630 115 Z " />
<glyph glyph-name="hyphen" unicode="&#x2d;" horiz-adv-x="368" d="M335 268 L32 268 L59 400 L363 400 L335 268 Z " />
<glyph glyph-name="exclam" unicode="&#x21;" horiz-adv-x="294" d="M299 546 L205 207 L62 207 L111 546 L145 700 L332 700 L299 546 Z M202 116 L184 33 Q172 14 149 0.5 Q126 -13 93 -13 Q58 -13 36.5 1 Q15 15 9 33 L27 116 Q39 135 62 148.5 Q85 162 116 162 Q153 162 174.5 148.5 Q196 135 202 116 Z " />
<glyph glyph-name="exclamdown" unicode="&#xa1;" horiz-adv-x="294" d="M91 428 L109 512 Q121 531 143.5 544 Q166 557 200 557 Q235 557 256.5 543.5 Q278 530 284 512 L266 428 Q254 409 231 396 Q208 383 177 383 Q140 383 118 396.5 Q96 410 91 428 Z M-6 -1 L88 338 L231 338 L182 -1 L148 -155 L-39 -155 L-6 -1 Z " />
<glyph glyph-name="question" unicode="&#x3f;" horiz-adv-x="544" d="M588 587 L552 416 Q528 384 457 343 L308 254 L297 206 L128 206 L152 318 L308 412 Q342 432 361.5 446 Q381 460 391 473 L405 536 Q397 553 377.5 564 Q358 575 330 575 Q296 575 269.5 560.5 Q243 546 230 523 L76 523 L94 608 Q135 650 200 682.5 Q265 715 359 715 Q461 715 515.5 675.5 Q570 636 588 587 Z M282 116 L264 33 Q253 14 230 0.5 Q207 -13 173 -13 Q138 -13 116.5 1 Q95 15 90 33 L107 116 Q120 136 143 149 Q166 162 197 162 Q233 162 255 148 Q277 134 282 116 Z " />
<glyph glyph-name="questiondown" unicode="&#xbf;" horiz-adv-x="544" d="M262 430 L279 513 Q291 532 314 545.5 Q337 559 370 559 Q405 559 426.5 545 Q448 531 454 513 L436 430 Q424 411 400.5 397.5 Q377 384 347 384 Q310 384 288.5 398 Q267 412 262 430 Z M-45 -41 L-8 131 Q18 164 86 203 L236 292 L247 341 L416 341 L392 228 L236 135 Q202 115 182 101 Q162 87 153 73 L139 10 Q146 -7 166 -18 Q186 -29 214 -29 Q247 -29 273.5 -14 Q300 1 314 23 L467 23 L450 -61 Q409 -104 344 -136.5 Q279 -169 185 -169 Q84 -169 29.5 -129.5 Q-25 -90 -45 -41 Z " />
<glyph glyph-name="quoteleft" unicode="&#x2018;" horiz-adv-x="237" d="M64 459 L102 632 Q120 667 153 689 Q186 711 236 711 L278 711 L263 641 L231 641 Q218 641 206 634.5 Q194 628 187 616 L181 590 Q215 590 234 576 Q253 562 257 544 L239 459 Q226 440 202.5 426.5 Q179 413 146 413 Q113 413 92 427 Q71 441 64 459 Z " />
<glyph glyph-name="quoteright" unicode="&#x2019;" horiz-adv-x="237" d="M299 669 L261 496 Q243 461 210 439 Q177 417 127 417 L85 417 L100 487 L132 487 Q145 487 156.5 494 Q168 501 176 512 L182 539 Q148 539 128.5 553 Q109 567 106 585 L124 670 Q136 689 159.5 702 Q183 715 217 715 Q250 715 271 701 Q292 687 299 669 Z " />
<glyph glyph-name="quotedblleft" unicode="&#x201c;" horiz-adv-x="465" d="M68 459 L105 633 Q123 668 156.5 690 Q190 712 240 712 L282 712 L266 642 L235 642 Q222 642 210 635 Q198 628 190 617 L184 590 Q218 590 237.5 576 Q257 562 261 544 L243 459 Q231 440 207.5 427 Q184 414 150 414 Q117 414 96 427.5 Q75 441 68 459 Z M296 459 L333 633 Q374 712 468 712 L510 712 L494 642 L463 642 Q450 642 438 635 Q426 628 418 617 L412 590 Q446 590 465.5 576 Q485 562 489 544 L471 459 Q459 440 435.5 427 Q412 414 378 414 Q345 414 324 427.5 Q303 441 296 459 Z " />
<glyph glyph-name="quotedblright" unicode="&#x201d;" horiz-adv-x="465" d="M299 669 L261 496 Q243 461 210 439 Q177 417 127 417 L85 417 L100 487 L132 487 Q145 487 156.5 494 Q168 501 176 512 L182 539 Q148 539 128.5 553 Q109 567 106 585 L124 670 Q136 689 159.5 702 Q183 715 217 715 Q250 715 271 701 Q292 687 299 669 Z M526 669 L488 496 Q470 461 437 439 Q404 417 354 417 L312 417 L327 487 L359 487 Q372 487 383.5 494 Q395 501 403 512 L409 539 Q375 539 355.5 553 Q336 567 333 585 L351 670 Q363 689 386.5 702 Q410 715 444 715 Q477 715 498 701 Q519 687 526 669 Z " />
<glyph glyph-name="quotesinglbase" unicode="&#x201a;" horiz-adv-x="237" d="M182 116 L144 -57 Q126 -92 93 -114 Q60 -136 10 -136 L-32 -136 L-17 -66 L15 -66 Q28 -66 39.5 -59 Q51 -52 59 -41 L65 -14 Q31 -14 11.5 0 Q-8 14 -11 32 L7 117 Q19 136 42.5 149 Q66 162 100 162 Q133 162 154 148 Q175 134 182 116 Z " />
<glyph glyph-name="quotedblbase" unicode="&#x201e;" horiz-adv-x="466" d="M176 116 L138 -57 Q120 -92 87 -114 Q54 -136 4 -136 L-38 -136 L-23 -66 L9 -66 Q22 -66 33.5 -59 Q45 -52 53 -41 L59 -14 Q25 -14 5.5 0 Q-14 14 -17 32 L1 117 Q13 136 36.5 149 Q60 162 94 162 Q127 162 148 148 Q169 134 176 116 Z M405 116 L367 -57 Q349 -92 316 -114 Q283 -136 233 -136 L191 -136 L206 -66 L238 -66 Q251 -66 262.5 -59 Q274 -52 282 -41 L288 -14 Q254 -14 234.5 0 Q215 14 212 32 L230 117 Q242 136 265.5 149 Q289 162 323 162 Q356 162 377 148 Q398 134 405 116 Z " />
<glyph glyph-name="guilsinglleft" unicode="&#x2039;" horiz-adv-x="360" d="M166 279 L290 114 L272 27 L170 27 L21 221 L49 351 L259 544 L382 544 L364 456 L166 279 Z " />
<glyph glyph-name="guilsinglright" unicode="&#x203a;" horiz-adv-x="360" d="M317 220 L107 27 L-17 27 L1 114 L199 292 L75 456 L93 544 L196 544 L344 349 L317 220 Z " />
<glyph glyph-name="guillemotleft" unicode="&#xab;" horiz-adv-x="635" d="M166 279 L290 114 L272 27 L170 27 L21 221 L49 351 L259 544 L382 544 L364 456 L166 279 Z M443 279 L567 114 L549 27 L447 27 L298 221 L326 351 L536 544 L659 544 L641 456 L443 279 Z " />
<glyph glyph-name="guillemotright" unicode="&#xbb;" horiz-adv-x="635" d="M315 220 L105 27 L-18 27 L0 114 L198 292 L74 456 L92 544 L194 544 L343 349 L315 220 Z M592 220 L382 27 L259 27 L277 114 L475 292 L351 456 L369 544 L471 544 L620 349 L592 220 Z " />
<glyph glyph-name="slash" unicode="&#x2f;" horiz-adv-x="418" d="M462 643 L94 -110 L-47 -110 L-28 -22 L340 731 L481 731 L462 643 Z " />
<glyph glyph-name="bar" unicode="&#x7c;" horiz-adv-x="318" d="M267 -130 L87 -130 L87 790 L267 790 L267 -130 Z " />
<glyph glyph-name="endash" unicode="&#x2013;" horiz-adv-x="568" d="M535 268 L32 268 L59 400 L563 400 L535 268 Z " />
<glyph glyph-name="emdash" unicode="&#x2014;" horiz-adv-x="868" d="M835 268 L32 268 L59 400 L863 400 L835 268 Z " />
<glyph glyph-name="bullet" unicode="&#x2022;" horiz-adv-x="358" d="M346 417 L314 268 Q262 202 170 202 Q124 202 90 221 Q56 240 43 269 L74 417 Q97 446 133.5 463.5 Q170 481 216 481 Q262 481 296.5 463 Q331 445 346 417 Z " />
<glyph glyph-name="parenleft" unicode="&#x28;" horiz-adv-x="360" d="M397 581 L386 581 Q352 581 323.5 560.5 Q295 540 281 511 L175 18 Q176 -11 195.5 -30 Q215 -49 250 -49 L261 -49 L236 -168 L225 -168 Q152 -168 100.5 -143 Q49 -118 21 -80 Q-7 -42 -15 0 L99 532 Q135 601 212.5 650.5 Q290 700 399 700 L422 700 L397 581 Z " />
<glyph glyph-name="parenright" unicode="&#x29;" horiz-adv-x="360" d="M-39 -49 L-28 -49 Q6 -49 34 -28.5 Q62 -8 76 21 L182 514 Q181 543 161.5 562 Q142 581 107 581 L96 581 L122 700 L133 700 Q206 700 257 675 Q308 650 336 612 Q364 574 372 532 L258 0 Q222 -69 144.5 -118.5 Q67 -168 -42 -168 L-64 -168 L-39 -49 Z " />
<glyph glyph-name="bracketleft" unicode="&#x5b;" horiz-adv-x="368" d="M401 581 L298 581 L162 -49 L265 -49 L240 -168 L-43 -168 L143 700 L426 700 L401 581 Z " />
<glyph glyph-name="bracketright" unicode="&#x5d;" horiz-adv-x="368" d="M222 -168 L-61 -168 L-35 -49 L68 -49 L203 581 L100 581 L125 700 L408 700 L222 -168 Z " />
<glyph glyph-name="braceleft" unicode="&#x7b;" horiz-adv-x="379" d="M15 -11 L49 150 Q52 178 42 189.5 Q32 201 11 201 L37 320 Q58 320 73 331.5 Q88 343 97 371 L131 532 Q168 604 246 652 Q324 700 442 700 L417 581 Q341 581 307 490 L277 348 Q251 295 188 259 Q231 226 239 171 L208 27 Q201 -60 280 -60 L254 -179 Q148 -179 89.5 -129 Q31 -79 15 -11 Z " />
<glyph glyph-name="braceright" unicode="&#x7d;" horiz-adv-x="379" d="M360 532 L326 371 Q325 366 325 358 Q325 337 334.5 328.5 Q344 320 363 320 L337 201 Q317 201 302 189.5 Q287 178 278 150 L244 -11 Q206 -83 128 -131 Q50 -179 -68 -179 L-42 -60 Q35 -60 67 31 L97 173 Q124 227 187 262 Q143 296 135 350 L166 494 Q173 581 95 581 L121 700 Q227 700 285 650.5 Q343 601 360 532 Z " />
<glyph glyph-name="asterisk" unicode="&#x2a;" horiz-adv-x="491" d="M516 558 Q516 550 514 536 L378 515 L476 417 Q465 390 430 363 Q399 340 365 336 L303 459 L241 336 Q206 340 175 363 Q140 390 129 417 L227 515 L91 536 Q89 550 89 558 Q89 582 97 606 Q111 647 134 667 L255 605 L233 739 Q265 755 302 755 Q342 755 371 739 L350 604 L471 667 Q494 647 508 606 Q516 582 516 558 Z " />
<glyph glyph-name="dagger" unicode="&#x2020;" horiz-adv-x="648" d="M648 334 L549 334 L432 346 L417 -168 L277 -168 L263 346 L148 334 L50 334 L50 482 L148 482 L259 471 L257 546 L257 700 L438 700 L438 546 L435 471 L549 482 L648 482 L648 334 Z " />
<glyph glyph-name="daggerdbl" unicode="&#x2021;" horiz-adv-x="668" d="M413 200 L535 212 L634 212 L634 64 L535 64 L410 76 L403 -168 L263 -168 L256 77 L134 64 L36 64 L36 212 L134 212 L253 200 L248 376 L134 364 L36 364 L36 512 L134 512 L244 501 L243 546 L243 700 L423 700 L423 546 L422 501 L535 512 L634 512 L634 364 L535 364 L418 376 L413 200 Z " />
<glyph glyph-name="section" unicode="&#xa7;" horiz-adv-x="527" d="M255 569 L247 528 Q255 508 304 497 L349 486 Q425 469 464 444.5 Q503 420 516 396 L484 248 Q465 222 425 197 Q449 179 463 153 L434 15 Q409 -22 348 -56.5 Q287 -91 194 -91 Q129 -91 84 -72 Q39 -53 14.5 -29 Q-10 -5 -18 15 L-6 70 L139 70 Q142 50 160.5 36 Q179 22 210 22 Q235 22 256.5 31.5 Q278 41 289 55 L297 96 Q289 116 240 127 L195 138 Q119 155 80 179.5 Q41 204 28 228 L59 376 Q78 401 119 427 Q95 445 81 471 L110 609 Q136 646 196.5 680.5 Q257 715 350 715 Q415 715 460 696 Q505 677 529.5 653 Q554 629 562 609 L550 554 L405 554 Q402 574 383.5 588 Q365 602 334 602 Q309 602 287.5 592.5 Q266 583 255 569 Z M292 366 L273 371 Q251 368 233 358.5 Q215 349 205 337 L195 290 Q203 268 252 258 L271 253 Q293 256 311 265.5 Q329 275 339 287 L349 334 Q341 356 292 366 Z " />
<glyph glyph-name="paragraph" unicode="&#xb6;" horiz-adv-x="674" d="M333 -100 L210 -100 L280 227 L241 227 Q167 227 119 261 Q71 295 54 346 L103 581 Q149 638 212 669 Q275 700 342 700 L504 700 L333 -100 Z M539 -100 L416 -100 L587 700 L710 700 L539 -100 Z " />
<glyph glyph-name="asciicircum" unicode="&#x5e;" horiz-adv-x="502" d="M496 342 L388 342 L290 535 L270 535 L172 342 L65 342 L65 439 L205 700 L357 700 L496 439 L496 342 Z " />
<glyph glyph-name="asciitilde" unicode="&#x7e;" horiz-adv-x="586" d="M327 433 Q366 421 395.5 414.5 Q425 408 454 408 Q483 408 508 418 Q533 428 549.5 439.5 Q566 451 566 452 L566 309 Q566 308 550.5 299 Q535 290 510.5 282.5 Q486 275 455 275 Q420 275 388.5 281.5 Q357 288 312 301 Q274 313 244.5 319.5 Q215 326 184 326 Q149 326 119 314.5 Q89 303 68.5 289.5 Q48 276 48 275 L48 413 Q48 414 67 426.5 Q86 439 117 449 Q148 459 186 459 Q219 459 251 452.5 Q283 446 327 433 Z " />
<glyph glyph-name="brokenbar" unicode="&#xa6;" horiz-adv-x="318" d="M267 385 L87 385 L87 790 L267 790 L267 385 Z M267 -129 L87 -129 L87 307 L267 307 L267 -129 Z " />
<glyph glyph-name="backslash" unicode="&#x5c;" horiz-adv-x="418" d="M319 -22 L300 -110 L159 -110 L115 643 L134 731 L275 731 L319 -22 Z " />
<glyph glyph-name="underscore" unicode="&#x5f;" horiz-adv-x="525" d="M439 -153 L-96 -153 L-73 -48 L462 -48 L439 -153 Z " />
<glyph glyph-name="quotesingle" unicode="&#x27;" horiz-adv-x="207" d="M238 565 L188 422 L84 422 L94 565 L123 700 L267 700 L238 565 Z " />
<glyph glyph-name="quotedbl" unicode="&#x22;" horiz-adv-x="418" d="M238 565 L188 422 L84 422 L94 565 L123 700 L267 700 L238 565 Z M449 565 L399 422 L295 422 L305 565 L334 700 L478 700 L449 565 Z " />
<glyph glyph-name="at" unicode="&#x40;" horiz-adv-x="917" d="M925 454 L850 105 Q820 67 775 49 Q730 31 680 31 Q575 31 526 93 Q459 36 369 36 Q324 36 289 54.5 Q254 73 234 100 Q214 127 210 152 L262 396 Q285 440 336 476 Q387 512 452 512 Q531 512 570 456 L579 499 L726 499 L649 141 Q661 116 698 116 Q716 116 728 122 Q740 128 754 141 L818 435 Q810 477 779 519.5 Q748 562 688 592.5 Q628 623 538 623 Q431 623 335.5 571.5 Q240 520 180 431 L113 123 Q134 32 208.5 -19 Q283 -70 389 -70 Q488 -70 575 -25 L613 -104 Q511 -162 379 -162 Q235 -162 135 -93 Q35 -24 4 98 L80 455 Q152 578 278 646.5 Q404 715 549 715 Q662 715 744 673 Q826 631 871 570.5 Q916 510 925 454 Z M426 145 Q452 145 474 154 Q496 163 511 177 L552 372 Q544 386 526 394.5 Q508 403 482 403 Q456 403 434.5 392.5 Q413 382 405 370 L364 178 Q368 166 384 155.5 Q400 145 426 145 Z " />
<glyph glyph-name="copyright" unicode="&#xa9;" horiz-adv-x="793" d="M778 350 Q778 250 728.5 166 Q679 82 594.5 33.5 Q510 -15 410 -15 Q311 -15 226.5 33.5 Q142 82 92.5 166 Q43 250 43 350 Q43 450 92.5 534 Q142 618 226.5 666.5 Q311 715 410 715 Q510 715 594.5 666.5 Q679 618 728.5 534 Q778 450 778 350 Z M116 350 Q116 268 155 199 Q194 130 261.5 90 Q329 50 410 50 Q492 50 559.5 90 Q627 130 666 199 Q705 268 705 350 Q705 432 666 501 Q627 570 559.5 610 Q492 650 410 650 Q329 650 261.5 610 Q194 570 155 501 Q116 432 116 350 Z M604 490 L604 432 L484 432 Q479 451 460.5 464.5 Q442 478 412 478 Q388 478 371 469 Q354 460 347 448 L347 251 Q354 240 371.5 231 Q389 222 412 222 Q442 222 460.5 235.5 Q479 249 484 267 L604 267 L604 209 Q582 177 535.5 148 Q489 119 409 119 Q328 119 278 153.5 Q228 188 210 226 L210 474 Q228 512 278 546 Q328 580 409 580 Q490 580 536.5 551 Q583 522 604 490 Z " />
<glyph glyph-name="registered" unicode="&#xae;" horiz-adv-x="518" d="M567 585 Q567 521 534 466 Q501 411 445.5 378.5 Q390 346 326 346 Q262 346 206.5 378.5 Q151 411 118 466 Q85 521 85 585 Q85 649 118 704 Q151 759 206.5 791.5 Q262 824 326 824 Q390 824 445.5 791.5 Q501 759 534 704 Q567 649 567 585 Z M517 585 Q517 637 491.5 681.5 Q466 726 422.5 752 Q379 778 326 778 Q274 778 230.5 752 Q187 726 161.5 681.5 Q136 637 136 585 Q136 533 161.5 488.5 Q187 444 230.5 418 Q274 392 326 392 Q379 392 422.5 418 Q466 444 491.5 488.5 Q517 533 517 585 Z M439 671 L439 592 Q427 565 397 551 L437 500 L437 456 L374 456 L328 541 L296 541 L296 456 L224 456 L224 724 L352 724 Q378 724 403 709.5 Q428 695 439 671 Z M296 595 L337 595 Q361 595 367 611 L367 651 Q361 667 337 667 L296 667 L296 595 Z " />
<glyph glyph-name="trademark" unicode="&#x2122;" horiz-adv-x="811" d="M295 613 L230 310 L120 310 L185 613 L96 613 L114 700 L403 700 L385 613 L295 613 Z M677 310 L724 531 L722 531 L595 310 L536 310 L503 531 L501 531 L454 310 L352 310 L435 700 L578 700 L609 501 L611 501 L725 700 L862 700 L779 310 L677 310 Z " />
<glyph glyph-name="uni2117" unicode="&#x2117;" horiz-adv-x="793" d="M764 350 Q764 250 714.5 166 Q665 82 580.5 33.5 Q496 -15 396 -15 Q297 -15 212.5 33.5 Q128 82 78.5 166 Q29 250 29 350 Q29 450 78.5 534 Q128 618 212.5 666.5 Q297 715 396 715 Q496 715 580.5 666.5 Q665 618 714.5 534 Q764 450 764 350 Z M102 350 Q102 268 141 199 Q180 130 247.5 90 Q315 50 396 50 Q478 50 545.5 90 Q613 130 652 199 Q691 268 691 350 Q691 432 652 501 Q613 570 545.5 610 Q478 650 396 650 Q315 650 247.5 610 Q180 570 141 501 Q102 432 102 350 Z M586 476 L586 345 Q569 306 530.5 282 Q492 258 448 258 L364 258 L364 133 L248 133 L248 563 L448 563 Q492 563 530.5 539 Q569 515 586 476 Z M364 477 L364 344 L426 344 Q441 344 454 351.5 Q467 359 474 374 L474 448 Q467 462 454 469.5 Q441 477 426 477 L364 477 Z " />
<glyph glyph-name="currency" unicode="&#xa4;" horiz-adv-x="591" d="M556 505 L533 482 Q547 462 552 448 L552 218 Q549 211 534 185 L556 163 L556 83 L449 83 L428 103 Q372 81 309 81 Q243 81 190 102 L170 83 L61 83 L61 163 L83 185 Q73 200 64 218 L64 448 Q72 464 84 482 L61 505 L61 585 L170 585 L191 564 Q243 585 309 585 Q372 585 428 563 L449 585 L556 585 L556 505 Z M386 418 Q379 435 358 447 Q337 459 309 459 Q281 459 260.5 447 Q240 435 232 418 L232 248 Q240 230 260 218.5 Q280 207 309 207 Q338 207 358.5 219 Q379 231 386 248 L386 418 Z " />
<glyph glyph-name="Euro" unicode="&#x20ac;" horiz-adv-x="600" d="M303 544 L286 465 L496 465 L479 379 L268 379 L257 329 L467 329 L448 243 L239 243 L220 156 Q225 139 245.5 127 Q266 115 295 115 Q366 115 399 185 L549 185 L529 96 Q500 57 436 21 Q372 -15 277 -15 Q210 -15 159 6.5 Q108 28 78 59 Q48 90 39 119 L66 243 L20 243 L39 329 L84 329 L95 379 L51 379 L68 465 L113 465 L138 581 Q171 634 241.5 674.5 Q312 715 413 715 Q479 715 526.5 695 Q574 675 600 649 Q626 623 637 602 L618 515 L475 515 Q474 546 451.5 565.5 Q429 585 391 585 Q363 585 339 573 Q315 561 303 544 Z " />
<glyph glyph-name="dollar" unicode="&#x24;" horiz-adv-x="595" d="M279 540 L265 474 Q268 461 280 452.5 Q292 444 321 436 L372 422 Q462 398 502 367.5 Q542 337 560 297 L521 120 Q444 9 305 -11 L288 -91 L153 -91 L170 -8 Q100 6 61 42 Q22 78 6 119 L22 197 L178 197 Q180 162 202.5 142 Q225 122 264 122 Q296 122 320.5 135.5 Q345 149 359 167 L374 236 Q370 251 356 261.5 Q342 272 312 280 L261 294 Q176 315 136.5 344 Q97 373 78 412 L115 587 Q144 629 196.5 664.5 Q249 700 324 711 L342 792 L477 792 L459 707 Q524 693 563 658 Q602 623 615 587 L598 510 L443 510 Q441 541 422 560 Q403 579 364 579 Q337 579 314 567.5 Q291 556 279 540 Z " />
<glyph glyph-name="cent" unicode="&#xa2;" horiz-adv-x="545" d="M231 388 L180 154 Q185 137 204 125.5 Q223 114 251 114 Q314 114 349 173 L493 173 L477 97 Q452 63 406.5 31 Q361 -1 290 -11 L273 -92 L137 -92 L156 -6 Q92 10 54 47 Q16 84 7 122 L71 422 Q98 468 149.5 505.5 Q201 543 276 555 L293 635 L428 635 L410 550 Q470 535 506 503 Q542 471 551 443 L536 371 L394 371 Q390 398 368.5 413.5 Q347 429 314 429 Q287 429 264.5 417 Q242 405 231 388 Z " />
<glyph glyph-name="sterling" unicode="&#xa3;" horiz-adv-x="608" d="M307 544 L275 395 L497 395 L476 294 L253 294 L230 185 Q217 161 188 134 L541 134 L512 0 L-20 0 L4 113 Q14 115 27 123.5 Q40 132 49 147 L81 294 L36 294 L57 395 L102 395 L142 581 Q175 634 245.5 674.5 Q316 715 416 715 Q483 715 530.5 695 Q578 675 605 649 Q632 623 641 602 L622 515 L478 515 Q476 547 454.5 566 Q433 585 396 585 Q367 585 343 573 Q319 561 307 544 Z " />
<glyph glyph-name="florin" unicode="&#x192;" horiz-adv-x="418" d="M343 561 L334 516 L430 516 L404 396 L308 396 L205 -84 Q181 -124 132.5 -152.5 Q84 -181 12 -181 Q-18 -181 -45 -177 Q-72 -173 -87 -168 L-63 -57 L-21 -57 Q29 -57 50 -28 L141 396 L82 396 L107 516 L167 516 L188 617 Q212 657 260.5 685.5 Q309 714 382 714 Q412 714 439 710 Q466 706 480 701 L456 590 L414 590 Q364 590 343 561 Z " />
<glyph glyph-name="yen" unicode="&#xa5;" horiz-adv-x="605" d="M396 279 L577 279 L559 193 L373 193 L331 0 L150 0 L191 193 L12 193 L30 279 L210 279 L212 287 L193 340 L43 340 L62 426 L164 426 L104 602 L125 700 L273 700 L337 450 L340 450 L508 700 L663 700 L642 602 L508 426 L609 426 L591 340 L443 340 L396 279 Z " />
<glyph glyph-name="uni20A8" unicode="&#x20a8;" horiz-adv-x="512" d="M568 614 L472 614 Q486 599 492 577 L479 514 L547 514 L528 428 L460 428 L450 378 Q421 328 364.5 295 Q308 262 250 257 L387 88 L369 0 L232 0 L39 254 L62 359 L185 359 Q216 359 242.5 371 Q269 383 282 404 L288 428 L77 428 L96 514 L306 514 L311 538 Q307 558 287 570.5 Q267 583 242 583 L110 583 L135 700 L586 700 L568 614 Z " />
<glyph glyph-name="uni20BA" unicode="&#x20ba;" horiz-adv-x="595" d="M541 201 L522 113 Q493 72 428.5 36 Q364 0 268 0 L28 0 L71 202 L4 172 L25 270 L92 300 L106 366 L39 337 L59 435 L127 464 L177 700 L350 700 L317 548 L503 630 L482 531 L296 450 L282 384 L467 465 L446 367 L261 286 L228 130 L282 130 Q320 130 348.5 149.5 Q377 169 392 201 L541 201 Z " />
<glyph glyph-name="uni20BD" unicode="&#x20bd;" horiz-adv-x="613" d="M647 581 L606 386 Q568 329 509.5 298.5 Q451 268 374 268 L246 268 L236 218 L472 218 L454 133 L217 133 L189 0 L9 0 L37 133 L-10 133 L9 218 L55 218 L66 268 L19 268 L44 384 L91 384 L158 700 L450 700 Q518 700 571 668.5 Q624 637 647 581 Z M463 526 Q456 547 436.5 557.5 Q417 568 391 568 L310 568 L271 384 L344 384 Q410 384 441 426 L463 526 Z " />
<glyph glyph-name="ordfeminine" unicode="&#xaa;" horiz-adv-x="399" d="M429 616 L373 355 L279 355 L284 378 Q243 346 190 346 Q156 346 130.5 355.5 Q105 365 90.5 378 Q76 391 72 401 L93 502 Q109 525 139 543.5 Q169 562 217 562 L317 562 L325 601 Q323 617 309 627 Q295 637 273 637 Q252 637 235.5 627 Q219 617 208 601 L120 601 L129 640 Q147 666 184 688.5 Q221 711 281 711 Q346 711 384.5 682 Q423 653 429 616 Z M224 418 Q267 418 291 442 L303 498 L241 498 Q221 498 206.5 491 Q192 484 185 475 L177 441 Q180 433 192 425.5 Q204 418 224 418 Z " />
<glyph glyph-name="ordmasculine" unicode="&#xba;" horiz-adv-x="406" d="M436 616 L399 441 Q376 401 334.5 373.5 Q293 346 230 346 Q166 346 127 374.5 Q88 403 80 441 L118 616 Q142 656 183.5 683.5 Q225 711 287 711 Q352 711 391 682 Q430 653 436 616 Z M214 599 L183 457 Q186 443 199.5 433.5 Q213 424 235 424 Q257 424 275 433.5 Q293 443 302 457 L332 599 Q330 615 316 625 Q302 635 281 635 Q259 635 241.5 625 Q224 615 214 599 Z " />
<glyph glyph-name="numbersign" unicode="&#x23;" horiz-adv-x="565" d="M464 304 L512 304 L487 186 L419 186 L350 0 L234 0 L252 88 L289 186 L185 186 L116 0 L0 0 L19 88 L55 186 L6 186 L32 304 L99 304 L136 402 L88 402 L113 521 L181 521 L248 700 L364 700 L345 612 L311 521 L414 521 L481 700 L597 700 L579 612 L545 521 L594 521 L568 402 L500 402 L464 304 Z M267 402 L230 304 L333 304 L370 402 L267 402 Z " />
<glyph glyph-name="uni2116" unicode="&#x2116;" horiz-adv-x="1032" d="M1079 601 L1045 443 Q1017 402 962.5 369.5 Q908 337 832 337 Q755 337 715 369.5 Q675 402 664 443 L698 601 Q726 643 780 675.5 Q834 708 911 708 Q988 708 1028 675 Q1068 642 1079 601 Z M509 0 L327 0 L249 392 L246 392 L162 0 L-5 0 L144 700 L326 700 L404 307 L407 307 L491 700 L658 700 L509 0 Z M819 578 L795 467 Q798 453 813 442.5 Q828 432 853 432 Q877 432 895.5 442.5 Q914 453 924 467 L949 578 Q944 593 929.5 603 Q915 613 892 613 Q867 613 848 603 Q829 593 819 578 Z M992 198 L612 198 L634 299 L1014 299 L992 198 Z " />
<glyph glyph-name="zero" unicode="0" horiz-adv-x="595" d="M617 581 L519 119 Q484 66 415 25.5 Q346 -15 248 -15 Q180 -15 129.5 6 Q79 27 49.5 58 Q20 89 11 119 L109 581 Q143 634 213 674.5 Q283 715 382 715 Q450 715 499.5 694 Q549 673 578 642 Q607 611 617 581 Z M275 544 L191 157 Q196 140 217 127.5 Q238 115 266 115 Q295 115 318.5 127 Q342 139 354 157 L437 544 Q433 560 412 572.5 Q391 585 362 585 Q334 585 310.5 573 Q287 561 275 544 Z " />
<glyph glyph-name="one" unicode="1" horiz-adv-x="461" d="M394 115 L370 0 L-8 0 L16 115 L122 115 L211 527 L95 485 L123 614 L296 700 L420 700 L295 115 L394 115 Z " />
<glyph glyph-name="two" unicode="2" horiz-adv-x="572" d="M598 581 L566 427 Q547 391 512.5 363 Q478 335 399 294 L311 249 Q258 222 228.5 203 Q199 184 188 168 L182 137 L507 137 L477 0 L-20 0 L23 206 Q47 246 88 278.5 Q129 311 197 348 L300 401 Q346 425 369.5 441.5 Q393 458 404 476 L419 545 Q413 562 393 573.5 Q373 585 346 585 Q312 585 285 567.5 Q258 550 241 515 L90 515 L109 602 Q141 644 204.5 679.5 Q268 715 365 715 Q433 715 482.5 694 Q532 673 561 642.5 Q590 612 598 581 Z " />
<glyph glyph-name="three" unicode="3" horiz-adv-x="571" d="M592 586 L561 438 Q548 418 519 398 Q490 378 451 362 Q482 347 504 323.5 Q526 300 531 277 L497 119 Q464 66 394.5 25.5 Q325 -15 225 -15 Q159 -15 110.5 4.5 Q62 24 34.5 50 Q7 76 -4 98 L15 186 L161 186 Q163 154 185 134.5 Q207 115 243 115 Q273 115 296 127 Q319 139 332 157 L352 247 Q349 268 329 282.5 Q309 297 277 297 L192 297 L218 421 L297 421 Q330 421 355.5 433.5 Q381 446 393 463 L412 550 Q405 564 386.5 574.5 Q368 585 341 585 Q273 585 243 520 L90 520 L109 607 Q138 644 202 679.5 Q266 715 360 715 Q427 715 476 694 Q525 673 553.5 643.5 Q582 614 592 586 Z " />
<glyph glyph-name="four" unicode="4" horiz-adv-x="600" d="M581 270 L552 141 L479 141 L450 0 L285 0 L314 141 L-2 141 L25 266 L356 700 L599 700 L508 270 L581 270 Z M192 270 L343 270 L401 543 L398 543 L192 270 Z " />
<glyph glyph-name="five" unicode="5" horiz-adv-x="562" d="M268 562 L236 414 Q293 451 365 451 Q433 451 480 419.5 Q527 388 539 347 L486 98 Q455 55 392.5 20 Q330 -15 234 -15 Q167 -15 118 4 Q69 23 41 49 Q13 75 3 98 L23 186 L169 186 Q170 156 191.5 135.5 Q213 115 250 115 Q278 115 302 127.5 Q326 140 340 158 L369 290 Q362 308 344 320 Q326 332 298 332 Q246 332 211 294 L53 294 L139 700 L611 700 L582 562 L268 562 Z " />
<glyph glyph-name="six" unicode="6" horiz-adv-x="581" d="M275 544 L246 408 Q308 444 379 444 Q448 444 494.5 413 Q541 382 552 340 L501 98 Q473 58 408.5 21.5 Q344 -15 248 -15 Q180 -15 129.5 6 Q79 27 49.5 58 Q20 89 11 119 L110 581 Q144 634 213.5 674.5 Q283 715 381 715 Q448 715 496 695.5 Q544 676 571.5 650 Q599 624 609 602 L590 515 L445 515 Q442 548 421 566.5 Q400 585 363 585 Q335 585 311 573 Q287 561 275 544 Z M222 300 L192 157 Q197 140 216.5 127.5 Q236 115 265 115 Q293 115 318 127.5 Q343 140 354 157 L382 284 Q377 301 357 312.5 Q337 324 307 324 Q264 324 222 300 Z " />
<glyph glyph-name="seven" unicode="7" horiz-adv-x="516" d="M185 0 L31 0 L52 98 L375 563 L79 563 L108 700 L584 700 L558 576 L185 0 Z " />
<glyph glyph-name="eight" unicode="8" horiz-adv-x="594" d="M610 592 L576 430 Q550 396 496 371 Q543 342 560 295 L522 119 Q490 68 421.5 26.5 Q353 -15 247 -15 Q142 -15 84.5 26.5 Q27 68 6 119 L44 296 Q73 336 140 364 Q101 392 87 431 L120 592 Q153 640 218.5 677.5 Q284 715 380 715 Q446 715 495 694.5 Q544 674 572 646 Q600 618 610 592 Z M264 472 Q277 445 319 433 L344 427 Q368 433 388 446 Q408 459 415 472 L432 550 Q425 565 407 575.5 Q389 586 361 586 Q335 586 314.5 576 Q294 566 281 551 L264 472 Z M380 257 Q370 287 312 301 L290 306 Q260 299 237.5 283.5 Q215 268 208 255 L187 158 Q193 141 213.5 127.5 Q234 114 266 114 Q325 114 359 159 L380 257 Z " />
<glyph glyph-name="nine" unicode="9" horiz-adv-x="581" d="M603 581 L504 119 Q470 66 400.5 25.5 Q331 -15 233 -15 Q166 -15 118 4.5 Q70 24 42.5 50 Q15 76 5 98 L24 185 L169 185 Q172 152 193 133.5 Q214 115 251 115 Q279 115 303 127 Q327 139 339 156 L366 282 Q304 246 233 246 Q164 246 117.5 277 Q71 308 59 351 L113 602 Q141 642 205.5 678.5 Q270 715 366 715 Q434 715 484.5 694 Q535 673 564.5 642 Q594 611 603 581 Z M390 391 L422 543 Q417 560 397.5 572.5 Q378 585 349 585 Q321 585 296 572.5 Q271 560 260 543 L229 407 Q235 390 255 378.5 Q275 367 305 367 Q348 367 390 391 Z " />
<glyph glyph-name="uni00A0" unicode="&#xa0;" horiz-adv-x="202" d="" />
<glyph glyph-name="fraction" unicode="&#x2044;" horiz-adv-x="195" d="M447 631 L-142 0 L-233 0 L-218 69 L372 700 L462 700 L447 631 Z " />
<glyph glyph-name="onequarter" unicode="&#xbc;" horiz-adv-x="922" d="M809 631 L220 0 L129 0 L144 69 L734 700 L824 700 L809 631 Z M313 357 L298 280 L46 280 L61 357 L129 357 L183 604 L114 601 L128 671 L222 700 L322 700 L248 357 L313 357 Z M860 167 L840 79 L791 79 L775 0 L661 0 L677 79 L459 79 L478 164 L701 420 L864 420 L810 167 L860 167 Z M596 167 L697 167 L730 319 L727 319 L596 167 Z " />
<glyph glyph-name="onehalf" unicode="&#xbd;" horiz-adv-x="973" d="M314 357 L299 280 L47 280 L62 357 L130 357 L184 604 L115 601 L129 671 L223 700 L323 700 L249 357 L314 357 Z M809 631 L220 0 L129 0 L144 69 L734 700 L824 700 L809 631 Z M940 347 L922 264 Q909 240 884 221.5 Q859 203 805 176 L744 145 Q678 112 668 94 L889 94 L869 0 L529 0 L551 105 Q581 157 668 202 L740 241 Q747 245 765 254.5 Q783 264 792.5 270.5 Q802 277 808 285 L815 318 Q810 327 797.5 333 Q785 339 766 339 Q741 339 722 327.5 Q703 316 695 303 L594 303 L606 363 Q625 387 668.5 408.5 Q712 430 778 430 Q844 430 885.5 404 Q927 378 940 347 Z " />
<glyph glyph-name="threequarters" unicode="&#xbe;" horiz-adv-x="963" d="M848 631 L259 0 L168 0 L183 69 L773 700 L863 700 L848 631 Z M897 167 L877 79 L828 79 L812 0 L698 0 L714 79 L496 79 L515 164 L738 420 L901 420 L847 167 L897 167 Z M633 167 L734 167 L767 319 L764 319 L633 167 Z M454 631 L435 540 Q427 529 408.5 516 Q390 503 366 495 Q386 487 399.5 474 Q413 461 419 448 L398 352 Q376 320 330 295.5 Q284 271 216 271 Q171 271 136.5 283 Q102 295 81.5 310 Q61 325 55 337 L68 398 L167 398 Q169 383 185.5 372.5 Q202 362 227 362 Q246 362 261.5 367.5 Q277 373 286 382 L296 428 Q293 438 279.5 444.5 Q266 451 246 451 L188 451 L206 536 L263 536 Q281 536 296 541.5 Q311 547 320 555 L330 601 Q325 608 313 613.5 Q301 619 283 619 Q258 619 240.5 608.5 Q223 598 214 584 L113 584 L127 646 Q145 669 186 689.5 Q227 710 293 710 Q339 710 373.5 697.5 Q408 685 428 666.5 Q448 648 454 631 Z " />
<glyph glyph-name="fiveeighths" unicode="&#x215d;" horiz-adv-x="1019" d="M919 215 Q953 192 962 166 L942 72 Q920 39 874 15 Q828 -9 760 -9 Q693 -9 650 16.5 Q607 42 595 72 L616 166 Q639 200 681 221 Q660 235 645 254 L670 365 Q687 387 729.5 408.5 Q772 430 837 430 Q901 430 938.5 408.5 Q976 387 993 365 L969 254 Q950 230 919 215 Z M759 271 Q764 264 776.5 259 Q789 254 808 254 Q827 254 841.5 259 Q856 264 863 271 L875 326 Q870 333 857 338.5 Q844 344 826 344 Q808 344 794 338.5 Q780 333 772 326 L759 271 Z M842 160 Q839 167 825 173 Q811 179 792 179 Q773 179 756.5 173 Q740 167 733 160 L720 96 Q723 88 737 82 Q751 76 770 76 Q789 76 805 82 Q821 88 828 96 L842 160 Z M437 606 L225 606 L209 531 Q244 554 297 554 Q342 554 373.5 536.5 Q405 519 415 494 L382 337 Q362 312 320.5 291.5 Q279 271 214 271 Q149 271 107.5 293 Q66 315 52 337 L65 398 L164 398 Q166 383 182.5 372.5 Q199 362 224 362 Q243 362 259 367.5 Q275 373 283 382 L298 454 Q294 462 281.5 468 Q269 474 249 474 Q231 474 214.5 466.5 Q198 459 192 452 L83 452 L135 700 L457 700 L437 606 Z M861 631 L272 0 L181 0 L196 69 L786 700 L876 700 L861 631 Z " />
<glyph glyph-name="oneeighth" unicode="&#x215b;" horiz-adv-x="981" d="M819 631 L230 0 L139 0 L154 69 L744 700 L834 700 L819 631 Z M312 357 L297 280 L45 280 L60 357 L128 357 L182 604 L113 601 L127 671 L221 700 L321 700 L247 357 L312 357 Z M877 215 Q911 192 920 166 L900 72 Q878 39 832 15 Q786 -9 718 -9 Q651 -9 608 16.5 Q565 42 553 72 L574 166 Q597 200 639 221 Q618 235 603 254 L628 365 Q645 387 687.5 408.5 Q730 430 795 430 Q859 430 896.5 408.5 Q934 387 951 365 L927 254 Q908 230 877 215 Z M717 271 Q722 264 734.5 259 Q747 254 766 254 Q785 254 799.5 259 Q814 264 821 271 L833 326 Q828 333 815 338.5 Q802 344 784 344 Q766 344 752 338.5 Q738 333 730 326 L717 271 Z M800 160 Q797 167 783 173 Q769 179 750 179 Q731 179 714.5 173 Q698 167 691 160 L678 96 Q681 88 695 82 Q709 76 728 76 Q747 76 763 82 Q779 88 786 96 L800 160 Z " />
<glyph glyph-name="seveneighths" unicode="&#x215e;" horiz-adv-x="950" d="M853 215 Q887 192 896 166 L876 72 Q854 39 808 15 Q762 -9 694 -9 Q627 -9 584 16.5 Q541 42 529 72 L550 166 Q573 200 615 221 Q594 235 579 254 L604 365 Q621 387 663.5 408.5 Q706 430 771 430 Q835 430 872.5 408.5 Q910 387 927 365 L903 254 Q884 230 853 215 Z M693 271 Q698 264 710.5 259 Q723 254 742 254 Q761 254 775.5 259 Q790 264 797 271 L809 326 Q804 333 791 338.5 Q778 344 760 344 Q742 344 728 338.5 Q714 333 706 326 L693 271 Z M776 160 Q773 167 759 173 Q745 179 726 179 Q707 179 690.5 173 Q674 167 667 160 L654 96 Q657 88 671 82 Q685 76 704 76 Q723 76 739 82 Q755 88 762 96 L776 160 Z M211 280 L102 280 L115 346 L308 603 L308 606 L112 606 L133 700 L453 700 L436 619 L211 280 Z M787 631 L198 0 L107 0 L122 69 L712 700 L802 700 L787 631 Z " />
<glyph glyph-name="threeeighths" unicode="&#x215c;" horiz-adv-x="1011" d="M909 215 Q943 192 952 166 L932 72 Q910 39 864 15 Q818 -9 750 -9 Q683 -9 640 16.5 Q597 42 585 72 L606 166 Q629 200 671 221 Q650 235 635 254 L660 365 Q677 387 719.5 408.5 Q762 430 827 430 Q891 430 928.5 408.5 Q966 387 983 365 L959 254 Q940 230 909 215 Z M749 271 Q754 264 766.5 259 Q779 254 798 254 Q817 254 831.5 259 Q846 264 853 271 L865 326 Q860 333 847 338.5 Q834 344 816 344 Q798 344 784 338.5 Q770 333 762 326 L749 271 Z M832 160 Q829 167 815 173 Q801 179 782 179 Q763 179 746.5 173 Q730 167 723 160 L710 96 Q713 88 727 82 Q741 76 760 76 Q779 76 795 82 Q811 88 818 96 L832 160 Z M452 631 L433 540 Q425 529 406.5 516 Q388 503 364 495 Q384 487 397.5 474 Q411 461 417 448 L396 352 Q374 320 328 295.5 Q282 271 214 271 Q169 271 134.5 283 Q100 295 79.5 310 Q59 325 53 337 L66 398 L165 398 Q167 383 183.5 372.5 Q200 362 225 362 Q244 362 259.5 367.5 Q275 373 284 382 L294 428 Q291 438 277.5 444.5 Q264 451 244 451 L186 451 L204 536 L261 536 Q279 536 294 541.5 Q309 547 318 555 L328 601 Q323 608 311 613.5 Q299 619 281 619 Q256 619 238.5 608.5 Q221 598 212 584 L111 584 L125 646 Q143 669 184 689.5 Q225 710 291 710 Q337 710 371.5 697.5 Q406 685 426 666.5 Q446 648 452 631 Z M857 631 L268 0 L177 0 L192 69 L782 700 L872 700 L857 631 Z " />
<glyph glyph-name="twothirds" unicode="&#x2154;" horiz-adv-x="1056" d="M1018 351 L999 260 Q991 249 972.5 236 Q954 223 930 215 Q950 207 963.5 194 Q977 181 983 168 L962 72 Q940 40 894 15.5 Q848 -9 780 -9 Q735 -9 700.5 3 Q666 15 645.5 30 Q625 45 619 57 L632 118 L731 118 Q733 103 749.5 92.5 Q766 82 791 82 Q810 82 825.5 87.5 Q841 93 850 102 L860 148 Q857 158 843.5 164.5 Q830 171 810 171 L752 171 L770 256 L827 256 Q845 256 860 261.5 Q875 267 884 275 L894 321 Q889 328 877 333.5 Q865 339 847 339 Q822 339 804.5 328.5 Q787 318 778 304 L677 304 L691 366 Q709 389 750 409.5 Q791 430 857 430 Q903 430 937.5 417.5 Q972 405 992 386.5 Q1012 368 1018 351 Z M454 627 L436 544 Q423 520 398 501.5 Q373 483 319 456 L258 425 Q192 392 182 374 L403 374 L383 280 L43 280 L65 385 Q95 437 182 482 L254 521 Q261 525 279 534.5 Q297 544 306.5 550.5 Q316 557 322 565 L329 598 Q324 607 311.5 613 Q299 619 280 619 Q255 619 236 607.5 Q217 596 209 583 L108 583 L120 643 Q139 667 182.5 688.5 Q226 710 292 710 Q358 710 399.5 684 Q441 658 454 627 Z M890 631 L301 0 L210 0 L225 69 L815 700 L905 700 L890 631 Z " />
<glyph glyph-name="uniE000" unicode="&#xe000;" horiz-adv-x="1046" d="M866 631 L277 0 L186 0 L201 69 L791 700 L881 700 L866 631 Z M232 599 L217 525 Q256 548 304 548 Q351 548 383 530.5 Q415 513 427 488 L395 337 Q374 312 333 291.5 Q292 271 226 271 Q159 271 116 296.5 Q73 322 61 352 L120 629 Q143 662 189 686 Q235 710 304 710 Q368 710 408 687.5 Q448 665 460 643 L448 587 L346 587 Q343 602 328.5 611 Q314 620 291 620 Q271 620 255.5 613.5 Q240 607 232 599 Z M201 454 L185 376 Q187 368 201 362 Q215 356 234 356 Q253 356 269 362 Q285 368 292 376 L309 448 Q305 456 291.5 461.5 Q278 467 257 467 Q227 467 201 454 Z M924 215 Q958 192 967 166 L947 72 Q925 39 879 15 Q833 -9 765 -9 Q698 -9 655 16.5 Q612 42 600 72 L621 166 Q644 200 686 221 Q665 235 650 254 L675 365 Q692 387 734.5 408.5 Q777 430 842 430 Q906 430 943.5 408.5 Q981 387 998 365 L974 254 Q955 230 924 215 Z M764 271 Q769 264 781.5 259 Q794 254 813 254 Q832 254 846.5 259 Q861 264 868 271 L880 326 Q875 333 862 338.5 Q849 344 831 344 Q813 344 799 338.5 Q785 333 777 326 L764 271 Z M847 160 Q844 167 830 173 Q816 179 797 179 Q778 179 761.5 173 Q745 167 738 160 L725 96 Q728 88 742 82 Q756 76 775 76 Q794 76 810 82 Q826 88 833 96 L847 160 Z " />
<glyph glyph-name="uniE001" unicode="&#xe001;" horiz-adv-x="1277" d="M309 357 L294 280 L42 280 L57 357 L125 357 L179 604 L110 601 L124 671 L218 700 L318 700 L244 357 L309 357 Z M1027 319 L1012 245 Q1051 268 1099 268 Q1146 268 1178 250.5 Q1210 233 1222 208 L1190 57 Q1169 32 1128 11.5 Q1087 -9 1021 -9 Q954 -9 911 16.5 Q868 42 856 72 L915 349 Q938 382 984 406 Q1030 430 1099 430 Q1163 430 1203 407.5 Q1243 385 1255 363 L1243 307 L1141 307 Q1138 322 1123.5 331 Q1109 340 1086 340 Q1066 340 1050.5 333.5 Q1035 327 1027 319 Z M996 174 L980 96 Q982 88 996 82 Q1010 76 1029 76 Q1048 76 1064 82 Q1080 88 1087 96 L1104 168 Q1100 176 1086.5 181.5 Q1073 187 1052 187 Q1022 187 996 174 Z M799 631 L210 0 L119 0 L134 69 L724 700 L814 700 L799 631 Z M812 77 L797 0 L545 0 L560 77 L628 77 L682 324 L613 321 L627 391 L721 420 L821 420 L747 77 L812 77 Z " />
<glyph glyph-name="percent" unicode="&#x25;" horiz-adv-x="915" d="M461 615 L422 437 Q399 397 354 370 Q309 343 240 343 Q171 343 130 370.5 Q89 398 77 437 L116 615 Q140 655 186 682.5 Q232 710 300 710 Q368 710 409 682 Q450 654 461 615 Z M808 631 L203 0 L128 0 L142 69 L748 700 L822 700 L808 631 Z M231 599 L201 453 Q204 443 217 435.5 Q230 428 249 428 Q268 428 284 435 Q300 442 308 453 L338 599 Q336 610 323 617.5 Q310 625 290 625 Q271 625 255 617.5 Q239 610 231 599 Z M870 263 L832 85 Q808 45 763 18 Q718 -9 650 -9 Q581 -9 540 18.5 Q499 46 487 85 L525 263 Q550 303 595.5 330 Q641 357 709 357 Q778 357 819 329 Q860 301 870 263 Z M641 247 L610 101 Q613 91 626 83.5 Q639 76 658 76 Q677 76 693 83 Q709 90 717 101 L748 247 Q745 257 732 264.5 Q719 272 700 272 Q681 272 665 264.5 Q649 257 641 247 Z " />
<glyph glyph-name="perthousand" unicode="&#x2030;" horiz-adv-x="1307" d="M461 615 L422 437 Q399 397 354 370 Q309 343 240 343 Q171 343 130 370.5 Q89 398 77 437 L116 615 Q140 655 186 682.5 Q232 710 300 710 Q368 710 409 682 Q450 654 461 615 Z M808 631 L203 0 L128 0 L142 69 L748 700 L822 700 L808 631 Z M231 599 L201 453 Q204 443 217 435.5 Q230 428 249 428 Q268 428 284 435 Q300 442 308 453 L338 599 Q336 610 323 617.5 Q310 625 290 625 Q271 625 255 617.5 Q239 610 231 599 Z M870 263 L832 85 Q808 45 763 18 Q718 -9 650 -9 Q581 -9 540 18.5 Q499 46 487 85 L525 263 Q550 303 595.5 330 Q641 357 709 357 Q778 357 819 329 Q860 301 870 263 Z M1263 263 L1224 85 Q1201 46 1155.5 18.5 Q1110 -9 1042 -9 Q973 -9 932 18.5 Q891 46 879 85 L918 263 Q942 303 987.5 330 Q1033 357 1101 357 Q1170 357 1211 329.5 Q1252 302 1263 263 Z M641 247 L610 101 Q613 91 626 83.5 Q639 76 658 76 Q677 76 693 83 Q709 90 717 101 L748 247 Q745 257 732 264.5 Q719 272 700 272 Q681 272 665 264.5 Q649 257 641 247 Z M1033 247 L1002 101 Q1005 91 1018.5 83.5 Q1032 76 1051 76 Q1070 76 1086 83.5 Q1102 91 1109 101 L1140 247 Q1137 257 1124 264.5 Q1111 272 1092 272 Q1073 272 1057 264.5 Q1041 257 1033 247 Z " />
<glyph glyph-name="plus" unicode="&#x2b;" horiz-adv-x="588" d="M360 268 L360 71 L227 71 L227 268 L32 268 L32 400 L227 400 L227 595 L360 595 L360 400 L555 400 L555 268 L360 268 Z " />
<glyph glyph-name="minus" unicode="&#x2212;" horiz-adv-x="588" d="M44 268 L44 400 L567 400 L567 268 L44 268 Z " />
<glyph glyph-name="plusminus" unicode="&#xb1;" horiz-adv-x="588" d="M555 358 L360 358 L360 187 L227 187 L227 358 L32 358 L32 490 L227 490 L227 659 L360 659 L360 490 L555 490 L555 358 Z M555 146 L555 14 L32 14 L32 146 L555 146 Z " />
<glyph glyph-name="multiply" unicode="&#xd7;" horiz-adv-x="588" d="M402 334 L564 170 L564 83 L465 83 L308 239 L152 83 L50 83 L50 170 L213 334 L50 497 L50 585 L152 585 L308 428 L465 585 L564 585 L564 497 L402 334 Z " />
<glyph glyph-name="divide" unicode="&#xf7;" horiz-adv-x="588" d="M393 580 L393 497 Q386 479 363.5 465 Q341 451 306 451 Q272 451 249.5 465 Q227 479 219 497 L219 580 Q227 598 249.5 611.5 Q272 625 306 625 Q341 625 363.5 611.5 Q386 598 393 580 Z M568 268 L44 268 L44 400 L568 400 L568 268 Z M393 172 L393 89 Q386 71 363.5 57 Q341 43 306 43 Q272 43 249.5 57 Q227 71 219 89 L219 172 Q227 190 249.5 204 Q272 218 306 218 Q341 218 363.5 204 Q386 190 393 172 Z " />
<glyph glyph-name="equal" unicode="&#x3d;" horiz-adv-x="588" d="M44 160 L44 292 L567 292 L567 160 L44 160 Z M44 376 L44 508 L567 508 L567 376 L44 376 Z " />
<glyph glyph-name="notequal" unicode="&#x2260;" horiz-adv-x="588" d="M356 292 L567 292 L567 160 L306 160 L272 71 L138 71 L172 160 L44 160 L44 292 L223 292 L255 376 L44 376 L44 508 L305 508 L338 595 L472 595 L439 508 L567 508 L567 376 L388 376 L356 292 Z " />
<glyph glyph-name="approxequal" unicode="&#x2248;" horiz-adv-x="588" d="M326 292 Q365 280 394.5 273.5 Q424 267 453 267 Q482 267 507 277 Q532 287 548.5 298.5 Q565 310 565 311 L565 168 Q565 167 549.5 158 Q534 149 509.5 141.5 Q485 134 454 134 Q419 134 387.5 140.5 Q356 147 311 160 Q273 172 243.5 178.5 Q214 185 183 185 Q148 185 118 173.5 Q88 162 67.5 148.5 Q47 135 47 134 L47 272 Q47 273 66 285.5 Q85 298 116 308 Q147 318 185 318 Q218 318 250 311.5 Q282 305 326 292 Z M326 509 Q365 497 394.5 490.5 Q424 484 453 484 Q482 484 507 494 Q532 504 548.5 515.5 Q565 527 565 528 L565 385 Q565 384 549.5 375 Q534 366 509.5 358.5 Q485 351 454 351 Q419 351 387.5 357.5 Q356 364 311 377 Q273 389 243.5 395.5 Q214 402 183 402 Q148 402 118 390.5 Q88 379 67.5 365.5 Q47 352 47 351 L47 489 Q47 490 66 502.5 Q85 515 116 525 Q147 535 185 535 Q218 535 250 528.5 Q282 522 326 509 Z " />
<glyph glyph-name="less" unicode="&#x3c;" horiz-adv-x="588" d="M189 294 L553 135 L553 46 L432 46 L18 236 L18 354 L432 544 L553 544 L553 454 L189 294 Z " />
<glyph glyph-name="greater" unicode="&#x3e;" horiz-adv-x="588" d="M581 236 L167 46 L46 46 L46 135 L410 294 L46 454 L46 544 L167 544 L581 354 L581 236 Z " />
<glyph glyph-name="lessequal" unicode="&#x2264;" horiz-adv-x="588" d="M238 396 L556 283 L556 194 L435 194 L33 339 L33 426 L435 603 L556 603 L556 513 L238 396 Z M33 14 L33 146 L556 146 L556 14 L33 14 Z " />
<glyph glyph-name="greaterequal" unicode="&#x2265;" horiz-adv-x="588" d="M569 339 L167 194 L45 194 L45 283 L363 396 L45 513 L45 603 L167 603 L569 426 L569 339 Z M45 14 L45 146 L569 146 L569 14 L45 14 Z " />
<glyph glyph-name="logicalnot" unicode="&#xac;" horiz-adv-x="588" d="M553 71 L420 71 L420 268 L30 268 L30 400 L553 400 L553 71 Z " />
<glyph glyph-name="uni00AD" unicode="&#xad;" horiz-adv-x="368" d="M335 268 L32 268 L59 400 L363 400 L335 268 Z " />
<glyph glyph-name="Delta" unicode="&#x2206;" horiz-adv-x="634" d="M573 98 L552 0 L-34 0 L-14 98 L282 700 L535 700 L573 98 Z M381 565 L378 565 L182 137 L389 137 L381 565 Z " />
<glyph glyph-name="Omega" unicode="&#x2126;" horiz-adv-x="634" d="M452 137 L557 137 L528 0 L290 0 L329 186 Q351 190 369.5 203.5 Q388 217 398 234 L461 526 Q456 547 435.5 561 Q415 575 382 575 Q349 575 322.5 561 Q296 547 282 526 L219 234 Q222 218 234.5 204.5 Q247 191 267 186 L228 0 L-11 0 L19 137 L140 137 Q100 158 75 187 Q50 216 42 247 L110 562 Q145 624 219 669.5 Q293 715 402 715 Q476 715 528.5 691 Q581 667 610.5 632 Q640 597 649 562 L581 243 Q539 175 452 137 Z " />
<glyph glyph-name="mu" unicode="&#xb5;" horiz-adv-x="564" d="M578 544 L462 0 L307 0 L318 51 Q258 -11 174 -11 Q162 -11 142 -9 L145 -32 L116 -166 L-50 -166 L102 544 L269 544 L183 144 Q192 134 208 126.5 Q224 119 246 119 Q294 119 327 148 L411 544 L578 544 Z " />
<glyph glyph-name="pi" unicode="&#x3c0;" horiz-adv-x="629" d="M638 423 L582 423 L492 0 L325 0 L416 423 L276 423 L186 0 L19 0 L110 423 L56 423 L81 544 L663 544 L638 423 Z " />
<glyph glyph-name="degree" unicode="&#xb0;" horiz-adv-x="397" d="M464 717 L436 585 Q413 549 369 522 Q325 495 256 495 Q189 495 148 523 Q107 551 95 585 L124 717 Q146 751 191 779 Q236 807 304 807 Q371 807 412.5 778.5 Q454 750 464 717 Z M233 687 L217 615 Q220 604 233 596.5 Q246 589 266 589 Q305 589 327 615 L342 687 Q338 697 324.5 705 Q311 713 292 713 Q272 713 256.5 705 Q241 697 233 687 Z " />
<glyph glyph-name="infinity" unicode="&#x221e;" horiz-adv-x="792" d="M716 435 L716 270 Q701 232 656 204.5 Q611 177 543 177 Q450 177 402 236 Q349 177 257 177 Q188 177 143.5 205 Q99 233 84 271 L84 435 Q99 473 143.5 501 Q188 529 257 529 Q309 529 342.5 512.5 Q376 496 399 467 Q423 496 456.5 512.5 Q490 529 543 529 Q612 529 656.5 501 Q701 473 716 435 Z M317 289 L344 353 L317 417 Q313 427 295 434.5 Q277 442 257 442 Q238 442 223 435 Q208 428 203 417 L203 289 Q208 278 223 270.5 Q238 263 257 263 Q277 263 294.5 270.5 Q312 278 317 289 Z M596 417 Q591 428 577 435 Q563 442 543 442 Q524 442 508.5 435 Q493 428 488 417 L459 346 L482 288 Q487 278 505.5 270.5 Q524 263 543 263 Q562 263 576 270 Q590 277 596 288 L596 417 Z " />
<glyph glyph-name="partialdiff" unicode="&#x2202;" horiz-adv-x="565" d="M526 523 L526 123 Q502 68 441.5 26.5 Q381 -15 282 -15 Q184 -15 123 26.5 Q62 68 38 122 L38 334 Q48 366 73 397 Q98 428 138.5 448 Q179 468 231 468 Q274 468 303.5 458.5 Q333 449 359 430 L359 486 Q342 532 274.5 574.5 Q207 617 130 644 L213 734 Q319 706 407.5 650 Q496 594 526 523 Z M205 303 L205 152 Q213 135 233.5 123 Q254 111 282 111 Q310 111 331 123 Q352 135 359 152 L359 313 Q350 326 329.5 335 Q309 344 283 344 Q254 344 233.5 332.5 Q213 321 205 303 Z " />
<glyph glyph-name="integral" unicode="&#x222b;" horiz-adv-x="422" d="M400 701 L400 590 L358 590 Q307 590 294 561 L294 -84 Q279 -124 236.5 -152.5 Q194 -181 121 -181 Q64 -181 20 -168 L20 -57 L62 -57 Q111 -57 127 -28 L127 617 Q141 657 183.5 685.5 Q226 714 299 714 Q329 714 357 710 Q385 706 400 701 Z " />
<glyph glyph-name="radical" unicode="&#x221a;" horiz-adv-x="595" d="M613 612 L434 0 L240 0 L113 419 L62 419 L62 544 L240 544 L335 203 L338 203 L464 700 L613 700 L613 612 Z " />
<glyph glyph-name="summation" unicode="&#x2211;" horiz-adv-x="553" d="M400 357 L400 245 L265 32 L538 32 L538 -100 L50 -100 L50 12 L226 300 L50 588 L50 700 L538 700 L538 568 L265 568 L400 357 Z " />
<glyph glyph-name="product" unicode="&#x220f;" horiz-adv-x="632" d="M419 -100 L419 568 L248 568 L248 -100 L68 -100 L68 700 L599 700 L599 -100 L419 -100 Z " />
<glyph glyph-name="lozenge" unicode="&#x25ca;" horiz-adv-x="607" d="M410 0 L228 0 L46 350 L228 700 L410 700 L592 350 L410 0 Z M319 181 L410 350 L319 519 L227 350 L319 181 Z " />
<glyph glyph-name="arrowleft" unicode="&#x2190;" horiz-adv-x="760" d="M12 391 L321 700 L434 700 L434 597 L242 417 L772 417 L772 282 L243 282 L434 103 L434 0 L321 0 L12 309 L12 391 Z " />
<glyph glyph-name="arrowright" unicode="&#x2192;" horiz-adv-x="760" d="M777 309 L468 0 L356 0 L356 103 L546 282 L17 282 L17 417 L547 417 L356 597 L356 700 L468 700 L777 391 L777 309 Z " />
<glyph glyph-name="arrowup" unicode="&#x2191;" horiz-adv-x="760" d="M751 353 L652 353 L478 531 L478 0 L324 0 L324 531 L149 353 L51 353 L51 452 L360 760 L442 760 L751 452 L751 353 Z " />
<glyph glyph-name="arrowdown" unicode="&#x2193;" horiz-adv-x="760" d="M731 248 L422 -60 L339 -60 L31 248 L31 347 L129 347 L304 169 L304 700 L458 700 L458 169 L632 347 L731 347 L731 248 Z " />
<glyph glyph-name="uni0410" unicode="&#x410;" horiz-adv-x="634" d="M552 0 L394 0 L390 152 L190 152 L121 0 L-34 0 L-14 98 L282 700 L535 700 L573 98 L552 0 Z M386 288 L379 565 L376 565 L251 288 L386 288 Z " />
<glyph glyph-name="uni0411" unicode="&#x411;" horiz-adv-x="598" d="M296 567 L270 444 L382 444 Q451 444 505 412.5 Q559 381 579 327 L534 120 Q500 65 442 32.5 Q384 0 312 0 L-5 0 L144 700 L644 700 L616 567 L296 567 Z M241 313 L202 130 L290 130 Q346 130 381 172 L402 273 Q397 291 377 302 Q357 313 328 313 L241 313 Z " />
<glyph glyph-name="uni0412" unicode="&#x412;" horiz-adv-x="609" d="M511 365 Q533 355 551 338.5 Q569 322 577 300 L538 120 Q507 68 447.5 34 Q388 0 313 0 L-5 0 L144 700 L424 700 Q507 700 558.5 664.5 Q610 629 627 581 L597 437 Q584 415 560 395.5 Q536 376 511 365 Z M452 529 Q439 568 377 568 L296 568 L264 418 L353 418 Q407 418 436 459 L452 529 Z M405 264 Q397 281 377.5 291.5 Q358 302 328 302 L239 302 L203 132 L292 132 Q327 132 349 143 Q371 154 386 175 L405 264 Z " />
<glyph glyph-name="uni0413" unicode="&#x413;" horiz-adv-x="521" d="M296 567 L175 0 L-5 0 L144 700 L588 700 L560 567 L296 567 Z " />
<glyph glyph-name="uni0414" unicode="&#x414;" horiz-adv-x="727" d="M594 134 L673 134 L617 -127 L466 -127 L494 0 L115 0 L87 -127 L-63 -127 L-7 134 Q23 141 55 160.5 Q87 180 102 202 L268 700 L715 700 L594 134 Z M414 134 L507 567 L389 567 L261 177 Q243 153 211 134 L414 134 Z " />
<glyph glyph-name="uni0415" unicode="&#x415;" horiz-adv-x="537" d="M295 563 L265 426 L511 426 L482 289 L236 289 L204 137 L473 137 L443 0 L-5 0 L144 700 L586 700 L557 563 L295 563 Z " />
<glyph glyph-name="uni0416" unicode="&#x416;" horiz-adv-x="898" d="M756 374 L832 98 L812 0 L667 0 L594 296 L539 296 L476 0 L306 0 L369 296 L320 296 L124 0 L-31 0 L-10 98 L185 375 L104 602 L125 700 L259 700 L342 429 L398 429 L455 700 L625 700 L567 429 L618 429 L811 700 L955 700 L934 602 L756 374 Z " />
<glyph glyph-name="uni0417" unicode="&#x417;" horiz-adv-x="598" d="M623 581 L594 444 Q555 387 488 351 Q515 332 532 309.5 Q549 287 556 266 L524 119 Q488 65 420.5 25 Q353 -15 245 -15 Q139 -15 80.5 27.5 Q22 70 3 119 L20 196 L173 196 Q177 160 200.5 140.5 Q224 121 263 121 Q296 121 321.5 134.5 Q347 148 360 166 L377 243 Q372 262 350.5 275.5 Q329 289 291 289 L202 289 L207 311 L231 422 L331 422 Q365 422 389 435 Q413 448 425 467 L440 534 Q434 552 413.5 565.5 Q393 579 361 579 Q322 579 290.5 559 Q259 539 242 504 L86 504 L102 581 Q136 632 205.5 673.5 Q275 715 382 715 Q456 715 507 692.5 Q558 670 585.5 639.5 Q613 609 623 581 Z " />
<glyph glyph-name="uni0418" unicode="&#x418;" horiz-adv-x="670" d="M393 0 L483 424 L480 424 L172 0 L-5 0 L144 700 L311 700 L221 276 L224 276 L532 700 L709 700 L560 0 L393 0 Z " />
<glyph glyph-name="uni0419" unicode="&#x419;" horiz-adv-x="670" d="M393 0 L483 424 L480 424 L172 0 L-5 0 L144 700 L311 700 L221 276 L224 276 L532 700 L709 700 L560 0 L393 0 Z M635 831 Q610 788 562 763 Q514 738 447 738 Q377 738 332 763.5 Q287 789 272 831 L286 893 L407 893 L398 855 Q401 843 414 833.5 Q427 824 452 824 Q478 824 495.5 833.5 Q513 843 520 855 L528 893 L649 893 L635 831 Z " />
<glyph glyph-name="uni041A" unicode="&#x41a;" horiz-adv-x="605" d="M440 367 L540 98 L519 0 L380 0 L283 296 L230 296 L166 0 L-14 0 L136 700 L316 700 L258 429 L305 429 L514 700 L662 700 L641 602 L440 367 Z " />
<glyph glyph-name="uni041B" unicode="&#x41b;" horiz-adv-x="666" d="M555 0 L375 0 L497 567 L380 567 L222 86 Q193 47 157 27.5 Q121 8 76 1.5 Q31 -5 -39 -5 L-10 132 Q20 132 44.5 143 Q69 154 82 171 L257 700 L705 700 L555 0 Z " />
<glyph glyph-name="uni041C" unicode="&#x41c;" horiz-adv-x="774" d="M496 0 L589 438 L586 438 L404 144 L314 144 L258 438 L255 438 L162 0 L-5 0 L144 700 L357 700 L412 399 L415 399 L591 700 L813 700 L664 0 L496 0 Z " />
<glyph glyph-name="uni041D" unicode="&#x41d;" horiz-adv-x="659" d="M368 0 L430 292 L237 292 L175 0 L-5 0 L144 700 L324 700 L266 429 L459 429 L517 700 L697 700 L548 0 L368 0 Z " />
<glyph glyph-name="uni041E" unicode="&#x41e;" horiz-adv-x="626" d="M645 562 L554 138 Q515 73 445 29 Q375 -15 265 -15 Q190 -15 136.5 8.5 Q83 32 53 67 Q23 102 15 138 L106 562 Q144 627 214.5 671 Q285 715 394 715 Q469 715 523 691.5 Q577 668 607 633 Q637 598 645 562 Z M278 525 L203 175 Q207 154 229 139.5 Q251 125 284 125 Q317 125 342 139 Q367 153 382 175 L457 525 Q452 546 430.5 560.5 Q409 575 375 575 Q342 575 317 561 Q292 547 278 525 Z " />
<glyph glyph-name="uni041F" unicode="&#x41f;" horiz-adv-x="653" d="M542 0 L362 0 L483 563 L295 563 L175 0 L-5 0 L144 700 L692 700 L542 0 Z " />
<glyph glyph-name="uni0420" unicode="&#x420;" horiz-adv-x="598" d="M633 581 L587 367 Q545 305 487.5 276 Q430 247 349 247 L227 247 L175 0 L-5 0 L144 700 L422 700 Q499 700 553 670 Q607 640 633 581 Z M448 524 Q442 544 422 554.5 Q402 565 376 565 L295 565 L256 382 L334 382 Q398 382 427 425 L448 524 Z " />
<glyph glyph-name="uni0421" unicode="&#x421;" horiz-adv-x="607" d="M641 576 L624 495 L470 495 Q468 531 444 553 Q420 575 377 575 Q344 575 318.5 561 Q293 547 278 525 L203 175 Q208 153 230.5 139 Q253 125 287 125 Q366 125 406 205 L562 205 L544 124 Q510 67 443 26 Q376 -15 267 -15 Q192 -15 138 8.5 Q84 32 54 67 Q24 102 15 138 L106 562 Q141 625 213 670 Q285 715 395 715 Q469 715 521 692.5 Q573 670 602 638.5 Q631 607 641 576 Z " />
<glyph glyph-name="uni0422" unicode="&#x422;" horiz-adv-x="551" d="M588 563 L428 563 L308 0 L128 0 L248 563 L87 563 L116 700 L617 700 L588 563 Z " />
<glyph glyph-name="uni0423" unicode="&#x423;" horiz-adv-x="585" d="M647 700 L626 602 L305 71 Q257 26 206 9.5 Q155 -7 85 -7 Q53 -7 21 -2 L48 126 Q70 124 87 124 Q115 124 139 131.5 Q163 139 178 151 L199 188 L99 602 L120 700 L261 700 L324 386 L498 700 L647 700 Z " />
<glyph glyph-name="uni0424" unicode="&#x424;" horiz-adv-x="798" d="M806 503 L741 197 Q697 129 623.5 90 Q550 51 473 51 L432 51 L412 -40 L255 -40 L274 51 L251 51 Q202 51 155.5 70.5 Q109 90 75 123 Q41 156 28 197 L93 503 Q134 569 209 609 Q284 649 360 649 L402 649 L422 740 L579 740 L560 649 L585 649 Q634 649 680.5 629.5 Q727 610 760.5 576.5 Q794 543 806 503 Z M303 184 L374 516 L356 516 Q327 516 297.5 502.5 Q268 489 251 470 L199 230 Q208 210 232 197 Q256 184 285 184 L303 184 Z M634 470 Q626 490 602 503 Q578 516 549 516 L531 516 L460 184 L479 184 Q507 184 537 197 Q567 210 583 230 L634 470 Z " />
<glyph glyph-name="uni0425" unicode="&#x425;" horiz-adv-x="603" d="M434 355 L533 98 L512 0 L360 0 L299 241 L296 241 L130 0 L-26 0 L-6 98 L203 357 L107 602 L128 700 L278 700 L340 470 L343 470 L502 700 L657 700 L636 602 L434 355 Z " />
<glyph glyph-name="uni0426" unicode="&#x426;" horiz-adv-x="696" d="M643 134 L587 -127 L436 -127 L464 0 L-5 0 L144 700 L324 700 L203 134 L383 134 L504 700 L684 700 L563 134 L643 134 Z " />
<glyph glyph-name="uni0427" unicode="&#x427;" horiz-adv-x="636" d="M674 700 L525 0 L345 0 L399 253 Q343 225 277 225 Q191 225 133.5 257.5 Q76 290 61 335 L139 700 L319 700 L253 389 Q260 374 279.5 363.5 Q299 353 331 353 Q359 353 383.5 361 Q408 369 426 381 L494 700 L674 700 Z " />
<glyph glyph-name="uni0428" unicode="&#x428;" horiz-adv-x="930" d="M-5 0 L144 700 L324 700 L203 133 L345 133 L467 700 L647 700 L525 133 L667 133 L789 700 L969 700 L819 0 L-5 0 Z " />
<glyph glyph-name="uni0429" unicode="&#x429;" horiz-adv-x="981" d="M928 134 L872 -127 L721 -127 L749 0 L-5 0 L144 700 L324 700 L203 134 L346 134 L467 700 L647 700 L526 134 L668 134 L789 700 L969 700 L848 134 L928 134 Z " />
<glyph glyph-name="uni042A" unicode="&#x42a;" horiz-adv-x="688" d="M669 335 L623 120 Q590 68 531.5 34 Q473 0 401 0 L84 0 L205 568 L89 568 L116 700 L413 700 L360 451 L475 451 Q541 451 594.5 419.5 Q648 388 669 335 Z M494 282 Q486 299 467 309.5 Q448 320 421 320 L332 320 L291 130 L378 130 Q409 130 430.5 142 Q452 154 470 174 L494 282 Z " />
<glyph glyph-name="uni042B" unicode="&#x42b;" horiz-adv-x="856" d="M271 451 L373 451 Q439 451 493 419.5 Q547 388 568 335 L522 120 Q489 68 430.5 34 Q372 0 300 0 L-5 0 L144 700 L324 700 L271 451 Z M746 0 L566 0 L715 700 L895 700 L746 0 Z M243 320 L202 130 L277 130 Q308 130 329.5 142 Q351 154 369 174 L393 282 Q385 299 366 309.5 Q347 320 320 320 L243 320 Z " />
<glyph glyph-name="uni042C" unicode="&#x42c;" horiz-adv-x="600" d="M271 451 L385 451 Q451 451 505 419.5 Q559 388 580 335 L534 120 Q501 68 442.5 34 Q384 0 312 0 L-5 0 L144 700 L324 700 L271 451 Z M243 320 L202 130 L289 130 Q320 130 341.5 142 Q363 154 381 174 L405 282 Q397 299 378 309.5 Q359 320 332 320 L243 320 Z " />
<glyph glyph-name="uni042D" unicode="&#x42d;" horiz-adv-x="614" d="M633 562 L542 138 Q507 75 435 30 Q363 -15 253 -15 Q179 -15 127 7.5 Q75 30 46 61.5 Q17 93 7 124 L25 205 L178 205 Q180 169 204.5 147 Q229 125 271 125 Q304 125 329.5 138.5 Q355 152 370 175 L396 293 L201 293 L228 420 L423 420 L445 525 Q440 547 418 561 Q396 575 362 575 Q281 575 243 495 L86 495 L104 576 Q138 633 205.5 674 Q273 715 381 715 Q456 715 510.5 691.5 Q565 668 595 633 Q625 598 633 562 Z " />
<glyph glyph-name="uni042E" unicode="&#x42e;" horiz-adv-x="895" d="M914 562 L823 138 Q784 75 715 30 Q646 -15 539 -15 Q465 -15 413.5 8.5 Q362 32 333.5 67 Q305 102 297 138 L329 291 L237 291 L175 0 L-5 0 L144 700 L324 700 L265 424 L358 424 L388 562 Q426 625 495 670 Q564 715 672 715 Q746 715 797.5 691.5 Q849 668 877.5 633 Q906 598 914 562 Z M727 529 Q721 551 703 565 Q685 579 653 579 Q622 579 598.5 565.5 Q575 552 560 529 L484 172 Q489 150 507.5 135.5 Q526 121 558 121 Q618 121 650 172 L727 529 Z " />
<glyph glyph-name="uni042F" unicode="&#x42f;" horiz-adv-x="620" d="M659 700 L509 0 L329 0 L384 258 L331 258 L139 0 L-16 0 L4 98 L157 282 Q125 298 101.5 323 Q78 348 65 379 L108 581 Q148 638 208 669 Q268 700 336 700 L659 700 Z M451 567 L361 567 Q330 567 306 555.5 Q282 544 267 524 L246 426 Q252 406 272 395.5 Q292 385 324 385 L412 385 L451 567 Z " />
<glyph glyph-name="uni0490" unicode="&#x490;" horiz-adv-x="507" d="M296 567 L175 0 L-5 0 L144 700 L423 700 L448 812 L598 812 L546 567 L296 567 Z " />
<glyph glyph-name="uni0406" unicode="&#x406;" horiz-adv-x="285" d="M175 0 L-5 0 L144 700 L324 700 L175 0 Z " />
<glyph glyph-name="uni0402" unicode="&#x402;" horiz-adv-x="718" d="M702 342 L652 109 Q617 56 552.5 27.5 Q488 -1 399 -1 L357 -1 L385 127 Q419 127 444.5 137.5 Q470 148 483 163 L510 287 Q502 302 482 312 Q462 322 429 322 Q403 322 378.5 314.5 Q354 307 336 295 L273 0 L93 0 L215 567 L88 567 L116 700 L594 700 L566 567 L395 567 L365 428 Q421 452 486 452 Q572 452 628.5 419.5 Q685 387 702 342 Z " />
<glyph glyph-name="uni0452" unicode="&#x452;" horiz-adv-x="583" d="M569 402 L472 -46 Q443 -107 374 -143.5 Q305 -180 200 -180 L227 -53 Q254 -53 278.5 -38 Q303 -23 315 -2 L393 364 Q388 377 371.5 387.5 Q355 398 328 398 Q280 398 247 369 L168 0 L1 0 L123 569 L85 569 L104 654 L141 654 L151 700 L317 700 L308 654 L453 654 L434 569 L289 569 L270 479 Q329 528 405 528 Q456 528 492 508.5 Q528 489 546.5 460 Q565 431 569 402 Z " />
<glyph glyph-name="uni0403" unicode="&#x403;" horiz-adv-x="521" d="M296 567 L175 0 L-5 0 L144 700 L588 700 L560 567 L296 567 Z M405 744 L287 744 L290 760 L370 907 L522 907 L507 837 L405 744 Z " />
<glyph glyph-name="uni0453" unicode="&#x453;" horiz-adv-x="456" d="M463 422 L244 422 L154 0 L-13 0 L103 544 L489 544 L463 422 Z M362 602 L232 602 L235 617 L318 768 L479 768 L463 697 L362 602 Z " />
<glyph glyph-name="uni0456" unicode="&#x456;" horiz-adv-x="260" d="M155 0 L-11 0 L105 544 L271 544 L155 0 Z " />
<glyph glyph-name="uni0491" unicode="&#x491;" horiz-adv-x="465" d="M244 422 L154 0 L-13 0 L103 544 L354 544 L373 628 L512 628 L467 422 L244 422 Z " />
<glyph glyph-name="uni0408" unicode="&#x408;" horiz-adv-x="387" d="M309 138 Q269 67 201.5 32 Q134 -3 31 -3 Q-9 -3 -39 0 L-9 136 L28 136 Q104 136 139 185 L249 700 L429 700 L309 138 Z " />
<glyph glyph-name="uni0404" unicode="&#x404;" horiz-adv-x="614" d="M278 525 L255 420 L450 420 L423 293 L228 293 L203 175 Q208 153 230.5 139 Q253 125 287 125 Q366 125 406 205 L562 205 L544 124 Q510 67 443 26 Q376 -15 267 -15 Q192 -15 138 8.5 Q84 32 54 67 Q24 102 15 138 L106 562 Q141 625 213 670 Q285 715 395 715 Q469 715 521 692.5 Q573 670 602 638.5 Q631 607 641 576 L624 495 L470 495 Q468 531 444 553 Q420 575 377 575 Q344 575 318.5 561 Q293 547 278 525 Z " />
<glyph glyph-name="uni0454" unicode="&#x454;" horiz-adv-x="545" d="M231 388 L217 326 L380 326 L356 221 L195 221 L180 154 Q185 137 203.5 125.5 Q222 114 251 114 Q315 114 349 173 L493 173 L477 97 Q448 56 389 20.5 Q330 -15 235 -15 Q167 -15 118 6 Q69 27 41.5 58.5 Q14 90 7 122 L71 422 Q103 478 168.5 518.5 Q234 559 332 559 Q398 559 445.5 539 Q493 519 518.5 492 Q544 465 551 443 L536 371 L393 371 Q389 399 368.5 414 Q348 429 314 429 Q287 429 264.5 417 Q242 405 231 388 Z " />
<glyph glyph-name="uni0407" unicode="&#x407;" horiz-adv-x="285" d="M241 856 L224 775 Q191 742 139 742 Q88 742 68 775 L84 856 Q100 869 119 878.5 Q138 888 170 888 Q222 888 241 856 Z M452 856 L435 775 Q420 761 401 751.5 Q382 742 349 742 Q318 742 302.5 752 Q287 762 278 775 L295 856 Q311 870 329.5 879 Q348 888 380 888 Q433 888 452 856 Z M175 0 L-5 0 L144 700 L324 700 L175 0 Z " />
<glyph glyph-name="uni0457" unicode="&#x457;" horiz-adv-x="300" d="M220 718 L202 631 Q186 617 167 608 Q148 599 116 599 Q64 599 45 631 L63 718 Q79 731 98 740.5 Q117 750 148 750 Q201 750 220 718 Z M428 718 L410 631 Q375 599 325 599 Q293 599 277.5 608.5 Q262 618 253 631 L272 718 Q307 750 357 750 Q390 750 406 740 Q422 730 428 718 Z M175 0 L8 0 L124 544 L291 544 L175 0 Z " />
<glyph glyph-name="uni0409" unicode="&#x409;" horiz-adv-x="980" d="M961 335 L916 120 Q883 68 824.5 34 Q766 0 693 0 L376 0 L497 567 L381 567 L223 86 Q194 47 158 27.5 Q122 8 77 1.5 Q32 -5 -38 -5 L-9 132 Q21 132 45.5 143 Q70 154 82 171 L258 700 L706 700 L652 451 L767 451 Q833 451 887 419.5 Q941 388 961 335 Z M786 282 Q779 299 760 309.5 Q741 320 714 320 L624 320 L584 130 L671 130 Q702 130 723.5 142 Q745 154 763 174 L786 282 Z " />
<glyph glyph-name="uni0459" unicode="&#x459;" horiz-adv-x="859" d="M835 277 L794 93 Q729 0 609 0 L313 0 L403 422 L308 422 L196 79 Q155 29 103 12 Q51 -5 -44 -5 L-18 121 Q9 121 32 131.5 Q55 142 65 157 L195 544 L596 544 L559 371 L668 371 Q728 371 771.5 345 Q815 319 835 277 Z M665 220 Q661 232 645.5 241.5 Q630 251 605 251 L533 251 L505 120 L573 120 Q619 120 651 152 L665 220 Z " />
<glyph glyph-name="uni040A" unicode="&#x40a;" horiz-adv-x="964" d="M944 335 L899 120 Q866 68 807.5 34 Q749 0 676 0 L359 0 L427 319 L301 319 L233 0 L53 0 L203 700 L383 700 L329 451 L456 451 L509 700 L689 700 L635 451 L750 451 Q816 451 870 419.5 Q924 388 944 335 Z M769 282 Q762 299 743 309.5 Q724 320 697 320 L607 320 L567 130 L654 130 Q685 130 706.5 142 Q728 154 746 174 L769 282 Z " />
<glyph glyph-name="uni045A" unicode="&#x45a;" horiz-adv-x="857" d="M829 272 L790 93 Q725 0 605 0 L312 0 L364 244 L206 244 L154 0 L-13 0 L103 544 L270 544 L232 366 L390 366 L428 544 L595 544 L557 365 L663 365 Q723 365 766.5 339 Q810 313 829 272 Z M660 214 Q656 226 640.5 235.5 Q625 245 600 245 L531 245 L504 120 L569 120 Q615 120 647 152 L660 214 Z " />
<glyph glyph-name="uni0458" unicode="&#x458;" horiz-adv-x="256" d="M143 -46 Q114 -107 45 -143.5 Q-24 -180 -129 -180 L-103 -53 Q-75 -53 -50.5 -37.5 Q-26 -22 -14 -1 L102 544 L269 544 L143 -46 Z M309 706 L295 641 Q283 623 257.5 609.5 Q232 596 198 596 Q163 596 143.5 609 Q124 622 121 641 L135 706 Q147 725 172 738.5 Q197 752 232 752 Q267 752 286 738.5 Q305 725 309 706 Z " />
<glyph glyph-name="uni0405" unicode="&#x405;" horiz-adv-x="592" d="M615 587 L598 507 L445 507 Q441 537 420 556 Q399 575 359 575 Q331 575 308.5 563 Q286 551 273 535 L258 470 Q262 458 274.5 450 Q287 442 317 433 L370 418 Q460 393 499.5 364 Q539 335 559 293 L522 120 Q485 64 419.5 24.5 Q354 -15 247 -15 Q172 -15 119.5 6.5 Q67 28 38 59 Q9 90 0 119 L18 200 L171 200 Q175 165 200 145 Q225 125 265 125 Q326 125 360 171 L375 239 Q371 252 356 261.5 Q341 271 309 280 L254 297 Q169 320 131 346.5 Q93 373 74 415 L110 587 Q145 639 212 677 Q279 715 381 715 Q450 715 500 694.5 Q550 674 578.5 644.5 Q607 615 615 587 Z " />
<glyph glyph-name="uni040B" unicode="&#x40b;" horiz-adv-x="689" d="M566 567 L395 567 L367 437 L472 437 Q537 437 591.5 404.5 Q646 372 665 320 L596 0 L431 0 L488 267 Q482 285 462.5 295.5 Q443 306 414 306 L339 306 L273 0 L93 0 L215 567 L88 567 L116 700 L594 700 L566 567 Z " />
<glyph glyph-name="uni045B" unicode="&#x45b;" horiz-adv-x="583" d="M569 402 L483 0 L316 0 L393 364 Q387 377 370 387.5 Q353 398 326 398 Q279 398 247 371 L168 0 L1 0 L123 569 L85 569 L104 654 L141 654 L151 700 L317 700 L308 654 L453 654 L434 569 L289 569 L270 479 Q329 528 406 528 Q456 528 491.5 508.5 Q527 489 546 460 Q565 431 569 402 Z " />
<glyph glyph-name="uni040C" unicode="&#x40c;" horiz-adv-x="605" d="M440 367 L540 98 L519 0 L380 0 L283 296 L230 296 L166 0 L-14 0 L136 700 L316 700 L258 429 L305 429 L514 700 L662 700 L641 602 L440 367 Z M447 744 L329 744 L332 760 L412 907 L564 907 L549 837 L447 744 Z " />
<glyph glyph-name="uni045C" unicode="&#x45c;" horiz-adv-x="538" d="M394 281 L477 90 L458 0 L341 0 L249 216 L200 216 L154 0 L-13 0 L103 544 L270 544 L226 337 L269 337 L438 544 L569 544 L550 455 L394 281 Z M403 602 L273 602 L276 617 L359 768 L520 768 L504 697 L403 602 Z " />
<glyph glyph-name="uni0455" unicode="&#x455;" horiz-adv-x="513" d="M516 458 L502 394 L362 394 Q357 414 337.5 426.5 Q318 439 290 439 Q265 439 247.5 431.5 Q230 424 221 412 L211 370 Q219 351 263 341 L311 330 Q388 312 423 288.5 Q458 265 475 236 L443 91 Q415 50 358 17.5 Q301 -15 210 -15 Q144 -15 97.5 3 Q51 21 25.5 45.5 Q0 70 -9 91 L5 154 L148 154 Q155 130 174.5 117 Q194 104 225 104 Q250 104 269 113.5 Q288 123 300 137 L309 179 Q301 199 256 210 L208 220 Q133 236 98.5 260 Q64 284 46 315 L77 458 Q105 495 162 527 Q219 559 307 559 Q395 559 447 526.5 Q499 494 516 458 Z " />
<glyph glyph-name="uni040E" unicode="&#x40e;" horiz-adv-x="579" d="M584 831 Q559 788 511 763 Q463 738 396 738 Q326 738 281 763.5 Q236 789 221 831 L235 893 L356 893 L347 855 Q350 843 363 833.5 Q376 824 401 824 Q427 824 444.5 833.5 Q462 843 469 855 L477 893 L598 893 L584 831 Z M646 700 L625 602 L304 71 Q256 26 205 9.5 Q154 -7 84 -7 Q52 -7 20 -2 L47 126 Q69 124 86 124 Q114 124 138 131.5 Q162 139 177 151 L198 188 L98 602 L119 700 L260 700 L323 386 L497 700 L646 700 Z " />
<glyph glyph-name="uni045E" unicode="&#x45e;" horiz-adv-x="537" d="M413 544 L569 544 L550 454 L250 -101 Q214 -140 163.5 -158.5 Q113 -177 38 -177 Q12 -177 -13 -173.5 Q-38 -170 -53 -166 L-27 -48 Q-3 -50 19 -50 Q84 -50 119 -21 L135 11 L66 453 L85 544 L230 544 L255 217 L258 217 L413 544 Z M535 687 Q509 644 460.5 618.5 Q412 593 346 593 Q277 593 232 619 Q187 645 172 687 L185 748 L306 748 L298 710 Q300 699 313 689 Q326 679 352 679 Q378 679 395 688.5 Q412 698 419 710 L428 748 L548 748 L535 687 Z " />
<glyph glyph-name="uni040F" unicode="&#x40f;" horiz-adv-x="646" d="M340 0 L313 -126 L162 -126 L190 0 L-5 0 L144 700 L324 700 L203 133 L384 133 L505 700 L685 700 L536 0 L340 0 Z " />
<glyph glyph-name="uni045F" unicode="&#x45f;" horiz-adv-x="575" d="M300 0 L275 -116 L136 -116 L161 0 L-13 0 L103 544 L270 544 L180 121 L331 121 L421 544 L588 544 L472 0 L300 0 Z " />
<glyph glyph-name="uni0401" unicode="&#x401;" horiz-adv-x="537" d="M295 563 L265 426 L511 426 L482 289 L236 289 L204 137 L473 137 L443 0 L-5 0 L144 700 L586 700 L557 563 L295 563 Z M371 863 L353 777 Q338 763 319 753.5 Q300 744 267 744 Q235 744 219.5 754 Q204 764 195 777 L213 863 Q229 876 248 885.5 Q267 895 299 895 Q331 895 346 885.5 Q361 876 371 863 Z M592 863 L574 777 Q541 744 488 744 Q456 744 440.5 754 Q425 764 416 777 L434 863 Q450 876 469 885.5 Q488 895 520 895 Q571 895 592 863 Z " />
<glyph glyph-name="uni0451" unicode="&#x451;" horiz-adv-x="552" d="M551 442 L504 225 L196 225 L180 151 Q185 134 203.5 122.5 Q222 111 251 111 Q314 111 346 169 L492 169 L477 98 Q449 56 389.5 20.5 Q330 -15 234 -15 Q166 -15 117 6 Q68 27 41 58.5 Q14 90 7 122 L71 422 Q102 477 168 518 Q234 559 332 559 Q398 559 445.5 538.5 Q493 518 518.5 490.5 Q544 463 551 442 Z M231 391 L219 333 L373 333 L386 393 Q382 410 363 421.5 Q344 433 315 433 Q287 433 265 421 Q243 409 231 391 Z M349 717 L330 627 Q297 594 244 594 Q192 594 172 627 L192 717 Q224 749 277 749 Q330 749 349 717 Z M573 717 L554 627 Q539 614 519.5 604 Q500 594 468 594 Q416 594 396 627 L415 717 Q447 749 501 749 Q533 749 548.5 739.5 Q564 730 573 717 Z " />
<glyph glyph-name="uni044F" unicode="&#x44f;" horiz-adv-x="563" d="M576 544 L460 0 L293 0 L331 179 L283 179 L129 0 L-16 0 L3 88 L118 200 Q67 227 46 275 L83 450 Q114 492 161 518 Q208 544 258 544 L576 544 Z M383 422 L302 422 Q257 422 227 390 L214 325 Q218 312 234.5 302.5 Q251 293 279 293 L356 293 L383 422 Z " />
<glyph glyph-name="uni0430" unicode="&#x430;" horiz-adv-x="561" d="M551 422 L460 0 L300 0 L308 38 Q244 -15 165 -15 Q114 -15 77.5 -0.5 Q41 14 20 33 Q-1 52 -6 68 L30 240 Q52 274 101 303 Q150 332 220 332 L365 332 L377 389 Q372 406 354 417.5 Q336 429 309 429 Q248 429 220 380 L72 380 L88 453 Q116 491 173.5 525 Q231 559 326 559 Q393 559 441 537.5 Q489 516 516.5 484 Q544 452 551 422 Z M236 99 Q284 99 321 130 L341 224 L261 224 Q213 224 184 195 L170 128 Q176 117 192.5 108 Q209 99 236 99 Z " />
<glyph glyph-name="uni0431" unicode="&#x431;" horiz-adv-x="555" d="M601 715 L575 594 Q552 569 505 556.5 Q458 544 383 535 Q282 522 241 484 L228 423 Q290 469 360 469 Q414 469 451.5 448 Q489 427 509 396.5 Q529 366 532 337 L486 122 Q451 65 389.5 25 Q328 -15 230 -15 Q132 -15 78 27 Q24 69 10 122 L100 542 Q166 632 338 665 Q408 678 437 688 Q466 698 487 715 L601 715 Z M205 315 L171 151 Q175 134 193 122.5 Q211 111 239 111 Q268 111 291 122.5 Q314 134 326 152 L358 303 Q355 320 335.5 332 Q316 344 287 344 Q265 344 243 336 Q221 328 205 315 Z " />
<glyph glyph-name="uni0432" unicode="&#x432;" horiz-adv-x="543" d="M539 450 L512 330 Q501 316 481 302.5 Q461 289 440 281 Q480 265 494 234 L464 93 Q436 49 388.5 24.5 Q341 0 281 0 L-13 0 L103 544 L377 544 Q442 544 482.5 517 Q523 490 539 450 Z M376 400 Q363 430 315 430 L237 430 L215 324 L293 324 Q317 324 336 332.5 Q355 341 366 354 L376 400 Z M334 196 Q330 209 315 217 Q300 225 276 225 L194 225 L170 114 L247 114 Q276 114 293 122.5 Q310 131 323 147 L334 196 Z " />
<glyph glyph-name="uni0433" unicode="&#x433;" horiz-adv-x="456" d="M463 422 L244 422 L154 0 L-13 0 L103 544 L489 544 L463 422 Z " />
<glyph glyph-name="uni0434" unicode="&#x434;" horiz-adv-x="641" d="M514 122 L589 122 L538 -116 L398 -116 L423 0 L97 0 L72 -116 L-68 -116 L-17 122 Q11 129 39.5 146.5 Q68 164 82 183 L203 544 L604 544 L514 122 Z M187 122 L347 122 L411 422 L317 422 L230 160 Q216 141 187 122 Z " />
<glyph glyph-name="uni0435" unicode="&#x435;" horiz-adv-x="552" d="M551 442 L504 225 L196 225 L180 151 Q185 134 203.5 122.5 Q222 111 251 111 Q314 111 346 169 L492 169 L477 98 Q449 56 389.5 20.5 Q330 -15 234 -15 Q166 -15 117 6 Q68 27 41 58.5 Q14 90 7 122 L71 422 Q102 477 168 518 Q234 559 332 559 Q398 559 445.5 538.5 Q493 518 518.5 490.5 Q544 463 551 442 Z M231 391 L219 333 L373 333 L386 393 Q382 410 363 421.5 Q344 433 315 433 Q287 433 265 421 Q243 409 231 391 Z " />
<glyph glyph-name="uni0436" unicode="&#x436;" horiz-adv-x="781" d="M654 281 L717 90 L699 0 L569 0 L501 216 L457 216 L411 0 L253 0 L299 216 L261 216 L109 0 L-33 0 L-14 90 L134 293 L71 455 L89 544 L209 544 L283 337 L325 337 L369 544 L527 544 L483 337 L523 337 L676 544 L808 544 L789 455 L654 281 Z " />
<glyph glyph-name="uni0437" unicode="&#x437;" horiz-adv-x="532" d="M532 450 L507 337 Q482 303 431 275 Q467 250 481 214 L454 93 Q423 50 365 17.5 Q307 -15 213 -15 Q148 -15 102 3.5 Q56 22 30.5 46.5 Q5 71 -5 93 L11 162 L153 162 Q158 136 177.5 122 Q197 108 228 108 Q255 108 274.5 118.5 Q294 129 306 143 L317 193 Q312 206 296 215 Q280 224 254 224 L177 224 L200 327 L277 327 Q323 327 352 360 L362 403 Q358 416 341 425.5 Q324 435 297 435 Q236 435 202 382 L57 382 L73 450 Q99 490 160.5 524.5 Q222 559 316 559 Q382 559 428 541 Q474 523 498.5 498 Q523 473 532 450 Z " />
<glyph glyph-name="uni0438" unicode="&#x438;" horiz-adv-x="597" d="M338 0 L406 319 L403 319 L150 0 L-13 0 L103 544 L258 544 L190 224 L193 224 L445 544 L609 544 L493 0 L338 0 Z " />
<glyph glyph-name="uni0439" unicode="&#x439;" horiz-adv-x="597" d="M338 0 L406 319 L403 319 L150 0 L-13 0 L103 544 L258 544 L190 224 L193 224 L445 544 L609 544 L493 0 L338 0 Z M568 687 Q542 644 493.5 618.5 Q445 593 379 593 Q310 593 265 619 Q220 645 205 687 L218 748 L339 748 L331 710 Q333 699 346 689 Q359 679 385 679 Q411 679 428 688.5 Q445 698 452 710 L461 748 L581 748 L568 687 Z " />
<glyph glyph-name="uni043A" unicode="&#x43a;" horiz-adv-x="538" d="M394 281 L477 90 L458 0 L341 0 L249 216 L200 216 L154 0 L-13 0 L103 544 L270 544 L226 337 L269 337 L438 544 L569 544 L550 455 L394 281 Z " />
<glyph glyph-name="uni043B" unicode="&#x43b;" horiz-adv-x="583" d="M480 0 L313 0 L403 422 L308 422 L196 79 Q158 28 105.5 11.5 Q53 -5 -44 -5 L-18 121 Q9 121 32 131.5 Q55 142 65 157 L195 544 L596 544 L480 0 Z " />
<glyph glyph-name="uni043C" unicode="&#x43c;" horiz-adv-x="689" d="M430 0 L500 328 L497 328 L342 108 L275 108 L216 328 L213 328 L142 0 L-13 0 L103 544 L297 544 L353 332 L356 332 L496 544 L702 544 L586 0 L430 0 Z " />
<glyph glyph-name="uni043D" unicode="&#x43d;" horiz-adv-x="593" d="M322 0 L369 219 L201 219 L154 0 L-13 0 L103 544 L270 544 L226 341 L395 341 L438 544 L605 544 L489 0 L322 0 Z " />
<glyph glyph-name="uni043E" unicode="&#x43e;" horiz-adv-x="566" d="M559 422 L494 122 Q461 66 397 25.5 Q333 -15 234 -15 Q166 -15 117.5 6 Q69 27 41.5 58.5 Q14 90 7 122 L71 422 Q104 478 168.5 518.5 Q233 559 332 559 Q400 559 449 537.5 Q498 516 525 484.5 Q552 453 559 422 Z M231 387 L180 154 Q185 137 203.5 125.5 Q222 114 250 114 Q280 114 302 126.5 Q324 139 335 157 L386 389 Q382 406 363 417.5 Q344 429 315 429 Q286 429 264 417 Q242 405 231 387 Z " />
<glyph glyph-name="uni043F" unicode="&#x43f;" horiz-adv-x="570" d="M300 0 L390 422 L244 422 L154 0 L-13 0 L103 544 L582 544 L466 0 L300 0 Z " />
<glyph glyph-name="uni0440" unicode="&#x440;" horiz-adv-x="564" d="M559 429 L492 115 Q463 65 411.5 27 Q360 -11 287 -11 Q205 -11 161 42 L116 -166 L-50 -166 L102 544 L263 544 L254 500 Q318 555 401 555 Q451 555 485.5 535 Q520 515 537.5 486.5 Q555 458 559 429 Z M383 391 Q379 403 363 414 Q347 425 319 425 Q270 425 238 398 L184 147 Q195 135 213 127 Q231 119 255 119 Q283 119 303 129 Q323 139 333 153 L383 391 Z " />
<glyph glyph-name="uni0441" unicode="&#x441;" horiz-adv-x="545" d="M551 443 L536 371 L394 371 Q390 398 368.5 413.5 Q347 429 314 429 Q287 429 264.5 417 Q242 405 231 388 L180 154 Q185 137 204 125.5 Q223 114 251 114 Q314 114 349 173 L493 173 L477 97 Q448 56 389.5 20.5 Q331 -15 236 -15 Q168 -15 119 6 Q70 27 42 58.5 Q14 90 7 122 L71 422 Q103 478 168.5 518.5 Q234 559 332 559 Q398 559 445 539 Q492 519 517.5 492 Q543 465 551 443 Z " />
<glyph glyph-name="uni0442" unicode="&#x442;" horiz-adv-x="493" d="M196 422 L57 422 L83 544 L526 544 L500 422 L362 422 L272 0 L105 0 L196 422 Z " />
<glyph glyph-name="uni0443" unicode="&#x443;" horiz-adv-x="537" d="M413 544 L569 544 L550 454 L250 -101 Q214 -140 163.5 -158.5 Q113 -177 38 -177 Q12 -177 -13 -173.5 Q-38 -170 -53 -166 L-27 -48 Q-3 -50 19 -50 Q84 -50 119 -21 L135 11 L66 453 L85 544 L230 544 L255 217 L258 217 L413 544 Z " />
<glyph glyph-name="uni0444" unicode="&#x444;" horiz-adv-x="787" d="M783 432 L714 111 Q689 61 637 25 Q585 -11 514 -11 Q455 -11 418 16 L379 -166 L221 -166 L259 12 Q215 -11 162 -11 Q114 -11 80 8 Q46 27 27.5 55 Q9 83 5 111 L73 432 Q98 482 150 518.5 Q202 555 273 555 Q329 555 370 528 L407 700 L565 700 L528 531 Q571 555 625 555 Q673 555 707 536 Q741 517 760 488.5 Q779 460 783 432 Z M283 123 L347 421 Q329 431 305 431 Q280 431 261.5 421.5 Q243 412 233 400 L178 144 Q182 132 196 122.5 Q210 113 235 113 Q260 113 283 123 Z M609 400 Q605 412 591 421.5 Q577 431 552 431 Q527 431 505 421 L441 123 Q459 113 486 113 Q510 113 527.5 122.5 Q545 132 554 144 L609 400 Z " />
<glyph glyph-name="uni0445" unicode="&#x445;" horiz-adv-x="526" d="M380 277 L460 90 L442 0 L300 0 L252 182 L249 182 L123 0 L-31 0 L-12 90 L149 279 L73 454 L92 544 L231 544 L277 372 L280 372 L397 544 L550 544 L531 454 L380 277 Z " />
<glyph glyph-name="uni0446" unicode="&#x446;" horiz-adv-x="618" d="M566 122 L515 -116 L375 -116 L400 0 L-13 0 L103 544 L270 544 L180 121 L326 121 L416 544 L582 544 L492 122 L566 122 Z " />
<glyph glyph-name="uni0447" unicode="&#x447;" horiz-adv-x="552" d="M564 544 L448 0 L281 0 L321 184 Q284 172 234 172 Q157 172 108 196 Q59 220 40 257 L101 544 L268 544 L219 319 Q238 291 287 291 Q317 291 346 303 L397 544 L564 544 Z " />
<glyph glyph-name="uni0448" unicode="&#x448;" horiz-adv-x="825" d="M-13 0 L103 544 L270 544 L180 121 L297 121 L387 544 L554 544 L464 121 L580 121 L671 544 L837 544 L721 0 L-13 0 Z " />
<glyph glyph-name="uni0449" unicode="&#x449;" horiz-adv-x="877" d="M821 122 L770 -116 L630 -116 L655 0 L-13 0 L103 544 L270 544 L180 121 L297 121 L387 544 L554 544 L464 121 L580 121 L671 544 L837 544 L747 122 L821 122 Z " />
<glyph glyph-name="uni044A" unicode="&#x44a;" horiz-adv-x="627" d="M598 277 L558 93 Q493 0 372 0 L77 0 L167 423 L57 423 L83 544 L359 544 L323 371 L431 371 Q491 371 535 345 Q579 319 598 277 Z M428 220 Q425 232 409.5 241.5 Q394 251 369 251 L297 251 L269 120 L337 120 Q384 120 414 152 L428 220 Z " />
<glyph glyph-name="uni044B" unicode="&#x44b;" horiz-adv-x="772" d="M234 371 L335 371 Q395 371 439 345 Q483 319 502 277 L462 93 Q428 44 380 22 Q332 0 279 0 L-13 0 L103 544 L270 544 L234 371 Z M669 0 L502 0 L618 544 L785 544 L669 0 Z M208 251 L180 120 L241 120 Q267 120 285 128.5 Q303 137 318 152 L332 220 Q328 232 313 241.5 Q298 251 273 251 L208 251 Z " />
<glyph glyph-name="uni044C" unicode="&#x44c;" horiz-adv-x="538" d="M234 371 L342 371 Q402 371 446 345 Q490 319 509 277 L469 93 Q434 44 386 22 Q338 0 283 0 L-13 0 L103 544 L270 544 L234 371 Z M208 251 L180 120 L248 120 Q274 120 292 128.5 Q310 137 325 152 L339 220 Q335 232 320 241.5 Q305 251 280 251 L208 251 Z " />
<glyph glyph-name="uni044D" unicode="&#x44d;" horiz-adv-x="545" d="M539 422 L474 122 Q443 67 377.5 26 Q312 -15 213 -15 Q147 -15 100 5 Q53 25 27.5 51.5 Q2 78 -6 100 L9 173 L152 173 Q156 145 177 129.5 Q198 114 231 114 Q259 114 280.5 126 Q302 138 315 156 L329 221 L167 221 L190 326 L352 326 L365 389 Q360 406 341.5 417.5 Q323 429 295 429 Q231 429 197 371 L53 371 L68 446 Q97 487 156 523 Q215 559 310 559 Q378 559 427.5 538 Q477 517 504.5 485.5 Q532 454 539 422 Z " />
<glyph glyph-name="uni044E" unicode="&#x44e;" horiz-adv-x="817" d="M811 422 L746 122 Q713 66 649 25.5 Q585 -15 486 -15 Q418 -15 369 6 Q320 27 293 58.5 Q266 90 258 122 L279 216 L200 216 L154 0 L-13 0 L103 544 L270 544 L226 337 L305 337 L323 422 Q356 478 420.5 518.5 Q485 559 584 559 Q652 559 700.5 537.5 Q749 516 776 484.5 Q803 453 811 422 Z M637 389 Q633 406 614.5 417.5 Q596 429 567 429 Q538 429 515.5 417 Q493 405 482 387 L432 154 Q437 137 455.5 125.5 Q474 114 502 114 Q531 114 553 126.5 Q575 139 587 157 L637 389 Z " />
<glyph glyph-name="Idot" unicode="&#x130;" horiz-adv-x="285" d="M175 0 L-5 0 L144 700 L324 700 L175 0 Z M356 859 L343 794 Q331 775 305.5 762 Q280 749 245 749 Q210 749 190.5 762 Q171 775 168 794 L181 859 Q193 878 218.5 891.5 Q244 905 278 905 Q313 905 333 891.5 Q353 878 356 859 Z " />
<glyph glyph-name="uni0162" unicode="&#x162;" horiz-adv-x="551" d="M617 700 L588 563 L428 563 L308 0 L256 0 L232 -41 L240 -41 Q275 -41 295.5 -56 Q316 -71 320 -91 L303 -168 Q264 -231 162 -231 Q131 -231 104 -225.5 Q77 -220 60 -213 L98 -146 Q136 -155 165 -155 Q184 -155 198.5 -150 Q213 -145 218 -137 L222 -116 Q218 -101 179 -101 L119 -101 L175 0 L128 0 L248 563 L87 563 L116 700 L617 700 Z " />
<glyph glyph-name="dslash" unicode="&#x111;" horiz-adv-x="583" d="M625 569 L583 569 L461 0 L301 0 L311 43 Q252 -11 173 -11 Q122 -11 85.5 9 Q49 29 29 58 Q9 87 5 115 L67 401 Q93 450 144.5 489 Q196 528 269 528 Q351 528 396 476 L416 569 L276 569 L294 654 L434 654 L444 700 L611 700 L601 654 L644 654 L625 569 Z M248 119 Q292 119 326 147 L374 372 Q349 397 303 397 Q276 397 256 386.5 Q236 376 226 363 L181 153 Q185 140 202 129.5 Q219 119 248 119 Z " />
<glyph glyph-name="uni0237" unicode="&#x237;" horiz-adv-x="256" d="M143 -46 Q114 -107 45 -143.5 Q-24 -180 -129 -180 L-103 -53 Q-75 -53 -50.5 -37.5 Q-26 -22 -14 -1 L102 544 L269 544 L143 -46 Z " />
<glyph glyph-name="uni0163" unicode="&#x163;" horiz-adv-x="366" d="M272 423 L211 139 Q226 114 281 114 Q294 114 302 115 Q310 116 313 116 L288 0 Q249 -13 200 -13 L192 -13 L176 -41 L183 -41 Q219 -41 239 -55.5 Q259 -70 263 -91 L246 -168 Q206 -231 106 -231 Q75 -231 47.5 -225.5 Q20 -220 3 -213 L41 -146 Q79 -155 109 -155 Q128 -155 142 -150 Q156 -145 161 -137 L166 -116 Q162 -101 123 -101 L63 -101 L117 -1 Q81 12 60.5 34 Q40 56 33 83 L106 423 L54 423 L79 544 L131 544 L156 656 L322 656 L298 544 L390 544 L364 423 L272 423 Z " />
<glyph glyph-name="f_f" unicode="&#xfb00;" horiz-adv-x="672" d="M625 582 L616 544 L709 544 L683 423 L590 423 L500 0 L333 0 L423 423 L372 423 L271 423 L181 0 L15 0 L105 423 L54 423 L79 544 L131 544 L150 635 Q171 674 222 702.5 Q273 731 346 731 Q408 731 442 718 L417 605 Q415 605 406.5 606 Q398 607 383 607 Q328 607 306 582 L297 544 L398 544 L449 544 L469 635 Q490 675 540.5 703 Q591 731 665 731 Q727 731 761 718 L736 605 Q734 605 725.5 606 Q717 607 702 607 Q644 607 625 582 Z " />
<glyph glyph-name="uni04D8" unicode="&#x4d8;" horiz-adv-x="617" d="M636 562 L545 138 Q510 75 438 30 Q366 -15 256 -15 Q182 -15 130 7.5 Q78 30 49 61.5 Q20 93 10 124 L67 388 L419 388 L448 525 Q443 547 420.5 561 Q398 575 364 575 Q285 575 245 495 L89 495 L107 576 Q141 633 208 674 Q275 715 383 715 Q458 715 512.5 691.5 Q567 668 597 633 Q627 598 636 562 Z M373 175 L392 266 L206 266 L187 176 Q195 153 218 139 Q241 125 273 125 Q307 125 332.5 139 Q358 153 373 175 Z " />
<glyph glyph-name="uni04D9" unicode="&#x4d9;" horiz-adv-x="552" d="M0 101 L47 318 L356 318 L372 393 Q367 409 348 421 Q329 433 301 433 Q236 433 206 375 L60 375 L74 446 Q104 488 163 523.5 Q222 559 318 559 Q386 559 434.5 537.5 Q483 516 510.5 484.5 Q538 453 545 422 L480 122 Q450 67 384.5 26 Q319 -15 220 -15 Q154 -15 106.5 5.5 Q59 26 33.5 53 Q8 80 0 101 Z M321 152 L333 211 L178 211 L166 151 Q170 134 189 122.5 Q208 111 237 111 Q264 111 286.5 123 Q309 135 321 152 Z " />
<glyph glyph-name="Alpha" unicode="&#x391;" horiz-adv-x="634" d="M552 0 L394 0 L390 152 L190 152 L121 0 L-34 0 L-14 98 L282 700 L535 700 L573 98 L552 0 Z M386 288 L379 565 L376 565 L251 288 L386 288 Z " />
<glyph glyph-name="Beta" unicode="&#x392;" horiz-adv-x="609" d="M511 365 Q533 355 551 338.5 Q569 322 577 300 L538 120 Q507 68 447.5 34 Q388 0 313 0 L-5 0 L144 700 L424 700 Q507 700 558.5 664.5 Q610 629 627 581 L597 437 Q584 415 560 395.5 Q536 376 511 365 Z M452 529 Q439 568 377 568 L296 568 L264 418 L353 418 Q407 418 436 459 L452 529 Z M405 264 Q397 281 377.5 291.5 Q358 302 328 302 L239 302 L203 132 L292 132 Q327 132 349 143 Q371 154 386 175 L405 264 Z " />
<glyph glyph-name="Gamma" unicode="&#x393;" horiz-adv-x="478" d="M515 563 L295 563 L175 0 L-5 0 L144 700 L544 700 L515 563 Z " />
<glyph glyph-name="Epsilon" unicode="&#x395;" horiz-adv-x="537" d="M295 563 L265 426 L511 426 L482 289 L236 289 L204 137 L473 137 L443 0 L-5 0 L144 700 L586 700 L557 563 L295 563 Z " />
<glyph glyph-name="Zeta" unicode="&#x396;" horiz-adv-x="556" d="M224 137 L495 137 L465 0 L-26 0 L-1 116 L363 563 L98 563 L128 700 L615 700 L590 584 L224 137 Z " />
<glyph glyph-name="Eta" unicode="&#x397;" horiz-adv-x="659" d="M368 0 L430 292 L237 292 L175 0 L-5 0 L144 700 L324 700 L266 429 L459 429 L517 700 L697 700 L548 0 L368 0 Z " />
<glyph glyph-name="Theta" unicode="&#x398;" horiz-adv-x="626" d="M645 562 L554 138 Q515 73 445 29 Q375 -15 265 -15 Q190 -15 136.5 8.5 Q83 32 53 67 Q23 102 15 138 L106 562 Q144 627 214.5 671 Q285 715 394 715 Q469 715 523 691.5 Q577 668 607 633 Q637 598 645 562 Z M278 525 L203 175 Q207 154 229 139.5 Q251 125 284 125 Q317 125 342 139 Q367 153 382 175 L457 525 Q452 546 430.5 560.5 Q409 575 375 575 Q342 575 317 561 Q292 547 278 525 Z M401 414 L378 307 L262 307 L285 414 L401 414 Z " />
<glyph glyph-name="Iota" unicode="&#x399;" horiz-adv-x="285" d="M175 0 L-5 0 L144 700 L324 700 L175 0 Z " />
<glyph glyph-name="Kappa" unicode="&#x39a;" horiz-adv-x="625" d="M540 0 L403 0 L293 284 L221 218 L175 0 L-5 0 L144 700 L324 700 L273 461 L527 700 L663 700 L642 602 L433 412 L561 98 L540 0 Z " />
<glyph glyph-name="Lambda" unicode="&#x39b;" horiz-adv-x="630" d="M283 700 L529 700 L569 98 L549 0 L382 0 L369 518 L366 518 L130 0 L-34 0 L-14 98 L283 700 Z " />
<glyph glyph-name="Mu" unicode="&#x39c;" horiz-adv-x="810" d="M531 0 L629 462 L626 462 L424 132 L325 132 L263 462 L260 462 L162 0 L-5 0 L144 700 L370 700 L426 391 L429 391 L608 700 L849 700 L699 0 L531 0 Z " />
<glyph glyph-name="Nu" unicode="&#x39d;" horiz-adv-x="670" d="M367 0 L256 425 L253 425 L162 0 L-5 0 L144 700 L336 700 L448 275 L451 275 L542 700 L709 700 L560 0 L367 0 Z " />
<glyph glyph-name="Xi" unicode="&#x39e;" horiz-adv-x="574" d="M594 563 L438 563 L409 428 L531 428 L501 291 L380 291 L347 137 L508 137 L478 0 L-21 0 L9 137 L172 137 L205 291 L81 291 L110 428 L234 428 L263 563 L104 563 L134 700 L623 700 L594 563 Z " />
<glyph glyph-name="Omicron" unicode="&#x39f;" horiz-adv-x="626" d="M645 562 L554 138 Q515 73 445 29 Q375 -15 265 -15 Q190 -15 136.5 8.5 Q83 32 53 67 Q23 102 15 138 L106 562 Q144 627 214.5 671 Q285 715 394 715 Q469 715 523 691.5 Q577 668 607 633 Q637 598 645 562 Z M278 525 L203 175 Q207 154 229 139.5 Q251 125 284 125 Q317 125 342 139 Q367 153 382 175 L457 525 Q452 546 430.5 560.5 Q409 575 375 575 Q342 575 317 561 Q292 547 278 525 Z " />
<glyph glyph-name="Pi" unicode="&#x3a0;" horiz-adv-x="653" d="M542 0 L362 0 L483 563 L295 563 L175 0 L-5 0 L144 700 L692 700 L542 0 Z " />
<glyph glyph-name="Rho" unicode="&#x3a1;" horiz-adv-x="598" d="M633 581 L587 367 Q545 305 487.5 276 Q430 247 349 247 L227 247 L175 0 L-5 0 L144 700 L422 700 Q499 700 553 670 Q607 640 633 581 Z M448 524 Q442 544 422 554.5 Q402 565 376 565 L295 565 L256 382 L334 382 Q398 382 427 425 L448 524 Z " />
<glyph glyph-name="Sigma" unicode="&#x3a3;" horiz-adv-x="560" d="M579 563 L299 563 L412 348 L224 137 L495 137 L465 0 L-26 0 L-1 116 L214 360 L105 567 L133 700 L609 700 L579 563 Z " />
<glyph glyph-name="Tau" unicode="&#x3a4;" horiz-adv-x="551" d="M588 563 L428 563 L308 0 L128 0 L248 563 L87 563 L116 700 L617 700 L588 563 Z " />
<glyph glyph-name="Upsilon" unicode="&#x3a5;" horiz-adv-x="588" d="M380 269 L322 0 L141 0 L203 287 L96 602 L117 700 L262 700 L326 451 L329 451 L498 700 L654 700 L633 602 L380 269 Z " />
<glyph glyph-name="Phi" unicode="&#x3a6;" horiz-adv-x="820" d="M827 505 L760 195 Q716 127 642 87.5 Q568 48 492 48 L440 48 L426 -20 L268 -20 L283 48 L250 48 Q201 48 155 67.5 Q109 87 74.5 121 Q40 155 27 195 L94 505 Q136 572 212 615.5 Q288 659 362 659 L414 659 L427 720 L585 720 L572 659 L606 659 Q655 659 701 637.5 Q747 616 781 580.5 Q815 545 827 505 Z M311 180 L386 527 L358 527 Q331 527 301 510 Q271 493 251 472 L199 228 Q207 208 231 194 Q255 180 284 180 L311 180 Z M655 472 Q646 493 622.5 510 Q599 527 571 527 L543 527 L469 180 L498 180 Q527 180 557.5 194 Q588 208 602 228 L655 472 Z " />
<glyph glyph-name="Chi" unicode="&#x3a7;" horiz-adv-x="603" d="M434 355 L533 98 L512 0 L360 0 L299 241 L296 241 L130 0 L-26 0 L-6 98 L203 357 L107 602 L128 700 L278 700 L340 470 L343 470 L502 700 L657 700 L636 602 L434 355 Z " />
<glyph glyph-name="Psi" unicode="&#x3a8;" horiz-adv-x="807" d="M851 700 L760 275 Q719 211 645.5 172.5 Q572 134 481 134 L454 134 L425 0 L265 0 L294 134 L284 134 Q196 134 133.5 174 Q71 214 48 275 L139 700 L307 700 L225 317 Q233 296 256 282 Q279 268 317 268 L322 268 L414 700 L575 700 L483 268 L493 268 Q531 268 558 282 Q585 296 600 317 L682 700 L851 700 Z " />
<glyph glyph-name="Alphatonos" unicode="&#x386;" horiz-adv-x="634" d="M552 0 L394 0 L390 152 L190 152 L121 0 L-34 0 L-14 98 L282 700 L535 700 L573 98 L552 0 Z M386 288 L379 565 L376 565 L251 288 L386 288 Z M199 700 L183 629 L81 532 L-47 532 L-44 547 L40 700 L199 700 Z " />
<glyph glyph-name="Epsilontonos" unicode="&#x388;" horiz-adv-x="537" d="M295 563 L265 426 L511 426 L482 289 L236 289 L204 137 L473 137 L443 0 L-5 0 L144 700 L586 700 L557 563 L295 563 Z M95 700 L79 629 L-23 532 L-151 532 L-148 547 L-64 700 L95 700 Z " />
<glyph glyph-name="Etatonos" unicode="&#x389;" horiz-adv-x="659" d="M368 0 L430 292 L237 292 L175 0 L-5 0 L144 700 L324 700 L266 429 L459 429 L517 700 L697 700 L548 0 L368 0 Z M95 700 L79 629 L-23 532 L-151 532 L-148 547 L-64 700 L95 700 Z " />
<glyph glyph-name="Iotatonos" unicode="&#x38a;" horiz-adv-x="285" d="M175 0 L-5 0 L144 700 L324 700 L175 0 Z M95 700 L79 629 L-23 532 L-151 532 L-148 547 L-64 700 L95 700 Z " />
<glyph glyph-name="Omicrontonos" unicode="&#x38c;" horiz-adv-x="626" d="M645 562 L554 138 Q515 73 445 29 Q375 -15 265 -15 Q190 -15 136.5 8.5 Q83 32 53 67 Q23 102 15 138 L106 562 Q144 627 214.5 671 Q285 715 394 715 Q469 715 523 691.5 Q577 668 607 633 Q637 598 645 562 Z M278 525 L203 175 Q207 154 229 139.5 Q251 125 284 125 Q317 125 342 139 Q367 153 382 175 L457 525 Q452 546 430.5 560.5 Q409 575 375 575 Q342 575 317 561 Q292 547 278 525 Z M115 700 L99 629 L-3 532 L-131 532 L-128 547 L-44 700 L115 700 Z " />
<glyph glyph-name="Upsilontonos" unicode="&#x38e;" horiz-adv-x="588" d="M380 269 L322 0 L141 0 L203 287 L96 602 L117 700 L262 700 L326 451 L329 451 L498 700 L654 700 L633 602 L380 269 Z M84 700 L68 629 L-34 532 L-162 532 L-159 547 L-75 700 L84 700 Z " />
<glyph glyph-name="Omegatonos" unicode="&#x38f;" horiz-adv-x="634" d="M452 137 L557 137 L528 0 L290 0 L329 186 Q351 190 369.5 203.5 Q388 217 398 234 L461 526 Q456 547 435.5 561 Q415 575 382 575 Q349 575 322.5 561 Q296 547 282 526 L219 234 Q222 218 234.5 204.5 Q247 191 267 186 L228 0 L-11 0 L19 137 L140 137 Q100 158 75 187 Q50 216 42 247 L110 562 Q145 624 219 669.5 Q293 715 402 715 Q476 715 528.5 691 Q581 667 610.5 632 Q640 597 649 562 L581 243 Q539 175 452 137 Z M115 700 L99 629 L-3 532 L-131 532 L-128 547 L-44 700 L115 700 Z " />
<glyph glyph-name="Iotadieresis" unicode="&#x3aa;" horiz-adv-x="285" d="M175 0 L-5 0 L144 700 L324 700 L175 0 Z M238 863 L220 777 Q205 763 186 753.5 Q167 744 134 744 Q102 744 86.5 754 Q71 764 62 777 L80 863 Q96 876 115 885.5 Q134 895 166 895 Q198 895 213 885.5 Q228 876 238 863 Z M459 863 L441 777 Q408 744 355 744 Q323 744 307.5 754 Q292 764 283 777 L301 863 Q317 876 336 885.5 Q355 895 387 895 Q438 895 459 863 Z " />
<glyph glyph-name="Upsilondieresis" unicode="&#x3ab;" horiz-adv-x="588" d="M380 269 L322 0 L141 0 L203 287 L96 602 L117 700 L262 700 L326 451 L329 451 L498 700 L654 700 L633 602 L380 269 Z M389 863 L371 777 Q356 763 337 753.5 Q318 744 285 744 Q253 744 237.5 754 Q222 764 213 777 L231 863 Q247 876 266 885.5 Q285 895 317 895 Q349 895 364 885.5 Q379 876 389 863 Z M610 863 L592 777 Q559 744 506 744 Q474 744 458.5 754 Q443 764 434 777 L452 863 Q468 876 487 885.5 Q506 895 538 895 Q589 895 610 863 Z " />
<glyph glyph-name="alpha" unicode="&#x3b1;" horiz-adv-x="563" d="M577 544 L461 0 L301 0 L310 43 Q253 -11 173 -11 Q122 -11 85.5 9 Q49 29 29 58 Q9 87 5 115 L73 429 Q98 478 150 516.5 Q202 555 275 555 Q362 555 407 498 L417 544 L577 544 Z M248 119 Q293 119 325 147 L380 400 Q357 425 309 425 Q282 425 261.5 414.5 Q241 404 231 391 L181 153 Q185 140 202 129.5 Q219 119 248 119 Z " />
<glyph glyph-name="beta" unicode="&#x3b2;" horiz-adv-x="566" d="M468 379 Q525 340 536 292 L500 122 Q472 66 419 27.5 Q366 -11 291 -11 Q207 -11 162 44 L116 -166 L-50 -166 L111 584 Q144 638 208.5 676.5 Q273 715 366 715 Q455 715 508.5 680 Q562 645 580 607 L545 441 Q534 423 512.5 407 Q491 391 468 379 Z M407 552 Q393 585 346 585 Q322 585 302 574.5 Q282 564 271 548 L185 150 Q194 137 213.5 128 Q233 119 258 119 Q286 119 308.5 132 Q331 145 342 162 L365 272 Q361 292 341.5 302.5 Q322 313 295 313 L276 313 L303 433 L317 433 Q338 433 357 443 Q376 453 390 470 L407 552 Z " />
<glyph glyph-name="gamma" unicode="&#x3b3;" horiz-adv-x="542" d="M554 454 L295 0 L259 -166 L93 -166 L129 1 L66 454 L84 544 L229 544 L255 211 L258 211 L424 544 L573 544 L554 454 Z " />
<glyph glyph-name="delta" unicode="&#x3b4;" horiz-adv-x="565" d="M283 570 L274 525 Q276 515 289.5 506 Q303 497 324 493 L373 483 Q447 468 490 429.5 Q533 391 543 349 L494 122 Q461 67 396 26 Q331 -15 235 -15 Q166 -15 117.5 6.5 Q69 28 42.5 59 Q16 90 7 122 L52 334 Q70 365 106 392.5 Q142 420 193 436 Q160 451 141 469 Q122 487 116 502 L140 615 Q168 651 225.5 683 Q283 715 371 715 Q431 715 474.5 697.5 Q518 680 542.5 657 Q567 634 576 615 L564 556 L423 556 Q406 597 354 597 Q310 597 283 570 Z M304 374 Q277 374 254 361.5 Q231 349 218 331 L180 156 Q185 138 203 126.5 Q221 115 250 115 Q279 115 302 127.5 Q325 140 336 158 L374 334 Q370 351 351.5 362.5 Q333 374 304 374 Z " />
<glyph glyph-name="epsilon" unicode="&#x3b5;" horiz-adv-x="542" d="M232 399 L226 367 Q232 350 249.5 340 Q267 330 291 330 L367 330 L345 224 L271 224 Q245 224 222 214.5 Q199 205 187 188 L178 144 Q184 131 203.5 121 Q223 111 250 111 Q283 111 307.5 124.5 Q332 138 346 158 L489 158 L475 91 Q445 49 385 17 Q325 -15 229 -15 Q163 -15 114.5 3.5 Q66 22 38.5 46.5 Q11 71 0 93 L24 206 Q37 229 63.5 250 Q90 271 121 285 Q100 295 83.5 312 Q67 329 59 346 L81 450 Q107 490 169.5 524.5 Q232 559 327 559 Q392 559 439.5 540.5 Q487 522 513.5 497.5 Q540 473 549 452 L535 390 L388 390 Q382 409 362 421 Q342 433 311 433 Q284 433 264 423.5 Q244 414 232 399 Z " />
<glyph glyph-name="zeta" unicode="&#x3b6;" horiz-adv-x="513" d="M200 244 L182 161 Q188 149 207 139.5 Q226 130 254 130 L448 130 L394 -125 L252 -125 L279 0 L196 0 Q138 0 97 19 Q56 38 33.5 66 Q11 94 5 123 L36 268 Q51 295 71 318 Q91 341 121 368 L350 576 L126 576 L152 700 L576 700 L552 584 L251 305 Q213 270 200 244 Z " />
</font>
</svg>
