<?xml version="1.0" encoding="UTF-8"?>
<svg xmlns="http://www.w3.org/2000/svg" xmlns:xlink="http://www.w3.org/1999/xlink" version="1.2" >
<font id="Cadillac Sans Book Italic">
<font-face  font-family="Cadillac Sans" units-per-em="1000" ascent="750" descent="-250" font-style="italic" font-weight="400" font-stretch="normal" slope="-12" cap-height="700" x-height="538" underline-position="-75" underline-thickness="50" />
<missing-glyph  horiz-adv-x="599" d="M441 -100 L0 -100 L192 800 L633 800 L441 -100 Z M250 739 L84 -39 L385 -39 L551 739 L250 739 Z " />
<glyph glyph-name=".null" d="" />
<glyph glyph-name="nonmarkingreturn" unicode="&#xd;" horiz-adv-x="196" d="" />
<glyph glyph-name="space" unicode="&#x20;" horiz-adv-x="207" d="" />
<glyph glyph-name="A" unicode="A" horiz-adv-x="608" d="M533 58 L520 0 L445 0 L425 199 L156 199 L52 0 L-28 0 L-15 58 L332 700 L460 700 L533 58 Z M417 274 L381 621 L378 621 L195 274 L417 274 Z " />
<glyph glyph-name="B" unicode="B" horiz-adv-x="589" d="M459 364 Q487 351 510 330 Q533 309 543 282 L508 119 Q477 67 420 33.5 Q363 0 299 0 L16 0 L166 700 L407 700 Q475 700 525.5 665.5 Q576 631 593 582 L565 450 Q548 422 519.5 399.5 Q491 377 459 364 Z M500 556 Q490 590 459.5 607.5 Q429 625 380 625 L244 625 L196 400 L348 400 Q385 400 421 418 Q457 436 481 470 L500 556 Z M452 262 Q441 292 407.5 310 Q374 328 327 328 L181 328 L126 75 L267 75 Q326 75 364 94.5 Q402 114 428 151 L452 262 Z " />
<glyph glyph-name="C" unicode="C" horiz-adv-x="605" d="M627 568 L615 516 L539 516 Q536 568 496.5 603.5 Q457 639 390 639 Q331 639 286 611.5 Q241 584 214 542 L132 158 Q138 118 176 90 Q214 62 273 62 Q339 62 385.5 95.5 Q432 129 460 185 L544 185 L532 132 Q499 71 434.5 28.5 Q370 -14 270 -14 Q201 -14 150.5 9 Q100 32 71 67 Q42 102 34 138 L125 562 Q159 624 226 669 Q293 714 393 714 Q462 714 511.5 691.5 Q561 669 589 635.5 Q617 602 627 568 Z " />
<glyph glyph-name="D" unicode="D" horiz-adv-x="625" d="M627 562 L536 138 Q503 76 434.5 38 Q366 0 270 0 L16 0 L166 700 L404 700 Q500 700 557 659.5 Q614 619 627 562 Z M244 625 L126 75 L266 75 Q328 75 374.5 100.5 Q421 126 447 167 L528 541 Q518 580 482 602.5 Q446 625 383 625 L244 625 Z " />
<glyph glyph-name="E" unicode="E" horiz-adv-x="539" d="M560 625 L244 625 L195 398 L490 398 L474 323 L179 323 L126 75 L451 75 L434 0 L16 0 L166 700 L576 700 L560 625 Z " />
<glyph glyph-name="F" unicode="F" horiz-adv-x="514" d="M550 625 L244 625 L195 395 L485 395 L469 321 L179 321 L110 0 L16 0 L166 700 L566 700 L550 625 Z " />
<glyph glyph-name="G" unicode="G" horiz-adv-x="630" d="M214 542 L132 158 Q139 118 176 90 Q213 62 273 62 Q333 62 378 88.5 Q423 115 449 157 L478 293 L334 293 L350 368 L583 368 L504 0 L424 0 L437 59 Q408 27 363.5 6.5 Q319 -14 258 -14 Q195 -14 147 9 Q99 32 70.5 67.5 Q42 103 34 139 L125 562 Q158 623 225.5 668.5 Q293 714 393 714 Q461 714 511 691 Q561 668 589.5 634.5 Q618 601 627 568 L615 516 L537 516 Q532 569 495 604 Q458 639 391 639 Q333 639 287 611 Q241 583 214 542 Z " />
<glyph glyph-name="H" unicode="H" horiz-adv-x="646" d="M514 0 L420 0 L489 324 L179 324 L110 0 L16 0 L166 700 L260 700 L195 398 L505 398 L570 700 L664 700 L514 0 Z " />
<glyph glyph-name="I" unicode="I" horiz-adv-x="242" d="M110 0 L16 0 L166 700 L260 700 L110 0 Z " />
<glyph glyph-name="J" unicode="J" horiz-adv-x="387" d="M289 139 Q250 72 183.5 35 Q117 -2 24 -2 Q-14 -2 -38 0 L-22 73 L18 73 Q77 73 124.5 98 Q172 123 201 165 L315 700 L409 700 L289 139 Z " />
<glyph glyph-name="K" unicode="K" horiz-adv-x="592" d="M611 642 L350 416 L515 58 L502 0 L440 0 L278 353 L165 256 L110 0 L16 0 L166 700 L260 700 L192 381 L553 700 L624 700 L611 642 Z " />
<glyph glyph-name="L" unicode="L" horiz-adv-x="454" d="M126 75 L389 75 L373 0 L16 0 L166 700 L260 700 L126 75 Z " />
<glyph glyph-name="M" unicode="M" horiz-adv-x="796" d="M664 0 L575 0 L703 597 L700 597 L412 171 L342 171 L236 597 L233 597 L104 0 L16 0 L166 700 L294 700 L397 290 L400 290 L671 700 L814 700 L664 0 Z " />
<glyph glyph-name="N" unicode="N" horiz-adv-x="660" d="M528 0 L415 0 L232 576 L229 576 L104 0 L16 0 L166 700 L280 700 L463 124 L466 124 L590 700 L678 700 L528 0 Z " />
<glyph glyph-name="O" unicode="O" horiz-adv-x="626" d="M627 562 L536 139 Q498 74 432.5 30 Q367 -14 267 -14 Q198 -14 148 9 Q98 32 70 67 Q42 102 34 139 L125 562 Q162 626 228 670 Q294 714 393 714 Q462 714 512 691 Q562 668 590.5 633 Q619 598 627 562 Z M214 542 L132 158 Q138 118 176 90 Q214 62 273 62 Q331 62 375.5 89.5 Q420 117 447 159 L529 543 Q523 583 485.5 611 Q448 639 388 639 Q330 639 285.5 611.5 Q241 584 214 542 Z " />
<glyph glyph-name="P" unicode="P" horiz-adv-x="571" d="M594 582 L553 394 Q516 336 459 306 Q402 276 328 276 L169 276 L110 0 L16 0 L166 700 L392 700 Q549 700 594 582 Z M496 554 Q485 590 453 607.5 Q421 625 381 625 L244 625 L185 351 L319 351 Q419 351 470 427 L496 554 Z " />
<glyph glyph-name="Q" unicode="Q" horiz-adv-x="626" d="M341 -6 Q352 -38 379.5 -58 Q407 -78 433 -78 L492 -78 L478 -146 L414 -146 Q375 -146 340 -127.5 Q305 -109 281.5 -78.5 Q258 -48 252 -13 Q188 -11 141 12.5 Q94 36 68 70 Q42 104 34 139 L125 562 Q162 626 228 670 Q294 714 393 714 Q462 714 512 691 Q562 668 590.5 633 Q619 598 627 562 L536 139 Q506 87 458 47.5 Q410 8 341 -6 Z M447 159 L529 543 Q523 583 485.5 611 Q448 639 388 639 Q330 639 285.5 611.5 Q241 584 214 542 L132 158 Q138 118 176 90 Q214 62 273 62 Q331 62 375.5 89.5 Q420 117 447 159 Z " />
<glyph glyph-name="R" unicode="R" horiz-adv-x="592" d="M601 582 L565 417 Q532 366 487 337 Q442 308 390 300 L500 58 L487 0 L423 0 L292 298 L174 298 L110 0 L16 0 L166 700 L403 700 Q480 700 529.5 669 Q579 638 601 582 Z M504 552 Q494 588 462.5 606.5 Q431 625 389 625 L244 625 L189 371 L325 371 Q377 371 417.5 390 Q458 409 482 445 L504 552 Z " />
<glyph glyph-name="S" unicode="S" horiz-adv-x="585" d="M591 598 L579 546 L502 546 Q493 587 458 613 Q423 639 364 639 Q318 639 279 618.5 Q240 598 217 569 L196 469 Q203 450 222 438 Q241 426 294 409 L372 384 Q449 360 481.5 333 Q514 306 529 265 L497 119 Q411 -14 245 -14 Q176 -14 126 7.5 Q76 29 48 59.5 Q20 90 11 118 L22 170 L99 170 Q109 123 148.5 92.5 Q188 62 251 62 Q308 62 349 87 Q390 112 414 148 L433 238 Q427 261 403.5 277.5 Q380 294 326 311 L242 338 Q176 359 146.5 380.5 Q117 402 99 442 L133 598 Q168 646 230 680 Q292 714 379 714 Q438 714 482.5 696 Q527 678 554 651.5 Q581 625 591 598 Z " />
<glyph glyph-name="T" unicode="T" horiz-adv-x="529" d="M580 625 L388 625 L254 0 L160 0 L294 625 L101 625 L117 700 L596 700 L580 625 Z " />
<glyph glyph-name="U" unicode="U" horiz-adv-x="643" d="M545 139 Q511 79 441 32.5 Q371 -14 270 -14 Q170 -14 113.5 32 Q57 78 42 139 L162 700 L256 700 L141 160 Q148 119 182.5 91.5 Q217 64 276 64 Q335 64 381.5 92 Q428 120 455 161 L571 700 L665 700 L545 139 Z " />
<glyph glyph-name="V" unicode="V" horiz-adv-x="614" d="M663 642 L313 0 L183 0 L110 642 L123 700 L197 700 L260 84 L263 84 L591 700 L675 700 L663 642 Z " />
<glyph glyph-name="W" unicode="W" horiz-adv-x="897" d="M941 642 L670 0 L536 0 L510 563 L507 563 L240 0 L111 0 L115 642 L128 700 L207 700 L196 87 L199 87 L488 700 L585 700 L611 87 L614 87 L867 700 L953 700 L941 642 Z " />
<glyph glyph-name="X" unicode="X" horiz-adv-x="583" d="M611 642 L370 356 L493 58 L480 0 L412 0 L300 296 L297 296 L62 0 L-14 0 L-2 58 L248 361 L131 642 L144 700 L211 700 L319 417 L322 417 L547 700 L624 700 L611 642 Z " />
<glyph glyph-name="Y" unicode="Y" horiz-adv-x="557" d="M602 642 L330 299 L266 0 L172 0 L238 308 L114 642 L127 700 L189 700 L299 390 L301 390 L539 700 L615 700 L602 642 Z " />
<glyph glyph-name="Z" unicode="Z" horiz-adv-x="563" d="M596 637 L121 75 L475 75 L459 0 L-13 0 L1 63 L476 625 L129 625 L145 700 L609 700 L596 637 Z " />
<glyph glyph-name="Agrave" unicode="&#xc0;" horiz-adv-x="608" d="M533 58 L520 0 L445 0 L425 199 L156 199 L52 0 L-28 0 L-15 58 L332 700 L460 700 L533 58 Z M417 274 L381 621 L378 621 L195 274 L417 274 Z M427 753 L367 753 L310 864 L320 906 L394 906 L431 769 L427 753 Z " />
<glyph glyph-name="Aacute" unicode="&#xc1;" horiz-adv-x="608" d="M533 58 L520 0 L445 0 L425 199 L156 199 L52 0 L-28 0 L-15 58 L332 700 L460 700 L533 58 Z M417 274 L381 621 L378 621 L195 274 L417 274 Z M435 753 L366 753 L370 769 L463 906 L549 906 L539 864 L435 753 Z " />
<glyph glyph-name="Acircumflex" unicode="&#xc2;" horiz-adv-x="608" d="M533 58 L520 0 L445 0 L425 199 L156 199 L52 0 L-28 0 L-15 58 L332 700 L460 700 L533 58 Z M417 274 L381 621 L378 621 L195 274 L417 274 Z M555 753 L499 753 L436 860 L327 753 L262 753 L265 769 L384 906 L498 906 L559 769 L555 753 Z " />
<glyph glyph-name="Atilde" unicode="&#xc3;" horiz-adv-x="608" d="M533 58 L520 0 L445 0 L425 199 L156 199 L52 0 L-28 0 L-15 58 L332 700 L460 700 L533 58 Z M417 274 L381 621 L378 621 L195 274 L417 274 Z M436 837 Q451 825 460.5 819.5 Q470 814 483 814 Q514 814 531 843 L535 862 L590 862 L580 819 Q566 791 539.5 773.5 Q513 756 478 756 Q454 756 439 764 Q424 772 404 787 Q390 799 380.5 804.5 Q371 810 358 810 Q332 810 310 781 L306 761 L251 761 L260 804 Q275 833 302 850.5 Q329 868 363 868 Q386 868 402 860 Q418 852 436 837 Z " />
<glyph glyph-name="Adieresis" unicode="&#xc4;" horiz-adv-x="608" d="M533 58 L520 0 L445 0 L425 199 L156 199 L52 0 L-28 0 L-15 58 L332 700 L460 700 L533 58 Z M417 274 L381 621 L378 621 L195 274 L417 274 Z M377 852 L363 789 Q356 782 342.5 776 Q329 770 310 770 Q292 770 281 776 Q270 782 265 789 L279 852 Q286 859 299.5 865 Q313 871 331 871 Q361 871 377 852 Z M579 852 L565 789 Q558 782 544.5 776 Q531 770 512 770 Q483 770 467 789 L481 852 Q488 859 502 865 Q516 871 534 871 Q552 871 563 865 Q574 859 579 852 Z " />
<glyph glyph-name="Amacron" unicode="&#x100;" horiz-adv-x="608" d="M533 58 L520 0 L445 0 L425 199 L156 199 L52 0 L-28 0 L-15 58 L332 700 L460 700 L533 58 Z M417 274 L381 621 L378 621 L195 274 L417 274 Z M256 773 L269 837 L582 837 L568 773 L256 773 Z " />
<glyph glyph-name="Abreve" unicode="&#x102;" horiz-adv-x="608" d="M533 58 L520 0 L445 0 L425 199 L156 199 L52 0 L-28 0 L-15 58 L332 700 L460 700 L533 58 Z M417 274 L381 621 L378 621 L195 274 L417 274 Z M565 819 Q548 787 511 765 Q474 743 417 743 Q359 743 323.5 765.5 Q288 788 278 819 L290 874 L357 874 L348 837 Q350 824 366.5 810.5 Q383 797 417 797 Q451 797 471.5 809.5 Q492 822 502 837 L511 874 L578 874 L565 819 Z " />
<glyph glyph-name="Aring" unicode="&#xc5;" horiz-adv-x="608" d="M533 58 L520 0 L445 0 L425 199 L156 199 L52 0 L-28 0 L-15 58 L331 698 Q303 714 295 737 L313 825 Q328 848 358 863.5 Q388 879 425 879 Q462 879 489 863.5 Q516 848 525 825 L507 737 Q491 712 460 697 L533 58 Z M346 752 Q350 742 363 734.5 Q376 727 399 727 Q438 727 461 752 L474 809 Q470 820 457 827.5 Q444 835 421 835 Q380 835 358 809 L346 752 Z M417 274 L381 621 L378 621 L195 274 L417 274 Z " />
<glyph glyph-name="Aogonek" unicode="&#x104;" horiz-adv-x="608" d="M397 -106 L390 -137 Q393 -145 406.5 -151 Q420 -157 437 -157 Q463 -157 491 -146 L479 -200 Q451 -215 411 -215 Q377 -215 350 -201.5 Q323 -188 317 -165 L333 -95 Q345 -75 375 -45.5 Q405 -16 444 9 L425 199 L156 199 L52 0 L-28 0 L-15 58 L332 700 L460 700 L533 58 L520 0 L521 0 Q467 -34 437 -62 Q407 -90 397 -106 Z M417 274 L381 621 L378 621 L195 274 L417 274 Z " />
<glyph glyph-name="AE" unicode="&#xc6;" horiz-adv-x="853" d="M559 625 L510 398 L805 398 L789 323 L494 323 L441 75 L765 75 L749 0 L330 0 L377 215 L188 215 L45 0 L-30 0 L-17 58 L416 700 L890 700 L874 625 L559 625 Z M465 627 L462 627 L238 290 L393 290 L465 627 Z " />
<glyph glyph-name="Cacute" unicode="&#x106;" horiz-adv-x="605" d="M627 568 L615 516 L539 516 Q536 568 496.5 603.5 Q457 639 390 639 Q331 639 286 611.5 Q241 584 214 542 L132 158 Q138 118 176 90 Q214 62 273 62 Q339 62 385.5 95.5 Q432 129 460 185 L544 185 L532 132 Q499 71 434.5 28.5 Q370 -14 270 -14 Q201 -14 150.5 9 Q100 32 71 67 Q42 102 34 138 L125 562 Q159 624 226 669 Q293 714 393 714 Q462 714 511.5 691.5 Q561 669 589 635.5 Q617 602 627 568 Z M445 753 L376 753 L380 769 L473 906 L559 906 L549 864 L445 753 Z " />
<glyph glyph-name="Ccircumflex" unicode="&#x108;" horiz-adv-x="605" d="M627 568 L615 516 L539 516 Q536 568 496.5 603.5 Q457 639 390 639 Q331 639 286 611.5 Q241 584 214 542 L132 158 Q138 118 176 90 Q214 62 273 62 Q339 62 385.5 95.5 Q432 129 460 185 L544 185 L532 132 Q499 71 434.5 28.5 Q370 -14 270 -14 Q201 -14 150.5 9 Q100 32 71 67 Q42 102 34 138 L125 562 Q159 624 226 669 Q293 714 393 714 Q462 714 511.5 691.5 Q561 669 589 635.5 Q617 602 627 568 Z M566 753 L510 753 L447 860 L338 753 L273 753 L276 769 L395 906 L509 906 L570 769 L566 753 Z " />
<glyph glyph-name="Ccaron" unicode="&#x10c;" horiz-adv-x="605" d="M627 568 L615 516 L539 516 Q536 568 496.5 603.5 Q457 639 390 639 Q331 639 286 611.5 Q241 584 214 542 L132 158 Q138 118 176 90 Q214 62 273 62 Q339 62 385.5 95.5 Q432 129 460 185 L544 185 L532 132 Q499 71 434.5 28.5 Q370 -14 270 -14 Q201 -14 150.5 9 Q100 32 71 67 Q42 102 34 138 L125 562 Q159 624 226 669 Q293 714 393 714 Q462 714 511.5 691.5 Q561 669 589 635.5 Q617 602 627 568 Z M477 753 L363 753 L301 890 L305 906 L361 906 L423 798 L533 906 L598 906 L594 890 L477 753 Z " />
<glyph glyph-name="Cdotaccent" unicode="&#x10a;" horiz-adv-x="605" d="M627 568 L615 516 L539 516 Q536 568 496.5 603.5 Q457 639 390 639 Q331 639 286 611.5 Q241 584 214 542 L132 158 Q138 118 176 90 Q214 62 273 62 Q339 62 385.5 95.5 Q432 129 460 185 L544 185 L532 132 Q499 71 434.5 28.5 Q370 -14 270 -14 Q201 -14 150.5 9 Q100 32 71 67 Q42 102 34 138 L125 562 Q159 624 226 669 Q293 714 393 714 Q462 714 511.5 691.5 Q561 669 589 635.5 Q617 602 627 568 Z M492 852 L481 800 Q473 790 458 783 Q443 776 423 776 Q404 776 392.5 783 Q381 790 378 800 L389 852 Q395 861 410.5 868.5 Q426 876 446 876 Q465 876 476.5 869 Q488 862 492 852 Z " />
<glyph glyph-name="Ccedilla" unicode="&#xc7;" horiz-adv-x="605" d="M214 542 L132 158 Q138 118 176 90 Q214 62 273 62 Q339 62 385.5 95.5 Q432 129 460 185 L544 185 L532 132 Q500 72 437.5 30 Q375 -12 278 -14 L254 -52 L265 -52 Q294 -52 314.5 -66.5 Q335 -81 340 -99 L325 -169 Q289 -221 216 -221 Q187 -221 161.5 -214.5 Q136 -208 121 -198 L147 -153 Q180 -172 218 -172 Q238 -172 251.5 -165 Q265 -158 271 -148 L278 -116 Q275 -108 264 -101.5 Q253 -95 235 -95 L175 -95 L223 -11 Q143 0 94 43.5 Q45 87 34 138 L125 562 Q159 624 226 669 Q293 714 393 714 Q462 714 511.5 691.5 Q561 669 589 635.5 Q617 602 627 568 L615 516 L539 516 Q536 568 496.5 603.5 Q457 639 390 639 Q331 639 286 611.5 Q241 584 214 542 Z " />
<glyph glyph-name="Dcaron" unicode="&#x10e;" horiz-adv-x="625" d="M627 562 L536 138 Q503 76 434.5 38 Q366 0 270 0 L16 0 L166 700 L404 700 Q500 700 557 659.5 Q614 619 627 562 Z M244 625 L126 75 L266 75 Q328 75 374.5 100.5 Q421 126 447 167 L528 541 Q518 580 482 602.5 Q446 625 383 625 L244 625 Z M475 753 L361 753 L299 890 L303 906 L359 906 L421 798 L531 906 L596 906 L592 890 L475 753 Z " />
<glyph glyph-name="Dcroat" unicode="&#x110;" horiz-adv-x="649" d="M650 562 L559 138 Q526 76 457.5 38 Q389 0 294 0 L40 0 L108 320 L51 320 L68 393 L124 393 L190 700 L428 700 Q524 700 580.5 659.5 Q637 619 650 562 Z M551 541 Q541 580 505.5 602.5 Q470 625 407 625 L268 625 L218 393 L386 393 L369 320 L202 320 L150 75 L289 75 Q351 75 398 101 Q445 127 470 167 L551 541 Z " />
<glyph glyph-name="Egrave" unicode="&#xc8;" horiz-adv-x="539" d="M560 625 L244 625 L195 398 L490 398 L474 323 L179 323 L126 75 L451 75 L434 0 L16 0 L166 700 L576 700 L560 625 Z M405 753 L345 753 L288 864 L298 906 L372 906 L409 769 L405 753 Z " />
<glyph glyph-name="Eacute" unicode="&#xc9;" horiz-adv-x="539" d="M560 625 L244 625 L195 398 L490 398 L474 323 L179 323 L126 75 L451 75 L434 0 L16 0 L166 700 L576 700 L560 625 Z M413 753 L344 753 L348 769 L441 906 L527 906 L517 864 L413 753 Z " />
<glyph glyph-name="Ecircumflex" unicode="&#xca;" horiz-adv-x="539" d="M560 625 L244 625 L195 398 L490 398 L474 323 L179 323 L126 75 L451 75 L434 0 L16 0 L166 700 L576 700 L560 625 Z M533 753 L477 753 L414 860 L305 753 L240 753 L243 769 L362 906 L476 906 L537 769 L533 753 Z " />
<glyph glyph-name="Ecaron" unicode="&#x11a;" horiz-adv-x="539" d="M560 625 L244 625 L195 398 L490 398 L474 323 L179 323 L126 75 L451 75 L434 0 L16 0 L166 700 L576 700 L560 625 Z M444 753 L330 753 L268 890 L272 906 L328 906 L390 798 L500 906 L565 906 L561 890 L444 753 Z " />
<glyph glyph-name="Edieresis" unicode="&#xcb;" horiz-adv-x="539" d="M560 625 L244 625 L195 398 L490 398 L474 323 L179 323 L126 75 L451 75 L434 0 L16 0 L166 700 L576 700 L560 625 Z M355 852 L341 789 Q334 782 320.5 776 Q307 770 288 770 Q270 770 259 776 Q248 782 243 789 L257 852 Q264 859 277.5 865 Q291 871 309 871 Q339 871 355 852 Z M557 852 L543 789 Q536 782 522.5 776 Q509 770 490 770 Q461 770 445 789 L459 852 Q466 859 480 865 Q494 871 512 871 Q530 871 541 865 Q552 859 557 852 Z " />
<glyph glyph-name="Emacron" unicode="&#x112;" horiz-adv-x="539" d="M560 625 L244 625 L195 398 L490 398 L474 323 L179 323 L126 75 L451 75 L434 0 L16 0 L166 700 L576 700 L560 625 Z M234 773 L247 837 L560 837 L546 773 L234 773 Z " />
<glyph glyph-name="Ebreve" unicode="&#x114;" horiz-adv-x="539" d="M560 625 L244 625 L195 398 L490 398 L474 323 L179 323 L126 75 L451 75 L434 0 L16 0 L166 700 L576 700 L560 625 Z M543 819 Q526 787 489 765 Q452 743 395 743 Q337 743 301.5 765.5 Q266 788 256 819 L268 874 L335 874 L326 837 Q328 824 344.5 810.5 Q361 797 395 797 Q429 797 449.5 809.5 Q470 822 480 837 L489 874 L556 874 L543 819 Z " />
<glyph glyph-name="Edotaccent" unicode="&#x116;" horiz-adv-x="539" d="M560 625 L244 625 L195 398 L490 398 L474 323 L179 323 L126 75 L451 75 L434 0 L16 0 L166 700 L576 700 L560 625 Z M459 852 L448 800 Q440 790 425 783 Q410 776 390 776 Q371 776 359.5 783 Q348 790 345 800 L356 852 Q362 861 377.5 868.5 Q393 876 413 876 Q432 876 443.5 869 Q455 862 459 852 Z " />
<glyph glyph-name="Eogonek" unicode="&#x118;" horiz-adv-x="539" d="M244 625 L195 398 L490 398 L474 323 L179 323 L126 75 L451 75 L434 0 Q381 -33 350 -61.5 Q319 -90 309 -106 L302 -137 Q304 -145 317.5 -151 Q331 -157 348 -157 Q376 -157 403 -146 L391 -200 Q363 -215 323 -215 Q288 -215 261 -201.5 Q234 -188 229 -165 L244 -95 Q257 -75 286.5 -49 Q316 -23 355 0 L16 0 L166 700 L576 700 L560 625 L244 625 Z " />
<glyph glyph-name="Gcircumflex" unicode="&#x11c;" horiz-adv-x="630" d="M214 542 L132 158 Q139 118 176 90 Q213 62 273 62 Q333 62 378 88.5 Q423 115 449 157 L478 293 L334 293 L350 368 L583 368 L504 0 L424 0 L437 59 Q408 27 363.5 6.5 Q319 -14 258 -14 Q195 -14 147 9 Q99 32 70.5 67.5 Q42 103 34 139 L125 562 Q158 623 225.5 668.5 Q293 714 393 714 Q461 714 511 691 Q561 668 589.5 634.5 Q618 601 627 568 L615 516 L537 516 Q532 569 495 604 Q458 639 391 639 Q333 639 287 611 Q241 583 214 542 Z M560 753 L504 753 L441 860 L332 753 L267 753 L270 769 L389 906 L503 906 L564 769 L560 753 Z " />
<glyph glyph-name="Gbreve" unicode="&#x11e;" horiz-adv-x="630" d="M214 542 L132 158 Q139 118 176 90 Q213 62 273 62 Q333 62 378 88.5 Q423 115 449 157 L478 293 L334 293 L350 368 L583 368 L504 0 L424 0 L437 59 Q408 27 363.5 6.5 Q319 -14 258 -14 Q195 -14 147 9 Q99 32 70.5 67.5 Q42 103 34 139 L125 562 Q158 623 225.5 668.5 Q293 714 393 714 Q461 714 511 691 Q561 668 589.5 634.5 Q618 601 627 568 L615 516 L537 516 Q532 569 495 604 Q458 639 391 639 Q333 639 287 611 Q241 583 214 542 Z M570 819 Q553 787 516 765 Q479 743 422 743 Q364 743 328.5 765.5 Q293 788 283 819 L295 874 L362 874 L353 837 Q355 824 371.5 810.5 Q388 797 422 797 Q456 797 476.5 809.5 Q497 822 507 837 L516 874 L583 874 L570 819 Z " />
<glyph glyph-name="Gdotaccent" unicode="&#x120;" horiz-adv-x="630" d="M214 542 L132 158 Q139 118 176 90 Q213 62 273 62 Q333 62 378 88.5 Q423 115 449 157 L478 293 L334 293 L350 368 L583 368 L504 0 L424 0 L437 59 Q408 27 363.5 6.5 Q319 -14 258 -14 Q195 -14 147 9 Q99 32 70.5 67.5 Q42 103 34 139 L125 562 Q158 623 225.5 668.5 Q293 714 393 714 Q461 714 511 691 Q561 668 589.5 634.5 Q618 601 627 568 L615 516 L537 516 Q532 569 495 604 Q458 639 391 639 Q333 639 287 611 Q241 583 214 542 Z M486 852 L475 800 Q467 790 452 783 Q437 776 417 776 Q398 776 386.5 783 Q375 790 372 800 L383 852 Q389 861 404.5 868.5 Q420 876 440 876 Q459 876 470.5 869 Q482 862 486 852 Z " />
<glyph glyph-name="Gcommaaccent" unicode="&#x122;" horiz-adv-x="630" d="M214 542 L132 158 Q139 118 176 90 Q213 62 273 62 Q333 62 378 88.5 Q423 115 449 157 L478 293 L334 293 L350 368 L583 368 L504 0 L424 0 L437 59 Q408 27 363.5 6.5 Q319 -14 258 -14 Q195 -14 147 9 Q99 32 70.5 67.5 Q42 103 34 139 L125 562 Q158 623 225.5 668.5 Q293 714 393 714 Q461 714 511 691 Q561 668 589.5 634.5 Q618 601 627 568 L615 516 L537 516 Q532 569 495 604 Q458 639 391 639 Q333 639 287 611 Q241 583 214 542 Z M178 -175 L198 -175 Q218 -175 225 -164 L231 -137 Q214 -137 201 -133 Q188 -129 186 -123 L195 -76 Q212 -61 246 -61 Q277 -61 290 -76 L272 -169 Q252 -207 202 -207 L172 -207 L178 -175 Z " />
<glyph glyph-name="Hcircumflex" unicode="&#x124;" horiz-adv-x="646" d="M514 0 L420 0 L489 324 L179 324 L110 0 L16 0 L166 700 L260 700 L195 398 L505 398 L570 700 L664 700 L514 0 Z M574 753 L518 753 L455 860 L346 753 L281 753 L284 769 L403 906 L517 906 L578 769 L574 753 Z " />
<glyph glyph-name="Hbar" unicode="&#x126;" horiz-adv-x="646" d="M687 555 L642 555 L523 0 L429 0 L498 324 L188 324 L119 0 L25 0 L144 555 L95 555 L109 615 L157 615 L175 700 L269 700 L251 615 L561 615 L579 700 L673 700 L655 615 L701 615 L687 555 Z M548 555 L238 555 L204 398 L514 398 L548 555 Z " />
<glyph glyph-name="Igrave" unicode="&#xcc;" horiz-adv-x="242" d="M110 0 L16 0 L166 700 L260 700 L110 0 Z M244 753 L184 753 L127 864 L137 906 L211 906 L248 769 L244 753 Z " />
<glyph glyph-name="Iacute" unicode="&#xcd;" horiz-adv-x="242" d="M110 0 L16 0 L166 700 L260 700 L110 0 Z M252 753 L183 753 L187 769 L280 906 L366 906 L356 864 L252 753 Z " />
<glyph glyph-name="Icircumflex" unicode="&#xce;" horiz-adv-x="242" d="M110 0 L16 0 L166 700 L260 700 L110 0 Z M373 753 L317 753 L254 860 L145 753 L80 753 L83 769 L202 906 L316 906 L377 769 L373 753 Z " />
<glyph glyph-name="Itilde" unicode="&#x128;" horiz-adv-x="242" d="M110 0 L16 0 L166 700 L260 700 L110 0 Z M254 837 Q269 825 278.5 819.5 Q288 814 301 814 Q332 814 349 843 L353 862 L408 862 L398 819 Q384 791 357.5 773.5 Q331 756 296 756 Q272 756 257 764 Q242 772 222 787 Q208 799 198.5 804.5 Q189 810 176 810 Q150 810 128 781 L124 761 L69 761 L78 804 Q93 833 120 850.5 Q147 868 181 868 Q204 868 220 860 Q236 852 254 837 Z " />
<glyph glyph-name="Idieresis" unicode="&#xcf;" horiz-adv-x="242" d="M110 0 L16 0 L166 700 L260 700 L110 0 Z M194 852 L180 789 Q173 782 159.5 776 Q146 770 127 770 Q109 770 98 776 Q87 782 82 789 L96 852 Q103 859 116.5 865 Q130 871 148 871 Q178 871 194 852 Z M396 852 L382 789 Q375 782 361.5 776 Q348 770 329 770 Q300 770 284 789 L298 852 Q305 859 319 865 Q333 871 351 871 Q369 871 380 865 Q391 859 396 852 Z " />
<glyph glyph-name="Imacron" unicode="&#x12a;" horiz-adv-x="242" d="M110 0 L16 0 L166 700 L260 700 L110 0 Z M74 773 L87 837 L400 837 L386 773 L74 773 Z " />
<glyph glyph-name="Ibreve" unicode="&#x12c;" horiz-adv-x="242" d="M110 0 L16 0 L166 700 L260 700 L110 0 Z M383 819 Q366 787 329 765 Q292 743 235 743 Q177 743 141.5 765.5 Q106 788 96 819 L108 874 L175 874 L166 837 Q168 824 184.5 810.5 Q201 797 235 797 Q269 797 289.5 809.5 Q310 822 320 837 L329 874 L396 874 L383 819 Z " />
<glyph glyph-name="Iogonek" unicode="&#x12e;" horiz-adv-x="242" d="M-13 -106 L-21 -137 Q-18 -145 -4.5 -151 Q9 -157 26 -157 Q53 -157 80 -146 L69 -200 Q41 -215 1 -215 Q-34 -215 -61 -201.5 Q-88 -188 -94 -165 L-78 -95 Q-66 -76 -38 -49.5 Q-10 -23 28 0 L16 0 L166 700 L260 700 L110 0 Q56 -34 26 -62.5 Q-4 -91 -13 -106 Z " />
<glyph glyph-name="IJ" unicode="&#x132;" horiz-adv-x="629" d="M110 0 L16 0 L166 700 L260 700 L110 0 Z M531 139 Q492 72 425.5 35 Q359 -2 266 -2 Q228 -2 204 0 L220 73 L260 73 Q319 73 366.5 98 Q414 123 443 165 L557 700 L651 700 L531 139 Z " />
<glyph glyph-name="Jcircumflex" unicode="&#x134;" horiz-adv-x="387" d="M289 139 Q250 72 183.5 35 Q117 -2 24 -2 Q-14 -2 -38 0 L-22 73 L18 73 Q77 73 124.5 98 Q172 123 201 165 L315 700 L409 700 L289 139 Z M521 753 L465 753 L402 860 L293 753 L228 753 L231 769 L350 906 L464 906 L525 769 L521 753 Z " />
<glyph glyph-name="Kcommaaccent" unicode="&#x136;" horiz-adv-x="592" d="M611 642 L350 416 L515 58 L502 0 L440 0 L278 353 L165 256 L110 0 L16 0 L166 700 L260 700 L192 381 L553 700 L624 700 L611 642 Z M184 -175 L204 -175 Q224 -175 231 -164 L237 -137 Q220 -137 207 -133 Q194 -129 192 -123 L201 -76 Q218 -61 252 -61 Q283 -61 296 -76 L278 -169 Q258 -207 208 -207 L178 -207 L184 -175 Z " />
<glyph glyph-name="Lacute" unicode="&#x139;" horiz-adv-x="454" d="M126 75 L389 75 L373 0 L16 0 L166 700 L260 700 L126 75 Z M259 753 L190 753 L194 769 L287 906 L373 906 L363 864 L259 753 Z " />
<glyph glyph-name="Lcaron" unicode="&#x13d;" horiz-adv-x="454" d="M126 75 L389 75 L373 0 L16 0 L166 700 L260 700 L126 75 Z M444 653 L380 523 L323 523 L327 538 L381 700 L454 700 L444 653 Z " />
<glyph glyph-name="Lcommaaccent" unicode="&#x13b;" horiz-adv-x="454" d="M126 75 L389 75 L373 0 L16 0 L166 700 L260 700 L126 75 Z M89 -175 L109 -175 Q129 -175 136 -164 L142 -137 Q125 -137 112 -133 Q99 -129 97 -123 L106 -76 Q123 -61 157 -61 Q188 -61 201 -76 L183 -169 Q163 -207 113 -207 L83 -207 L89 -175 Z " />
<glyph glyph-name="Lslash" unicode="&#x141;" horiz-adv-x="487" d="M421 75 L405 0 L49 0 L96 220 L7 179 L23 255 L112 297 L199 700 L293 700 L217 346 L417 439 L401 363 L200 269 L159 75 L421 75 Z " />
<glyph glyph-name="Ldot" unicode="&#x13f;" horiz-adv-x="454" d="M126 75 L389 75 L373 0 L16 0 L166 700 L260 700 L126 75 Z M437 416 L425 360 Q418 350 404.5 342.5 Q391 335 372 335 Q353 335 339.5 342.5 Q326 350 323 360 L335 416 Q341 426 355 433 Q369 440 387 440 Q407 440 420.5 432.5 Q434 425 437 416 Z " />
<glyph glyph-name="Nacute" unicode="&#x143;" horiz-adv-x="660" d="M528 0 L415 0 L232 576 L229 576 L104 0 L16 0 L166 700 L280 700 L463 124 L466 124 L590 700 L678 700 L528 0 Z M462 753 L393 753 L397 769 L490 906 L576 906 L566 864 L462 753 Z " />
<glyph glyph-name="Ncaron" unicode="&#x147;" horiz-adv-x="660" d="M528 0 L415 0 L232 576 L229 576 L104 0 L16 0 L166 700 L280 700 L463 124 L466 124 L590 700 L678 700 L528 0 Z M494 753 L380 753 L318 890 L322 906 L378 906 L440 798 L550 906 L615 906 L611 890 L494 753 Z " />
<glyph glyph-name="Ntilde" unicode="&#xd1;" horiz-adv-x="660" d="M528 0 L415 0 L232 576 L229 576 L104 0 L16 0 L166 700 L280 700 L463 124 L466 124 L590 700 L678 700 L528 0 Z M464 837 Q479 825 488.5 819.5 Q498 814 511 814 Q542 814 559 843 L563 862 L618 862 L608 819 Q594 791 567.5 773.5 Q541 756 506 756 Q482 756 467 764 Q452 772 432 787 Q418 799 408.5 804.5 Q399 810 386 810 Q360 810 338 781 L334 761 L279 761 L288 804 Q303 833 330 850.5 Q357 868 391 868 Q414 868 430 860 Q446 852 464 837 Z " />
<glyph glyph-name="Ncommaaccent" unicode="&#x145;" horiz-adv-x="660" d="M528 0 L415 0 L232 576 L229 576 L104 0 L16 0 L166 700 L280 700 L463 124 L466 124 L590 700 L678 700 L528 0 Z M191 -175 L211 -175 Q231 -175 238 -164 L244 -137 Q227 -137 214 -133 Q201 -129 199 -123 L208 -76 Q225 -61 259 -61 Q290 -61 303 -76 L285 -169 Q265 -207 215 -207 L185 -207 L191 -175 Z " />
<glyph glyph-name="Ograve" unicode="&#xd2;" horiz-adv-x="626" d="M627 562 L536 139 Q498 74 432.5 30 Q367 -14 267 -14 Q198 -14 148 9 Q98 32 70 67 Q42 102 34 139 L125 562 Q162 626 228 670 Q294 714 393 714 Q462 714 512 691 Q562 668 590.5 633 Q619 598 627 562 Z M214 542 L132 158 Q138 118 176 90 Q214 62 273 62 Q331 62 375.5 89.5 Q420 117 447 159 L529 543 Q523 583 485.5 611 Q448 639 388 639 Q330 639 285.5 611.5 Q241 584 214 542 Z M436 753 L376 753 L319 864 L329 906 L403 906 L440 769 L436 753 Z " />
<glyph glyph-name="Oacute" unicode="&#xd3;" horiz-adv-x="626" d="M627 562 L536 139 Q498 74 432.5 30 Q367 -14 267 -14 Q198 -14 148 9 Q98 32 70 67 Q42 102 34 139 L125 562 Q162 626 228 670 Q294 714 393 714 Q462 714 512 691 Q562 668 590.5 633 Q619 598 627 562 Z M214 542 L132 158 Q138 118 176 90 Q214 62 273 62 Q331 62 375.5 89.5 Q420 117 447 159 L529 543 Q523 583 485.5 611 Q448 639 388 639 Q330 639 285.5 611.5 Q241 584 214 542 Z M443 753 L374 753 L378 769 L471 906 L557 906 L547 864 L443 753 Z " />
<glyph glyph-name="Ocircumflex" unicode="&#xd4;" horiz-adv-x="626" d="M627 562 L536 139 Q498 74 432.5 30 Q367 -14 267 -14 Q198 -14 148 9 Q98 32 70 67 Q42 102 34 139 L125 562 Q162 626 228 670 Q294 714 393 714 Q462 714 512 691 Q562 668 590.5 633 Q619 598 627 562 Z M214 542 L132 158 Q138 118 176 90 Q214 62 273 62 Q331 62 375.5 89.5 Q420 117 447 159 L529 543 Q523 583 485.5 611 Q448 639 388 639 Q330 639 285.5 611.5 Q241 584 214 542 Z M564 753 L508 753 L445 860 L336 753 L271 753 L274 769 L393 906 L507 906 L568 769 L564 753 Z " />
<glyph glyph-name="Otilde" unicode="&#xd5;" horiz-adv-x="626" d="M627 562 L536 139 Q498 74 432.5 30 Q367 -14 267 -14 Q198 -14 148 9 Q98 32 70 67 Q42 102 34 139 L125 562 Q162 626 228 670 Q294 714 393 714 Q462 714 512 691 Q562 668 590.5 633 Q619 598 627 562 Z M214 542 L132 158 Q138 118 176 90 Q214 62 273 62 Q331 62 375.5 89.5 Q420 117 447 159 L529 543 Q523 583 485.5 611 Q448 639 388 639 Q330 639 285.5 611.5 Q241 584 214 542 Z M445 837 Q460 825 469.5 819.5 Q479 814 492 814 Q523 814 540 843 L544 862 L599 862 L589 819 Q575 791 548.5 773.5 Q522 756 487 756 Q463 756 448 764 Q433 772 413 787 Q399 799 389.5 804.5 Q380 810 367 810 Q341 810 319 781 L315 761 L260 761 L269 804 Q284 833 311 850.5 Q338 868 372 868 Q395 868 411 860 Q427 852 445 837 Z " />
<glyph glyph-name="Odieresis" unicode="&#xd6;" horiz-adv-x="626" d="M627 562 L536 139 Q498 74 432.5 30 Q367 -14 267 -14 Q198 -14 148 9 Q98 32 70 67 Q42 102 34 139 L125 562 Q162 626 228 670 Q294 714 393 714 Q462 714 512 691 Q562 668 590.5 633 Q619 598 627 562 Z M214 542 L132 158 Q138 118 176 90 Q214 62 273 62 Q331 62 375.5 89.5 Q420 117 447 159 L529 543 Q523 583 485.5 611 Q448 639 388 639 Q330 639 285.5 611.5 Q241 584 214 542 Z M386 852 L372 789 Q365 782 351.5 776 Q338 770 319 770 Q301 770 290 776 Q279 782 274 789 L288 852 Q295 859 308.5 865 Q322 871 340 871 Q370 871 386 852 Z M588 852 L574 789 Q567 782 553.5 776 Q540 770 521 770 Q492 770 476 789 L490 852 Q497 859 511 865 Q525 871 543 871 Q561 871 572 865 Q583 859 588 852 Z " />
<glyph glyph-name="Omacron" unicode="&#x14c;" horiz-adv-x="626" d="M627 562 L536 139 Q498 74 432.5 30 Q367 -14 267 -14 Q198 -14 148 9 Q98 32 70 67 Q42 102 34 139 L125 562 Q162 626 228 670 Q294 714 393 714 Q462 714 512 691 Q562 668 590.5 633 Q619 598 627 562 Z M214 542 L132 158 Q138 118 176 90 Q214 62 273 62 Q331 62 375.5 89.5 Q420 117 447 159 L529 543 Q523 583 485.5 611 Q448 639 388 639 Q330 639 285.5 611.5 Q241 584 214 542 Z M265 773 L278 837 L591 837 L577 773 L265 773 Z " />
<glyph glyph-name="Obreve" unicode="&#x14e;" horiz-adv-x="626" d="M627 562 L536 139 Q498 74 432.5 30 Q367 -14 267 -14 Q198 -14 148 9 Q98 32 70 67 Q42 102 34 139 L125 562 Q162 626 228 670 Q294 714 393 714 Q462 714 512 691 Q562 668 590.5 633 Q619 598 627 562 Z M214 542 L132 158 Q138 118 176 90 Q214 62 273 62 Q331 62 375.5 89.5 Q420 117 447 159 L529 543 Q523 583 485.5 611 Q448 639 388 639 Q330 639 285.5 611.5 Q241 584 214 542 Z M574 819 Q557 787 520 765 Q483 743 426 743 Q368 743 332.5 765.5 Q297 788 287 819 L299 874 L366 874 L357 837 Q359 824 375.5 810.5 Q392 797 426 797 Q460 797 480.5 809.5 Q501 822 511 837 L520 874 L587 874 L574 819 Z " />
<glyph glyph-name="Ohungarumlaut" unicode="&#x150;" horiz-adv-x="626" d="M627 562 L536 139 Q498 74 432.5 30 Q367 -14 267 -14 Q198 -14 148 9 Q98 32 70 67 Q42 102 34 139 L125 562 Q162 626 228 670 Q294 714 393 714 Q462 714 512 691 Q562 668 590.5 633 Q619 598 627 562 Z M214 542 L132 158 Q138 118 176 90 Q214 62 273 62 Q331 62 375.5 89.5 Q420 117 447 159 L529 543 Q523 583 485.5 611 Q448 639 388 639 Q330 639 285.5 611.5 Q241 584 214 542 Z M358 753 L300 753 L303 769 L381 905 L450 905 L442 869 L358 753 Z M535 753 L479 753 L482 769 L558 905 L628 905 L620 869 L535 753 Z " />
<glyph glyph-name="Oslash" unicode="&#xd8;" horiz-adv-x="626" d="M648 659 L606 612 Q622 587 627 562 L536 139 Q498 74 432.5 30 Q367 -14 267 -14 Q162 -14 95 42 L57 0 L4 0 L13 41 L55 88 Q39 113 34 139 L125 562 Q162 626 228 670 Q294 714 393 714 Q498 714 565 658 L603 700 L656 700 L648 659 Z M137 180 L506 592 Q466 639 388 639 Q330 639 285.5 611.5 Q241 584 214 542 L137 180 Z M524 521 L155 109 Q173 88 203.5 75 Q234 62 273 62 Q331 62 375.5 89.5 Q420 117 447 159 L524 521 Z " />
<glyph glyph-name="OE" unicode="&#x152;" horiz-adv-x="936" d="M641 625 L592 398 L887 398 L871 323 L576 323 L523 75 L848 75 L832 0 L413 0 L422 39 Q340 -14 262 -14 Q195 -14 146.5 9 Q98 32 70 67 Q42 102 34 139 L125 562 Q162 626 228 670 Q294 714 393 714 Q496 714 554 658 L563 700 L973 700 L957 625 L641 625 Z M443 137 L534 564 Q518 596 478.5 617.5 Q439 639 388 639 Q330 639 285.5 611.5 Q241 584 214 542 L132 158 Q138 118 176 90 Q214 62 273 62 Q323 62 368 83.5 Q413 105 443 137 Z " />
<glyph glyph-name="Racute" unicode="&#x154;" horiz-adv-x="592" d="M601 582 L565 417 Q532 366 487 337 Q442 308 390 300 L500 58 L487 0 L423 0 L292 298 L174 298 L110 0 L16 0 L166 700 L403 700 Q480 700 529.5 669 Q579 638 601 582 Z M504 552 Q494 588 462.5 606.5 Q431 625 389 625 L244 625 L189 371 L325 371 Q377 371 417.5 390 Q458 409 482 445 L504 552 Z M426 753 L357 753 L361 769 L454 906 L540 906 L530 864 L426 753 Z " />
<glyph glyph-name="Rcaron" unicode="&#x158;" horiz-adv-x="592" d="M601 582 L565 417 Q532 366 487 337 Q442 308 390 300 L500 58 L487 0 L423 0 L292 298 L174 298 L110 0 L16 0 L166 700 L403 700 Q480 700 529.5 669 Q579 638 601 582 Z M504 552 Q494 588 462.5 606.5 Q431 625 389 625 L244 625 L189 371 L325 371 Q377 371 417.5 390 Q458 409 482 445 L504 552 Z M457 753 L343 753 L281 890 L285 906 L341 906 L403 798 L513 906 L578 906 L574 890 L457 753 Z " />
<glyph glyph-name="Rcommaaccent" unicode="&#x156;" horiz-adv-x="592" d="M601 582 L565 417 Q532 366 487 337 Q442 308 390 300 L500 58 L487 0 L423 0 L292 298 L174 298 L110 0 L16 0 L166 700 L403 700 Q480 700 529.5 669 Q579 638 601 582 Z M504 552 Q494 588 462.5 606.5 Q431 625 389 625 L244 625 L189 371 L325 371 Q377 371 417.5 390 Q458 409 482 445 L504 552 Z M156 -175 L176 -175 Q196 -175 203 -164 L209 -137 Q192 -137 179 -133 Q166 -129 164 -123 L173 -76 Q190 -61 224 -61 Q255 -61 268 -76 L250 -169 Q230 -207 180 -207 L150 -207 L156 -175 Z " />
<glyph glyph-name="Sacute" unicode="&#x15a;" horiz-adv-x="585" d="M591 598 L579 546 L502 546 Q493 587 458 613 Q423 639 364 639 Q318 639 279 618.5 Q240 598 217 569 L196 469 Q203 450 222 438 Q241 426 294 409 L372 384 Q449 360 481.5 333 Q514 306 529 265 L497 119 Q411 -14 245 -14 Q176 -14 126 7.5 Q76 29 48 59.5 Q20 90 11 118 L22 170 L99 170 Q109 123 148.5 92.5 Q188 62 251 62 Q308 62 349 87 Q390 112 414 148 L433 238 Q427 261 403.5 277.5 Q380 294 326 311 L242 338 Q176 359 146.5 380.5 Q117 402 99 442 L133 598 Q168 646 230 680 Q292 714 379 714 Q438 714 482.5 696 Q527 678 554 651.5 Q581 625 591 598 Z M429 753 L360 753 L364 769 L457 906 L543 906 L533 864 L429 753 Z " />
<glyph glyph-name="Scircumflex" unicode="&#x15c;" horiz-adv-x="585" d="M591 598 L579 546 L502 546 Q493 587 458 613 Q423 639 364 639 Q318 639 279 618.5 Q240 598 217 569 L196 469 Q203 450 222 438 Q241 426 294 409 L372 384 Q449 360 481.5 333 Q514 306 529 265 L497 119 Q411 -14 245 -14 Q176 -14 126 7.5 Q76 29 48 59.5 Q20 90 11 118 L22 170 L99 170 Q109 123 148.5 92.5 Q188 62 251 62 Q308 62 349 87 Q390 112 414 148 L433 238 Q427 261 403.5 277.5 Q380 294 326 311 L242 338 Q176 359 146.5 380.5 Q117 402 99 442 L133 598 Q168 646 230 680 Q292 714 379 714 Q438 714 482.5 696 Q527 678 554 651.5 Q581 625 591 598 Z M549 753 L493 753 L430 860 L321 753 L256 753 L259 769 L378 906 L492 906 L553 769 L549 753 Z " />
<glyph glyph-name="Scaron" unicode="&#x160;" horiz-adv-x="585" d="M591 598 L579 546 L502 546 Q493 587 458 613 Q423 639 364 639 Q318 639 279 618.5 Q240 598 217 569 L196 469 Q203 450 222 438 Q241 426 294 409 L372 384 Q449 360 481.5 333 Q514 306 529 265 L497 119 Q411 -14 245 -14 Q176 -14 126 7.5 Q76 29 48 59.5 Q20 90 11 118 L22 170 L99 170 Q109 123 148.5 92.5 Q188 62 251 62 Q308 62 349 87 Q390 112 414 148 L433 238 Q427 261 403.5 277.5 Q380 294 326 311 L242 338 Q176 359 146.5 380.5 Q117 402 99 442 L133 598 Q168 646 230 680 Q292 714 379 714 Q438 714 482.5 696 Q527 678 554 651.5 Q581 625 591 598 Z M460 753 L346 753 L284 890 L288 906 L344 906 L406 798 L516 906 L581 906 L577 890 L460 753 Z " />
<glyph glyph-name="Scedilla" unicode="&#x15e;" horiz-adv-x="585" d="M217 569 L196 469 Q203 450 222 438 Q241 426 294 409 L372 384 Q449 360 481.5 333 Q514 306 529 265 L497 119 Q415 -8 258 -13 L235 -52 L246 -52 Q275 -52 295.5 -66.5 Q316 -81 321 -99 L305 -169 Q270 -221 196 -221 Q168 -221 142 -214.5 Q116 -208 101 -198 L127 -153 Q160 -172 199 -172 Q218 -172 231.5 -165 Q245 -158 252 -148 L258 -116 Q255 -107 244.5 -101 Q234 -95 215 -95 L156 -95 L203 -11 Q147 -4 106 17.5 Q65 39 41.5 66 Q18 93 11 118 L22 170 L99 170 Q109 123 148.5 92.5 Q188 62 251 62 Q308 62 349 87 Q390 112 414 148 L433 238 Q427 261 403.5 277.5 Q380 294 326 311 L242 338 Q176 359 146.5 380.5 Q117 402 99 442 L133 598 Q168 646 230 680 Q292 714 379 714 Q438 714 482.5 696 Q527 678 554 651.5 Q581 625 591 598 L579 546 L502 546 Q493 587 458 613 Q423 639 364 639 Q318 639 279 618.5 Q240 598 217 569 Z " />
<glyph glyph-name="Scommaaccent" unicode="&#x218;" horiz-adv-x="585" d="M591 598 L579 546 L502 546 Q493 587 458 613 Q423 639 364 639 Q318 639 279 618.5 Q240 598 217 569 L196 469 Q203 450 222 438 Q241 426 294 409 L372 384 Q449 360 481.5 333 Q514 306 529 265 L497 119 Q411 -14 245 -14 Q176 -14 126 7.5 Q76 29 48 59.5 Q20 90 11 118 L22 170 L99 170 Q109 123 148.5 92.5 Q188 62 251 62 Q308 62 349 87 Q390 112 414 148 L433 238 Q427 261 403.5 277.5 Q380 294 326 311 L242 338 Q176 359 146.5 380.5 Q117 402 99 442 L133 598 Q168 646 230 680 Q292 714 379 714 Q438 714 482.5 696 Q527 678 554 651.5 Q581 625 591 598 Z M160 -175 L180 -175 Q200 -175 207 -164 L213 -137 Q196 -137 183 -133 Q170 -129 168 -123 L177 -76 Q194 -61 228 -61 Q259 -61 272 -76 L254 -169 Q234 -207 184 -207 L154 -207 L160 -175 Z " />
<glyph glyph-name="Tcaron" unicode="&#x164;" horiz-adv-x="529" d="M580 625 L388 625 L254 0 L160 0 L294 625 L101 625 L117 700 L596 700 L580 625 Z M427 753 L313 753 L251 890 L255 906 L311 906 L373 798 L483 906 L548 906 L544 890 L427 753 Z " />
<glyph glyph-name="uni021A" unicode="&#x21a;" horiz-adv-x="529" d="M580 625 L388 625 L254 0 L160 0 L294 625 L101 625 L117 700 L596 700 L580 625 Z M126 -175 L146 -175 Q166 -175 173 -164 L179 -137 Q162 -137 149 -133 Q136 -129 134 -123 L143 -76 Q160 -61 194 -61 Q225 -61 238 -76 L220 -169 Q200 -207 150 -207 L120 -207 L126 -175 Z " />
<glyph glyph-name="Tbar" unicode="&#x166;" horiz-adv-x="529" d="M397 625 L350 407 L490 407 L478 346 L337 346 L263 0 L169 0 L243 346 L106 346 L119 407 L256 407 L303 625 L110 625 L126 700 L605 700 L589 625 L397 625 Z " />
<glyph glyph-name="Ugrave" unicode="&#xd9;" horiz-adv-x="643" d="M545 139 Q511 79 441 32.5 Q371 -14 270 -14 Q170 -14 113.5 32 Q57 78 42 139 L162 700 L256 700 L141 160 Q148 119 182.5 91.5 Q217 64 276 64 Q335 64 381.5 92 Q428 120 455 161 L571 700 L665 700 L545 139 Z M444 753 L384 753 L327 864 L337 906 L411 906 L448 769 L444 753 Z " />
<glyph glyph-name="Uacute" unicode="&#xda;" horiz-adv-x="643" d="M545 139 Q511 79 441 32.5 Q371 -14 270 -14 Q170 -14 113.5 32 Q57 78 42 139 L162 700 L256 700 L141 160 Q148 119 182.5 91.5 Q217 64 276 64 Q335 64 381.5 92 Q428 120 455 161 L571 700 L665 700 L545 139 Z M452 753 L383 753 L387 769 L480 906 L566 906 L556 864 L452 753 Z " />
<glyph glyph-name="Ucircumflex" unicode="&#xdb;" horiz-adv-x="643" d="M545 139 Q511 79 441 32.5 Q371 -14 270 -14 Q170 -14 113.5 32 Q57 78 42 139 L162 700 L256 700 L141 160 Q148 119 182.5 91.5 Q217 64 276 64 Q335 64 381.5 92 Q428 120 455 161 L571 700 L665 700 L545 139 Z M572 753 L516 753 L453 860 L344 753 L279 753 L282 769 L401 906 L515 906 L576 769 L572 753 Z " />
<glyph glyph-name="Utilde" unicode="&#x168;" horiz-adv-x="643" d="M545 139 Q511 79 441 32.5 Q371 -14 270 -14 Q170 -14 113.5 32 Q57 78 42 139 L162 700 L256 700 L141 160 Q148 119 182.5 91.5 Q217 64 276 64 Q335 64 381.5 92 Q428 120 455 161 L571 700 L665 700 L545 139 Z M453 837 Q468 825 477.5 819.5 Q487 814 500 814 Q531 814 548 843 L552 862 L607 862 L597 819 Q583 791 556.5 773.5 Q530 756 495 756 Q471 756 456 764 Q441 772 421 787 Q407 799 397.5 804.5 Q388 810 375 810 Q349 810 327 781 L323 761 L268 761 L277 804 Q292 833 319 850.5 Q346 868 380 868 Q403 868 419 860 Q435 852 453 837 Z " />
<glyph glyph-name="Udieresis" unicode="&#xdc;" horiz-adv-x="643" d="M545 139 Q511 79 441 32.5 Q371 -14 270 -14 Q170 -14 113.5 32 Q57 78 42 139 L162 700 L256 700 L141 160 Q148 119 182.5 91.5 Q217 64 276 64 Q335 64 381.5 92 Q428 120 455 161 L571 700 L665 700 L545 139 Z M394 852 L380 789 Q373 782 359.5 776 Q346 770 327 770 Q309 770 298 776 Q287 782 282 789 L296 852 Q303 859 316.5 865 Q330 871 348 871 Q378 871 394 852 Z M596 852 L582 789 Q575 782 561.5 776 Q548 770 529 770 Q500 770 484 789 L498 852 Q505 859 519 865 Q533 871 551 871 Q569 871 580 865 Q591 859 596 852 Z " />
<glyph glyph-name="Umacron" unicode="&#x16a;" horiz-adv-x="643" d="M545 139 Q511 79 441 32.5 Q371 -14 270 -14 Q170 -14 113.5 32 Q57 78 42 139 L162 700 L256 700 L141 160 Q148 119 182.5 91.5 Q217 64 276 64 Q335 64 381.5 92 Q428 120 455 161 L571 700 L665 700 L545 139 Z M274 773 L287 837 L600 837 L586 773 L274 773 Z " />
<glyph glyph-name="Ubreve" unicode="&#x16c;" horiz-adv-x="643" d="M545 139 Q511 79 441 32.5 Q371 -14 270 -14 Q170 -14 113.5 32 Q57 78 42 139 L162 700 L256 700 L141 160 Q148 119 182.5 91.5 Q217 64 276 64 Q335 64 381.5 92 Q428 120 455 161 L571 700 L665 700 L545 139 Z M582 819 Q565 787 528 765 Q491 743 434 743 Q376 743 340.5 765.5 Q305 788 295 819 L307 874 L374 874 L365 837 Q367 824 383.5 810.5 Q400 797 434 797 Q468 797 488.5 809.5 Q509 822 519 837 L528 874 L595 874 L582 819 Z " />
<glyph glyph-name="Uring" unicode="&#x16e;" horiz-adv-x="643" d="M545 139 Q511 79 441 32.5 Q371 -14 270 -14 Q170 -14 113.5 32 Q57 78 42 139 L162 700 L256 700 L141 160 Q148 119 182.5 91.5 Q217 64 276 64 Q335 64 381.5 92 Q428 120 455 161 L571 700 L665 700 L545 139 Z M547 825 L529 737 Q514 713 484.5 698 Q455 683 418 683 Q380 683 353 698.5 Q326 714 317 737 L334 825 Q349 848 379 863.5 Q409 879 446 879 Q483 879 510 863.5 Q537 848 547 825 Z M380 809 L368 752 Q372 742 385 734.5 Q398 727 420 727 Q460 727 483 752 L496 809 Q492 820 479 827.5 Q466 835 443 835 Q402 835 380 809 Z " />
<glyph glyph-name="Uhungarumlaut" unicode="&#x170;" horiz-adv-x="643" d="M545 139 Q511 79 441 32.5 Q371 -14 270 -14 Q170 -14 113.5 32 Q57 78 42 139 L162 700 L256 700 L141 160 Q148 119 182.5 91.5 Q217 64 276 64 Q335 64 381.5 92 Q428 120 455 161 L571 700 L665 700 L545 139 Z M366 753 L308 753 L311 769 L389 905 L458 905 L450 869 L366 753 Z M543 753 L487 753 L490 769 L566 905 L636 905 L628 869 L543 753 Z " />
<glyph glyph-name="Uogonek" unicode="&#x172;" horiz-adv-x="643" d="M665 700 L545 139 Q531 113 507.5 87.5 Q484 62 446 33 Q379 -18 340 -54 Q301 -90 293 -106 L286 -137 Q288 -145 301.5 -151 Q315 -157 332 -157 Q360 -157 387 -146 L375 -200 Q347 -215 307 -215 Q272 -215 245 -201.5 Q218 -188 213 -165 L228 -95 Q260 -49 319 -10 Q287 -14 270 -14 Q170 -14 113.5 32 Q57 78 42 139 L162 700 L256 700 L141 160 Q148 119 182.5 91.5 Q217 64 276 64 Q335 64 381.5 92 Q428 120 455 161 L571 700 L665 700 Z " />
<glyph glyph-name="Wgrave" unicode="&#x1e80;" horiz-adv-x="897" d="M941 642 L670 0 L536 0 L510 563 L507 563 L240 0 L111 0 L115 642 L128 700 L207 700 L196 87 L199 87 L488 700 L585 700 L611 87 L614 87 L867 700 L953 700 L941 642 Z M571 753 L511 753 L454 864 L464 906 L538 906 L575 769 L571 753 Z " />
<glyph glyph-name="Wacute" unicode="&#x1e82;" horiz-adv-x="897" d="M941 642 L670 0 L536 0 L510 563 L507 563 L240 0 L111 0 L115 642 L128 700 L207 700 L196 87 L199 87 L488 700 L585 700 L611 87 L614 87 L867 700 L953 700 L941 642 Z M579 753 L510 753 L514 769 L607 906 L693 906 L683 864 L579 753 Z " />
<glyph glyph-name="Wcircumflex" unicode="&#x174;" horiz-adv-x="897" d="M941 642 L670 0 L536 0 L510 563 L507 563 L240 0 L111 0 L115 642 L128 700 L207 700 L196 87 L199 87 L488 700 L585 700 L611 87 L614 87 L867 700 L953 700 L941 642 Z M700 753 L644 753 L581 860 L472 753 L407 753 L410 769 L529 906 L643 906 L704 769 L700 753 Z " />
<glyph glyph-name="Wdieresis" unicode="&#x1e84;" horiz-adv-x="897" d="M941 642 L670 0 L536 0 L510 563 L507 563 L240 0 L111 0 L115 642 L128 700 L207 700 L196 87 L199 87 L488 700 L585 700 L611 87 L614 87 L867 700 L953 700 L941 642 Z M522 852 L508 789 Q501 782 487.5 776 Q474 770 455 770 Q437 770 426 776 Q415 782 410 789 L424 852 Q431 859 444.5 865 Q458 871 476 871 Q506 871 522 852 Z M724 852 L710 789 Q703 782 689.5 776 Q676 770 657 770 Q628 770 612 789 L626 852 Q633 859 647 865 Q661 871 679 871 Q697 871 708 865 Q719 859 724 852 Z " />
<glyph glyph-name="Ygrave" unicode="&#x1ef2;" horiz-adv-x="557" d="M602 642 L330 299 L266 0 L172 0 L238 308 L114 642 L127 700 L189 700 L299 390 L301 390 L539 700 L615 700 L602 642 Z M401 753 L341 753 L284 864 L294 906 L368 906 L405 769 L401 753 Z " />
<glyph glyph-name="Yacute" unicode="&#xdd;" horiz-adv-x="557" d="M602 642 L330 299 L266 0 L172 0 L238 308 L114 642 L127 700 L189 700 L299 390 L301 390 L539 700 L615 700 L602 642 Z M409 753 L340 753 L344 769 L437 906 L523 906 L513 864 L409 753 Z " />
<glyph glyph-name="Ycircumflex" unicode="&#x176;" horiz-adv-x="557" d="M602 642 L330 299 L266 0 L172 0 L238 308 L114 642 L127 700 L189 700 L299 390 L301 390 L539 700 L615 700 L602 642 Z M530 753 L474 753 L411 860 L302 753 L237 753 L240 769 L359 906 L473 906 L534 769 L530 753 Z " />
<glyph glyph-name="Ydieresis" unicode="&#x178;" horiz-adv-x="557" d="M602 642 L330 299 L266 0 L172 0 L238 308 L114 642 L127 700 L189 700 L299 390 L301 390 L539 700 L615 700 L602 642 Z M352 852 L338 789 Q331 782 317.5 776 Q304 770 285 770 Q267 770 256 776 Q245 782 240 789 L254 852 Q261 859 274.5 865 Q288 871 306 871 Q336 871 352 852 Z M554 852 L540 789 Q533 782 519.5 776 Q506 770 487 770 Q458 770 442 789 L456 852 Q463 859 477 865 Q491 871 509 871 Q527 871 538 865 Q549 859 554 852 Z " />
<glyph glyph-name="Zacute" unicode="&#x179;" horiz-adv-x="563" d="M596 637 L121 75 L475 75 L459 0 L-13 0 L1 63 L476 625 L129 625 L145 700 L609 700 L596 637 Z M412 753 L343 753 L347 769 L440 906 L526 906 L516 864 L412 753 Z " />
<glyph glyph-name="Zcaron" unicode="&#x17d;" horiz-adv-x="563" d="M596 637 L121 75 L475 75 L459 0 L-13 0 L1 63 L476 625 L129 625 L145 700 L609 700 L596 637 Z M444 753 L330 753 L268 890 L272 906 L328 906 L390 798 L500 906 L565 906 L561 890 L444 753 Z " />
<glyph glyph-name="Zdotaccent" unicode="&#x17b;" horiz-adv-x="563" d="M596 637 L121 75 L475 75 L459 0 L-13 0 L1 63 L476 625 L129 625 L145 700 L609 700 L596 637 Z M459 852 L448 800 Q440 790 425 783 Q410 776 390 776 Q371 776 359.5 783 Q348 790 345 800 L356 852 Q362 861 377.5 868.5 Q393 876 413 876 Q432 876 443.5 869 Q455 862 459 852 Z " />
<glyph glyph-name="Eng" unicode="&#x14a;" horiz-adv-x="660" d="M523 -27 Q486 -95 416.5 -133.5 Q347 -172 249 -172 Q214 -172 198 -170 L214 -99 Q228 -101 254 -101 Q304 -101 347.5 -79 Q391 -57 421 -21 L232 576 L229 576 L104 0 L16 0 L166 700 L280 700 L463 124 L466 124 L590 700 L678 700 L523 -27 Z " />
<glyph glyph-name="Eth" unicode="&#xd0;" horiz-adv-x="649" d="M650 562 L559 138 Q526 76 457.5 38 Q389 0 294 0 L40 0 L108 320 L51 320 L68 393 L124 393 L190 700 L428 700 Q524 700 580.5 659.5 Q637 619 650 562 Z M551 541 Q541 580 505.5 602.5 Q470 625 407 625 L268 625 L218 393 L386 393 L369 320 L202 320 L150 75 L289 75 Q351 75 398 101 Q445 127 470 167 L551 541 Z " />
<glyph glyph-name="Thorn" unicode="&#xde;" horiz-adv-x="571" d="M569 464 L528 276 Q451 158 303 158 L144 158 L110 0 L16 0 L166 700 L260 700 L235 582 L367 582 Q523 582 569 464 Z M471 436 Q459 472 427.5 489.5 Q396 507 355 507 L219 507 L160 232 L293 232 Q392 232 445 309 L471 436 Z " />
<glyph glyph-name="a" unicode="a" horiz-adv-x="542" d="M514 420 L423 0 L339 0 L350 48 Q282 -14 188 -14 Q111 -14 69 12.5 Q27 39 7 70 L43 236 Q65 267 113.5 294 Q162 321 234 321 L405 321 L423 402 Q417 436 387 458.5 Q357 481 307 481 Q257 481 222 460 Q187 439 168 408 L90 408 L101 454 Q126 489 177.5 520.5 Q229 552 313 552 Q373 552 416 531.5 Q459 511 483 480.5 Q507 450 514 420 Z M210 55 Q258 55 298 74.5 Q338 94 363 123 L391 255 L255 255 Q207 255 176 240.5 Q145 226 122 205 L100 103 Q110 85 137.5 70 Q165 55 210 55 Z " />
<glyph glyph-name="b" unicode="b" horiz-adv-x="547" d="M530 440 L457 99 Q428 55 378.5 21.5 Q329 -12 254 -12 Q201 -12 163.5 5.5 Q126 23 103 52 L92 0 L7 0 L157 700 L244 700 L201 497 Q266 550 354 550 Q408 550 445.5 531.5 Q483 513 503 488 Q523 463 530 440 Z M437 419 Q429 442 402 461 Q375 480 328 480 Q282 480 245 463 Q208 446 184 420 L119 117 Q136 92 168 75 Q200 58 243 58 Q326 58 373 119 L437 419 Z " />
<glyph glyph-name="c" unicode="c" horiz-adv-x="527" d="M523 429 L514 383 L446 383 Q439 427 405 454 Q371 481 317 481 Q268 481 229.5 458 Q191 435 169 401 L112 134 Q119 101 150.5 79 Q182 57 231 57 Q334 57 391 155 L464 155 L455 109 Q427 60 371 23 Q315 -14 229 -14 Q168 -14 123.5 6 Q79 26 53.5 56.5 Q28 87 21 118 L87 420 Q117 474 176.5 513 Q236 552 324 552 Q383 552 425.5 532 Q468 512 492.5 484 Q517 456 523 429 Z " />
<glyph glyph-name="d" unicode="d" horiz-adv-x="547" d="M574 700 L424 0 L340 0 L350 46 Q285 -12 196 -12 Q142 -12 103.5 6 Q65 24 44.5 49.5 Q24 75 18 99 L91 440 Q120 483 169.5 516.5 Q219 550 296 550 Q393 550 443 493 L487 700 L574 700 Z M429 428 Q413 451 381.5 465.5 Q350 480 307 480 Q260 480 226.5 461 Q193 442 174 418 L110 119 Q119 96 146.5 77 Q174 58 221 58 Q266 58 302 75.5 Q338 93 363 120 L429 428 Z " />
<glyph glyph-name="e" unicode="e" horiz-adv-x="539" d="M523 429 L486 255 L138 255 L113 135 Q119 101 150 79 Q181 57 231 57 Q334 57 386 155 L464 155 L455 109 Q427 60 369.5 23 Q312 -14 225 -14 Q165 -14 121 6.5 Q77 27 52.5 57 Q28 87 21 118 L87 420 Q117 473 177 512.5 Q237 552 324 552 Q383 552 426 532 Q469 512 493 483.5 Q517 455 523 429 Z M169 400 L153 321 L418 321 L435 404 Q429 437 398 459 Q367 481 317 481 Q268 481 229 458 Q190 435 169 400 Z " />
<glyph glyph-name="f" unicode="f" horiz-adv-x="339" d="M430 712 L416 648 Q388 652 368 652 Q319 652 290.5 636 Q262 620 249 601 L236 538 L372 538 L357 471 L221 471 L120 0 L33 0 L134 471 L65 471 L80 538 L149 538 L168 629 Q187 664 231.5 692 Q276 720 345 720 Q401 720 430 712 Z " />
<glyph glyph-name="g" unicode="g" horiz-adv-x="547" d="M540 538 L412 -55 Q383 -107 324 -143 Q265 -179 177 -179 Q91 -179 41.5 -145.5 Q-8 -112 -26 -73 L-16 -27 L51 -27 Q64 -64 99 -86.5 Q134 -109 186 -109 Q284 -109 330 -36 L354 76 Q290 21 202 21 Q148 21 110 39 Q72 57 51 83 Q30 109 24 132 L91 440 Q120 483 169.5 516.5 Q219 550 296 550 Q396 550 445 490 L456 538 L540 538 Z M371 156 L430 428 Q414 451 382 465.5 Q350 480 307 480 Q260 480 226.5 461 Q193 442 174 418 L116 152 Q125 129 152 110 Q179 91 226 91 Q273 91 309.5 109.5 Q346 128 371 156 Z " />
<glyph glyph-name="h" unicode="h" horiz-adv-x="556" d="M530 440 L436 0 L348 0 L438 419 Q430 442 401.5 461 Q373 480 327 480 Q282 480 245.5 463.5 Q209 447 184 421 L94 0 L7 0 L157 700 L244 700 L201 498 Q267 550 354 550 Q408 550 445.5 532 Q483 514 503.5 488.5 Q524 463 530 440 Z " />
<glyph glyph-name="i" unicode="i" horiz-adv-x="226" d="M99 0 L11 0 L127 538 L215 538 L99 0 Z M257 701 L246 650 Q239 640 224 633 Q209 626 189 626 Q170 626 157.5 633 Q145 640 143 650 L154 701 Q161 711 176.5 718.5 Q192 726 211 726 Q231 726 242.5 718.5 Q254 711 257 701 Z " />
<glyph glyph-name="j" unicode="j" horiz-adv-x="217" d="M84 -48 Q54 -106 -9.5 -143 Q-73 -180 -164 -180 L-149 -111 Q-101 -111 -60 -85 Q-19 -59 2 -23 L122 538 L210 538 L84 -48 Z M253 701 L242 650 Q235 640 220 633 Q205 626 185 626 Q166 626 153.5 633 Q141 640 139 650 L150 701 Q157 711 172.5 718.5 Q188 726 207 726 Q227 726 238.5 718.5 Q250 711 253 701 Z " />
<glyph glyph-name="k" unicode="k" horiz-adv-x="512" d="M511 485 L308 319 L446 53 L435 0 L377 0 L242 264 L131 174 L94 0 L7 0 L157 700 L244 700 L155 284 L459 538 L523 538 L511 485 Z " />
<glyph glyph-name="l" unicode="l" horiz-adv-x="218" d="M95 0 L7 0 L157 700 L245 700 L95 0 Z " />
<glyph glyph-name="m" unicode="m" horiz-adv-x="807" d="M784 446 L688 0 L601 0 L693 426 Q686 448 664 464 Q642 480 601 480 Q564 480 534 465.5 Q504 451 483 428 L391 0 L304 0 L396 426 Q390 448 368 464 Q346 480 305 480 Q269 480 238 465 Q207 450 185 427 L94 0 L7 0 L123 538 L205 538 L195 493 Q254 550 334 550 Q386 550 420 531 Q454 512 472 483 Q539 550 631 550 Q701 550 738.5 517 Q776 484 784 446 Z " />
<glyph glyph-name="n" unicode="n" horiz-adv-x="554" d="M529 440 L434 0 L347 0 L437 419 Q429 442 401.5 461 Q374 480 328 480 Q283 480 245.5 463 Q208 446 184 420 L94 0 L7 0 L123 538 L205 538 L195 493 Q264 550 354 550 Q408 550 445 531.5 Q482 513 502 488 Q522 463 529 440 Z " />
<glyph glyph-name="o" unicode="o" horiz-adv-x="548" d="M527 420 L461 118 Q430 65 371.5 25.5 Q313 -14 225 -14 Q165 -14 121 6 Q77 26 52.5 56.5 Q28 87 21 118 L87 420 Q118 473 176.5 512.5 Q235 552 323 552 Q383 552 427 532 Q471 512 495.5 481.5 Q520 451 527 420 Z M169 398 L112 134 Q118 101 150 79 Q182 57 231 57 Q281 57 319.5 81 Q358 105 379 140 L436 404 Q430 437 398.5 459 Q367 481 316 481 Q267 481 228.5 457 Q190 433 169 398 Z " />
<glyph glyph-name="p" unicode="p" horiz-adv-x="547" d="M530 440 L457 99 Q428 55 378.5 21.5 Q329 -12 254 -12 Q157 -12 105 49 L58 -166 L-29 -166 L123 538 L208 538 L198 495 Q264 550 354 550 Q408 550 445.5 531.5 Q483 513 503 488 Q523 463 530 440 Z M437 419 Q429 442 402 461 Q375 480 328 480 Q282 480 245.5 463.5 Q209 447 185 421 L119 117 Q136 92 168 75 Q200 58 243 58 Q326 58 373 119 L437 419 Z " />
<glyph glyph-name="q" unicode="q" horiz-adv-x="547" d="M540 538 L388 -166 L301 -166 L346 43 Q282 -12 196 -12 Q142 -12 103.5 6 Q65 24 44.5 49.5 Q24 75 18 99 L91 440 Q120 483 169.5 516.5 Q219 550 296 550 Q395 550 445 491 L456 538 L540 538 Z M362 119 L429 429 Q413 451 381.5 465.5 Q350 480 307 480 Q260 480 226.5 461 Q193 442 174 418 L110 119 Q119 96 146.5 77 Q174 58 221 58 Q265 58 301 75.5 Q337 93 362 119 Z " />
<glyph glyph-name="r" unicode="r" horiz-adv-x="354" d="M389 538 L372 458 L348 459 Q294 459 251 442.5 Q208 426 180 400 L94 0 L6 0 L122 538 L205 538 L189 468 Q223 501 264 520 Q305 539 361 539 Q378 539 389 538 Z " />
<glyph glyph-name="s" unicode="s" horiz-adv-x="486" d="M476 466 L466 421 L400 421 Q389 447 359 464.5 Q329 482 285 482 Q246 482 217 469 Q188 456 170 438 L154 366 Q167 337 237 317 L291 302 Q354 284 387 262 Q420 240 432 213 L404 84 Q376 44 325.5 15 Q275 -14 196 -14 Q115 -14 67.5 17 Q20 48 2 84 L12 130 L80 130 Q93 94 125 75 Q157 56 203 56 Q245 56 277 72 Q309 88 328 112 L344 184 Q337 201 316.5 213 Q296 225 260 235 L205 250 Q141 268 112 289 Q83 310 66 339 L94 466 Q117 497 168 524.5 Q219 552 293 552 Q366 552 412.5 525 Q459 498 476 466 Z " />
<glyph glyph-name="t" unicode="t" horiz-adv-x="352" d="M222 471 L144 108 Q160 59 244 59 Q272 59 290 63 L276 -1 Q247 -9 211 -9 Q136 -9 99.5 18 Q63 45 51 82 L135 471 L65 471 L80 538 L149 538 L174 652 L261 652 L236 538 L372 538 L357 471 L222 471 Z " />
<glyph glyph-name="u" unicode="u" horiz-adv-x="546" d="M539 538 L423 0 L341 0 L351 43 Q289 -12 200 -12 Q123 -12 79.5 22.5 Q36 57 23 96 L119 538 L206 538 L116 118 Q124 96 151.5 77 Q179 58 225 58 Q308 58 362 114 L452 538 L539 538 Z " />
<glyph glyph-name="v" unicode="v" horiz-adv-x="515" d="M525 485 L255 0 L144 0 L82 485 L94 538 L163 538 L213 86 L216 86 L459 538 L537 538 L525 485 Z " />
<glyph glyph-name="w" unicode="w" horiz-adv-x="776" d="M788 485 L556 0 L451 0 L422 416 L419 416 L214 0 L108 0 L85 485 L96 538 L166 538 L179 92 L182 92 L402 538 L489 538 L516 92 L519 92 L723 538 L799 538 L788 485 Z " />
<glyph glyph-name="x" unicode="x" horiz-adv-x="485" d="M484 485 L302 273 L401 53 L389 0 L327 0 L238 221 L236 221 L51 0 L-20 0 L-8 53 L188 279 L93 485 L105 538 L166 538 L251 330 L253 330 L426 538 L496 538 L484 485 Z " />
<glyph glyph-name="y" unicode="y" horiz-adv-x="506" d="M454 538 L531 538 L520 486 L196 -97 Q160 -139 115 -156 Q70 -173 13 -173 Q-24 -173 -54 -167 L-39 -101 Q-21 -104 2 -104 Q46 -104 75 -92 Q104 -80 126 -58 L158 3 L84 484 L96 538 L164 538 L221 108 L224 108 L454 538 Z " />
<glyph glyph-name="z" unicode="z" horiz-adv-x="471" d="M486 480 L95 67 L397 67 L382 0 L-27 0 L-14 61 L372 471 L82 471 L97 538 L498 538 L486 480 Z " />
<glyph glyph-name="agrave" unicode="&#xe0;" horiz-adv-x="542" d="M514 420 L423 0 L339 0 L350 48 Q282 -14 188 -14 Q111 -14 69 12.5 Q27 39 7 70 L43 236 Q65 267 113.5 294 Q162 321 234 321 L405 321 L423 402 Q417 436 387 458.5 Q357 481 307 481 Q257 481 222 460 Q187 439 168 408 L90 408 L101 454 Q126 489 177.5 520.5 Q229 552 313 552 Q373 552 416 531.5 Q459 511 483 480.5 Q507 450 514 420 Z M210 55 Q258 55 298 74.5 Q338 94 363 123 L391 255 L255 255 Q207 255 176 240.5 Q145 226 122 205 L100 103 Q110 85 137.5 70 Q165 55 210 55 Z M378 608 L318 608 L261 723 L271 765 L347 765 L382 623 L378 608 Z " />
<glyph glyph-name="aacute" unicode="&#xe1;" horiz-adv-x="542" d="M514 420 L423 0 L339 0 L350 48 Q282 -14 188 -14 Q111 -14 69 12.5 Q27 39 7 70 L43 236 Q65 267 113.5 294 Q162 321 234 321 L405 321 L423 402 Q417 436 387 458.5 Q357 481 307 481 Q257 481 222 460 Q187 439 168 408 L90 408 L101 454 Q126 489 177.5 520.5 Q229 552 313 552 Q373 552 416 531.5 Q459 511 483 480.5 Q507 450 514 420 Z M210 55 Q258 55 298 74.5 Q338 94 363 123 L391 255 L255 255 Q207 255 176 240.5 Q145 226 122 205 L100 103 Q110 85 137.5 70 Q165 55 210 55 Z M377 608 L306 608 L309 623 L404 765 L491 765 L481 723 L377 608 Z " />
<glyph glyph-name="acircumflex" unicode="&#xe2;" horiz-adv-x="542" d="M514 420 L423 0 L339 0 L350 48 Q282 -14 188 -14 Q111 -14 69 12.5 Q27 39 7 70 L43 236 Q65 267 113.5 294 Q162 321 234 321 L405 321 L423 402 Q417 436 387 458.5 Q357 481 307 481 Q257 481 222 460 Q187 439 168 408 L90 408 L101 454 Q126 489 177.5 520.5 Q229 552 313 552 Q373 552 416 531.5 Q459 511 483 480.5 Q507 450 514 420 Z M210 55 Q258 55 298 74.5 Q338 94 363 123 L391 255 L255 255 Q207 255 176 240.5 Q145 226 122 205 L100 103 Q110 85 137.5 70 Q165 55 210 55 Z M491 607 L435 607 L374 718 L263 607 L197 607 L201 623 L321 763 L435 763 L495 623 L491 607 Z " />
<glyph glyph-name="atilde" unicode="&#xe3;" horiz-adv-x="542" d="M514 420 L423 0 L339 0 L350 48 Q282 -14 188 -14 Q111 -14 69 12.5 Q27 39 7 70 L43 236 Q65 267 113.5 294 Q162 321 234 321 L405 321 L423 402 Q417 436 387 458.5 Q357 481 307 481 Q257 481 222 460 Q187 439 168 408 L90 408 L101 454 Q126 489 177.5 520.5 Q229 552 313 552 Q373 552 416 531.5 Q459 511 483 480.5 Q507 450 514 420 Z M210 55 Q258 55 298 74.5 Q338 94 363 123 L391 255 L255 255 Q207 255 176 240.5 Q145 226 122 205 L100 103 Q110 85 137.5 70 Q165 55 210 55 Z M375 701 Q391 690 402 684.5 Q413 679 426 679 Q442 679 452 686 Q462 693 470 708 L474 727 L529 727 L520 684 Q487 620 426 620 Q402 620 384 628 Q366 636 343 652 Q326 663 316 668.5 Q306 674 293 674 Q276 674 266 666.5 Q256 659 249 646 L245 626 L190 626 L199 669 Q231 732 294 732 Q319 732 336.5 724 Q354 716 375 701 Z " />
<glyph glyph-name="adieresis" unicode="&#xe4;" horiz-adv-x="542" d="M514 420 L423 0 L339 0 L350 48 Q282 -14 188 -14 Q111 -14 69 12.5 Q27 39 7 70 L43 236 Q65 267 113.5 294 Q162 321 234 321 L405 321 L423 402 Q417 436 387 458.5 Q357 481 307 481 Q257 481 222 460 Q187 439 168 408 L90 408 L101 454 Q126 489 177.5 520.5 Q229 552 313 552 Q373 552 416 531.5 Q459 511 483 480.5 Q507 450 514 420 Z M210 55 Q258 55 298 74.5 Q338 94 363 123 L391 255 L255 255 Q207 255 176 240.5 Q145 226 122 205 L100 103 Q110 85 137.5 70 Q165 55 210 55 Z M313 706 L299 644 Q292 637 278.5 631 Q265 625 246 625 Q227 625 216 631 Q205 637 201 644 L215 706 Q220 712 234.5 718.5 Q249 725 267 725 Q299 725 313 706 Z M515 706 L501 644 Q482 625 448 625 Q429 625 418 631 Q407 637 403 644 L417 706 Q423 713 437 719 Q451 725 470 725 Q501 725 515 706 Z " />
<glyph glyph-name="amacron" unicode="&#x101;" horiz-adv-x="542" d="M514 420 L423 0 L339 0 L350 48 Q282 -14 188 -14 Q111 -14 69 12.5 Q27 39 7 70 L43 236 Q65 267 113.5 294 Q162 321 234 321 L405 321 L423 402 Q417 436 387 458.5 Q357 481 307 481 Q257 481 222 460 Q187 439 168 408 L90 408 L101 454 Q126 489 177.5 520.5 Q229 552 313 552 Q373 552 416 531.5 Q459 511 483 480.5 Q507 450 514 420 Z M210 55 Q258 55 298 74.5 Q338 94 363 123 L391 255 L255 255 Q207 255 176 240.5 Q145 226 122 205 L100 103 Q110 85 137.5 70 Q165 55 210 55 Z M509 649 L196 649 L210 713 L522 713 L509 649 Z " />
<glyph glyph-name="abreve" unicode="&#x103;" horiz-adv-x="542" d="M514 420 L423 0 L339 0 L350 48 Q282 -14 188 -14 Q111 -14 69 12.5 Q27 39 7 70 L43 236 Q65 267 113.5 294 Q162 321 234 321 L405 321 L423 402 Q417 436 387 458.5 Q357 481 307 481 Q257 481 222 460 Q187 439 168 408 L90 408 L101 454 Q126 489 177.5 520.5 Q229 552 313 552 Q373 552 416 531.5 Q459 511 483 480.5 Q507 450 514 420 Z M210 55 Q258 55 298 74.5 Q338 94 363 123 L391 255 L255 255 Q207 255 176 240.5 Q145 226 122 205 L100 103 Q110 85 137.5 70 Q165 55 210 55 Z M504 679 Q484 648 447 626 Q410 604 353 604 Q295 604 260.5 626 Q226 648 216 679 L228 734 L295 734 L286 697 Q288 684 305 670.5 Q322 657 355 657 Q389 657 409.5 669.5 Q430 682 440 697 L449 734 L516 734 L504 679 Z " />
<glyph glyph-name="aring" unicode="&#xe5;" horiz-adv-x="542" d="M514 420 L423 0 L339 0 L350 48 Q282 -14 188 -14 Q111 -14 69 12.5 Q27 39 7 70 L43 236 Q65 267 113.5 294 Q162 321 234 321 L405 321 L423 402 Q417 436 387 458.5 Q357 481 307 481 Q257 481 222 460 Q187 439 168 408 L90 408 L101 454 Q126 489 177.5 520.5 Q229 552 313 552 Q373 552 416 531.5 Q459 511 483 480.5 Q507 450 514 420 Z M210 55 Q258 55 298 74.5 Q338 94 363 123 L391 255 L255 255 Q207 255 176 240.5 Q145 226 122 205 L100 103 Q110 85 137.5 70 Q165 55 210 55 Z M478 740 L460 652 Q445 628 415.5 613 Q386 598 349 598 Q312 598 284 613.5 Q256 629 247 652 L265 740 Q280 763 310 778.5 Q340 794 377 794 Q414 794 441 778.5 Q468 763 478 740 Z M311 724 L298 667 Q303 657 316 649.5 Q329 642 351 642 Q391 642 414 667 L426 724 Q422 735 409.5 742.5 Q397 750 374 750 Q333 750 311 724 Z " />
<glyph glyph-name="aogonek" unicode="&#x105;" horiz-adv-x="542" d="M300 -106 L292 -137 Q295 -145 308.5 -151 Q322 -157 339 -157 Q366 -157 393 -146 L382 -200 Q354 -215 314 -215 Q279 -215 252 -201.5 Q225 -188 220 -165 L235 -95 Q247 -76 275 -49.5 Q303 -23 341 0 L339 0 L350 48 Q282 -14 188 -14 Q111 -14 69 12.5 Q27 39 7 70 L43 236 Q65 267 113.5 294 Q162 321 234 321 L405 321 L423 402 Q417 436 387 458.5 Q357 481 307 481 Q257 481 222 460 Q187 439 168 408 L90 408 L101 454 Q126 489 177.5 520.5 Q229 552 313 552 Q373 552 416 531.5 Q459 511 483 480.5 Q507 450 514 420 L423 0 Q369 -34 339 -62.5 Q309 -91 300 -106 Z M210 55 Q258 55 298 74.5 Q338 94 363 123 L391 255 L255 255 Q207 255 176 240.5 Q145 226 122 205 L100 103 Q110 85 137.5 70 Q165 55 210 55 Z " />
<glyph glyph-name="ae" unicode="&#xe6;" horiz-adv-x="879" d="M478 255 L453 135 Q459 101 490 79 Q521 57 571 57 Q674 57 726 155 L804 155 L795 109 Q767 60 709.5 23 Q652 -14 565 -14 Q505 -14 461.5 6 Q418 26 392 58 Q356 26 306.5 6 Q257 -14 196 -14 Q116 -14 71.5 13 Q27 40 7 70 L43 236 Q65 267 113.5 294 Q162 321 234 321 L406 321 L425 409 Q414 440 383.5 460.5 Q353 481 307 481 Q257 481 222 460 Q187 439 168 408 L90 408 L101 454 Q126 489 177.5 520.5 Q229 552 313 552 Q371 552 412.5 533.5 Q454 515 480 485 Q556 552 664 552 Q723 552 766 532 Q809 512 833 483.5 Q857 455 863 429 L826 255 L478 255 Z M509 400 L493 321 L758 321 L775 404 Q769 437 738 459 Q707 481 657 481 Q608 481 569 458 Q530 435 509 400 Z M362 122 L391 255 L255 255 Q207 255 176 240.5 Q145 226 122 205 L100 103 Q110 85 138 70 Q166 55 211 55 Q257 55 296 74.5 Q335 94 362 122 Z " />
<glyph glyph-name="cacute" unicode="&#x107;" horiz-adv-x="527" d="M523 429 L514 383 L446 383 Q439 427 405 454 Q371 481 317 481 Q268 481 229.5 458 Q191 435 169 401 L112 134 Q119 101 150.5 79 Q182 57 231 57 Q334 57 391 155 L464 155 L455 109 Q427 60 371 23 Q315 -14 229 -14 Q168 -14 123.5 6 Q79 26 53.5 56.5 Q28 87 21 118 L87 420 Q117 474 176.5 513 Q236 552 324 552 Q383 552 425.5 532 Q468 512 492.5 484 Q517 456 523 429 Z M382 608 L311 608 L314 623 L409 765 L496 765 L486 723 L382 608 Z " />
<glyph glyph-name="ccircumflex" unicode="&#x109;" horiz-adv-x="527" d="M523 429 L514 383 L446 383 Q439 427 405 454 Q371 481 317 481 Q268 481 229.5 458 Q191 435 169 401 L112 134 Q119 101 150.5 79 Q182 57 231 57 Q334 57 391 155 L464 155 L455 109 Q427 60 371 23 Q315 -14 229 -14 Q168 -14 123.5 6 Q79 26 53.5 56.5 Q28 87 21 118 L87 420 Q117 474 176.5 513 Q236 552 324 552 Q383 552 425.5 532 Q468 512 492.5 484 Q517 456 523 429 Z M496 607 L440 607 L379 718 L268 607 L202 607 L206 623 L326 763 L440 763 L500 623 L496 607 Z " />
<glyph glyph-name="ccaron" unicode="&#x10d;" horiz-adv-x="527" d="M523 429 L514 383 L446 383 Q439 427 405 454 Q371 481 317 481 Q268 481 229.5 458 Q191 435 169 401 L112 134 Q119 101 150.5 79 Q182 57 231 57 Q334 57 391 155 L464 155 L455 109 Q427 60 371 23 Q315 -14 229 -14 Q168 -14 123.5 6 Q79 26 53.5 56.5 Q28 87 21 118 L87 420 Q117 474 176.5 513 Q236 552 324 552 Q383 552 425.5 532 Q468 512 492.5 484 Q517 456 523 429 Z M406 607 L292 607 L232 747 L236 763 L292 763 L354 652 L464 763 L530 763 L526 747 L406 607 Z " />
<glyph glyph-name="cdotaccent" unicode="&#x10b;" horiz-adv-x="527" d="M523 429 L514 383 L446 383 Q439 427 405 454 Q371 481 317 481 Q268 481 229.5 458 Q191 435 169 401 L112 134 Q119 101 150.5 79 Q182 57 231 57 Q334 57 391 155 L464 155 L455 109 Q427 60 371 23 Q315 -14 229 -14 Q168 -14 123.5 6 Q79 26 53.5 56.5 Q28 87 21 118 L87 420 Q117 474 176.5 513 Q236 552 324 552 Q383 552 425.5 532 Q468 512 492.5 484 Q517 456 523 429 Z M421 701 L410 650 Q403 640 388 633 Q373 626 353 626 Q334 626 321.5 633 Q309 640 307 650 L318 701 Q325 711 340.5 718.5 Q356 726 375 726 Q395 726 406.5 718.5 Q418 711 421 701 Z " />
<glyph glyph-name="ccedilla" unicode="&#xe7;" horiz-adv-x="527" d="M169 401 L112 134 Q119 101 150.5 79 Q182 57 231 57 Q334 57 391 155 L464 155 L455 109 Q427 61 372 24 Q317 -13 232 -14 L209 -52 L219 -52 Q248 -52 269 -66.5 Q290 -81 295 -99 L279 -169 Q244 -221 170 -221 Q142 -221 116 -214.5 Q90 -208 75 -198 L101 -153 Q134 -172 173 -172 Q192 -172 205.5 -165 Q219 -158 226 -148 L232 -116 Q229 -107 218.5 -101 Q208 -95 189 -95 L130 -95 L178 -9 Q111 2 70.5 39.5 Q30 77 21 118 L87 420 Q117 474 176.5 513 Q236 552 324 552 Q383 552 425.5 532 Q468 512 492.5 484 Q517 456 523 429 L514 383 L446 383 Q439 427 405 454 Q371 481 317 481 Q268 481 229.5 458 Q191 435 169 401 Z " />
<glyph glyph-name="dcaron" unicode="&#x10f;" horiz-adv-x="687" d="M574 700 L424 0 L340 0 L350 46 Q285 -12 196 -12 Q142 -12 103.5 6 Q65 24 44.5 49.5 Q24 75 18 99 L91 440 Q120 483 169.5 516.5 Q219 550 296 550 Q393 550 443 493 L487 700 L574 700 Z M429 428 Q413 451 381.5 465.5 Q350 480 307 480 Q260 480 226.5 461 Q193 442 174 418 L110 119 Q119 96 146.5 77 Q174 58 221 58 Q266 58 302 75.5 Q338 93 363 120 L429 428 Z M744 653 L680 523 L623 523 L627 538 L681 700 L754 700 L744 653 Z " />
<glyph glyph-name="egrave" unicode="&#xe8;" horiz-adv-x="539" d="M523 429 L486 255 L138 255 L113 135 Q119 101 150 79 Q181 57 231 57 Q334 57 386 155 L464 155 L455 109 Q427 60 369.5 23 Q312 -14 225 -14 Q165 -14 121 6.5 Q77 27 52.5 57 Q28 87 21 118 L87 420 Q117 473 177 512.5 Q237 552 324 552 Q383 552 426 532 Q469 512 493 483.5 Q517 455 523 429 Z M169 400 L153 321 L418 321 L435 404 Q429 437 398 459 Q367 481 317 481 Q268 481 229 458 Q190 435 169 400 Z M386 608 L326 608 L269 723 L279 765 L355 765 L390 623 L386 608 Z " />
<glyph glyph-name="eacute" unicode="&#xe9;" horiz-adv-x="539" d="M523 429 L486 255 L138 255 L113 135 Q119 101 150 79 Q181 57 231 57 Q334 57 386 155 L464 155 L455 109 Q427 60 369.5 23 Q312 -14 225 -14 Q165 -14 121 6.5 Q77 27 52.5 57 Q28 87 21 118 L87 420 Q117 473 177 512.5 Q237 552 324 552 Q383 552 426 532 Q469 512 493 483.5 Q517 455 523 429 Z M169 400 L153 321 L418 321 L435 404 Q429 437 398 459 Q367 481 317 481 Q268 481 229 458 Q190 435 169 400 Z M385 608 L314 608 L317 623 L412 765 L499 765 L489 723 L385 608 Z " />
<glyph glyph-name="ecircumflex" unicode="&#xea;" horiz-adv-x="539" d="M523 429 L486 255 L138 255 L113 135 Q119 101 150 79 Q181 57 231 57 Q334 57 386 155 L464 155 L455 109 Q427 60 369.5 23 Q312 -14 225 -14 Q165 -14 121 6.5 Q77 27 52.5 57 Q28 87 21 118 L87 420 Q117 473 177 512.5 Q237 552 324 552 Q383 552 426 532 Q469 512 493 483.5 Q517 455 523 429 Z M169 400 L153 321 L418 321 L435 404 Q429 437 398 459 Q367 481 317 481 Q268 481 229 458 Q190 435 169 400 Z M499 607 L443 607 L382 718 L271 607 L205 607 L209 623 L329 763 L443 763 L503 623 L499 607 Z " />
<glyph glyph-name="ecaron" unicode="&#x11b;" horiz-adv-x="539" d="M523 429 L486 255 L138 255 L113 135 Q119 101 150 79 Q181 57 231 57 Q334 57 386 155 L464 155 L455 109 Q427 60 369.5 23 Q312 -14 225 -14 Q165 -14 121 6.5 Q77 27 52.5 57 Q28 87 21 118 L87 420 Q117 473 177 512.5 Q237 552 324 552 Q383 552 426 532 Q469 512 493 483.5 Q517 455 523 429 Z M169 400 L153 321 L418 321 L435 404 Q429 437 398 459 Q367 481 317 481 Q268 481 229 458 Q190 435 169 400 Z M409 607 L295 607 L235 747 L239 763 L295 763 L357 652 L467 763 L533 763 L529 747 L409 607 Z " />
<glyph glyph-name="edieresis" unicode="&#xeb;" horiz-adv-x="539" d="M523 429 L486 255 L138 255 L113 135 Q119 101 150 79 Q181 57 231 57 Q334 57 386 155 L464 155 L455 109 Q427 60 369.5 23 Q312 -14 225 -14 Q165 -14 121 6.5 Q77 27 52.5 57 Q28 87 21 118 L87 420 Q117 473 177 512.5 Q237 552 324 552 Q383 552 426 532 Q469 512 493 483.5 Q517 455 523 429 Z M169 400 L153 321 L418 321 L435 404 Q429 437 398 459 Q367 481 317 481 Q268 481 229 458 Q190 435 169 400 Z M322 706 L308 644 Q301 637 287.5 631 Q274 625 255 625 Q236 625 225 631 Q214 637 210 644 L224 706 Q229 712 243.5 718.5 Q258 725 276 725 Q308 725 322 706 Z M524 706 L510 644 Q491 625 457 625 Q438 625 427 631 Q416 637 412 644 L426 706 Q432 713 446 719 Q460 725 479 725 Q510 725 524 706 Z " />
<glyph glyph-name="emacron" unicode="&#x113;" horiz-adv-x="539" d="M523 429 L486 255 L138 255 L113 135 Q119 101 150 79 Q181 57 231 57 Q334 57 386 155 L464 155 L455 109 Q427 60 369.5 23 Q312 -14 225 -14 Q165 -14 121 6.5 Q77 27 52.5 57 Q28 87 21 118 L87 420 Q117 473 177 512.5 Q237 552 324 552 Q383 552 426 532 Q469 512 493 483.5 Q517 455 523 429 Z M169 400 L153 321 L418 321 L435 404 Q429 437 398 459 Q367 481 317 481 Q268 481 229 458 Q190 435 169 400 Z M517 649 L204 649 L218 713 L530 713 L517 649 Z " />
<glyph glyph-name="ebreve" unicode="&#x115;" horiz-adv-x="539" d="M523 429 L486 255 L138 255 L113 135 Q119 101 150 79 Q181 57 231 57 Q334 57 386 155 L464 155 L455 109 Q427 60 369.5 23 Q312 -14 225 -14 Q165 -14 121 6.5 Q77 27 52.5 57 Q28 87 21 118 L87 420 Q117 473 177 512.5 Q237 552 324 552 Q383 552 426 532 Q469 512 493 483.5 Q517 455 523 429 Z M169 400 L153 321 L418 321 L435 404 Q429 437 398 459 Q367 481 317 481 Q268 481 229 458 Q190 435 169 400 Z M512 679 Q492 648 455 626 Q418 604 361 604 Q303 604 268.5 626 Q234 648 224 679 L236 734 L303 734 L294 697 Q296 684 313 670.5 Q330 657 363 657 Q397 657 417.5 669.5 Q438 682 448 697 L457 734 L524 734 L512 679 Z " />
<glyph glyph-name="edotaccent" unicode="&#x117;" horiz-adv-x="539" d="M523 429 L486 255 L138 255 L113 135 Q119 101 150 79 Q181 57 231 57 Q334 57 386 155 L464 155 L455 109 Q427 60 369.5 23 Q312 -14 225 -14 Q165 -14 121 6.5 Q77 27 52.5 57 Q28 87 21 118 L87 420 Q117 473 177 512.5 Q237 552 324 552 Q383 552 426 532 Q469 512 493 483.5 Q517 455 523 429 Z M169 400 L153 321 L418 321 L435 404 Q429 437 398 459 Q367 481 317 481 Q268 481 229 458 Q190 435 169 400 Z M424 701 L413 650 Q406 640 391 633 Q376 626 356 626 Q337 626 324.5 633 Q312 640 310 650 L321 701 Q328 711 343.5 718.5 Q359 726 378 726 Q398 726 409.5 718.5 Q421 711 424 701 Z " />
<glyph glyph-name="eogonek" unicode="&#x119;" horiz-adv-x="539" d="M138 255 L113 135 Q119 101 150 79 Q181 57 231 57 Q334 57 386 155 L464 155 L455 109 Q441 82 397 40 Q348 -7 318 -47.5 Q288 -88 280 -106 L273 -137 Q276 -145 289.5 -151 Q303 -157 320 -157 Q347 -157 374 -146 L362 -200 Q334 -215 294 -215 Q260 -215 233 -201.5 Q206 -188 200 -165 L216 -95 Q224 -79 244 -55 Q264 -31 290 -7 Q255 -14 225 -14 Q165 -14 121 6.5 Q77 27 52.5 57 Q28 87 21 118 L87 420 Q117 473 177 512.5 Q237 552 324 552 Q383 552 426 532 Q469 512 493 483.5 Q517 455 523 429 L486 255 L138 255 Z M153 321 L418 321 L435 404 Q429 437 398 459 Q367 481 317 481 Q268 481 229 458 Q190 435 169 400 L153 321 Z " />
<glyph glyph-name="gcircumflex" unicode="&#x11d;" horiz-adv-x="547" d="M540 538 L412 -55 Q383 -107 324 -143 Q265 -179 177 -179 Q91 -179 41.5 -145.5 Q-8 -112 -26 -73 L-16 -27 L51 -27 Q64 -64 99 -86.5 Q134 -109 186 -109 Q284 -109 330 -36 L354 76 Q290 21 202 21 Q148 21 110 39 Q72 57 51 83 Q30 109 24 132 L91 440 Q120 483 169.5 516.5 Q219 550 296 550 Q396 550 445 490 L456 538 L540 538 Z M371 156 L430 428 Q414 451 382 465.5 Q350 480 307 480 Q260 480 226.5 461 Q193 442 174 418 L116 152 Q125 129 152 110 Q179 91 226 91 Q273 91 309.5 109.5 Q346 128 371 156 Z M493 607 L437 607 L376 718 L265 607 L199 607 L203 623 L323 763 L437 763 L497 623 L493 607 Z " />
<glyph glyph-name="gbreve" unicode="&#x11f;" horiz-adv-x="547" d="M540 538 L412 -55 Q383 -107 324 -143 Q265 -179 177 -179 Q91 -179 41.5 -145.5 Q-8 -112 -26 -73 L-16 -27 L51 -27 Q64 -64 99 -86.5 Q134 -109 186 -109 Q284 -109 330 -36 L354 76 Q290 21 202 21 Q148 21 110 39 Q72 57 51 83 Q30 109 24 132 L91 440 Q120 483 169.5 516.5 Q219 550 296 550 Q396 550 445 490 L456 538 L540 538 Z M371 156 L430 428 Q414 451 382 465.5 Q350 480 307 480 Q260 480 226.5 461 Q193 442 174 418 L116 152 Q125 129 152 110 Q179 91 226 91 Q273 91 309.5 109.5 Q346 128 371 156 Z M506 679 Q486 648 449 626 Q412 604 355 604 Q297 604 262.5 626 Q228 648 218 679 L230 734 L297 734 L288 697 Q290 684 307 670.5 Q324 657 357 657 Q391 657 411.5 669.5 Q432 682 442 697 L451 734 L518 734 L506 679 Z " />
<glyph glyph-name="gdotaccent" unicode="&#x121;" horiz-adv-x="547" d="M540 538 L412 -55 Q383 -107 324 -143 Q265 -179 177 -179 Q91 -179 41.5 -145.5 Q-8 -112 -26 -73 L-16 -27 L51 -27 Q64 -64 99 -86.5 Q134 -109 186 -109 Q284 -109 330 -36 L354 76 Q290 21 202 21 Q148 21 110 39 Q72 57 51 83 Q30 109 24 132 L91 440 Q120 483 169.5 516.5 Q219 550 296 550 Q396 550 445 490 L456 538 L540 538 Z M371 156 L430 428 Q414 451 382 465.5 Q350 480 307 480 Q260 480 226.5 461 Q193 442 174 418 L116 152 Q125 129 152 110 Q179 91 226 91 Q273 91 309.5 109.5 Q346 128 371 156 Z M418 701 L407 650 Q400 640 385 633 Q370 626 350 626 Q331 626 318.5 633 Q306 640 304 650 L315 701 Q322 711 337.5 718.5 Q353 726 372 726 Q392 726 403.5 718.5 Q415 711 418 701 Z " />
<glyph glyph-name="gcommaaccent" unicode="&#x123;" horiz-adv-x="547" d="M540 538 L412 -55 Q383 -107 324 -143 Q265 -179 177 -179 Q91 -179 41.5 -145.5 Q-8 -112 -26 -73 L-16 -27 L51 -27 Q64 -64 99 -86.5 Q134 -109 186 -109 Q284 -109 330 -36 L354 76 Q290 21 202 21 Q148 21 110 39 Q72 57 51 83 Q30 109 24 132 L91 440 Q120 483 169.5 516.5 Q219 550 296 550 Q396 550 445 490 L456 538 L540 538 Z M371 156 L430 428 Q414 451 382 465.5 Q350 480 307 480 Q260 480 226.5 461 Q193 442 174 418 L116 152 Q125 129 152 110 Q179 91 226 91 Q273 91 309.5 109.5 Q346 128 371 156 Z M310 719 L304 689 Q342 689 351 665 L343 626 Q337 616 323 609.5 Q309 603 290 603 Q272 603 259.5 610 Q247 617 243 626 L264 727 Q271 741 289.5 753 Q308 765 334 765 L365 765 L357 729 L342 729 Q333 729 323.5 726.5 Q314 724 310 719 Z " />
<glyph glyph-name="hcircumflex" unicode="&#x125;" horiz-adv-x="556" d="M530 440 L436 0 L348 0 L438 419 Q430 442 401.5 461 Q373 480 327 480 Q282 480 245.5 463.5 Q209 447 184 421 L94 0 L7 0 L157 700 L244 700 L201 498 Q267 550 354 550 Q408 550 445.5 532 Q483 514 503.5 488.5 Q524 463 530 440 Z M534 746 L478 746 L415 853 L306 746 L241 746 L244 762 L363 899 L477 899 L538 762 L534 746 Z " />
<glyph glyph-name="hbar" unicode="&#x127;" horiz-adv-x="569" d="M542 428 L451 0 L363 0 L450 408 Q440 431 412 449.5 Q384 468 338 468 Q294 468 257.5 451.5 Q221 435 197 410 L109 0 L22 0 L150 597 L102 597 L114 648 L161 648 L172 700 L259 700 L248 648 L435 648 L424 597 L237 597 L213 487 Q281 539 365 539 Q419 539 457 520.5 Q495 502 515.5 476.5 Q536 451 542 428 Z " />
<glyph glyph-name="igrave" unicode="&#xec;" horiz-adv-x="226" d="M99 0 L11 0 L127 538 L215 538 L99 0 Z M219 608 L159 608 L102 723 L112 765 L188 765 L223 623 L219 608 Z " />
<glyph glyph-name="iacute" unicode="&#xed;" horiz-adv-x="226" d="M99 0 L11 0 L127 538 L215 538 L99 0 Z M218 608 L147 608 L150 623 L245 765 L332 765 L322 723 L218 608 Z " />
<glyph glyph-name="icircumflex" unicode="&#xee;" horiz-adv-x="226" d="M99 0 L11 0 L127 538 L215 538 L99 0 Z M332 607 L276 607 L215 718 L104 607 L38 607 L42 623 L162 763 L276 763 L336 623 L332 607 Z " />
<glyph glyph-name="itilde" unicode="&#x129;" horiz-adv-x="226" d="M99 0 L11 0 L127 538 L215 538 L99 0 Z M216 701 Q232 690 243 684.5 Q254 679 267 679 Q283 679 293 686 Q303 693 311 708 L315 727 L370 727 L361 684 Q328 620 267 620 Q243 620 225 628 Q207 636 184 652 Q167 663 157 668.5 Q147 674 134 674 Q117 674 107 666.5 Q97 659 90 646 L86 626 L31 626 L40 669 Q72 732 135 732 Q160 732 177.5 724 Q195 716 216 701 Z " />
<glyph glyph-name="idieresis" unicode="&#xef;" horiz-adv-x="226" d="M99 0 L11 0 L127 538 L215 538 L99 0 Z M155 706 L141 644 Q134 637 120.5 631 Q107 625 88 625 Q69 625 58 631 Q47 637 43 644 L57 706 Q62 712 76.5 718.5 Q91 725 109 725 Q141 725 155 706 Z M357 706 L343 644 Q324 625 290 625 Q271 625 260 631 Q249 637 245 644 L259 706 Q265 713 279 719 Q293 725 312 725 Q343 725 357 706 Z " />
<glyph glyph-name="imacron" unicode="&#x12b;" horiz-adv-x="226" d="M99 0 L11 0 L127 538 L215 538 L99 0 Z M350 649 L37 649 L51 713 L363 713 L350 649 Z " />
<glyph glyph-name="ibreve" unicode="&#x12d;" horiz-adv-x="226" d="M99 0 L11 0 L127 538 L215 538 L99 0 Z M345 679 Q325 648 288 626 Q251 604 194 604 Q136 604 101.5 626 Q67 648 57 679 L69 734 L136 734 L127 697 Q129 684 146 670.5 Q163 657 196 657 Q230 657 250.5 669.5 Q271 682 281 697 L290 734 L357 734 L345 679 Z " />
<glyph glyph-name="iogonek" unicode="&#x12f;" horiz-adv-x="226" d="M257 701 L246 650 Q239 640 224 633 Q209 626 189 626 Q170 626 157.5 633 Q145 640 143 650 L154 701 Q161 711 176.5 718.5 Q192 726 211 726 Q231 726 242.5 718.5 Q254 711 257 701 Z M127 538 L215 538 L99 0 Q45 -34 15 -62 Q-15 -90 -25 -106 L-32 -137 Q-29 -145 -15.5 -151 Q-2 -157 15 -157 Q41 -157 69 -146 L57 -200 Q29 -215 -11 -215 Q-45 -215 -72 -201.5 Q-99 -188 -105 -165 L-89 -95 Q-77 -75 -49.5 -49 Q-22 -23 16 0 L11 0 L127 538 Z " />
<glyph glyph-name="dotlessi" unicode="&#x131;" horiz-adv-x="226" d="M99 0 L11 0 L127 538 L215 538 L99 0 Z " />
<glyph glyph-name="ij" unicode="&#x133;" horiz-adv-x="443" d="M99 0 L11 0 L127 538 L215 538 L99 0 Z M257 701 L246 650 Q239 640 224 633 Q209 626 189 626 Q170 626 157.5 633 Q145 640 143 650 L154 701 Q161 711 176.5 718.5 Q192 726 211 726 Q231 726 242.5 718.5 Q254 711 257 701 Z M310 -48 Q280 -106 216.5 -143 Q153 -180 62 -180 L77 -111 Q125 -111 166 -85 Q207 -59 228 -23 L348 538 L436 538 L310 -48 Z M479 701 L468 650 Q461 640 446 633 Q431 626 411 626 Q392 626 379.5 633 Q367 640 365 650 L376 701 Q383 711 398.5 718.5 Q414 726 433 726 Q453 726 464.5 718.5 Q476 711 479 701 Z " />
<glyph glyph-name="jcircumflex" unicode="&#x135;" horiz-adv-x="217" d="M84 -48 Q54 -106 -9.5 -143 Q-73 -180 -164 -180 L-149 -111 Q-101 -111 -60 -85 Q-19 -59 2 -23 L122 538 L210 538 L84 -48 Z M328 607 L272 607 L211 718 L100 607 L34 607 L38 623 L158 763 L272 763 L332 623 L328 607 Z " />
<glyph glyph-name="kcommaaccent" unicode="&#x137;" horiz-adv-x="512" d="M511 485 L308 319 L446 53 L435 0 L377 0 L242 264 L131 174 L94 0 L7 0 L157 700 L244 700 L155 284 L459 538 L523 538 L511 485 Z M117 -175 L137 -175 Q157 -175 164 -164 L170 -137 Q153 -137 140 -133 Q127 -129 125 -123 L134 -76 Q151 -61 185 -61 Q216 -61 229 -76 L211 -169 Q191 -207 141 -207 L111 -207 L117 -175 Z " />
<glyph glyph-name="lacute" unicode="&#x13a;" horiz-adv-x="218" d="M95 0 L7 0 L157 700 L245 700 L95 0 Z M238 752 L169 752 L173 768 L266 905 L352 905 L342 863 L238 752 Z " />
<glyph glyph-name="lcaron" unicode="&#x13e;" horiz-adv-x="357" d="M95 0 L7 0 L157 700 L245 700 L95 0 Z M412 653 L348 523 L291 523 L295 538 L349 700 L422 700 L412 653 Z " />
<glyph glyph-name="lcommaaccent" unicode="&#x13c;" horiz-adv-x="218" d="M95 0 L7 0 L157 700 L245 700 L95 0 Z M-31 -175 L-11 -175 Q9 -175 16 -164 L22 -137 Q5 -137 -8 -133 Q-21 -129 -23 -123 L-14 -76 Q3 -61 37 -61 Q68 -61 81 -76 L63 -169 Q43 -207 -7 -207 L-37 -207 L-31 -175 Z " />
<glyph glyph-name="lslash" unicode="&#x142;" horiz-adv-x="340" d="M343 424 L234 368 L155 0 L68 0 L136 317 L29 262 L45 336 L152 391 L218 700 L305 700 L250 442 L359 498 L343 424 Z " />
<glyph glyph-name="ldot" unicode="&#x140;" horiz-adv-x="385" d="M95 0 L7 0 L157 700 L245 700 L95 0 Z M380 389 L369 338 Q362 328 347 321 Q332 314 312 314 Q293 314 280.5 321 Q268 328 266 338 L277 389 Q284 399 299.5 406.5 Q315 414 334 414 Q354 414 365.5 406.5 Q377 399 380 389 Z " />
<glyph glyph-name="nacute" unicode="&#x144;" horiz-adv-x="554" d="M529 440 L434 0 L347 0 L437 419 Q429 442 401.5 461 Q374 480 328 480 Q283 480 245.5 463 Q208 446 184 420 L94 0 L7 0 L123 538 L205 538 L195 493 Q264 550 354 550 Q408 550 445 531.5 Q482 513 502 488 Q522 463 529 440 Z M382 608 L311 608 L314 623 L409 765 L496 765 L486 723 L382 608 Z " />
<glyph glyph-name="ncaron" unicode="&#x148;" horiz-adv-x="554" d="M529 440 L434 0 L347 0 L437 419 Q429 442 401.5 461 Q374 480 328 480 Q283 480 245.5 463 Q208 446 184 420 L94 0 L7 0 L123 538 L205 538 L195 493 Q264 550 354 550 Q408 550 445 531.5 Q482 513 502 488 Q522 463 529 440 Z M406 607 L292 607 L232 747 L236 763 L292 763 L354 652 L464 763 L530 763 L526 747 L406 607 Z " />
<glyph glyph-name="ntilde" unicode="&#xf1;" horiz-adv-x="554" d="M529 440 L434 0 L347 0 L437 419 Q429 442 401.5 461 Q374 480 328 480 Q283 480 245.5 463 Q208 446 184 420 L94 0 L7 0 L123 538 L205 538 L195 493 Q264 550 354 550 Q408 550 445 531.5 Q482 513 502 488 Q522 463 529 440 Z M380 701 Q396 690 407 684.5 Q418 679 431 679 Q447 679 457 686 Q467 693 475 708 L479 727 L534 727 L525 684 Q492 620 431 620 Q407 620 389 628 Q371 636 348 652 Q331 663 321 668.5 Q311 674 298 674 Q281 674 271 666.5 Q261 659 254 646 L250 626 L195 626 L204 669 Q236 732 299 732 Q324 732 341.5 724 Q359 716 380 701 Z " />
<glyph glyph-name="ncommaaccent" unicode="&#x146;" horiz-adv-x="554" d="M529 440 L434 0 L347 0 L437 419 Q429 442 401.5 461 Q374 480 328 480 Q283 480 245.5 463 Q208 446 184 420 L94 0 L7 0 L123 538 L205 538 L195 493 Q264 550 354 550 Q408 550 445 531.5 Q482 513 502 488 Q522 463 529 440 Z M138 -175 L158 -175 Q178 -175 185 -164 L191 -137 Q174 -137 161 -133 Q148 -129 146 -123 L155 -76 Q172 -61 206 -61 Q237 -61 250 -76 L232 -169 Q212 -207 162 -207 L132 -207 L138 -175 Z " />
<glyph glyph-name="napostrophe" unicode="&#x149;" horiz-adv-x="554" d="M529 440 L434 0 L347 0 L437 419 Q429 442 401.5 461 Q374 480 328 480 Q283 480 245.5 463 Q208 446 184 420 L94 0 L7 0 L123 538 L205 538 L195 493 Q264 550 354 550 Q408 550 445 531.5 Q482 513 502 488 Q522 463 529 440 Z M40 621 L60 621 Q80 621 87 632 L93 659 Q76 659 63 663 Q50 667 48 673 L57 720 Q74 735 108 735 Q139 735 152 720 L134 627 Q114 589 64 589 L34 589 L40 621 Z " />
<glyph glyph-name="ograve" unicode="&#xf2;" horiz-adv-x="548" d="M527 420 L461 118 Q430 65 371.5 25.5 Q313 -14 225 -14 Q165 -14 121 6 Q77 26 52.5 56.5 Q28 87 21 118 L87 420 Q118 473 176.5 512.5 Q235 552 323 552 Q383 552 427 532 Q471 512 495.5 481.5 Q520 451 527 420 Z M169 398 L112 134 Q118 101 150 79 Q182 57 231 57 Q281 57 319.5 81 Q358 105 379 140 L436 404 Q430 437 398.5 459 Q367 481 316 481 Q267 481 228.5 457 Q190 433 169 398 Z M380 608 L320 608 L263 723 L273 765 L349 765 L384 623 L380 608 Z " />
<glyph glyph-name="oacute" unicode="&#xf3;" horiz-adv-x="548" d="M527 420 L461 118 Q430 65 371.5 25.5 Q313 -14 225 -14 Q165 -14 121 6 Q77 26 52.5 56.5 Q28 87 21 118 L87 420 Q118 473 176.5 512.5 Q235 552 323 552 Q383 552 427 532 Q471 512 495.5 481.5 Q520 451 527 420 Z M169 398 L112 134 Q118 101 150 79 Q182 57 231 57 Q281 57 319.5 81 Q358 105 379 140 L436 404 Q430 437 398.5 459 Q367 481 316 481 Q267 481 228.5 457 Q190 433 169 398 Z M379 608 L308 608 L311 623 L406 765 L493 765 L483 723 L379 608 Z " />
<glyph glyph-name="ocircumflex" unicode="&#xf4;" horiz-adv-x="548" d="M527 420 L461 118 Q430 65 371.5 25.5 Q313 -14 225 -14 Q165 -14 121 6 Q77 26 52.5 56.5 Q28 87 21 118 L87 420 Q118 473 176.5 512.5 Q235 552 323 552 Q383 552 427 532 Q471 512 495.5 481.5 Q520 451 527 420 Z M169 398 L112 134 Q118 101 150 79 Q182 57 231 57 Q281 57 319.5 81 Q358 105 379 140 L436 404 Q430 437 398.5 459 Q367 481 316 481 Q267 481 228.5 457 Q190 433 169 398 Z M493 607 L437 607 L376 718 L265 607 L199 607 L203 623 L323 763 L437 763 L497 623 L493 607 Z " />
<glyph glyph-name="otilde" unicode="&#xf5;" horiz-adv-x="548" d="M527 420 L461 118 Q430 65 371.5 25.5 Q313 -14 225 -14 Q165 -14 121 6 Q77 26 52.5 56.5 Q28 87 21 118 L87 420 Q118 473 176.5 512.5 Q235 552 323 552 Q383 552 427 532 Q471 512 495.5 481.5 Q520 451 527 420 Z M169 398 L112 134 Q118 101 150 79 Q182 57 231 57 Q281 57 319.5 81 Q358 105 379 140 L436 404 Q430 437 398.5 459 Q367 481 316 481 Q267 481 228.5 457 Q190 433 169 398 Z M377 701 Q393 690 404 684.5 Q415 679 428 679 Q444 679 454 686 Q464 693 472 708 L476 727 L531 727 L522 684 Q489 620 428 620 Q404 620 386 628 Q368 636 345 652 Q328 663 318 668.5 Q308 674 295 674 Q278 674 268 666.5 Q258 659 251 646 L247 626 L192 626 L201 669 Q233 732 296 732 Q321 732 338.5 724 Q356 716 377 701 Z " />
<glyph glyph-name="odieresis" unicode="&#xf6;" horiz-adv-x="548" d="M527 420 L461 118 Q430 65 371.5 25.5 Q313 -14 225 -14 Q165 -14 121 6 Q77 26 52.5 56.5 Q28 87 21 118 L87 420 Q118 473 176.5 512.5 Q235 552 323 552 Q383 552 427 532 Q471 512 495.5 481.5 Q520 451 527 420 Z M169 398 L112 134 Q118 101 150 79 Q182 57 231 57 Q281 57 319.5 81 Q358 105 379 140 L436 404 Q430 437 398.5 459 Q367 481 316 481 Q267 481 228.5 457 Q190 433 169 398 Z M316 706 L302 644 Q295 637 281.5 631 Q268 625 249 625 Q230 625 219 631 Q208 637 204 644 L218 706 Q223 712 237.5 718.5 Q252 725 270 725 Q302 725 316 706 Z M518 706 L504 644 Q485 625 451 625 Q432 625 421 631 Q410 637 406 644 L420 706 Q426 713 440 719 Q454 725 473 725 Q504 725 518 706 Z " />
<glyph glyph-name="omacron" unicode="&#x14d;" horiz-adv-x="548" d="M527 420 L461 118 Q430 65 371.5 25.5 Q313 -14 225 -14 Q165 -14 121 6 Q77 26 52.5 56.5 Q28 87 21 118 L87 420 Q118 473 176.5 512.5 Q235 552 323 552 Q383 552 427 532 Q471 512 495.5 481.5 Q520 451 527 420 Z M169 398 L112 134 Q118 101 150 79 Q182 57 231 57 Q281 57 319.5 81 Q358 105 379 140 L436 404 Q430 437 398.5 459 Q367 481 316 481 Q267 481 228.5 457 Q190 433 169 398 Z M511 649 L198 649 L212 713 L524 713 L511 649 Z " />
<glyph glyph-name="obreve" unicode="&#x14f;" horiz-adv-x="548" d="M527 420 L461 118 Q430 65 371.5 25.5 Q313 -14 225 -14 Q165 -14 121 6 Q77 26 52.5 56.5 Q28 87 21 118 L87 420 Q118 473 176.5 512.5 Q235 552 323 552 Q383 552 427 532 Q471 512 495.5 481.5 Q520 451 527 420 Z M169 398 L112 134 Q118 101 150 79 Q182 57 231 57 Q281 57 319.5 81 Q358 105 379 140 L436 404 Q430 437 398.5 459 Q367 481 316 481 Q267 481 228.5 457 Q190 433 169 398 Z M506 679 Q486 648 449 626 Q412 604 355 604 Q297 604 262.5 626 Q228 648 218 679 L230 734 L297 734 L288 697 Q290 684 307 670.5 Q324 657 357 657 Q391 657 411.5 669.5 Q432 682 442 697 L451 734 L518 734 L506 679 Z " />
<glyph glyph-name="ohungarumlaut" unicode="&#x151;" horiz-adv-x="548" d="M527 420 L461 118 Q430 65 371.5 25.5 Q313 -14 225 -14 Q165 -14 121 6 Q77 26 52.5 56.5 Q28 87 21 118 L87 420 Q118 473 176.5 512.5 Q235 552 323 552 Q383 552 427 532 Q471 512 495.5 481.5 Q520 451 527 420 Z M169 398 L112 134 Q118 101 150 79 Q182 57 231 57 Q281 57 319.5 81 Q358 105 379 140 L436 404 Q430 437 398.5 459 Q367 481 316 481 Q267 481 228.5 457 Q190 433 169 398 Z M283 603 L220 603 L224 619 L302 759 L377 759 L369 723 L283 603 Z M462 603 L400 603 L404 619 L481 759 L556 759 L548 723 L462 603 Z " />
<glyph glyph-name="oslash" unicode="&#xf8;" horiz-adv-x="548" d="M544 501 L508 465 Q522 444 527 420 L461 118 Q430 65 371.5 25.5 Q313 -14 225 -14 Q136 -14 78 32 L46 0 L-4 0 L5 37 L40 73 Q25 97 21 118 L87 420 Q118 473 176.5 512.5 Q235 552 323 552 Q412 552 470 506 L503 538 L552 538 L544 501 Z M115 148 L412 448 Q379 481 316 481 Q267 481 228.5 457 Q190 433 169 398 L115 148 Z M433 390 L136 91 Q168 57 231 57 Q281 57 319.5 81 Q358 105 379 140 L433 390 Z " />
<glyph glyph-name="oe" unicode="&#x153;" horiz-adv-x="892" d="M491 255 L465 135 Q472 101 503 79 Q534 57 583 57 Q685 57 739 155 L817 155 L808 109 Q779 59 721.5 22.5 Q664 -14 577 -14 Q520 -14 477.5 4.5 Q435 23 408 53 Q336 -14 225 -14 Q165 -14 121 6 Q77 26 52.5 56.5 Q28 87 21 118 L87 420 Q118 473 176.5 512.5 Q235 552 323 552 Q381 552 423.5 533.5 Q466 515 493 485 Q567 552 677 552 Q736 552 779 532 Q822 512 846 483.5 Q870 455 876 429 L839 255 L491 255 Z M379 140 L436 404 Q430 437 398.5 459 Q367 481 316 481 Q267 481 228.5 457 Q190 433 169 398 L112 134 Q118 101 150 79 Q182 57 231 57 Q281 57 319.5 81 Q358 105 379 140 Z M523 404 L505 321 L771 321 L788 404 Q782 437 751 459 Q720 481 669 481 Q621 481 583.5 459 Q546 437 523 404 Z " />
<glyph glyph-name="racute" unicode="&#x155;" horiz-adv-x="354" d="M389 538 L372 458 L348 459 Q294 459 251 442.5 Q208 426 180 400 L94 0 L6 0 L122 538 L205 538 L189 468 Q223 501 264 520 Q305 539 361 539 Q378 539 389 538 Z M305 608 L234 608 L237 623 L332 765 L419 765 L409 723 L305 608 Z " />
<glyph glyph-name="rcaron" unicode="&#x159;" horiz-adv-x="354" d="M389 538 L372 458 L348 459 Q294 459 251 442.5 Q208 426 180 400 L94 0 L6 0 L122 538 L205 538 L189 468 Q223 501 264 520 Q305 539 361 539 Q378 539 389 538 Z M329 607 L215 607 L155 747 L159 763 L215 763 L277 652 L387 763 L453 763 L449 747 L329 607 Z " />
<glyph glyph-name="rcommaaccent" unicode="&#x157;" horiz-adv-x="354" d="M389 538 L372 458 L348 459 Q294 459 251 442.5 Q208 426 180 400 L94 0 L6 0 L122 538 L205 538 L189 468 Q223 501 264 520 Q305 539 361 539 Q378 539 389 538 Z M-32 -175 L-12 -175 Q8 -175 15 -164 L21 -137 Q4 -137 -9 -133 Q-22 -129 -24 -123 L-15 -76 Q2 -61 36 -61 Q67 -61 80 -76 L62 -169 Q42 -207 -8 -207 L-38 -207 L-32 -175 Z " />
<glyph glyph-name="sacute" unicode="&#x15b;" horiz-adv-x="486" d="M476 466 L466 421 L400 421 Q389 447 359 464.5 Q329 482 285 482 Q246 482 217 469 Q188 456 170 438 L154 366 Q167 337 237 317 L291 302 Q354 284 387 262 Q420 240 432 213 L404 84 Q376 44 325.5 15 Q275 -14 196 -14 Q115 -14 67.5 17 Q20 48 2 84 L12 130 L80 130 Q93 94 125 75 Q157 56 203 56 Q245 56 277 72 Q309 88 328 112 L344 184 Q337 201 316.5 213 Q296 225 260 235 L205 250 Q141 268 112 289 Q83 310 66 339 L94 466 Q117 497 168 524.5 Q219 552 293 552 Q366 552 412.5 525 Q459 498 476 466 Z M356 608 L285 608 L288 623 L383 765 L470 765 L460 723 L356 608 Z " />
<glyph glyph-name="scircumflex" unicode="&#x15d;" horiz-adv-x="486" d="M476 466 L466 421 L400 421 Q389 447 359 464.5 Q329 482 285 482 Q246 482 217 469 Q188 456 170 438 L154 366 Q167 337 237 317 L291 302 Q354 284 387 262 Q420 240 432 213 L404 84 Q376 44 325.5 15 Q275 -14 196 -14 Q115 -14 67.5 17 Q20 48 2 84 L12 130 L80 130 Q93 94 125 75 Q157 56 203 56 Q245 56 277 72 Q309 88 328 112 L344 184 Q337 201 316.5 213 Q296 225 260 235 L205 250 Q141 268 112 289 Q83 310 66 339 L94 466 Q117 497 168 524.5 Q219 552 293 552 Q366 552 412.5 525 Q459 498 476 466 Z M469 607 L413 607 L352 718 L241 607 L175 607 L179 623 L299 763 L413 763 L473 623 L469 607 Z " />
<glyph glyph-name="scaron" unicode="&#x161;" horiz-adv-x="486" d="M476 466 L466 421 L400 421 Q389 447 359 464.5 Q329 482 285 482 Q246 482 217 469 Q188 456 170 438 L154 366 Q167 337 237 317 L291 302 Q354 284 387 262 Q420 240 432 213 L404 84 Q376 44 325.5 15 Q275 -14 196 -14 Q115 -14 67.5 17 Q20 48 2 84 L12 130 L80 130 Q93 94 125 75 Q157 56 203 56 Q245 56 277 72 Q309 88 328 112 L344 184 Q337 201 316.5 213 Q296 225 260 235 L205 250 Q141 268 112 289 Q83 310 66 339 L94 466 Q117 497 168 524.5 Q219 552 293 552 Q366 552 412.5 525 Q459 498 476 466 Z M379 607 L265 607 L205 747 L209 763 L265 763 L327 652 L437 763 L503 763 L499 747 L379 607 Z " />
<glyph glyph-name="scedilla" unicode="&#x15f;" horiz-adv-x="486" d="M170 438 L154 366 Q167 337 237 317 L291 302 Q354 284 387 262 Q420 240 432 213 L404 84 Q378 48 333.5 20 Q289 -8 219 -13 L195 -52 L206 -52 Q235 -52 255.5 -66.5 Q276 -81 282 -99 L266 -169 Q230 -221 157 -221 Q128 -221 102.5 -214.5 Q77 -208 62 -198 L88 -153 Q121 -172 159 -172 Q179 -172 192.5 -165 Q206 -158 212 -148 L219 -116 Q216 -107 205.5 -101 Q195 -95 176 -95 L117 -95 L163 -12 Q97 -6 57 23 Q17 52 2 84 L12 130 L80 130 Q93 93 125 74.5 Q157 56 203 56 Q245 56 277 72 Q309 88 328 112 L344 184 Q337 201 316.5 213 Q296 225 260 235 L205 250 Q141 268 112 289 Q83 310 66 339 L94 466 Q117 497 168 524.5 Q219 552 293 552 Q366 552 412.5 525 Q459 498 476 466 L466 421 L400 421 Q389 447 359 464.5 Q329 482 285 482 Q246 482 217 469 Q188 456 170 438 Z " />
<glyph glyph-name="scommaaccent" unicode="&#x219;" horiz-adv-x="486" d="M476 466 L466 421 L400 421 Q389 447 359 464.5 Q329 482 285 482 Q246 482 217 469 Q188 456 170 438 L154 366 Q167 337 237 317 L291 302 Q354 284 387 262 Q420 240 432 213 L404 84 Q376 44 325.5 15 Q275 -14 196 -14 Q115 -14 67.5 17 Q20 48 2 84 L12 130 L80 130 Q93 94 125 75 Q157 56 203 56 Q245 56 277 72 Q309 88 328 112 L344 184 Q337 201 316.5 213 Q296 225 260 235 L205 250 Q141 268 112 289 Q83 310 66 339 L94 466 Q117 497 168 524.5 Q219 552 293 552 Q366 552 412.5 525 Q459 498 476 466 Z M121 -175 L141 -175 Q161 -175 168 -164 L174 -137 Q157 -137 144 -133 Q131 -129 129 -123 L138 -76 Q155 -61 189 -61 Q220 -61 233 -76 L215 -169 Q195 -207 145 -207 L115 -207 L121 -175 Z " />
<glyph glyph-name="germandbls" unicode="&#xdf;" horiz-adv-x="553" d="M558 606 L522 439 Q504 413 474.5 393.5 Q445 374 414 363 Q489 328 504 266 L472 118 Q434 52 373.5 26 Q313 0 215 0 L231 71 Q288 71 324 84 Q360 97 390 142 L414 251 Q406 290 373 310.5 Q340 331 298 331 L312 400 Q350 400 384 416 Q418 432 445 459 L471 577 Q460 607 430.5 625.5 Q401 644 357 644 Q312 644 276.5 625 Q241 606 218 577 L94 0 L7 0 L136 597 Q164 644 223 679 Q282 714 361 714 Q440 714 490.5 680 Q541 646 558 606 Z " />
<glyph glyph-name="tcaron" unicode="&#x165;" horiz-adv-x="390" d="M231 471 L153 108 Q169 59 253 59 Q281 59 299 63 L285 -1 Q256 -9 220 -9 Q145 -9 108.5 18 Q72 45 60 82 L144 471 L74 471 L89 538 L158 538 L183 652 L270 652 L245 538 L381 538 L366 471 L231 471 Z M463 743 L399 613 L342 613 L346 628 L400 790 L473 790 L463 743 Z " />
<glyph glyph-name="uni021B" unicode="&#x21b;" horiz-adv-x="352" d="M222 471 L144 108 Q160 59 244 59 Q272 59 290 63 L276 -1 Q247 -9 211 -9 Q136 -9 99.5 18 Q63 45 51 82 L135 471 L65 471 L80 538 L149 538 L174 652 L261 652 L236 538 L372 538 L357 471 L222 471 Z M86 -175 L106 -175 Q126 -175 133 -164 L139 -137 Q122 -137 109 -133 Q96 -129 94 -123 L103 -76 Q120 -61 154 -61 Q185 -61 198 -76 L180 -169 Q160 -207 110 -207 L80 -207 L86 -175 Z " />
<glyph glyph-name="tbar" unicode="&#x167;" horiz-adv-x="352" d="M231 471 L199 320 L335 320 L321 253 L184 253 L153 108 Q169 59 253 59 Q281 59 299 63 L285 -1 Q256 -9 220 -9 Q145 -9 108.5 18 Q72 45 60 82 L97 253 L29 253 L43 320 L111 320 L144 471 L74 471 L89 538 L158 538 L183 652 L270 652 L245 538 L381 538 L366 471 L231 471 Z " />
<glyph glyph-name="ugrave" unicode="&#xf9;" horiz-adv-x="546" d="M539 538 L423 0 L341 0 L351 43 Q289 -12 200 -12 Q123 -12 79.5 22.5 Q36 57 23 96 L119 538 L206 538 L116 118 Q124 96 151.5 77 Q179 58 225 58 Q308 58 362 114 L452 538 L539 538 Z M380 608 L320 608 L263 723 L273 765 L349 765 L384 623 L380 608 Z " />
<glyph glyph-name="uacute" unicode="&#xfa;" horiz-adv-x="546" d="M539 538 L423 0 L341 0 L351 43 Q289 -12 200 -12 Q123 -12 79.5 22.5 Q36 57 23 96 L119 538 L206 538 L116 118 Q124 96 151.5 77 Q179 58 225 58 Q308 58 362 114 L452 538 L539 538 Z M379 608 L308 608 L311 623 L406 765 L493 765 L483 723 L379 608 Z " />
<glyph glyph-name="ucircumflex" unicode="&#xfb;" horiz-adv-x="546" d="M539 538 L423 0 L341 0 L351 43 Q289 -12 200 -12 Q123 -12 79.5 22.5 Q36 57 23 96 L119 538 L206 538 L116 118 Q124 96 151.5 77 Q179 58 225 58 Q308 58 362 114 L452 538 L539 538 Z M493 607 L437 607 L376 718 L265 607 L199 607 L203 623 L323 763 L437 763 L497 623 L493 607 Z " />
<glyph glyph-name="utilde" unicode="&#x169;" horiz-adv-x="546" d="M539 538 L423 0 L341 0 L351 43 Q289 -12 200 -12 Q123 -12 79.5 22.5 Q36 57 23 96 L119 538 L206 538 L116 118 Q124 96 151.5 77 Q179 58 225 58 Q308 58 362 114 L452 538 L539 538 Z M377 701 Q393 690 404 684.5 Q415 679 428 679 Q444 679 454 686 Q464 693 472 708 L476 727 L531 727 L522 684 Q489 620 428 620 Q404 620 386 628 Q368 636 345 652 Q328 663 318 668.5 Q308 674 295 674 Q278 674 268 666.5 Q258 659 251 646 L247 626 L192 626 L201 669 Q233 732 296 732 Q321 732 338.5 724 Q356 716 377 701 Z " />
<glyph glyph-name="udieresis" unicode="&#xfc;" horiz-adv-x="546" d="M539 538 L423 0 L341 0 L351 43 Q289 -12 200 -12 Q123 -12 79.5 22.5 Q36 57 23 96 L119 538 L206 538 L116 118 Q124 96 151.5 77 Q179 58 225 58 Q308 58 362 114 L452 538 L539 538 Z M316 706 L302 644 Q295 637 281.5 631 Q268 625 249 625 Q230 625 219 631 Q208 637 204 644 L218 706 Q223 712 237.5 718.5 Q252 725 270 725 Q302 725 316 706 Z M518 706 L504 644 Q485 625 451 625 Q432 625 421 631 Q410 637 406 644 L420 706 Q426 713 440 719 Q454 725 473 725 Q504 725 518 706 Z " />
<glyph glyph-name="umacron" unicode="&#x16b;" horiz-adv-x="546" d="M539 538 L423 0 L341 0 L351 43 Q289 -12 200 -12 Q123 -12 79.5 22.5 Q36 57 23 96 L119 538 L206 538 L116 118 Q124 96 151.5 77 Q179 58 225 58 Q308 58 362 114 L452 538 L539 538 Z M511 649 L198 649 L212 713 L524 713 L511 649 Z " />
<glyph glyph-name="ubreve" unicode="&#x16d;" horiz-adv-x="546" d="M539 538 L423 0 L341 0 L351 43 Q289 -12 200 -12 Q123 -12 79.5 22.5 Q36 57 23 96 L119 538 L206 538 L116 118 Q124 96 151.5 77 Q179 58 225 58 Q308 58 362 114 L452 538 L539 538 Z M506 679 Q486 648 449 626 Q412 604 355 604 Q297 604 262.5 626 Q228 648 218 679 L230 734 L297 734 L288 697 Q290 684 307 670.5 Q324 657 357 657 Q391 657 411.5 669.5 Q432 682 442 697 L451 734 L518 734 L506 679 Z " />
<glyph glyph-name="uring" unicode="&#x16f;" horiz-adv-x="546" d="M539 538 L423 0 L341 0 L351 43 Q289 -12 200 -12 Q123 -12 79.5 22.5 Q36 57 23 96 L119 538 L206 538 L116 118 Q124 96 151.5 77 Q179 58 225 58 Q308 58 362 114 L452 538 L539 538 Z M480 740 L462 652 Q447 628 417.5 613 Q388 598 351 598 Q314 598 286 613.5 Q258 629 249 652 L267 740 Q282 763 312 778.5 Q342 794 379 794 Q416 794 443 778.5 Q470 763 480 740 Z M313 724 L300 667 Q305 657 318 649.5 Q331 642 353 642 Q393 642 416 667 L428 724 Q424 735 411.5 742.5 Q399 750 376 750 Q335 750 313 724 Z " />
<glyph glyph-name="uhungarumlaut" unicode="&#x171;" horiz-adv-x="546" d="M539 538 L423 0 L341 0 L351 43 Q289 -12 200 -12 Q123 -12 79.5 22.5 Q36 57 23 96 L119 538 L206 538 L116 118 Q124 96 151.5 77 Q179 58 225 58 Q308 58 362 114 L452 538 L539 538 Z M283 603 L220 603 L224 619 L302 759 L377 759 L369 723 L283 603 Z M462 603 L400 603 L404 619 L481 759 L556 759 L548 723 L462 603 Z " />
<glyph glyph-name="uogonek" unicode="&#x173;" horiz-adv-x="546" d="M300 -106 L292 -137 Q295 -145 308.5 -151 Q322 -157 339 -157 Q365 -157 394 -146 L382 -200 Q354 -215 314 -215 Q279 -215 252 -201.5 Q225 -188 220 -165 L235 -95 Q249 -75 276.5 -49 Q304 -23 341 0 L351 43 Q289 -12 200 -12 Q123 -12 79.5 22.5 Q36 57 23 96 L119 538 L206 538 L116 118 Q124 96 151.5 77 Q179 58 225 58 Q308 58 362 114 L452 538 L539 538 L423 0 Q370 -34 340 -62 Q310 -90 300 -106 Z " />
<glyph glyph-name="wgrave" unicode="&#x1e81;" horiz-adv-x="776" d="M788 485 L556 0 L451 0 L422 416 L419 416 L214 0 L108 0 L85 485 L96 538 L166 538 L179 92 L182 92 L402 538 L489 538 L516 92 L519 92 L723 538 L799 538 L788 485 Z M494 608 L434 608 L377 723 L387 765 L463 765 L498 623 L494 608 Z " />
<glyph glyph-name="wacute" unicode="&#x1e83;" horiz-adv-x="776" d="M788 485 L556 0 L451 0 L422 416 L419 416 L214 0 L108 0 L85 485 L96 538 L166 538 L179 92 L182 92 L402 538 L489 538 L516 92 L519 92 L723 538 L799 538 L788 485 Z M493 608 L422 608 L425 623 L520 765 L607 765 L597 723 L493 608 Z " />
<glyph glyph-name="wcircumflex" unicode="&#x175;" horiz-adv-x="776" d="M788 485 L556 0 L451 0 L422 416 L419 416 L214 0 L108 0 L85 485 L96 538 L166 538 L179 92 L182 92 L402 538 L489 538 L516 92 L519 92 L723 538 L799 538 L788 485 Z M607 607 L551 607 L490 718 L379 607 L313 607 L317 623 L437 763 L551 763 L611 623 L607 607 Z " />
<glyph glyph-name="wdieresis" unicode="&#x1e85;" horiz-adv-x="776" d="M788 485 L556 0 L451 0 L422 416 L419 416 L214 0 L108 0 L85 485 L96 538 L166 538 L179 92 L182 92 L402 538 L489 538 L516 92 L519 92 L723 538 L799 538 L788 485 Z M430 706 L416 644 Q409 637 395.5 631 Q382 625 363 625 Q344 625 333 631 Q322 637 318 644 L332 706 Q337 712 351.5 718.5 Q366 725 384 725 Q416 725 430 706 Z M632 706 L618 644 Q599 625 565 625 Q546 625 535 631 Q524 637 520 644 L534 706 Q540 713 554 719 Q568 725 587 725 Q618 725 632 706 Z " />
<glyph glyph-name="ygrave" unicode="&#x1ef3;" horiz-adv-x="506" d="M454 538 L531 538 L520 486 L196 -97 Q160 -139 115 -156 Q70 -173 13 -173 Q-24 -173 -54 -167 L-39 -101 Q-21 -104 2 -104 Q46 -104 75 -92 Q104 -80 126 -58 L158 3 L84 484 L96 538 L164 538 L221 108 L224 108 L454 538 Z M360 608 L300 608 L243 723 L253 765 L329 765 L364 623 L360 608 Z " />
<glyph glyph-name="yacute" unicode="&#xfd;" horiz-adv-x="506" d="M454 538 L531 538 L520 486 L196 -97 Q160 -139 115 -156 Q70 -173 13 -173 Q-24 -173 -54 -167 L-39 -101 Q-21 -104 2 -104 Q46 -104 75 -92 Q104 -80 126 -58 L158 3 L84 484 L96 538 L164 538 L221 108 L224 108 L454 538 Z M358 608 L287 608 L290 623 L385 765 L472 765 L462 723 L358 608 Z " />
<glyph glyph-name="ycircumflex" unicode="&#x177;" horiz-adv-x="506" d="M454 538 L531 538 L520 486 L196 -97 Q160 -139 115 -156 Q70 -173 13 -173 Q-24 -173 -54 -167 L-39 -101 Q-21 -104 2 -104 Q46 -104 75 -92 Q104 -80 126 -58 L158 3 L84 484 L96 538 L164 538 L221 108 L224 108 L454 538 Z M472 607 L416 607 L355 718 L244 607 L178 607 L182 623 L302 763 L416 763 L476 623 L472 607 Z " />
<glyph glyph-name="ydieresis" unicode="&#xff;" horiz-adv-x="506" d="M454 538 L531 538 L520 486 L196 -97 Q160 -139 115 -156 Q70 -173 13 -173 Q-24 -173 -54 -167 L-39 -101 Q-21 -104 2 -104 Q46 -104 75 -92 Q104 -80 126 -58 L158 3 L84 484 L96 538 L164 538 L221 108 L224 108 L454 538 Z M295 706 L281 644 Q274 637 260.5 631 Q247 625 228 625 Q209 625 198 631 Q187 637 183 644 L197 706 Q202 712 216.5 718.5 Q231 725 249 725 Q281 725 295 706 Z M497 706 L483 644 Q464 625 430 625 Q411 625 400 631 Q389 637 385 644 L399 706 Q405 713 419 719 Q433 725 452 725 Q483 725 497 706 Z " />
<glyph glyph-name="zacute" unicode="&#x17a;" horiz-adv-x="471" d="M486 480 L95 67 L397 67 L382 0 L-27 0 L-14 61 L372 471 L82 471 L97 538 L498 538 L486 480 Z M338 608 L267 608 L270 623 L365 765 L452 765 L442 723 L338 608 Z " />
<glyph glyph-name="zcaron" unicode="&#x17e;" horiz-adv-x="471" d="M486 480 L95 67 L397 67 L382 0 L-27 0 L-14 61 L372 471 L82 471 L97 538 L498 538 L486 480 Z M362 607 L248 607 L188 747 L192 763 L248 763 L310 652 L420 763 L486 763 L482 747 L362 607 Z " />
<glyph glyph-name="zdotaccent" unicode="&#x17c;" horiz-adv-x="471" d="M486 480 L95 67 L397 67 L382 0 L-27 0 L-14 61 L372 471 L82 471 L97 538 L498 538 L486 480 Z M377 701 L366 650 Q359 640 344 633 Q329 626 309 626 Q290 626 277.5 633 Q265 640 263 650 L274 701 Q281 711 296.5 718.5 Q312 726 331 726 Q351 726 362.5 718.5 Q374 711 377 701 Z " />
<glyph glyph-name="eng" unicode="&#x14b;" horiz-adv-x="554" d="M529 440 L424 -48 Q394 -106 330.5 -143 Q267 -180 176 -180 L191 -111 Q239 -111 280 -85 Q321 -59 342 -23 L437 419 Q429 442 401.5 461 Q374 480 328 480 Q283 480 245.5 463 Q208 446 184 420 L94 0 L7 0 L123 538 L205 538 L195 493 Q264 550 354 550 Q408 550 445 531.5 Q482 513 502 488 Q522 463 529 440 Z " />
<glyph glyph-name="eth" unicode="&#xf0;" horiz-adv-x="547" d="M569 617 L502 596 Q537 553 548 514 L462 118 Q430 63 370.5 24.5 Q311 -14 225 -14 Q137 -14 87 26 Q37 66 22 118 L74 356 Q100 407 160 447 Q220 487 300 487 Q344 487 381.5 472 Q419 457 443 432 L457 497 Q449 532 416 570 L235 515 L247 572 L372 610 Q341 634 304 652 Q267 670 232 679 L292 731 Q385 701 461 637 L582 673 L569 617 Z M427 359 Q384 416 303 416 Q253 416 215.5 394 Q178 372 157 337 L114 136 Q121 103 152.5 80 Q184 57 233 57 Q282 57 319.5 79.5 Q357 102 380 137 L427 359 Z " />
<glyph glyph-name="thorn" unicode="&#xfe;" horiz-adv-x="547" d="M530 440 L457 99 Q428 55 378.5 21.5 Q329 -12 254 -12 Q203 -12 165.5 5 Q128 22 105 50 L58 -166 L-29 -166 L157 700 L244 700 L201 497 Q265 550 354 550 Q408 550 445.5 531.5 Q483 513 503 488 Q523 463 530 440 Z M437 419 Q429 442 402 461 Q375 480 328 480 Q281 480 245 463 Q209 446 184 420 L119 118 Q135 92 167.5 75 Q200 58 243 58 Q326 58 373 119 L437 419 Z " />
<glyph glyph-name="longs" unicode="&#x17f;" horiz-adv-x="325" d="M405 712 L391 648 Q363 652 343 652 Q294 652 265.5 636.5 Q237 621 224 601 L95 0 L8 0 L143 629 Q162 664 206.5 692 Q251 720 320 720 Q376 720 405 712 Z " />
<glyph glyph-name="fi" unicode="&#xfb01;" horiz-adv-x="565" d="M430 712 L416 648 Q388 652 368 652 Q319 652 290.5 636 Q262 620 249 601 L236 538 L372 538 L357 471 L221 471 L120 0 L33 0 L134 471 L65 471 L80 538 L149 538 L168 629 Q187 664 231.5 692 Q276 720 345 720 Q401 720 430 712 Z M438 0 L350 0 L466 538 L554 538 L438 0 Z M596 701 L585 650 Q578 640 563 633 Q548 626 528 626 Q509 626 496.5 633 Q484 640 482 650 L493 701 Q500 711 515.5 718.5 Q531 726 550 726 Q570 726 581.5 718.5 Q593 711 596 701 Z " />
<glyph glyph-name="fl" unicode="&#xfb02;" horiz-adv-x="557" d="M430 712 L416 648 Q388 652 368 652 Q319 652 290.5 636 Q262 620 249 601 L236 538 L372 538 L357 471 L221 471 L120 0 L33 0 L134 471 L65 471 L80 538 L149 538 L168 629 Q187 664 231.5 692 Q276 720 345 720 Q401 720 430 712 Z M434 0 L346 0 L496 700 L584 700 L434 0 Z " />
<glyph glyph-name="ampersand" unicode="&#x26;" horiz-adv-x="666" d="M606 60 L592 0 L549 0 L483 79 Q383 -14 255 -14 Q159 -14 102 25.5 Q45 65 29 118 L63 271 Q88 310 131.5 340 Q175 370 230 385 L217 400 Q172 456 163 487 L189 614 Q217 651 273.5 682 Q330 713 409 713 Q487 713 534.5 682.5 Q582 652 602 615 L592 567 L523 567 Q512 598 482.5 620.5 Q453 643 399 643 Q356 643 323.5 627.5 Q291 612 271 591 L253 508 Q256 493 265.5 478 Q275 463 293 440 L472 223 L503 371 L582 371 L534 147 L606 60 Z M437 134 L274 332 Q234 323 198.5 301 Q163 279 145 252 L120 137 Q132 100 172.5 78.5 Q213 57 266 57 Q316 57 359.5 77.5 Q403 98 437 134 Z " />
<glyph glyph-name="grave" unicode="&#x60;" horiz-adv-x="430" d="M359 608 L299 608 L242 723 L252 765 L328 765 L363 623 L359 608 Z " />
<glyph glyph-name="acute" unicode="&#xb4;" horiz-adv-x="430" d="M284 608 L213 608 L216 623 L311 765 L398 765 L388 723 L284 608 Z " />
<glyph glyph-name="circumflex" unicode="&#x2c6;" horiz-adv-x="430" d="M434 607 L378 607 L317 718 L206 607 L140 607 L144 623 L264 763 L378 763 L438 623 L434 607 Z " />
<glyph glyph-name="caron" unicode="&#x2c7;" horiz-adv-x="430" d="M344 607 L230 607 L170 747 L174 763 L230 763 L292 652 L402 763 L468 763 L464 747 L344 607 Z " />
<glyph glyph-name="tilde" unicode="&#x2dc;" horiz-adv-x="430" d="M318 701 Q334 690 345 684.5 Q356 679 369 679 Q385 679 395 686 Q405 693 413 708 L417 727 L472 727 L463 684 Q430 620 369 620 Q345 620 327 628 Q309 636 286 652 Q269 663 259 668.5 Q249 674 236 674 Q219 674 209 666.5 Q199 659 192 646 L188 626 L133 626 L142 669 Q174 732 237 732 Q262 732 279.5 724 Q297 716 318 701 Z " />
<glyph glyph-name="dieresis" unicode="&#xa8;" horiz-adv-x="430" d="M258 706 L244 644 Q237 637 223.5 631 Q210 625 191 625 Q172 625 161 631 Q150 637 146 644 L160 706 Q165 712 179.5 718.5 Q194 725 212 725 Q244 725 258 706 Z M460 706 L446 644 Q427 625 393 625 Q374 625 363 631 Q352 637 348 644 L362 706 Q368 713 382 719 Q396 725 415 725 Q446 725 460 706 Z " />
<glyph glyph-name="breve" unicode="&#x2d8;" horiz-adv-x="430" d="M447 679 Q427 648 390 626 Q353 604 296 604 Q238 604 203.5 626 Q169 648 159 679 L171 734 L238 734 L229 697 Q231 684 248 670.5 Q265 657 298 657 Q332 657 352.5 669.5 Q373 682 383 697 L392 734 L459 734 L447 679 Z " />
<glyph glyph-name="ring" unicode="&#x2da;" horiz-adv-x="430" d="M422 740 L404 652 Q389 628 359.5 613 Q330 598 293 598 Q256 598 228 613.5 Q200 629 191 652 L209 740 Q224 763 254 778.5 Q284 794 321 794 Q358 794 385 778.5 Q412 763 422 740 Z M255 724 L242 667 Q247 657 260 649.5 Q273 642 295 642 Q335 642 358 667 L370 724 Q366 735 353.5 742.5 Q341 750 318 750 Q277 750 255 724 Z " />
<glyph glyph-name="hungarumlaut" unicode="&#x2dd;" horiz-adv-x="430" d="M200 603 L137 603 L141 619 L219 759 L294 759 L286 723 L200 603 Z M379 603 L317 603 L321 619 L398 759 L473 759 L465 723 L379 603 Z " />
<glyph glyph-name="dotaccent" unicode="&#x2d9;" horiz-adv-x="430" d="M359 701 L348 650 Q341 640 326 633 Q311 626 291 626 Q272 626 259.5 633 Q247 640 245 650 L256 701 Q263 711 278.5 718.5 Q294 726 313 726 Q333 726 344.5 718.5 Q356 711 359 701 Z " />
<glyph glyph-name="cedilla" unicode="&#xb8;" horiz-adv-x="430" d="M151 -52 L161 -52 Q190 -52 211 -66.5 Q232 -81 237 -99 L221 -169 Q186 -221 112 -221 Q84 -221 58 -214.5 Q32 -208 17 -198 L43 -153 Q76 -172 115 -172 Q134 -172 147.5 -165 Q161 -158 168 -148 L174 -116 Q171 -107 160.5 -101 Q150 -95 131 -95 L72 -95 L128 5 L186 5 L151 -52 Z " />
<glyph glyph-name="ogonek" unicode="&#x2db;" horiz-adv-x="430" d="M263 0 Q209 -34 179 -62 Q149 -90 139 -106 L132 -137 Q135 -145 148.5 -151 Q162 -157 179 -157 Q205 -157 233 -146 L222 -200 Q194 -215 154 -215 Q119 -215 92 -201.5 Q65 -188 59 -165 L75 -95 Q91 -71 127 -39.5 Q163 -8 212 18 L263 0 Z " />
<glyph glyph-name="comma" unicode="&#x2c;" horiz-adv-x="183" d="M101 72 L72 -63 Q62 -83 42 -96 Q22 -109 -7 -109 L-33 -109 L-24 -68 L-6 -68 Q10 -68 22 -54 L31 -12 Q13 -12 1 -4.5 Q-11 3 -14 12 L-1 73 Q6 83 19.5 90 Q33 97 52 97 Q70 97 83 89.5 Q96 82 101 72 Z " />
<glyph glyph-name="semicolon" unicode="&#x3b;" horiz-adv-x="201" d="M109 72 L80 -63 Q70 -83 50 -96 Q30 -109 1 -109 L-25 -109 L-16 -68 L2 -68 Q18 -68 30 -54 L39 -12 Q21 -12 9 -4.5 Q-3 3 -6 12 L7 73 Q14 83 27.5 90 Q41 97 60 97 Q78 97 91 89.5 Q104 82 109 72 Z M196 471 L184 415 Q177 405 163.5 398 Q150 391 131 391 Q112 391 99 398.5 Q86 406 82 415 L94 471 Q100 482 114 489 Q128 496 146 496 Q166 496 179.5 488.5 Q193 481 196 471 Z " />
<glyph glyph-name="colon" unicode="&#x3a;" horiz-adv-x="201" d="M109 72 L97 16 Q90 6 76.5 -1 Q63 -8 44 -8 Q25 -8 12 -0.5 Q-1 7 -5 16 L7 72 Q13 83 27 90 Q41 97 59 97 Q79 97 92.5 89.5 Q106 82 109 72 Z M196 471 L184 415 Q177 405 163.5 398 Q150 391 131 391 Q112 391 99 398.5 Q86 406 82 415 L94 471 Q100 482 114 489 Q128 496 146 496 Q166 496 179.5 488.5 Q193 481 196 471 Z " />
<glyph glyph-name="period" unicode="&#x2e;" horiz-adv-x="183" d="M101 72 L89 16 Q82 6 68.5 -1 Q55 -8 36 -8 Q17 -8 4 -0.5 Q-9 7 -13 16 L-1 72 Q5 83 19 90 Q33 97 51 97 Q71 97 84.5 89.5 Q98 82 101 72 Z " />
<glyph glyph-name="ellipsis" unicode="&#x2026;" horiz-adv-x="543" d="M100 69 L89 16 Q83 7 67.5 -0.5 Q52 -8 32 -8 Q13 -8 1.5 -0.5 Q-10 7 -13 16 L-2 69 Q4 79 19 86.5 Q34 94 54 94 Q74 94 85.5 86.5 Q97 79 100 69 Z M281 69 L269 16 Q263 7 247.5 -0.5 Q232 -8 213 -8 Q194 -8 182 -0.5 Q170 7 167 16 L179 69 Q185 79 200 86.5 Q215 94 234 94 Q254 94 266 86.5 Q278 79 281 69 Z M460 69 L449 16 Q443 7 427.5 -0.5 Q412 -8 392 -8 Q374 -8 362 -0.5 Q350 7 347 16 L358 69 Q364 79 379 86.5 Q394 94 414 94 Q434 94 446 86.5 Q458 79 460 69 Z " />
<glyph glyph-name="hyphen" unicode="&#x2d;" horiz-adv-x="363" d="M328 302 L50 302 L65 373 L343 373 L328 302 Z " />
<glyph glyph-name="exclam" unicode="&#x21;" horiz-adv-x="267" d="M252 590 L148 159 L73 159 L153 590 L177 700 L275 700 L252 590 Z M144 72 L132 16 Q116 -8 78 -8 Q59 -8 46.5 -0.5 Q34 7 30 16 L42 72 Q48 83 62 90 Q76 97 94 97 Q114 97 127 89.5 Q140 82 144 72 Z " />
<glyph glyph-name="exclamdown" unicode="&#xa1;" horiz-adv-x="267" d="M123 470 L135 526 Q154 551 189 551 Q208 551 221 543 Q234 535 237 526 L225 470 Q219 460 205 453 Q191 446 173 446 Q153 446 140 453 Q127 460 123 470 Z M15 -47 L119 383 L194 383 L114 -47 L90 -158 L-8 -158 L15 -47 Z " />
<glyph glyph-name="question" unicode="&#x3f;" horiz-adv-x="528" d="M563 599 L525 429 Q498 393 429 352 L254 242 L238 166 L148 166 L173 280 L358 396 Q423 436 442 463 L466 573 Q451 601 418.5 620 Q386 639 339 639 Q286 639 242.5 614.5 Q199 590 176 555 L96 555 L107 607 Q202 714 353 714 Q441 714 491.5 679 Q542 644 563 599 Z M226 72 L213 16 Q197 -8 160 -8 Q141 -8 128.5 -0.5 Q116 7 111 16 L124 72 Q130 83 144 90 Q158 97 176 97 Q196 97 209 89.5 Q222 82 226 72 Z " />
<glyph glyph-name="questiondown" unicode="&#xbf;" horiz-adv-x="528" d="M302 471 L314 527 Q321 537 334.5 544.5 Q348 552 367 552 Q386 552 399.5 544.5 Q413 537 416 527 L404 471 Q398 461 384 454 Q370 447 352 447 Q332 447 319 454 Q306 461 302 471 Z M-35 -55 L2 114 Q28 149 99 192 L273 302 L289 378 L379 378 L355 264 L170 148 Q103 106 86 80 L61 -29 Q76 -58 108.5 -77 Q141 -96 189 -96 Q242 -96 285.5 -71 Q329 -46 352 -11 L431 -11 L420 -64 Q382 -108 322 -139 Q262 -170 175 -170 Q87 -170 36 -135.5 Q-15 -101 -35 -55 Z " />
<glyph glyph-name="quoteleft" unicode="&#x2018;" horiz-adv-x="186" d="M91 529 L120 664 Q130 684 150 697 Q170 710 199 710 L225 710 L216 669 L198 669 Q181 669 170 655 L160 614 Q178 614 190.5 606 Q203 598 206 589 L193 528 Q185 519 171.5 511.5 Q158 504 139 504 Q121 504 108.5 511.5 Q96 519 91 529 Z " />
<glyph glyph-name="quoteright" unicode="&#x2019;" horiz-adv-x="186" d="M242 689 L213 554 Q203 534 183 521 Q163 508 134 508 L108 508 L117 549 L135 549 Q151 549 163 563 L172 605 Q154 605 142 612.5 Q130 620 127 629 L140 690 Q147 700 160.5 707 Q174 714 193 714 Q211 714 224 706.5 Q237 699 242 689 Z " />
<glyph glyph-name="quotedblleft" unicode="&#x201c;" horiz-adv-x="360" d="M98 530 L127 665 Q137 685 157 698 Q177 711 207 711 L232 711 L223 670 L206 670 Q189 670 178 656 L168 614 Q187 614 199 606.5 Q211 599 213 590 L200 529 Q193 519 179.5 512 Q166 505 147 505 Q129 505 116.5 512.5 Q104 520 98 530 Z M272 530 L301 665 Q311 685 331.5 698 Q352 711 381 711 L406 711 L397 670 L380 670 Q363 670 352 656 L342 614 Q361 614 373 606.5 Q385 599 387 590 L374 529 Q367 519 353.5 512 Q340 505 321 505 Q303 505 290.5 512.5 Q278 520 272 530 Z " />
<glyph glyph-name="quotedblright" unicode="&#x201d;" horiz-adv-x="360" d="M241 689 L212 554 Q202 534 182 521 Q162 508 133 508 L107 508 L116 549 L134 549 Q150 549 162 563 L171 605 Q153 605 141 612.5 Q129 620 126 629 L139 690 Q146 700 159.5 707 Q173 714 192 714 Q210 714 223 706.5 Q236 699 241 689 Z M415 689 L386 554 Q376 534 356 521 Q336 508 307 508 L281 508 L290 549 L308 549 Q324 549 336 563 L345 605 Q327 605 315 612.5 Q303 620 300 629 L313 690 Q320 700 333.5 707 Q347 714 366 714 Q384 714 397 706.5 Q410 699 415 689 Z " />
<glyph glyph-name="quotesinglbase" unicode="&#x201a;" horiz-adv-x="186" d="M113 72 L84 -63 Q74 -83 54 -96 Q34 -109 5 -109 L-21 -109 L-12 -68 L6 -68 Q22 -68 34 -54 L43 -12 Q25 -12 13 -4.5 Q1 3 -2 12 L11 73 Q18 83 31.5 90 Q45 97 64 97 Q82 97 95 89.5 Q108 82 113 72 Z " />
<glyph glyph-name="quotedblbase" unicode="&#x201e;" horiz-adv-x="361" d="M101 72 L72 -63 Q62 -83 42 -96 Q22 -109 -7 -109 L-33 -109 L-24 -68 L-6 -68 Q10 -68 22 -54 L31 -12 Q13 -12 1 -4.5 Q-11 3 -14 12 L-1 73 Q6 83 19.5 90 Q33 97 52 97 Q70 97 83 89.5 Q96 82 101 72 Z M276 72 L247 -63 Q237 -83 217 -96 Q197 -109 168 -109 L142 -109 L151 -68 L169 -68 Q185 -68 197 -54 L206 -12 Q188 -12 176 -4.5 Q164 3 161 12 L174 73 Q181 83 194.5 90 Q208 97 227 97 Q245 97 258 89.5 Q271 82 276 72 Z " />
<glyph glyph-name="guilsinglleft" unicode="&#x2039;" horiz-adv-x="337" d="M335 490 L119 292 L251 100 L241 52 L193 52 L41 266 L55 329 L281 538 L345 538 L335 490 Z " />
<glyph glyph-name="guilsinglright" unicode="&#x203a;" horiz-adv-x="337" d="M14 100 L230 298 L97 490 L107 538 L155 538 L307 324 L294 261 L68 52 L3 52 L14 100 Z " />
<glyph glyph-name="guillemotleft" unicode="&#xab;" horiz-adv-x="591" d="M335 490 L119 292 L251 100 L241 52 L193 52 L41 266 L55 329 L281 538 L345 538 L335 490 Z M589 490 L374 292 L506 100 L496 52 L448 52 L296 266 L309 329 L535 538 L600 538 L589 490 Z " />
<glyph glyph-name="guillemotright" unicode="&#xbb;" horiz-adv-x="591" d="M14 100 L230 298 L97 490 L107 538 L155 538 L307 324 L294 261 L68 52 L3 52 L14 100 Z M268 100 L484 298 L352 490 L362 538 L410 538 L562 324 L548 261 L323 52 L258 52 L268 100 Z " />
<glyph glyph-name="slash" unicode="&#x2f;" horiz-adv-x="390" d="M429 683 L41 -110 L-33 -110 L-22 -62 L365 731 L439 731 L429 683 Z " />
<glyph glyph-name="bar" unicode="&#x7c;" horiz-adv-x="324" d="M228 -130 L135 -130 L135 790 L228 790 L228 -130 Z " />
<glyph glyph-name="endash" unicode="&#x2013;" horiz-adv-x="563" d="M528 302 L50 302 L65 373 L543 373 L528 302 Z " />
<glyph glyph-name="emdash" unicode="&#x2014;" horiz-adv-x="863" d="M828 302 L50 302 L65 373 L843 373 L828 302 Z " />
<glyph glyph-name="bullet" unicode="&#x2022;" horiz-adv-x="327" d="M293 410 L270 301 Q233 253 164 253 Q131 253 106 267 Q81 281 71 302 L94 410 Q110 431 137.5 444 Q165 457 198 457 Q232 457 257.5 443.5 Q283 430 293 410 Z " />
<glyph glyph-name="parenleft" unicode="&#x28;" horiz-adv-x="367" d="M408 634 L400 634 Q343 634 292.5 596.5 Q242 559 215 509 L110 19 Q113 -32 145 -67 Q177 -102 242 -102 L249 -102 L235 -168 L228 -168 Q130 -168 77.5 -121 Q25 -74 8 -10 L126 542 Q145 581 185 617.5 Q225 654 281 677 Q337 700 401 700 L421 700 L408 634 Z " />
<glyph glyph-name="parenright" unicode="&#x29;" horiz-adv-x="367" d="M-41 -102 L-34 -102 Q23 -102 73.5 -64.5 Q124 -27 151 23 L256 513 Q253 564 221.5 599 Q190 634 125 634 L117 634 L131 700 L139 700 Q238 700 290 653 Q342 606 358 542 L240 -10 Q221 -49 181 -85.5 Q141 -122 85 -145 Q29 -168 -35 -168 L-55 -168 L-41 -102 Z " />
<glyph glyph-name="bracketleft" unicode="&#x5b;" horiz-adv-x="367" d="M396 634 L252 634 L94 -102 L238 -102 L224 -168 L-15 -168 L171 700 L410 700 L396 634 Z " />
<glyph glyph-name="bracketright" unicode="&#x5d;" horiz-adv-x="367" d="M194 -168 L-45 -168 L-30 -102 L114 -102 L272 634 L128 634 L141 700 L380 700 L194 -168 Z " />
<glyph glyph-name="braceleft" unicode="&#x7b;" horiz-adv-x="386" d="M36 -16 L77 177 Q77 208 58 218.5 Q39 229 12 229 L26 296 Q90 296 115 349 L156 542 Q189 606 263.5 653 Q338 700 443 700 L430 634 Q372 634 322.5 599.5 Q273 565 246 515 L207 331 Q186 283 128 260 Q169 233 176 189 L135 0 Q141 -47 176 -77.5 Q211 -108 270 -108 L256 -174 Q159 -174 105 -126.5 Q51 -79 36 -16 Z " />
<glyph glyph-name="braceright" unicode="&#x7d;" horiz-adv-x="386" d="M347 542 L306 349 Q307 296 371 296 L357 229 Q330 229 306.5 218.5 Q283 208 269 177 L228 -16 Q194 -80 119.5 -127 Q45 -174 -60 -174 L-46 -108 Q12 -108 61.5 -73.5 Q111 -39 137 10 L176 195 Q198 241 256 266 Q214 293 207 337 L248 525 Q243 572 208 603 Q173 634 113 634 L127 700 Q193 700 240 676 Q287 652 313 616 Q339 580 347 542 Z " />
<glyph glyph-name="asterisk" unicode="&#x2a;" horiz-adv-x="496" d="M506 580 Q506 574 504 566 L334 529 L450 399 Q445 383 424 368 Q407 353 388 354 L302 502 L215 354 Q197 353 178 368 Q158 384 152 399 L268 529 L98 566 Q96 574 96 580 Q96 589 100 605 Q110 630 122 639 L280 570 L262 740 Q279 750 301 750 Q325 750 339 740 L322 569 L480 639 Q495 627 502 605 Q506 589 506 580 Z " />
<glyph glyph-name="dagger" unicode="&#x2020;" horiz-adv-x="630" d="M619 465 L619 385 L532 385 L387 394 L378 -168 L306 -168 L297 394 L154 385 L68 385 L68 465 L154 465 L296 457 L294 590 L294 700 L390 700 L390 590 L388 457 L532 465 L619 465 Z " />
<glyph glyph-name="daggerdbl" unicode="&#x2021;" horiz-adv-x="650" d="M370 424 L366 186 L515 195 L602 195 L602 115 L515 115 L365 124 L361 -168 L289 -168 L284 124 L137 115 L50 115 L50 195 L137 195 L283 186 L280 424 L137 415 L50 415 L50 495 L137 495 L279 487 L277 590 L277 700 L372 700 L372 590 L371 487 L515 495 L602 495 L602 415 L515 415 L370 424 Z " />
<glyph glyph-name="section" unicode="&#xa7;" horiz-adv-x="514" d="M208 593 L194 529 Q201 512 222 500 Q243 488 279 479 L337 464 Q443 440 481 378 L452 247 Q439 227 414.5 209 Q390 191 355 179 Q406 153 425 116 L400 1 Q375 -35 320 -66 Q265 -97 185 -97 Q129 -97 89 -80 Q49 -63 27 -40.5 Q5 -18 -1 1 L7 40 L77 40 Q87 11 116 -10.5 Q145 -32 193 -32 Q236 -32 269.5 -15.5 Q303 1 323 24 L336 88 Q330 105 309 116.5 Q288 128 252 138 L193 154 Q86 178 50 239 L77 370 Q90 390 115 408 Q140 426 175 439 Q123 464 106 501 L130 616 Q155 652 210 683 Q265 714 345 714 Q401 714 441 697 Q481 680 503 657.5 Q525 635 532 616 L523 577 L454 577 Q444 606 415 627.5 Q386 649 338 649 Q294 649 260.5 632.5 Q227 616 208 593 Z M308 398 L274 406 Q235 403 204 386 Q173 369 155 348 L139 270 Q144 253 165 241 Q186 229 222 219 L256 211 Q295 214 326.5 231 Q358 248 376 269 L392 347 Q386 364 365 376.5 Q344 389 308 398 Z " />
<glyph glyph-name="paragraph" unicode="&#xb6;" horiz-adv-x="663" d="M301 -100 L232 -100 L308 252 L247 252 Q180 252 135 284.5 Q90 317 72 370 L117 582 Q159 638 219 669 Q279 700 342 700 L472 700 L301 -100 Z M503 -100 L434 -100 L605 700 L675 700 L503 -100 Z " />
<glyph glyph-name="asciicircum" unicode="&#x5e;" horiz-adv-x="514" d="M492 394 L492 342 L433 342 L290 616 L275 616 L132 342 L78 342 L78 393 L239 700 L331 700 L492 394 Z " />
<glyph glyph-name="asciitilde" unicode="&#x7e;" horiz-adv-x="582" d="M323 402 Q362 390 391.5 383.5 Q421 377 450 377 Q479 377 504 387 Q529 397 545.5 408.5 Q562 420 562 421 L562 340 Q562 339 546.5 330 Q531 321 506.5 313.5 Q482 306 451 306 Q416 306 384.5 312.5 Q353 319 308 332 Q270 344 240.5 350.5 Q211 357 180 357 Q145 357 115 345.5 Q85 334 64.5 320.5 Q44 307 44 306 L44 382 Q44 383 63 395.5 Q82 408 113 418 Q144 428 182 428 Q215 428 247 421.5 Q279 415 323 402 Z " />
<glyph glyph-name="brokenbar" unicode="&#xa6;" horiz-adv-x="323" d="M228 399 L135 399 L135 790 L228 790 L228 399 Z M228 -128 L135 -128 L135 276 L228 276 L228 -128 Z " />
<glyph glyph-name="backslash" unicode="&#x5c;" horiz-adv-x="390" d="M269 -62 L258 -110 L184 -110 L138 683 L148 731 L222 731 L269 -62 Z " />
<glyph glyph-name="underscore" unicode="&#x5f;" horiz-adv-x="499" d="M419 -128 L-90 -128 L-77 -68 L432 -68 L419 -128 Z " />
<glyph glyph-name="quotesingle" unicode="&#x27;" horiz-adv-x="161" d="M194 617 L156 491 L102 491 L116 617 L134 700 L212 700 L194 617 Z " />
<glyph glyph-name="quotedbl" unicode="&#x22;" horiz-adv-x="332" d="M194 617 L156 491 L102 491 L116 617 L134 700 L212 700 L194 617 Z M365 617 L327 491 L273 491 L287 617 L305 700 L383 700 L365 617 Z " />
<glyph glyph-name="at" unicode="&#x40;" horiz-adv-x="942" d="M925 455 L850 108 Q823 70 785 51.5 Q747 33 706 33 Q661 33 628.5 49.5 Q596 66 577 94 Q505 31 403 31 Q353 31 316.5 48.5 Q280 66 259 91 Q238 116 233 138 L291 414 Q320 454 370 487 Q420 520 491 520 Q539 520 575 502.5 Q611 485 633 457 L644 507 L723 507 L641 130 Q650 109 666 98.5 Q682 88 709 88 Q735 88 753 97.5 Q771 107 790 128 L858 443 Q849 487 815.5 536 Q782 585 716.5 621 Q651 657 554 657 Q439 657 334 598.5 Q229 540 162 442 L90 111 Q114 12 194.5 -46.5 Q275 -105 391 -105 Q497 -105 595 -52 L621 -101 Q522 -161 386 -161 Q247 -161 149.5 -92 Q52 -23 22 97 L98 456 Q172 578 296 646 Q420 714 559 714 Q670 714 749 671.5 Q828 629 871 569.5 Q914 510 925 455 Z M423 94 Q468 94 505.5 110.5 Q543 127 568 152 L621 400 Q607 425 576.5 441 Q546 457 501 457 Q454 457 419 438 Q384 419 368 397 L315 154 Q326 131 351.5 112.5 Q377 94 423 94 Z " />
<glyph glyph-name="copyright" unicode="&#xa9;" horiz-adv-x="812" d="M785 350 Q785 251 735.5 167.5 Q686 84 602 35 Q518 -14 419 -14 Q320 -14 236.5 35 Q153 84 103.5 167.5 Q54 251 54 350 Q54 449 103.5 532.5 Q153 616 236.5 665 Q320 714 419 714 Q518 714 602 665 Q686 616 735.5 532.5 Q785 449 785 350 Z M101 350 Q101 263 143.5 189 Q186 115 259 72 Q332 29 419 29 Q506 29 579 72 Q652 115 694.5 189 Q737 263 737 350 Q737 437 694.5 511 Q652 585 579 628 Q506 671 419 671 Q332 671 259 628 Q186 585 143.5 511 Q101 437 101 350 Z M606 486 L606 447 L541 447 Q531 475 499.5 496.5 Q468 518 420 518 Q378 518 348.5 501.5 Q319 485 304 463 L304 234 Q319 212 348.5 195.5 Q378 179 420 179 Q467 179 499 201 Q531 223 541 250 L606 250 L606 211 Q586 179 540 149.5 Q494 120 419 120 Q344 120 296 151.5 Q248 183 230 218 L230 480 Q248 514 296 545.5 Q344 577 419 577 Q494 577 540.5 547.5 Q587 518 606 486 Z " />
<glyph glyph-name="registered" unicode="&#xae;" horiz-adv-x="518" d="M565 585 Q565 521 532.5 466 Q500 411 444.5 378.5 Q389 346 325 346 Q261 346 206 378.5 Q151 411 118.5 466 Q86 521 86 585 Q86 649 118.5 704 Q151 759 206 791.5 Q261 824 325 824 Q389 824 444.5 791.5 Q500 759 532.5 704 Q565 649 565 585 Z M529 585 Q529 641 502 688 Q475 735 428 763 Q381 791 325 791 Q270 791 223 763 Q176 735 149 688 Q122 641 122 585 Q122 529 149 482 Q176 435 223 407 Q270 379 325 379 Q381 379 428 407 Q475 435 502 482 Q529 529 529 585 Z M433 677 L433 604 Q424 586 407.5 573 Q391 560 372 555 L428 479 L428 450 L392 450 L328 552 L277 552 L277 450 L234 450 L234 730 L349 730 Q374 730 397.5 715.5 Q421 701 433 677 Z M390 665 Q377 694 340 694 L277 694 L277 588 L340 588 Q357 588 369.5 594 Q382 600 390 616 L390 665 Z " />
<glyph glyph-name="trademark" unicode="&#x2122;" horiz-adv-x="791" d="M394 652 L282 652 L209 310 L148 310 L221 652 L109 652 L119 700 L404 700 L394 652 Z M742 310 L685 310 L750 614 L748 614 L573 310 L532 310 L487 614 L485 614 L420 310 L363 310 L446 700 L531 700 L576 412 L578 412 L743 700 L826 700 L742 310 Z " />
<glyph glyph-name="uni2117" unicode="&#x2117;" horiz-adv-x="812" d="M771 350 Q771 251 721.5 167.5 Q672 84 588.5 35 Q505 -14 406 -14 Q307 -14 223.5 35 Q140 84 90.5 167.5 Q41 251 41 350 Q41 449 90.5 532.5 Q140 616 223.5 665 Q307 714 406 714 Q505 714 588.5 665 Q672 616 721.5 532.5 Q771 449 771 350 Z M88 350 Q88 263 130.5 189 Q173 115 246 72 Q319 29 406 29 Q493 29 565.5 72 Q638 115 680.5 189 Q723 263 723 350 Q723 437 680.5 511 Q638 585 565.5 628 Q493 671 406 671 Q319 671 246 628 Q173 585 130.5 511 Q88 437 88 350 Z M591 482 L591 360 Q571 319 534 295 Q497 271 454 271 L333 271 L333 113 L267 113 L267 571 L454 571 Q497 571 534 547 Q571 523 591 482 Z M333 518 L333 324 L440 324 Q467 324 489.5 337.5 Q512 351 526 379 L526 465 Q512 492 489 505 Q466 518 440 518 L333 518 Z " />
<glyph glyph-name="currency" unicode="&#xa4;" horiz-adv-x="590" d="M539 523 L500 484 Q519 461 530 435 L530 239 Q517 210 501 191 L539 152 L539 108 L481 108 L446 142 Q388 107 310 107 Q233 107 176 142 L141 108 L81 108 L81 152 L119 191 Q100 215 90 239 L90 435 Q103 464 120 484 L81 523 L81 567 L141 567 L176 532 Q233 567 310 567 Q388 567 445 532 L481 567 L539 567 L539 523 Z M444 257 L444 417 Q429 452 394.5 475 Q360 498 310 498 Q261 498 226.5 474.5 Q192 451 178 417 L178 257 Q192 223 226.5 199.5 Q261 176 310 176 Q360 176 394.5 199 Q429 222 444 257 Z " />
<glyph glyph-name="Euro" unicode="&#x20ac;" horiz-adv-x="594" d="M615 592 L604 540 L531 540 Q528 584 491.5 613 Q455 642 398 642 Q348 642 306.5 618.5 Q265 595 244 562 L221 455 L470 455 L459 398 L209 398 L192 318 L441 318 L428 261 L179 261 L153 138 Q161 105 196 81.5 Q231 58 281 58 Q337 58 379 86.5 Q421 115 442 160 L523 160 L511 106 Q481 59 420.5 22.5 Q360 -14 274 -14 Q214 -14 168 7 Q122 28 94.5 58 Q67 88 59 117 L90 261 L30 261 L42 318 L102 318 L119 398 L60 398 L71 455 L131 455 L159 583 Q192 636 255.5 675 Q319 714 408 714 Q468 714 512 694 Q556 674 581.5 646 Q607 618 615 592 Z " />
<glyph glyph-name="dollar" unicode="&#x24;" horiz-adv-x="583" d="M222 571 L202 474 Q209 452 227 438.5 Q245 425 296 410 L357 392 Q416 375 449.5 356 Q483 337 498 317.5 Q513 298 526 271 L493 119 Q460 71 405.5 33 Q351 -5 268 -12 L250 -95 L177 -95 L194 -11 Q117 -2 74.5 36 Q32 74 15 118 L26 170 L107 170 Q111 125 147.5 93.5 Q184 62 246 62 Q302 62 343.5 86.5 Q385 111 409 145 L429 237 Q423 263 400 281.5 Q377 300 326 314 L264 331 Q211 345 180.5 361.5 Q150 378 133.5 396 Q117 414 102 441 L137 598 Q166 640 220.5 673.5 Q275 707 350 713 L368 795 L441 795 L423 711 Q488 701 529.5 668.5 Q571 636 587 598 L575 546 L495 546 Q489 587 457 613 Q425 639 367 639 Q321 639 281.5 619 Q242 599 222 571 Z " />
<glyph glyph-name="cent" unicode="&#xa2;" horiz-adv-x="527" d="M169 401 L112 134 Q119 101 150.5 79 Q182 57 231 57 Q334 57 391 155 L464 155 L455 109 Q429 65 379 29 Q329 -7 253 -13 L235 -95 L161 -95 L179 -10 Q112 2 70.5 39.5 Q29 77 21 118 L87 420 Q114 470 167.5 507.5 Q221 545 299 551 L317 633 L391 633 L373 548 Q436 536 475 500.5 Q514 465 523 429 L514 383 L446 383 Q439 427 405 454 Q371 481 317 481 Q268 481 229.5 458 Q191 435 169 401 Z " />
<glyph glyph-name="sterling" unicode="&#xa3;" horiz-adv-x="607" d="M625 592 L614 540 L542 540 Q535 585 499.5 613.5 Q464 642 408 642 Q358 642 317.5 619 Q277 596 254 562 L215 378 L471 378 L457 313 L201 313 L161 126 Q143 96 110 72 L514 72 L498 0 L-13 0 L1 63 Q15 67 35 81.5 Q55 96 69 118 L111 313 L52 313 L65 378 L125 378 L169 583 Q201 636 265 675 Q329 714 418 714 Q478 714 522.5 694 Q567 674 592.5 645.5 Q618 617 625 592 Z " />
<glyph glyph-name="florin" unicode="&#x192;" horiz-adv-x="433" d="M316 589 L300 515 L445 515 L431 449 L286 449 L171 -90 Q110 -182 -14 -182 Q-69 -182 -92 -173 L-78 -114 L-27 -114 Q53 -114 89 -60 L198 449 L121 449 L134 515 L212 515 L235 621 Q296 713 418 713 Q443 713 464.5 710 Q486 707 496 703 L483 644 L432 644 Q382 644 355 627 Q328 610 316 589 Z " />
<glyph glyph-name="yen" unicode="&#xa5;" horiz-adv-x="570" d="M609 642 L401 380 L558 380 L546 323 L356 323 L337 299 L325 244 L530 244 L517 187 L313 187 L273 0 L178 0 L219 187 L17 187 L30 244 L231 244 L245 308 L239 323 L46 323 L58 380 L218 380 L121 642 L133 700 L195 700 L305 389 L308 389 L544 700 L622 700 L609 642 Z " />
<glyph glyph-name="uni20A8" unicode="&#x20a8;" horiz-adv-x="519" d="M584 643 L451 643 Q484 611 493 572 L482 521 L559 521 L546 464 L470 464 L459 414 Q428 354 366.5 320.5 Q305 287 241 287 L179 287 L382 48 L371 0 L303 0 L66 287 L78 347 L213 347 Q261 347 305.5 369.5 Q350 392 373 432 L380 464 L103 464 L116 521 L392 521 L399 550 Q393 588 360.5 611 Q328 634 295 634 L140 634 L154 700 L597 700 L584 643 Z " />
<glyph glyph-name="uni20BA" unicode="&#x20ba;" horiz-adv-x="569" d="M494 173 L483 121 Q448 73 387.5 36.5 Q327 0 241 0 L42 0 L93 235 L20 203 L33 267 L106 299 L126 392 L53 360 L66 424 L140 456 L192 700 L282 700 L239 500 L463 598 L450 533 L225 435 L206 342 L430 441 L416 377 L192 278 L148 71 L238 71 Q297 71 345.5 100.5 Q394 130 416 173 L494 173 Z " />
<glyph glyph-name="uni20BD" unicode="&#x20bd;" horiz-adv-x="578" d="M599 582 L561 410 Q522 353 470 324 Q418 295 348 295 L180 295 L164 223 L440 223 L427 166 L152 166 L116 0 L22 0 L58 166 L-2 166 L11 223 L70 223 L85 295 L25 295 L39 358 L99 358 L172 700 L415 700 Q478 700 527.5 668 Q577 636 599 582 Z M502 554 Q489 591 458 609 Q427 627 388 627 L251 627 L193 358 L315 358 Q421 358 476 433 L502 554 Z " />
<glyph glyph-name="ordfeminine" unicode="&#xaa;" horiz-adv-x="387" d="M411 621 L356 361 L301 361 L307 389 Q262 353 202 353 Q151 353 121 372 Q91 391 82 408 L103 506 Q147 560 226 560 L339 560 L350 609 Q346 632 326.5 646.5 Q307 661 274 661 Q215 661 182 613 L129 613 L136 645 Q151 666 187 687.5 Q223 709 276 709 Q335 709 369 682.5 Q403 656 411 621 Z M213 400 Q275 400 314 441 L330 517 L239 517 Q187 517 155 485 L143 432 Q149 421 167 410.5 Q185 400 213 400 Z " />
<glyph glyph-name="ordmasculine" unicode="&#xba;" horiz-adv-x="394" d="M418 621 L380 440 Q358 404 319.5 378.5 Q281 353 224 353 Q167 353 132.5 379.5 Q98 406 89 440 L127 621 Q150 658 188 683.5 Q226 709 282 709 Q341 709 375.5 682.5 Q410 656 418 621 Z M183 610 L150 451 Q154 430 173.5 416 Q193 402 225 402 Q257 402 282.5 416 Q308 430 324 451 L357 610 Q352 632 332.5 646 Q313 660 281 660 Q249 660 223 646 Q197 632 183 610 Z " />
<glyph glyph-name="numbersign" unicode="&#x23;" horiz-adv-x="580" d="M495 429 L434 266 L510 266 L496 203 L410 203 L334 0 L271 0 L281 48 L339 203 L165 203 L89 0 L26 0 L37 48 L95 203 L19 203 L33 266 L119 266 L180 429 L104 429 L118 494 L204 494 L281 700 L344 700 L334 652 L275 494 L448 494 L526 700 L589 700 L579 652 L519 494 L595 494 L582 429 L495 429 Z M424 429 L250 429 L189 266 L363 266 L424 429 Z " />
<glyph glyph-name="uni2116" unicode="&#x2116;" horiz-adv-x="969" d="M1012 608 L975 437 Q947 399 900 369 Q853 339 785 339 Q717 339 682.5 369 Q648 399 637 437 L674 608 Q702 648 748.5 677.5 Q795 707 864 707 Q932 707 966.5 677 Q1001 647 1012 608 Z M457 0 L350 0 L226 550 L223 550 L104 0 L16 0 L166 700 L274 700 L398 150 L401 150 L519 700 L607 700 L457 0 Z M741 593 L711 453 Q717 429 738 411.5 Q759 394 798 394 Q836 394 864 411 Q892 428 910 453 L940 593 Q933 618 912.5 635 Q892 652 854 652 Q783 652 741 593 Z M930 226 L593 226 L604 285 L942 285 L930 226 Z " />
<glyph glyph-name="zero" unicode="0" horiz-adv-x="583" d="M589 583 L488 118 Q457 64 394.5 25 Q332 -14 244 -14 Q183 -14 137 6 Q91 26 64 56.5 Q37 87 29 118 L129 583 Q161 636 224.5 675 Q288 714 376 714 Q437 714 482.5 694 Q528 674 554.5 644 Q581 614 589 583 Z M214 562 L123 139 Q130 106 165 82 Q200 58 250 58 Q300 58 340 81.5 Q380 105 404 140 L495 562 Q488 595 453 618.5 Q418 642 368 642 Q317 642 276.5 619 Q236 596 214 562 Z " />
<glyph glyph-name="one" unicode="1" horiz-adv-x="443" d="M235 64 L350 64 L335 0 L12 0 L26 64 L146 64 L259 593 L128 539 L144 617 L317 700 L371 700 L235 64 Z " />
<glyph glyph-name="two" unicode="2" horiz-adv-x="561" d="M573 583 L543 442 Q522 403 484 374 Q446 345 354 293 L266 244 Q140 175 111 129 L98 75 L471 75 L455 0 L-7 0 L26 154 Q57 197 94 227.5 Q131 258 218 307 L309 358 Q372 393 408 418 Q444 443 459 468 L480 565 Q472 598 439 620 Q406 642 356 642 Q304 642 259 614 Q214 586 190 540 L110 540 L121 592 Q152 640 214.5 677 Q277 714 364 714 Q424 714 468.5 694 Q513 674 539 643.5 Q565 613 573 583 Z " />
<glyph glyph-name="three" unicode="3" horiz-adv-x="567" d="M563 597 L533 456 Q518 430 484 406 Q450 382 403 367 Q445 353 472 323.5 Q499 294 504 264 L473 118 Q443 64 378.5 25 Q314 -14 225 -14 Q166 -14 121 6 Q76 26 49 54.5 Q22 83 13 109 L25 161 L100 161 Q105 118 141.5 88 Q178 58 232 58 Q283 58 324 81.5 Q365 105 388 140 L412 249 Q406 284 372.5 308 Q339 332 288 332 L218 332 L233 401 L288 401 Q341 401 383 423 Q425 445 446 472 L469 578 Q460 603 429.5 622.5 Q399 642 352 642 Q296 642 256.5 615 Q217 588 201 553 L118 553 L130 606 Q157 645 216.5 679.5 Q276 714 359 714 Q419 714 462 695 Q505 676 530 649 Q555 622 563 597 Z " />
<glyph glyph-name="four" unicode="4" horiz-adv-x="571" d="M452 245 L545 245 L529 173 L436 173 L399 0 L313 0 L350 173 L7 173 L22 243 L417 700 L549 700 L452 245 Z M443 622 L121 245 L366 245 L446 622 L443 622 Z " />
<glyph glyph-name="five" unicode="5" horiz-adv-x="563" d="M232 625 L186 410 Q251 458 334 458 Q411 458 459.5 422.5 Q508 387 521 340 L472 109 Q443 61 380.5 23.5 Q318 -14 232 -14 Q172 -14 127 5.5 Q82 25 55 53.5 Q28 82 20 109 L32 161 L109 161 Q112 119 147 88.5 Q182 58 239 58 Q288 58 330 82.5 Q372 107 395 142 L431 308 Q422 342 390.5 364.5 Q359 387 309 387 Q261 387 225 368 Q189 349 168 328 L86 328 L166 700 L590 700 L574 625 L232 625 Z " />
<glyph glyph-name="six" unicode="6" horiz-adv-x="575" d="M215 561 L177 386 Q248 438 338 438 Q415 438 464 402.5 Q513 367 527 320 L482 109 Q453 62 390.5 24 Q328 -14 241 -14 Q181 -14 135.5 6.5 Q90 27 63.5 57.5 Q37 88 30 118 L130 583 Q162 636 226.5 675 Q291 714 379 714 Q438 714 482 694.5 Q526 675 551.5 647 Q577 619 586 592 L574 540 L501 540 Q496 586 461 614 Q426 642 369 642 Q319 642 278.5 618 Q238 594 215 561 Z M160 308 L124 139 Q131 105 164.5 81.5 Q198 58 248 58 Q298 58 340.5 82 Q383 106 405 140 L437 290 Q429 323 396 345 Q363 367 312 367 Q269 367 230 351 Q191 335 160 308 Z " />
<glyph glyph-name="seven" unicode="7" horiz-adv-x="488" d="M538 631 L116 0 L42 0 L55 58 L436 625 L91 625 L107 700 L552 700 L538 631 Z " />
<glyph glyph-name="eight" unicode="8" horiz-adv-x="581" d="M422 374 Q474 353 496 330 Q518 307 530 275 L495 118 Q465 68 401.5 27 Q338 -14 241 -14 Q147 -14 93 27 Q39 68 21 118 L55 276 Q95 337 201 373 Q164 391 146.5 411.5 Q129 432 120 455 L152 608 Q186 651 242.5 682.5 Q299 714 376 714 Q454 714 504 681.5 Q554 649 575 608 L542 453 Q505 403 422 374 Z M486 581 Q474 606 443 624 Q412 642 367 642 Q321 642 285.5 623 Q250 604 228 577 L206 476 Q215 458 233.5 443 Q252 428 295 415 L325 406 Q371 415 410.5 437 Q450 459 464 480 L486 581 Z M437 256 Q419 308 324 333 L302 339 Q240 328 197 301.5 Q154 275 139 251 L114 139 Q124 109 159 84 Q194 59 248 59 Q306 59 347 83.5 Q388 108 412 143 L437 256 Z " />
<glyph glyph-name="nine" unicode="9" horiz-adv-x="575" d="M580 582 L480 117 Q448 64 383.5 25 Q319 -14 231 -14 Q172 -14 128 5.5 Q84 25 58.5 53 Q33 81 24 108 L36 160 L109 160 Q114 114 149 86 Q184 58 241 58 Q291 58 331.5 82 Q372 106 395 139 L432 308 Q362 256 270 256 Q193 256 143.5 291.5 Q94 327 80 374 L128 591 Q157 638 219.5 676 Q282 714 369 714 Q429 714 474.5 693.5 Q520 673 546.5 642.5 Q573 612 580 582 Z M449 387 L486 561 Q479 595 445.5 618.5 Q412 642 362 642 Q312 642 269.5 618 Q227 594 205 560 L170 404 Q179 371 212 349 Q245 327 296 327 Q339 327 378.5 343 Q418 359 449 387 Z " />
<glyph glyph-name="uni00A0" unicode="&#xa0;" horiz-adv-x="207" d="" />
<glyph glyph-name="fraction" unicode="&#x2044;" horiz-adv-x="167" d="M434 660 L-187 0 L-241 0 L-232 40 L388 700 L442 700 L434 660 Z " />
<glyph glyph-name="onequarter" unicode="&#xbc;" horiz-adv-x="867" d="M784 660 L163 0 L109 0 L118 40 L738 700 L792 700 L784 660 Z M203 326 L274 326 L265 280 L52 280 L61 326 L136 326 L204 644 L126 635 L135 677 L230 700 L283 700 L203 326 Z M741 151 L802 151 L792 100 L730 100 L709 0 L644 0 L665 100 L434 100 L445 150 L704 420 L798 420 L741 151 Z M719 363 L518 151 L676 151 L722 363 L719 363 Z " />
<glyph glyph-name="onehalf" unicode="&#xbd;" horiz-adv-x="929" d="M203 326 L274 326 L265 280 L52 280 L61 326 L136 326 L204 644 L126 635 L135 677 L230 700 L283 700 L203 326 Z M783 660 L162 0 L108 0 L117 40 L737 700 L791 700 L783 660 Z M889 348 L874 273 Q858 247 831 226.5 Q804 206 746 175 L680 140 Q603 99 582 69 L580 55 L834 55 L822 0 L505 0 L522 82 Q541 111 568 134 Q595 157 654 188 L719 223 Q761 245 780.5 259 Q800 273 810 290 L820 333 Q813 350 793 362.5 Q773 375 739 375 Q703 375 672.5 358 Q642 341 626 319 L573 319 L581 358 Q601 385 642 407 Q683 429 741 429 Q803 429 841.5 404 Q880 379 889 348 Z " />
<glyph glyph-name="threequarters" unicode="&#xbe;" horiz-adv-x="925" d="M831 660 L210 0 L156 0 L165 40 L785 700 L839 700 L831 660 Z M787 151 L848 151 L838 100 L776 100 L755 0 L690 0 L711 100 L480 100 L491 150 L750 420 L844 420 L787 151 Z M765 363 L564 151 L722 151 L768 363 L765 363 Z M430 637 L413 551 Q403 537 381.5 522 Q360 507 331 498 Q358 490 375 474 Q392 458 399 440 L379 351 Q358 318 315.5 295 Q273 272 212 272 Q171 272 138.5 284 Q106 296 86 312.5 Q66 329 61 343 L71 387 L119 387 Q125 362 151.5 344 Q178 326 217 326 Q249 326 275 338.5 Q301 351 317 370 L329 430 Q324 448 302.5 460 Q281 472 247 472 L198 472 L209 524 L254 524 Q285 524 310.5 535.5 Q336 547 348 561 L361 620 Q354 634 335 644.5 Q316 655 286 655 Q221 655 178 600 L126 600 L135 644 Q154 668 193 688.5 Q232 709 291 709 Q349 709 384 686 Q419 663 430 637 Z " />
<glyph glyph-name="fiveeighths" unicode="&#x215d;" horiz-adv-x="992" d="M867 216 Q889 205 903.5 189 Q918 173 922 159 L903 71 Q882 38 839 15 Q796 -8 735 -8 Q674 -8 635 16 Q596 40 586 71 L606 159 Q636 202 687 223 Q668 233 655.5 244.5 Q643 256 639 265 L660 364 Q677 387 716.5 408 Q756 429 815 429 Q873 429 908 407.5 Q943 386 955 364 L934 265 Q926 253 909 239.5 Q892 226 867 216 Z M888 342 Q879 356 860.5 366.5 Q842 377 811 377 Q780 377 755.5 366 Q731 355 718 342 L704 277 Q711 263 731 252.5 Q751 242 782 242 Q813 242 836.5 252.5 Q860 263 874 277 L888 342 Z M853 153 Q849 171 827 183.5 Q805 196 772 196 Q739 196 712 183.5 Q685 171 671 153 L658 86 Q663 68 685 55.5 Q707 43 740 43 Q773 43 800 55.5 Q827 68 840 86 L853 153 Z M430 645 L199 645 L173 526 Q192 540 215.5 547.5 Q239 555 273 555 Q322 555 356.5 534 Q391 513 400 486 L370 343 Q349 316 309.5 294 Q270 272 212 272 Q152 272 112.5 294.5 Q73 317 59 343 L69 387 L116 387 Q124 361 150 343.5 Q176 326 215 326 Q248 326 274.5 339 Q301 352 314 370 L334 463 Q328 481 307.5 494 Q287 507 254 507 Q226 507 200 494 Q174 481 160 468 L98 468 L149 700 L441 700 L430 645 Z M846 660 L225 0 L171 0 L180 40 L800 700 L854 700 L846 660 Z " />
<glyph glyph-name="oneeighth" unicode="&#x215b;" horiz-adv-x="956" d="M801 660 L180 0 L126 0 L135 40 L755 700 L809 700 L801 660 Z M207 326 L278 326 L269 280 L56 280 L65 326 L140 326 L208 644 L130 635 L139 677 L234 700 L287 700 L207 326 Z M823 216 Q845 205 859.5 189 Q874 173 878 159 L859 71 Q838 38 795 15 Q752 -8 691 -8 Q630 -8 591 16 Q552 40 542 71 L562 159 Q592 202 643 223 Q624 233 611.5 244.5 Q599 256 595 265 L616 364 Q633 387 672.5 408 Q712 429 771 429 Q829 429 864 407.5 Q899 386 911 364 L890 265 Q882 253 865 239.5 Q848 226 823 216 Z M844 342 Q835 356 816.5 366.5 Q798 377 767 377 Q736 377 711.5 366 Q687 355 674 342 L660 277 Q667 263 687 252.5 Q707 242 738 242 Q769 242 792.5 252.5 Q816 263 830 277 L844 342 Z M809 153 Q805 171 783 183.5 Q761 196 728 196 Q695 196 668 183.5 Q641 171 627 153 L614 86 Q619 68 641 55.5 Q663 43 696 43 Q729 43 756 55.5 Q783 68 796 86 L809 153 Z " />
<glyph glyph-name="seveneighths" unicode="&#x215e;" horiz-adv-x="916" d="M799 216 Q821 205 835.5 189 Q850 173 854 159 L835 71 Q814 38 771 15 Q728 -8 667 -8 Q606 -8 567 16 Q528 40 518 71 L538 159 Q568 202 619 223 Q600 233 587.5 244.5 Q575 256 571 265 L592 364 Q609 387 648.5 408 Q688 429 747 429 Q805 429 840 407.5 Q875 386 887 364 L866 265 Q858 253 841 239.5 Q824 226 799 216 Z M820 342 Q811 356 792.5 366.5 Q774 377 743 377 Q712 377 687.5 366 Q663 355 650 342 L636 277 Q643 263 663 252.5 Q683 242 714 242 Q745 242 768.5 252.5 Q792 263 806 277 L820 342 Z M785 153 Q781 171 759 183.5 Q737 196 704 196 Q671 196 644 183.5 Q617 171 603 153 L590 86 Q595 68 617 55.5 Q639 43 672 43 Q705 43 732 55.5 Q759 68 772 86 L785 153 Z M423 651 L166 280 L108 280 L116 319 L345 642 L345 645 L118 645 L130 700 L433 700 L423 651 Z M767 660 L146 0 L92 0 L101 40 L721 700 L775 700 L767 660 Z " />
<glyph glyph-name="threeeighths" unicode="&#x215c;" horiz-adv-x="985" d="M860 216 Q882 205 896.5 189 Q911 173 915 159 L896 71 Q875 38 832 15 Q789 -8 728 -8 Q667 -8 628 16 Q589 40 579 71 L599 159 Q629 202 680 223 Q661 233 648.5 244.5 Q636 256 632 265 L653 364 Q670 387 709.5 408 Q749 429 808 429 Q866 429 901 407.5 Q936 386 948 364 L927 265 Q919 253 902 239.5 Q885 226 860 216 Z M881 342 Q872 356 853.5 366.5 Q835 377 804 377 Q773 377 748.5 366 Q724 355 711 342 L697 277 Q704 263 724 252.5 Q744 242 775 242 Q806 242 829.5 252.5 Q853 263 867 277 L881 342 Z M846 153 Q842 171 820 183.5 Q798 196 765 196 Q732 196 705 183.5 Q678 171 664 153 L651 86 Q656 68 678 55.5 Q700 43 733 43 Q766 43 793 55.5 Q820 68 833 86 L846 153 Z M429 637 L412 551 Q402 537 380.5 522 Q359 507 330 498 Q357 490 374 474 Q391 458 398 440 L378 351 Q357 318 314.5 295 Q272 272 211 272 Q170 272 137.5 284 Q105 296 85 312.5 Q65 329 60 343 L70 387 L118 387 Q124 362 150.5 344 Q177 326 216 326 Q248 326 274 338.5 Q300 351 316 370 L328 430 Q323 448 301.5 460 Q280 472 246 472 L197 472 L208 524 L253 524 Q284 524 309.5 535.5 Q335 547 347 561 L360 620 Q353 634 334 644.5 Q315 655 285 655 Q220 655 177 600 L125 600 L134 644 Q153 668 192 688.5 Q231 709 290 709 Q348 709 383 686 Q418 663 429 637 Z M840 660 L219 0 L165 0 L174 40 L794 700 L848 700 L840 660 Z " />
<glyph glyph-name="twothirds" unicode="&#x2154;" horiz-adv-x="1020" d="M984 357 L967 271 Q957 257 935.5 242 Q914 227 885 218 Q912 210 929 194 Q946 178 953 160 L933 71 Q912 38 869.5 15 Q827 -8 766 -8 Q725 -8 692.5 4 Q660 16 640 32.5 Q620 49 615 63 L625 107 L673 107 Q679 82 705.5 64 Q732 46 771 46 Q803 46 829 58.5 Q855 71 871 90 L883 150 Q878 168 856.5 180 Q835 192 801 192 L752 192 L763 244 L808 244 Q839 244 864.5 255.5 Q890 267 902 281 L915 340 Q908 354 889 364.5 Q870 375 840 375 Q775 375 732 320 L680 320 L689 364 Q708 388 747 408.5 Q786 429 845 429 Q903 429 938 406 Q973 383 984 357 Z M435 628 L420 553 Q404 527 377 506.5 Q350 486 292 455 L226 420 Q149 379 128 349 L126 335 L380 335 L368 280 L51 280 L68 362 Q87 391 114 414 Q141 437 200 468 L265 503 Q307 525 326.5 539 Q346 553 356 570 L366 613 Q359 630 339 642.5 Q319 655 285 655 Q249 655 218.5 638 Q188 621 172 599 L119 599 L127 638 Q147 665 188 687 Q229 709 287 709 Q349 709 387.5 684 Q426 659 435 628 Z M877 660 L256 0 L202 0 L211 40 L831 700 L885 700 L877 660 Z " />
<glyph glyph-name="uniE000" unicode="&#xe000;" horiz-adv-x="1012" d="M850 660 L229 0 L175 0 L184 40 L804 700 L858 700 L850 660 Z M195 613 L174 515 Q218 543 276 543 Q330 543 365 522.5 Q400 502 411 475 L382 343 Q363 315 322.5 293.5 Q282 272 221 272 Q161 272 122 296.5 Q83 321 72 351 L132 630 Q153 662 196.5 685.5 Q240 709 302 709 Q361 709 396 687 Q431 665 446 637 L438 599 L386 599 Q380 625 356 640.5 Q332 656 296 656 Q264 656 236 643 Q208 630 195 613 Z M163 461 L143 365 Q147 348 169 335 Q191 322 223 322 Q256 322 283 335 Q310 348 323 366 L342 453 Q336 471 314.5 483 Q293 495 261 495 Q206 495 163 461 Z M871 216 Q893 205 907.5 189 Q922 173 926 159 L907 71 Q886 38 843 15 Q800 -8 739 -8 Q678 -8 639 16 Q600 40 590 71 L610 159 Q640 202 691 223 Q672 233 659.5 244.5 Q647 256 643 265 L664 364 Q681 387 720.5 408 Q760 429 819 429 Q877 429 912 407.5 Q947 386 959 364 L938 265 Q930 253 913 239.5 Q896 226 871 216 Z M892 342 Q883 356 864.5 366.5 Q846 377 815 377 Q784 377 759.5 366 Q735 355 722 342 L708 277 Q715 263 735 252.5 Q755 242 786 242 Q817 242 840.5 252.5 Q864 263 878 277 L892 342 Z M857 153 Q853 171 831 183.5 Q809 196 776 196 Q743 196 716 183.5 Q689 171 675 153 L662 86 Q667 68 689 55.5 Q711 43 744 43 Q777 43 804 55.5 Q831 68 844 86 L857 153 Z " />
<glyph glyph-name="uniE001" unicode="&#xe001;" horiz-adv-x="1244" d="M199 326 L270 326 L261 280 L48 280 L57 326 L132 326 L200 644 L122 635 L131 677 L226 700 L279 700 L199 326 Z M973 333 L952 235 Q996 263 1054 263 Q1108 263 1143 242.5 Q1178 222 1189 195 L1160 63 Q1141 35 1100.5 13.5 Q1060 -8 999 -8 Q939 -8 900 16.5 Q861 41 850 71 L910 350 Q931 382 974.5 405.5 Q1018 429 1080 429 Q1139 429 1174 407 Q1209 385 1224 357 L1216 319 L1164 319 Q1158 345 1134 360.5 Q1110 376 1074 376 Q1042 376 1014 363 Q986 350 973 333 Z M941 181 L921 85 Q925 68 947 55 Q969 42 1001 42 Q1034 42 1061 55 Q1088 68 1101 86 L1120 173 Q1114 191 1092.5 203 Q1071 215 1039 215 Q984 215 941 181 Z M783 660 L162 0 L108 0 L117 40 L737 700 L791 700 L783 660 Z M699 46 L770 46 L761 0 L548 0 L557 46 L632 46 L700 364 L622 355 L631 397 L726 420 L779 420 L699 46 Z " />
<glyph glyph-name="percent" unicode="&#x25;" horiz-adv-x="885" d="M438 623 L397 433 Q376 398 333.5 373.5 Q291 349 230 349 Q169 349 130.5 374.5 Q92 400 82 433 L123 623 Q145 658 188 683.5 Q231 709 291 709 Q352 709 390 683 Q428 657 438 623 Z M794 660 L165 0 L118 0 L128 40 L755 700 L802 700 L794 660 Z M187 612 L152 445 Q158 426 179.5 413 Q201 400 233 400 Q266 400 293 413 Q320 426 333 445 L369 612 Q363 632 342 645 Q321 658 288 658 Q255 658 227.5 645 Q200 632 187 612 Z M838 267 L797 77 Q776 42 733.5 17 Q691 -8 630 -8 Q569 -8 530 17.5 Q491 43 481 77 L522 267 Q544 302 587 327 Q630 352 690 352 Q752 352 790 326.5 Q828 301 838 267 Z M587 255 L551 88 Q557 69 579 56 Q601 43 633 43 Q666 43 692.5 56 Q719 69 732 88 L768 255 Q762 275 741 288 Q720 301 687 301 Q655 301 627.5 288 Q600 275 587 255 Z " />
<glyph glyph-name="perthousand" unicode="&#x2030;" horiz-adv-x="1265" d="M438 623 L397 433 Q376 398 333.5 373.5 Q291 349 230 349 Q169 349 130.5 374.5 Q92 400 82 433 L123 623 Q145 658 188 683.5 Q231 709 291 709 Q352 709 390 683 Q428 657 438 623 Z M794 660 L165 0 L118 0 L128 40 L755 700 L802 700 L794 660 Z M187 612 L152 445 Q158 426 179.5 413 Q201 400 233 400 Q266 400 293 413 Q320 426 333 445 L369 612 Q363 632 342 645 Q321 658 288 658 Q255 658 227.5 645 Q200 632 187 612 Z M838 267 L797 77 Q776 42 733.5 17 Q691 -8 630 -8 Q569 -8 530 17.5 Q491 43 481 77 L522 267 Q544 302 587 327 Q630 352 690 352 Q752 352 790 326.5 Q828 301 838 267 Z M1217 267 L1176 77 Q1155 42 1112.5 17 Q1070 -8 1009 -8 Q948 -8 909 17.5 Q870 43 860 77 L901 267 Q923 302 966 327 Q1009 352 1070 352 Q1131 352 1169.5 326.5 Q1208 301 1217 267 Z M587 255 L551 88 Q557 69 579 56 Q601 43 633 43 Q666 43 692.5 56 Q719 69 732 88 L768 255 Q762 275 741 288 Q720 301 687 301 Q655 301 627.5 288 Q600 275 587 255 Z M966 255 L930 88 Q936 69 958 56 Q980 43 1012 43 Q1045 43 1071.5 56 Q1098 69 1112 88 L1147 255 Q1141 275 1120 288 Q1099 301 1066 301 Q1034 301 1006.5 288 Q979 275 966 255 Z " />
<glyph glyph-name="plus" unicode="&#x2b;" horiz-adv-x="583" d="M541 302 L328 302 L328 88 L255 88 L255 302 L43 302 L43 373 L255 373 L255 587 L328 587 L328 373 L541 373 L541 302 Z " />
<glyph glyph-name="minus" unicode="&#x2212;" horiz-adv-x="583" d="M552 302 L54 302 L54 373 L552 373 L552 302 Z " />
<glyph glyph-name="plusminus" unicode="&#xb1;" horiz-adv-x="583" d="M541 429 L541 357 L328 357 L328 166 L255 166 L255 357 L43 357 L43 429 L255 429 L255 619 L328 619 L328 429 L541 429 Z M43 99 L541 99 L541 27 L43 27 L43 99 Z " />
<glyph glyph-name="multiply" unicode="&#xd7;" horiz-adv-x="583" d="M537 519 L356 338 L537 155 L537 108 L484 108 L306 286 L127 108 L72 108 L72 155 L254 338 L72 519 L72 567 L127 567 L306 389 L484 567 L537 567 L537 519 Z " />
<glyph glyph-name="divide" unicode="&#xf7;" horiz-adv-x="583" d="M353 544 L353 489 Q350 480 335.5 472 Q321 464 302 464 Q283 464 269 471.5 Q255 479 251 489 L251 544 Q255 554 268.5 561.5 Q282 569 302 569 Q322 569 336 561.5 Q350 554 353 544 Z M552 302 L53 302 L53 373 L552 373 L552 302 Z M353 189 L353 134 Q350 125 335.5 117 Q321 109 302 109 Q283 109 269 116.5 Q255 124 251 134 L251 189 Q255 199 268.5 206.5 Q282 214 302 214 Q322 214 336 206.5 Q350 199 353 189 Z " />
<glyph glyph-name="equal" unicode="&#x3d;" horiz-adv-x="583" d="M552 199 L54 199 L54 270 L552 270 L552 199 Z M552 405 L54 405 L54 476 L552 476 L552 405 Z " />
<glyph glyph-name="notequal" unicode="&#x2260;" horiz-adv-x="583" d="M368 405 L313 270 L553 270 L553 199 L285 199 L240 88 L168 88 L212 199 L55 199 L55 270 L241 270 L295 405 L55 405 L55 476 L323 476 L368 587 L440 587 L396 476 L553 476 L553 405 L368 405 Z " />
<glyph glyph-name="approxequal" unicode="&#x2248;" horiz-adv-x="583" d="M328 272 Q367 260 396.5 253.5 Q426 247 455 247 Q484 247 509 257 Q534 267 550.5 278.5 Q567 290 567 291 L567 210 Q567 209 551.5 200 Q536 191 511.5 183.5 Q487 176 456 176 Q421 176 389.5 182.5 Q358 189 313 202 Q275 214 245.5 220.5 Q216 227 185 227 Q150 227 120 215.5 Q90 204 69.5 190.5 Q49 177 49 176 L49 252 Q49 253 68 265.5 Q87 278 118 288 Q149 298 187 298 Q220 298 252 291.5 Q284 285 328 272 Z M328 479 Q367 467 396.5 460.5 Q426 454 455 454 Q484 454 509 464 Q534 474 550.5 485.5 Q567 497 567 498 L567 417 Q567 416 551.5 407 Q536 398 511.5 390.5 Q487 383 456 383 Q421 383 389.5 389.5 Q358 396 313 409 Q275 421 245.5 427.5 Q216 434 185 434 Q150 434 120 422.5 Q90 411 69.5 397.5 Q49 384 49 383 L49 459 Q49 460 68 472.5 Q87 485 118 495 Q149 505 187 505 Q220 505 252 498.5 Q284 492 328 479 Z " />
<glyph glyph-name="less" unicode="&#x3c;" horiz-adv-x="583" d="M542 487 L126 299 L542 111 L542 60 L478 60 L21 269 L21 329 L478 538 L542 538 L542 487 Z " />
<glyph glyph-name="greater" unicode="&#x3e;" horiz-adv-x="583" d="M570 329 L570 269 L112 60 L49 60 L49 111 L465 299 L49 487 L49 538 L112 538 L570 329 Z " />
<glyph glyph-name="lessequal" unicode="&#x2264;" horiz-adv-x="583" d="M43 333 L43 380 L478 563 L542 563 L542 512 L160 359 L542 215 L542 163 L478 163 L43 333 Z M43 99 L542 99 L542 27 L43 27 L43 99 Z " />
<glyph glyph-name="greaterequal" unicode="&#x2265;" horiz-adv-x="583" d="M552 380 L552 333 L117 163 L54 163 L54 215 L435 359 L54 512 L54 563 L117 563 L552 380 Z M552 27 L54 27 L54 99 L552 99 L552 27 Z " />
<glyph glyph-name="logicalnot" unicode="&#xac;" horiz-adv-x="583" d="M535 88 L462 88 L462 302 L37 302 L37 373 L535 373 L535 88 Z " />
<glyph glyph-name="uni00AD" unicode="&#xad;" horiz-adv-x="363" d="M328 302 L50 302 L65 373 L343 373 L328 302 Z " />
<glyph glyph-name="Delta" unicode="&#x2206;" horiz-adv-x="608" d="M533 58 L520 0 L-28 0 L-15 58 L332 700 L460 700 L533 58 Z M435 75 L380 620 L377 620 L87 75 L435 75 Z " />
<glyph glyph-name="Omega" unicode="&#x2126;" horiz-adv-x="629" d="M396 75 L524 75 L508 0 L296 0 L318 106 Q365 114 401.5 142 Q438 170 458 204 L531 543 Q524 584 488 610.5 Q452 637 393 637 Q336 637 289 610 Q242 583 217 542 L143 203 Q149 171 173.5 143 Q198 115 241 106 L219 0 L5 0 L22 75 L162 75 Q116 94 87.5 128 Q59 162 49 201 L127 562 Q162 624 231.5 669 Q301 714 401 714 Q469 714 517.5 690.5 Q566 667 593 632.5 Q620 598 629 562 L551 201 Q529 159 489.5 126.5 Q450 94 396 75 Z " />
<glyph glyph-name="mu" unicode="&#xb5;" horiz-adv-x="550" d="M543 538 L427 0 L345 0 L355 49 Q294 -12 206 -12 Q139 -12 100 25 L58 -166 L-29 -166 L123 538 L210 538 L118 114 Q130 92 158.5 75 Q187 58 229 58 Q308 58 365 117 L456 538 L543 538 Z " />
<glyph glyph-name="pi" unicode="&#x3c0;" horiz-adv-x="615" d="M630 471 L560 471 L458 0 L371 0 L473 471 L228 471 L126 0 L39 0 L141 471 L70 471 L86 538 L645 538 L630 471 Z " />
<glyph glyph-name="degree" unicode="&#xb0;" horiz-adv-x="377" d="M440 727 L412 598 Q392 566 350.5 541.5 Q309 517 248 517 Q190 517 153.5 543 Q117 569 106 598 L133 727 Q154 757 195.5 782 Q237 807 297 807 Q356 807 393.5 781 Q431 755 440 727 Z M193 708 L172 616 Q180 598 199.5 585 Q219 572 252 572 Q314 572 352 616 L373 708 Q364 727 344 739.5 Q324 752 291 752 Q258 752 232 738.5 Q206 725 193 708 Z " />
<glyph glyph-name="infinity" unicode="&#x221e;" horiz-adv-x="785" d="M717 440 L717 269 Q702 235 661 209.5 Q620 184 559 184 Q499 184 464.5 207 Q430 230 404 269 L404 270 L403 269 Q378 231 343.5 207.5 Q309 184 249 184 Q188 184 147 209.5 Q106 235 92 269 L92 439 Q106 473 147 499 Q188 525 249 525 Q308 525 342.5 501.5 Q377 478 403 439 L404 438 L404 440 Q431 478 465.5 501.5 Q500 525 559 525 Q620 525 661 499.5 Q702 474 717 440 Z M371 354 L343 425 Q333 444 308 457.5 Q283 471 250 471 Q217 471 193 457.5 Q169 444 159 425 L159 284 Q169 264 193 251 Q217 238 250 238 Q283 238 308 251 Q333 264 343 284 L371 354 Z M648 425 Q640 444 616 457.5 Q592 471 560 471 Q527 471 501.5 457.5 Q476 444 465 425 L437 354 L465 283 Q476 264 501.5 251 Q527 238 560 238 Q592 238 616 251 Q640 264 648 283 L648 425 Z " />
<glyph glyph-name="partialdiff" unicode="&#x2202;" horiz-adv-x="547" d="M495 514 L495 118 Q473 66 418 26 Q363 -14 275 -14 Q188 -14 133 25.5 Q78 65 55 118 L55 356 Q74 407 127 447 Q180 487 261 487 Q310 487 344.5 473.5 Q379 460 408 436 L408 494 Q382 552 306 601.5 Q230 651 143 679 L193 731 Q293 700 381 640 Q469 580 495 514 Z M142 337 L142 137 Q156 103 191 80 Q226 57 275 57 Q324 57 359 80 Q394 103 408 137 L408 356 Q388 381 354.5 398.5 Q321 416 276 416 Q227 416 191.5 393.5 Q156 371 142 337 Z " />
<glyph glyph-name="integral" unicode="&#x222b;" horiz-adv-x="440" d="M420 703 L420 644 L369 644 Q319 644 296.5 627.5 Q274 611 263 589 L263 -90 Q224 -182 100 -182 Q74 -182 51.5 -179.5 Q29 -177 20 -173 L20 -114 L71 -114 Q152 -114 176 -60 L176 621 Q217 713 339 713 Q364 713 386.5 710 Q409 707 420 703 Z " />
<glyph glyph-name="radical" unicode="&#x221a;" horiz-adv-x="585" d="M599 652 L382 0 L276 0 L119 471 L61 471 L61 538 L187 538 L329 104 L332 104 L522 700 L599 700 L599 652 Z " />
<glyph glyph-name="summation" unicode="&#x2211;" horiz-adv-x="556" d="M382 332 L382 270 L190 -28 L540 -28 L540 -100 L75 -100 L75 -39 L292 301 L75 639 L75 700 L540 700 L540 628 L191 628 L382 332 Z " />
<glyph glyph-name="product" unicode="&#x220f;" horiz-adv-x="646" d="M490 -100 L490 628 L190 628 L190 -100 L96 -100 L96 700 L584 700 L584 -100 L490 -100 Z " />
<glyph glyph-name="lozenge" unicode="&#x25ca;" horiz-adv-x="580" d="M358 0 L263 0 L65 350 L263 700 L358 700 L557 350 L358 0 Z M311 91 L461 350 L311 609 L161 350 L311 91 Z " />
<glyph glyph-name="arrowleft" unicode="&#x2190;" horiz-adv-x="760" d="M18 376 L342 700 L399 700 L399 645 L136 386 L778 386 L778 313 L137 313 L399 55 L399 0 L342 0 L18 323 L18 376 Z " />
<glyph glyph-name="arrowright" unicode="&#x2192;" horiz-adv-x="760" d="M778 323 L455 0 L398 0 L398 55 L659 313 L18 313 L18 386 L660 386 L398 645 L398 700 L455 700 L778 376 L778 323 Z " />
<glyph glyph-name="arrowup" unicode="&#x2191;" horiz-adv-x="760" d="M753 386 L698 386 L446 641 L446 0 L363 0 L363 641 L108 386 L53 386 L53 436 L378 760 L430 760 L753 436 L753 386 Z " />
<glyph glyph-name="arrowdown" unicode="&#x2193;" horiz-adv-x="760" d="M724 264 L401 -60 L348 -60 L24 264 L24 314 L79 314 L333 59 L333 700 L416 700 L416 59 L669 314 L724 314 L724 264 Z " />
<glyph glyph-name="uni0410" unicode="&#x410;" horiz-adv-x="608" d="M533 58 L520 0 L445 0 L425 199 L156 199 L52 0 L-28 0 L-15 58 L332 700 L460 700 L533 58 Z M417 274 L381 621 L378 621 L195 274 L417 274 Z " />
<glyph glyph-name="uni0411" unicode="&#x411;" horiz-adv-x="580" d="M245 625 L202 423 L355 423 Q423 423 476 391 Q529 359 546 310 L505 119 Q471 64 414.5 32 Q358 0 286 0 L16 0 L166 700 L617 700 L601 625 L245 625 Z M185 348 L126 75 L273 75 Q324 75 360 94.5 Q396 114 425 150 L453 279 Q442 310 409 329 Q376 348 330 348 L185 348 Z " />
<glyph glyph-name="uni0412" unicode="&#x412;" horiz-adv-x="589" d="M459 364 Q487 351 510 330 Q533 309 543 282 L508 119 Q477 67 420 33.5 Q363 0 299 0 L16 0 L166 700 L407 700 Q475 700 525.5 665.5 Q576 631 593 582 L565 450 Q548 422 519.5 399.5 Q491 377 459 364 Z M500 556 Q490 590 459.5 607.5 Q429 625 380 625 L244 625 L196 400 L348 400 Q385 400 421 418 Q457 436 481 470 L500 556 Z M452 262 Q441 292 407.5 310 Q374 328 327 328 L181 328 L126 75 L267 75 Q326 75 364 94.5 Q402 114 428 151 L452 262 Z " />
<glyph glyph-name="uni0413" unicode="&#x413;" horiz-adv-x="496" d="M547 625 L244 625 L110 0 L16 0 L166 700 L563 700 L547 625 Z " />
<glyph glyph-name="uni0414" unicode="&#x414;" horiz-adv-x="687" d="M533 75 L614 75 L569 -135 L487 -135 L517 0 L50 0 L21 -135 L-60 -135 L-15 75 Q19 83 54.5 106 Q90 129 103 151 L283 700 L667 700 L533 75 Z M439 75 L557 625 L345 625 L186 134 Q161 98 111 75 L439 75 Z " />
<glyph glyph-name="uni0415" unicode="&#x415;" horiz-adv-x="539" d="M560 625 L244 625 L195 398 L490 398 L474 323 L179 323 L126 75 L451 75 L434 0 L16 0 L166 700 L576 700 L560 625 Z " />
<glyph glyph-name="uni0416" unicode="&#x416;" horiz-adv-x="856" d="M895 642 L672 370 L778 58 L765 0 L696 0 L591 328 L485 328 L415 0 L325 0 L395 328 L301 328 L53 0 L-26 0 L-14 58 L226 371 L120 642 L132 700 L194 700 L306 403 L411 403 L475 700 L565 700 L501 403 L596 403 L833 700 L908 700 L895 642 Z " />
<glyph glyph-name="uni0417" unicode="&#x417;" horiz-adv-x="597" d="M603 582 L578 464 Q527 386 443 355 Q480 336 502 309 Q524 282 533 255 L503 118 Q416 -14 243 -14 Q175 -14 128 8 Q81 30 55.5 59.5 Q30 89 20 118 L31 170 L108 170 Q115 123 151 92 Q187 61 250 61 Q307 61 350.5 86 Q394 111 417 144 L438 239 Q430 272 394 297.5 Q358 323 293 322 L228 322 L231 335 L244 397 L325 397 Q384 396 425 420.5 Q466 445 490 479 L506 557 Q497 590 463.5 614.5 Q430 639 374 639 Q311 639 262.5 607 Q214 575 191 530 L108 530 L120 582 Q154 633 218.5 673.5 Q283 714 381 714 Q448 714 495 692 Q542 670 568 640 Q594 610 603 582 Z " />
<glyph glyph-name="uni0418" unicode="&#x418;" horiz-adv-x="660" d="M528 0 L440 0 L561 565 L558 565 L122 0 L16 0 L166 700 L255 700 L134 135 L137 135 L573 700 L678 700 L528 0 Z " />
<glyph glyph-name="uni0419" unicode="&#x419;" horiz-adv-x="660" d="M528 0 L440 0 L561 565 L558 565 L122 0 L16 0 L166 700 L255 700 L134 135 L137 135 L573 700 L678 700 L528 0 Z M591 819 Q574 787 537 765 Q500 743 443 743 Q385 743 349.5 765.5 Q314 788 304 819 L316 874 L383 874 L374 837 Q376 824 392.5 810.5 Q409 797 443 797 Q477 797 497.5 809.5 Q518 822 528 837 L537 874 L604 874 L591 819 Z " />
<glyph glyph-name="uni041A" unicode="&#x41a;" horiz-adv-x="572" d="M611 642 L359 368 L495 58 L482 0 L418 0 L278 328 L177 328 L107 0 L13 0 L163 700 L257 700 L193 403 L283 403 L550 700 L623 700 L611 642 Z " />
<glyph glyph-name="uni041B" unicode="&#x41b;" horiz-adv-x="643" d="M511 0 L417 0 L551 625 L341 625 L163 80 Q131 35 83.5 15.5 Q36 -4 -38 -4 L-22 72 Q14 72 44 87.5 Q74 103 88 124 L277 700 L661 700 L511 0 Z " />
<glyph glyph-name="uni041C" unicode="&#x41c;" horiz-adv-x="757" d="M626 0 L537 0 L660 574 L657 574 L395 184 L325 184 L231 574 L228 574 L104 0 L16 0 L166 700 L285 700 L382 303 L385 303 L651 700 L776 700 L626 0 Z " />
<glyph glyph-name="uni041D" unicode="&#x41d;" horiz-adv-x="646" d="M514 0 L420 0 L489 324 L179 324 L110 0 L16 0 L166 700 L260 700 L195 398 L505 398 L570 700 L664 700 L514 0 Z " />
<glyph glyph-name="uni041E" unicode="&#x41e;" horiz-adv-x="626" d="M627 562 L536 139 Q498 74 432.5 30 Q367 -14 267 -14 Q198 -14 148 9 Q98 32 70 67 Q42 102 34 139 L125 562 Q162 626 228 670 Q294 714 393 714 Q462 714 512 691 Q562 668 590.5 633 Q619 598 627 562 Z M214 542 L132 158 Q138 118 176 90 Q214 62 273 62 Q331 62 375.5 89.5 Q420 117 447 159 L529 543 Q523 583 485.5 611 Q448 639 388 639 Q330 639 285.5 611.5 Q241 584 214 542 Z " />
<glyph glyph-name="uni041F" unicode="&#x41f;" horiz-adv-x="640" d="M509 0 L415 0 L549 625 L244 625 L110 0 L16 0 L166 700 L659 700 L509 0 Z " />
<glyph glyph-name="uni0420" unicode="&#x420;" horiz-adv-x="571" d="M594 582 L553 394 Q516 336 459 306 Q402 276 328 276 L169 276 L110 0 L16 0 L166 700 L392 700 Q549 700 594 582 Z M496 554 Q485 590 453 607.5 Q421 625 381 625 L244 625 L185 351 L319 351 Q419 351 470 427 L496 554 Z " />
<glyph glyph-name="uni0421" unicode="&#x421;" horiz-adv-x="605" d="M627 568 L615 516 L539 516 Q536 568 496.5 603.5 Q457 639 390 639 Q331 639 286 611.5 Q241 584 214 542 L132 158 Q138 118 176 90 Q214 62 273 62 Q339 62 385.5 95.5 Q432 129 460 185 L544 185 L532 132 Q499 71 434.5 28.5 Q370 -14 270 -14 Q201 -14 150.5 9 Q100 32 71 67 Q42 102 34 138 L125 562 Q159 624 226 669 Q293 714 393 714 Q462 714 511.5 691.5 Q561 669 589 635.5 Q617 602 627 568 Z " />
<glyph glyph-name="uni0422" unicode="&#x422;" horiz-adv-x="529" d="M580 625 L388 625 L254 0 L160 0 L294 625 L101 625 L117 700 L596 700 L580 625 Z " />
<glyph glyph-name="uni0423" unicode="&#x423;" horiz-adv-x="559" d="M615 700 L603 642 L250 64 Q215 24 174 9.5 Q133 -5 78 -5 Q51 -5 27 -1 L42 70 Q56 68 79 68 Q138 68 180 105 L223 178 L116 642 L128 700 L196 700 L288 277 L538 700 L615 700 Z " />
<glyph glyph-name="uni0424" unicode="&#x424;" horiz-adv-x="734" d="M726 510 L657 190 Q615 129 545 92.5 Q475 56 403 56 L364 56 L344 -40 L260 -40 L280 56 L254 56 Q208 56 164 74 Q120 92 88 122.5 Q56 153 45 190 L114 510 Q154 570 225 607 Q296 644 367 644 L406 644 L427 740 L511 740 L490 644 L517 644 Q563 644 606.5 625.5 Q650 607 682 576.5 Q714 546 726 510 Z M390 571 L368 571 Q324 571 274.5 548 Q225 525 196 490 L137 210 Q149 174 188 151.5 Q227 129 272 129 L296 129 L390 571 Z M633 490 Q622 526 582.5 548.5 Q543 571 498 571 L474 571 L380 129 L404 129 Q448 129 497.5 151.5 Q547 174 574 210 L633 490 Z " />
<glyph glyph-name="uni0425" unicode="&#x425;" horiz-adv-x="583" d="M611 642 L370 356 L493 58 L480 0 L412 0 L300 296 L297 296 L62 0 L-14 0 L-2 58 L248 361 L131 642 L144 700 L211 700 L319 417 L322 417 L547 700 L624 700 L611 642 Z " />
<glyph glyph-name="uni0426" unicode="&#x426;" horiz-adv-x="674" d="M520 75 L602 75 L556 -135 L475 -135 L504 0 L16 0 L166 700 L260 700 L126 75 L426 75 L560 700 L654 700 L520 75 Z " />
<glyph glyph-name="uni0427" unicode="&#x427;" horiz-adv-x="623" d="M641 700 L491 0 L397 0 L460 295 Q385 246 292 246 Q233 246 189 262 Q145 278 118.5 301.5 Q92 325 83 348 L158 700 L252 700 L184 378 Q195 355 225.5 336.5 Q256 318 309 318 Q359 318 404 336 Q449 354 478 379 L547 700 L641 700 Z " />
<glyph glyph-name="uni0428" unicode="&#x428;" horiz-adv-x="909" d="M777 0 L16 0 L166 700 L260 700 L126 75 L366 75 L500 700 L594 700 L460 75 L699 75 L833 700 L927 700 L777 0 Z " />
<glyph glyph-name="uni0429" unicode="&#x429;" horiz-adv-x="947" d="M793 75 L875 75 L830 -135 L748 -135 L777 0 L16 0 L166 700 L260 700 L126 75 L366 75 L500 700 L594 700 L460 75 L699 75 L833 700 L927 700 L793 75 Z " />
<glyph glyph-name="uni042A" unicode="&#x42a;" horiz-adv-x="675" d="M639 314 L596 119 Q563 68 507.5 34 Q452 0 377 0 L108 0 L242 627 L102 627 L117 700 L352 700 L293 426 L452 426 Q514 426 568 393.5 Q622 361 639 314 Z M546 285 Q534 315 501.5 333.5 Q469 352 429 352 L277 352 L218 75 L361 75 Q411 75 448.5 96.5 Q486 118 517 153 L546 285 Z " />
<glyph glyph-name="uni042B" unicode="&#x42b;" horiz-adv-x="794" d="M202 426 L345 426 Q406 426 460 393.5 Q514 361 531 314 L489 119 Q455 68 399.5 34 Q344 0 270 0 L16 0 L166 700 L260 700 L202 426 Z M662 0 L568 0 L719 700 L813 700 L662 0 Z M186 352 L126 75 L253 75 Q304 75 341.5 96.5 Q379 118 410 153 L439 285 Q427 315 394.5 333.5 Q362 352 322 352 L186 352 Z " />
<glyph glyph-name="uni042C" unicode="&#x42c;" horiz-adv-x="583" d="M202 426 L361 426 Q422 426 476 393.5 Q530 361 547 314 L505 119 Q471 67 415 33.5 Q359 0 285 0 L16 0 L166 700 L260 700 L202 426 Z M186 352 L126 75 L269 75 Q320 75 357 96 Q394 117 425 153 L454 285 Q443 315 410.5 333.5 Q378 352 338 352 L186 352 Z " />
<glyph glyph-name="uni042D" unicode="&#x42d;" horiz-adv-x="615" d="M617 562 L525 138 Q492 77 424.5 31.5 Q357 -14 257 -14 Q189 -14 139 9 Q89 32 61 65.5 Q33 99 24 132 L35 185 L112 185 Q114 133 153.5 97 Q193 61 260 61 Q319 61 364.5 89 Q410 117 436 159 L471 322 L226 322 L242 398 L487 398 L518 543 Q512 583 474 610.5 Q436 638 377 638 Q253 638 190 516 L106 516 L118 568 Q151 630 216 672 Q281 714 381 714 Q450 714 500.5 691 Q551 668 580 633 Q609 598 617 562 Z " />
<glyph glyph-name="uni042E" unicode="&#x42e;" horiz-adv-x="867" d="M868 562 L777 139 Q739 74 674 30 Q609 -14 511 -14 Q444 -14 397.5 9.5 Q351 33 325 67.5 Q299 102 291 139 L331 323 L179 323 L110 0 L16 0 L166 700 L260 700 L195 398 L347 398 L382 562 Q421 626 485 670 Q549 714 647 714 Q744 714 798.5 667.5 Q853 621 868 562 Z M770 543 Q762 584 728 611.5 Q694 639 639 639 Q585 639 541 611.5 Q497 584 471 542 L390 158 Q396 118 431 90 Q466 62 521 62 Q574 62 618 89.5 Q662 117 688 159 L770 543 Z " />
<glyph glyph-name="uni042F" unicode="&#x42f;" horiz-adv-x="593" d="M612 700 L462 0 L368 0 L431 293 L316 293 L74 0 L-3 0 L10 58 L215 301 Q169 313 135.5 343 Q102 373 87 412 L124 582 Q165 638 221 669 Q277 700 340 700 L612 700 Z M502 625 L360 625 Q313 625 273.5 605 Q234 585 206 548 L183 439 Q195 404 226 386 Q257 368 304 368 L447 368 L502 625 Z " />
<glyph glyph-name="uni0490" unicode="&#x490;" horiz-adv-x="479" d="M531 625 L244 625 L110 0 L16 0 L166 700 L465 700 L491 820 L573 820 L531 625 Z " />
<glyph glyph-name="uni0406" unicode="&#x406;" horiz-adv-x="242" d="M110 0 L16 0 L166 700 L260 700 L110 0 Z " />
<glyph glyph-name="uni0402" unicode="&#x402;" horiz-adv-x="700" d="M674 344 L622 100 Q589 57 527 27.5 Q465 -2 379 -2 L355 -2 L372 71 Q429 71 471 90 Q513 109 535 131 L574 312 Q562 335 530 353 Q498 371 443 371 Q395 371 351 353.5 Q307 336 278 310 L212 0 L118 0 L252 625 L101 625 L117 700 L558 700 L542 625 L346 625 L297 400 Q375 446 466 446 Q550 446 602.5 414.5 Q655 383 674 344 Z " />
<glyph glyph-name="uni0452" unicode="&#x452;" horiz-adv-x="569" d="M542 428 L440 -48 Q410 -106 346.5 -143 Q283 -180 192 -180 L207 -111 Q255 -111 296 -85 Q337 -59 358 -23 L451 408 Q442 431 415 449.5 Q388 468 341 468 Q295 468 258 451 Q221 434 196 407 L109 0 L22 0 L150 597 L102 597 L114 648 L161 648 L172 700 L259 700 L248 648 L435 648 L424 597 L237 597 L213 486 Q282 539 367 539 Q445 539 487.5 503.5 Q530 468 542 428 Z " />
<glyph glyph-name="uni0403" unicode="&#x403;" horiz-adv-x="496" d="M547 625 L244 625 L110 0 L16 0 L166 700 L563 700 L547 625 Z M379 753 L310 753 L314 769 L407 906 L493 906 L483 864 L379 753 Z " />
<glyph glyph-name="uni0453" unicode="&#x453;" horiz-adv-x="431" d="M448 471 L195 471 L94 0 L7 0 L123 538 L463 538 L448 471 Z M321 608 L250 608 L253 623 L348 765 L435 765 L425 723 L321 608 Z " />
<glyph glyph-name="uni0456" unicode="&#x456;" horiz-adv-x="226" d="M99 0 L11 0 L127 538 L215 538 L99 0 Z " />
<glyph glyph-name="uni0491" unicode="&#x491;" horiz-adv-x="433" d="M446 471 L195 471 L94 0 L7 0 L123 538 L386 538 L405 629 L480 629 L446 471 Z " />
<glyph glyph-name="uni0408" unicode="&#x408;" horiz-adv-x="387" d="M289 139 Q250 72 183.5 35 Q117 -2 24 -2 Q-14 -2 -38 0 L-22 73 L18 73 Q77 73 124.5 98 Q172 123 201 165 L315 700 L409 700 L289 139 Z " />
<glyph glyph-name="uni0404" unicode="&#x404;" horiz-adv-x="615" d="M214 542 L183 398 L427 398 L411 322 L167 322 L132 158 Q138 118 176 90 Q214 62 273 62 Q339 62 385.5 95.5 Q432 129 460 185 L544 185 L532 132 Q499 71 434.5 28.5 Q370 -14 270 -14 Q201 -14 150.5 9 Q100 32 71 67 Q42 102 34 138 L125 562 Q159 624 226 669 Q293 714 393 714 Q462 714 511.5 691.5 Q561 669 589 635.5 Q617 602 627 568 L615 516 L539 516 Q536 568 496.5 603.5 Q457 639 390 639 Q331 639 286 611.5 Q241 584 214 542 Z " />
<glyph glyph-name="uni0454" unicode="&#x454;" horiz-adv-x="527" d="M169 401 L149 307 L356 307 L342 241 L135 241 L112 134 Q119 101 150 79 Q181 57 231 57 Q333 57 391 155 L464 155 L455 109 Q427 60 370.5 23 Q314 -14 227 -14 Q167 -14 122.5 6 Q78 26 53 56.5 Q28 87 21 118 L87 420 Q117 474 176.5 513 Q236 552 324 552 Q383 552 426 532.5 Q469 513 493 484.5 Q517 456 523 429 L514 383 L445 383 Q437 428 404 454.5 Q371 481 317 481 Q268 481 229.5 458 Q191 435 169 401 Z " />
<glyph glyph-name="uni0407" unicode="&#x407;" horiz-adv-x="242" d="M203 837 L192 785 Q173 766 141 766 Q122 766 111 772 Q100 778 97 785 L108 837 Q127 856 159 856 Q178 856 189 850 Q200 844 203 837 Z M379 837 L368 785 Q349 766 316 766 Q297 766 286.5 772 Q276 778 272 785 L283 837 Q302 856 334 856 Q353 856 364 850 Q375 844 379 837 Z M110 0 L16 0 L166 700 L260 700 L110 0 Z " />
<glyph glyph-name="uni0457" unicode="&#x457;" horiz-adv-x="254" d="M187 704 L175 649 Q153 630 123 630 Q105 630 94 636 Q83 642 79 649 L91 704 Q113 723 142 723 Q174 723 187 704 Z M350 704 L338 649 Q319 630 286 630 Q267 630 256.5 636 Q246 642 242 649 L254 704 Q276 723 305 723 Q337 723 350 704 Z M112 0 L25 0 L141 538 L228 538 L112 0 Z " />
<glyph glyph-name="uni0409" unicode="&#x409;" horiz-adv-x="985" d="M950 314 L907 119 Q874 68 818.5 34 Q763 0 688 0 L419 0 L553 625 L343 625 L165 80 Q132 35 84.5 15.5 Q37 -4 -36 -4 L-20 72 Q16 72 45.5 87.5 Q75 103 90 124 L279 700 L663 700 L604 426 L764 426 Q825 426 879 393.5 Q933 361 950 314 Z M857 285 Q845 315 812.5 333.5 Q780 352 740 352 L588 352 L529 75 L672 75 Q722 75 759.5 96.5 Q797 118 828 153 L857 285 Z " />
<glyph glyph-name="uni0459" unicode="&#x459;" horiz-adv-x="832" d="M793 245 L759 91 Q692 0 584 0 L340 0 L442 471 L268 471 L141 74 Q111 35 67 15.5 Q23 -4 -43 -4 L-29 66 Q3 66 30.5 80 Q58 94 70 113 L209 538 L543 538 L500 335 L635 335 Q696 335 735 309.5 Q774 284 793 245 Z M704 216 Q696 238 672 253.5 Q648 269 614 269 L486 269 L443 67 L566 67 Q634 67 684 124 L704 216 Z " />
<glyph glyph-name="uni040A" unicode="&#x40a;" horiz-adv-x="970" d="M933 314 L891 119 Q858 68 802 34 Q746 0 672 0 L403 0 L478 353 L244 353 L168 0 L74 0 L224 700 L318 700 L260 426 L494 426 L553 700 L647 700 L588 426 L747 426 Q809 426 863 393.5 Q917 361 933 314 Z M841 285 Q829 315 796.5 333.5 Q764 352 724 352 L572 352 L513 75 L655 75 Q706 75 743.5 96.5 Q781 118 812 153 L841 285 Z " />
<glyph glyph-name="uni045A" unicode="&#x45a;" horiz-adv-x="833" d="M795 245 L761 91 Q728 45 683.5 22.5 Q639 0 587 0 L343 0 L401 269 L152 269 L94 0 L7 0 L123 538 L210 538 L167 335 L415 335 L459 538 L546 538 L503 335 L638 335 Q699 335 737.5 309.5 Q776 284 795 245 Z M706 216 Q699 237 675 253 Q651 269 617 269 L488 269 L446 67 L568 67 Q638 67 686 124 L706 216 Z " />
<glyph glyph-name="uni0458" unicode="&#x458;" horiz-adv-x="217" d="M253 701 L242 650 Q235 640 220 633 Q205 626 185 626 Q166 626 153.5 633 Q141 640 139 650 L150 701 Q157 711 172.5 718.5 Q188 726 207 726 Q227 726 238.5 718.5 Q250 711 253 701 Z M84 -48 Q54 -106 -9.5 -143 Q-73 -180 -164 -180 L-149 -111 Q-101 -111 -60 -85 Q-19 -59 2 -23 L122 538 L210 538 L84 -48 Z " />
<glyph glyph-name="uni0405" unicode="&#x405;" horiz-adv-x="585" d="M591 598 L579 546 L502 546 Q493 587 458 613 Q423 639 364 639 Q318 639 279 618.5 Q240 598 217 569 L196 469 Q203 450 222 438 Q241 426 294 409 L372 384 Q449 360 481.5 333 Q514 306 529 265 L497 119 Q411 -14 245 -14 Q176 -14 126 7.5 Q76 29 48 59.5 Q20 90 11 118 L22 170 L99 170 Q109 123 148.5 92.5 Q188 62 251 62 Q308 62 349 87 Q390 112 414 148 L433 238 Q427 261 403.5 277.5 Q380 294 326 311 L242 338 Q176 359 146.5 380.5 Q117 402 99 442 L133 598 Q168 646 230 680 Q292 714 379 714 Q438 714 482.5 696 Q527 678 554 651.5 Q581 625 591 598 Z " />
<glyph glyph-name="uni040B" unicode="&#x40b;" horiz-adv-x="672" d="M542 625 L346 625 L302 420 L452 420 Q512 420 564.5 387.5 Q617 355 634 307 L568 0 L480 0 L541 279 Q530 309 497.5 327.5 Q465 346 422 346 L286 346 L212 0 L118 0 L252 625 L101 625 L117 700 L558 700 L542 625 Z " />
<glyph glyph-name="uni045B" unicode="&#x45b;" horiz-adv-x="569" d="M542 428 L451 0 L363 0 L450 408 Q440 431 412 449.5 Q384 468 338 468 Q294 468 257.5 451.5 Q221 435 197 410 L109 0 L22 0 L150 597 L102 597 L114 648 L161 648 L172 700 L259 700 L248 648 L435 648 L424 597 L237 597 L213 487 Q281 539 365 539 Q419 539 457 520.5 Q495 502 515.5 476.5 Q536 451 542 428 Z " />
<glyph glyph-name="uni040C" unicode="&#x40c;" horiz-adv-x="572" d="M611 642 L359 368 L495 58 L482 0 L418 0 L278 328 L177 328 L107 0 L13 0 L163 700 L257 700 L193 403 L283 403 L550 700 L623 700 L611 642 Z M417 753 L348 753 L352 769 L445 906 L531 906 L521 864 L417 753 Z " />
<glyph glyph-name="uni045C" unicode="&#x45c;" horiz-adv-x="496" d="M513 486 L308 280 L426 53 L414 0 L359 0 L232 246 L147 246 L94 0 L7 0 L123 538 L210 538 L161 312 L238 312 L459 538 L524 538 L513 486 Z M353 608 L282 608 L285 623 L380 765 L467 765 L457 723 L353 608 Z " />
<glyph glyph-name="uni0455" unicode="&#x455;" horiz-adv-x="486" d="M476 466 L466 421 L400 421 Q389 447 359 464.5 Q329 482 285 482 Q246 482 217 469 Q188 456 170 438 L154 366 Q167 337 237 317 L291 302 Q354 284 387 262 Q420 240 432 213 L404 84 Q376 44 325.5 15 Q275 -14 196 -14 Q115 -14 67.5 17 Q20 48 2 84 L12 130 L80 130 Q93 94 125 75 Q157 56 203 56 Q245 56 277 72 Q309 88 328 112 L344 184 Q337 201 316.5 213 Q296 225 260 235 L205 250 Q141 268 112 289 Q83 310 66 339 L94 466 Q117 497 168 524.5 Q219 552 293 552 Q366 552 412.5 525 Q459 498 476 466 Z " />
<glyph glyph-name="uni040E" unicode="&#x40e;" horiz-adv-x="557" d="M534 819 Q517 787 480 765 Q443 743 386 743 Q328 743 292.5 765.5 Q257 788 247 819 L259 874 L326 874 L317 837 Q319 824 335.5 810.5 Q352 797 386 797 Q420 797 440.5 809.5 Q461 822 471 837 L480 874 L547 874 L534 819 Z M615 700 L603 642 L250 64 Q215 24 174 9.5 Q133 -5 78 -5 Q51 -5 27 -1 L42 70 Q56 68 79 68 Q138 68 180 105 L223 178 L116 642 L128 700 L196 700 L288 277 L538 700 L615 700 Z " />
<glyph glyph-name="uni045E" unicode="&#x45e;" horiz-adv-x="506" d="M454 538 L531 538 L520 486 L196 -97 Q160 -139 115 -156 Q70 -173 13 -173 Q-24 -173 -54 -167 L-39 -101 Q-21 -104 2 -104 Q46 -104 75 -92 Q104 -80 126 -58 L158 3 L84 484 L96 538 L164 538 L221 108 L224 108 L454 538 Z M485 679 Q465 648 428 626 Q391 604 334 604 Q276 604 241.5 626 Q207 648 197 679 L209 734 L276 734 L267 697 Q269 684 286 670.5 Q303 657 336 657 Q370 657 390.5 669.5 Q411 682 421 697 L430 734 L497 734 L485 679 Z " />
<glyph glyph-name="uni040F" unicode="&#x40f;" horiz-adv-x="639" d="M508 0 L302 0 L274 -132 L193 -132 L221 0 L16 0 L166 700 L260 700 L126 75 L430 75 L564 700 L658 700 L508 0 Z " />
<glyph glyph-name="uni045F" unicode="&#x45f;" horiz-adv-x="561" d="M438 0 L261 0 L236 -122 L161 -122 L186 0 L7 0 L123 538 L210 538 L109 67 L365 67 L466 538 L554 538 L438 0 Z " />
<glyph glyph-name="uni0401" unicode="&#x401;" horiz-adv-x="539" d="M560 625 L244 625 L195 398 L490 398 L474 323 L179 323 L126 75 L451 75 L434 0 L16 0 L166 700 L576 700 L560 625 Z M355 852 L341 789 Q334 782 320.5 776 Q307 770 288 770 Q270 770 259 776 Q248 782 243 789 L257 852 Q264 859 277.5 865 Q291 871 309 871 Q339 871 355 852 Z M557 852 L543 789 Q536 782 522.5 776 Q509 770 490 770 Q461 770 445 789 L459 852 Q466 859 480 865 Q494 871 512 871 Q530 871 541 865 Q552 859 557 852 Z " />
<glyph glyph-name="uni0451" unicode="&#x451;" horiz-adv-x="539" d="M523 429 L486 255 L138 255 L113 135 Q119 101 150 79 Q181 57 231 57 Q334 57 386 155 L464 155 L455 109 Q427 60 369.5 23 Q312 -14 225 -14 Q165 -14 121 6.5 Q77 27 52.5 57 Q28 87 21 118 L87 420 Q117 473 177 512.5 Q237 552 324 552 Q383 552 426 532 Q469 512 493 483.5 Q517 455 523 429 Z M169 400 L153 321 L418 321 L435 404 Q429 437 398 459 Q367 481 317 481 Q268 481 229 458 Q190 435 169 400 Z M322 706 L308 644 Q301 637 287.5 631 Q274 625 255 625 Q236 625 225 631 Q214 637 210 644 L224 706 Q229 712 243.5 718.5 Q258 725 276 725 Q308 725 322 706 Z M524 706 L510 644 Q491 625 457 625 Q438 625 427 631 Q416 637 412 644 L426 706 Q432 713 446 719 Q460 725 479 725 Q510 725 524 706 Z " />
<glyph glyph-name="uni044F" unicode="&#x44f;" horiz-adv-x="531" d="M524 538 L408 0 L321 0 L366 210 L264 210 L69 0 L-3 0 L8 51 L168 215 Q134 224 107.5 247 Q81 270 66 300 L98 447 Q127 487 170.5 512.5 Q214 538 263 538 L524 538 Z M422 471 L290 471 Q253 471 223 455 Q193 439 174 415 L155 326 Q165 303 190 288 Q215 273 254 273 L381 273 L422 471 Z " />
<glyph glyph-name="uni0430" unicode="&#x430;" horiz-adv-x="542" d="M514 420 L423 0 L339 0 L350 48 Q282 -14 188 -14 Q111 -14 69 12.5 Q27 39 7 70 L43 236 Q65 267 113.5 294 Q162 321 234 321 L405 321 L423 402 Q417 436 387 458.5 Q357 481 307 481 Q257 481 222 460 Q187 439 168 408 L90 408 L101 454 Q126 489 177.5 520.5 Q229 552 313 552 Q373 552 416 531.5 Q459 511 483 480.5 Q507 450 514 420 Z M210 55 Q258 55 298 74.5 Q338 94 363 123 L391 255 L255 255 Q207 255 176 240.5 Q145 226 122 205 L100 103 Q110 85 137.5 70 Q165 55 210 55 Z " />
<glyph glyph-name="uni0431" unicode="&#x431;" horiz-adv-x="543" d="M573 714 L558 646 Q540 627 497.5 615.5 Q455 604 372 593 Q240 572 192 518 L175 440 Q244 489 327 489 Q382 489 421.5 468.5 Q461 448 483.5 418 Q506 388 512 359 L459 118 Q427 63 369.5 24.5 Q312 -14 224 -14 Q164 -14 121.5 6 Q79 26 55 56.5 Q31 87 24 118 L117 549 Q146 591 204.5 619 Q263 647 353 664 Q429 678 461.5 688.5 Q494 699 513 714 L573 714 Z M157 357 L110 134 Q118 101 149 79 Q180 57 228 57 Q278 57 316.5 79.5 Q355 102 377 137 L420 339 Q414 372 383 395 Q352 418 301 418 Q259 418 220.5 401 Q182 384 157 357 Z " />
<glyph glyph-name="uni0432" unicode="&#x432;" horiz-adv-x="528" d="M504 447 L480 336 Q451 295 393 275 Q446 256 461 216 L435 92 Q408 50 364 25 Q320 0 264 0 L7 0 L123 538 L356 538 Q411 538 450.5 511 Q490 484 504 447 Z M419 421 Q409 445 386 458.5 Q363 472 329 472 L195 472 L160 306 L296 306 Q332 306 360 321 Q388 336 406 358 L419 421 Z M376 192 Q369 214 346.5 227 Q324 240 290 240 L146 240 L109 68 L239 68 Q284 68 310.5 82 Q337 96 361 124 L376 192 Z " />
<glyph glyph-name="uni0433" unicode="&#x433;" horiz-adv-x="431" d="M448 471 L195 471 L94 0 L7 0 L123 538 L463 538 L448 471 Z " />
<glyph glyph-name="uni0434" unicode="&#x434;" horiz-adv-x="590" d="M444 67 L519 67 L479 -122 L403 -122 L428 0 L32 0 L7 -122 L-68 -122 L-28 67 Q3 75 34.5 95.5 Q66 116 79 136 L211 538 L545 538 L444 67 Z M90 67 L357 67 L443 471 L270 471 L157 120 Q135 87 90 67 Z " />
<glyph glyph-name="uni0435" unicode="&#x435;" horiz-adv-x="539" d="M523 429 L486 255 L138 255 L113 135 Q119 101 150 79 Q181 57 231 57 Q334 57 386 155 L464 155 L455 109 Q427 60 369.5 23 Q312 -14 225 -14 Q165 -14 121 6.5 Q77 27 52.5 57 Q28 87 21 118 L87 420 Q117 473 177 512.5 Q237 552 324 552 Q383 552 426 532 Q469 512 493 483.5 Q517 455 523 429 Z M169 400 L153 321 L418 321 L435 404 Q429 437 398 459 Q367 481 317 481 Q268 481 229 458 Q190 435 169 400 Z " />
<glyph glyph-name="uni0436" unicode="&#x436;" horiz-adv-x="715" d="M723 486 L556 282 L639 53 L627 0 L566 0 L479 246 L392 246 L339 0 L255 0 L308 246 L237 246 L45 0 L-27 0 L-15 53 L165 283 L86 486 L97 538 L154 538 L240 312 L323 312 L371 538 L455 538 L406 312 L482 312 L666 538 L734 538 L723 486 Z " />
<glyph glyph-name="uni0437" unicode="&#x437;" horiz-adv-x="513" d="M499 447 L476 347 Q441 300 379 276 Q426 254 446 206 L421 91 Q392 48 339 17 Q286 -14 203 -14 Q121 -14 75.5 19 Q30 52 10 91 L21 140 L90 140 Q99 102 129.5 79.5 Q160 57 211 57 Q256 57 289.5 75.5 Q323 94 344 121 L360 192 Q352 215 324.5 229.5 Q297 244 250 244 L196 244 L210 309 L266 309 Q347 309 397 367 L409 423 Q401 446 373.5 463.5 Q346 481 300 481 Q249 481 211.5 458 Q174 435 151 398 L77 398 L88 447 Q115 486 170 519 Q225 552 307 552 Q391 552 436.5 519.5 Q482 487 499 447 Z " />
<glyph glyph-name="uni0438" unicode="&#x438;" horiz-adv-x="577" d="M453 0 L371 0 L463 425 L460 425 L105 0 L7 0 L123 538 L205 538 L114 113 L117 113 L470 538 L569 538 L453 0 Z " />
<glyph glyph-name="uni0439" unicode="&#x439;" horiz-adv-x="577" d="M453 0 L371 0 L463 425 L460 425 L105 0 L7 0 L123 538 L205 538 L114 113 L117 113 L470 538 L569 538 L453 0 Z M521 679 Q501 648 464 626 Q427 604 370 604 Q312 604 277.5 626 Q243 648 233 679 L245 734 L312 734 L303 697 Q305 684 322 670.5 Q339 657 372 657 Q406 657 426.5 669.5 Q447 682 457 697 L466 734 L533 734 L521 679 Z " />
<glyph glyph-name="uni043A" unicode="&#x43a;" horiz-adv-x="496" d="M513 486 L308 280 L426 53 L414 0 L359 0 L232 246 L147 246 L94 0 L7 0 L123 538 L210 538 L161 312 L238 312 L459 538 L524 538 L513 486 Z " />
<glyph glyph-name="uni043B" unicode="&#x43b;" horiz-adv-x="551" d="M427 0 L340 0 L441 471 L268 471 L140 74 Q112 34 68.5 15 Q25 -4 -43 -4 L-29 66 Q3 66 30.5 80 Q58 94 70 113 L209 538 L543 538 L427 0 Z " />
<glyph glyph-name="uni043C" unicode="&#x43c;" horiz-adv-x="660" d="M537 0 L454 0 L547 431 L544 431 L326 137 L277 137 L185 431 L182 431 L89 0 L7 0 L123 538 L229 538 L320 248 L323 248 L539 538 L653 538 L537 0 Z " />
<glyph glyph-name="uni043D" unicode="&#x43d;" horiz-adv-x="573" d="M449 0 L362 0 L415 244 L147 244 L94 0 L7 0 L123 538 L210 538 L160 310 L428 310 L478 538 L565 538 L449 0 Z " />
<glyph glyph-name="uni043E" unicode="&#x43e;" horiz-adv-x="548" d="M527 420 L461 118 Q430 65 371.5 25.5 Q313 -14 225 -14 Q165 -14 121 6 Q77 26 52.5 56.5 Q28 87 21 118 L87 420 Q118 473 176.5 512.5 Q235 552 323 552 Q383 552 427 532 Q471 512 495.5 481.5 Q520 451 527 420 Z M169 398 L112 134 Q118 101 150 79 Q182 57 231 57 Q281 57 319.5 81 Q358 105 379 140 L436 404 Q430 437 398.5 459 Q367 481 316 481 Q267 481 228.5 457 Q190 433 169 398 Z " />
<glyph glyph-name="uni043F" unicode="&#x43f;" horiz-adv-x="552" d="M429 0 L342 0 L443 471 L195 471 L94 0 L7 0 L123 538 L545 538 L429 0 Z " />
<glyph glyph-name="uni0440" unicode="&#x440;" horiz-adv-x="547" d="M530 440 L457 99 Q428 55 378.5 21.5 Q329 -12 254 -12 Q157 -12 105 49 L58 -166 L-29 -166 L123 538 L208 538 L198 495 Q264 550 354 550 Q408 550 445.5 531.5 Q483 513 503 488 Q523 463 530 440 Z M437 419 Q429 442 402 461 Q375 480 328 480 Q282 480 245.5 463.5 Q209 447 185 421 L119 117 Q136 92 168 75 Q200 58 243 58 Q326 58 373 119 L437 419 Z " />
<glyph glyph-name="uni0441" unicode="&#x441;" horiz-adv-x="527" d="M523 429 L514 383 L446 383 Q439 427 405 454 Q371 481 317 481 Q268 481 229.5 458 Q191 435 169 401 L112 134 Q119 101 150.5 79 Q182 57 231 57 Q334 57 391 155 L464 155 L455 109 Q427 60 371 23 Q315 -14 229 -14 Q168 -14 123.5 6 Q79 26 53.5 56.5 Q28 87 21 118 L87 420 Q117 474 176.5 513 Q236 552 324 552 Q383 552 425.5 532 Q468 512 492.5 484 Q517 456 523 429 Z " />
<glyph glyph-name="uni0442" unicode="&#x442;" horiz-adv-x="473" d="M236 471 L68 471 L83 538 L506 538 L491 471 L323 471 L223 0 L136 0 L236 471 Z " />
<glyph glyph-name="uni0443" unicode="&#x443;" horiz-adv-x="506" d="M454 538 L531 538 L520 486 L196 -97 Q160 -139 115 -156 Q70 -173 13 -173 Q-24 -173 -54 -167 L-39 -101 Q-21 -104 2 -104 Q46 -104 75 -92 Q104 -80 126 -58 L158 3 L84 484 L96 538 L164 538 L221 108 L224 108 L454 538 Z " />
<glyph glyph-name="uni0444" unicode="&#x444;" horiz-adv-x="738" d="M723 449 L646 90 Q620 49 574.5 18.5 Q529 -12 461 -12 Q397 -12 358 20 L318 -166 L234 -166 L273 18 Q227 -12 167 -12 Q100 -12 64.5 19.5 Q29 51 16 90 L93 449 Q116 488 163 519 Q210 550 278 550 Q340 550 381 518 L420 700 L504 700 L465 520 Q510 550 571 550 Q638 550 673.5 519 Q709 488 723 449 Z M368 458 Q337 481 291 481 Q250 481 221.5 465 Q193 449 176 429 L106 108 Q130 58 199 58 Q247 58 287 81 L368 458 Z M632 430 Q608 481 539 481 Q489 481 452 457 L371 80 Q403 58 453 58 Q492 58 519 73.5 Q546 89 562 109 L632 430 Z " />
<glyph glyph-name="uni0445" unicode="&#x445;" horiz-adv-x="485" d="M484 485 L302 273 L401 53 L389 0 L327 0 L238 221 L236 221 L51 0 L-20 0 L-8 53 L188 279 L93 485 L105 538 L166 538 L251 330 L253 330 L426 538 L496 538 L484 485 Z " />
<glyph glyph-name="uni0446" unicode="&#x446;" horiz-adv-x="590" d="M445 67 L519 67 L478 -122 L402 -122 L427 0 L7 0 L123 538 L210 538 L109 67 L358 67 L458 538 L545 538 L445 67 Z " />
<glyph glyph-name="uni0447" unicode="&#x447;" horiz-adv-x="527" d="M519 538 L403 0 L316 0 L363 217 Q309 190 238 190 Q164 190 120 213.5 Q76 237 58 268 L116 538 L203 538 L153 304 Q181 259 261 259 Q323 259 380 293 L432 538 L519 538 Z " />
<glyph glyph-name="uni0448" unicode="&#x448;" horiz-adv-x="779" d="M656 0 L7 0 L123 538 L210 538 L109 67 L303 67 L404 538 L492 538 L391 67 L584 67 L685 538 L772 538 L656 0 Z " />
<glyph glyph-name="uni0449" unicode="&#x449;" horiz-adv-x="818" d="M671 67 L745 67 L705 -122 L629 -122 L654 0 L7 0 L123 538 L210 538 L109 67 L303 67 L404 538 L492 538 L391 67 L584 67 L685 538 L772 538 L671 67 Z " />
<glyph glyph-name="uni044A" unicode="&#x44a;" horiz-adv-x="587" d="M544 245 L510 91 Q477 45 432 22.5 Q387 0 336 0 L91 0 L193 471 L68 471 L83 538 L294 538 L251 335 L387 335 Q448 335 486.5 309.5 Q525 284 544 245 Z M455 216 Q447 238 423 253.5 Q399 269 365 269 L237 269 L194 67 L317 67 Q387 67 435 124 L455 216 Z " />
<glyph glyph-name="uni044B" unicode="&#x44b;" horiz-adv-x="694" d="M167 335 L292 335 Q353 335 392 309.5 Q431 284 450 245 L416 91 Q349 0 241 0 L7 0 L123 538 L210 538 L167 335 Z M571 0 L484 0 L600 538 L687 538 L571 0 Z M153 269 L110 67 L222 67 Q293 67 341 124 L361 216 Q353 238 329 253.5 Q305 269 271 269 L153 269 Z " />
<glyph glyph-name="uni044C" unicode="&#x44c;" horiz-adv-x="503" d="M167 335 L302 335 Q363 335 402 309.5 Q441 284 460 245 L426 91 Q359 0 251 0 L7 0 L123 538 L210 538 L167 335 Z M153 269 L110 67 L232 67 Q301 67 351 124 L371 216 Q363 238 339 253.5 Q315 269 281 269 L153 269 Z " />
<glyph glyph-name="uni044D" unicode="&#x44d;" horiz-adv-x="527" d="M506 420 L440 118 Q410 64 350.5 25 Q291 -14 203 -14 Q144 -14 101 5.5 Q58 25 34.5 53.5 Q11 82 5 109 L14 155 L83 155 Q90 110 123 83.5 Q156 57 210 57 Q259 57 297.5 80 Q336 103 358 137 L380 241 L173 241 L187 307 L395 307 L415 404 Q408 437 377 459 Q346 481 297 481 Q196 481 136 383 L63 383 L72 429 Q101 478 158 515 Q215 552 301 552 Q361 552 405 532 Q449 512 474 481.5 Q499 451 506 420 Z " />
<glyph glyph-name="uni044E" unicode="&#x44e;" horiz-adv-x="771" d="M751 420 L685 118 Q654 65 595.5 25.5 Q537 -14 449 -14 Q389 -14 345 6 Q301 26 276.5 56.5 Q252 87 245 118 L272 243 L146 243 L94 0 L7 0 L123 538 L210 538 L160 310 L287 310 L311 420 Q341 473 400 512.5 Q459 552 547 552 Q607 552 651 532 Q695 512 719.5 481.5 Q744 451 751 420 Z M660 404 Q654 437 622 459 Q590 481 540 481 Q491 481 452.5 457 Q414 433 393 398 L336 134 Q342 101 373.5 79 Q405 57 455 57 Q505 57 543.5 81 Q582 105 603 140 L660 404 Z " />
<glyph glyph-name="Idot" unicode="&#x130;" horiz-adv-x="242" d="M110 0 L16 0 L166 700 L260 700 L110 0 Z M299 852 L288 800 Q280 790 265 783 Q250 776 230 776 Q211 776 199.5 783 Q188 790 185 800 L196 852 Q202 861 217.5 868.5 Q233 876 253 876 Q272 876 283.5 869 Q295 862 299 852 Z " />
<glyph glyph-name="uni0162" unicode="&#x162;" horiz-adv-x="529" d="M596 700 L580 625 L388 625 L254 0 L235 0 L203 -52 L214 -52 Q243 -52 263.5 -66.5 Q284 -81 289 -99 L274 -169 Q239 -221 165 -221 Q136 -221 110.5 -214.5 Q85 -208 70 -198 L96 -153 Q129 -172 167 -172 Q187 -172 200.5 -165 Q214 -158 220 -148 L227 -116 Q224 -108 213 -101.5 Q202 -95 184 -95 L124 -95 L179 0 L160 0 L294 625 L101 625 L117 700 L596 700 Z " />
<glyph glyph-name="dslash" unicode="&#x111;" horiz-adv-x="573" d="M612 597 L552 597 L424 0 L340 0 L350 46 Q285 -12 196 -12 Q142 -12 103.5 6 Q65 24 44.5 49.5 Q24 75 18 99 L89 428 Q118 471 168 505 Q218 539 295 539 Q389 539 441 482 L465 597 L290 597 L302 648 L476 648 L487 700 L574 700 L563 648 L624 648 L612 597 Z M426 416 Q410 439 378.5 453.5 Q347 468 305 468 Q258 468 224.5 449 Q191 430 172 407 L110 119 Q119 96 146.5 77 Q174 58 221 58 Q266 58 302 75.5 Q338 93 363 120 L426 416 Z " />
<glyph glyph-name="uni0237" unicode="&#x237;" horiz-adv-x="217" d="M84 -48 Q54 -106 -9.5 -143 Q-73 -180 -164 -180 L-149 -111 Q-101 -111 -60 -85 Q-19 -59 2 -23 L122 538 L210 538 L84 -48 Z " />
<glyph glyph-name="uni0163" unicode="&#x163;" horiz-adv-x="352" d="M222 471 L144 108 Q160 59 244 59 Q272 59 290 63 L276 -1 Q247 -9 211 -9 L187 -9 L161 -52 L172 -52 Q201 -52 221.5 -66.5 Q242 -81 247 -99 L231 -169 Q196 -221 122 -221 Q94 -221 68 -214.5 Q42 -208 27 -198 L54 -153 Q87 -172 125 -172 Q144 -172 157.5 -165 Q171 -158 178 -148 L184 -116 Q181 -107 170.5 -101 Q160 -95 141 -95 L82 -95 L136 1 Q71 22 51 82 L135 471 L65 471 L80 538 L149 538 L174 652 L261 652 L236 538 L372 538 L357 471 L222 471 Z " />
<glyph glyph-name="f_f" unicode="&#xfb00;" horiz-adv-x="642" d="M552 601 L538 538 L675 538 L660 471 L523 471 L422 0 L335 0 L436 471 L367 471 L221 471 L120 0 L33 0 L134 471 L65 471 L80 538 L149 538 L168 629 Q187 664 231.5 692 Q276 720 345 720 Q401 720 430 712 L416 648 Q388 652 368 652 Q319 652 290.5 636 Q262 620 249 601 L236 538 L404 538 L451 538 L470 629 Q490 665 534.5 692.5 Q579 720 648 720 Q701 720 733 712 L718 648 Q694 652 670 652 Q621 652 593 636.5 Q565 621 552 601 Z " />
<glyph glyph-name="uni04D8" unicode="&#x4d8;" horiz-adv-x="616" d="M618 562 L527 138 Q493 77 425.5 31.5 Q358 -14 259 -14 Q191 -14 141 9 Q91 32 63 65 Q35 98 25 132 L76 364 L482 364 L520 543 Q514 583 476 610.5 Q438 638 379 638 Q313 638 266.5 605 Q220 572 192 516 L108 516 L120 568 Q153 630 217.5 672 Q282 714 382 714 Q451 714 501.5 691 Q552 668 581 633 Q610 598 618 562 Z M438 159 L466 290 L148 290 L118 157 Q130 115 167.5 88 Q205 61 262 61 Q321 61 366 89 Q411 117 438 159 Z " />
<glyph glyph-name="uni04D9" unicode="&#x4d9;" horiz-adv-x="539" d="M16 109 L53 284 L401 284 L426 404 Q420 437 389 459 Q358 481 308 481 Q205 481 153 383 L75 383 L84 429 Q112 478 169.5 515 Q227 552 314 552 Q374 552 418 531.5 Q462 511 486.5 481 Q511 451 518 420 L452 118 Q422 65 362 25.5 Q302 -14 215 -14 Q156 -14 113 6 Q70 26 46 54.5 Q22 83 16 109 Z M370 138 L386 217 L121 217 L104 135 Q110 102 141 79.5 Q172 57 222 57 Q271 57 310 80 Q349 103 370 138 Z " />
<glyph glyph-name="Alpha" unicode="&#x391;" horiz-adv-x="608" d="M533 58 L520 0 L445 0 L425 199 L156 199 L52 0 L-28 0 L-15 58 L332 700 L460 700 L533 58 Z M417 274 L381 621 L378 621 L195 274 L417 274 Z " />
<glyph glyph-name="Beta" unicode="&#x392;" horiz-adv-x="589" d="M459 364 Q487 351 510 330 Q533 309 543 282 L508 119 Q477 67 420 33.5 Q363 0 299 0 L16 0 L166 700 L407 700 Q475 700 525.5 665.5 Q576 631 593 582 L565 450 Q548 422 519.5 399.5 Q491 377 459 364 Z M500 556 Q490 590 459.5 607.5 Q429 625 380 625 L244 625 L196 400 L348 400 Q385 400 421 418 Q457 436 481 470 L500 556 Z M452 262 Q441 292 407.5 310 Q374 328 327 328 L181 328 L126 75 L267 75 Q326 75 364 94.5 Q402 114 428 151 L452 262 Z " />
<glyph glyph-name="Gamma" unicode="&#x393;" horiz-adv-x="462" d="M513 625 L244 625 L110 0 L16 0 L166 700 L529 700 L513 625 Z " />
<glyph glyph-name="Epsilon" unicode="&#x395;" horiz-adv-x="539" d="M560 625 L244 625 L195 398 L490 398 L474 323 L179 323 L126 75 L451 75 L434 0 L16 0 L166 700 L576 700 L560 625 Z " />
<glyph glyph-name="Zeta" unicode="&#x396;" horiz-adv-x="563" d="M596 637 L121 75 L475 75 L459 0 L-13 0 L1 63 L476 625 L129 625 L145 700 L609 700 L596 637 Z " />
<glyph glyph-name="Eta" unicode="&#x397;" horiz-adv-x="646" d="M514 0 L420 0 L489 324 L179 324 L110 0 L16 0 L166 700 L260 700 L195 398 L505 398 L570 700 L664 700 L514 0 Z " />
<glyph glyph-name="Theta" unicode="&#x398;" horiz-adv-x="626" d="M627 562 L536 139 Q498 74 432.5 30 Q367 -14 267 -14 Q198 -14 148 9 Q98 32 70 67 Q42 102 34 139 L125 562 Q162 626 228 670 Q294 714 393 714 Q462 714 512 691 Q562 668 590.5 633 Q619 598 627 562 Z M214 542 L132 158 Q138 118 176 90 Q214 62 273 62 Q331 62 375.5 89.5 Q420 117 447 159 L529 543 Q523 583 485.5 611 Q448 639 388 639 Q330 639 285.5 611.5 Q241 584 214 542 Z M440 392 L426 329 L224 329 L238 392 L440 392 Z " />
<glyph glyph-name="Iota" unicode="&#x399;" horiz-adv-x="242" d="M110 0 L16 0 L166 700 L260 700 L110 0 Z " />
<glyph glyph-name="Kappa" unicode="&#x39a;" horiz-adv-x="592" d="M611 642 L350 416 L515 58 L502 0 L440 0 L278 353 L165 256 L110 0 L16 0 L166 700 L260 700 L192 381 L553 700 L624 700 L611 642 Z " />
<glyph glyph-name="Lambda" unicode="&#x39b;" horiz-adv-x="606" d="M330 700 L460 700 L531 58 L518 0 L434 0 L376 605 L373 605 L54 0 L-28 0 L-15 58 L330 700 Z " />
<glyph glyph-name="Mu" unicode="&#x39c;" horiz-adv-x="796" d="M664 0 L575 0 L703 597 L700 597 L412 171 L342 171 L236 597 L233 597 L104 0 L16 0 L166 700 L294 700 L397 290 L400 290 L671 700 L814 700 L664 0 Z " />
<glyph glyph-name="Nu" unicode="&#x39d;" horiz-adv-x="660" d="M528 0 L415 0 L232 576 L229 576 L104 0 L16 0 L166 700 L280 700 L463 124 L466 124 L590 700 L678 700 L528 0 Z " />
<glyph glyph-name="Xi" unicode="&#x39e;" horiz-adv-x="569" d="M590 625 L407 625 L358 397 L506 397 L490 323 L342 323 L289 75 L477 75 L460 0 L-8 0 L8 75 L197 75 L250 323 L101 323 L117 397 L266 397 L315 625 L131 625 L147 700 L606 700 L590 625 Z " />
<glyph glyph-name="Omicron" unicode="&#x39f;" horiz-adv-x="626" d="M627 562 L536 139 Q498 74 432.5 30 Q367 -14 267 -14 Q198 -14 148 9 Q98 32 70 67 Q42 102 34 139 L125 562 Q162 626 228 670 Q294 714 393 714 Q462 714 512 691 Q562 668 590.5 633 Q619 598 627 562 Z M214 542 L132 158 Q138 118 176 90 Q214 62 273 62 Q331 62 375.5 89.5 Q420 117 447 159 L529 543 Q523 583 485.5 611 Q448 639 388 639 Q330 639 285.5 611.5 Q241 584 214 542 Z " />
<glyph glyph-name="Pi" unicode="&#x3a0;" horiz-adv-x="640" d="M509 0 L415 0 L549 625 L244 625 L110 0 L16 0 L166 700 L659 700 L509 0 Z " />
<glyph glyph-name="Rho" unicode="&#x3a1;" horiz-adv-x="571" d="M594 582 L553 394 Q516 336 459 306 Q402 276 328 276 L169 276 L110 0 L16 0 L166 700 L392 700 Q549 700 594 582 Z M496 554 Q485 590 453 607.5 Q421 625 381 625 L244 625 L185 351 L319 351 Q419 351 470 427 L496 554 Z " />
<glyph glyph-name="Sigma" unicode="&#x3a3;" horiz-adv-x="565" d="M585 625 L234 625 L372 354 L119 75 L475 75 L459 0 L-13 0 L1 64 L270 361 L132 628 L147 700 L601 700 L585 625 Z " />
<glyph glyph-name="Tau" unicode="&#x3a4;" horiz-adv-x="529" d="M580 625 L388 625 L254 0 L160 0 L294 625 L101 625 L117 700 L596 700 L580 625 Z " />
<glyph glyph-name="Upsilon" unicode="&#x3a5;" horiz-adv-x="557" d="M602 642 L330 299 L266 0 L172 0 L238 308 L114 642 L127 700 L189 700 L299 390 L301 390 L539 700 L615 700 L602 642 Z " />
<glyph glyph-name="Phi" unicode="&#x3a6;" horiz-adv-x="755" d="M746 510 L677 190 Q634 128 564 89.5 Q494 51 423 51 L373 51 L357 -20 L273 -20 L289 51 L253 51 Q208 51 164 70 Q120 89 88 121 Q56 153 45 190 L114 510 Q155 572 228 614 Q301 656 370 656 L418 656 L432 720 L516 720 L502 656 L539 656 Q584 656 627.5 635 Q671 614 702.5 580 Q734 546 746 510 Z M402 583 L371 583 Q329 583 277.5 555 Q226 527 196 490 L137 210 Q150 174 189 149 Q228 124 272 124 L304 124 L402 583 Z M653 490 Q642 527 603 555 Q564 583 521 583 L486 583 L388 124 L423 124 Q467 124 518 149 Q569 174 594 210 L653 490 Z " />
<glyph glyph-name="Chi" unicode="&#x3a7;" horiz-adv-x="583" d="M611 642 L370 356 L493 58 L480 0 L412 0 L300 296 L297 296 L62 0 L-14 0 L-2 58 L248 361 L131 642 L144 700 L211 700 L319 417 L322 417 L547 700 L624 700 L611 642 Z " />
<glyph glyph-name="Psi" unicode="&#x3a8;" horiz-adv-x="735" d="M764 700 L674 276 Q633 218 567.5 180 Q502 142 411 142 L383 142 L352 0 L266 0 L297 142 L284 142 Q195 142 140.5 182 Q86 222 66 276 L156 700 L245 700 L159 300 Q169 268 205 242 Q241 216 300 216 L313 216 L417 700 L502 700 L398 216 L418 216 Q476 216 520.5 241.5 Q565 267 589 300 L675 700 L764 700 Z " />
<glyph glyph-name="Alphatonos" unicode="&#x386;" horiz-adv-x="608" d="M533 58 L520 0 L445 0 L425 199 L156 199 L52 0 L-28 0 L-15 58 L332 700 L460 700 L533 58 Z M417 274 L381 621 L378 621 L195 274 L417 274 Z M208 700 L199 659 L93 541 L23 541 L27 557 L124 700 L208 700 Z " />
<glyph glyph-name="Epsilontonos" unicode="&#x388;" horiz-adv-x="539" d="M560 625 L244 625 L195 398 L490 398 L474 323 L179 323 L126 75 L451 75 L434 0 L16 0 L166 700 L576 700 L560 625 Z M97 700 L88 659 L-18 541 L-88 541 L-84 557 L13 700 L97 700 Z " />
<glyph glyph-name="Etatonos" unicode="&#x389;" horiz-adv-x="646" d="M514 0 L420 0 L489 324 L179 324 L110 0 L16 0 L166 700 L260 700 L195 398 L505 398 L570 700 L664 700 L514 0 Z M97 700 L88 659 L-18 541 L-88 541 L-84 557 L13 700 L97 700 Z " />
<glyph glyph-name="Iotatonos" unicode="&#x38a;" horiz-adv-x="242" d="M110 0 L16 0 L166 700 L260 700 L110 0 Z M97 700 L88 659 L-18 541 L-88 541 L-84 557 L13 700 L97 700 Z " />
<glyph glyph-name="Omicrontonos" unicode="&#x38c;" horiz-adv-x="626" d="M627 562 L536 139 Q498 74 432.5 30 Q367 -14 267 -14 Q198 -14 148 9 Q98 32 70 67 Q42 102 34 139 L125 562 Q162 626 228 670 Q294 714 393 714 Q462 714 512 691 Q562 668 590.5 633 Q619 598 627 562 Z M214 542 L132 158 Q138 118 176 90 Q214 62 273 62 Q331 62 375.5 89.5 Q420 117 447 159 L529 543 Q523 583 485.5 611 Q448 639 388 639 Q330 639 285.5 611.5 Q241 584 214 542 Z M115 700 L106 659 L0 541 L-70 541 L-66 557 L31 700 L115 700 Z " />
<glyph glyph-name="Upsilontonos" unicode="&#x38e;" horiz-adv-x="557" d="M602 642 L330 299 L266 0 L172 0 L238 308 L114 642 L127 700 L189 700 L299 390 L301 390 L539 700 L615 700 L602 642 Z M86 700 L77 659 L-29 541 L-99 541 L-95 557 L2 700 L86 700 Z " />
<glyph glyph-name="Omegatonos" unicode="&#x38f;" horiz-adv-x="629" d="M396 75 L524 75 L508 0 L296 0 L318 106 Q365 114 401.5 142 Q438 170 458 204 L531 543 Q524 584 488 610.5 Q452 637 393 637 Q336 637 289 610 Q242 583 217 542 L143 203 Q149 171 173.5 143 Q198 115 241 106 L219 0 L5 0 L22 75 L162 75 Q116 94 87.5 128 Q59 162 49 201 L127 562 Q162 624 231.5 669 Q301 714 401 714 Q469 714 517.5 690.5 Q566 667 593 632.5 Q620 598 629 562 L551 201 Q529 159 489.5 126.5 Q450 94 396 75 Z M115 700 L106 659 L0 541 L-70 541 L-66 557 L31 700 L115 700 Z " />
<glyph glyph-name="Iotadieresis" unicode="&#x3aa;" horiz-adv-x="242" d="M110 0 L16 0 L166 700 L260 700 L110 0 Z M194 852 L180 789 Q173 782 159.5 776 Q146 770 127 770 Q109 770 98 776 Q87 782 82 789 L96 852 Q103 859 116.5 865 Q130 871 148 871 Q178 871 194 852 Z M396 852 L382 789 Q375 782 361.5 776 Q348 770 329 770 Q300 770 284 789 L298 852 Q305 859 319 865 Q333 871 351 871 Q369 871 380 865 Q391 859 396 852 Z " />
<glyph glyph-name="Upsilondieresis" unicode="&#x3ab;" horiz-adv-x="557" d="M602 642 L330 299 L266 0 L172 0 L238 308 L114 642 L127 700 L189 700 L299 390 L301 390 L539 700 L615 700 L602 642 Z M352 852 L338 789 Q331 782 317.5 776 Q304 770 285 770 Q267 770 256 776 Q245 782 240 789 L254 852 Q261 859 274.5 865 Q288 871 306 871 Q336 871 352 852 Z M554 852 L540 789 Q533 782 519.5 776 Q506 770 487 770 Q458 770 442 789 L456 852 Q463 859 477 865 Q491 871 509 871 Q527 871 538 865 Q549 859 554 852 Z " />
<glyph glyph-name="alpha" unicode="&#x3b1;" horiz-adv-x="546" d="M539 538 L423 0 L339 0 L349 45 Q285 -12 196 -12 Q142 -12 103.5 6 Q65 24 44.5 49.5 Q24 75 18 99 L91 440 Q120 483 169.5 516.5 Q219 550 296 550 Q394 550 444 491 L455 538 L539 538 Z M428 429 Q412 452 381 466 Q350 480 307 480 Q260 480 226.5 461 Q193 442 174 418 L110 119 Q119 96 146.5 77 Q174 58 221 58 Q266 58 301.5 75 Q337 92 362 119 L428 429 Z " />
<glyph glyph-name="beta" unicode="&#x3b2;" horiz-adv-x="553" d="M414 381 Q455 365 477.5 338 Q500 311 507 281 L472 118 Q442 63 387 25.5 Q332 -12 251 -12 Q201 -12 164.5 3.5 Q128 19 104 45 L58 -166 L-29 -166 L136 597 Q170 646 227.5 680 Q285 714 362 714 Q436 714 484 683 Q532 652 551 612 L518 454 Q503 430 474.5 411.5 Q446 393 414 381 Z M460 584 Q448 611 421.5 627 Q395 643 354 643 Q313 643 276 623 Q239 603 218 574 L120 121 Q135 96 167.5 78 Q200 60 243 60 Q293 60 330.5 83.5 Q368 107 391 144 L418 269 Q410 309 377.5 328 Q345 347 301 347 L270 347 L285 413 L309 413 Q346 413 380 430 Q414 447 437 474 L460 584 Z " />
<glyph glyph-name="gamma" unicode="&#x3b3;" horiz-adv-x="512" d="M524 485 L242 3 L206 -166 L119 -166 L155 0 L80 485 L92 538 L160 538 L218 112 L221 112 L458 538 L535 538 L524 485 Z " />
<glyph glyph-name="delta" unicode="&#x3b4;" horiz-adv-x="547" d="M244 605 L231 541 Q249 503 312 491 L357 483 Q425 470 464.5 433 Q504 396 512 354 L461 118 Q429 64 369.5 25 Q310 -14 222 -14 Q135 -14 85 26 Q35 66 21 118 L71 348 Q92 384 130.5 414.5 Q169 445 224 460 Q191 473 172.5 492.5 Q154 512 148 528 L169 633 Q197 664 247.5 689 Q298 714 368 714 Q436 714 479.5 688.5 Q523 663 544 633 L537 596 L466 596 Q449 621 422 634.5 Q395 648 360 648 Q292 648 244 605 Z M307 422 Q258 422 217 397 Q176 372 156 338 L112 136 Q118 102 148.5 80 Q179 58 229 58 Q279 58 319 82 Q359 106 380 142 L424 344 Q417 378 387 400 Q357 422 307 422 Z " />
<glyph glyph-name="epsilon" unicode="&#x3b5;" horiz-adv-x="523" d="M172 420 L162 372 Q175 344 201.5 327 Q228 310 268 310 L338 310 L326 244 L260 244 Q218 244 179.5 226.5 Q141 209 120 179 L106 114 Q119 91 150.5 74 Q182 57 229 57 Q279 57 318 77.5 Q357 98 378 125 L456 125 L448 84 Q418 44 363 15 Q308 -14 223 -14 Q139 -14 87 17.5 Q35 49 13 86 L35 193 Q53 222 83 246 Q113 270 150 283 Q123 293 103.5 313.5 Q84 334 74 357 L92 448 Q120 489 176 520.5 Q232 552 316 552 Q374 552 417 535 Q460 518 485 494 Q510 470 519 448 L511 411 L438 411 Q429 440 395 460.5 Q361 481 310 481 Q262 481 227 464 Q192 447 172 420 Z " />
<glyph glyph-name="zeta" unicode="&#x3b6;" horiz-adv-x="486" d="M132 248 L106 126 Q121 104 150.5 87.5 Q180 71 227 71 L401 71 L359 -125 L282 -125 L308 0 L208 0 Q126 0 79 32 Q32 64 15 104 L49 266 Q64 294 84.5 318.5 Q105 343 137 372 L423 631 L149 631 L163 700 L549 700 L535 635 L206 334 Q152 284 132 248 Z " />
<glyph glyph-name="eta" unicode="&#x3b7;" horiz-adv-x="554" d="M529 440 L398 -166 L311 -166 L437 419 Q429 442 401.5 461 Q374 480 328 480 Q283 480 245.5 463 Q208 446 184 420 L94 0 L7 0 L123 538 L205 538 L195 493 Q264 550 354 550 Q408 550 445 531.5 Q482 513 502 488 Q522 463 529 440 Z " />
</font>
</svg>
