<?xml version="1.0" encoding="UTF-8"?>
<svg xmlns="http://www.w3.org/2000/svg" xmlns:xlink="http://www.w3.org/1999/xlink" version="1.2" >
<font id="Cadillac Sans ExtraBold">
<font-face  font-family="Cadillac Sans" units-per-em="1000" ascent="750" descent="-250" font-style="normal" font-weight="800" font-stretch="normal" cap-height="700" x-height="546" underline-position="-75" underline-thickness="50" />
<missing-glyph  horiz-adv-x="606" d="M37 -100 L37 800 L568 800 L568 -100 L37 -100 Z M186 29 L419 29 L419 671 L186 671 L186 29 Z " />
<glyph glyph-name=".null" d="" />
<glyph glyph-name="nonmarkingreturn" unicode="&#xd;" horiz-adv-x="196" d="" />
<glyph glyph-name="space" unicode="&#x20;" horiz-adv-x="200" d="" />
<glyph glyph-name="A" unicode="A" horiz-adv-x="646" d="M625 0 L419 0 L394 130 L230 130 L204 0 L21 0 L21 116 L167 700 L479 700 L625 116 L625 0 Z M317 541 L314 541 L264 295 L363 295 L317 541 Z " />
<glyph glyph-name="B" unicode="B" horiz-adv-x="619" d="M517 368 Q532 361 551 347 Q570 333 585 308 L585 120 Q573 98 553 76.5 Q533 55 506 38 Q479 21 446 10.5 Q413 0 374 0 L43 0 L43 700 L371 700 Q411 700 444.5 688.5 Q478 677 504 659.5 Q530 642 548.5 621 Q567 600 578 580 L578 431 Q569 414 551.5 396 Q534 378 517 368 Z M322 425 Q342 425 355.5 432 Q369 439 377 451 L377 517 Q364 542 321 542 L263 542 L263 425 L322 425 Z M384 264 Q378 275 364 282.5 Q350 290 329 290 L263 290 L263 158 L328 158 Q351 158 364 165.5 Q377 173 384 185 L384 264 Z " />
<glyph glyph-name="C" unicode="C" horiz-adv-x="608" d="M313 716 Q375 716 421 701.5 Q467 687 499 666 Q531 645 551 621 Q571 597 582 579 L582 486 L393 486 Q376 545 317 545 Q294 545 278 537.5 Q262 530 255 517 L255 183 Q262 170 278 162.5 Q294 155 317 155 Q376 155 393 214 L582 214 L582 121 Q571 103 551 79 Q531 55 499 34 Q467 13 421 -1.5 Q375 -16 313 -16 Q250 -16 203 -1 Q156 14 122 37 Q88 60 67 87 Q46 114 35 138 L35 562 Q46 586 67 613 Q88 640 122 663 Q156 686 203 701 Q250 716 313 716 Z " />
<glyph glyph-name="D" unicode="D" horiz-adv-x="632" d="M367 700 Q414 700 451.5 687.5 Q489 675 517.5 655.5 Q546 636 566 611 Q586 586 597 562 L597 138 Q586 114 566 89 Q546 64 517.5 44.5 Q489 25 451.5 12.5 Q414 0 367 0 L43 0 L43 700 L367 700 Z M263 163 L319 163 Q342 163 357 171 Q372 179 377 191 L377 509 Q372 521 357 529 Q342 537 319 537 L263 537 L263 163 Z " />
<glyph glyph-name="E" unicode="E" horiz-adv-x="537" d="M263 534 L263 439 L486 439 L486 273 L263 273 L263 166 L506 166 L506 0 L43 0 L43 700 L501 700 L501 534 L263 534 Z " />
<glyph glyph-name="F" unicode="F" horiz-adv-x="518" d="M263 534 L263 428 L478 428 L478 263 L263 263 L263 0 L43 0 L43 700 L487 700 L487 534 L263 534 Z " />
<glyph glyph-name="G" unicode="G" horiz-adv-x="622" d="M317 545 Q294 545 278 536.5 Q262 528 255 517 L255 183 Q260 171 277 163 Q294 155 317 155 Q343 155 357 162 Q371 169 378 177 L378 253 L314 253 L314 414 L582 414 L582 0 L417 0 L417 41 Q392 15 356.5 -0.5 Q321 -16 270 -16 Q217 -16 177.5 -1 Q138 14 110 37 Q82 60 64 87 Q46 114 35 138 L35 562 Q46 586 67 613 Q88 640 122 663 Q156 686 203 701 Q250 716 313 716 Q375 716 421 701.5 Q467 687 499 666 Q531 645 551 622 Q571 599 582 579 L582 486 L393 486 Q376 545 317 545 Z " />
<glyph glyph-name="H" unicode="H" horiz-adv-x="665" d="M402 0 L402 278 L263 278 L263 0 L43 0 L43 700 L263 700 L263 443 L402 443 L402 700 L622 700 L622 0 L402 0 Z " />
<glyph glyph-name="I" unicode="I" horiz-adv-x="305" d="M43 0 L43 700 L263 700 L263 0 L43 0 Z " />
<glyph glyph-name="J" unicode="J" horiz-adv-x="387" d="M347 138 Q332 108 310.5 82 Q289 56 258 37 Q227 18 184.5 7.5 Q142 -3 85 -3 Q59 -3 42 -2 Q25 -1 19 0 L19 166 L67 166 Q114 166 127 193 L127 700 L347 700 L347 138 Z " />
<glyph glyph-name="K" unicode="K" horiz-adv-x="641" d="M616 0 L431 0 L299 247 L263 206 L263 0 L43 0 L43 700 L263 700 L263 488 L431 700 L590 700 L590 584 L441 412 L616 116 L616 0 Z " />
<glyph glyph-name="L" unicode="L" horiz-adv-x="462" d="M442 166 L442 0 L43 0 L43 700 L263 700 L263 166 L442 166 Z " />
<glyph glyph-name="M" unicode="M" horiz-adv-x="816" d="M569 0 L569 396 L566 396 L463 114 L352 114 L249 396 L246 396 L246 0 L43 0 L43 700 L322 700 L412 440 L415 440 L498 700 L774 700 L774 0 L569 0 Z " />
<glyph glyph-name="N" unicode="N" horiz-adv-x="675" d="M397 0 L249 352 L246 352 L246 0 L43 0 L43 700 L277 700 L426 347 L429 347 L429 700 L632 700 L632 0 L397 0 Z " />
<glyph glyph-name="O" unicode="O" horiz-adv-x="626" d="M313 716 Q375 716 422.5 701 Q470 686 503.5 663 Q537 640 558.5 613 Q580 586 591 562 L591 138 Q580 114 558.5 87 Q537 60 503.5 37 Q470 14 423 -1 Q376 -16 313 -16 Q251 -16 203.5 -1 Q156 14 122.5 37 Q89 60 67.5 87 Q46 114 35 138 L35 562 Q46 586 67 613 Q88 640 122 663 Q156 686 203 701 Q250 716 313 716 Z M313 545 Q290 545 275.5 537 Q261 529 255 517 L255 183 Q261 171 275.5 163 Q290 155 313 155 Q336 155 350.5 163 Q365 171 371 183 L371 517 Q365 529 350.5 537 Q336 545 313 545 Z " />
<glyph glyph-name="P" unicode="P" horiz-adv-x="611" d="M367 700 Q436 700 493.5 670 Q551 640 586 580 L586 353 Q573 329 552.5 307.5 Q532 286 504.5 269.5 Q477 253 442.5 243 Q408 233 367 233 L263 233 L263 0 L43 0 L43 700 L367 700 Z M263 396 L316 396 Q337 396 352 402 Q367 408 375 422 L375 510 Q367 524 351.5 530.5 Q336 537 316 537 L263 537 L263 396 Z " />
<glyph glyph-name="Q" unicode="Q" horiz-adv-x="626" d="M598 -153 L500 -153 Q479 -153 452 -143.5 Q425 -134 398 -116 Q371 -98 347.5 -73 Q324 -48 310 -16 Q248 -16 201.5 -0.5 Q155 15 121.5 37.5 Q88 60 67 87 Q46 114 35 138 L35 562 Q46 586 67 613 Q88 640 122 663 Q156 686 203 701 Q250 716 313 716 Q375 716 422.5 701 Q470 686 503.5 663 Q537 640 558.5 613 Q580 586 591 562 L591 138 Q579 111 553.5 80.5 Q528 50 486 26 Q494 12 506 5 Q518 -2 529 -2 L598 -2 L598 -153 Z M255 183 Q261 171 275.5 163 Q290 155 313 155 Q336 155 350.5 163 Q365 171 371 183 L371 517 Q365 529 350.5 537 Q336 545 313 545 Q290 545 275.5 537 Q261 529 255 517 L255 183 Z " />
<glyph glyph-name="R" unicode="R" horiz-adv-x="623" d="M597 0 L417 0 L292 253 L263 253 L263 0 L43 0 L43 700 L369 700 Q439 700 496 669 Q553 638 587 580 L587 374 Q555 319 499 286 L597 116 L597 0 Z M320 403 Q366 403 379 430 L379 510 Q366 537 320 537 L263 537 L263 403 L320 403 Z " />
<glyph glyph-name="S" unicode="S" horiz-adv-x="594" d="M297 716 Q357 716 402 702 Q447 688 479.5 667 Q512 646 531.5 622.5 Q551 599 560 581 L560 489 L371 489 Q365 512 348 528.5 Q331 545 299 545 Q278 545 264 537 Q250 529 244 519 L244 474 Q253 456 291 447 L323 439 Q383 425 424.5 409 Q466 393 494 376.5 Q522 360 539 343 Q556 326 565 309 L565 120 Q555 101 535 78 Q515 55 483 34 Q451 13 405 -1.5 Q359 -16 297 -16 Q234 -16 187.5 -2 Q141 12 108.5 32.5 Q76 53 56.5 76.5 Q37 100 27 120 L27 213 L217 213 Q225 182 246 168.5 Q267 155 294 155 Q317 155 332 163 Q347 171 354 182 L354 236 Q344 255 303 264 L270 272 Q212 285 171.5 300.5 Q131 316 103 332.5 Q75 349 58.5 366 Q42 383 33 400 L33 581 Q42 599 62 622 Q82 645 114 666 Q146 687 191 701.5 Q236 716 297 716 Z " />
<glyph glyph-name="T" unicode="T" horiz-adv-x="561" d="M392 534 L392 0 L172 0 L172 534 L25 534 L25 700 L536 700 L536 534 L392 534 Z " />
<glyph glyph-name="U" unicode="U" horiz-adv-x="636" d="M596 138 Q585 114 564 87 Q543 60 509 37 Q475 14 428 -1 Q381 -16 318 -16 Q256 -16 208.5 -1 Q161 14 127.5 37 Q94 60 72.5 87 Q51 114 40 138 L40 700 L260 700 L260 183 Q265 171 280 163 Q295 155 318 155 Q341 155 354.5 163 Q368 171 376 183 L376 700 L596 700 L596 138 Z " />
<glyph glyph-name="V" unicode="V" horiz-adv-x="642" d="M471 0 L172 0 L21 584 L21 700 L234 700 L328 222 L331 222 L427 700 L621 700 L621 584 L471 0 Z " />
<glyph glyph-name="W" unicode="W" horiz-adv-x="939" d="M801 0 L539 0 L473 328 L470 328 L405 0 L137 0 L26 584 L26 700 L238 700 L302 275 L305 275 L386 700 L568 700 L653 275 L656 275 L717 700 L913 700 L913 584 L801 0 Z " />
<glyph glyph-name="X" unicode="X" horiz-adv-x="612" d="M447 355 L585 116 L585 0 L383 0 L301 215 L298 215 L209 0 L26 0 L26 116 L165 355 L30 584 L30 700 L229 700 L312 495 L315 495 L400 700 L582 700 L582 584 L447 355 Z " />
<glyph glyph-name="Y" unicode="Y" horiz-adv-x="602" d="M406 255 L406 0 L185 0 L185 277 L21 584 L21 700 L218 700 L306 480 L309 480 L399 700 L581 700 L581 584 L406 255 Z " />
<glyph glyph-name="Z" unicode="Z" horiz-adv-x="553" d="M288 166 L526 166 L526 0 L26 0 L26 141 L262 534 L29 534 L29 700 L526 700 L526 559 L288 166 Z " />
<glyph glyph-name="Agrave" unicode="&#xc0;" horiz-adv-x="646" d="M625 0 L419 0 L394 130 L230 130 L204 0 L21 0 L21 116 L167 700 L479 700 L625 116 L625 0 Z M317 541 L314 541 L264 295 L363 295 L317 541 Z M412 739 L268 739 L189 823 L189 907 L368 907 L412 754 L412 739 Z " />
<glyph glyph-name="Aacute" unicode="&#xc1;" horiz-adv-x="646" d="M625 0 L419 0 L394 130 L230 130 L204 0 L21 0 L21 116 L167 700 L479 700 L625 116 L625 0 Z M317 541 L314 541 L264 295 L363 295 L317 541 Z M375 739 L232 739 L232 754 L274 907 L456 907 L456 823 L375 739 Z " />
<glyph glyph-name="Acircumflex" unicode="&#xc2;" horiz-adv-x="646" d="M625 0 L419 0 L394 130 L230 130 L204 0 L21 0 L21 116 L167 700 L479 700 L625 116 L625 0 Z M317 541 L314 541 L264 295 L363 295 L317 541 Z M522 739 L376 739 L324 825 L270 739 L124 739 L124 754 L193 907 L453 907 L522 754 L522 739 Z " />
<glyph glyph-name="Atilde" unicode="&#xc3;" horiz-adv-x="646" d="M625 0 L419 0 L394 130 L230 130 L204 0 L21 0 L21 116 L167 700 L479 700 L625 116 L625 0 Z M317 541 L314 541 L264 295 L363 295 L317 541 Z M248 908 Q278 908 297 900.5 Q316 893 329 884.5 Q342 876 352.5 868.5 Q363 861 377 861 Q399 861 404 882 L404 903 L518 903 L518 829 Q515 812 506 795.5 Q497 779 481.5 766 Q466 753 444.5 745 Q423 737 397 737 Q367 737 348 744.5 Q329 752 316 760.5 Q303 769 292.5 776.5 Q282 784 269 784 Q258 784 251.5 778 Q245 772 243 763 L243 742 L129 742 L129 816 Q131 833 140 849.5 Q149 866 164 879 Q179 892 200.5 900 Q222 908 248 908 Z " />
<glyph glyph-name="Adieresis" unicode="&#xc4;" horiz-adv-x="646" d="M625 0 L419 0 L394 130 L230 130 L204 0 L21 0 L21 116 L167 700 L479 700 L625 116 L625 0 Z M317 541 L314 541 L264 295 L363 295 L317 541 Z M209 905 Q231 905 247 900.5 Q263 896 274 890 Q285 884 291.5 877 Q298 870 301 866 L301 771 Q294 761 273.5 746.5 Q253 732 209 732 Q187 732 171 736.5 Q155 741 144.5 747 Q134 753 127 759.5 Q120 766 116 771 L116 866 Q120 870 127 877 Q134 884 144.5 890 Q155 896 171 900.5 Q187 905 209 905 Z M438 905 Q460 905 476 900.5 Q492 896 503 890 Q514 884 520.5 877 Q527 870 530 866 L530 771 Q523 761 502.5 746.5 Q482 732 438 732 Q416 732 400 736.5 Q384 741 373.5 747 Q363 753 356 759.5 Q349 766 345 771 L345 866 Q349 870 356 877 Q363 884 373.5 890 Q384 896 400 900.5 Q416 905 438 905 Z " />
<glyph glyph-name="Amacron" unicode="&#x100;" horiz-adv-x="646" d="M625 0 L419 0 L394 130 L230 130 L204 0 L21 0 L21 116 L167 700 L479 700 L625 116 L625 0 Z M317 541 L314 541 L264 295 L363 295 L317 541 Z M136 748 L136 878 L511 878 L511 748 L136 748 Z " />
<glyph glyph-name="Abreve" unicode="&#x102;" horiz-adv-x="646" d="M625 0 L419 0 L394 130 L230 130 L204 0 L21 0 L21 116 L167 700 L479 700 L625 116 L625 0 Z M317 541 L314 541 L264 295 L363 295 L317 541 Z M522 837 Q499 789 448.5 762 Q398 735 324 735 Q249 735 198 762 Q147 789 124 837 L124 901 L270 901 L270 863 Q274 855 287 845.5 Q300 836 324 836 Q347 836 360 845.5 Q373 855 377 863 L377 901 L522 901 L522 837 Z " />
<glyph glyph-name="Aring" unicode="&#xc5;" horiz-adv-x="646" d="M625 0 L419 0 L394 130 L230 130 L204 0 L21 0 L21 116 L167 700 L230 700 Q197 718 180 749 L180 844 Q198 876 236 895 Q274 914 323 914 Q373 914 411 895 Q449 876 467 844 L467 749 Q450 718 417 700 L479 700 L625 116 L625 0 Z M267 773 Q272 766 285.5 758 Q299 750 323 750 Q348 750 361.5 758 Q375 766 380 773 L380 819 Q375 826 361.5 834 Q348 842 323 842 Q299 842 285.5 834 Q272 826 267 819 L267 773 Z M317 541 L314 541 L264 295 L363 295 L317 541 Z " />
<glyph glyph-name="Aogonek" unicode="&#x104;" horiz-adv-x="646" d="M625 0 Q586 -39 570 -60.5 Q554 -82 549 -94 L549 -112 Q554 -120 564 -122.5 Q574 -125 586 -125 Q602 -125 625 -121 L625 -222 Q614 -227 596.5 -231 Q579 -235 545 -235 Q501 -235 462 -223 Q423 -211 406 -178 L406 -93 Q414 -76 434.5 -50 Q455 -24 486 0 L419 0 L394 130 L230 130 L204 0 L21 0 L21 116 L167 700 L479 700 L625 116 L625 0 Z M317 541 L314 541 L264 295 L363 295 L317 541 Z " />
<glyph glyph-name="AE" unicode="&#xc6;" horiz-adv-x="871" d="M840 0 L381 0 L381 133 L248 133 L205 0 L21 0 L21 116 L234 700 L834 700 L834 534 L601 534 L601 439 L820 439 L820 273 L601 273 L601 166 L840 166 L840 0 Z M381 535 L378 535 L301 298 L381 298 L381 535 Z " />
<glyph glyph-name="Cacute" unicode="&#x106;" horiz-adv-x="608" d="M313 716 Q375 716 421 701.5 Q467 687 499 666 Q531 645 551 621 Q571 597 582 579 L582 486 L393 486 Q376 545 317 545 Q294 545 278 537.5 Q262 530 255 517 L255 183 Q262 170 278 162.5 Q294 155 317 155 Q376 155 393 214 L582 214 L582 121 Q571 103 551 79 Q531 55 499 34 Q467 13 421 -1.5 Q375 -16 313 -16 Q250 -16 203 -1 Q156 14 122 37 Q88 60 67 87 Q46 114 35 138 L35 562 Q46 586 67 613 Q88 640 122 663 Q156 686 203 701 Q250 716 313 716 Z M368 739 L225 739 L225 754 L267 907 L449 907 L449 823 L368 739 Z " />
<glyph glyph-name="Ccircumflex" unicode="&#x108;" horiz-adv-x="608" d="M313 716 Q375 716 421 701.5 Q467 687 499 666 Q531 645 551 621 Q571 597 582 579 L582 486 L393 486 Q376 545 317 545 Q294 545 278 537.5 Q262 530 255 517 L255 183 Q262 170 278 162.5 Q294 155 317 155 Q376 155 393 214 L582 214 L582 121 Q571 103 551 79 Q531 55 499 34 Q467 13 421 -1.5 Q375 -16 313 -16 Q250 -16 203 -1 Q156 14 122 37 Q88 60 67 87 Q46 114 35 138 L35 562 Q46 586 67 613 Q88 640 122 663 Q156 686 203 701 Q250 716 313 716 Z M515 739 L369 739 L317 825 L263 739 L117 739 L117 754 L186 907 L446 907 L515 754 L515 739 Z " />
<glyph glyph-name="Ccaron" unicode="&#x10c;" horiz-adv-x="608" d="M313 716 Q375 716 421 701.5 Q467 687 499 666 Q531 645 551 621 Q571 597 582 579 L582 486 L393 486 Q376 545 317 545 Q294 545 278 537.5 Q262 530 255 517 L255 183 Q262 170 278 162.5 Q294 155 317 155 Q376 155 393 214 L582 214 L582 121 Q571 103 551 79 Q531 55 499 34 Q467 13 421 -1.5 Q375 -16 313 -16 Q250 -16 203 -1 Q156 14 122 37 Q88 60 67 87 Q46 114 35 138 L35 562 Q46 586 67 613 Q88 640 122 663 Q156 686 203 701 Q250 716 313 716 Z M446 739 L186 739 L117 892 L117 907 L263 907 L317 821 L369 907 L515 907 L515 892 L446 739 Z " />
<glyph glyph-name="Cdotaccent" unicode="&#x10a;" horiz-adv-x="608" d="M313 716 Q375 716 421 701.5 Q467 687 499 666 Q531 645 551 621 Q571 597 582 579 L582 486 L393 486 Q376 545 317 545 Q294 545 278 537.5 Q262 530 255 517 L255 183 Q262 170 278 162.5 Q294 155 317 155 Q376 155 393 214 L582 214 L582 121 Q571 103 551 79 Q531 55 499 34 Q467 13 421 -1.5 Q375 -16 313 -16 Q250 -16 203 -1 Q156 14 122 37 Q88 60 67 87 Q46 114 35 138 L35 562 Q46 586 67 613 Q88 640 122 663 Q156 686 203 701 Q250 716 313 716 Z M316 918 Q362 918 387 900 Q412 882 420 862 L420 792 Q412 772 387 754 Q362 736 316 736 Q271 736 245.5 754 Q220 772 212 792 L212 862 Q220 882 245.5 900 Q271 918 316 918 Z " />
<glyph glyph-name="Ccedilla" unicode="&#xc7;" horiz-adv-x="608" d="M317 545 Q294 545 278 537.5 Q262 530 255 517 L255 183 Q262 170 278 162.5 Q294 155 317 155 Q376 155 393 214 L582 214 L582 121 Q572 104 554 82 Q536 60 507.5 40 Q479 20 439 4.5 Q399 -11 345 -15 L338 -35 L345 -35 Q388 -35 408.5 -51.5 Q429 -68 437 -88 L437 -168 Q422 -201 383.5 -218.5 Q345 -236 293 -236 Q257 -236 229.5 -231.5 Q202 -227 189 -220 L215 -143 Q232 -145 249 -146.5 Q266 -148 281 -148 Q300 -148 313.5 -144 Q327 -140 331 -132 L331 -115 Q327 -107 314 -105 Q301 -103 285 -103 L225 -103 L255 -12 Q207 -5 170 11.5 Q133 28 106 49 Q79 70 61.5 93.5 Q44 117 35 138 L35 562 Q46 586 67 613 Q88 640 122 663 Q156 686 203 701 Q250 716 313 716 Q375 716 421 701.5 Q467 687 499 666 Q531 645 551 621 Q571 597 582 579 L582 486 L393 486 Q376 545 317 545 Z " />
<glyph glyph-name="Dcaron" unicode="&#x10e;" horiz-adv-x="632" d="M367 700 Q414 700 451.5 687.5 Q489 675 517.5 655.5 Q546 636 566 611 Q586 586 597 562 L597 138 Q586 114 566 89 Q546 64 517.5 44.5 Q489 25 451.5 12.5 Q414 0 367 0 L43 0 L43 700 L367 700 Z M263 163 L319 163 Q342 163 357 171 Q372 179 377 191 L377 509 Q372 521 357 529 Q342 537 319 537 L263 537 L263 163 Z M446 739 L186 739 L117 892 L117 907 L263 907 L317 821 L369 907 L515 907 L515 892 L446 739 Z " />
<glyph glyph-name="Dcroat" unicode="&#x110;" horiz-adv-x="654" d="M378 700 Q425 700 462.5 687.5 Q500 675 528.5 655.5 Q557 636 577 611 Q597 586 608 562 L608 138 Q597 114 577 89 Q557 64 528.5 44.5 Q500 25 462.5 12.5 Q425 0 378 0 L53 0 L53 275 L23 275 L23 435 L53 435 L53 700 L378 700 Z M388 509 Q383 521 368 529 Q353 537 330 537 L273 537 L273 435 L338 435 L338 275 L273 275 L273 163 L330 163 Q353 163 368 171 Q383 179 388 191 L388 509 Z " />
<glyph glyph-name="Egrave" unicode="&#xc8;" horiz-adv-x="537" d="M263 534 L263 439 L486 439 L486 273 L263 273 L263 166 L506 166 L506 0 L43 0 L43 700 L501 700 L501 534 L263 534 Z M359 739 L215 739 L136 823 L136 907 L315 907 L359 754 L359 739 Z " />
<glyph glyph-name="Eacute" unicode="&#xc9;" horiz-adv-x="537" d="M263 534 L263 439 L486 439 L486 273 L263 273 L263 166 L506 166 L506 0 L43 0 L43 700 L501 700 L501 534 L263 534 Z M322 739 L179 739 L179 754 L221 907 L403 907 L403 823 L322 739 Z " />
<glyph glyph-name="Ecircumflex" unicode="&#xca;" horiz-adv-x="537" d="M263 534 L263 439 L486 439 L486 273 L263 273 L263 166 L506 166 L506 0 L43 0 L43 700 L501 700 L501 534 L263 534 Z M469 739 L323 739 L271 825 L217 739 L71 739 L71 754 L140 907 L400 907 L469 754 L469 739 Z " />
<glyph glyph-name="Ecaron" unicode="&#x11a;" horiz-adv-x="537" d="M263 534 L263 439 L486 439 L486 273 L263 273 L263 166 L506 166 L506 0 L43 0 L43 700 L501 700 L501 534 L263 534 Z M400 739 L140 739 L71 892 L71 907 L217 907 L271 821 L323 907 L469 907 L469 892 L400 739 Z " />
<glyph glyph-name="Edieresis" unicode="&#xcb;" horiz-adv-x="537" d="M263 534 L263 439 L486 439 L486 273 L263 273 L263 166 L506 166 L506 0 L43 0 L43 700 L501 700 L501 534 L263 534 Z M156 905 Q178 905 194 900.5 Q210 896 221 890 Q232 884 238.5 877 Q245 870 248 866 L248 771 Q241 761 220.5 746.5 Q200 732 156 732 Q134 732 118 736.5 Q102 741 91.5 747 Q81 753 74 759.5 Q67 766 63 771 L63 866 Q67 870 74 877 Q81 884 91.5 890 Q102 896 118 900.5 Q134 905 156 905 Z M385 905 Q407 905 423 900.5 Q439 896 450 890 Q461 884 467.5 877 Q474 870 477 866 L477 771 Q470 761 449.5 746.5 Q429 732 385 732 Q363 732 347 736.5 Q331 741 320.5 747 Q310 753 303 759.5 Q296 766 292 771 L292 866 Q296 870 303 877 Q310 884 320.5 890 Q331 896 347 900.5 Q363 905 385 905 Z " />
<glyph glyph-name="Emacron" unicode="&#x112;" horiz-adv-x="537" d="M263 534 L263 439 L486 439 L486 273 L263 273 L263 166 L506 166 L506 0 L43 0 L43 700 L501 700 L501 534 L263 534 Z M83 748 L83 878 L458 878 L458 748 L83 748 Z " />
<glyph glyph-name="Ebreve" unicode="&#x114;" horiz-adv-x="537" d="M263 534 L263 439 L486 439 L486 273 L263 273 L263 166 L506 166 L506 0 L43 0 L43 700 L501 700 L501 534 L263 534 Z M469 837 Q446 789 395.5 762 Q345 735 271 735 Q196 735 145 762 Q94 789 71 837 L71 901 L217 901 L217 863 Q221 855 234 845.5 Q247 836 271 836 Q294 836 307 845.5 Q320 855 324 863 L324 901 L469 901 L469 837 Z " />
<glyph glyph-name="Edotaccent" unicode="&#x116;" horiz-adv-x="537" d="M263 534 L263 439 L486 439 L486 273 L263 273 L263 166 L506 166 L506 0 L43 0 L43 700 L501 700 L501 534 L263 534 Z M270 918 Q316 918 341 900 Q366 882 374 862 L374 792 Q366 772 341 754 Q316 736 270 736 Q225 736 199.5 754 Q174 772 166 792 L166 862 Q174 882 199.5 900 Q225 918 270 918 Z " />
<glyph glyph-name="Eogonek" unicode="&#x118;" horiz-adv-x="537" d="M506 0 Q469 -37 452 -58.5 Q435 -80 430 -94 L430 -112 Q435 -120 445 -122.5 Q455 -125 467 -125 Q473 -125 483 -124 Q493 -123 506 -121 L506 -222 Q495 -227 477.5 -231 Q460 -235 426 -235 Q382 -235 342.5 -223 Q303 -211 287 -178 L287 -93 Q295 -76 315.5 -50 Q336 -24 366 0 L43 0 L43 700 L501 700 L501 534 L263 534 L263 439 L486 439 L486 273 L263 273 L263 166 L506 166 L506 0 Z " />
<glyph glyph-name="Gcircumflex" unicode="&#x11c;" horiz-adv-x="622" d="M317 545 Q294 545 278 536.5 Q262 528 255 517 L255 183 Q260 171 277 163 Q294 155 317 155 Q343 155 357 162 Q371 169 378 177 L378 253 L314 253 L314 414 L582 414 L582 0 L417 0 L417 41 Q392 15 356.5 -0.5 Q321 -16 270 -16 Q217 -16 177.5 -1 Q138 14 110 37 Q82 60 64 87 Q46 114 35 138 L35 562 Q46 586 67 613 Q88 640 122 663 Q156 686 203 701 Q250 716 313 716 Q375 716 421 701.5 Q467 687 499 666 Q531 645 551 622 Q571 599 582 579 L582 486 L393 486 Q376 545 317 545 Z M510 739 L364 739 L312 825 L258 739 L112 739 L112 754 L181 907 L441 907 L510 754 L510 739 Z " />
<glyph glyph-name="Gbreve" unicode="&#x11e;" horiz-adv-x="622" d="M317 545 Q294 545 278 536.5 Q262 528 255 517 L255 183 Q260 171 277 163 Q294 155 317 155 Q343 155 357 162 Q371 169 378 177 L378 253 L314 253 L314 414 L582 414 L582 0 L417 0 L417 41 Q392 15 356.5 -0.5 Q321 -16 270 -16 Q217 -16 177.5 -1 Q138 14 110 37 Q82 60 64 87 Q46 114 35 138 L35 562 Q46 586 67 613 Q88 640 122 663 Q156 686 203 701 Q250 716 313 716 Q375 716 421 701.5 Q467 687 499 666 Q531 645 551 622 Q571 599 582 579 L582 486 L393 486 Q376 545 317 545 Z M510 837 Q487 789 436.5 762 Q386 735 312 735 Q237 735 186 762 Q135 789 112 837 L112 901 L258 901 L258 863 Q262 855 275 845.5 Q288 836 312 836 Q335 836 348 845.5 Q361 855 365 863 L365 901 L510 901 L510 837 Z " />
<glyph glyph-name="Gdotaccent" unicode="&#x120;" horiz-adv-x="622" d="M317 545 Q294 545 278 536.5 Q262 528 255 517 L255 183 Q260 171 277 163 Q294 155 317 155 Q343 155 357 162 Q371 169 378 177 L378 253 L314 253 L314 414 L582 414 L582 0 L417 0 L417 41 Q392 15 356.5 -0.5 Q321 -16 270 -16 Q217 -16 177.5 -1 Q138 14 110 37 Q82 60 64 87 Q46 114 35 138 L35 562 Q46 586 67 613 Q88 640 122 663 Q156 686 203 701 Q250 716 313 716 Q375 716 421 701.5 Q467 687 499 666 Q531 645 551 622 Q571 599 582 579 L582 486 L393 486 Q376 545 317 545 Z M311 918 Q357 918 382 900 Q407 882 415 862 L415 792 Q407 772 382 754 Q357 736 311 736 Q266 736 240.5 754 Q215 772 207 792 L207 862 Q215 882 240.5 900 Q266 918 311 918 Z " />
<glyph glyph-name="Gcommaaccent" unicode="&#x122;" horiz-adv-x="622" d="M317 545 Q294 545 278 536.5 Q262 528 255 517 L255 183 Q260 171 277 163 Q294 155 317 155 Q343 155 357 162 Q371 169 378 177 L378 253 L314 253 L314 414 L582 414 L582 0 L417 0 L417 41 Q392 15 356.5 -0.5 Q321 -16 270 -16 Q217 -16 177.5 -1 Q138 14 110 37 Q82 60 64 87 Q46 114 35 138 L35 562 Q46 586 67 613 Q88 640 122 663 Q156 686 203 701 Q250 716 313 716 Q375 716 421 701.5 Q467 687 499 666 Q531 645 551 622 Q571 599 582 579 L582 486 L393 486 Q376 545 317 545 Z M312 -40 Q357 -40 381 -49.5 Q405 -59 413 -69 L413 -186 Q410 -197 400.5 -210 Q391 -223 375 -234 Q359 -245 336.5 -252.5 Q314 -260 284 -260 L218 -260 L218 -200 L265 -200 Q282 -200 296 -197 Q310 -194 315 -182 L315 -168 L312 -168 Q266 -168 241.5 -160.5 Q217 -153 209 -143 L209 -69 Q217 -59 241.5 -49.5 Q266 -40 312 -40 Z " />
<glyph glyph-name="Hcircumflex" unicode="&#x124;" horiz-adv-x="665" d="M402 0 L402 278 L263 278 L263 0 L43 0 L43 700 L263 700 L263 443 L402 443 L402 700 L622 700 L622 0 L402 0 Z M531 739 L385 739 L333 825 L279 739 L133 739 L133 754 L202 907 L462 907 L531 754 L531 739 Z " />
<glyph glyph-name="Hbar" unicode="&#x126;" horiz-adv-x="665" d="M622 518 L622 0 L402 0 L402 278 L263 278 L263 0 L43 0 L43 518 L20 518 L20 646 L43 646 L43 700 L263 700 L263 646 L402 646 L402 700 L622 700 L622 646 L643 646 L643 518 L622 518 Z M263 518 L263 443 L402 443 L402 518 L263 518 Z " />
<glyph glyph-name="Igrave" unicode="&#xcc;" horiz-adv-x="305" d="M43 0 L43 700 L263 700 L263 0 L43 0 Z M241 739 L97 739 L18 823 L18 907 L197 907 L241 754 L241 739 Z " />
<glyph glyph-name="Iacute" unicode="&#xcd;" horiz-adv-x="305" d="M43 0 L43 700 L263 700 L263 0 L43 0 Z M204 739 L61 739 L61 754 L103 907 L285 907 L285 823 L204 739 Z " />
<glyph glyph-name="Icircumflex" unicode="&#xce;" horiz-adv-x="305" d="M43 0 L43 700 L263 700 L263 0 L43 0 Z M351 739 L205 739 L153 825 L99 739 L-47 739 L-47 754 L22 907 L282 907 L351 754 L351 739 Z " />
<glyph glyph-name="Itilde" unicode="&#x128;" horiz-adv-x="305" d="M43 0 L43 700 L263 700 L263 0 L43 0 Z M77 908 Q107 908 126 900.5 Q145 893 158 884.5 Q171 876 181.5 868.5 Q192 861 206 861 Q228 861 233 882 L233 903 L347 903 L347 829 Q344 812 335 795.5 Q326 779 310.5 766 Q295 753 273.5 745 Q252 737 226 737 Q196 737 177 744.5 Q158 752 145 760.5 Q132 769 121.5 776.5 Q111 784 98 784 Q87 784 80.5 778 Q74 772 72 763 L72 742 L-42 742 L-42 816 Q-40 833 -31 849.5 Q-22 866 -7 879 Q8 892 29.5 900 Q51 908 77 908 Z " />
<glyph glyph-name="Idieresis" unicode="&#xcf;" horiz-adv-x="305" d="M43 0 L43 700 L263 700 L263 0 L43 0 Z M38 905 Q60 905 76 900.5 Q92 896 103 890 Q114 884 120.5 877 Q127 870 130 866 L130 771 Q123 761 102.5 746.5 Q82 732 38 732 Q16 732 0 736.5 Q-16 741 -26.5 747 Q-37 753 -44 759.5 Q-51 766 -55 771 L-55 866 Q-51 870 -44 877 Q-37 884 -26.5 890 Q-16 896 0 900.5 Q16 905 38 905 Z M267 905 Q289 905 305 900.5 Q321 896 332 890 Q343 884 349.5 877 Q356 870 359 866 L359 771 Q352 761 331.5 746.5 Q311 732 267 732 Q245 732 229 736.5 Q213 741 202.5 747 Q192 753 185 759.5 Q178 766 174 771 L174 866 Q178 870 185 877 Q192 884 202.5 890 Q213 896 229 900.5 Q245 905 267 905 Z " />
<glyph glyph-name="Imacron" unicode="&#x12a;" horiz-adv-x="305" d="M43 0 L43 700 L263 700 L263 0 L43 0 Z M-35 748 L-35 878 L340 878 L340 748 L-35 748 Z " />
<glyph glyph-name="Ibreve" unicode="&#x12c;" horiz-adv-x="305" d="M43 0 L43 700 L263 700 L263 0 L43 0 Z M351 837 Q328 789 277.5 762 Q227 735 153 735 Q78 735 27 762 Q-24 789 -47 837 L-47 901 L99 901 L99 863 Q103 855 116 845.5 Q129 836 153 836 Q176 836 189 845.5 Q202 855 206 863 L206 901 L351 901 L351 837 Z " />
<glyph glyph-name="Iogonek" unicode="&#x12e;" horiz-adv-x="305" d="M263 0 Q225 -36 208 -59 Q191 -82 186 -94 L186 -112 Q191 -120 201.5 -122.5 Q212 -125 223 -125 Q230 -125 239.5 -124 Q249 -123 263 -121 L263 -222 Q252 -227 234 -231 Q216 -235 182 -235 Q138 -235 99 -223 Q60 -211 43 -178 L43 -93 Q51 -76 71.5 -50 Q92 -24 123 0 L43 0 L43 700 L263 700 L263 0 Z " />
<glyph glyph-name="IJ" unicode="&#x132;" horiz-adv-x="692" d="M43 0 L43 700 L263 700 L263 0 L43 0 Z M652 138 Q637 108 615.5 82 Q594 56 563 37 Q532 18 489.5 7.5 Q447 -3 390 -3 Q364 -3 347 -2 Q330 -1 324 0 L324 166 L372 166 Q419 166 432 193 L432 700 L652 700 L652 138 Z " />
<glyph glyph-name="Jcircumflex" unicode="&#x134;" horiz-adv-x="387" d="M347 138 Q332 108 310.5 82 Q289 56 258 37 Q227 18 184.5 7.5 Q142 -3 85 -3 Q59 -3 42 -2 Q25 -1 19 0 L19 166 L67 166 Q114 166 127 193 L127 700 L347 700 L347 138 Z M433 739 L287 739 L235 825 L181 739 L35 739 L35 754 L104 907 L364 907 L433 754 L433 739 Z " />
<glyph glyph-name="Kcommaaccent" unicode="&#x136;" horiz-adv-x="641" d="M616 0 L431 0 L299 247 L263 206 L263 0 L43 0 L43 700 L263 700 L263 488 L431 700 L590 700 L590 584 L441 412 L616 116 L616 0 Z M321 -40 Q366 -40 390 -49.5 Q414 -59 422 -69 L422 -186 Q419 -197 409.5 -210 Q400 -223 384 -234 Q368 -245 345.5 -252.5 Q323 -260 293 -260 L227 -260 L227 -200 L274 -200 Q291 -200 305 -197 Q319 -194 324 -182 L324 -168 L321 -168 Q275 -168 250.5 -160.5 Q226 -153 218 -143 L218 -69 Q226 -59 250.5 -49.5 Q275 -40 321 -40 Z " />
<glyph glyph-name="Lacute" unicode="&#x139;" horiz-adv-x="462" d="M442 166 L442 0 L43 0 L43 700 L263 700 L263 166 L442 166 Z M220 739 L77 739 L77 754 L119 907 L301 907 L301 823 L220 739 Z " />
<glyph glyph-name="Lcaron" unicode="&#x13d;" horiz-adv-x="462" d="M442 166 L442 0 L43 0 L43 700 L263 700 L263 166 L442 166 Z M420 461 L301 461 L301 476 L324 700 L478 700 L478 597 L420 461 Z " />
<glyph glyph-name="Lcommaaccent" unicode="&#x13b;" horiz-adv-x="462" d="M442 166 L442 0 L43 0 L43 700 L263 700 L263 166 L442 166 Z M232 -40 Q277 -40 301 -49.5 Q325 -59 333 -69 L333 -186 Q330 -197 320.5 -210 Q311 -223 295 -234 Q279 -245 256.5 -252.5 Q234 -260 204 -260 L138 -260 L138 -200 L185 -200 Q202 -200 216 -197 Q230 -194 235 -182 L235 -168 L232 -168 Q186 -168 161.5 -160.5 Q137 -153 129 -143 L129 -69 Q137 -59 161.5 -49.5 Q186 -40 232 -40 Z " />
<glyph glyph-name="Lslash" unicode="&#x141;" horiz-adv-x="500" d="M480 0 L80 0 L80 154 L20 123 L20 284 L80 315 L80 700 L300 700 L300 428 L393 476 L393 316 L300 268 L300 166 L480 166 L480 0 Z " />
<glyph glyph-name="Ldot" unicode="&#x13f;" horiz-adv-x="512" d="M442 166 L442 0 L43 0 L43 700 L263 700 L263 166 L442 166 Z M514 440 L514 345 Q504 323 477.5 306 Q451 289 409 289 Q368 289 342 305.5 Q316 322 305 345 L305 440 Q316 463 342 479.5 Q368 496 409 496 Q451 496 477.5 479 Q504 462 514 440 Z " />
<glyph glyph-name="Nacute" unicode="&#x143;" horiz-adv-x="675" d="M397 0 L249 352 L246 352 L246 0 L43 0 L43 700 L277 700 L426 347 L429 347 L429 700 L632 700 L632 0 L397 0 Z M400 739 L257 739 L257 754 L299 907 L481 907 L481 823 L400 739 Z " />
<glyph glyph-name="Ncaron" unicode="&#x147;" horiz-adv-x="675" d="M397 0 L249 352 L246 352 L246 0 L43 0 L43 700 L277 700 L426 347 L429 347 L429 700 L632 700 L632 0 L397 0 Z M478 739 L218 739 L149 892 L149 907 L295 907 L349 821 L401 907 L547 907 L547 892 L478 739 Z " />
<glyph glyph-name="Ntilde" unicode="&#xd1;" horiz-adv-x="675" d="M397 0 L249 352 L246 352 L246 0 L43 0 L43 700 L277 700 L426 347 L429 347 L429 700 L632 700 L632 0 L397 0 Z M273 908 Q303 908 322 900.5 Q341 893 354 884.5 Q367 876 377.5 868.5 Q388 861 402 861 Q424 861 429 882 L429 903 L543 903 L543 829 Q540 812 531 795.5 Q522 779 506.5 766 Q491 753 469.5 745 Q448 737 422 737 Q392 737 373 744.5 Q354 752 341 760.5 Q328 769 317.5 776.5 Q307 784 294 784 Q283 784 276.5 778 Q270 772 268 763 L268 742 L154 742 L154 816 Q156 833 165 849.5 Q174 866 189 879 Q204 892 225.5 900 Q247 908 273 908 Z " />
<glyph glyph-name="Ncommaaccent" unicode="&#x145;" horiz-adv-x="675" d="M397 0 L249 352 L246 352 L246 0 L43 0 L43 700 L277 700 L426 347 L429 347 L429 700 L632 700 L632 0 L397 0 Z M338 -40 Q383 -40 407 -49.5 Q431 -59 439 -69 L439 -186 Q436 -197 426.5 -210 Q417 -223 401 -234 Q385 -245 362.5 -252.5 Q340 -260 310 -260 L244 -260 L244 -200 L291 -200 Q308 -200 322 -197 Q336 -194 341 -182 L341 -168 L338 -168 Q292 -168 267.5 -160.5 Q243 -153 235 -143 L235 -69 Q243 -59 267.5 -49.5 Q292 -40 338 -40 Z " />
<glyph glyph-name="Ograve" unicode="&#xd2;" horiz-adv-x="626" d="M313 716 Q375 716 422.5 701 Q470 686 503.5 663 Q537 640 558.5 613 Q580 586 591 562 L591 138 Q580 114 558.5 87 Q537 60 503.5 37 Q470 14 423 -1 Q376 -16 313 -16 Q251 -16 203.5 -1 Q156 14 122.5 37 Q89 60 67.5 87 Q46 114 35 138 L35 562 Q46 586 67 613 Q88 640 122 663 Q156 686 203 701 Q250 716 313 716 Z M313 545 Q290 545 275.5 537 Q261 529 255 517 L255 183 Q261 171 275.5 163 Q290 155 313 155 Q336 155 350.5 163 Q365 171 371 183 L371 517 Q365 529 350.5 537 Q336 545 313 545 Z M401 739 L257 739 L178 823 L178 907 L357 907 L401 754 L401 739 Z " />
<glyph glyph-name="Oacute" unicode="&#xd3;" horiz-adv-x="626" d="M313 716 Q375 716 422.5 701 Q470 686 503.5 663 Q537 640 558.5 613 Q580 586 591 562 L591 138 Q580 114 558.5 87 Q537 60 503.5 37 Q470 14 423 -1 Q376 -16 313 -16 Q251 -16 203.5 -1 Q156 14 122.5 37 Q89 60 67.5 87 Q46 114 35 138 L35 562 Q46 586 67 613 Q88 640 122 663 Q156 686 203 701 Q250 716 313 716 Z M313 545 Q290 545 275.5 537 Q261 529 255 517 L255 183 Q261 171 275.5 163 Q290 155 313 155 Q336 155 350.5 163 Q365 171 371 183 L371 517 Q365 529 350.5 537 Q336 545 313 545 Z M364 739 L221 739 L221 754 L263 907 L445 907 L445 823 L364 739 Z " />
<glyph glyph-name="Ocircumflex" unicode="&#xd4;" horiz-adv-x="626" d="M313 716 Q375 716 422.5 701 Q470 686 503.5 663 Q537 640 558.5 613 Q580 586 591 562 L591 138 Q580 114 558.5 87 Q537 60 503.5 37 Q470 14 423 -1 Q376 -16 313 -16 Q251 -16 203.5 -1 Q156 14 122.5 37 Q89 60 67.5 87 Q46 114 35 138 L35 562 Q46 586 67 613 Q88 640 122 663 Q156 686 203 701 Q250 716 313 716 Z M313 545 Q290 545 275.5 537 Q261 529 255 517 L255 183 Q261 171 275.5 163 Q290 155 313 155 Q336 155 350.5 163 Q365 171 371 183 L371 517 Q365 529 350.5 537 Q336 545 313 545 Z M511 739 L365 739 L313 825 L259 739 L113 739 L113 754 L182 907 L442 907 L511 754 L511 739 Z " />
<glyph glyph-name="Otilde" unicode="&#xd5;" horiz-adv-x="626" d="M313 716 Q375 716 422.5 701 Q470 686 503.5 663 Q537 640 558.5 613 Q580 586 591 562 L591 138 Q580 114 558.5 87 Q537 60 503.5 37 Q470 14 423 -1 Q376 -16 313 -16 Q251 -16 203.5 -1 Q156 14 122.5 37 Q89 60 67.5 87 Q46 114 35 138 L35 562 Q46 586 67 613 Q88 640 122 663 Q156 686 203 701 Q250 716 313 716 Z M313 545 Q290 545 275.5 537 Q261 529 255 517 L255 183 Q261 171 275.5 163 Q290 155 313 155 Q336 155 350.5 163 Q365 171 371 183 L371 517 Q365 529 350.5 537 Q336 545 313 545 Z M237 908 Q267 908 286 900.5 Q305 893 318 884.5 Q331 876 341.5 868.5 Q352 861 366 861 Q388 861 393 882 L393 903 L507 903 L507 829 Q504 812 495 795.5 Q486 779 470.5 766 Q455 753 433.5 745 Q412 737 386 737 Q356 737 337 744.5 Q318 752 305 760.5 Q292 769 281.5 776.5 Q271 784 258 784 Q247 784 240.5 778 Q234 772 232 763 L232 742 L118 742 L118 816 Q120 833 129 849.5 Q138 866 153 879 Q168 892 189.5 900 Q211 908 237 908 Z " />
<glyph glyph-name="Odieresis" unicode="&#xd6;" horiz-adv-x="626" d="M313 716 Q375 716 422.5 701 Q470 686 503.5 663 Q537 640 558.5 613 Q580 586 591 562 L591 138 Q580 114 558.5 87 Q537 60 503.5 37 Q470 14 423 -1 Q376 -16 313 -16 Q251 -16 203.5 -1 Q156 14 122.5 37 Q89 60 67.5 87 Q46 114 35 138 L35 562 Q46 586 67 613 Q88 640 122 663 Q156 686 203 701 Q250 716 313 716 Z M313 545 Q290 545 275.5 537 Q261 529 255 517 L255 183 Q261 171 275.5 163 Q290 155 313 155 Q336 155 350.5 163 Q365 171 371 183 L371 517 Q365 529 350.5 537 Q336 545 313 545 Z M198 905 Q220 905 236 900.5 Q252 896 263 890 Q274 884 280.5 877 Q287 870 290 866 L290 771 Q283 761 262.5 746.5 Q242 732 198 732 Q176 732 160 736.5 Q144 741 133.5 747 Q123 753 116 759.5 Q109 766 105 771 L105 866 Q109 870 116 877 Q123 884 133.5 890 Q144 896 160 900.5 Q176 905 198 905 Z M427 905 Q449 905 465 900.5 Q481 896 492 890 Q503 884 509.5 877 Q516 870 519 866 L519 771 Q512 761 491.5 746.5 Q471 732 427 732 Q405 732 389 736.5 Q373 741 362.5 747 Q352 753 345 759.5 Q338 766 334 771 L334 866 Q338 870 345 877 Q352 884 362.5 890 Q373 896 389 900.5 Q405 905 427 905 Z " />
<glyph glyph-name="Omacron" unicode="&#x14c;" horiz-adv-x="626" d="M313 716 Q375 716 422.5 701 Q470 686 503.5 663 Q537 640 558.5 613 Q580 586 591 562 L591 138 Q580 114 558.5 87 Q537 60 503.5 37 Q470 14 423 -1 Q376 -16 313 -16 Q251 -16 203.5 -1 Q156 14 122.5 37 Q89 60 67.5 87 Q46 114 35 138 L35 562 Q46 586 67 613 Q88 640 122 663 Q156 686 203 701 Q250 716 313 716 Z M313 545 Q290 545 275.5 537 Q261 529 255 517 L255 183 Q261 171 275.5 163 Q290 155 313 155 Q336 155 350.5 163 Q365 171 371 183 L371 517 Q365 529 350.5 537 Q336 545 313 545 Z M125 748 L125 878 L500 878 L500 748 L125 748 Z " />
<glyph glyph-name="Obreve" unicode="&#x14e;" horiz-adv-x="626" d="M313 716 Q375 716 422.5 701 Q470 686 503.5 663 Q537 640 558.5 613 Q580 586 591 562 L591 138 Q580 114 558.5 87 Q537 60 503.5 37 Q470 14 423 -1 Q376 -16 313 -16 Q251 -16 203.5 -1 Q156 14 122.5 37 Q89 60 67.5 87 Q46 114 35 138 L35 562 Q46 586 67 613 Q88 640 122 663 Q156 686 203 701 Q250 716 313 716 Z M313 545 Q290 545 275.5 537 Q261 529 255 517 L255 183 Q261 171 275.5 163 Q290 155 313 155 Q336 155 350.5 163 Q365 171 371 183 L371 517 Q365 529 350.5 537 Q336 545 313 545 Z M511 837 Q488 789 437.5 762 Q387 735 313 735 Q238 735 187 762 Q136 789 113 837 L113 901 L259 901 L259 863 Q263 855 276 845.5 Q289 836 313 836 Q336 836 349 845.5 Q362 855 366 863 L366 901 L511 901 L511 837 Z " />
<glyph glyph-name="Ohungarumlaut" unicode="&#x150;" horiz-adv-x="626" d="M313 716 Q375 716 422.5 701 Q470 686 503.5 663 Q537 640 558.5 613 Q580 586 591 562 L591 138 Q580 114 558.5 87 Q537 60 503.5 37 Q470 14 423 -1 Q376 -16 313 -16 Q251 -16 203.5 -1 Q156 14 122.5 37 Q89 60 67.5 87 Q46 114 35 138 L35 562 Q46 586 67 613 Q88 640 122 663 Q156 686 203 701 Q250 716 313 716 Z M313 545 Q290 545 275.5 537 Q261 529 255 517 L255 183 Q261 171 275.5 163 Q290 155 313 155 Q336 155 350.5 163 Q365 171 371 183 L371 517 Q365 529 350.5 537 Q336 545 313 545 Z M273 739 L142 739 L142 754 L171 907 L325 907 L325 839 L273 739 Z M484 739 L354 739 L354 754 L382 907 L537 907 L537 839 L484 739 Z " />
<glyph glyph-name="Oslash" unicode="&#xd8;" horiz-adv-x="626" d="M565 606 Q582 583 591 562 L591 138 Q580 114 558.5 87 Q537 60 503.5 37 Q470 14 423 -1 Q376 -16 313 -16 Q256 -16 212.5 -4 Q169 8 137 28 L116 0 L35 0 L35 59 L61 94 Q44 117 35 138 L35 562 Q46 586 67 613 Q88 640 122 663 Q156 686 203 701 Q250 716 313 716 Q370 716 413.5 704 Q457 692 489 672 L510 700 L591 700 L591 641 L565 606 Z M371 512 L371 517 Q365 529 350.5 537 Q336 545 313 545 Q290 545 275.5 537 Q261 529 255 517 L255 356 L371 512 Z M255 188 L255 183 Q261 171 275.5 163 Q290 155 313 155 Q336 155 350.5 163 Q365 171 371 183 L371 344 L255 188 Z " />
<glyph glyph-name="OE" unicode="&#x152;" horiz-adv-x="865" d="M426 0 Q401 -8 373 -12 Q345 -16 313 -16 Q250 -16 203 -1 Q156 14 122 37 Q88 60 67 87 Q46 114 35 138 L35 562 Q46 586 67 613 Q88 640 122 663 Q156 686 203 701 Q250 716 313 716 Q345 716 373 712 Q401 708 425 700 L829 700 L829 534 L591 534 L591 439 L814 439 L814 273 L591 273 L591 166 L834 166 L834 0 L426 0 Z M313 155 Q336 155 349.5 163 Q363 171 371 183 L371 517 Q366 529 351 537 Q336 545 313 545 Q290 545 276.5 537 Q263 529 255 517 L255 183 Q260 171 275 163 Q290 155 313 155 Z " />
<glyph glyph-name="Racute" unicode="&#x154;" horiz-adv-x="623" d="M597 0 L417 0 L292 253 L263 253 L263 0 L43 0 L43 700 L369 700 Q439 700 496 669 Q553 638 587 580 L587 374 Q555 319 499 286 L597 116 L597 0 Z M320 403 Q366 403 379 430 L379 510 Q366 537 320 537 L263 537 L263 403 L320 403 Z M363 739 L220 739 L220 754 L262 907 L444 907 L444 823 L363 739 Z " />
<glyph glyph-name="Rcaron" unicode="&#x158;" horiz-adv-x="623" d="M597 0 L417 0 L292 253 L263 253 L263 0 L43 0 L43 700 L369 700 Q439 700 496 669 Q553 638 587 580 L587 374 Q555 319 499 286 L597 116 L597 0 Z M320 403 Q366 403 379 430 L379 510 Q366 537 320 537 L263 537 L263 403 L320 403 Z M441 739 L181 739 L112 892 L112 907 L258 907 L312 821 L364 907 L510 907 L510 892 L441 739 Z " />
<glyph glyph-name="Rcommaaccent" unicode="&#x156;" horiz-adv-x="623" d="M597 0 L417 0 L292 253 L263 253 L263 0 L43 0 L43 700 L369 700 Q439 700 496 669 Q553 638 587 580 L587 374 Q555 319 499 286 L597 116 L597 0 Z M320 403 Q366 403 379 430 L379 510 Q366 537 320 537 L263 537 L263 403 L320 403 Z M312 -40 Q357 -40 381 -49.5 Q405 -59 413 -69 L413 -186 Q410 -197 400.5 -210 Q391 -223 375 -234 Q359 -245 336.5 -252.5 Q314 -260 284 -260 L218 -260 L218 -200 L265 -200 Q282 -200 296 -197 Q310 -194 315 -182 L315 -168 L312 -168 Q266 -168 241.5 -160.5 Q217 -153 209 -143 L209 -69 Q217 -59 241.5 -49.5 Q266 -40 312 -40 Z " />
<glyph glyph-name="Sacute" unicode="&#x15a;" horiz-adv-x="594" d="M297 716 Q357 716 402 702 Q447 688 479.5 667 Q512 646 531.5 622.5 Q551 599 560 581 L560 489 L371 489 Q365 512 348 528.5 Q331 545 299 545 Q278 545 264 537 Q250 529 244 519 L244 474 Q253 456 291 447 L323 439 Q383 425 424.5 409 Q466 393 494 376.5 Q522 360 539 343 Q556 326 565 309 L565 120 Q555 101 535 78 Q515 55 483 34 Q451 13 405 -1.5 Q359 -16 297 -16 Q234 -16 187.5 -2 Q141 12 108.5 32.5 Q76 53 56.5 76.5 Q37 100 27 120 L27 213 L217 213 Q225 182 246 168.5 Q267 155 294 155 Q317 155 332 163 Q347 171 354 182 L354 236 Q344 255 303 264 L270 272 Q212 285 171.5 300.5 Q131 316 103 332.5 Q75 349 58.5 366 Q42 383 33 400 L33 581 Q42 599 62 622 Q82 645 114 666 Q146 687 191 701.5 Q236 716 297 716 Z M360 739 L217 739 L217 754 L259 907 L441 907 L441 823 L360 739 Z " />
<glyph glyph-name="Scircumflex" unicode="&#x15c;" horiz-adv-x="594" d="M297 716 Q357 716 402 702 Q447 688 479.5 667 Q512 646 531.5 622.5 Q551 599 560 581 L560 489 L371 489 Q365 512 348 528.5 Q331 545 299 545 Q278 545 264 537 Q250 529 244 519 L244 474 Q253 456 291 447 L323 439 Q383 425 424.5 409 Q466 393 494 376.5 Q522 360 539 343 Q556 326 565 309 L565 120 Q555 101 535 78 Q515 55 483 34 Q451 13 405 -1.5 Q359 -16 297 -16 Q234 -16 187.5 -2 Q141 12 108.5 32.5 Q76 53 56.5 76.5 Q37 100 27 120 L27 213 L217 213 Q225 182 246 168.5 Q267 155 294 155 Q317 155 332 163 Q347 171 354 182 L354 236 Q344 255 303 264 L270 272 Q212 285 171.5 300.5 Q131 316 103 332.5 Q75 349 58.5 366 Q42 383 33 400 L33 581 Q42 599 62 622 Q82 645 114 666 Q146 687 191 701.5 Q236 716 297 716 Z M507 739 L361 739 L309 825 L255 739 L109 739 L109 754 L178 907 L438 907 L507 754 L507 739 Z " />
<glyph glyph-name="Scaron" unicode="&#x160;" horiz-adv-x="594" d="M297 716 Q357 716 402 702 Q447 688 479.5 667 Q512 646 531.5 622.5 Q551 599 560 581 L560 489 L371 489 Q365 512 348 528.5 Q331 545 299 545 Q278 545 264 537 Q250 529 244 519 L244 474 Q253 456 291 447 L323 439 Q383 425 424.5 409 Q466 393 494 376.5 Q522 360 539 343 Q556 326 565 309 L565 120 Q555 101 535 78 Q515 55 483 34 Q451 13 405 -1.5 Q359 -16 297 -16 Q234 -16 187.5 -2 Q141 12 108.5 32.5 Q76 53 56.5 76.5 Q37 100 27 120 L27 213 L217 213 Q225 182 246 168.5 Q267 155 294 155 Q317 155 332 163 Q347 171 354 182 L354 236 Q344 255 303 264 L270 272 Q212 285 171.5 300.5 Q131 316 103 332.5 Q75 349 58.5 366 Q42 383 33 400 L33 581 Q42 599 62 622 Q82 645 114 666 Q146 687 191 701.5 Q236 716 297 716 Z M438 739 L178 739 L109 892 L109 907 L255 907 L309 821 L361 907 L507 907 L507 892 L438 739 Z " />
<glyph glyph-name="Scedilla" unicode="&#x15e;" horiz-adv-x="594" d="M323 439 Q383 425 424.5 409 Q466 393 494 376.5 Q522 360 539 343 Q556 326 565 309 L565 120 Q555 103 537.5 81.5 Q520 60 492 40 Q464 20 425 5 Q386 -10 334 -14 L327 -35 L335 -35 Q378 -35 398.5 -51.5 Q419 -68 427 -88 L427 -168 Q412 -201 373.5 -218.5 Q335 -236 282 -236 Q246 -236 218.5 -231.5 Q191 -227 179 -220 L204 -143 Q221 -145 238 -146.5 Q255 -148 271 -148 Q289 -148 303 -144 Q317 -140 321 -132 L321 -115 Q317 -107 304 -105 Q291 -103 275 -103 L215 -103 L244 -13 Q195 -7 158 8 Q121 23 95 42 Q69 61 52.5 82 Q36 103 27 120 L27 213 L217 213 Q225 182 246 168.5 Q267 155 294 155 Q317 155 332 163 Q347 171 354 182 L354 236 Q344 254 303 264 L270 272 Q212 285 171.5 300.5 Q131 316 103 332.5 Q75 349 58.5 366 Q42 383 33 400 L33 581 Q42 599 62 622 Q82 645 114 666 Q146 687 191 701.5 Q236 716 297 716 Q357 716 402 702 Q447 688 479.5 667 Q512 646 531.5 622.5 Q551 599 560 581 L560 489 L371 489 Q364 512 347.5 528.5 Q331 545 299 545 Q278 545 264 537 Q250 529 244 519 L244 474 Q253 456 291 447 L323 439 Z " />
<glyph glyph-name="Scommaaccent" unicode="&#x218;" horiz-adv-x="594" d="M297 716 Q357 716 402 702 Q447 688 479.5 667 Q512 646 531.5 622.5 Q551 599 560 581 L560 489 L371 489 Q365 512 348 528.5 Q331 545 299 545 Q278 545 264 537 Q250 529 244 519 L244 474 Q253 456 291 447 L323 439 Q383 425 424.5 409 Q466 393 494 376.5 Q522 360 539 343 Q556 326 565 309 L565 120 Q555 101 535 78 Q515 55 483 34 Q451 13 405 -1.5 Q359 -16 297 -16 Q234 -16 187.5 -2 Q141 12 108.5 32.5 Q76 53 56.5 76.5 Q37 100 27 120 L27 213 L217 213 Q225 182 246 168.5 Q267 155 294 155 Q317 155 332 163 Q347 171 354 182 L354 236 Q344 255 303 264 L270 272 Q212 285 171.5 300.5 Q131 316 103 332.5 Q75 349 58.5 366 Q42 383 33 400 L33 581 Q42 599 62 622 Q82 645 114 666 Q146 687 191 701.5 Q236 716 297 716 Z M297 -40 Q342 -40 366 -49.5 Q390 -59 398 -69 L398 -186 Q395 -197 385.5 -210 Q376 -223 360 -234 Q344 -245 321.5 -252.5 Q299 -260 269 -260 L203 -260 L203 -200 L250 -200 Q267 -200 281 -197 Q295 -194 300 -182 L300 -168 L297 -168 Q251 -168 226.5 -160.5 Q202 -153 194 -143 L194 -69 Q202 -59 226.5 -49.5 Q251 -40 297 -40 Z " />
<glyph glyph-name="Tcaron" unicode="&#x164;" horiz-adv-x="561" d="M392 534 L392 0 L172 0 L172 534 L25 534 L25 700 L536 700 L536 534 L392 534 Z M410 739 L150 739 L81 892 L81 907 L227 907 L281 821 L333 907 L479 907 L479 892 L410 739 Z " />
<glyph glyph-name="uni021A" unicode="&#x21a;" horiz-adv-x="561" d="M392 534 L392 0 L172 0 L172 534 L25 534 L25 700 L536 700 L536 534 L392 534 Z M281 -40 Q326 -40 350 -49.5 Q374 -59 382 -69 L382 -186 Q379 -197 369.5 -210 Q360 -223 344 -234 Q328 -245 305.5 -252.5 Q283 -260 253 -260 L187 -260 L187 -200 L234 -200 Q251 -200 265 -197 Q279 -194 284 -182 L284 -168 L281 -168 Q235 -168 210.5 -160.5 Q186 -153 178 -143 L178 -69 Q186 -59 210.5 -49.5 Q235 -40 281 -40 Z " />
<glyph glyph-name="Tbar" unicode="&#x166;" horiz-adv-x="561" d="M392 421 L490 421 L490 293 L392 293 L392 0 L172 0 L172 293 L75 293 L75 421 L172 421 L172 534 L25 534 L25 700 L536 700 L536 534 L392 534 L392 421 Z " />
<glyph glyph-name="Ugrave" unicode="&#xd9;" horiz-adv-x="636" d="M596 138 Q585 114 564 87 Q543 60 509 37 Q475 14 428 -1 Q381 -16 318 -16 Q256 -16 208.5 -1 Q161 14 127.5 37 Q94 60 72.5 87 Q51 114 40 138 L40 700 L260 700 L260 183 Q265 171 280 163 Q295 155 318 155 Q341 155 354.5 163 Q368 171 376 183 L376 700 L596 700 L596 138 Z M407 739 L263 739 L184 823 L184 907 L363 907 L407 754 L407 739 Z " />
<glyph glyph-name="Uacute" unicode="&#xda;" horiz-adv-x="636" d="M596 138 Q585 114 564 87 Q543 60 509 37 Q475 14 428 -1 Q381 -16 318 -16 Q256 -16 208.5 -1 Q161 14 127.5 37 Q94 60 72.5 87 Q51 114 40 138 L40 700 L260 700 L260 183 Q265 171 280 163 Q295 155 318 155 Q341 155 354.5 163 Q368 171 376 183 L376 700 L596 700 L596 138 Z M369 739 L226 739 L226 754 L268 907 L450 907 L450 823 L369 739 Z " />
<glyph glyph-name="Ucircumflex" unicode="&#xdb;" horiz-adv-x="636" d="M596 138 Q585 114 564 87 Q543 60 509 37 Q475 14 428 -1 Q381 -16 318 -16 Q256 -16 208.5 -1 Q161 14 127.5 37 Q94 60 72.5 87 Q51 114 40 138 L40 700 L260 700 L260 183 Q265 171 280 163 Q295 155 318 155 Q341 155 354.5 163 Q368 171 376 183 L376 700 L596 700 L596 138 Z M517 739 L371 739 L319 825 L265 739 L119 739 L119 754 L188 907 L448 907 L517 754 L517 739 Z " />
<glyph glyph-name="Utilde" unicode="&#x168;" horiz-adv-x="636" d="M596 138 Q585 114 564 87 Q543 60 509 37 Q475 14 428 -1 Q381 -16 318 -16 Q256 -16 208.5 -1 Q161 14 127.5 37 Q94 60 72.5 87 Q51 114 40 138 L40 700 L260 700 L260 183 Q265 171 280 163 Q295 155 318 155 Q341 155 354.5 163 Q368 171 376 183 L376 700 L596 700 L596 138 Z M243 908 Q273 908 292 900.5 Q311 893 324 884.5 Q337 876 347.5 868.5 Q358 861 372 861 Q394 861 399 882 L399 903 L513 903 L513 829 Q510 812 501 795.5 Q492 779 476.5 766 Q461 753 439.5 745 Q418 737 392 737 Q362 737 343 744.5 Q324 752 311 760.5 Q298 769 287.5 776.5 Q277 784 264 784 Q253 784 246.5 778 Q240 772 238 763 L238 742 L124 742 L124 816 Q126 833 135 849.5 Q144 866 159 879 Q174 892 195.5 900 Q217 908 243 908 Z " />
<glyph glyph-name="Udieresis" unicode="&#xdc;" horiz-adv-x="636" d="M596 138 Q585 114 564 87 Q543 60 509 37 Q475 14 428 -1 Q381 -16 318 -16 Q256 -16 208.5 -1 Q161 14 127.5 37 Q94 60 72.5 87 Q51 114 40 138 L40 700 L260 700 L260 183 Q265 171 280 163 Q295 155 318 155 Q341 155 354.5 163 Q368 171 376 183 L376 700 L596 700 L596 138 Z M204 905 Q226 905 242 900.5 Q258 896 269 890 Q280 884 286.5 877 Q293 870 296 866 L296 771 Q289 761 268.5 746.5 Q248 732 204 732 Q182 732 166 736.5 Q150 741 139.5 747 Q129 753 122 759.5 Q115 766 111 771 L111 866 Q115 870 122 877 Q129 884 139.5 890 Q150 896 166 900.5 Q182 905 204 905 Z M433 905 Q455 905 471 900.5 Q487 896 498 890 Q509 884 515.5 877 Q522 870 525 866 L525 771 Q518 761 497.5 746.5 Q477 732 433 732 Q411 732 395 736.5 Q379 741 368.5 747 Q358 753 351 759.5 Q344 766 340 771 L340 866 Q344 870 351 877 Q358 884 368.5 890 Q379 896 395 900.5 Q411 905 433 905 Z " />
<glyph glyph-name="Umacron" unicode="&#x16a;" horiz-adv-x="636" d="M596 138 Q585 114 564 87 Q543 60 509 37 Q475 14 428 -1 Q381 -16 318 -16 Q256 -16 208.5 -1 Q161 14 127.5 37 Q94 60 72.5 87 Q51 114 40 138 L40 700 L260 700 L260 183 Q265 171 280 163 Q295 155 318 155 Q341 155 354.5 163 Q368 171 376 183 L376 700 L596 700 L596 138 Z M131 748 L131 878 L506 878 L506 748 L131 748 Z " />
<glyph glyph-name="Ubreve" unicode="&#x16c;" horiz-adv-x="636" d="M596 138 Q585 114 564 87 Q543 60 509 37 Q475 14 428 -1 Q381 -16 318 -16 Q256 -16 208.5 -1 Q161 14 127.5 37 Q94 60 72.5 87 Q51 114 40 138 L40 700 L260 700 L260 183 Q265 171 280 163 Q295 155 318 155 Q341 155 354.5 163 Q368 171 376 183 L376 700 L596 700 L596 138 Z M517 837 Q494 789 443.5 762 Q393 735 319 735 Q244 735 193 762 Q142 789 119 837 L119 901 L265 901 L265 863 Q269 855 282 845.5 Q295 836 319 836 Q342 836 355 845.5 Q368 855 372 863 L372 901 L517 901 L517 837 Z " />
<glyph glyph-name="Uring" unicode="&#x16e;" horiz-adv-x="636" d="M596 138 Q585 114 564 87 Q543 60 509 37 Q475 14 428 -1 Q381 -16 318 -16 Q256 -16 208.5 -1 Q161 14 127.5 37 Q94 60 72.5 87 Q51 114 40 138 L40 700 L226 700 Q193 718 176 749 L176 844 Q193 876 231 895 Q269 914 319 914 Q369 914 406.5 895 Q444 876 462 844 L462 749 Q445 718 412 700 L596 700 L596 138 Z M263 773 Q267 766 281 758 Q295 750 319 750 Q343 750 357 758 Q371 766 375 773 L375 819 Q371 826 357 834 Q343 842 319 842 Q295 842 281 834 Q267 826 263 819 L263 773 Z M318 155 Q341 155 354.5 163 Q368 171 376 183 L376 685 Q363 682 348.5 680 Q334 678 319 678 Q289 678 260 686 L260 183 Q265 171 280 163 Q295 155 318 155 Z " />
<glyph glyph-name="Uhungarumlaut" unicode="&#x170;" horiz-adv-x="636" d="M596 138 Q585 114 564 87 Q543 60 509 37 Q475 14 428 -1 Q381 -16 318 -16 Q256 -16 208.5 -1 Q161 14 127.5 37 Q94 60 72.5 87 Q51 114 40 138 L40 700 L260 700 L260 183 Q265 171 280 163 Q295 155 318 155 Q341 155 354.5 163 Q368 171 376 183 L376 700 L596 700 L596 138 Z M278 739 L147 739 L147 754 L176 907 L330 907 L330 839 L278 739 Z M489 739 L359 739 L359 754 L387 907 L542 907 L542 839 L489 739 Z " />
<glyph glyph-name="Uogonek" unicode="&#x172;" horiz-adv-x="636" d="M596 138 Q588 120 575.5 101.5 Q563 83 543 62 Q492 8 463 -36 Q434 -80 429 -94 L429 -112 Q434 -120 444 -122.5 Q454 -125 466 -125 Q472 -125 482 -124 Q492 -123 505 -121 L505 -222 Q494 -227 476 -231 Q458 -235 424 -235 Q381 -235 341.5 -223 Q302 -211 286 -178 L286 -93 Q292 -79 309 -57 Q326 -35 349 -14 Q342 -15 334 -15.5 Q326 -16 318 -16 Q256 -16 208.5 -1 Q161 14 127.5 37 Q94 60 72.5 87 Q51 114 40 138 L40 700 L260 700 L260 183 Q265 171 280 163 Q295 155 318 155 Q341 155 354.5 163 Q368 171 376 183 L376 700 L596 700 L596 138 Z " />
<glyph glyph-name="Wgrave" unicode="&#x1e80;" horiz-adv-x="939" d="M801 0 L539 0 L473 328 L470 328 L405 0 L137 0 L26 584 L26 700 L238 700 L302 275 L305 275 L386 700 L568 700 L653 275 L656 275 L717 700 L913 700 L913 584 L801 0 Z M566 739 L422 739 L343 823 L343 907 L522 907 L566 754 L566 739 Z " />
<glyph glyph-name="Wacute" unicode="&#x1e82;" horiz-adv-x="939" d="M801 0 L539 0 L473 328 L470 328 L405 0 L137 0 L26 584 L26 700 L238 700 L302 275 L305 275 L386 700 L568 700 L653 275 L656 275 L717 700 L913 700 L913 584 L801 0 Z M529 739 L386 739 L386 754 L428 907 L610 907 L610 823 L529 739 Z " />
<glyph glyph-name="Wcircumflex" unicode="&#x174;" horiz-adv-x="939" d="M801 0 L539 0 L473 328 L470 328 L405 0 L137 0 L26 584 L26 700 L238 700 L302 275 L305 275 L386 700 L568 700 L653 275 L656 275 L717 700 L913 700 L913 584 L801 0 Z M676 739 L530 739 L478 825 L424 739 L278 739 L278 754 L347 907 L607 907 L676 754 L676 739 Z " />
<glyph glyph-name="Wdieresis" unicode="&#x1e84;" horiz-adv-x="939" d="M801 0 L539 0 L473 328 L470 328 L405 0 L137 0 L26 584 L26 700 L238 700 L302 275 L305 275 L386 700 L568 700 L653 275 L656 275 L717 700 L913 700 L913 584 L801 0 Z M363 905 Q385 905 401 900.5 Q417 896 428 890 Q439 884 445.5 877 Q452 870 455 866 L455 771 Q448 761 427.5 746.5 Q407 732 363 732 Q341 732 325 736.5 Q309 741 298.5 747 Q288 753 281 759.5 Q274 766 270 771 L270 866 Q274 870 281 877 Q288 884 298.5 890 Q309 896 325 900.5 Q341 905 363 905 Z M592 905 Q614 905 630 900.5 Q646 896 657 890 Q668 884 674.5 877 Q681 870 684 866 L684 771 Q677 761 656.5 746.5 Q636 732 592 732 Q570 732 554 736.5 Q538 741 527.5 747 Q517 753 510 759.5 Q503 766 499 771 L499 866 Q503 870 510 877 Q517 884 527.5 890 Q538 896 554 900.5 Q570 905 592 905 Z " />
<glyph glyph-name="Ygrave" unicode="&#x1ef2;" horiz-adv-x="602" d="M406 255 L406 0 L185 0 L185 277 L21 584 L21 700 L218 700 L306 480 L309 480 L399 700 L581 700 L581 584 L406 255 Z M390 739 L246 739 L167 823 L167 907 L346 907 L390 754 L390 739 Z " />
<glyph glyph-name="Yacute" unicode="&#xdd;" horiz-adv-x="602" d="M406 255 L406 0 L185 0 L185 277 L21 584 L21 700 L218 700 L306 480 L309 480 L399 700 L581 700 L581 584 L406 255 Z M352 739 L209 739 L209 754 L251 907 L433 907 L433 823 L352 739 Z " />
<glyph glyph-name="Ycircumflex" unicode="&#x176;" horiz-adv-x="602" d="M406 255 L406 0 L185 0 L185 277 L21 584 L21 700 L218 700 L306 480 L309 480 L399 700 L581 700 L581 584 L406 255 Z M500 739 L354 739 L302 825 L248 739 L102 739 L102 754 L171 907 L431 907 L500 754 L500 739 Z " />
<glyph glyph-name="Ydieresis" unicode="&#x178;" horiz-adv-x="602" d="M406 255 L406 0 L185 0 L185 277 L21 584 L21 700 L218 700 L306 480 L309 480 L399 700 L581 700 L581 584 L406 255 Z M187 905 Q209 905 225 900.5 Q241 896 252 890 Q263 884 269.5 877 Q276 870 279 866 L279 771 Q272 761 251.5 746.5 Q231 732 187 732 Q165 732 149 736.5 Q133 741 122.5 747 Q112 753 105 759.5 Q98 766 94 771 L94 866 Q98 870 105 877 Q112 884 122.5 890 Q133 896 149 900.5 Q165 905 187 905 Z M416 905 Q438 905 454 900.5 Q470 896 481 890 Q492 884 498.5 877 Q505 870 508 866 L508 771 Q501 761 480.5 746.5 Q460 732 416 732 Q394 732 378 736.5 Q362 741 351.5 747 Q341 753 334 759.5 Q327 766 323 771 L323 866 Q327 870 334 877 Q341 884 351.5 890 Q362 896 378 900.5 Q394 905 416 905 Z " />
<glyph glyph-name="Zacute" unicode="&#x179;" horiz-adv-x="553" d="M288 166 L526 166 L526 0 L26 0 L26 141 L262 534 L29 534 L29 700 L526 700 L526 559 L288 166 Z M328 739 L185 739 L185 754 L227 907 L409 907 L409 823 L328 739 Z " />
<glyph glyph-name="Zcaron" unicode="&#x17d;" horiz-adv-x="553" d="M288 166 L526 166 L526 0 L26 0 L26 141 L262 534 L29 534 L29 700 L526 700 L526 559 L288 166 Z M406 739 L146 739 L77 892 L77 907 L223 907 L277 821 L329 907 L475 907 L475 892 L406 739 Z " />
<glyph glyph-name="Zdotaccent" unicode="&#x17b;" horiz-adv-x="553" d="M288 166 L526 166 L526 0 L26 0 L26 141 L262 534 L29 534 L29 700 L526 700 L526 559 L288 166 Z M276 918 Q322 918 347 900 Q372 882 380 862 L380 792 Q372 772 347 754 Q322 736 276 736 Q231 736 205.5 754 Q180 772 172 792 L172 862 Q180 882 205.5 900 Q231 918 276 918 Z " />
<glyph glyph-name="Eng" unicode="&#x14a;" horiz-adv-x="675" d="M632 -36 Q620 -64 596 -90 Q572 -116 537.5 -135.5 Q503 -155 457.5 -167 Q412 -179 355 -179 Q341 -179 330.5 -178.5 Q320 -178 315 -177 L315 -17 Q320 -18 330.5 -18.5 Q341 -19 352 -19 Q389 -19 404 -4 L249 352 L246 352 L246 0 L43 0 L43 700 L277 700 L426 347 L429 347 L429 700 L632 700 L632 -36 Z " />
<glyph glyph-name="Eth" unicode="&#xd0;" horiz-adv-x="654" d="M378 700 Q425 700 462.5 687.5 Q500 675 528.5 655.5 Q557 636 577 611 Q597 586 608 562 L608 138 Q597 114 577 89 Q557 64 528.5 44.5 Q500 25 462.5 12.5 Q425 0 378 0 L53 0 L53 275 L23 275 L23 435 L53 435 L53 700 L378 700 Z M388 509 Q383 521 368 529 Q353 537 330 537 L273 537 L273 435 L338 435 L338 275 L273 275 L273 163 L330 163 Q353 163 368 171 Q383 179 388 191 L388 509 Z " />
<glyph glyph-name="Thorn" unicode="&#xde;" horiz-adv-x="611" d="M367 595 Q436 595 493.5 565 Q551 535 586 475 L586 253 Q573 229 552.5 207 Q532 185 504.5 168.5 Q477 152 442.5 142 Q408 132 367 132 L263 132 L263 0 L43 0 L43 700 L263 700 L263 595 L367 595 Z M375 405 Q367 419 351.5 425.5 Q336 432 316 432 L263 432 L263 295 L316 295 Q337 295 352 301.5 Q367 308 375 322 L375 405 Z " />
<glyph glyph-name="a" unicode="a" horiz-adv-x="570" d="M281 562 Q339 562 382.5 548.5 Q426 535 456.5 514 Q487 493 506.5 468.5 Q526 444 536 423 L536 0 L340 0 L340 34 Q317 13 285 -1.5 Q253 -16 205 -16 Q166 -16 135.5 -7 Q105 2 83.5 15 Q62 28 49 42 Q36 56 31 67 L31 241 Q37 253 50 269.5 Q63 286 84.5 300.5 Q106 315 136 325.5 Q166 336 205 336 L332 336 L332 383 Q326 393 312 399 Q298 405 281 405 Q262 405 246 396 Q230 387 220 367 L43 367 L43 452 Q50 462 66.5 480.5 Q83 499 111.5 517 Q140 535 182 548.5 Q224 562 281 562 Z M231 138 Q236 132 248 125 Q260 118 281 118 Q299 118 311.5 122.5 Q324 127 332 134 L332 210 L281 210 Q261 210 247.5 203.5 Q234 197 231 191 L231 138 Z " />
<glyph glyph-name="b" unicode="b" horiz-adv-x="572" d="M363 557 Q402 557 432 544 Q462 531 483.5 511.5 Q505 492 519 468.5 Q533 445 540 424 L540 122 Q533 101 519 77.5 Q505 54 483.5 34.5 Q462 15 432 2 Q402 -11 363 -11 Q318 -11 286 4.5 Q254 20 231 44 L231 0 L34 0 L34 700 L238 700 L238 509 Q261 530 291 543.5 Q321 557 363 557 Z M336 377 Q333 384 320 391.5 Q307 399 287 399 Q255 399 238 385 L238 162 Q246 156 258.5 151.5 Q271 147 288 147 Q308 147 321 155 Q334 163 336 169 L336 377 Z " />
<glyph glyph-name="c" unicode="c" horiz-adv-x="554" d="M286 562 Q343 562 385.5 548.5 Q428 535 457 517 Q486 499 502.5 480 Q519 461 526 450 L526 365 L348 365 Q331 405 286 405 Q267 405 254 398 Q241 391 236 382 L236 165 Q241 155 254 148 Q267 141 286 141 Q331 141 348 181 L526 181 L526 96 Q519 85 502.5 66.5 Q486 48 457 29.5 Q428 11 385.5 -2.5 Q343 -16 286 -16 Q229 -16 185.5 -2 Q142 12 111.5 33 Q81 54 61.5 78.5 Q42 103 32 124 L32 423 Q42 444 61.5 468.5 Q81 493 111.5 514 Q142 535 185.5 548.5 Q229 562 286 562 Z " />
<glyph glyph-name="d" unicode="d" horiz-adv-x="571" d="M537 0 L341 0 L341 44 Q318 20 286 4.5 Q254 -11 209 -11 Q170 -11 140 2 Q110 15 88 34.5 Q66 54 52.5 77.5 Q39 101 32 122 L32 424 Q39 445 52.5 468.5 Q66 492 88 511.5 Q110 531 140 544 Q170 557 209 557 Q250 557 280 544 Q310 531 333 510 L333 700 L537 700 L537 0 Z M236 169 Q239 162 252 154.5 Q265 147 285 147 Q302 147 313.5 151 Q325 155 333 161 L333 385 Q325 391 313 395 Q301 399 284 399 Q264 399 251 391.5 Q238 384 236 377 L236 169 Z " />
<glyph glyph-name="e" unicode="e" horiz-adv-x="558" d="M286 562 Q343 562 385.5 548.5 Q428 535 457 516.5 Q486 498 503 479 Q520 460 526 450 L526 212 L236 212 L236 159 Q241 150 254.5 143 Q268 136 288 136 Q332 136 352 175 L526 175 L526 96 Q520 86 503 67 Q486 48 457 29.5 Q428 11 385.5 -2.5 Q343 -16 286 -16 Q229 -16 185.5 -2 Q142 12 111.5 33 Q81 54 61.5 78.5 Q42 103 32 124 L32 423 Q42 444 61.5 468.5 Q81 493 111.5 514 Q142 535 185.5 548.5 Q229 562 286 562 Z M286 411 Q267 411 254 403.5 Q241 396 236 387 L236 338 L338 338 L338 387 Q334 396 320 403.5 Q306 411 286 411 Z " />
<glyph glyph-name="f" unicode="f" horiz-adv-x="359" d="M249 736 Q287 736 314 731 Q341 726 352 721 L352 585 Q350 585 343 585.5 Q336 586 327 586 Q295 586 283 581 Q271 576 268 572 L268 546 L341 546 L341 401 L268 401 L268 0 L64 0 L64 401 L21 401 L21 546 L64 546 L64 638 Q70 656 83.5 673.5 Q97 691 119.5 705 Q142 719 174 727.5 Q206 736 249 736 Z " />
<glyph glyph-name="g" unicode="g" horiz-adv-x="571" d="M537 -45 Q526 -67 506.5 -91 Q487 -115 456 -135.5 Q425 -156 382 -169 Q339 -182 281 -182 Q223 -182 180.5 -169 Q138 -156 108.5 -137 Q79 -118 61.5 -97.5 Q44 -77 35 -62 L35 5 L221 5 Q229 -12 246 -19.5 Q263 -27 282 -27 Q302 -27 315 -19.5 Q328 -12 333 -3 L333 84 Q310 63 280 50 Q250 37 209 37 Q170 37 140 50 Q110 63 88 82.5 Q66 102 52.5 125.5 Q39 149 32 170 L32 424 Q39 445 52.5 468.5 Q66 492 88 511.5 Q110 531 140 544 Q170 557 209 557 Q254 557 286 541.5 Q318 526 341 502 L341 546 L537 546 L537 -45 Z M285 195 Q302 195 313.5 199 Q325 203 333 209 L333 385 Q325 391 313 395 Q301 399 284 399 Q264 399 251 391.5 Q238 384 236 377 L236 217 Q239 210 252 202.5 Q265 195 285 195 Z " />
<glyph glyph-name="h" unicode="h" horiz-adv-x="575" d="M363 557 Q402 557 432 544 Q462 531 483.5 511.5 Q505 492 519 468.5 Q533 445 540 424 L540 0 L337 0 L337 377 Q333 384 320 391.5 Q307 399 287 399 Q255 399 238 385 L238 0 L34 0 L34 700 L238 700 L238 509 Q261 531 291 544 Q321 557 363 557 Z " />
<glyph glyph-name="i" unicode="i" horiz-adv-x="276" d="M37 0 L37 546 L239 546 L239 0 L37 0 Z M138 764 Q183 764 208 746 Q233 728 242 708 L242 638 Q233 618 208 600 Q183 582 138 582 Q93 582 67.5 600 Q42 618 34 638 L34 708 Q42 728 67.5 746 Q93 764 138 764 Z " />
<glyph glyph-name="j" unicode="j" horiz-adv-x="274" d="M238 -45 Q229 -68 210.5 -92 Q192 -116 162 -135.5 Q132 -155 88.5 -167.5 Q45 -180 -16 -180 L-16 -25 Q3 -25 16 -15 Q29 -5 36 9 L36 546 L238 546 L238 -45 Z M138 764 Q183 764 208 746 Q233 728 242 708 L242 638 Q233 618 208 600 Q183 582 138 582 Q93 582 67.5 600 Q42 618 34 638 L34 708 Q42 728 67.5 746 Q93 764 138 764 Z " />
<glyph glyph-name="k" unicode="k" horiz-adv-x="568" d="M548 0 L380 0 L275 175 L238 136 L238 0 L34 0 L34 700 L238 700 L238 383 L382 546 L522 546 L522 440 L413 323 L548 107 L548 0 Z " />
<glyph glyph-name="l" unicode="l" horiz-adv-x="273" d="M34 0 L34 700 L238 700 L238 0 L34 0 Z " />
<glyph glyph-name="m" unicode="m" horiz-adv-x="851" d="M646 557 Q685 557 714 544 Q743 531 763.5 511.5 Q784 492 797 469 Q810 446 816 425 L816 0 L613 0 L613 380 Q609 387 599 393 Q589 399 569 399 Q555 399 545 396 Q535 393 528 388 L528 0 L324 0 L324 380 Q320 387 310 393 Q300 399 280 399 Q265 399 255 395.5 Q245 392 238 387 L238 0 L34 0 L34 546 L223 546 L223 497 Q246 523 278 540 Q310 557 357 557 Q410 557 444.5 534.5 Q479 512 500 482 Q523 514 557.5 535.5 Q592 557 646 557 Z " />
<glyph glyph-name="n" unicode="n" horiz-adv-x="574" d="M363 557 Q402 557 432 544 Q462 531 483.5 511.5 Q505 492 519 468.5 Q533 445 540 424 L540 0 L336 0 L336 377 Q333 384 320 391.5 Q307 399 287 399 Q255 399 238 385 L238 0 L34 0 L34 546 L223 546 L223 494 Q246 521 280.5 539 Q315 557 363 557 Z " />
<glyph glyph-name="o" unicode="o" horiz-adv-x="574" d="M287 562 Q344 562 387.5 548.5 Q431 535 462 514 Q493 493 512.5 468.5 Q532 444 542 423 L542 124 Q532 103 512.5 78.5 Q493 54 462 33 Q431 12 387.5 -2 Q344 -16 287 -16 Q230 -16 186.5 -2 Q143 12 112 33 Q81 54 61.5 78.5 Q42 103 32 124 L32 423 Q42 444 61.5 468.5 Q81 493 112 514 Q143 535 186.5 548.5 Q230 562 287 562 Z M287 405 Q267 405 254 398 Q241 391 236 382 L236 165 Q241 155 254 148 Q267 141 287 141 Q307 141 320.5 148 Q334 155 338 165 L338 382 Q334 391 320.5 398 Q307 405 287 405 Z " />
<glyph glyph-name="p" unicode="p" horiz-adv-x="572" d="M363 557 Q402 557 432 544 Q462 531 483.5 511.5 Q505 492 519 468.5 Q533 445 540 424 L540 122 Q533 101 519 77.5 Q505 54 483.5 34.5 Q462 15 432 2 Q402 -11 363 -11 Q321 -11 291 2.5 Q261 16 238 37 L238 -166 L34 -166 L34 546 L231 546 L231 502 Q254 526 286 541.5 Q318 557 363 557 Z M336 377 Q333 384 320 391.5 Q307 399 287 399 Q255 399 238 385 L238 162 Q246 156 258.5 151.5 Q271 147 288 147 Q308 147 321 155 Q334 163 336 169 L336 377 Z " />
<glyph glyph-name="q" unicode="q" horiz-adv-x="571" d="M537 -166 L333 -166 L333 36 Q310 15 280 2 Q250 -11 209 -11 Q170 -11 140 2 Q110 15 88 34.5 Q66 54 52.5 77.5 Q39 101 32 122 L32 424 Q39 445 52.5 468.5 Q66 492 88 511.5 Q110 531 140 544 Q170 557 209 557 Q254 557 286 541.5 Q318 526 341 502 L341 546 L537 546 L537 -166 Z M285 147 Q302 147 313.5 151 Q325 155 333 161 L333 385 Q325 391 313 395 Q301 399 284 399 Q264 399 251 391.5 Q238 384 236 377 L236 169 Q239 162 252 154.5 Q265 147 285 147 Z " />
<glyph glyph-name="r" unicode="r" horiz-adv-x="403" d="M363 547 Q366 547 370.5 547 Q375 547 383 546 L383 359 Q375 360 368.5 360 Q362 360 356 360 Q308 360 279 352.5 Q250 345 238 335 L238 0 L34 0 L34 546 L223 546 L223 469 Q242 501 274 524 Q306 547 363 547 Z " />
<glyph glyph-name="s" unicode="s" horiz-adv-x="526" d="M263 562 Q318 562 358.5 549 Q399 536 427 518.5 Q455 501 471.5 482.5 Q488 464 495 453 L495 383 L317 383 Q309 402 296.5 411 Q284 420 262 420 Q245 420 233 414 Q221 408 216 399 L216 374 Q221 366 232 361.5 Q243 357 258 354 L304 345 Q353 336 387.5 323.5 Q422 311 445 298 Q468 285 481.5 273 Q495 261 501 252 L501 94 Q493 82 476 63 Q459 44 430 26.5 Q401 9 359.5 -3.5 Q318 -16 262 -16 Q206 -16 164.5 -3.5 Q123 9 94.5 26.5 Q66 44 49 63 Q32 82 25 94 L25 164 L203 164 Q209 148 224 137 Q239 126 264 126 Q282 126 295.5 133 Q309 140 314 148 L314 174 Q310 182 297.5 187 Q285 192 270 195 L223 203 Q175 212 141 224 Q107 236 84 249.5 Q61 263 48 276 Q35 289 30 298 L30 453 Q37 465 54 483.5 Q71 502 99 519.5 Q127 537 167.5 549.5 Q208 562 263 562 Z " />
<glyph glyph-name="t" unicode="t" horiz-adv-x="373" d="M327 140 Q336 140 343 141 Q350 142 352 142 L352 0 Q335 -5 309 -10 Q283 -15 249 -15 Q207 -15 175 -6.5 Q143 2 120.5 16 Q98 30 84 47.5 Q70 65 64 83 L64 401 L21 401 L21 546 L64 546 L64 658 L268 658 L268 546 L341 546 L341 401 L268 401 L268 155 Q273 150 285.5 145 Q298 140 327 140 Z " />
<glyph glyph-name="u" unicode="u" horiz-adv-x="570" d="M536 0 L347 0 L347 51 Q324 24 290.5 6.5 Q257 -11 209 -11 Q170 -11 140.5 2 Q111 15 89.5 34.5 Q68 54 54.5 77.5 Q41 101 34 122 L34 546 L238 546 L238 169 Q242 162 253.5 154.5 Q265 147 285 147 Q302 147 313 151 Q324 155 332 161 L332 546 L536 546 L536 0 Z " />
<glyph glyph-name="v" unicode="v" horiz-adv-x="556" d="M403 0 L153 0 L23 440 L23 546 L218 546 L287 220 L290 220 L360 546 L533 546 L533 440 L403 0 Z " />
<glyph glyph-name="w" unicode="w" horiz-adv-x="819" d="M682 0 L468 0 L415 241 L412 241 L359 0 L137 0 L25 440 L25 546 L220 546 L271 228 L274 228 L339 546 L503 546 L566 228 L569 228 L621 546 L794 546 L794 440 L682 0 Z " />
<glyph glyph-name="x" unicode="x" horiz-adv-x="545" d="M416 279 L524 107 L524 0 L336 0 L274 165 L271 165 L207 0 L21 0 L21 107 L128 279 L28 440 L28 546 L211 546 L271 391 L274 391 L333 546 L518 546 L518 440 L416 279 Z " />
<glyph glyph-name="y" unicode="y" horiz-adv-x="552" d="M529 440 L356 -98 Q343 -113 325.5 -127.5 Q308 -142 282.5 -153.5 Q257 -165 223.5 -172 Q190 -179 146 -179 Q114 -179 86.5 -175 Q59 -171 44 -166 L44 -23 Q53 -24 65.5 -24.5 Q78 -25 92 -25 Q130 -25 149 -18 Q168 -11 176 -3 L181 13 L23 439 L23 546 L218 546 L281 267 L284 267 L348 546 L529 546 L529 440 Z " />
<glyph glyph-name="z" unicode="z" horiz-adv-x="502" d="M258 149 L477 149 L477 0 L24 0 L24 139 L235 397 L32 397 L32 546 L477 546 L477 417 L258 149 Z " />
<glyph glyph-name="agrave" unicode="&#xe0;" horiz-adv-x="570" d="M281 562 Q339 562 382.5 548.5 Q426 535 456.5 514 Q487 493 506.5 468.5 Q526 444 536 423 L536 0 L340 0 L340 34 Q317 13 285 -1.5 Q253 -16 205 -16 Q166 -16 135.5 -7 Q105 2 83.5 15 Q62 28 49 42 Q36 56 31 67 L31 241 Q37 253 50 269.5 Q63 286 84.5 300.5 Q106 315 136 325.5 Q166 336 205 336 L332 336 L332 383 Q326 393 312 399 Q298 405 281 405 Q262 405 246 396 Q230 387 220 367 L43 367 L43 452 Q50 462 66.5 480.5 Q83 499 111.5 517 Q140 535 182 548.5 Q224 562 281 562 Z M231 138 Q236 132 248 125 Q260 118 281 118 Q299 118 311.5 122.5 Q324 127 332 134 L332 210 L281 210 Q261 210 247.5 203.5 Q234 197 231 191 L231 138 Z M367 598 L216 598 L136 685 L136 769 L323 769 L367 613 L367 598 Z " />
<glyph glyph-name="aacute" unicode="&#xe1;" horiz-adv-x="570" d="M281 562 Q339 562 382.5 548.5 Q426 535 456.5 514 Q487 493 506.5 468.5 Q526 444 536 423 L536 0 L340 0 L340 34 Q317 13 285 -1.5 Q253 -16 205 -16 Q166 -16 135.5 -7 Q105 2 83.5 15 Q62 28 49 42 Q36 56 31 67 L31 241 Q37 253 50 269.5 Q63 286 84.5 300.5 Q106 315 136 325.5 Q166 336 205 336 L332 336 L332 383 Q326 393 312 399 Q298 405 281 405 Q262 405 246 396 Q230 387 220 367 L43 367 L43 452 Q50 462 66.5 480.5 Q83 499 111.5 517 Q140 535 182 548.5 Q224 562 281 562 Z M231 138 Q236 132 248 125 Q260 118 281 118 Q299 118 311.5 122.5 Q324 127 332 134 L332 210 L281 210 Q261 210 247.5 203.5 Q234 197 231 191 L231 138 Z M366 598 L214 598 L214 613 L258 769 L445 769 L445 685 L366 598 Z " />
<glyph glyph-name="acircumflex" unicode="&#xe2;" horiz-adv-x="570" d="M281 562 Q339 562 382.5 548.5 Q426 535 456.5 514 Q487 493 506.5 468.5 Q526 444 536 423 L536 0 L340 0 L340 34 Q317 13 285 -1.5 Q253 -16 205 -16 Q166 -16 135.5 -7 Q105 2 83.5 15 Q62 28 49 42 Q36 56 31 67 L31 241 Q37 253 50 269.5 Q63 286 84.5 300.5 Q106 315 136 325.5 Q166 336 205 336 L332 336 L332 383 Q326 393 312 399 Q298 405 281 405 Q262 405 246 396 Q230 387 220 367 L43 367 L43 452 Q50 462 66.5 480.5 Q83 499 111.5 517 Q140 535 182 548.5 Q224 562 281 562 Z M231 138 Q236 132 248 125 Q260 118 281 118 Q299 118 311.5 122.5 Q324 127 332 134 L332 210 L281 210 Q261 210 247.5 203.5 Q234 197 231 191 L231 138 Z M490 593 L344 593 L292 682 L238 593 L92 593 L92 608 L161 764 L421 764 L490 608 L490 593 Z " />
<glyph glyph-name="atilde" unicode="&#xe3;" horiz-adv-x="570" d="M281 562 Q339 562 382.5 548.5 Q426 535 456.5 514 Q487 493 506.5 468.5 Q526 444 536 423 L536 0 L340 0 L340 34 Q317 13 285 -1.5 Q253 -16 205 -16 Q166 -16 135.5 -7 Q105 2 83.5 15 Q62 28 49 42 Q36 56 31 67 L31 241 Q37 253 50 269.5 Q63 286 84.5 300.5 Q106 315 136 325.5 Q166 336 205 336 L332 336 L332 383 Q326 393 312 399 Q298 405 281 405 Q262 405 246 396 Q230 387 220 367 L43 367 L43 452 Q50 462 66.5 480.5 Q83 499 111.5 517 Q140 535 182 548.5 Q224 562 281 562 Z M231 138 Q236 132 248 125 Q260 118 281 118 Q299 118 311.5 122.5 Q324 127 332 134 L332 210 L281 210 Q261 210 247.5 203.5 Q234 197 231 191 L231 138 Z M216 761 Q246 761 265 753.5 Q284 746 297 737.5 Q310 729 320.5 721.5 Q331 714 345 714 Q367 714 372 735 L372 756 L486 756 L486 682 Q483 665 474 648.5 Q465 632 449.5 619 Q434 606 413 598 Q392 590 366 590 Q336 590 317 597.5 Q298 605 284.5 613.5 Q271 622 260.5 629.5 Q250 637 237 637 Q226 637 219.5 631 Q213 625 211 616 L211 595 L97 595 L97 669 Q99 686 108 702.5 Q117 719 132 732 Q147 745 168.5 753 Q190 761 216 761 Z " />
<glyph glyph-name="adieresis" unicode="&#xe4;" horiz-adv-x="570" d="M281 562 Q339 562 382.5 548.5 Q426 535 456.5 514 Q487 493 506.5 468.5 Q526 444 536 423 L536 0 L340 0 L340 34 Q317 13 285 -1.5 Q253 -16 205 -16 Q166 -16 135.5 -7 Q105 2 83.5 15 Q62 28 49 42 Q36 56 31 67 L31 241 Q37 253 50 269.5 Q63 286 84.5 300.5 Q106 315 136 325.5 Q166 336 205 336 L332 336 L332 383 Q326 393 312 399 Q298 405 281 405 Q262 405 246 396 Q230 387 220 367 L43 367 L43 452 Q50 462 66.5 480.5 Q83 499 111.5 517 Q140 535 182 548.5 Q224 562 281 562 Z M231 138 Q236 132 248 125 Q260 118 281 118 Q299 118 311.5 122.5 Q324 127 332 134 L332 210 L281 210 Q261 210 247.5 203.5 Q234 197 231 191 L231 138 Z M175 759 Q197 759 213 754.5 Q229 750 240 744 Q251 738 257.5 731.5 Q264 725 267 721 L267 619 Q260 609 239.5 594.5 Q219 580 175 580 Q153 580 137 584.5 Q121 589 110 595 Q99 601 92.5 607.5 Q86 614 82 619 L82 721 Q89 730 110 744.5 Q131 759 175 759 Z M408 759 Q430 759 446 754.5 Q462 750 472.5 744 Q483 738 489.5 731.5 Q496 725 500 721 L500 619 Q496 614 489.5 607.5 Q483 601 472.5 595 Q462 589 446 584.5 Q430 580 408 580 Q386 580 370 584.5 Q354 589 343 595 Q332 601 325.5 607.5 Q319 614 315 619 L315 721 Q322 730 343 744.5 Q364 759 408 759 Z " />
<glyph glyph-name="amacron" unicode="&#x101;" horiz-adv-x="570" d="M281 562 Q339 562 382.5 548.5 Q426 535 456.5 514 Q487 493 506.5 468.5 Q526 444 536 423 L536 0 L340 0 L340 34 Q317 13 285 -1.5 Q253 -16 205 -16 Q166 -16 135.5 -7 Q105 2 83.5 15 Q62 28 49 42 Q36 56 31 67 L31 241 Q37 253 50 269.5 Q63 286 84.5 300.5 Q106 315 136 325.5 Q166 336 205 336 L332 336 L332 383 Q326 393 312 399 Q298 405 281 405 Q262 405 246 396 Q230 387 220 367 L43 367 L43 452 Q50 462 66.5 480.5 Q83 499 111.5 517 Q140 535 182 548.5 Q224 562 281 562 Z M231 138 Q236 132 248 125 Q260 118 281 118 Q299 118 311.5 122.5 Q324 127 332 134 L332 210 L281 210 Q261 210 247.5 203.5 Q234 197 231 191 L231 138 Z M104 605 L104 735 L479 735 L479 605 L104 605 Z " />
<glyph glyph-name="abreve" unicode="&#x103;" horiz-adv-x="570" d="M281 562 Q339 562 382.5 548.5 Q426 535 456.5 514 Q487 493 506.5 468.5 Q526 444 536 423 L536 0 L340 0 L340 34 Q317 13 285 -1.5 Q253 -16 205 -16 Q166 -16 135.5 -7 Q105 2 83.5 15 Q62 28 49 42 Q36 56 31 67 L31 241 Q37 253 50 269.5 Q63 286 84.5 300.5 Q106 315 136 325.5 Q166 336 205 336 L332 336 L332 383 Q326 393 312 399 Q298 405 281 405 Q262 405 246 396 Q230 387 220 367 L43 367 L43 452 Q50 462 66.5 480.5 Q83 499 111.5 517 Q140 535 182 548.5 Q224 562 281 562 Z M231 138 Q236 132 248 125 Q260 118 281 118 Q299 118 311.5 122.5 Q324 127 332 134 L332 210 L281 210 Q261 210 247.5 203.5 Q234 197 231 191 L231 138 Z M490 691 Q467 643 416.5 616 Q366 589 292 589 Q217 589 166 616 Q115 643 92 691 L92 754 L238 754 L238 716 Q242 708 255 698.5 Q268 689 292 689 Q315 689 328 698.5 Q341 708 345 716 L345 754 L490 754 L490 691 Z " />
<glyph glyph-name="aring" unicode="&#xe5;" horiz-adv-x="570" d="M281 562 Q339 562 382.5 548.5 Q426 535 456.5 514 Q487 493 506.5 468.5 Q526 444 536 423 L536 0 L340 0 L340 34 Q317 13 285 -1.5 Q253 -16 205 -16 Q166 -16 135.5 -7 Q105 2 83.5 15 Q62 28 49 42 Q36 56 31 67 L31 241 Q37 253 50 269.5 Q63 286 84.5 300.5 Q106 315 136 325.5 Q166 336 205 336 L332 336 L332 383 Q326 393 312 399 Q298 405 281 405 Q262 405 246 396 Q230 387 220 367 L43 367 L43 452 Q50 462 66.5 480.5 Q83 499 111.5 517 Q140 535 182 548.5 Q224 562 281 562 Z M231 138 Q236 132 248 125 Q260 118 281 118 Q299 118 311.5 122.5 Q324 127 332 134 L332 210 L281 210 Q261 210 247.5 203.5 Q234 197 231 191 L231 138 Z M290 829 Q340 829 377.5 810 Q415 791 433 759 L433 657 Q415 624 377.5 605 Q340 586 290 586 Q240 586 202 605 Q164 624 147 657 L147 759 Q164 791 202 810 Q240 829 290 829 Z M290 757 Q266 757 252 749 Q238 741 234 734 L234 681 Q238 674 252 666 Q266 658 290 658 Q314 658 328 666 Q342 674 346 681 L346 734 Q342 741 328 749 Q314 757 290 757 Z " />
<glyph glyph-name="aogonek" unicode="&#x105;" horiz-adv-x="570" d="M505 -125 Q521 -125 544 -121 L544 -222 Q533 -227 515.5 -231 Q498 -235 464 -235 Q420 -235 381 -223 Q342 -211 325 -178 L325 -93 Q333 -76 353.5 -50 Q374 -24 405 0 L340 0 L340 34 Q317 13 285 -1.5 Q253 -16 205 -16 Q166 -16 135.5 -7 Q105 2 83.5 15 Q62 28 49 42 Q36 56 31 67 L31 241 Q37 253 50 269.5 Q63 286 84.5 300.5 Q106 315 136 325.5 Q166 336 205 336 L332 336 L332 383 Q326 393 312 399 Q298 405 281 405 Q262 405 246 396 Q230 387 220 367 L43 367 L43 452 Q50 462 66.5 480.5 Q83 499 111.5 517 Q140 535 182 548.5 Q224 562 281 562 Q339 562 382.5 548.5 Q426 535 456.5 514 Q487 493 506.5 468.5 Q526 444 536 423 L536 0 Q518 -20 506 -35 Q494 -50 486.5 -61 Q479 -72 475 -80 Q471 -88 468 -94 L468 -112 Q473 -120 483.5 -122.5 Q494 -125 505 -125 Z M231 138 Q236 132 248 125 Q260 118 281 118 Q299 118 311.5 122.5 Q324 127 332 134 L332 210 L281 210 Q261 210 247.5 203.5 Q234 197 231 191 L231 138 Z " />
<glyph glyph-name="ae" unicode="&#xe6;" horiz-adv-x="858" d="M536 159 Q541 150 555 143 Q569 136 588 136 Q632 136 652 175 L826 175 L826 96 Q820 86 803 67 Q786 48 757 29.5 Q728 11 685.5 -2.5 Q643 -16 586 -16 Q524 -16 479.5 0 Q435 16 403 39 Q374 15 330 -0.5 Q286 -16 218 -16 Q179 -16 146.5 -7 Q114 2 90 15 Q66 28 51 42 Q36 56 31 67 L31 241 Q37 253 50 269.5 Q63 286 84.5 300.5 Q106 315 136 325.5 Q166 336 205 336 L332 336 L332 383 Q326 393 312 399 Q298 405 281 405 Q262 405 246 396 Q230 387 220 367 L43 367 L43 452 Q50 462 66.5 480.5 Q83 499 111.5 517 Q140 535 182 548.5 Q224 562 281 562 Q329 562 367 552.5 Q405 543 434 527 Q463 543 500.5 552.5 Q538 562 586 562 Q643 562 685.5 548.5 Q728 535 757 516.5 Q786 498 803 479 Q820 460 826 450 L826 212 L536 212 L536 159 Z M639 338 L639 387 Q634 396 620 403.5 Q606 411 586 411 Q567 411 554 403.5 Q541 396 536 387 L536 338 L639 338 Z M281 210 Q261 210 247.5 203.5 Q234 197 231 191 L231 138 Q236 132 248 125 Q260 118 281 118 Q299 118 311.5 122.5 Q324 127 332 135 L332 210 L281 210 Z " />
<glyph glyph-name="cacute" unicode="&#x107;" horiz-adv-x="554" d="M286 562 Q343 562 385.5 548.5 Q428 535 457 517 Q486 499 502.5 480 Q519 461 526 450 L526 365 L348 365 Q331 405 286 405 Q267 405 254 398 Q241 391 236 382 L236 165 Q241 155 254 148 Q267 141 286 141 Q331 141 348 181 L526 181 L526 96 Q519 85 502.5 66.5 Q486 48 457 29.5 Q428 11 385.5 -2.5 Q343 -16 286 -16 Q229 -16 185.5 -2 Q142 12 111.5 33 Q81 54 61.5 78.5 Q42 103 32 124 L32 423 Q42 444 61.5 468.5 Q81 493 111.5 514 Q142 535 185.5 548.5 Q229 562 286 562 Z M363 598 L211 598 L211 613 L255 769 L442 769 L442 685 L363 598 Z " />
<glyph glyph-name="ccircumflex" unicode="&#x109;" horiz-adv-x="554" d="M286 562 Q343 562 385.5 548.5 Q428 535 457 517 Q486 499 502.5 480 Q519 461 526 450 L526 365 L348 365 Q331 405 286 405 Q267 405 254 398 Q241 391 236 382 L236 165 Q241 155 254 148 Q267 141 286 141 Q331 141 348 181 L526 181 L526 96 Q519 85 502.5 66.5 Q486 48 457 29.5 Q428 11 385.5 -2.5 Q343 -16 286 -16 Q229 -16 185.5 -2 Q142 12 111.5 33 Q81 54 61.5 78.5 Q42 103 32 124 L32 423 Q42 444 61.5 468.5 Q81 493 111.5 514 Q142 535 185.5 548.5 Q229 562 286 562 Z M487 593 L341 593 L289 682 L235 593 L89 593 L89 608 L158 764 L418 764 L487 608 L487 593 Z " />
<glyph glyph-name="ccaron" unicode="&#x10d;" horiz-adv-x="554" d="M286 562 Q343 562 385.5 548.5 Q428 535 457 517 Q486 499 502.5 480 Q519 461 526 450 L526 365 L348 365 Q331 405 286 405 Q267 405 254 398 Q241 391 236 382 L236 165 Q241 155 254 148 Q267 141 286 141 Q331 141 348 181 L526 181 L526 96 Q519 85 502.5 66.5 Q486 48 457 29.5 Q428 11 385.5 -2.5 Q343 -16 286 -16 Q229 -16 185.5 -2 Q142 12 111.5 33 Q81 54 61.5 78.5 Q42 103 32 124 L32 423 Q42 444 61.5 468.5 Q81 493 111.5 514 Q142 535 185.5 548.5 Q229 562 286 562 Z M418 593 L158 593 L89 749 L89 764 L235 764 L289 675 L341 764 L487 764 L487 749 L418 593 Z " />
<glyph glyph-name="cdotaccent" unicode="&#x10b;" horiz-adv-x="554" d="M286 562 Q343 562 385.5 548.5 Q428 535 457 517 Q486 499 502.5 480 Q519 461 526 450 L526 365 L348 365 Q331 405 286 405 Q267 405 254 398 Q241 391 236 382 L236 165 Q241 155 254 148 Q267 141 286 141 Q331 141 348 181 L526 181 L526 96 Q519 85 502.5 66.5 Q486 48 457 29.5 Q428 11 385.5 -2.5 Q343 -16 286 -16 Q229 -16 185.5 -2 Q142 12 111.5 33 Q81 54 61.5 78.5 Q42 103 32 124 L32 423 Q42 444 61.5 468.5 Q81 493 111.5 514 Q142 535 185.5 548.5 Q229 562 286 562 Z M288 764 Q333 764 358 746 Q383 728 392 708 L392 638 Q383 618 358 600 Q333 582 288 582 Q243 582 217.5 600 Q192 618 184 638 L184 708 Q192 728 217.5 746 Q243 764 288 764 Z " />
<glyph glyph-name="ccedilla" unicode="&#xe7;" horiz-adv-x="554" d="M286 405 Q267 405 254 398 Q241 391 236 382 L236 165 Q241 155 254 148 Q267 141 286 141 Q331 141 348 181 L526 181 L526 96 Q520 86 504.5 69 Q489 52 463.5 34.5 Q438 17 401.5 3 Q365 -11 315 -15 L308 -35 L315 -35 Q358 -35 378.5 -51.5 Q399 -68 407 -88 L407 -168 Q392 -201 353.5 -218.5 Q315 -236 263 -236 Q227 -236 199.5 -231.5 Q172 -227 159 -220 L185 -143 Q202 -145 219 -146.5 Q236 -148 251 -148 Q270 -148 283.5 -144 Q297 -140 301 -132 L301 -115 Q297 -107 284 -105 Q271 -103 255 -103 L195 -103 L225 -11 Q183 -4 150.5 11 Q118 26 94.5 45 Q71 64 55.5 85 Q40 106 32 124 L32 423 Q42 444 61.5 468.5 Q81 493 111.5 514 Q142 535 185.5 548.5 Q229 562 286 562 Q343 562 385.5 548.5 Q428 535 457 517 Q486 499 502.5 480 Q519 461 526 450 L526 365 L348 365 Q331 405 286 405 Z " />
<glyph glyph-name="dcaron" unicode="&#x10f;" horiz-adv-x="769" d="M537 0 L341 0 L341 44 Q318 20 286 4.5 Q254 -11 209 -11 Q170 -11 140 2 Q110 15 88 34.5 Q66 54 52.5 77.5 Q39 101 32 122 L32 424 Q39 445 52.5 468.5 Q66 492 88 511.5 Q110 531 140 544 Q170 557 209 557 Q250 557 280 544 Q310 531 333 510 L333 700 L537 700 L537 0 Z M236 169 Q239 162 252 154.5 Q265 147 285 147 Q302 147 313.5 151 Q325 155 333 161 L333 385 Q325 391 313 395 Q301 399 284 399 Q264 399 251 391.5 Q238 384 236 377 L236 169 Z M692 461 L573 461 L573 476 L596 700 L750 700 L750 597 L692 461 Z " />
<glyph glyph-name="egrave" unicode="&#xe8;" horiz-adv-x="558" d="M286 562 Q343 562 385.5 548.5 Q428 535 457 516.5 Q486 498 503 479 Q520 460 526 450 L526 212 L236 212 L236 159 Q241 150 254.5 143 Q268 136 288 136 Q332 136 352 175 L526 175 L526 96 Q520 86 503 67 Q486 48 457 29.5 Q428 11 385.5 -2.5 Q343 -16 286 -16 Q229 -16 185.5 -2 Q142 12 111.5 33 Q81 54 61.5 78.5 Q42 103 32 124 L32 423 Q42 444 61.5 468.5 Q81 493 111.5 514 Q142 535 185.5 548.5 Q229 562 286 562 Z M286 411 Q267 411 254 403.5 Q241 396 236 387 L236 338 L338 338 L338 387 Q334 396 320 403.5 Q306 411 286 411 Z M367 598 L216 598 L136 685 L136 769 L323 769 L367 613 L367 598 Z " />
<glyph glyph-name="eacute" unicode="&#xe9;" horiz-adv-x="558" d="M286 562 Q343 562 385.5 548.5 Q428 535 457 516.5 Q486 498 503 479 Q520 460 526 450 L526 212 L236 212 L236 159 Q241 150 254.5 143 Q268 136 288 136 Q332 136 352 175 L526 175 L526 96 Q520 86 503 67 Q486 48 457 29.5 Q428 11 385.5 -2.5 Q343 -16 286 -16 Q229 -16 185.5 -2 Q142 12 111.5 33 Q81 54 61.5 78.5 Q42 103 32 124 L32 423 Q42 444 61.5 468.5 Q81 493 111.5 514 Q142 535 185.5 548.5 Q229 562 286 562 Z M286 411 Q267 411 254 403.5 Q241 396 236 387 L236 338 L338 338 L338 387 Q334 396 320 403.5 Q306 411 286 411 Z M366 598 L214 598 L214 613 L258 769 L445 769 L445 685 L366 598 Z " />
<glyph glyph-name="ecircumflex" unicode="&#xea;" horiz-adv-x="558" d="M286 562 Q343 562 385.5 548.5 Q428 535 457 516.5 Q486 498 503 479 Q520 460 526 450 L526 212 L236 212 L236 159 Q241 150 254.5 143 Q268 136 288 136 Q332 136 352 175 L526 175 L526 96 Q520 86 503 67 Q486 48 457 29.5 Q428 11 385.5 -2.5 Q343 -16 286 -16 Q229 -16 185.5 -2 Q142 12 111.5 33 Q81 54 61.5 78.5 Q42 103 32 124 L32 423 Q42 444 61.5 468.5 Q81 493 111.5 514 Q142 535 185.5 548.5 Q229 562 286 562 Z M286 411 Q267 411 254 403.5 Q241 396 236 387 L236 338 L338 338 L338 387 Q334 396 320 403.5 Q306 411 286 411 Z M489 593 L343 593 L291 682 L237 593 L91 593 L91 608 L160 764 L420 764 L489 608 L489 593 Z " />
<glyph glyph-name="ecaron" unicode="&#x11b;" horiz-adv-x="558" d="M286 562 Q343 562 385.5 548.5 Q428 535 457 516.5 Q486 498 503 479 Q520 460 526 450 L526 212 L236 212 L236 159 Q241 150 254.5 143 Q268 136 288 136 Q332 136 352 175 L526 175 L526 96 Q520 86 503 67 Q486 48 457 29.5 Q428 11 385.5 -2.5 Q343 -16 286 -16 Q229 -16 185.5 -2 Q142 12 111.5 33 Q81 54 61.5 78.5 Q42 103 32 124 L32 423 Q42 444 61.5 468.5 Q81 493 111.5 514 Q142 535 185.5 548.5 Q229 562 286 562 Z M286 411 Q267 411 254 403.5 Q241 396 236 387 L236 338 L338 338 L338 387 Q334 396 320 403.5 Q306 411 286 411 Z M420 593 L160 593 L91 749 L91 764 L237 764 L291 675 L343 764 L489 764 L489 749 L420 593 Z " />
<glyph glyph-name="edieresis" unicode="&#xeb;" horiz-adv-x="558" d="M286 562 Q343 562 385.5 548.5 Q428 535 457 516.5 Q486 498 503 479 Q520 460 526 450 L526 212 L236 212 L236 159 Q241 150 254.5 143 Q268 136 288 136 Q332 136 352 175 L526 175 L526 96 Q520 86 503 67 Q486 48 457 29.5 Q428 11 385.5 -2.5 Q343 -16 286 -16 Q229 -16 185.5 -2 Q142 12 111.5 33 Q81 54 61.5 78.5 Q42 103 32 124 L32 423 Q42 444 61.5 468.5 Q81 493 111.5 514 Q142 535 185.5 548.5 Q229 562 286 562 Z M286 411 Q267 411 254 403.5 Q241 396 236 387 L236 338 L338 338 L338 387 Q334 396 320 403.5 Q306 411 286 411 Z M174 759 Q196 759 212 754.5 Q228 750 239 744 Q250 738 256.5 731.5 Q263 725 266 721 L266 619 Q259 609 238.5 594.5 Q218 580 174 580 Q152 580 136 584.5 Q120 589 109 595 Q98 601 91.5 607.5 Q85 614 81 619 L81 721 Q88 730 109 744.5 Q130 759 174 759 Z M407 759 Q429 759 445 754.5 Q461 750 471.5 744 Q482 738 488.5 731.5 Q495 725 499 721 L499 619 Q495 614 488.5 607.5 Q482 601 471.5 595 Q461 589 445 584.5 Q429 580 407 580 Q385 580 369 584.5 Q353 589 342 595 Q331 601 324.5 607.5 Q318 614 314 619 L314 721 Q321 730 342 744.5 Q363 759 407 759 Z " />
<glyph glyph-name="emacron" unicode="&#x113;" horiz-adv-x="558" d="M286 562 Q343 562 385.5 548.5 Q428 535 457 516.5 Q486 498 503 479 Q520 460 526 450 L526 212 L236 212 L236 159 Q241 150 254.5 143 Q268 136 288 136 Q332 136 352 175 L526 175 L526 96 Q520 86 503 67 Q486 48 457 29.5 Q428 11 385.5 -2.5 Q343 -16 286 -16 Q229 -16 185.5 -2 Q142 12 111.5 33 Q81 54 61.5 78.5 Q42 103 32 124 L32 423 Q42 444 61.5 468.5 Q81 493 111.5 514 Q142 535 185.5 548.5 Q229 562 286 562 Z M286 411 Q267 411 254 403.5 Q241 396 236 387 L236 338 L338 338 L338 387 Q334 396 320 403.5 Q306 411 286 411 Z M103 605 L103 735 L478 735 L478 605 L103 605 Z " />
<glyph glyph-name="ebreve" unicode="&#x115;" horiz-adv-x="558" d="M286 562 Q343 562 385.5 548.5 Q428 535 457 516.5 Q486 498 503 479 Q520 460 526 450 L526 212 L236 212 L236 159 Q241 150 254.5 143 Q268 136 288 136 Q332 136 352 175 L526 175 L526 96 Q520 86 503 67 Q486 48 457 29.5 Q428 11 385.5 -2.5 Q343 -16 286 -16 Q229 -16 185.5 -2 Q142 12 111.5 33 Q81 54 61.5 78.5 Q42 103 32 124 L32 423 Q42 444 61.5 468.5 Q81 493 111.5 514 Q142 535 185.5 548.5 Q229 562 286 562 Z M286 411 Q267 411 254 403.5 Q241 396 236 387 L236 338 L338 338 L338 387 Q334 396 320 403.5 Q306 411 286 411 Z M489 691 Q466 643 415.5 616 Q365 589 291 589 Q216 589 165 616 Q114 643 91 691 L91 754 L237 754 L237 716 Q241 708 254 698.5 Q267 689 291 689 Q314 689 327 698.5 Q340 708 344 716 L344 754 L489 754 L489 691 Z " />
<glyph glyph-name="edotaccent" unicode="&#x117;" horiz-adv-x="558" d="M286 562 Q343 562 385.5 548.5 Q428 535 457 516.5 Q486 498 503 479 Q520 460 526 450 L526 212 L236 212 L236 159 Q241 150 254.5 143 Q268 136 288 136 Q332 136 352 175 L526 175 L526 96 Q520 86 503 67 Q486 48 457 29.5 Q428 11 385.5 -2.5 Q343 -16 286 -16 Q229 -16 185.5 -2 Q142 12 111.5 33 Q81 54 61.5 78.5 Q42 103 32 124 L32 423 Q42 444 61.5 468.5 Q81 493 111.5 514 Q142 535 185.5 548.5 Q229 562 286 562 Z M286 411 Q267 411 254 403.5 Q241 396 236 387 L236 338 L338 338 L338 387 Q334 396 320 403.5 Q306 411 286 411 Z M291 764 Q336 764 361 746 Q386 728 395 708 L395 638 Q386 618 361 600 Q336 582 291 582 Q246 582 220.5 600 Q195 618 187 638 L187 708 Q195 728 220.5 746 Q246 764 291 764 Z " />
<glyph glyph-name="eogonek" unicode="&#x119;" horiz-adv-x="558" d="M286 562 Q343 562 385.5 548.5 Q428 535 457 516.5 Q486 498 503 479 Q520 460 526 450 L526 212 L236 212 L236 159 Q241 150 254.5 143 Q268 136 288 136 Q332 136 352 175 L526 175 L526 96 Q493 31 470.5 -17 Q448 -65 442 -94 L442 -112 Q447 -120 457.5 -122.5 Q468 -125 480 -125 Q486 -125 496 -124 Q506 -123 519 -121 L519 -222 Q508 -227 490 -231 Q472 -235 438 -235 Q394 -235 355 -223 Q316 -211 299 -178 L299 -93 Q304 -79 315.5 -57.5 Q327 -36 347 -11 Q333 -13 318 -14.5 Q303 -16 286 -16 Q229 -16 185.5 -2 Q142 12 111.5 33 Q81 54 61.5 78.5 Q42 103 32 124 L32 423 Q42 444 61.5 468.5 Q81 493 111.5 514 Q142 535 185.5 548.5 Q229 562 286 562 Z M286 411 Q267 411 254 403.5 Q241 396 236 387 L236 338 L338 338 L338 387 Q334 396 320 403.5 Q306 411 286 411 Z " />
<glyph glyph-name="gcircumflex" unicode="&#x11d;" horiz-adv-x="571" d="M537 -45 Q526 -67 506.5 -91 Q487 -115 456 -135.5 Q425 -156 382 -169 Q339 -182 281 -182 Q223 -182 180.5 -169 Q138 -156 108.5 -137 Q79 -118 61.5 -97.5 Q44 -77 35 -62 L35 5 L221 5 Q229 -12 246 -19.5 Q263 -27 282 -27 Q302 -27 315 -19.5 Q328 -12 333 -3 L333 84 Q310 63 280 50 Q250 37 209 37 Q170 37 140 50 Q110 63 88 82.5 Q66 102 52.5 125.5 Q39 149 32 170 L32 424 Q39 445 52.5 468.5 Q66 492 88 511.5 Q110 531 140 544 Q170 557 209 557 Q254 557 286 541.5 Q318 526 341 502 L341 546 L537 546 L537 -45 Z M285 195 Q302 195 313.5 199 Q325 203 333 209 L333 385 Q325 391 313 395 Q301 399 284 399 Q264 399 251 391.5 Q238 384 236 377 L236 217 Q239 210 252 202.5 Q265 195 285 195 Z M484 593 L338 593 L286 682 L232 593 L86 593 L86 608 L155 764 L415 764 L484 608 L484 593 Z " />
<glyph glyph-name="gbreve" unicode="&#x11f;" horiz-adv-x="571" d="M537 -45 Q526 -67 506.5 -91 Q487 -115 456 -135.5 Q425 -156 382 -169 Q339 -182 281 -182 Q223 -182 180.5 -169 Q138 -156 108.5 -137 Q79 -118 61.5 -97.5 Q44 -77 35 -62 L35 5 L221 5 Q229 -12 246 -19.5 Q263 -27 282 -27 Q302 -27 315 -19.5 Q328 -12 333 -3 L333 84 Q310 63 280 50 Q250 37 209 37 Q170 37 140 50 Q110 63 88 82.5 Q66 102 52.5 125.5 Q39 149 32 170 L32 424 Q39 445 52.5 468.5 Q66 492 88 511.5 Q110 531 140 544 Q170 557 209 557 Q254 557 286 541.5 Q318 526 341 502 L341 546 L537 546 L537 -45 Z M285 195 Q302 195 313.5 199 Q325 203 333 209 L333 385 Q325 391 313 395 Q301 399 284 399 Q264 399 251 391.5 Q238 384 236 377 L236 217 Q239 210 252 202.5 Q265 195 285 195 Z M484 691 Q461 643 410.5 616 Q360 589 286 589 Q211 589 160 616 Q109 643 86 691 L86 754 L232 754 L232 716 Q236 708 249 698.5 Q262 689 286 689 Q309 689 322 698.5 Q335 708 339 716 L339 754 L484 754 L484 691 Z " />
<glyph glyph-name="gdotaccent" unicode="&#x121;" horiz-adv-x="571" d="M537 -45 Q526 -67 506.5 -91 Q487 -115 456 -135.5 Q425 -156 382 -169 Q339 -182 281 -182 Q223 -182 180.5 -169 Q138 -156 108.5 -137 Q79 -118 61.5 -97.5 Q44 -77 35 -62 L35 5 L221 5 Q229 -12 246 -19.5 Q263 -27 282 -27 Q302 -27 315 -19.5 Q328 -12 333 -3 L333 84 Q310 63 280 50 Q250 37 209 37 Q170 37 140 50 Q110 63 88 82.5 Q66 102 52.5 125.5 Q39 149 32 170 L32 424 Q39 445 52.5 468.5 Q66 492 88 511.5 Q110 531 140 544 Q170 557 209 557 Q254 557 286 541.5 Q318 526 341 502 L341 546 L537 546 L537 -45 Z M285 195 Q302 195 313.5 199 Q325 203 333 209 L333 385 Q325 391 313 395 Q301 399 284 399 Q264 399 251 391.5 Q238 384 236 377 L236 217 Q239 210 252 202.5 Q265 195 285 195 Z M286 764 Q331 764 356 746 Q381 728 390 708 L390 638 Q381 618 356 600 Q331 582 286 582 Q241 582 215.5 600 Q190 618 182 638 L182 708 Q190 728 215.5 746 Q241 764 286 764 Z " />
<glyph glyph-name="gcommaaccent" unicode="&#x123;" horiz-adv-x="571" d="M537 -45 Q526 -67 506.5 -91 Q487 -115 456 -135.5 Q425 -156 382 -169 Q339 -182 281 -182 Q223 -182 180.5 -169 Q138 -156 108.5 -137 Q79 -118 61.5 -97.5 Q44 -77 35 -62 L35 5 L221 5 Q229 -12 246 -19.5 Q263 -27 282 -27 Q302 -27 315 -19.5 Q328 -12 333 -3 L333 84 Q310 63 280 50 Q250 37 209 37 Q170 37 140 50 Q110 63 88 82.5 Q66 102 52.5 125.5 Q39 149 32 170 L32 424 Q39 445 52.5 468.5 Q66 492 88 511.5 Q110 531 140 544 Q170 557 209 557 Q254 557 286 541.5 Q318 526 341 502 L341 546 L537 546 L537 -45 Z M285 195 Q302 195 313.5 199 Q325 203 333 209 L333 385 Q325 391 313 395 Q301 399 284 399 Q264 399 251 391.5 Q238 384 236 377 L236 217 Q239 210 252 202.5 Q265 195 285 195 Z M286 746 Q330 746 355.5 727.5 Q381 709 389 690 L389 633 Q381 614 355.5 595.5 Q330 577 286 577 Q239 577 214 595.5 Q189 614 181 633 L181 779 Q184 791 195 803.5 Q206 816 224 827 Q242 838 266.5 845 Q291 852 321 852 L370 852 L370 778 L342 778 Q290 778 280 761 L280 746 L286 746 Z " />
<glyph glyph-name="hcircumflex" unicode="&#x125;" horiz-adv-x="575" d="M363 557 Q402 557 432 544 Q462 531 483.5 511.5 Q505 492 519 468.5 Q533 445 540 424 L540 0 L337 0 L337 377 Q333 384 320 391.5 Q307 399 287 399 Q255 399 238 385 L238 0 L34 0 L34 700 L238 700 L238 509 Q261 531 291 544 Q321 557 363 557 Z M492 735 L346 735 L294 821 L240 735 L94 735 L94 750 L163 903 L423 903 L492 750 L492 735 Z " />
<glyph glyph-name="hbar" unicode="&#x127;" horiz-adv-x="589" d="M379 657 L379 556 L253 556 L253 476 Q276 497 306 510 Q336 523 378 523 Q417 523 447 510 Q477 497 498.5 477.5 Q520 458 534 434.5 Q548 411 555 390 L555 0 L351 0 L351 343 Q348 350 335 357.5 Q322 365 302 365 Q270 365 253 350 L253 0 L49 0 L49 556 L16 556 L16 657 L49 657 L49 700 L253 700 L253 657 L379 657 Z " />
<glyph glyph-name="igrave" unicode="&#xec;" horiz-adv-x="276" d="M37 0 L37 546 L239 546 L239 0 L37 0 Z M214 598 L63 598 L-17 685 L-17 769 L170 769 L214 613 L214 598 Z " />
<glyph glyph-name="iacute" unicode="&#xed;" horiz-adv-x="276" d="M37 0 L37 546 L239 546 L239 0 L37 0 Z M213 598 L61 598 L61 613 L105 769 L292 769 L292 685 L213 598 Z " />
<glyph glyph-name="icircumflex" unicode="&#xee;" horiz-adv-x="276" d="M37 0 L37 546 L239 546 L239 0 L37 0 Z M336 593 L190 593 L138 682 L84 593 L-62 593 L-62 608 L7 764 L267 764 L336 608 L336 593 Z " />
<glyph glyph-name="itilde" unicode="&#x129;" horiz-adv-x="276" d="M37 0 L37 546 L239 546 L239 0 L37 0 Z M62 761 Q92 761 111 753.5 Q130 746 143 737.5 Q156 729 166.5 721.5 Q177 714 191 714 Q213 714 218 735 L218 756 L332 756 L332 682 Q329 665 320 648.5 Q311 632 295.5 619 Q280 606 259 598 Q238 590 212 590 Q182 590 163 597.5 Q144 605 130.5 613.5 Q117 622 106.5 629.5 Q96 637 83 637 Q72 637 65.5 631 Q59 625 57 616 L57 595 L-57 595 L-57 669 Q-55 686 -46 702.5 Q-37 719 -22 732 Q-7 745 14.5 753 Q36 761 62 761 Z " />
<glyph glyph-name="idieresis" unicode="&#xef;" horiz-adv-x="276" d="M37 0 L37 546 L239 546 L239 0 L37 0 Z M21 759 Q43 759 59 754.5 Q75 750 86 744 Q97 738 103.5 731.5 Q110 725 113 721 L113 619 Q106 609 85.5 594.5 Q65 580 21 580 Q-1 580 -17 584.5 Q-33 589 -44 595 Q-55 601 -61.5 607.5 Q-68 614 -72 619 L-72 721 Q-65 730 -44 744.5 Q-23 759 21 759 Z M254 759 Q276 759 292 754.5 Q308 750 318.5 744 Q329 738 335.5 731.5 Q342 725 346 721 L346 619 Q342 614 335.5 607.5 Q329 601 318.5 595 Q308 589 292 584.5 Q276 580 254 580 Q232 580 216 584.5 Q200 589 189 595 Q178 601 171.5 607.5 Q165 614 161 619 L161 721 Q168 730 189 744.5 Q210 759 254 759 Z " />
<glyph glyph-name="imacron" unicode="&#x12b;" horiz-adv-x="276" d="M37 0 L37 546 L239 546 L239 0 L37 0 Z M-50 605 L-50 735 L325 735 L325 605 L-50 605 Z " />
<glyph glyph-name="ibreve" unicode="&#x12d;" horiz-adv-x="276" d="M37 0 L37 546 L239 546 L239 0 L37 0 Z M336 691 Q313 643 262.5 616 Q212 589 138 589 Q63 589 12 616 Q-39 643 -62 691 L-62 754 L84 754 L84 716 Q88 708 101 698.5 Q114 689 138 689 Q161 689 174 698.5 Q187 708 191 716 L191 754 L336 754 L336 691 Z " />
<glyph glyph-name="iogonek" unicode="&#x12f;" horiz-adv-x="276" d="M138 764 Q183 764 208 746 Q233 728 242 708 L242 638 Q233 618 208 600.5 Q183 583 138 583 Q93 583 68 600.5 Q43 618 34 638 L34 708 Q43 728 68 746 Q93 764 138 764 Z M239 546 L239 0 Q201 -40 184.5 -61 Q168 -82 163 -94 L163 -112 Q168 -120 178.5 -122.5 Q189 -125 200 -125 Q216 -125 239 -121 L239 -222 Q228 -227 210.5 -231 Q193 -235 159 -235 Q115 -235 76 -223 Q37 -211 20 -178 L20 -93 Q28 -76 49 -49.5 Q70 -23 101 0 L37 0 L37 546 L239 546 Z " />
<glyph glyph-name="dotlessi" unicode="&#x131;" horiz-adv-x="276" d="M37 0 L37 546 L239 546 L239 0 L37 0 Z " />
<glyph glyph-name="ij" unicode="&#x133;" horiz-adv-x="550" d="M37 0 L37 546 L239 546 L239 0 L37 0 Z M138 764 Q183 764 208 746 Q233 728 242 708 L242 638 Q233 618 208 600 Q183 582 138 582 Q93 582 67.5 600 Q42 618 34 638 L34 708 Q42 728 67.5 746 Q93 764 138 764 Z M514 -45 Q505 -68 486.5 -92 Q468 -116 438 -135.5 Q408 -155 364.5 -167.5 Q321 -180 260 -180 L260 -25 Q279 -25 292 -15 Q305 -5 312 9 L312 546 L514 546 L514 -45 Z M414 764 Q459 764 484 746 Q509 728 518 708 L518 638 Q509 618 484 600 Q459 582 414 582 Q369 582 343.5 600 Q318 618 310 638 L310 708 Q318 728 343.5 746 Q369 764 414 764 Z " />
<glyph glyph-name="dotlessj" unicode="&#x237;" horiz-adv-x="274" d="M238 -45 Q229 -68 210.5 -92 Q192 -116 162 -135.5 Q132 -155 88.5 -167.5 Q45 -180 -16 -180 L-16 -25 Q3 -25 16 -15 Q29 -5 36 9 L36 546 L238 546 L238 -45 Z " />
<glyph glyph-name="jcircumflex" unicode="&#x135;" horiz-adv-x="274" d="M238 -45 Q229 -68 210.5 -92 Q192 -116 162 -135.5 Q132 -155 88.5 -167.5 Q45 -180 -16 -180 L-16 -25 Q3 -25 16 -15 Q29 -5 36 9 L36 546 L238 546 L238 -45 Z M336 593 L190 593 L138 682 L84 593 L-62 593 L-62 608 L7 764 L267 764 L336 608 L336 593 Z " />
<glyph glyph-name="kcommaaccent" unicode="&#x137;" horiz-adv-x="568" d="M548 0 L380 0 L275 175 L238 136 L238 0 L34 0 L34 700 L238 700 L238 383 L382 546 L522 546 L522 440 L413 323 L548 107 L548 0 Z M284 -40 Q329 -40 353 -49.5 Q377 -59 385 -69 L385 -186 Q382 -197 372.5 -210 Q363 -223 347 -234 Q331 -245 308.5 -252.5 Q286 -260 256 -260 L190 -260 L190 -200 L237 -200 Q254 -200 268 -197 Q282 -194 287 -182 L287 -168 L284 -168 Q238 -168 213.5 -160.5 Q189 -153 181 -143 L181 -69 Q189 -59 213.5 -49.5 Q238 -40 284 -40 Z " />
<glyph glyph-name="lacute" unicode="&#x13a;" horiz-adv-x="273" d="M34 0 L34 700 L238 700 L238 0 L34 0 Z M197 734 L54 734 L54 749 L96 902 L278 902 L278 818 L197 734 Z " />
<glyph glyph-name="lcaron" unicode="&#x13e;" horiz-adv-x="471" d="M34 0 L34 700 L238 700 L238 0 L34 0 Z M394 461 L275 461 L275 476 L298 700 L452 700 L452 597 L394 461 Z " />
<glyph glyph-name="lcommaaccent" unicode="&#x13c;" horiz-adv-x="273" d="M34 0 L34 700 L238 700 L238 0 L34 0 Z M137 -40 Q182 -40 206 -49.5 Q230 -59 238 -69 L238 -186 Q235 -197 225.5 -210 Q216 -223 200 -234 Q184 -245 161.5 -252.5 Q139 -260 109 -260 L43 -260 L43 -200 L90 -200 Q107 -200 121 -197 Q135 -194 140 -182 L140 -168 L137 -168 Q91 -168 66.5 -160.5 Q42 -153 34 -143 L34 -69 Q42 -59 66.5 -49.5 Q91 -40 137 -40 Z " />
<glyph glyph-name="lslash" unicode="&#x142;" horiz-adv-x="356" d="M280 340 L280 0 L76 0 L76 222 L27 193 L27 354 L76 382 L76 700 L280 700 L280 501 L329 529 L329 369 L280 340 Z " />
<glyph glyph-name="ldot" unicode="&#x140;" horiz-adv-x="486" d="M34 0 L34 700 L238 700 L238 0 L34 0 Z M379 453 Q424 453 449 435 Q474 417 483 397 L483 327 Q474 307 449 289 Q424 271 379 271 Q334 271 308.5 289 Q283 307 275 327 L275 397 Q283 417 308.5 435 Q334 453 379 453 Z " />
<glyph glyph-name="nacute" unicode="&#x144;" horiz-adv-x="574" d="M363 557 Q402 557 432 544 Q462 531 483.5 511.5 Q505 492 519 468.5 Q533 445 540 424 L540 0 L336 0 L336 377 Q333 384 320 391.5 Q307 399 287 399 Q255 399 238 385 L238 0 L34 0 L34 546 L223 546 L223 494 Q246 521 280.5 539 Q315 557 363 557 Z M362 598 L210 598 L210 613 L254 769 L441 769 L441 685 L362 598 Z " />
<glyph glyph-name="ncaron" unicode="&#x148;" horiz-adv-x="574" d="M363 557 Q402 557 432 544 Q462 531 483.5 511.5 Q505 492 519 468.5 Q533 445 540 424 L540 0 L336 0 L336 377 Q333 384 320 391.5 Q307 399 287 399 Q255 399 238 385 L238 0 L34 0 L34 546 L223 546 L223 494 Q246 521 280.5 539 Q315 557 363 557 Z M417 593 L157 593 L88 749 L88 764 L234 764 L288 675 L340 764 L486 764 L486 749 L417 593 Z " />
<glyph glyph-name="ntilde" unicode="&#xf1;" horiz-adv-x="574" d="M363 557 Q402 557 432 544 Q462 531 483.5 511.5 Q505 492 519 468.5 Q533 445 540 424 L540 0 L336 0 L336 377 Q333 384 320 391.5 Q307 399 287 399 Q255 399 238 385 L238 0 L34 0 L34 546 L223 546 L223 494 Q246 521 280.5 539 Q315 557 363 557 Z M212 761 Q242 761 261 753.5 Q280 746 293 737.5 Q306 729 316.5 721.5 Q327 714 341 714 Q363 714 368 735 L368 756 L482 756 L482 682 Q479 665 470 648.5 Q461 632 445.5 619 Q430 606 409 598 Q388 590 362 590 Q332 590 313 597.5 Q294 605 280.5 613.5 Q267 622 256.5 629.5 Q246 637 233 637 Q222 637 215.5 631 Q209 625 207 616 L207 595 L93 595 L93 669 Q95 686 104 702.5 Q113 719 128 732 Q143 745 164.5 753 Q186 761 212 761 Z " />
<glyph glyph-name="ncommaaccent" unicode="&#x146;" horiz-adv-x="574" d="M363 557 Q402 557 432 544 Q462 531 483.5 511.5 Q505 492 519 468.5 Q533 445 540 424 L540 0 L336 0 L336 377 Q333 384 320 391.5 Q307 399 287 399 Q255 399 238 385 L238 0 L34 0 L34 546 L223 546 L223 494 Q246 521 280.5 539 Q315 557 363 557 Z M288 -40 Q333 -40 357 -49.5 Q381 -59 389 -69 L389 -186 Q386 -197 376.5 -210 Q367 -223 351 -234 Q335 -245 312.5 -252.5 Q290 -260 260 -260 L194 -260 L194 -200 L241 -200 Q258 -200 272 -197 Q286 -194 291 -182 L291 -168 L288 -168 Q242 -168 217.5 -160.5 Q193 -153 185 -143 L185 -69 Q193 -59 217.5 -49.5 Q242 -40 288 -40 Z " />
<glyph glyph-name="napostrophe" unicode="&#x149;" horiz-adv-x="574" d="M363 557 Q402 557 432 544 Q462 531 483.5 511.5 Q505 492 519 468.5 Q533 445 540 424 L540 0 L336 0 L336 377 Q333 384 320 391.5 Q307 399 287 399 Q255 399 238 385 L238 0 L34 0 L34 546 L223 546 L223 494 Q246 521 280.5 539 Q315 557 363 557 Z M116 785 Q161 785 185 775.5 Q209 766 217 756 L217 639 Q214 628 204.5 615 Q195 602 179 591 Q163 580 140.5 572.5 Q118 565 88 565 L22 565 L22 625 L69 625 Q86 625 100 628 Q114 631 119 643 L119 657 L116 657 Q70 657 45.5 664.5 Q21 672 13 682 L13 756 Q21 766 45.5 775.5 Q70 785 116 785 Z " />
<glyph glyph-name="ograve" unicode="&#xf2;" horiz-adv-x="574" d="M287 562 Q344 562 387.5 548.5 Q431 535 462 514 Q493 493 512.5 468.5 Q532 444 542 423 L542 124 Q532 103 512.5 78.5 Q493 54 462 33 Q431 12 387.5 -2 Q344 -16 287 -16 Q230 -16 186.5 -2 Q143 12 112 33 Q81 54 61.5 78.5 Q42 103 32 124 L32 423 Q42 444 61.5 468.5 Q81 493 112 514 Q143 535 186.5 548.5 Q230 562 287 562 Z M287 405 Q267 405 254 398 Q241 391 236 382 L236 165 Q241 155 254 148 Q267 141 287 141 Q307 141 320.5 148 Q334 155 338 165 L338 382 Q334 391 320.5 398 Q307 405 287 405 Z M363 598 L212 598 L132 685 L132 769 L319 769 L363 613 L363 598 Z " />
<glyph glyph-name="oacute" unicode="&#xf3;" horiz-adv-x="574" d="M287 562 Q344 562 387.5 548.5 Q431 535 462 514 Q493 493 512.5 468.5 Q532 444 542 423 L542 124 Q532 103 512.5 78.5 Q493 54 462 33 Q431 12 387.5 -2 Q344 -16 287 -16 Q230 -16 186.5 -2 Q143 12 112 33 Q81 54 61.5 78.5 Q42 103 32 124 L32 423 Q42 444 61.5 468.5 Q81 493 112 514 Q143 535 186.5 548.5 Q230 562 287 562 Z M287 405 Q267 405 254 398 Q241 391 236 382 L236 165 Q241 155 254 148 Q267 141 287 141 Q307 141 320.5 148 Q334 155 338 165 L338 382 Q334 391 320.5 398 Q307 405 287 405 Z M362 598 L210 598 L210 613 L254 769 L441 769 L441 685 L362 598 Z " />
<glyph glyph-name="ocircumflex" unicode="&#xf4;" horiz-adv-x="574" d="M287 562 Q344 562 387.5 548.5 Q431 535 462 514 Q493 493 512.5 468.5 Q532 444 542 423 L542 124 Q532 103 512.5 78.5 Q493 54 462 33 Q431 12 387.5 -2 Q344 -16 287 -16 Q230 -16 186.5 -2 Q143 12 112 33 Q81 54 61.5 78.5 Q42 103 32 124 L32 423 Q42 444 61.5 468.5 Q81 493 112 514 Q143 535 186.5 548.5 Q230 562 287 562 Z M287 405 Q267 405 254 398 Q241 391 236 382 L236 165 Q241 155 254 148 Q267 141 287 141 Q307 141 320.5 148 Q334 155 338 165 L338 382 Q334 391 320.5 398 Q307 405 287 405 Z M485 593 L339 593 L287 682 L233 593 L87 593 L87 608 L156 764 L416 764 L485 608 L485 593 Z " />
<glyph glyph-name="otilde" unicode="&#xf5;" horiz-adv-x="574" d="M287 562 Q344 562 387.5 548.5 Q431 535 462 514 Q493 493 512.5 468.5 Q532 444 542 423 L542 124 Q532 103 512.5 78.5 Q493 54 462 33 Q431 12 387.5 -2 Q344 -16 287 -16 Q230 -16 186.5 -2 Q143 12 112 33 Q81 54 61.5 78.5 Q42 103 32 124 L32 423 Q42 444 61.5 468.5 Q81 493 112 514 Q143 535 186.5 548.5 Q230 562 287 562 Z M287 405 Q267 405 254 398 Q241 391 236 382 L236 165 Q241 155 254 148 Q267 141 287 141 Q307 141 320.5 148 Q334 155 338 165 L338 382 Q334 391 320.5 398 Q307 405 287 405 Z M211 761 Q241 761 260 753.5 Q279 746 292 737.5 Q305 729 315.5 721.5 Q326 714 340 714 Q362 714 367 735 L367 756 L481 756 L481 682 Q478 665 469 648.5 Q460 632 444.5 619 Q429 606 408 598 Q387 590 361 590 Q331 590 312 597.5 Q293 605 279.5 613.5 Q266 622 255.5 629.5 Q245 637 232 637 Q221 637 214.5 631 Q208 625 206 616 L206 595 L92 595 L92 669 Q94 686 103 702.5 Q112 719 127 732 Q142 745 163.5 753 Q185 761 211 761 Z " />
<glyph glyph-name="odieresis" unicode="&#xf6;" horiz-adv-x="574" d="M287 562 Q344 562 387.5 548.5 Q431 535 462 514 Q493 493 512.5 468.5 Q532 444 542 423 L542 124 Q532 103 512.5 78.5 Q493 54 462 33 Q431 12 387.5 -2 Q344 -16 287 -16 Q230 -16 186.5 -2 Q143 12 112 33 Q81 54 61.5 78.5 Q42 103 32 124 L32 423 Q42 444 61.5 468.5 Q81 493 112 514 Q143 535 186.5 548.5 Q230 562 287 562 Z M287 405 Q267 405 254 398 Q241 391 236 382 L236 165 Q241 155 254 148 Q267 141 287 141 Q307 141 320.5 148 Q334 155 338 165 L338 382 Q334 391 320.5 398 Q307 405 287 405 Z M170 759 Q192 759 208 754.5 Q224 750 235 744 Q246 738 252.5 731.5 Q259 725 262 721 L262 619 Q255 609 234.5 594.5 Q214 580 170 580 Q148 580 132 584.5 Q116 589 105 595 Q94 601 87.5 607.5 Q81 614 77 619 L77 721 Q84 730 105 744.5 Q126 759 170 759 Z M403 759 Q425 759 441 754.5 Q457 750 467.5 744 Q478 738 484.5 731.5 Q491 725 495 721 L495 619 Q491 614 484.5 607.5 Q478 601 467.5 595 Q457 589 441 584.5 Q425 580 403 580 Q381 580 365 584.5 Q349 589 338 595 Q327 601 320.5 607.5 Q314 614 310 619 L310 721 Q317 730 338 744.5 Q359 759 403 759 Z " />
<glyph glyph-name="omacron" unicode="&#x14d;" horiz-adv-x="574" d="M287 562 Q344 562 387.5 548.5 Q431 535 462 514 Q493 493 512.5 468.5 Q532 444 542 423 L542 124 Q532 103 512.5 78.5 Q493 54 462 33 Q431 12 387.5 -2 Q344 -16 287 -16 Q230 -16 186.5 -2 Q143 12 112 33 Q81 54 61.5 78.5 Q42 103 32 124 L32 423 Q42 444 61.5 468.5 Q81 493 112 514 Q143 535 186.5 548.5 Q230 562 287 562 Z M287 405 Q267 405 254 398 Q241 391 236 382 L236 165 Q241 155 254 148 Q267 141 287 141 Q307 141 320.5 148 Q334 155 338 165 L338 382 Q334 391 320.5 398 Q307 405 287 405 Z M99 605 L99 735 L474 735 L474 605 L99 605 Z " />
<glyph glyph-name="obreve" unicode="&#x14f;" horiz-adv-x="574" d="M287 562 Q344 562 387.5 548.5 Q431 535 462 514 Q493 493 512.5 468.5 Q532 444 542 423 L542 124 Q532 103 512.5 78.5 Q493 54 462 33 Q431 12 387.5 -2 Q344 -16 287 -16 Q230 -16 186.5 -2 Q143 12 112 33 Q81 54 61.5 78.5 Q42 103 32 124 L32 423 Q42 444 61.5 468.5 Q81 493 112 514 Q143 535 186.5 548.5 Q230 562 287 562 Z M287 405 Q267 405 254 398 Q241 391 236 382 L236 165 Q241 155 254 148 Q267 141 287 141 Q307 141 320.5 148 Q334 155 338 165 L338 382 Q334 391 320.5 398 Q307 405 287 405 Z M485 691 Q462 643 411.5 616 Q361 589 287 589 Q212 589 161 616 Q110 643 87 691 L87 754 L233 754 L233 716 Q237 708 250 698.5 Q263 689 287 689 Q310 689 323 698.5 Q336 708 340 716 L340 754 L485 754 L485 691 Z " />
<glyph glyph-name="ohungarumlaut" unicode="&#x151;" horiz-adv-x="574" d="M287 562 Q344 562 387.5 548.5 Q431 535 462 514 Q493 493 512.5 468.5 Q532 444 542 423 L542 124 Q532 103 512.5 78.5 Q493 54 462 33 Q431 12 387.5 -2 Q344 -16 287 -16 Q230 -16 186.5 -2 Q143 12 112 33 Q81 54 61.5 78.5 Q42 103 32 124 L32 423 Q42 444 61.5 468.5 Q81 493 112 514 Q143 535 186.5 548.5 Q230 562 287 562 Z M287 405 Q267 405 254 398 Q241 391 236 382 L236 165 Q241 155 254 148 Q267 141 287 141 Q307 141 320.5 148 Q334 155 338 165 L338 382 Q334 391 320.5 398 Q307 405 287 405 Z M250 593 L119 593 L119 608 L148 764 L302 764 L302 696 L250 593 Z M461 593 L331 593 L331 608 L359 764 L514 764 L514 696 L461 593 Z " />
<glyph glyph-name="oslash" unicode="&#xf8;" horiz-adv-x="574" d="M518 462 Q533 441 542 423 L542 124 Q532 103 512.5 78.5 Q493 54 462 33 Q431 12 387.5 -2 Q344 -16 287 -16 Q238 -16 199.5 -6 Q161 4 131 21 L113 0 L32 0 L32 58 L56 85 Q48 95 42.5 105 Q37 115 32 124 L32 423 Q42 444 61.5 468.5 Q81 493 112 514 Q143 535 186.5 548.5 Q230 562 287 562 Q336 562 375 552 Q414 542 443 525 L461 546 L542 546 L542 489 L518 462 Z M336 404 Q331 412 318 418 Q305 424 287 424 Q267 424 254 417 Q241 410 236 401 L236 290 L336 404 Z M238 142 Q243 134 256 128 Q269 122 287 122 Q307 122 320.5 129 Q334 136 338 145 L338 256 L238 142 Z " />
<glyph glyph-name="oe" unicode="&#x153;" horiz-adv-x="863" d="M542 159 Q547 150 561 143 Q575 136 595 136 Q639 136 659 175 L833 175 L833 96 Q826 86 809.5 67 Q793 48 764 29.5 Q735 11 692.5 -2.5 Q650 -16 593 -16 Q545 -16 507 -6.5 Q469 3 440 19 Q411 3 373 -6.5 Q335 -16 287 -16 Q230 -16 186.5 -2 Q143 12 112 33 Q81 54 61.5 78.5 Q42 103 32 124 L32 423 Q42 444 61.5 468.5 Q81 493 112 514 Q143 535 186.5 548.5 Q230 562 287 562 Q335 562 373 552.5 Q411 543 440 527 Q469 543 507 552.5 Q545 562 593 562 Q650 562 692.5 548.5 Q735 535 764 516.5 Q793 498 809.5 479 Q826 460 833 450 L833 212 L542 212 L542 159 Z M593 411 Q573 411 560 403.5 Q547 396 542 387 L542 338 L645 338 L645 387 Q640 396 626 403.5 Q612 411 593 411 Z M287 141 Q307 141 320.5 148 Q334 155 338 165 L338 382 Q334 391 320.5 398 Q307 405 287 405 Q267 405 254 398 Q241 391 236 382 L236 165 Q241 155 254 148 Q267 141 287 141 Z " />
<glyph glyph-name="racute" unicode="&#x155;" horiz-adv-x="403" d="M363 547 Q366 547 370.5 547 Q375 547 383 546 L383 359 Q375 360 368.5 360 Q362 360 356 360 Q308 360 279 352.5 Q250 345 238 335 L238 0 L34 0 L34 546 L223 546 L223 469 Q242 501 274 524 Q306 547 363 547 Z M288 598 L136 598 L136 613 L180 769 L367 769 L367 685 L288 598 Z " />
<glyph glyph-name="rcaron" unicode="&#x159;" horiz-adv-x="403" d="M363 547 Q366 547 370.5 547 Q375 547 383 546 L383 359 Q375 360 368.5 360 Q362 360 356 360 Q308 360 279 352.5 Q250 345 238 335 L238 0 L34 0 L34 546 L223 546 L223 469 Q242 501 274 524 Q306 547 363 547 Z M342 593 L82 593 L13 749 L13 764 L159 764 L213 675 L265 764 L411 764 L411 749 L342 593 Z " />
<glyph glyph-name="rcommaaccent" unicode="&#x157;" horiz-adv-x="403" d="M363 547 Q366 547 370.5 547 Q375 547 383 546 L383 359 Q375 360 368.5 360 Q362 360 356 360 Q308 360 279 352.5 Q250 345 238 335 L238 0 L34 0 L34 546 L223 546 L223 469 Q242 501 274 524 Q306 547 363 547 Z M136 -40 Q181 -40 205 -49.5 Q229 -59 237 -69 L237 -186 Q234 -197 224.5 -210 Q215 -223 199 -234 Q183 -245 160.5 -252.5 Q138 -260 108 -260 L42 -260 L42 -200 L89 -200 Q106 -200 120 -197 Q134 -194 139 -182 L139 -168 L136 -168 Q90 -168 65.5 -160.5 Q41 -153 33 -143 L33 -69 Q41 -59 65.5 -49.5 Q90 -40 136 -40 Z " />
<glyph glyph-name="sacute" unicode="&#x15b;" horiz-adv-x="526" d="M263 562 Q318 562 358.5 549 Q399 536 427 518.5 Q455 501 471.5 482.5 Q488 464 495 453 L495 383 L317 383 Q309 402 296.5 411 Q284 420 262 420 Q245 420 233 414 Q221 408 216 399 L216 374 Q221 366 232 361.5 Q243 357 258 354 L304 345 Q353 336 387.5 323.5 Q422 311 445 298 Q468 285 481.5 273 Q495 261 501 252 L501 94 Q493 82 476 63 Q459 44 430 26.5 Q401 9 359.5 -3.5 Q318 -16 262 -16 Q206 -16 164.5 -3.5 Q123 9 94.5 26.5 Q66 44 49 63 Q32 82 25 94 L25 164 L203 164 Q209 148 224 137 Q239 126 264 126 Q282 126 295.5 133 Q309 140 314 148 L314 174 Q310 182 297.5 187 Q285 192 270 195 L223 203 Q175 212 141 224 Q107 236 84 249.5 Q61 263 48 276 Q35 289 30 298 L30 453 Q37 465 54 483.5 Q71 502 99 519.5 Q127 537 167.5 549.5 Q208 562 263 562 Z M341 598 L189 598 L189 613 L233 769 L420 769 L420 685 L341 598 Z " />
<glyph glyph-name="scircumflex" unicode="&#x15d;" horiz-adv-x="526" d="M263 562 Q318 562 358.5 549 Q399 536 427 518.5 Q455 501 471.5 482.5 Q488 464 495 453 L495 383 L317 383 Q309 402 296.5 411 Q284 420 262 420 Q245 420 233 414 Q221 408 216 399 L216 374 Q221 366 232 361.5 Q243 357 258 354 L304 345 Q353 336 387.5 323.5 Q422 311 445 298 Q468 285 481.5 273 Q495 261 501 252 L501 94 Q493 82 476 63 Q459 44 430 26.5 Q401 9 359.5 -3.5 Q318 -16 262 -16 Q206 -16 164.5 -3.5 Q123 9 94.5 26.5 Q66 44 49 63 Q32 82 25 94 L25 164 L203 164 Q209 148 224 137 Q239 126 264 126 Q282 126 295.5 133 Q309 140 314 148 L314 174 Q310 182 297.5 187 Q285 192 270 195 L223 203 Q175 212 141 224 Q107 236 84 249.5 Q61 263 48 276 Q35 289 30 298 L30 453 Q37 465 54 483.5 Q71 502 99 519.5 Q127 537 167.5 549.5 Q208 562 263 562 Z M464 593 L318 593 L266 682 L212 593 L66 593 L66 608 L135 764 L395 764 L464 608 L464 593 Z " />
<glyph glyph-name="scaron" unicode="&#x161;" horiz-adv-x="526" d="M263 562 Q318 562 358.5 549 Q399 536 427 518.5 Q455 501 471.5 482.5 Q488 464 495 453 L495 383 L317 383 Q309 402 296.5 411 Q284 420 262 420 Q245 420 233 414 Q221 408 216 399 L216 374 Q221 366 232 361.5 Q243 357 258 354 L304 345 Q353 336 387.5 323.5 Q422 311 445 298 Q468 285 481.5 273 Q495 261 501 252 L501 94 Q493 82 476 63 Q459 44 430 26.5 Q401 9 359.5 -3.5 Q318 -16 262 -16 Q206 -16 164.5 -3.5 Q123 9 94.5 26.5 Q66 44 49 63 Q32 82 25 94 L25 164 L203 164 Q209 148 224 137 Q239 126 264 126 Q282 126 295.5 133 Q309 140 314 148 L314 174 Q310 182 297.5 187 Q285 192 270 195 L223 203 Q175 212 141 224 Q107 236 84 249.5 Q61 263 48 276 Q35 289 30 298 L30 453 Q37 465 54 483.5 Q71 502 99 519.5 Q127 537 167.5 549.5 Q208 562 263 562 Z M395 593 L135 593 L66 749 L66 764 L212 764 L266 675 L318 764 L464 764 L464 749 L395 593 Z " />
<glyph glyph-name="scedilla" unicode="&#x15f;" horiz-adv-x="526" d="M304 345 Q353 336 387.5 323.5 Q422 311 445 298 Q468 285 481.5 273 Q495 261 501 252 L501 94 Q494 83 479.5 66.5 Q465 50 441 33.5 Q417 17 383 4 Q349 -9 304 -14 L297 -36 L304 -36 Q347 -36 367.5 -52.5 Q388 -69 396 -89 L396 -169 Q381 -202 342.5 -219.5 Q304 -237 252 -237 Q215 -237 187.5 -232 Q160 -227 148 -221 L173 -144 Q190 -146 207 -147.5 Q224 -149 240 -149 Q258 -149 272 -145 Q286 -141 290 -133 L290 -116 Q286 -108 273 -106 Q260 -104 244 -104 L184 -104 L214 -13 Q170 -8 137.5 5.5 Q105 19 82 35 Q59 51 45 67 Q31 83 25 94 L25 164 L203 164 Q209 148 224 137 Q239 126 264 126 Q282 126 295.5 133 Q309 140 314 148 L314 174 Q310 182 297.5 187 Q285 192 270 195 L223 203 Q175 212 141 224 Q107 236 84 249.5 Q61 263 48 276 Q35 289 30 298 L30 453 Q37 465 54 483.5 Q71 502 99 519.5 Q127 537 167.5 549.5 Q208 562 263 562 Q318 562 358.5 549 Q399 536 427 518.5 Q455 501 471.5 482.5 Q488 464 495 453 L495 383 L317 383 Q309 402 296.5 411 Q284 420 262 420 Q245 420 233 414 Q221 408 216 399 L216 374 Q221 366 232 361.5 Q243 357 258 354 L304 345 Z " />
<glyph glyph-name="scommaaccent" unicode="&#x219;" horiz-adv-x="526" d="M263 562 Q318 562 358.5 549 Q399 536 427 518.5 Q455 501 471.5 482.5 Q488 464 495 453 L495 383 L317 383 Q309 402 296.5 411 Q284 420 262 420 Q245 420 233 414 Q221 408 216 399 L216 374 Q221 366 232 361.5 Q243 357 258 354 L304 345 Q353 336 387.5 323.5 Q422 311 445 298 Q468 285 481.5 273 Q495 261 501 252 L501 94 Q493 82 476 63 Q459 44 430 26.5 Q401 9 359.5 -3.5 Q318 -16 262 -16 Q206 -16 164.5 -3.5 Q123 9 94.5 26.5 Q66 44 49 63 Q32 82 25 94 L25 164 L203 164 Q209 148 224 137 Q239 126 264 126 Q282 126 295.5 133 Q309 140 314 148 L314 174 Q310 182 297.5 187 Q285 192 270 195 L223 203 Q175 212 141 224 Q107 236 84 249.5 Q61 263 48 276 Q35 289 30 298 L30 453 Q37 465 54 483.5 Q71 502 99 519.5 Q127 537 167.5 549.5 Q208 562 263 562 Z M266 -41 Q311 -41 335 -50.5 Q359 -60 367 -70 L367 -187 Q364 -198 354.5 -211 Q345 -224 329 -235 Q313 -246 290.5 -253.5 Q268 -261 238 -261 L172 -261 L172 -201 L219 -201 Q236 -201 250 -198 Q264 -195 269 -183 L269 -169 L266 -169 Q220 -169 195.5 -161.5 Q171 -154 163 -144 L163 -70 Q171 -60 195.5 -50.5 Q220 -41 266 -41 Z " />
<glyph glyph-name="germandbls" unicode="&#xdf;" horiz-adv-x="572" d="M286 716 Q343 716 385 703 Q427 690 456 672 Q485 654 502.5 635 Q520 616 527 605 L527 420 Q519 406 503.5 391 Q488 376 474 366 Q506 342 521.5 321.5 Q537 301 545 283 L545 124 Q532 96 512.5 73.5 Q493 51 462 34.5 Q431 18 387 9 Q343 0 282 0 L282 157 Q309 157 319.5 160.5 Q330 164 341 179 L341 257 Q335 268 320.5 274 Q306 280 287 280 L287 431 Q303 431 318 437 Q333 443 340 456 L340 536 Q333 547 318 553 Q303 559 286 559 Q269 559 256 552 Q243 545 238 536 L238 0 L34 0 L34 578 Q44 598 63.5 622 Q83 646 114 667 Q145 688 187.5 702 Q230 716 286 716 Z " />
<glyph glyph-name="tcaron" unicode="&#x165;" horiz-adv-x="488" d="M480 719 L422 586 L311 586 L311 601 L333 822 L480 822 L480 719 Z M268 155 Q273 150 285.5 145 Q298 140 327 140 Q336 140 343 141 Q350 142 352 142 L352 0 Q338 -4 313.5 -9.5 Q289 -15 249 -15 Q206 -15 174 -6.5 Q142 2 119.5 16 Q97 30 83.5 47.5 Q70 65 64 83 L64 401 L21 401 L21 546 L64 546 L64 658 L268 658 L268 546 L341 546 L341 401 L268 401 L268 155 Z " />
<glyph glyph-name="uni021B" unicode="&#x21b;" horiz-adv-x="373" d="M327 140 Q336 140 343 141 Q350 142 352 142 L352 0 Q335 -5 309 -10 Q283 -15 249 -15 Q207 -15 175 -6.5 Q143 2 120.5 16 Q98 30 84 47.5 Q70 65 64 83 L64 401 L21 401 L21 546 L64 546 L64 658 L268 658 L268 546 L341 546 L341 401 L268 401 L268 155 Q273 150 285.5 145 Q298 140 327 140 Z M216 -40 Q261 -40 285 -49.5 Q309 -59 317 -69 L317 -186 Q314 -197 304.5 -210 Q295 -223 279 -234 Q263 -245 240.5 -252.5 Q218 -260 188 -260 L122 -260 L122 -200 L169 -200 Q186 -200 200 -197 Q214 -194 219 -182 L219 -168 L216 -168 Q170 -168 145.5 -160.5 Q121 -153 113 -143 L113 -69 Q121 -59 145.5 -49.5 Q170 -40 216 -40 Z " />
<glyph glyph-name="tbar" unicode="&#x167;" horiz-adv-x="373" d="M327 140 Q336 140 343 141 Q350 142 352 142 L352 0 Q338 -4 313.5 -9.5 Q289 -15 249 -15 Q206 -15 174 -6.5 Q142 2 119.5 16 Q97 30 83.5 47.5 Q70 65 64 83 L64 202 L21 202 L21 348 L64 348 L64 401 L21 401 L21 546 L64 546 L64 658 L268 658 L268 546 L341 546 L341 401 L268 401 L268 348 L341 348 L341 202 L268 202 L268 155 Q273 150 285.5 145 Q298 140 327 140 Z " />
<glyph glyph-name="ugrave" unicode="&#xf9;" horiz-adv-x="570" d="M536 0 L347 0 L347 51 Q324 24 290.5 6.5 Q257 -11 209 -11 Q170 -11 140.5 2 Q111 15 89.5 34.5 Q68 54 54.5 77.5 Q41 101 34 122 L34 546 L238 546 L238 169 Q242 162 253.5 154.5 Q265 147 285 147 Q302 147 313 151 Q324 155 332 161 L332 546 L536 546 L536 0 Z M362 598 L211 598 L131 685 L131 769 L318 769 L362 613 L362 598 Z " />
<glyph glyph-name="uacute" unicode="&#xfa;" horiz-adv-x="570" d="M536 0 L347 0 L347 51 Q324 24 290.5 6.5 Q257 -11 209 -11 Q170 -11 140.5 2 Q111 15 89.5 34.5 Q68 54 54.5 77.5 Q41 101 34 122 L34 546 L238 546 L238 169 Q242 162 253.5 154.5 Q265 147 285 147 Q302 147 313 151 Q324 155 332 161 L332 546 L536 546 L536 0 Z M361 598 L209 598 L209 613 L253 769 L440 769 L440 685 L361 598 Z " />
<glyph glyph-name="ucircumflex" unicode="&#xfb;" horiz-adv-x="570" d="M536 0 L347 0 L347 51 Q324 24 290.5 6.5 Q257 -11 209 -11 Q170 -11 140.5 2 Q111 15 89.5 34.5 Q68 54 54.5 77.5 Q41 101 34 122 L34 546 L238 546 L238 169 Q242 162 253.5 154.5 Q265 147 285 147 Q302 147 313 151 Q324 155 332 161 L332 546 L536 546 L536 0 Z M484 593 L338 593 L286 682 L232 593 L86 593 L86 608 L155 764 L415 764 L484 608 L484 593 Z " />
<glyph glyph-name="utilde" unicode="&#x169;" horiz-adv-x="570" d="M536 0 L347 0 L347 51 Q324 24 290.5 6.5 Q257 -11 209 -11 Q170 -11 140.5 2 Q111 15 89.5 34.5 Q68 54 54.5 77.5 Q41 101 34 122 L34 546 L238 546 L238 169 Q242 162 253.5 154.5 Q265 147 285 147 Q302 147 313 151 Q324 155 332 161 L332 546 L536 546 L536 0 Z M210 761 Q240 761 259 753.5 Q278 746 291 737.5 Q304 729 314.5 721.5 Q325 714 339 714 Q361 714 366 735 L366 756 L480 756 L480 682 Q477 665 468 648.5 Q459 632 443.5 619 Q428 606 407 598 Q386 590 360 590 Q330 590 311 597.5 Q292 605 278.5 613.5 Q265 622 254.5 629.5 Q244 637 231 637 Q220 637 213.5 631 Q207 625 205 616 L205 595 L91 595 L91 669 Q93 686 102 702.5 Q111 719 126 732 Q141 745 162.5 753 Q184 761 210 761 Z " />
<glyph glyph-name="udieresis" unicode="&#xfc;" horiz-adv-x="570" d="M536 0 L347 0 L347 51 Q324 24 290.5 6.5 Q257 -11 209 -11 Q170 -11 140.5 2 Q111 15 89.5 34.5 Q68 54 54.5 77.5 Q41 101 34 122 L34 546 L238 546 L238 169 Q242 162 253.5 154.5 Q265 147 285 147 Q302 147 313 151 Q324 155 332 161 L332 546 L536 546 L536 0 Z M169 759 Q191 759 207 754.5 Q223 750 234 744 Q245 738 251.5 731.5 Q258 725 261 721 L261 619 Q254 609 233.5 594.5 Q213 580 169 580 Q147 580 131 584.5 Q115 589 104 595 Q93 601 86.5 607.5 Q80 614 76 619 L76 721 Q83 730 104 744.5 Q125 759 169 759 Z M402 759 Q424 759 440 754.5 Q456 750 466.5 744 Q477 738 483.5 731.5 Q490 725 494 721 L494 619 Q490 614 483.5 607.5 Q477 601 466.5 595 Q456 589 440 584.5 Q424 580 402 580 Q380 580 364 584.5 Q348 589 337 595 Q326 601 319.5 607.5 Q313 614 309 619 L309 721 Q316 730 337 744.5 Q358 759 402 759 Z " />
<glyph glyph-name="umacron" unicode="&#x16b;" horiz-adv-x="570" d="M536 0 L347 0 L347 51 Q324 24 290.5 6.5 Q257 -11 209 -11 Q170 -11 140.5 2 Q111 15 89.5 34.5 Q68 54 54.5 77.5 Q41 101 34 122 L34 546 L238 546 L238 169 Q242 162 253.5 154.5 Q265 147 285 147 Q302 147 313 151 Q324 155 332 161 L332 546 L536 546 L536 0 Z M98 605 L98 735 L473 735 L473 605 L98 605 Z " />
<glyph glyph-name="ubreve" unicode="&#x16d;" horiz-adv-x="570" d="M536 0 L347 0 L347 51 Q324 24 290.5 6.5 Q257 -11 209 -11 Q170 -11 140.5 2 Q111 15 89.5 34.5 Q68 54 54.5 77.5 Q41 101 34 122 L34 546 L238 546 L238 169 Q242 162 253.5 154.5 Q265 147 285 147 Q302 147 313 151 Q324 155 332 161 L332 546 L536 546 L536 0 Z M484 691 Q461 643 410.5 616 Q360 589 286 589 Q211 589 160 616 Q109 643 86 691 L86 754 L232 754 L232 716 Q236 708 249 698.5 Q262 689 286 689 Q309 689 322 698.5 Q335 708 339 716 L339 754 L484 754 L484 691 Z " />
<glyph glyph-name="uring" unicode="&#x16f;" horiz-adv-x="570" d="M536 0 L347 0 L347 51 Q324 24 290.5 6.5 Q257 -11 209 -11 Q170 -11 140.5 2 Q111 15 89.5 34.5 Q68 54 54.5 77.5 Q41 101 34 122 L34 546 L238 546 L238 169 Q242 162 253.5 154.5 Q265 147 285 147 Q302 147 313 151 Q324 155 332 161 L332 546 L536 546 L536 0 Z M284 829 Q334 829 371.5 810 Q409 791 427 759 L427 657 Q409 624 371.5 605 Q334 586 284 586 Q234 586 196 605 Q158 624 141 657 L141 759 Q158 791 196 810 Q234 829 284 829 Z M284 757 Q260 757 246 749 Q232 741 228 734 L228 681 Q232 674 246 666 Q260 658 284 658 Q308 658 322 666 Q336 674 340 681 L340 734 Q336 741 322 749 Q308 757 284 757 Z " />
<glyph glyph-name="uhungarumlaut" unicode="&#x171;" horiz-adv-x="570" d="M536 0 L347 0 L347 51 Q324 24 290.5 6.5 Q257 -11 209 -11 Q170 -11 140.5 2 Q111 15 89.5 34.5 Q68 54 54.5 77.5 Q41 101 34 122 L34 546 L238 546 L238 169 Q242 162 253.5 154.5 Q265 147 285 147 Q302 147 313 151 Q324 155 332 161 L332 546 L536 546 L536 0 Z M249 593 L118 593 L118 608 L147 764 L301 764 L301 696 L249 593 Z M460 593 L330 593 L330 608 L358 764 L513 764 L513 696 L460 593 Z " />
<glyph glyph-name="uogonek" unicode="&#x173;" horiz-adv-x="570" d="M536 0 Q498 -38 481 -60 Q464 -82 459 -94 L459 -112 Q464 -120 474.5 -122.5 Q485 -125 497 -125 Q503 -125 513 -124 Q523 -123 536 -121 L536 -222 Q525 -227 507 -231 Q489 -235 455 -235 Q411 -235 372 -223 Q333 -211 317 -178 L317 -93 Q324 -76 344.5 -50 Q365 -24 396 0 L347 0 L347 51 Q324 24 290.5 6.5 Q257 -11 209 -11 Q170 -11 140.5 2 Q111 15 89.5 34.5 Q68 54 54.5 77.5 Q41 101 34 122 L34 546 L238 546 L238 169 Q242 162 253.5 154.5 Q265 147 285 147 Q302 147 313 151 Q324 155 332 161 L332 546 L536 546 L536 0 Z " />
<glyph glyph-name="wgrave" unicode="&#x1e81;" horiz-adv-x="819" d="M682 0 L468 0 L415 241 L412 241 L359 0 L137 0 L25 440 L25 546 L220 546 L271 228 L274 228 L339 546 L503 546 L566 228 L569 228 L621 546 L794 546 L794 440 L682 0 Z M485 598 L334 598 L254 685 L254 769 L441 769 L485 613 L485 598 Z " />
<glyph glyph-name="wacute" unicode="&#x1e83;" horiz-adv-x="819" d="M682 0 L468 0 L415 241 L412 241 L359 0 L137 0 L25 440 L25 546 L220 546 L271 228 L274 228 L339 546 L503 546 L566 228 L569 228 L621 546 L794 546 L794 440 L682 0 Z M484 598 L332 598 L332 613 L376 769 L563 769 L563 685 L484 598 Z " />
<glyph glyph-name="wcircumflex" unicode="&#x175;" horiz-adv-x="819" d="M682 0 L468 0 L415 241 L412 241 L359 0 L137 0 L25 440 L25 546 L220 546 L271 228 L274 228 L339 546 L503 546 L566 228 L569 228 L621 546 L794 546 L794 440 L682 0 Z M608 593 L462 593 L410 682 L356 593 L210 593 L210 608 L279 764 L539 764 L608 608 L608 593 Z " />
<glyph glyph-name="wdieresis" unicode="&#x1e85;" horiz-adv-x="819" d="M682 0 L468 0 L415 241 L412 241 L359 0 L137 0 L25 440 L25 546 L220 546 L271 228 L274 228 L339 546 L503 546 L566 228 L569 228 L621 546 L794 546 L794 440 L682 0 Z M293 759 Q315 759 331 754.5 Q347 750 358 744 Q369 738 375.5 731.5 Q382 725 385 721 L385 619 Q378 609 357.5 594.5 Q337 580 293 580 Q271 580 255 584.5 Q239 589 228 595 Q217 601 210.5 607.5 Q204 614 200 619 L200 721 Q207 730 228 744.5 Q249 759 293 759 Z M526 759 Q548 759 564 754.5 Q580 750 590.5 744 Q601 738 607.5 731.5 Q614 725 618 721 L618 619 Q614 614 607.5 607.5 Q601 601 590.5 595 Q580 589 564 584.5 Q548 580 526 580 Q504 580 488 584.5 Q472 589 461 595 Q450 601 443.5 607.5 Q437 614 433 619 L433 721 Q440 730 461 744.5 Q482 759 526 759 Z " />
<glyph glyph-name="ygrave" unicode="&#x1ef3;" horiz-adv-x="552" d="M529 440 L356 -98 Q343 -113 325.5 -127.5 Q308 -142 282.5 -153.5 Q257 -165 223.5 -172 Q190 -179 146 -179 Q114 -179 86.5 -175 Q59 -171 44 -166 L44 -23 Q53 -24 65.5 -24.5 Q78 -25 92 -25 Q130 -25 149 -18 Q168 -11 176 -3 L181 13 L23 439 L23 546 L218 546 L281 267 L284 267 L348 546 L529 546 L529 440 Z M347 598 L196 598 L116 685 L116 769 L303 769 L347 613 L347 598 Z " />
<glyph glyph-name="yacute" unicode="&#xfd;" horiz-adv-x="552" d="M529 440 L356 -98 Q343 -113 325.5 -127.5 Q308 -142 282.5 -153.5 Q257 -165 223.5 -172 Q190 -179 146 -179 Q114 -179 86.5 -175 Q59 -171 44 -166 L44 -23 Q53 -24 65.5 -24.5 Q78 -25 92 -25 Q130 -25 149 -18 Q168 -11 176 -3 L181 13 L23 439 L23 546 L218 546 L281 267 L284 267 L348 546 L529 546 L529 440 Z M346 598 L194 598 L194 613 L238 769 L425 769 L425 685 L346 598 Z " />
<glyph glyph-name="ycircumflex" unicode="&#x177;" horiz-adv-x="552" d="M529 440 L356 -98 Q343 -113 325.5 -127.5 Q308 -142 282.5 -153.5 Q257 -165 223.5 -172 Q190 -179 146 -179 Q114 -179 86.5 -175 Q59 -171 44 -166 L44 -23 Q53 -24 65.5 -24.5 Q78 -25 92 -25 Q130 -25 149 -18 Q168 -11 176 -3 L181 13 L23 439 L23 546 L218 546 L281 267 L284 267 L348 546 L529 546 L529 440 Z M470 593 L324 593 L272 682 L218 593 L72 593 L72 608 L141 764 L401 764 L470 608 L470 593 Z " />
<glyph glyph-name="ydieresis" unicode="&#xff;" horiz-adv-x="552" d="M529 440 L356 -98 Q343 -113 325.5 -127.5 Q308 -142 282.5 -153.5 Q257 -165 223.5 -172 Q190 -179 146 -179 Q114 -179 86.5 -175 Q59 -171 44 -166 L44 -23 Q53 -24 65.5 -24.5 Q78 -25 92 -25 Q130 -25 149 -18 Q168 -11 176 -3 L181 13 L23 439 L23 546 L218 546 L281 267 L284 267 L348 546 L529 546 L529 440 Z M155 759 Q177 759 193 754.5 Q209 750 220 744 Q231 738 237.5 731.5 Q244 725 247 721 L247 619 Q240 609 219.5 594.5 Q199 580 155 580 Q133 580 117 584.5 Q101 589 90 595 Q79 601 72.5 607.5 Q66 614 62 619 L62 721 Q69 730 90 744.5 Q111 759 155 759 Z M388 759 Q410 759 426 754.5 Q442 750 452.5 744 Q463 738 469.5 731.5 Q476 725 480 721 L480 619 Q476 614 469.5 607.5 Q463 601 452.5 595 Q442 589 426 584.5 Q410 580 388 580 Q366 580 350 584.5 Q334 589 323 595 Q312 601 305.5 607.5 Q299 614 295 619 L295 721 Q302 730 323 744.5 Q344 759 388 759 Z " />
<glyph glyph-name="zacute" unicode="&#x17a;" horiz-adv-x="502" d="M258 149 L477 149 L477 0 L24 0 L24 139 L235 397 L32 397 L32 546 L477 546 L477 417 L258 149 Z M323 598 L171 598 L171 613 L215 769 L402 769 L402 685 L323 598 Z " />
<glyph glyph-name="zcaron" unicode="&#x17e;" horiz-adv-x="502" d="M258 149 L477 149 L477 0 L24 0 L24 139 L235 397 L32 397 L32 546 L477 546 L477 417 L258 149 Z M377 593 L117 593 L48 749 L48 764 L194 764 L248 675 L300 764 L446 764 L446 749 L377 593 Z " />
<glyph glyph-name="zdotaccent" unicode="&#x17c;" horiz-adv-x="502" d="M258 149 L477 149 L477 0 L24 0 L24 139 L235 397 L32 397 L32 546 L477 546 L477 417 L258 149 Z M248 764 Q293 764 318 746 Q343 728 352 708 L352 638 Q343 618 318 600 Q293 582 248 582 Q203 582 177.5 600 Q152 618 144 638 L144 708 Q152 728 177.5 746 Q203 764 248 764 Z " />
<glyph glyph-name="eng" unicode="&#x14b;" horiz-adv-x="575" d="M363 557 Q402 557 432 544 Q462 531 483.5 511.5 Q505 492 519 468.5 Q533 445 540 424 L540 -33 Q531 -54 511.5 -78.5 Q492 -103 461 -124 Q430 -145 386.5 -159 Q343 -173 286 -173 L286 -18 Q306 -18 319 -8 Q332 2 337 16 L337 377 Q333 384 320 391.5 Q307 399 287 399 Q255 399 238 384 L238 0 L34 0 L34 546 L223 546 L223 493 Q246 521 280.5 539 Q315 557 363 557 Z " />
<glyph glyph-name="eth" unicode="&#xf0;" horiz-adv-x="574" d="M507 578 Q527 555 540 526 L540 125 Q530 103 510.5 78 Q491 53 460 32 Q429 11 385.5 -2.5 Q342 -16 285 -16 Q228 -16 184.5 -2.5 Q141 11 110 32 Q79 53 59.5 77.5 Q40 102 30 124 L30 324 Q36 346 51 370 Q66 394 89.5 413.5 Q113 433 144.5 446 Q176 459 216 459 Q258 459 285.5 450 Q313 441 337 424 L337 481 Q331 498 316 515 L178 470 L178 566 L226 582 Q200 596 173.5 608 Q147 620 124 628 L223 736 Q277 722 330 700 Q383 678 428 648 L540 685 L540 589 L507 578 Z M337 283 Q332 291 318 298 Q304 305 285 305 Q266 305 252.5 298 Q239 291 234 282 L234 165 Q239 155 252.5 148 Q266 141 285 141 Q305 141 318.5 148 Q332 155 337 165 L337 283 Z " />
<glyph glyph-name="thorn" unicode="&#xfe;" horiz-adv-x="572" d="M363 557 Q402 557 432 544 Q462 531 483.5 511.5 Q505 492 519 468.5 Q533 445 540 424 L540 122 Q533 101 519 77.5 Q505 54 483.5 34.5 Q462 15 432 2 Q402 -11 363 -11 Q321 -11 291 2.5 Q261 16 238 37 L238 -166 L34 -166 L34 700 L238 700 L238 509 Q261 530 291 543.5 Q321 557 363 557 Z M336 377 Q333 384 320 391.5 Q307 399 287 399 Q255 399 238 385 L238 162 Q246 156 258.5 151.5 Q271 147 288 147 Q308 147 321 155 Q334 163 336 169 L336 377 Z " />
<glyph glyph-name="longs" unicode="&#x17f;" horiz-adv-x="344" d="M219 716 Q257 716 284 711 Q311 706 322 701 L322 560 Q320 560 313.5 560.5 Q307 561 297 561 Q268 561 255.5 556.5 Q243 552 238 547 L238 0 L34 0 L34 618 Q40 636 53.5 653.5 Q67 671 89.5 685 Q112 699 144 707.5 Q176 716 219 716 Z " />
<glyph glyph-name="fi" unicode="&#xfb01;" horiz-adv-x="635" d="M249 736 Q287 736 314 731 Q341 726 352 721 L352 585 Q350 585 343 585.5 Q336 586 327 586 Q295 586 283 581 Q271 576 268 572 L268 546 L341 546 L341 401 L268 401 L268 0 L64 0 L64 401 L21 401 L21 546 L64 546 L64 638 Q70 656 83.5 673.5 Q97 691 119.5 705 Q142 719 174 727.5 Q206 736 249 736 Z M396 0 L396 546 L598 546 L598 0 L396 0 Z M497 764 Q542 764 567 746 Q592 728 601 708 L601 638 Q592 618 567 600 Q542 582 497 582 Q452 582 426.5 600 Q401 618 393 638 L393 708 Q401 728 426.5 746 Q452 764 497 764 Z " />
<glyph glyph-name="fl" unicode="&#xfb02;" horiz-adv-x="632" d="M249 736 Q287 736 314 731 Q341 726 352 721 L352 585 Q350 585 343 585.5 Q336 586 327 586 Q295 586 283 581 Q271 576 268 572 L268 546 L341 546 L341 401 L268 401 L268 0 L64 0 L64 401 L21 401 L21 546 L64 546 L64 638 Q70 656 83.5 673.5 Q97 691 119.5 705 Q142 719 174 727.5 Q206 736 249 736 Z M393 0 L393 700 L597 700 L597 0 L393 0 Z " />
<glyph glyph-name="ampersand" unicode="&#x26;" horiz-adv-x="701" d="M682 0 L560 0 L518 39 Q482 14 435.5 -1 Q389 -16 320 -16 Q254 -16 205 -2.5 Q156 11 120.5 32 Q85 53 63.5 77.5 Q42 102 32 124 L32 279 Q46 305 74.5 333.5 Q103 362 151 382 Q96 434 82 458 L82 583 Q91 601 110.5 624 Q130 647 161 667.5 Q192 688 235.5 701.5 Q279 715 336 715 Q393 715 436 701 Q479 687 510 667 Q541 647 560.5 623.5 Q580 600 590 582 L590 510 L401 510 Q396 533 379.5 548 Q363 563 336 563 Q317 563 303.5 556.5 Q290 550 285 542 L285 499 Q291 487 302.5 475.5 Q314 464 327 452 L444 342 L444 397 L619 397 L619 177 L682 118 L682 0 Z M236 165 Q239 159 248.5 154 Q258 149 270.5 145 Q283 141 297.5 138.5 Q312 136 327 136 Q349 136 366 139 Q383 142 398 151 L270 270 Q245 265 236 248 L236 165 Z " />
<glyph glyph-name="grave" unicode="&#x60;" horiz-adv-x="488" d="M360 598 L209 598 L129 685 L129 769 L316 769 L360 613 L360 598 Z " />
<glyph glyph-name="acute" unicode="&#xb4;" horiz-adv-x="488" d="M281 598 L129 598 L129 613 L173 769 L360 769 L360 685 L281 598 Z " />
<glyph glyph-name="circumflex" unicode="&#x2c6;" horiz-adv-x="488" d="M443 593 L297 593 L245 682 L191 593 L45 593 L45 608 L114 764 L374 764 L443 608 L443 593 Z " />
<glyph glyph-name="caron" unicode="&#x2c7;" horiz-adv-x="488" d="M374 593 L114 593 L45 749 L45 764 L191 764 L245 675 L297 764 L443 764 L443 749 L374 593 Z " />
<glyph glyph-name="tilde" unicode="&#x2dc;" horiz-adv-x="488" d="M169 761 Q199 761 218 753.5 Q237 746 250 737.5 Q263 729 273.5 721.5 Q284 714 298 714 Q320 714 325 735 L325 756 L439 756 L439 682 Q436 665 427 648.5 Q418 632 402.5 619 Q387 606 366 598 Q345 590 319 590 Q289 590 270 597.5 Q251 605 237.5 613.5 Q224 622 213.5 629.5 Q203 637 190 637 Q179 637 172.5 631 Q166 625 164 616 L164 595 L50 595 L50 669 Q52 686 61 702.5 Q70 719 85 732 Q100 745 121.5 753 Q143 761 169 761 Z " />
<glyph glyph-name="dieresis" unicode="&#xa8;" horiz-adv-x="488" d="M129 759 Q151 759 167 754.5 Q183 750 194 744 Q205 738 211.5 731.5 Q218 725 221 721 L221 619 Q214 609 193.5 594.5 Q173 580 129 580 Q107 580 91 584.5 Q75 589 64 595 Q53 601 46.5 607.5 Q40 614 36 619 L36 721 Q43 730 64 744.5 Q85 759 129 759 Z M362 759 Q384 759 400 754.5 Q416 750 426.5 744 Q437 738 443.5 731.5 Q450 725 454 721 L454 619 Q450 614 443.5 607.5 Q437 601 426.5 595 Q416 589 400 584.5 Q384 580 362 580 Q340 580 324 584.5 Q308 589 297 595 Q286 601 279.5 607.5 Q273 614 269 619 L269 721 Q276 730 297 744.5 Q318 759 362 759 Z " />
<glyph glyph-name="breve" unicode="&#x2d8;" horiz-adv-x="488" d="M443 691 Q420 643 369.5 616 Q319 589 245 589 Q170 589 119 616 Q68 643 45 691 L45 754 L191 754 L191 716 Q195 708 208 698.5 Q221 689 245 689 Q268 689 281 698.5 Q294 708 298 716 L298 754 L443 754 L443 691 Z " />
<glyph glyph-name="ring" unicode="&#x2da;" horiz-adv-x="488" d="M244 829 Q294 829 331.5 810 Q369 791 387 759 L387 657 Q369 624 331.5 605 Q294 586 244 586 Q194 586 156 605 Q118 624 101 657 L101 759 Q118 791 156 810 Q194 829 244 829 Z M244 757 Q220 757 206 749 Q192 741 188 734 L188 681 Q192 674 206 666 Q220 658 244 658 Q268 658 282 666 Q296 674 300 681 L300 734 Q296 741 282 749 Q268 757 244 757 Z " />
<glyph glyph-name="hungarumlaut" unicode="&#x2dd;" horiz-adv-x="488" d="M180 593 L49 593 L49 608 L78 764 L232 764 L232 696 L180 593 Z M391 593 L261 593 L261 608 L289 764 L444 764 L444 696 L391 593 Z " />
<glyph glyph-name="dotaccent" unicode="&#x2d9;" horiz-adv-x="488" d="M244 764 Q289 764 314 746 Q339 728 348 708 L348 638 Q339 618 314 600 Q289 582 244 582 Q199 582 173.5 600 Q148 618 140 638 L140 708 Q148 728 173.5 746 Q199 764 244 764 Z " />
<glyph glyph-name="cedilla" unicode="&#xb8;" horiz-adv-x="488" d="M281 -35 Q324 -35 344.5 -51.5 Q365 -68 373 -88 L373 -168 Q358 -201 319.5 -218.5 Q281 -236 229 -236 Q192 -236 165 -231.5 Q138 -227 125 -220 L151 -143 Q167 -145 184.5 -146.5 Q202 -148 217 -148 Q236 -148 249.5 -144 Q263 -140 267 -132 L267 -115 Q263 -107 250 -105 Q237 -103 221 -103 L161 -103 L196 4 L288 4 L274 -35 L281 -35 Z " />
<glyph glyph-name="ogonek" unicode="&#x2db;" horiz-adv-x="488" d="M353 0 Q317 -40 304 -61 Q291 -82 286 -94 L286 -112 Q291 -120 301 -122.5 Q311 -125 323 -125 Q339 -125 362 -121 L362 -222 Q351 -227 333.5 -231 Q316 -235 282 -235 Q238 -235 198.5 -223 Q159 -211 143 -178 L143 -93 Q148 -83 158.5 -67.5 Q169 -52 184.5 -35.5 Q200 -19 219 -3 Q238 13 261 25 L353 0 Z " />
<glyph glyph-name="comma" unicode="&#x2c;" horiz-adv-x="261" d="M130 192 Q176 192 201.5 174 Q227 156 235 137 L235 -54 Q231 -65 220 -81.5 Q209 -98 191.5 -113 Q174 -128 149.5 -138.5 Q125 -149 94 -149 L45 -149 L45 -65 L84 -65 Q96 -65 110 -56.5 Q124 -48 130 -35 L130 -15 Q86 -15 60.5 3.5 Q35 22 26 41 L26 137 Q35 156 60 174 Q85 192 130 192 Z " />
<glyph glyph-name="semicolon" unicode="&#x3b;" horiz-adv-x="271" d="M135 192 Q181 192 206.5 174 Q232 156 240 137 L240 -54 Q236 -65 225 -81.5 Q214 -98 196.5 -113 Q179 -128 154.5 -138.5 Q130 -149 99 -149 L50 -149 L50 -65 L89 -65 Q101 -65 115 -56.5 Q129 -48 135 -35 L135 -15 Q91 -15 65.5 3.5 Q40 22 31 41 L31 137 Q40 156 65 174 Q90 192 135 192 Z M135 529 Q181 529 206.5 511 Q232 493 240 474 L240 378 Q232 359 206.5 340.5 Q181 322 135 322 Q90 322 65 340.5 Q40 359 31 378 L31 474 Q40 493 65 511 Q90 529 135 529 Z " />
<glyph glyph-name="colon" unicode="&#x3a;" horiz-adv-x="271" d="M135 192 Q181 192 206.5 174 Q232 156 240 137 L240 41 Q232 22 206.5 3.5 Q181 -15 135 -15 Q90 -15 65 3.5 Q40 22 31 41 L31 137 Q40 156 65 174 Q90 192 135 192 Z M135 528 Q181 528 206.5 510 Q232 492 240 473 L240 377 Q232 358 206.5 339.5 Q181 321 135 321 Q90 321 65 339.5 Q40 358 31 377 L31 473 Q40 492 65 510 Q90 528 135 528 Z " />
<glyph glyph-name="period" unicode="&#x2e;" horiz-adv-x="261" d="M130 192 Q176 192 201.5 174 Q227 156 235 137 L235 41 Q227 22 201.5 3.5 Q176 -15 130 -15 Q85 -15 60 3.5 Q35 22 26 41 L26 137 Q35 156 60 174 Q85 192 130 192 Z " />
<glyph glyph-name="ellipsis" unicode="&#x2026;" horiz-adv-x="764" d="M130 192 Q176 192 201.5 174 Q227 156 235 137 L235 41 Q227 22 201.5 3.5 Q176 -15 130 -15 Q85 -15 60 3.5 Q35 22 26 41 L26 137 Q35 156 60 174 Q85 192 130 192 Z M381 192 Q428 192 453 174 Q478 156 486 137 L486 41 Q478 22 453 3.5 Q428 -15 381 -15 Q337 -15 311.5 3.5 Q286 22 278 41 L278 137 Q286 156 311 174 Q336 192 381 192 Z M633 192 Q679 192 704 174 Q729 156 737 137 L737 41 Q729 22 704 3.5 Q679 -15 633 -15 Q588 -15 562.5 3.5 Q537 22 529 41 L529 137 Q537 156 562.5 174 Q588 192 633 192 Z " />
<glyph glyph-name="hyphen" unicode="&#x2d;" horiz-adv-x="370" d="M27 252 L27 412 L342 412 L342 252 L27 252 Z " />
<glyph glyph-name="exclam" unicode="&#x21;" horiz-adv-x="306" d="M242 217 L64 217 L39 525 L39 700 L267 700 L267 525 L242 217 Z M152 183 Q199 183 224 164.5 Q249 146 257 127 L257 41 Q249 22 224 3.5 Q199 -15 152 -15 Q108 -15 82.5 3.5 Q57 22 49 41 L49 127 Q57 146 82.5 164.5 Q108 183 152 183 Z " />
<glyph glyph-name="exclamdown" unicode="&#xa1;" horiz-adv-x="306" d="M64 329 L242 329 L267 21 L267 -154 L39 -154 L39 21 L64 329 Z M154 363 Q107 363 82 381.5 Q57 400 49 419 L49 505 Q57 524 82 542.5 Q107 561 154 561 Q198 561 223.5 542.5 Q249 524 257 505 L257 419 Q249 400 223.5 381.5 Q198 363 154 363 Z " />
<glyph glyph-name="question" unicode="&#x3f;" horiz-adv-x="551" d="M267 716 Q328 716 373.5 701.5 Q419 687 451.5 666.5 Q484 646 504 622.5 Q524 599 535 581 L535 410 Q524 389 500 370.5 Q476 352 456 339 L336 260 L336 224 L128 224 L128 336 L253 419 Q282 438 299.5 451 Q317 464 323 478 L323 519 Q317 531 301.5 538 Q286 545 267 545 Q241 545 225.5 535 Q210 525 204 509 L16 509 L16 608 Q27 622 47 641 Q67 660 97.5 676.5 Q128 693 169.5 704.5 Q211 716 267 716 Z M232 192 Q278 192 303 174 Q328 156 336 137 L336 41 Q328 22 303 3.5 Q278 -15 232 -15 Q187 -15 161.5 3.5 Q136 22 128 41 L128 137 Q136 156 161.5 174 Q187 192 232 192 Z " />
<glyph glyph-name="questiondown" unicode="&#xbf;" horiz-adv-x="551" d="M284 -168 Q223 -168 177.5 -153.5 Q132 -139 99.5 -118.5 Q67 -98 47 -74.5 Q27 -51 16 -33 L16 138 Q27 159 51 177.5 Q75 196 95 209 L215 288 L215 324 L423 324 L423 212 L298 129 Q269 110 251.5 97 Q234 84 228 70 L228 29 Q234 17 249.5 10 Q265 3 284 3 Q310 3 325.5 13 Q341 23 347 39 L535 39 L535 -60 Q524 -74 504 -93 Q484 -112 453.5 -128.5 Q423 -145 381.5 -156.5 Q340 -168 284 -168 Z M319 356 Q273 356 248 374 Q223 392 215 411 L215 507 Q223 526 248 544.5 Q273 563 319 563 Q364 563 389.5 544.5 Q415 526 423 507 L423 411 Q415 392 389.5 374 Q364 356 319 356 Z " />
<glyph glyph-name="quoteleft" unicode="&#x2018;" horiz-adv-x="261" d="M131 371 Q85 371 59.5 389 Q34 407 26 426 L26 617 Q30 628 41 644.5 Q52 661 69.5 676 Q87 691 111.5 701.5 Q136 712 167 712 L216 712 L216 628 L177 628 Q165 628 151 619.5 Q137 611 131 598 L131 578 Q175 578 200.5 559.5 Q226 541 235 522 L235 426 Q226 407 201 389 Q176 371 131 371 Z " />
<glyph glyph-name="quoteright" unicode="&#x2019;" horiz-adv-x="261" d="M130 715 Q176 715 201.5 697 Q227 679 235 660 L235 469 Q231 458 220 441.5 Q209 425 191.5 410 Q174 395 149.5 384.5 Q125 374 94 374 L45 374 L45 458 L84 458 Q96 458 110 466.5 Q124 475 130 488 L130 508 Q86 508 60.5 526.5 Q35 545 26 564 L26 660 Q35 679 60 697 Q85 715 130 715 Z " />
<glyph glyph-name="quotedblleft" unicode="&#x201c;" horiz-adv-x="515" d="M131 371 Q85 371 59.5 389 Q34 407 26 426 L26 617 Q30 628 41 644.5 Q52 661 69.5 676 Q87 691 111.5 701.5 Q136 712 167 712 L216 712 L216 628 L177 628 Q165 628 151 619.5 Q137 611 131 598 L131 578 Q175 578 200.5 559.5 Q226 541 235 522 L235 426 Q226 407 201 389 Q176 371 131 371 Z M385 371 Q339 371 313.5 389 Q288 407 280 426 L280 617 Q284 628 295 644.5 Q306 661 323.5 676 Q341 691 365.5 701.5 Q390 712 421 712 L470 712 L470 628 L431 628 Q419 628 405 619.5 Q391 611 385 598 L385 578 Q429 578 454.5 559.5 Q480 541 489 522 L489 426 Q480 407 455 389 Q430 371 385 371 Z " />
<glyph glyph-name="quotedblright" unicode="&#x201d;" horiz-adv-x="515" d="M130 715 Q176 715 201.5 697 Q227 679 235 660 L235 469 Q231 458 220 441.5 Q209 425 191.5 410 Q174 395 149.5 384.5 Q125 374 94 374 L45 374 L45 458 L84 458 Q96 458 110 466.5 Q124 475 130 488 L130 508 Q86 508 60.5 526.5 Q35 545 26 564 L26 660 Q35 679 60 697 Q85 715 130 715 Z M384 715 Q430 715 455.5 697 Q481 679 489 660 L489 469 Q485 458 474 441.5 Q463 425 445.5 410 Q428 395 403.5 384.5 Q379 374 348 374 L299 374 L299 458 L338 458 Q350 458 364 466.5 Q378 475 384 488 L384 508 Q340 508 314.5 526.5 Q289 545 280 564 L280 660 Q289 679 314 697 Q339 715 384 715 Z " />
<glyph glyph-name="quotesinglbase" unicode="&#x201a;" horiz-adv-x="261" d="M130 192 Q176 192 201.5 174 Q227 156 235 137 L235 -54 Q231 -65 220 -81.5 Q209 -98 191.5 -113 Q174 -128 149.5 -138.5 Q125 -149 94 -149 L45 -149 L45 -65 L84 -65 Q96 -65 110 -56.5 Q124 -48 130 -35 L130 -15 Q86 -15 60.5 3.5 Q35 22 26 41 L26 137 Q35 156 60 174 Q85 192 130 192 Z " />
<glyph glyph-name="quotedblbase" unicode="&#x201e;" horiz-adv-x="515" d="M130 192 Q176 192 201.5 174 Q227 156 235 137 L235 -54 Q231 -65 220 -81.5 Q209 -98 191.5 -113 Q174 -128 149.5 -138.5 Q125 -149 94 -149 L45 -149 L45 -65 L84 -65 Q96 -65 110 -56.5 Q124 -48 130 -35 L130 -15 Q86 -15 60.5 3.5 Q35 22 26 41 L26 137 Q35 156 60 174 Q85 192 130 192 Z M384 192 Q430 192 455.5 174 Q481 156 489 137 L489 -54 Q485 -65 474 -81.5 Q463 -98 445.5 -113 Q428 -128 403.5 -138.5 Q379 -149 348 -149 L299 -149 L299 -65 L338 -65 Q350 -65 364 -56.5 Q378 -48 384 -35 L384 -15 Q340 -15 314.5 3.5 Q289 22 280 41 L280 137 Q289 156 314 174 Q339 192 384 192 Z " />
<glyph glyph-name="guilsinglleft" unicode="&#x2039;" horiz-adv-x="370" d="M191 281 L342 121 L342 15 L193 15 L27 200 L27 360 L193 546 L342 546 L342 440 L191 281 Z " />
<glyph glyph-name="guilsinglright" unicode="&#x203a;" horiz-adv-x="370" d="M343 200 L178 15 L29 15 L29 121 L179 281 L29 440 L29 546 L178 546 L343 360 L343 200 Z " />
<glyph glyph-name="guillemotleft" unicode="&#xab;" horiz-adv-x="656" d="M191 281 L342 121 L342 15 L193 15 L27 200 L27 360 L193 546 L342 546 L342 440 L191 281 Z M478 281 L629 121 L629 15 L481 15 L315 200 L315 360 L481 546 L629 546 L629 440 L478 281 Z " />
<glyph glyph-name="guillemotright" unicode="&#xbb;" horiz-adv-x="656" d="M343 200 L178 15 L29 15 L29 121 L179 281 L29 440 L29 546 L178 546 L343 360 L343 200 Z M629 200 L463 15 L314 15 L314 121 L465 281 L314 440 L314 546 L463 546 L629 360 L629 200 Z " />
<glyph glyph-name="slash" unicode="&#x2f;" horiz-adv-x="432" d="M201 -110 L29 -110 L29 -4 L230 731 L402 731 L402 625 L201 -110 Z " />
<glyph glyph-name="bar" unicode="&#x7c;" horiz-adv-x="316" d="M47 -130 L47 790 L267 790 L267 -130 L47 -130 Z " />
<glyph glyph-name="endash" unicode="&#x2013;" horiz-adv-x="570" d="M27 252 L27 412 L542 412 L542 252 L27 252 Z " />
<glyph glyph-name="emdash" unicode="&#x2014;" horiz-adv-x="870" d="M27 252 L27 412 L842 412 L842 252 L27 252 Z " />
<glyph glyph-name="bullet" unicode="&#x2022;" horiz-adv-x="372" d="M185 492 Q239 492 278.5 471 Q318 450 338 420 L338 253 Q318 221 278.5 199.5 Q239 178 185 178 Q130 178 91.5 200.5 Q53 223 33 254 L33 420 Q53 449 91.5 470.5 Q130 492 185 492 Z " />
<glyph glyph-name="parenleft" unicode="&#x28;" horiz-adv-x="357" d="M318 556 Q292 556 278.5 544 Q265 532 260 514 L260 15 Q265 -5 281.5 -14.5 Q298 -24 318 -24 L331 -24 L331 -168 L318 -168 Q255 -168 207 -152.5 Q159 -137 124 -112.5 Q89 -88 66.5 -57 Q44 -26 33 5 L33 527 Q44 558 66.5 589 Q89 620 124 644.5 Q159 669 207 684.5 Q255 700 318 700 L331 700 L331 556 L318 556 Z " />
<glyph glyph-name="parenright" unicode="&#x29;" horiz-adv-x="357" d="M39 700 Q102 700 150 684.5 Q198 669 233 644.5 Q268 620 290.5 589 Q313 558 324 527 L324 5 Q313 -26 290.5 -57 Q268 -88 233 -112.5 Q198 -137 150 -152.5 Q102 -168 39 -168 L26 -168 L26 -24 L39 -24 Q59 -24 75 -14.5 Q91 -5 96 15 L96 514 Q91 532 77.5 544 Q64 556 39 556 L26 556 L26 700 L39 700 Z " />
<glyph glyph-name="bracketleft" unicode="&#x5b;" horiz-adv-x="369" d="M258 556 L258 -24 L342 -24 L342 -168 L38 -168 L38 700 L342 700 L342 556 L258 556 Z " />
<glyph glyph-name="bracketright" unicode="&#x5d;" horiz-adv-x="369" d="M27 -168 L27 -24 L111 -24 L111 556 L27 556 L27 700 L331 700 L331 -168 L27 -168 Z " />
<glyph glyph-name="braceleft" unicode="&#x7b;" horiz-adv-x="376" d="M292 356 Q282 328 264 303.5 Q246 279 219 259 Q246 240 264 215.5 Q282 191 292 162 L292 40 Q293 24 294.5 10 Q296 -4 302 -14.5 Q308 -25 319 -31.5 Q330 -38 350 -38 L350 -181 Q287 -181 239 -166 Q191 -151 156 -126.5 Q121 -102 98.5 -71 Q76 -40 65 -9 L65 137 Q64 165 56 176 Q48 187 29 187 L29 331 Q48 331 56 342.5 Q64 354 65 381 L65 527 Q76 558 98.5 589 Q121 620 156 644.5 Q191 669 239 684.5 Q287 700 350 700 L350 556 Q330 556 319 550 Q308 544 302 533.5 Q296 523 294.5 508.5 Q293 494 292 478 L292 356 Z " />
<glyph glyph-name="braceright" unicode="&#x7d;" horiz-adv-x="376" d="M311 381 Q312 354 319.5 342.5 Q327 331 347 331 L347 187 Q327 187 319.5 176 Q312 165 311 137 L311 -9 Q300 -40 277.5 -71 Q255 -102 220 -126.5 Q185 -151 137 -166 Q89 -181 26 -181 L26 -38 Q46 -38 57 -31.5 Q68 -25 74 -14.5 Q80 -4 81.5 10 Q83 24 84 40 L84 162 Q94 191 111.5 215.5 Q129 240 156 259 Q129 279 111.5 303.5 Q94 328 84 356 L84 478 Q83 494 81.5 508.5 Q80 523 74 533.5 Q68 544 57 550 Q46 556 26 556 L26 700 Q89 700 137 684.5 Q185 669 220 644.5 Q255 620 277.5 589 Q300 558 311 527 L311 381 Z " />
<glyph glyph-name="asterisk" unicode="&#x2a;" horiz-adv-x="489" d="M452 607 Q458 587 460.5 565.5 Q463 544 459 522 L340 508 L429 426 Q421 407 406 391 Q391 375 374 361 Q357 348 337 339.5 Q317 331 295 328 L244 439 L193 328 Q172 331 152 339.5 Q132 348 115 361 Q98 375 83 391 Q68 407 59 426 L148 508 L29 522 Q25 544 27.5 565.5 Q30 587 37 607 Q44 628 55 647 Q66 666 81 680 L184 622 L161 738 Q181 749 202 753 Q223 757 244 757 Q266 757 287.5 753 Q309 749 327 738 L303 621 L408 680 Q423 666 433.5 647 Q444 628 452 607 Z " />
<glyph glyph-name="dagger" unicode="&#x2020;" horiz-adv-x="657" d="M638 310 L535 310 L430 322 L412 -168 L241 -168 L224 323 L122 310 L19 310 L19 490 L122 490 L219 478 L217 525 L217 700 L437 700 L437 525 L435 478 L535 490 L638 490 L638 310 Z " />
<glyph glyph-name="daggerdbl" unicode="&#x2021;" horiz-adv-x="677" d="M426 207 L535 220 L638 220 L638 40 L535 40 L420 54 L412 -168 L241 -168 L233 54 L122 40 L19 40 L19 220 L122 220 L228 207 L223 352 L122 340 L19 340 L19 520 L122 520 L218 508 L217 525 L217 700 L437 700 L437 525 L436 508 L535 520 L638 520 L638 340 L535 340 L431 352 L426 207 Z " />
<glyph glyph-name="section" unicode="&#xa7;" horiz-adv-x="533" d="M266 580 Q249 580 235.5 573.5 Q222 567 217 558 L217 526 Q221 518 234 513.5 Q247 509 261 506 L308 496 Q356 487 390.5 474.5 Q425 462 448.5 449.5 Q472 437 485 425 Q498 413 504 404 L504 248 Q494 231 469 209 Q483 199 491.5 190 Q500 181 504 174 L504 21 Q497 10 480 -8.5 Q463 -27 434.5 -45 Q406 -63 364.5 -76 Q323 -89 266 -89 Q209 -89 168 -76 Q127 -63 98.5 -45 Q70 -27 53 -8.5 Q36 10 29 21 L29 84 L211 84 Q213 67 228.5 57.5 Q244 48 267 48 Q284 48 298 54 Q312 60 317 69 L317 101 Q313 109 300 114 Q287 119 273 121 L225 131 Q177 140 142 152.5 Q107 165 84 177.5 Q61 190 48 202 Q35 214 29 223 L29 379 Q39 396 64 418 Q37 438 29 454 L29 606 Q36 617 53 635.5 Q70 654 99 672 Q128 690 169.5 703 Q211 716 267 716 Q324 716 365.5 702.5 Q407 689 435.5 671 Q464 653 480.5 634.5 Q497 616 504 606 L504 544 L323 544 Q320 560 304.5 570 Q289 580 266 580 Z M317 329 Q313 337 301 342.5 Q289 348 273 351 L262 353 Q245 352 233.5 345.5 Q222 339 217 331 L217 298 Q220 290 232.5 284.5 Q245 279 260 276 L271 274 Q288 275 300 281.5 Q312 288 317 296 L317 329 Z " />
<glyph glyph-name="paragraph" unicode="&#xb6;" horiz-adv-x="679" d="M280 -100 L280 215 L251 215 Q210 215 175.5 225 Q141 235 113.5 252 Q86 269 65 290.5 Q44 312 31 336 L31 580 Q66 640 124 670 Q182 700 251 700 L428 700 L428 -100 L280 -100 Z M487 -100 L487 700 L636 700 L636 -100 L487 -100 Z " />
<glyph glyph-name="asciicircum" unicode="&#x5e;" horiz-adv-x="496" d="M468 342 L337 342 L259 497 L238 497 L161 342 L29 342 L29 460 L158 700 L338 700 L468 460 L468 342 Z " />
<glyph glyph-name="asciitilde" unicode="&#x7e;" horiz-adv-x="588" d="M173 473 Q209 473 243 465 Q277 457 310 447.5 Q343 438 375.5 430 Q408 422 441 422 Q466 422 486.5 429 Q507 436 522 444 Q540 454 553 466 L553 295 Q540 285 523 278 Q509 271 488.5 266 Q468 261 442 261 Q403 261 369 269 Q335 277 302.5 286.5 Q270 296 238 304 Q206 312 171 312 Q142 312 117 304 Q92 296 74 286 Q53 275 35 261 L35 427 Q51 439 72 450 Q90 458 115.5 465.5 Q141 473 173 473 Z " />
<glyph glyph-name="brokenbar" unicode="&#xa6;" horiz-adv-x="316" d="M47 379 L47 790 L267 790 L267 379 L47 379 Z M47 -130 L47 324 L267 324 L267 -130 L47 -130 Z " />
<glyph glyph-name="backslash" unicode="&#x5c;" horiz-adv-x="432" d="M402 -110 L230 -110 L29 625 L29 731 L201 731 L402 -4 L402 -110 Z " />
<glyph glyph-name="underscore" unicode="&#x5f;" horiz-adv-x="537" d="M-5 -164 L-5 -39 L542 -39 L542 -164 L-5 -164 Z " />
<glyph glyph-name="quotesingle" unicode="&#x27;" horiz-adv-x="228" d="M177 389 L50 389 L26 540 L26 700 L201 700 L201 541 L177 389 Z " />
<glyph glyph-name="quotedbl" unicode="&#x22;" horiz-adv-x="457" d="M177 389 L50 389 L26 540 L26 700 L201 700 L201 541 L177 389 Z M406 389 L279 389 L255 540 L255 700 L430 700 L430 541 L406 389 Z " />
<glyph glyph-name="at" unicode="&#x40;" horiz-adv-x="905" d="M465 716 Q555 716 627 690 Q699 664 752 625 Q805 586 838.5 540 Q872 494 886 453 L886 103 Q872 84 852 70 Q832 56 808.5 47 Q785 38 759.5 34 Q734 30 709 30 Q650 30 608 47 Q566 64 534 97 Q508 71 473 54.5 Q438 38 390 38 Q356 38 328 49.5 Q300 61 279 79 Q258 97 244 118.5 Q230 140 224 159 L224 388 Q230 407 243 428.5 Q256 450 276 468 Q296 486 323 497.5 Q350 509 384 509 Q424 509 452.5 495.5 Q481 482 502 461 L502 495 L680 495 L680 147 Q692 130 723 130 Q739 130 748 134.5 Q757 139 765 147 L765 429 Q754 454 731 485 Q708 516 671 543 Q634 570 582 588.5 Q530 607 460 607 Q408 607 361 595.5 Q314 584 274.5 561 Q235 538 204.5 504 Q174 470 155 425 L155 129 Q174 84 205.5 50 Q237 16 276.5 -7 Q316 -30 363 -42 Q410 -54 460 -54 Q506 -54 547.5 -44 Q589 -34 627 -12 L687 -99 Q637 -129 580 -145.5 Q523 -162 460 -162 Q387 -162 320.5 -144.5 Q254 -127 198.5 -93.5 Q143 -60 101 -11.5 Q59 37 34 99 L34 455 Q58 517 103 565.5 Q148 614 205.5 647.5 Q263 681 330 698.5 Q397 716 465 716 Z M451 169 Q468 169 481 174.5 Q494 180 502 188 L502 359 Q494 367 481 372.5 Q468 378 450 378 Q432 378 419.5 371 Q407 364 405 358 L405 189 Q408 184 420 176.5 Q432 169 451 169 Z " />
<glyph glyph-name="copyright" unicode="&#xa9;" horiz-adv-x="784" d="M392 716 Q468 716 535 687.5 Q602 659 652 609.5 Q702 560 731.5 493.5 Q761 427 761 350 Q761 273 731.5 206.5 Q702 140 652 90.5 Q602 41 535 12.5 Q468 -16 392 -16 Q316 -16 249 12.5 Q182 41 131.5 90.5 Q81 140 52 206.5 Q23 273 23 350 Q23 427 52 493.5 Q81 560 131.5 609.5 Q182 659 249 687.5 Q316 716 392 716 Z M392 640 Q332 640 280 617.5 Q228 595 190 555.5 Q152 516 130 463 Q108 410 108 350 Q108 290 130 237 Q152 184 190 144.5 Q228 105 280 82.5 Q332 60 392 60 Q452 60 504 82.5 Q556 105 594.5 144.5 Q633 184 654.5 237 Q676 290 676 350 Q676 410 654.5 463 Q633 516 594.5 555.5 Q556 595 504 617.5 Q452 640 392 640 Z M390 582 Q438 582 472.5 571.5 Q507 561 530.5 546 Q554 531 568 516 Q582 501 588 492 L588 426 L443 426 Q441 438 429 448.5 Q417 459 394 459 Q378 459 367 453.5 Q356 448 352 441 L352 259 Q356 252 367 246.5 Q378 241 394 241 Q417 241 429 251.5 Q441 262 443 274 L588 274 L588 208 Q582 199 568 184 Q554 169 530.5 154 Q507 139 472.5 128.5 Q438 118 390 118 Q342 118 306.5 130 Q271 142 246.5 159.5 Q222 177 207 196 Q192 215 186 229 L186 471 Q192 484 207 503.5 Q222 523 246.5 540 Q271 557 306.5 569.5 Q342 582 390 582 Z " />
<glyph glyph-name="registered" unicode="&#xae;" horiz-adv-x="518" d="M259 824 Q308 824 352 805 Q396 786 429 753.5 Q462 721 481.5 677.5 Q501 634 501 585 Q501 536 481.5 492.5 Q462 449 429 416.5 Q396 384 352 365 Q308 346 259 346 Q210 346 166 365 Q122 384 89 416.5 Q56 449 36.5 492.5 Q17 536 17 585 Q17 634 36.5 677.5 Q56 721 89 753.5 Q122 786 166 805 Q210 824 259 824 Z M259 398 Q298 398 331.5 412.5 Q365 427 390 452.5 Q415 478 429.5 512 Q444 546 444 585 Q444 624 429.5 658 Q415 692 390 717.5 Q365 743 331.5 757.5 Q298 772 259 772 Q220 772 186.5 757.5 Q153 743 128 717.5 Q103 692 89 658 Q75 624 75 585 Q75 546 89 512 Q103 478 128 452.5 Q153 427 186.5 412.5 Q220 398 259 398 Z M286 721 Q312 721 337.5 707 Q363 693 374 668 L374 586 Q364 563 341 550 L374 510 L374 459 L297 459 L260 535 L237 535 L237 459 L152 459 L152 721 L286 721 Z M268 598 Q274 598 280.5 600.5 Q287 603 289 609 L289 645 Q287 650 280.5 652.5 Q274 655 268 655 L237 655 L237 598 L268 598 Z " />
<glyph glyph-name="trademark" unicode="&#x2122;" horiz-adv-x="821" d="M232 595 L232 310 L99 310 L99 595 L20 595 L20 700 L312 700 L312 595 L232 595 Z M665 310 L665 493 L663 493 L597 310 L530 310 L464 493 L462 493 L462 310 L338 310 L338 700 L509 700 L566 543 L568 543 L626 700 L789 700 L789 310 L665 310 Z " />
<glyph glyph-name="uni2117" unicode="&#x2117;" horiz-adv-x="784" d="M392 716 Q468 716 535 687.5 Q602 659 652 609.5 Q702 560 731.5 493.5 Q761 427 761 350 Q761 273 731.5 206.5 Q702 140 652 90.5 Q602 41 535 12.5 Q468 -16 392 -16 Q316 -16 249 12.5 Q182 41 131.5 90.5 Q81 140 52 206.5 Q23 273 23 350 Q23 427 52 493.5 Q81 560 131.5 609.5 Q182 659 249 687.5 Q316 716 392 716 Z M392 640 Q332 640 280 617.5 Q228 595 190 555.5 Q152 516 130 463 Q108 410 108 350 Q108 290 130 237 Q152 184 190 144.5 Q228 105 280 82.5 Q332 60 392 60 Q452 60 504 82.5 Q556 105 594.5 144.5 Q633 184 654.5 237 Q676 290 676 350 Q676 410 654.5 463 Q633 516 594.5 555.5 Q556 595 504 617.5 Q452 640 392 640 Z M445 559 Q490 559 528.5 535 Q567 511 584 473 L584 338 Q567 299 528.5 275.5 Q490 252 445 252 L378 252 L378 142 L239 142 L239 559 L445 559 Z M378 353 L420 353 Q428 353 437 357.5 Q446 362 450 372 L450 440 Q446 449 437 453.5 Q428 458 420 458 L378 458 L378 353 Z " />
<glyph glyph-name="currency" unicode="&#xa4;" horiz-adv-x="591" d="M535 480 Q543 468 550 454 L550 208 Q547 202 544 196 Q541 190 536 183 L551 168 L551 71 L421 71 L406 86 Q357 69 295 69 Q263 69 236 73 Q209 77 186 85 L171 71 L39 71 L39 168 L54 183 Q49 190 46 196 Q43 202 40 208 L40 454 Q47 468 55 480 L39 496 L39 593 L171 593 L187 577 Q210 585 237 589 Q264 593 295 593 Q327 593 354.5 589 Q382 585 405 577 L421 593 L551 593 L551 496 L535 480 Z M347 418 Q342 427 328.5 434 Q315 441 295 441 Q276 441 262.5 434 Q249 427 244 418 L244 244 Q249 235 262.5 228 Q276 221 295 221 Q315 221 328.5 228 Q342 235 347 244 L347 418 Z " />
<glyph glyph-name="Euro" unicode="&#x20ac;" horiz-adv-x="603" d="M329 559 Q309 559 294.5 551.5 Q280 544 275 535 L275 468 L466 468 L466 370 L275 370 L275 334 L466 334 L466 236 L275 236 L275 165 Q280 156 294.5 148.5 Q309 141 329 141 Q358 141 373.5 156.5 Q389 172 395 197 L577 197 L577 93 Q570 84 552 65.5 Q534 47 503.5 29 Q473 11 429.5 -2.5 Q386 -16 329 -16 Q271 -16 226 -2 Q181 12 148 32.5 Q115 53 94 76.5 Q73 100 63 120 L63 236 L25 236 L25 334 L63 334 L63 370 L25 370 L25 468 L63 468 L63 580 Q73 599 94 623 Q115 647 148 667.5 Q181 688 226 702 Q271 716 329 716 Q386 716 429.5 702.5 Q473 689 503.5 671 Q534 653 552 634.5 Q570 616 577 607 L577 503 L395 503 Q389 528 373.5 543.5 Q358 559 329 559 Z " />
<glyph glyph-name="dollar" unicode="&#x24;" horiz-adv-x="601" d="M327 439 Q386 425 427.5 409 Q469 393 497 376.5 Q525 360 542 343 Q559 326 568 309 L568 120 Q559 105 544.5 86.5 Q530 68 507.5 50 Q485 32 454.5 16.5 Q424 1 383 -8 L383 -89 L219 -89 L219 -8 Q178 0 147 15 Q116 30 93.5 48 Q71 66 56.5 85 Q42 104 34 120 L34 208 L224 208 Q232 178 252 164 Q272 150 298 150 Q321 150 335.5 158.5 Q350 167 356 177 L356 236 Q348 254 308 264 L276 272 Q219 286 178 301.5 Q137 317 109.5 333 Q82 349 65 366 Q48 383 39 400 L39 581 Q46 595 60.5 613.5 Q75 632 97 650 Q119 668 149 683.5 Q179 699 219 708 L219 790 L383 790 L383 708 Q422 699 452.5 684 Q483 669 505 651 Q527 633 541 614.5 Q555 596 562 581 L562 494 L373 494 Q366 518 350.5 534.5 Q335 551 304 551 Q284 551 270 542.5 Q256 534 251 525 L251 474 Q259 456 295 447 L327 439 Z " />
<glyph glyph-name="cent" unicode="&#xa2;" horiz-adv-x="554" d="M286 405 Q267 405 254 398 Q241 391 236 382 L236 165 Q241 155 254 148 Q267 141 286 141 Q331 141 348 181 L526 181 L526 96 Q521 88 509 74 Q497 60 478 45 Q459 30 432 16 Q405 2 369 -7 L369 -90 L205 -90 L205 -7 Q168 1 139 16 Q110 31 89 49.5 Q68 68 54 87.5 Q40 107 32 124 L32 423 Q40 440 54 459.5 Q68 479 89 497 Q110 515 139 530 Q168 545 205 553 L205 636 L369 636 L369 553 Q405 545 432 531 Q459 517 478 502 Q497 487 509 473 Q521 459 526 450 L526 365 L348 365 Q331 405 286 405 Z " />
<glyph glyph-name="sterling" unicode="&#xa3;" horiz-adv-x="609" d="M329 559 Q310 559 295 551.5 Q280 544 275 535 L275 403 L481 403 L481 286 L275 286 L275 212 Q270 200 264 187.5 Q258 175 249 163 L577 163 L577 0 L35 0 L35 136 Q43 137 51.5 142.5 Q60 148 64 161 L64 286 L25 286 L25 403 L64 403 L64 580 Q74 599 95 623 Q116 647 149 667.5 Q182 688 227 702 Q272 716 329 716 Q386 716 429.5 702.5 Q473 689 504 671 Q535 653 553 634.5 Q571 616 577 607 L577 503 L395 503 Q390 528 374 543.5 Q358 559 329 559 Z " />
<glyph glyph-name="florin" unicode="&#x192;" horiz-adv-x="411" d="M343 565 Q318 565 309 559 Q300 553 297 547 L297 517 L371 517 L371 371 L297 371 L297 -81 Q291 -99 277.5 -117 Q264 -135 242 -149 Q220 -163 190 -171.5 Q160 -180 121 -180 Q83 -180 53.5 -175 Q24 -170 10 -166 L10 -31 L48 -31 Q72 -31 81 -25 Q90 -19 93 -13 L93 371 L42 371 L42 517 L93 517 L93 615 Q99 633 112.5 651 Q126 669 148 683.5 Q170 698 200 706.5 Q230 715 269 715 Q307 715 337 710 Q367 705 381 700 L381 565 L343 565 Z " />
<glyph glyph-name="yen" unicode="&#xa5;" horiz-adv-x="621" d="M437 295 L595 295 L595 197 L416 197 L416 0 L195 0 L195 197 L26 197 L26 295 L185 295 L156 350 L26 350 L26 448 L104 448 L31 584 L31 700 L228 700 L316 480 L319 480 L408 700 L591 700 L591 584 L519 448 L595 448 L595 350 L467 350 L437 295 Z " />
<glyph glyph-name="uni20A8" unicode="&#x20a8;" horiz-adv-x="509" d="M411 602 Q415 597 418.5 591 Q422 585 426 579 L426 510 L490 510 L490 412 L426 412 L426 361 Q404 320 367.5 292 Q331 264 286 250 L425 106 L425 0 L235 0 L35 239 L35 365 L156 365 Q178 365 193.5 371.5 Q209 378 215 392 L215 412 L35 412 L35 510 L215 510 L215 532 Q208 544 193 551.5 Q178 559 156 559 L35 559 L35 700 L490 700 L490 602 L411 602 Z " />
<glyph glyph-name="uni20BA" unicode="&#x20ba;" horiz-adv-x="607" d="M576 109 Q571 99 553 81 Q535 63 504 45 Q473 27 429 13.5 Q385 0 328 0 L79 0 L79 187 L21 159 L21 272 L79 300 L79 353 L21 325 L21 437 L79 465 L79 700 L290 700 L290 568 L441 642 L441 529 L290 456 L290 403 L441 476 L441 364 L290 290 L290 157 L328 157 Q358 157 373 172.5 Q388 188 394 213 L576 213 L576 109 Z " />
<glyph glyph-name="uni20BD" unicode="&#x20bd;" horiz-adv-x="629" d="M385 700 Q454 700 511.5 670 Q569 640 604 580 L604 376 Q591 352 570.5 330.5 Q550 309 522.5 292 Q495 275 460.5 265 Q426 255 385 255 L281 255 L281 215 L499 215 L499 117 L281 117 L281 0 L61 0 L61 117 L20 117 L20 215 L61 215 L61 255 L20 255 L20 396 L61 396 L61 700 L385 700 Z M393 513 Q385 527 369.5 533.5 Q354 540 334 540 L281 540 L281 396 L334 396 Q355 396 370.5 402.5 Q386 409 393 423 L393 513 Z " />
<glyph glyph-name="ordfeminine" unicode="&#xaa;" horiz-adv-x="405" d="M199 713 Q235 713 263 704 Q291 695 312 680.5 Q333 666 346 648.5 Q359 631 365 614 L365 352 L249 352 L249 371 Q232 359 209.5 351 Q187 343 158 343 Q131 343 111 349 Q91 355 76.5 363 Q62 371 53.5 380.5 Q45 390 41 398 L41 499 Q45 507 54 518 Q63 529 77.5 539 Q92 549 111.5 556 Q131 563 158 563 L245 563 L245 598 Q240 611 228.5 619 Q217 627 199 627 Q182 627 169 618 Q156 609 151 596 L48 596 L48 638 Q53 647 64 659.5 Q75 672 93 684 Q111 696 137 704.5 Q163 713 199 713 Z M196 426 Q215 426 227 430.5 Q239 435 245 442 L245 490 L196 490 Q178 490 169 483.5 Q160 477 156 471 L156 445 Q159 439 168.5 432.5 Q178 426 196 426 Z " />
<glyph glyph-name="ordmasculine" unicode="&#xba;" horiz-adv-x="412" d="M206 713 Q242 713 270 704 Q298 695 319 680.5 Q340 666 353 648.5 Q366 631 372 614 L372 442 Q366 424 353 406.5 Q340 389 319 374.5 Q298 360 270 351.5 Q242 343 206 343 Q170 343 142 351.5 Q114 360 94 374.5 Q74 389 60.5 406.5 Q47 424 41 442 L41 614 Q47 631 60.5 648.5 Q74 666 94 680.5 Q114 695 142 704 Q170 713 206 713 Z M206 623 Q189 623 177 614.5 Q165 606 160 594 L160 459 Q165 448 177 441 Q189 434 206 434 Q223 434 235.5 441 Q248 448 252 459 L252 594 Q248 606 235.5 614.5 Q223 623 206 623 Z " />
<glyph glyph-name="numbersign" unicode="&#x23;" horiz-adv-x="558" d="M466 322 L503 322 L503 178 L443 178 L415 0 L274 0 L274 106 L286 178 L215 178 L186 0 L46 0 L46 106 L58 178 L21 178 L21 322 L81 322 L91 390 L55 390 L55 534 L114 534 L141 700 L282 700 L282 594 L272 534 L342 534 L369 700 L510 700 L510 594 L500 534 L537 534 L537 390 L477 390 L466 322 Z M249 390 L238 322 L309 322 L319 390 L249 390 Z " />
<glyph glyph-name="uni2116" unicode="&#x2116;" horiz-adv-x="1062" d="M840 708 Q885 708 919 697 Q953 686 977.5 669.5 Q1002 653 1017.5 633.5 Q1033 614 1041 598 L1041 446 Q1033 429 1017.5 410 Q1002 391 977.5 374.5 Q953 358 919 347 Q885 336 840 336 Q795 336 761 347 Q727 358 702.5 374.5 Q678 391 662.5 410 Q647 429 640 446 L640 598 Q647 614 662.5 633.5 Q678 653 702.5 669.5 Q727 686 761 697 Q795 708 840 708 Z M375 0 L249 319 L246 319 L246 0 L43 0 L43 700 L259 700 L384 380 L387 380 L387 700 L591 700 L591 0 L375 0 Z M840 595 Q821 595 808.5 587.5 Q796 580 791 571 L791 473 Q796 464 808.5 457 Q821 450 840 450 Q859 450 871.5 457 Q884 464 889 473 L889 571 Q884 580 871.5 587.5 Q859 595 840 595 Z M640 184 L640 306 L1041 306 L1041 184 L640 184 Z " />
<glyph glyph-name="zero" unicode="0" horiz-adv-x="601" d="M300 716 Q357 716 402 702 Q447 688 480 667.5 Q513 647 534.5 623 Q556 599 566 580 L566 120 Q556 100 534.5 76.5 Q513 53 480 32.5 Q447 12 402 -2 Q357 -16 300 -16 Q243 -16 198 -2 Q153 12 120 32.5 Q87 53 66 76.5 Q45 100 35 120 L35 580 Q45 599 66 623 Q87 647 120 667.5 Q153 688 198 702 Q243 716 300 716 Z M300 559 Q281 559 266 551.5 Q251 544 246 535 L246 165 Q251 156 266 148.5 Q281 141 300 141 Q320 141 334.5 148.5 Q349 156 354 165 L354 535 Q349 544 334.5 551.5 Q320 559 300 559 Z " />
<glyph glyph-name="one" unicode="1" horiz-adv-x="467" d="M442 139 L442 0 L39 0 L39 139 L139 139 L139 503 L39 467 L39 614 L193 700 L351 700 L351 139 L442 139 Z " />
<glyph glyph-name="two" unicode="2" horiz-adv-x="577" d="M280 716 Q338 716 382.5 702 Q427 688 460 667.5 Q493 647 514 623 Q535 599 545 580 L545 424 Q539 409 531 395.5 Q523 382 509 367.5 Q495 353 473 337 Q451 321 418 303 L336 256 Q298 235 273.5 218.5 Q249 202 243 188 L243 166 L545 166 L545 0 L32 0 L32 231 Q47 273 85 305 Q123 337 168 363 L269 420 Q298 437 313.5 451 Q329 465 334 481 L334 536 Q328 544 314 551.5 Q300 559 281 559 Q256 559 238.5 547 Q221 535 214 503 L32 503 L32 607 Q40 617 58 635.5 Q76 654 106.5 672 Q137 690 180 703 Q223 716 280 716 Z " />
<glyph glyph-name="three" unicode="3" horiz-adv-x="573" d="M275 716 Q332 716 377 702 Q422 688 455 667.5 Q488 647 509 623.5 Q530 600 539 581 L539 429 Q531 415 507.5 397 Q484 379 454 363 Q484 345 507 323.5 Q530 302 540 283 L540 120 Q531 101 510 77.5 Q489 54 456 33 Q423 12 378 -2 Q333 -16 275 -16 Q218 -16 174.5 -3 Q131 10 100.5 28 Q70 46 52 64.5 Q34 83 27 93 L27 197 L209 197 Q220 141 275 141 Q295 141 309.5 148.5 Q324 156 329 165 L329 247 Q324 261 310 271 Q296 281 276 281 L176 281 L176 430 L275 430 Q294 430 308.5 439 Q323 448 328 459 L328 536 Q323 545 309 552 Q295 559 275 559 Q243 559 229 543 Q215 527 210 504 L28 504 L28 608 Q35 618 53 636 Q71 654 101.5 672 Q132 690 175 703 Q218 716 275 716 Z " />
<glyph glyph-name="four" unicode="4" horiz-adv-x="614" d="M595 282 L595 127 L531 127 L531 0 L329 0 L329 127 L26 127 L26 276 L241 700 L531 700 L531 282 L595 282 Z M216 282 L329 282 L329 505 L326 505 L216 282 Z " />
<glyph glyph-name="five" unicode="5" horiz-adv-x="561" d="M230 532 L230 411 Q254 428 284 438 Q314 448 352 448 Q385 448 414 439.5 Q443 431 466 417 Q489 403 505.5 385.5 Q522 368 531 349 L531 93 Q523 82 504.5 63.5 Q486 45 456 27.5 Q426 10 383 -3 Q340 -16 283 -16 Q226 -16 183 -3.5 Q140 9 110 26.5 Q80 44 62 62.5 Q44 81 35 93 L35 197 L217 197 Q222 171 238 156 Q254 141 283 141 Q302 141 317 148 Q332 155 337 165 L337 282 Q332 291 317.5 298.5 Q303 306 286 306 Q263 306 250 297.5 Q237 289 230 279 L36 279 L36 700 L530 700 L530 532 L230 532 Z " />
<glyph glyph-name="six" unicode="6" horiz-adv-x="583" d="M300 559 Q281 559 266.5 551.5 Q252 544 247 535 L247 410 Q273 427 303.5 437 Q334 447 372 447 Q440 447 485 417.5 Q530 388 548 349 L548 93 Q541 84 523 65.5 Q505 47 474.5 29 Q444 11 400.5 -2.5 Q357 -16 300 -16 Q243 -16 198 -2 Q153 12 120 32.5 Q87 53 66 76.5 Q45 100 35 120 L35 580 Q45 601 66.5 624.5 Q88 648 120.5 668.5 Q153 689 198 702.5 Q243 716 300 716 Q357 716 400.5 703 Q444 690 474 672.5 Q504 655 522 636.5 Q540 618 548 607 L548 503 L366 503 Q361 529 345 544 Q329 559 300 559 Z M298 305 Q271 305 247 293 L247 165 Q252 156 266.5 148.5 Q281 141 300 141 Q320 141 334.5 148.5 Q349 156 354 165 L354 282 Q349 291 334 298 Q319 305 298 305 Z " />
<glyph glyph-name="seven" unicode="7" horiz-adv-x="529" d="M276 0 L89 0 L89 116 L299 534 L18 534 L18 700 L508 700 L508 550 L276 0 Z " />
<glyph glyph-name="eight" unicode="8" horiz-adv-x="600" d="M507 368 Q531 352 546 336 Q561 320 569 304 L569 120 Q558 102 538.5 78.5 Q519 55 486.5 34 Q454 13 408.5 -1.5 Q363 -16 300 -16 Q238 -16 192 -1.5 Q146 13 114 34 Q82 55 62 78.5 Q42 102 32 120 L32 304 Q40 319 55.5 333 Q71 347 95 360 Q73 375 59.5 390.5 Q46 406 38 420 L38 582 Q47 600 66.5 623 Q86 646 118 666.5 Q150 687 195 701.5 Q240 716 300 716 Q360 716 405.5 701.5 Q451 687 482.5 666.5 Q514 646 534 623 Q554 600 563 582 L563 420 Q548 391 507 368 Z M248 468 Q258 450 294 441 L317 436 Q332 442 340.5 451 Q349 460 352 468 L352 535 Q346 544 333.5 552 Q321 560 300 560 Q279 560 266.5 552 Q254 544 248 535 L248 468 Z M357 257 Q347 276 306 285 L282 290 Q265 283 255 273.5 Q245 264 243 257 L243 167 Q250 156 263.5 148 Q277 140 300 140 Q323 140 337 148 Q351 156 357 167 L357 257 Z " />
<glyph glyph-name="nine" unicode="9" horiz-adv-x="583" d="M283 716 Q340 716 385 702 Q430 688 463 667.5 Q496 647 517 623 Q538 599 548 580 L548 120 Q537 99 516 75.5 Q495 52 462.5 31.5 Q430 11 385 -2.5 Q340 -16 283 -16 Q226 -16 182.5 -3 Q139 10 109 27.5 Q79 45 60.5 63.5 Q42 82 35 93 L35 197 L217 197 Q222 171 238 156 Q254 141 283 141 Q302 141 317 148.5 Q332 156 337 165 L337 278 Q311 261 280 251 Q249 241 211 241 Q144 241 99 271 Q54 301 35 340 L35 607 Q42 616 60 634.5 Q78 653 108.5 671 Q139 689 182.5 702.5 Q226 716 283 716 Z M286 384 Q300 384 312 387 Q324 390 337 396 L337 535 Q332 544 317 551.5 Q302 559 283 559 Q263 559 248.5 551.5 Q234 544 229 535 L229 407 Q234 398 249 391 Q264 384 286 384 Z " />
<glyph glyph-name="uni00A0" unicode="&#xa0;" horiz-adv-x="200" d="" />
<glyph glyph-name="fraction" unicode="&#x2044;" horiz-adv-x="209" d="M-83 0 L-171 0 L-171 82 L293 700 L380 700 L380 618 L-83 0 Z " />
<glyph glyph-name="onequarter" unicode="&#xbc;" horiz-adv-x="946" d="M285 0 L197 0 L197 82 L661 700 L748 700 L748 618 L285 0 Z M310 371 L310 280 L40 280 L40 371 L105 371 L105 585 L40 585 L40 669 L126 700 L248 700 L248 371 L310 371 Z M909 174 L909 69 L865 69 L865 0 L729 0 L729 69 L516 69 L516 170 L676 420 L865 420 L865 174 L909 174 Z M649 174 L729 174 L729 298 L726 298 L649 174 Z " />
<glyph glyph-name="onehalf" unicode="&#xbd;" horiz-adv-x="992" d="M312 371 L312 280 L42 280 L42 371 L107 371 L107 585 L42 585 L42 669 L128 700 L250 700 L250 371 L312 371 Z M285 0 L197 0 L197 82 L661 700 L748 700 L748 618 L285 0 Z M802 148 Q785 139 770 129.5 Q755 120 748 112 L948 112 L948 0 L599 0 L599 115 Q608 141 634 163.5 Q660 186 692 206 L762 248 Q780 259 790 266 Q800 273 805 282 L805 313 Q794 322 768 322 Q746 322 736 313 Q726 304 724 296 L599 296 L599 365 Q603 372 616 383.5 Q629 395 650 405.5 Q671 416 700.5 423.5 Q730 431 768 431 Q806 431 836.5 422.5 Q867 414 890 401.5 Q913 389 927.5 374.5 Q942 360 948 347 L948 258 Q940 238 919 220 Q898 202 857 179 L802 148 Z " />
<glyph glyph-name="threequarters" unicode="&#xbe;" horiz-adv-x="979" d="M320 0 L232 0 L232 82 L696 700 L783 700 L783 618 L320 0 Z M941 174 L941 69 L897 69 L897 0 L761 0 L761 69 L548 69 L548 170 L708 420 L897 420 L897 174 L941 174 Z M681 174 L761 174 L761 298 L758 298 L681 174 Z M209 710 Q248 710 278.5 701.5 Q309 693 331.5 681 Q354 669 368 654.5 Q382 640 388 628 L388 534 Q383 526 368.5 515 Q354 504 334 496 Q355 487 368.5 475 Q382 463 389 452 L389 352 Q383 341 368.5 326.5 Q354 312 331.5 299.5 Q309 287 278 278.5 Q247 270 208 270 Q169 270 139 278 Q109 286 88.5 296.5 Q68 307 55.5 318 Q43 329 38 334 L38 403 L162 403 Q165 392 177.5 385 Q190 378 208 378 Q237 378 246 387 L246 428 Q239 441 209 441 L146 441 L146 542 L209 542 Q222 542 231.5 545.5 Q241 549 246 554 L246 593 Q235 602 209 602 Q190 602 179.5 594.5 Q169 587 166 578 L42 578 L42 647 Q47 653 59 663.5 Q71 674 91 684.5 Q111 695 140.5 702.5 Q170 710 209 710 Z " />
<glyph glyph-name="fiveeighths" unicode="&#x215d;" horiz-adv-x="1031" d="M951 217 Q970 205 982 192.5 Q994 180 1001 169 L1001 72 Q994 60 980 46 Q966 32 943.5 19.5 Q921 7 890.5 -1.5 Q860 -10 821 -10 Q782 -10 751.5 -1.5 Q721 7 698.5 19.5 Q676 32 662 46 Q648 60 641 72 L641 169 Q647 180 659.5 192.5 Q672 205 691 217 Q676 226 667 234.5 Q658 243 653 248 L653 365 Q658 371 670.5 381.5 Q683 392 703.5 403 Q724 414 753 422 Q782 430 821 430 Q860 430 889.5 422 Q919 414 939 403 Q959 392 971.5 381 Q984 370 989 365 L989 248 Q984 243 975 235 Q966 227 951 217 Z M784 268 Q789 265 798 262.5 Q807 260 821 260 Q835 260 844.5 262.5 Q854 265 858 268 L858 319 Q854 322 844.5 325 Q835 328 821 328 Q807 328 798 325 Q789 322 784 319 L784 268 Z M858 163 Q855 166 845 169 Q835 172 821 172 Q807 172 797 169 Q787 166 784 163 L784 101 Q787 97 797 94.5 Q807 92 821 92 Q835 92 845 94.5 Q855 97 858 101 L858 163 Z M168 588 L168 533 Q185 543 205 548.5 Q225 554 251 554 Q297 554 329.5 536.5 Q362 519 373 498 L373 334 Q368 328 356 317.5 Q344 307 323.5 296.5 Q303 286 273.5 278 Q244 270 205 270 Q166 270 136.5 277.5 Q107 285 86 295.5 Q65 306 52 317 Q39 328 34 334 L34 403 L158 403 Q165 378 205 378 Q218 378 228 380.5 Q238 383 242 388 L242 449 Q239 453 229.5 456 Q220 459 206 459 Q192 459 182 454.5 Q172 450 168 446 L37 446 L37 700 L372 700 L372 588 L168 588 Z M330 0 L242 0 L242 82 L706 700 L793 700 L793 618 L330 0 Z " />
<glyph glyph-name="oneeighth" unicode="&#x215b;" horiz-adv-x="987" d="M286 0 L198 0 L198 82 L662 700 L749 700 L749 618 L286 0 Z M305 371 L305 280 L35 280 L35 371 L100 371 L100 585 L35 585 L35 669 L121 700 L243 700 L243 371 L305 371 Z M907 217 Q926 205 938 192.5 Q950 180 957 169 L957 72 Q950 60 936 46 Q922 32 899.5 19.5 Q877 7 846.5 -1.5 Q816 -10 777 -10 Q738 -10 707.5 -1.5 Q677 7 654.5 19.5 Q632 32 618 46 Q604 60 597 72 L597 169 Q603 180 615.5 192.5 Q628 205 647 217 Q632 226 623 234.5 Q614 243 609 248 L609 365 Q614 371 626.5 381.5 Q639 392 659.5 403 Q680 414 709 422 Q738 430 777 430 Q816 430 845.5 422 Q875 414 895 403 Q915 392 927.5 381 Q940 370 945 365 L945 248 Q940 243 931 235 Q922 227 907 217 Z M740 268 Q745 265 754 262.5 Q763 260 777 260 Q791 260 800.5 262.5 Q810 265 814 268 L814 319 Q810 322 800.5 325 Q791 328 777 328 Q763 328 754 325 Q745 322 740 319 L740 268 Z M814 163 Q811 166 801 169 Q791 172 777 172 Q763 172 753 169 Q743 166 740 163 L740 101 Q743 97 753 94.5 Q763 92 777 92 Q791 92 801 94.5 Q811 97 814 101 L814 163 Z " />
<glyph glyph-name="seveneighths" unicode="&#x215e;" horiz-adv-x="966" d="M889 217 Q908 205 920 192.5 Q932 180 939 169 L939 72 Q932 60 918 46 Q904 32 881.5 19.5 Q859 7 828.5 -1.5 Q798 -10 759 -10 Q720 -10 689.5 -1.5 Q659 7 636.5 19.5 Q614 32 600 46 Q586 60 579 72 L579 169 Q585 180 597.5 192.5 Q610 205 629 217 Q614 226 605 234.5 Q596 243 591 248 L591 365 Q596 371 608.5 381.5 Q621 392 641.5 403 Q662 414 691 422 Q720 430 759 430 Q798 430 827.5 422 Q857 414 877 403 Q897 392 909.5 381 Q922 370 927 365 L927 248 Q922 243 913 235 Q904 227 889 217 Z M722 268 Q727 265 736 262.5 Q745 260 759 260 Q773 260 782.5 262.5 Q792 265 796 268 L796 319 Q792 322 782.5 325 Q773 328 759 328 Q745 328 736 325 Q727 322 722 319 L722 268 Z M796 163 Q793 166 783 169 Q773 172 759 172 Q745 172 735 169 Q725 166 722 163 L722 101 Q725 97 735 94.5 Q745 92 759 92 Q773 92 783 94.5 Q793 97 796 101 L796 163 Z M223 280 L96 280 L96 358 L225 585 L225 588 L42 588 L42 700 L370 700 L370 605 L223 280 Z M259 0 L171 0 L171 82 L635 700 L722 700 L722 618 L259 0 Z " />
<glyph glyph-name="threeeighths" unicode="&#x215c;" horiz-adv-x="1020" d="M940 217 Q959 205 971 192.5 Q983 180 990 169 L990 72 Q983 60 969 46 Q955 32 932.5 19.5 Q910 7 879.5 -1.5 Q849 -10 810 -10 Q771 -10 740.5 -1.5 Q710 7 687.5 19.5 Q665 32 651 46 Q637 60 630 72 L630 169 Q636 180 648.5 192.5 Q661 205 680 217 Q665 226 656 234.5 Q647 243 642 248 L642 365 Q647 371 659.5 381.5 Q672 392 692.5 403 Q713 414 742 422 Q771 430 810 430 Q849 430 878.5 422 Q908 414 928 403 Q948 392 960.5 381 Q973 370 978 365 L978 248 Q973 243 964 235 Q955 227 940 217 Z M773 268 Q778 265 787 262.5 Q796 260 810 260 Q824 260 833.5 262.5 Q843 265 847 268 L847 319 Q843 322 833.5 325 Q824 328 810 328 Q796 328 787 325 Q778 322 773 319 L773 268 Z M847 163 Q844 166 834 169 Q824 172 810 172 Q796 172 786 169 Q776 166 773 163 L773 101 Q776 97 786 94.5 Q796 92 810 92 Q824 92 834 94.5 Q844 97 847 101 L847 163 Z M205 710 Q244 710 274.5 701.5 Q305 693 327.5 681 Q350 669 364 654.5 Q378 640 384 628 L384 534 Q379 526 364.5 515 Q350 504 330 496 Q351 487 364.5 475 Q378 463 385 452 L385 352 Q379 341 364.5 326.5 Q350 312 327.5 299.5 Q305 287 274 278.5 Q243 270 204 270 Q165 270 135 278 Q105 286 84.5 296.5 Q64 307 51.5 318 Q39 329 34 334 L34 403 L158 403 Q161 392 173.5 385 Q186 378 204 378 Q233 378 242 387 L242 428 Q235 441 205 441 L142 441 L142 542 L205 542 Q218 542 227.5 545.5 Q237 549 242 554 L242 593 Q231 602 205 602 Q186 602 175.5 594.5 Q165 587 162 578 L38 578 L38 647 Q43 653 55 663.5 Q67 674 87 684.5 Q107 695 136.5 702.5 Q166 710 205 710 Z M327 0 L239 0 L239 82 L703 700 L790 700 L790 618 L327 0 Z " />
<glyph glyph-name="twothirds" unicode="&#x2154;" horiz-adv-x="1074" d="M840 430 Q879 430 909.5 421.5 Q940 413 962.5 401 Q985 389 999 374.5 Q1013 360 1019 348 L1019 254 Q1014 246 999.5 235 Q985 224 965 216 Q986 207 999.5 195 Q1013 183 1020 172 L1020 72 Q1014 61 999.5 46.5 Q985 32 962.5 19.5 Q940 7 909 -1.5 Q878 -10 839 -10 Q800 -10 770 -2 Q740 6 719.5 16.5 Q699 27 686.5 38 Q674 49 669 54 L669 123 L793 123 Q796 112 808.5 105 Q821 98 839 98 Q868 98 877 107 L877 148 Q870 161 840 161 L777 161 L777 262 L840 262 Q853 262 862.5 265.5 Q872 269 877 274 L877 313 Q866 322 840 322 Q821 322 810.5 314.5 Q800 307 797 298 L673 298 L673 367 Q678 373 690 383.5 Q702 394 722 404.5 Q742 415 771.5 422.5 Q801 430 840 430 Z M241 428 Q224 419 209 409.5 Q194 400 187 392 L387 392 L387 280 L38 280 L38 395 Q47 421 73 443.5 Q99 466 131 486 L201 528 Q219 539 229 546 Q239 553 244 562 L244 593 Q233 602 207 602 Q185 602 175 593 Q165 584 163 576 L38 576 L38 645 Q42 652 55 663.5 Q68 675 89 685.5 Q110 696 139.5 703.5 Q169 711 207 711 Q245 711 275.5 702.5 Q306 694 329 681.5 Q352 669 366.5 654.5 Q381 640 387 627 L387 538 Q379 518 358 500 Q337 482 296 459 L241 428 Z M360 0 L272 0 L272 82 L736 700 L823 700 L823 618 L360 0 Z " />
<glyph glyph-name="uniE000" unicode="&#xe000;" horiz-adv-x="1062" d="M336 0 L248 0 L248 82 L712 700 L799 700 L799 618 L336 0 Z M216 602 Q201 602 192 599 Q183 596 179 593 L179 524 Q196 536 217.5 543 Q239 550 265 550 Q311 550 341.5 533.5 Q372 517 385 494 L385 334 Q380 328 367.5 317.5 Q355 307 334.5 296.5 Q314 286 285 278 Q256 270 217 270 Q178 270 147.5 278.5 Q117 287 94.5 299.5 Q72 312 57.5 326 Q43 340 36 352 L36 628 Q43 640 57.5 654.5 Q72 669 94.5 681 Q117 693 147.5 701.5 Q178 710 217 710 Q256 710 285.5 702 Q315 694 336 683.5 Q357 673 369 662.5 Q381 652 385 646 L385 581 L259 581 Q256 590 244.5 596 Q233 602 216 602 Z M215 454 Q197 454 179 448 L179 381 Q188 372 217 372 Q245 372 254 381 L254 446 Q250 449 241 451.5 Q232 454 215 454 Z M956 217 Q975 205 987 192.5 Q999 180 1006 169 L1006 72 Q999 60 985 46 Q971 32 948.5 19.5 Q926 7 895.5 -1.5 Q865 -10 826 -10 Q787 -10 756.5 -1.5 Q726 7 703.5 19.5 Q681 32 667 46 Q653 60 646 72 L646 169 Q652 180 664.5 192.5 Q677 205 696 217 Q681 226 672 234.5 Q663 243 658 248 L658 365 Q663 371 675.5 381.5 Q688 392 708.5 403 Q729 414 758 422 Q787 430 826 430 Q865 430 894.5 422 Q924 414 944 403 Q964 392 976.5 381 Q989 370 994 365 L994 248 Q989 243 980 235 Q971 227 956 217 Z M789 268 Q794 265 803 262.5 Q812 260 826 260 Q840 260 849.5 262.5 Q859 265 863 268 L863 319 Q859 322 849.5 325 Q840 328 826 328 Q812 328 803 325 Q794 322 789 319 L789 268 Z M863 163 Q860 166 850 169 Q840 172 826 172 Q812 172 802 169 Q792 166 789 163 L789 101 Q792 97 802 94.5 Q812 92 826 92 Q840 92 850 94.5 Q860 97 863 101 L863 163 Z " />
<glyph glyph-name="uniE001" unicode="&#xe001;" horiz-adv-x="1297" d="M305 371 L305 280 L35 280 L35 371 L100 371 L100 585 L35 585 L35 669 L121 700 L243 700 L243 371 L305 371 Z M1083 322 Q1068 322 1059 319 Q1050 316 1046 313 L1046 244 Q1063 256 1084.5 263 Q1106 270 1132 270 Q1178 270 1208.5 253.5 Q1239 237 1252 214 L1252 54 Q1247 48 1234.5 37.5 Q1222 27 1201.5 16.5 Q1181 6 1152 -2 Q1123 -10 1084 -10 Q1045 -10 1014.5 -1.5 Q984 7 961.5 19.5 Q939 32 924.5 46 Q910 60 903 72 L903 348 Q910 360 924.5 374.5 Q939 389 961.5 401 Q984 413 1014.5 421.5 Q1045 430 1084 430 Q1123 430 1152.5 422 Q1182 414 1203 403.5 Q1224 393 1236 382.5 Q1248 372 1252 366 L1252 301 L1126 301 Q1123 310 1111.5 316 Q1100 322 1083 322 Z M1082 174 Q1064 174 1046 168 L1046 101 Q1055 92 1084 92 Q1112 92 1121 101 L1121 166 Q1117 169 1108 171.5 Q1099 174 1082 174 Z M270 0 L182 0 L182 82 L646 700 L733 700 L733 618 L270 0 Z M871 91 L871 0 L601 0 L601 91 L666 91 L666 305 L601 305 L601 389 L687 420 L809 420 L809 91 L871 91 Z " />
<glyph glyph-name="percent" unicode="&#x25;" horiz-adv-x="929" d="M220 710 Q259 710 289.5 701.5 Q320 693 342 679 Q364 665 378 647.5 Q392 630 399 612 L399 439 Q392 421 378 403.5 Q364 386 342 372 Q320 358 289.5 349.5 Q259 341 220 341 Q181 341 150.5 349.5 Q120 358 97.5 372 Q75 386 61 403.5 Q47 421 40 439 L40 612 Q47 630 61 647.5 Q75 665 97.5 679 Q120 693 150.5 701.5 Q181 710 220 710 Z M277 0 L190 0 L190 82 L654 700 L741 700 L741 618 L277 0 Z M220 609 Q207 609 197 604.5 Q187 600 183 593 L183 457 Q187 451 197 446.5 Q207 442 220 442 Q234 442 243.5 446.5 Q253 451 256 457 L256 593 Q249 609 220 609 Z M709 359 Q748 359 778.5 350.5 Q809 342 831 328 Q853 314 867 296.5 Q881 279 888 261 L888 88 Q881 70 867 52.5 Q853 35 831 21 Q809 7 778.5 -1.5 Q748 -10 709 -10 Q670 -10 639.5 -1.5 Q609 7 586.5 21 Q564 35 550 52.5 Q536 70 529 88 L529 261 Q536 279 550 296.5 Q564 314 586.5 328 Q609 342 639.5 350.5 Q670 359 709 359 Z M709 258 Q696 258 686 253.5 Q676 249 672 243 L672 107 Q676 100 686 95.5 Q696 91 709 91 Q723 91 732 95.5 Q741 100 745 107 L745 243 Q741 249 732 253.5 Q723 258 709 258 Z " />
<glyph glyph-name="perthousand" unicode="&#x2030;" horiz-adv-x="1327" d="M220 710 Q259 710 289.5 701.5 Q320 693 342 679 Q364 665 378 647.5 Q392 630 399 612 L399 439 Q392 421 378 403.5 Q364 386 342 372 Q320 358 289.5 349.5 Q259 341 220 341 Q181 341 150.5 349.5 Q120 358 97.5 372 Q75 386 61 403.5 Q47 421 40 439 L40 612 Q47 630 61 647.5 Q75 665 97.5 679 Q120 693 150.5 701.5 Q181 710 220 710 Z M277 0 L190 0 L190 82 L654 700 L741 700 L741 618 L277 0 Z M220 609 Q207 609 197 604.5 Q187 600 183 593 L183 457 Q187 451 197 446.5 Q207 442 220 442 Q234 442 243.5 446.5 Q253 451 256 457 L256 593 Q249 609 220 609 Z M709 359 Q748 359 778.5 350.5 Q809 342 831 328 Q853 314 867 296.5 Q881 279 888 261 L888 88 Q881 70 867 52.5 Q853 35 831 21 Q809 7 778.5 -1.5 Q748 -10 709 -10 Q670 -10 639.5 -1.5 Q609 7 586.5 21 Q564 35 550 52.5 Q536 70 529 88 L529 261 Q536 279 550 296.5 Q564 314 586.5 328 Q609 342 639.5 350.5 Q670 359 709 359 Z M1107 359 Q1146 359 1176.5 350.5 Q1207 342 1229.5 328 Q1252 314 1266 296.5 Q1280 279 1287 261 L1287 88 Q1280 70 1266 52.5 Q1252 35 1229.5 21 Q1207 7 1176.5 -1.5 Q1146 -10 1107 -10 Q1068 -10 1037.5 -1.5 Q1007 7 985 21 Q963 35 949 52.5 Q935 70 928 88 L928 261 Q935 279 949 296.5 Q963 314 985 328 Q1007 342 1037.5 350.5 Q1068 359 1107 359 Z M709 258 Q696 258 686 253.5 Q676 249 672 243 L672 107 Q676 100 686 95.5 Q696 91 709 91 Q723 91 732 95.5 Q741 100 745 107 L745 243 Q741 249 732 253.5 Q723 258 709 258 Z M1107 258 Q1094 258 1084 253.5 Q1074 249 1071 243 L1071 107 Q1074 100 1084 95.5 Q1094 91 1107 91 Q1121 91 1130.5 95.5 Q1140 100 1144 107 L1144 243 Q1140 249 1130.5 253.5 Q1121 258 1107 258 Z " />
<glyph glyph-name="plus" unicode="&#x2b;" horiz-adv-x="590" d="M375 252 L375 64 L213 64 L213 252 L27 252 L27 412 L213 412 L213 599 L375 599 L375 412 L562 412 L562 252 L375 252 Z " />
<glyph glyph-name="minus" unicode="&#x2212;" horiz-adv-x="590" d="M27 252 L27 412 L562 412 L562 252 L27 252 Z " />
<glyph glyph-name="plusminus" unicode="&#xb1;" horiz-adv-x="590" d="M562 358 L375 358 L375 197 L213 197 L213 358 L27 358 L27 518 L213 518 L213 677 L375 677 L375 518 L562 518 L562 358 Z M562 168 L562 8 L27 8 L27 168 L562 168 Z " />
<glyph glyph-name="multiply" unicode="&#xd7;" horiz-adv-x="590" d="M410 332 L563 177 L563 71 L442 71 L296 217 L149 71 L27 71 L27 177 L180 332 L27 487 L27 593 L149 593 L296 446 L442 593 L563 593 L563 487 L410 332 Z " />
<glyph glyph-name="divide" unicode="&#xf7;" horiz-adv-x="590" d="M27 252 L27 412 L562 412 L562 252 L27 252 Z M295 219 Q341 219 366.5 201 Q392 183 400 164 L400 68 Q392 49 366.5 30.5 Q341 12 295 12 Q250 12 225 30.5 Q200 49 191 68 L191 164 Q200 183 225 201 Q250 219 295 219 Z M295 651 Q341 651 366.5 633 Q392 615 400 596 L400 500 Q392 481 366.5 462.5 Q341 444 295 444 Q250 444 225 462.5 Q200 481 191 500 L191 596 Q200 615 225 633 Q250 651 295 651 Z " />
<glyph glyph-name="equal" unicode="&#x3d;" horiz-adv-x="590" d="M27 142 L27 302 L562 302 L562 142 L27 142 Z M27 362 L27 522 L562 522 L562 362 L27 362 Z " />
<glyph glyph-name="notequal" unicode="&#x2260;" horiz-adv-x="590" d="M364 302 L562 302 L562 142 L304 142 L275 64 L113 64 L142 142 L27 142 L27 302 L202 302 L224 362 L27 362 L27 522 L284 522 L313 599 L475 599 L446 522 L562 522 L562 362 L386 362 L364 302 Z " />
<glyph glyph-name="approxequal" unicode="&#x2248;" horiz-adv-x="590" d="M174 327 Q210 327 244 319 Q278 311 311 301.5 Q344 292 376.5 284 Q409 276 442 276 Q467 276 487.5 283 Q508 290 523 298 Q541 308 554 320 L554 149 Q541 139 524 132 Q510 125 489.5 120 Q469 115 443 115 Q404 115 370 123 Q336 131 303.5 140.5 Q271 150 239 158 Q207 166 172 166 Q143 166 118 158 Q93 150 75 140 Q54 129 36 115 L36 281 Q52 293 73 304 Q91 312 116.5 319.5 Q142 327 174 327 Z M174 549 Q210 549 244 541 Q278 533 311 523.5 Q344 514 376.5 506 Q409 498 442 498 Q467 498 487.5 505 Q508 512 523 520 Q541 530 554 542 L554 371 Q541 361 524 354 Q510 347 489.5 342 Q469 337 443 337 Q404 337 370 345 Q336 353 303.5 362.5 Q271 372 239 380 Q207 388 172 388 Q143 388 118 380 Q93 372 75 362 Q54 351 36 337 L36 503 Q52 515 73 526 Q91 534 116.5 541.5 Q142 549 174 549 Z " />
<glyph glyph-name="less" unicode="&#x3c;" horiz-adv-x="590" d="M224 292 L566 146 L566 39 L418 39 L24 220 L24 365 L418 546 L566 546 L566 439 L224 292 Z " />
<glyph glyph-name="greater" unicode="&#x3e;" horiz-adv-x="590" d="M566 220 L172 39 L24 39 L24 146 L365 292 L24 439 L24 546 L172 546 L566 365 L566 220 Z " />
<glyph glyph-name="lessequal" unicode="&#x2264;" horiz-adv-x="590" d="M276 415 L562 315 L562 208 L414 208 L27 341 L27 448 L414 621 L562 621 L562 514 L276 415 Z M27 8 L27 168 L562 168 L562 8 L27 8 Z " />
<glyph glyph-name="greaterequal" unicode="&#x2265;" horiz-adv-x="590" d="M562 341 L175 208 L27 208 L27 315 L314 415 L27 514 L27 621 L175 621 L562 448 L562 341 Z M27 8 L27 168 L562 168 L562 8 L27 8 Z " />
<glyph glyph-name="logicalnot" unicode="&#xac;" horiz-adv-x="590" d="M400 64 L400 252 L27 252 L27 412 L562 412 L562 64 L400 64 Z " />
<glyph glyph-name="Delta" unicode="&#x2206;" horiz-adv-x="646" d="M625 0 L21 0 L21 116 L167 700 L479 700 L625 116 L625 0 Z M317 541 L314 541 L238 166 L388 166 L317 541 Z " />
<glyph glyph-name="Omega" unicode="&#x2126;" horiz-adv-x="636" d="M490 166 L596 166 L596 0 L346 0 L346 224 Q356 225 364 231.5 Q372 238 376 247 L376 517 Q371 529 355 537 Q339 545 318 545 Q296 545 280.5 537 Q265 529 260 517 L260 247 Q264 238 272 231.5 Q280 225 290 224 L290 0 L40 0 L40 166 L145 166 Q68 206 40 269 L40 562 Q67 623 136 669.5 Q205 716 318 716 Q430 716 499.5 669 Q569 622 596 562 L596 269 Q567 207 490 166 Z " />
<glyph glyph-name="mu" unicode="&#xb5;" horiz-adv-x="570" d="M536 0 L347 0 L347 51 Q328 28 301.5 12 Q275 -4 238 -9 L238 -166 L34 -166 L34 546 L238 546 L238 163 Q241 157 253 149 Q265 141 285 141 Q302 141 313 145 Q324 149 332 155 L332 546 L536 546 L536 0 Z " />
<glyph glyph-name="pi" unicode="&#x3c0;" horiz-adv-x="689" d="M579 401 L579 149 Q585 144 597 139.5 Q609 135 638 135 Q648 135 654.5 135.5 Q661 136 663 136 L663 0 Q649 -4 625 -9.5 Q601 -15 560 -15 Q518 -15 486 -6.5 Q454 2 431.5 16 Q409 30 395.5 47.5 Q382 65 376 83 L376 401 L290 401 L290 0 L86 0 L86 401 L26 401 L26 546 L658 546 L658 401 L579 401 Z " />
<glyph glyph-name="degree" unicode="&#xb0;" horiz-adv-x="407" d="M203 807 Q243 807 273.5 797.5 Q304 788 325.5 773.5 Q347 759 360.5 742.5 Q374 726 381 712 L381 579 Q374 565 360.5 548.5 Q347 532 325.5 518 Q304 504 273.5 494.5 Q243 485 203 485 Q163 485 133 494.5 Q103 504 81 518 Q59 532 45.5 548.5 Q32 565 25 579 L25 712 Q32 726 45.5 742.5 Q59 759 81 773.5 Q103 788 133 797.5 Q163 807 203 807 Z M203 695 Q189 695 178.5 689 Q168 683 165 677 L165 615 Q168 607 178.5 602 Q189 597 203 597 Q217 597 227 602 Q237 607 242 615 L242 677 Q237 683 227 689 Q217 695 203 695 Z " />
<glyph glyph-name="infinity" unicode="&#x221e;" horiz-adv-x="796" d="M536 531 Q575 531 605.5 522.5 Q636 514 658.5 500 Q681 486 695 468.5 Q709 451 716 433 L716 270 Q709 252 695 234.5 Q681 217 658.5 203 Q636 189 605.5 180.5 Q575 172 536 172 Q485 172 453 186.5 Q421 201 401 222 Q378 201 344 186.5 Q310 172 259 172 Q220 172 190 180.5 Q160 189 137.5 203 Q115 217 101 234.5 Q87 252 80 270 L80 433 Q87 451 101 468.5 Q115 486 137.5 500 Q160 514 190 522.5 Q220 531 259 531 Q312 531 344.5 516 Q377 501 397 478 Q418 501 450.5 516 Q483 531 536 531 Z M259 273 Q273 273 287.5 278 Q302 283 305 289 L331 352 L305 414 Q302 420 287.5 424.5 Q273 429 259 429 Q246 429 236.5 424.5 Q227 420 223 414 L223 289 Q227 283 236.5 278 Q246 273 259 273 Z M572 414 Q568 420 559 424.5 Q550 429 536 429 Q523 429 513 424.5 Q503 420 499 414 L468 341 L490 289 Q494 283 508.5 278 Q523 273 536 273 Q550 273 559 278 Q568 283 572 289 L572 414 Z " />
<glyph glyph-name="partialdiff" unicode="&#x2202;" horiz-adv-x="574" d="M223 736 Q273 723 322 703 Q371 683 414 656.5 Q457 630 490 597.5 Q523 565 540 526 L540 125 Q530 103 510.5 78 Q491 53 460 32 Q429 11 385.5 -2.5 Q342 -16 285 -16 Q228 -16 184.5 -2.5 Q141 11 110 32 Q79 53 59.5 77.5 Q40 102 30 124 L30 324 Q36 346 51 370 Q66 394 89.5 413.5 Q113 433 144.5 446 Q176 459 216 459 Q258 459 285.5 450 Q313 441 337 424 L337 481 Q329 503 306 525 Q283 547 252.5 566.5 Q222 586 188 601.5 Q154 617 124 628 L223 736 Z M285 310 Q266 310 252.5 303 Q239 296 234 287 L234 159 Q239 150 252.5 143 Q266 136 285 136 Q305 136 318.5 143 Q332 150 337 159 L337 289 Q332 297 318 303.5 Q304 310 285 310 Z " />
<glyph glyph-name="integral" unicode="&#x222b;" horiz-adv-x="413" d="M280 715 Q318 715 347.5 710 Q377 705 391 700 L391 565 L353 565 Q329 565 320 559 Q311 553 308 547 L308 -81 Q302 -99 288.5 -117 Q275 -135 253 -149 Q231 -163 201 -171.5 Q171 -180 131 -180 Q94 -180 64 -175 Q34 -170 20 -166 L20 -31 L58 -31 Q82 -31 91 -25 Q100 -19 104 -13 L104 615 Q110 633 123.5 651 Q137 669 158.5 683.5 Q180 698 210 706.5 Q240 715 280 715 Z " />
<glyph glyph-name="radical" unicode="&#x221a;" horiz-adv-x="600" d="M579 594 L418 0 L184 0 L71 395 L22 395 L22 546 L224 546 L298 250 L301 250 L398 700 L579 700 L579 594 Z " />
<glyph glyph-name="summation" unicode="&#x2211;" horiz-adv-x="551" d="M396 368 L396 233 L291 60 L525 60 L525 -100 L26 -100 L26 35 L183 300 L26 565 L26 700 L525 700 L525 540 L289 540 L396 368 Z " />
<glyph glyph-name="product" unicode="&#x220f;" horiz-adv-x="626" d="M368 -100 L368 540 L257 540 L257 -100 L37 -100 L37 700 L588 700 L588 -100 L368 -100 Z " />
<glyph glyph-name="lozenge" unicode="&#x25ca;" horiz-adv-x="619" d="M422 0 L200 0 L25 350 L200 700 L422 700 L597 350 L422 0 Z M311 223 L375 350 L311 477 L246 350 L311 223 Z " />
<glyph glyph-name="arrowleft" unicode="&#x2190;" horiz-adv-x="760" d="M0 398 L302 700 L440 700 L440 575 L284 431 L760 431 L760 268 L284 268 L440 125 L440 0 L302 0 L0 302 L0 398 Z " />
<glyph glyph-name="arrowright" unicode="&#x2192;" horiz-adv-x="760" d="M760 302 L458 0 L320 0 L320 125 L476 268 L0 268 L0 431 L476 431 L320 575 L320 700 L458 700 L760 398 L760 302 Z " />
<glyph glyph-name="arrowup" unicode="&#x2191;" horiz-adv-x="760" d="M730 338 L611 338 L474 480 L474 0 L286 0 L286 480 L149 338 L30 338 L30 459 L332 760 L428 760 L730 459 L730 338 Z " />
<glyph glyph-name="arrowdown" unicode="&#x2193;" horiz-adv-x="760" d="M730 241 L428 -60 L332 -60 L30 241 L30 362 L149 362 L286 220 L286 700 L474 700 L474 220 L611 362 L730 362 L730 241 Z " />
<glyph glyph-name="uni0410" unicode="&#x410;" horiz-adv-x="646" d="M625 0 L419 0 L394 130 L230 130 L204 0 L21 0 L21 116 L167 700 L479 700 L625 116 L625 0 Z M317 541 L314 541 L264 295 L363 295 L317 541 Z " />
<glyph glyph-name="uni0411" unicode="&#x411;" horiz-adv-x="607" d="M367 454 Q434 454 490.5 423 Q547 392 581 335 L581 120 Q569 98 549 76.5 Q529 55 502 38 Q475 21 442 10.5 Q409 0 371 0 L43 0 L43 700 L566 700 L566 540 L263 540 L263 454 L367 454 Z M380 271 Q373 282 359 289.5 Q345 297 324 297 L263 297 L263 156 L323 156 Q346 156 359 163 Q372 170 380 182 L380 271 Z " />
<glyph glyph-name="uni0412" unicode="&#x412;" horiz-adv-x="619" d="M517 368 Q532 361 551 347 Q570 333 585 308 L585 120 Q573 98 553 76.5 Q533 55 506 38 Q479 21 446 10.5 Q413 0 374 0 L43 0 L43 700 L371 700 Q411 700 444.5 688.5 Q478 677 504 659.5 Q530 642 548.5 621 Q567 600 578 580 L578 431 Q569 414 551.5 396 Q534 378 517 368 Z M322 425 Q342 425 355.5 432 Q369 439 377 451 L377 517 Q364 542 321 542 L263 542 L263 425 L322 425 Z M384 264 Q378 275 364 282.5 Q350 290 329 290 L263 290 L263 158 L328 158 Q351 158 364 165.5 Q377 173 384 185 L384 264 Z " />
<glyph glyph-name="uni0413" unicode="&#x413;" horiz-adv-x="533" d="M263 540 L263 0 L43 0 L43 700 L508 700 L508 540 L263 540 Z " />
<glyph glyph-name="uni0414" unicode="&#x414;" horiz-adv-x="745" d="M725 -124 L542 -124 L542 0 L203 0 L203 -124 L20 -124 L20 161 Q44 167 72 184.5 Q100 202 112 225 L170 700 L646 700 L646 161 L725 161 L725 -124 Z M426 540 L352 540 L311 196 Q300 176 281 161 L426 161 L426 540 Z " />
<glyph glyph-name="uni0415" unicode="&#x415;" horiz-adv-x="537" d="M263 534 L263 439 L486 439 L486 273 L263 273 L263 166 L506 166 L506 0 L43 0 L43 700 L501 700 L501 534 L263 534 Z " />
<glyph glyph-name="uni0416" unicode="&#x416;" horiz-adv-x="917" d="M772 376 L892 116 L892 0 L706 0 L591 281 L562 281 L562 0 L355 0 L355 281 L326 281 L211 0 L25 0 L25 116 L145 376 L31 584 L31 700 L203 700 L324 441 L355 441 L355 700 L562 700 L562 441 L593 441 L714 700 L886 700 L886 584 L772 376 Z " />
<glyph glyph-name="uni0417" unicode="&#x417;" horiz-adv-x="599" d="M567 435 Q557 418 538.5 396 Q520 374 490 353 Q520 333 538.5 311 Q557 289 567 272 L567 120 Q557 103 537.5 79.5 Q518 56 485.5 35 Q453 14 407 -1 Q361 -16 298 -16 Q235 -16 189 -1 Q143 14 110.5 35 Q78 56 58 79.5 Q38 103 29 120 L29 207 L219 207 Q227 175 248.5 162 Q270 149 296 149 Q319 149 334 157.5 Q349 166 355 176 L355 245 Q349 256 335 264.5 Q321 273 298 273 L190 273 L190 434 L298 434 Q321 434 335 442.5 Q349 451 355 461 L355 524 Q349 534 334 542.5 Q319 551 296 551 Q270 551 248.5 538 Q227 525 219 493 L29 493 L29 580 Q38 597 58 620.5 Q78 644 110.5 665 Q143 686 189 701 Q235 716 298 716 Q361 716 407 701 Q453 686 485.5 665 Q518 644 537.5 620.5 Q557 597 567 580 L567 435 Z " />
<glyph glyph-name="uni0418" unicode="&#x418;" horiz-adv-x="675" d="M429 0 L429 358 L426 358 L247 0 L43 0 L43 700 L246 700 L246 342 L249 342 L428 700 L632 700 L632 0 L429 0 Z " />
<glyph glyph-name="uni0419" unicode="&#x419;" horiz-adv-x="675" d="M429 0 L429 358 L426 358 L247 0 L43 0 L43 700 L246 700 L246 342 L249 342 L428 700 L632 700 L632 0 L429 0 Z M536 837 Q513 789 462.5 762 Q412 735 338 735 Q263 735 212 762 Q161 789 138 837 L138 901 L284 901 L284 863 Q288 855 301 845.5 Q314 836 338 836 Q361 836 374 845.5 Q387 855 391 863 L391 901 L536 901 L536 837 Z " />
<glyph glyph-name="uni041A" unicode="&#x41a;" horiz-adv-x="620" d="M456 371 L595 116 L595 0 L410 0 L279 281 L252 281 L252 0 L32 0 L32 700 L252 700 L252 441 L280 441 L417 700 L589 700 L589 584 L456 371 Z " />
<glyph glyph-name="uni041B" unicode="&#x41b;" horiz-adv-x="676" d="M414 0 L414 540 L341 540 L289 89 Q268 57 243 38 Q218 19 186 9.5 Q154 0 113 -2.5 Q72 -5 20 -5 L20 160 Q48 160 68 169.5 Q88 179 96 193 L157 700 L634 700 L634 0 L414 0 Z " />
<glyph glyph-name="uni041C" unicode="&#x41c;" horiz-adv-x="782" d="M535 0 L535 375 L532 375 L439 125 L341 125 L249 375 L246 375 L246 0 L43 0 L43 700 L305 700 L396 445 L399 445 L481 700 L740 700 L740 0 L535 0 Z " />
<glyph glyph-name="uni041D" unicode="&#x41d;" horiz-adv-x="665" d="M402 0 L402 278 L263 278 L263 0 L43 0 L43 700 L263 700 L263 443 L402 443 L402 700 L622 700 L622 0 L402 0 Z " />
<glyph glyph-name="uni041E" unicode="&#x41e;" horiz-adv-x="626" d="M313 716 Q375 716 422.5 701 Q470 686 503.5 663 Q537 640 558.5 613 Q580 586 591 562 L591 138 Q580 114 558.5 87 Q537 60 503.5 37 Q470 14 423 -1 Q376 -16 313 -16 Q251 -16 203.5 -1 Q156 14 122.5 37 Q89 60 67.5 87 Q46 114 35 138 L35 562 Q46 586 67 613 Q88 640 122 663 Q156 686 203 701 Q250 716 313 716 Z M313 545 Q290 545 275.5 537 Q261 529 255 517 L255 183 Q261 171 275.5 163 Q290 155 313 155 Q336 155 350.5 163 Q365 171 371 183 L371 517 Q365 529 350.5 537 Q336 545 313 545 Z " />
<glyph glyph-name="uni041F" unicode="&#x41f;" horiz-adv-x="649" d="M387 0 L387 540 L263 540 L263 0 L43 0 L43 700 L607 700 L607 0 L387 0 Z " />
<glyph glyph-name="uni0420" unicode="&#x420;" horiz-adv-x="611" d="M367 700 Q436 700 493.5 670 Q551 640 586 580 L586 353 Q573 329 552.5 307.5 Q532 286 504.5 269.5 Q477 253 442.5 243 Q408 233 367 233 L263 233 L263 0 L43 0 L43 700 L367 700 Z M263 396 L316 396 Q337 396 352 402 Q367 408 375 422 L375 510 Q367 524 351.5 530.5 Q336 537 316 537 L263 537 L263 396 Z " />
<glyph glyph-name="uni0421" unicode="&#x421;" horiz-adv-x="608" d="M313 716 Q375 716 421 701.5 Q467 687 499 666 Q531 645 551 621 Q571 597 582 579 L582 486 L393 486 Q376 545 317 545 Q294 545 278 537.5 Q262 530 255 517 L255 183 Q262 170 278 162.5 Q294 155 317 155 Q376 155 393 214 L582 214 L582 121 Q571 103 551 79 Q531 55 499 34 Q467 13 421 -1.5 Q375 -16 313 -16 Q250 -16 203 -1 Q156 14 122 37 Q88 60 67 87 Q46 114 35 138 L35 562 Q46 586 67 613 Q88 640 122 663 Q156 686 203 701 Q250 716 313 716 Z " />
<glyph glyph-name="uni0422" unicode="&#x422;" horiz-adv-x="561" d="M392 534 L392 0 L172 0 L172 534 L25 534 L25 700 L536 700 L536 534 L392 534 Z " />
<glyph glyph-name="uni0423" unicode="&#x423;" horiz-adv-x="597" d="M571 584 L373 74 Q327 26 274.5 8.5 Q222 -9 148 -9 Q127 -9 107 -6.5 Q87 -4 77 -2 L77 152 Q86 151 95 150.5 Q104 150 116 150 Q145 150 167.5 156.5 Q190 163 200 172 L206 191 L26 584 L26 700 L208 700 L312 437 L397 700 L571 700 L571 584 Z " />
<glyph glyph-name="uni0424" unicode="&#x424;" horiz-adv-x="828" d="M543 651 Q581 651 619.5 639.5 Q658 628 691.5 607.5 Q725 587 752 559.5 Q779 532 795 500 L795 200 Q779 168 752 140 Q725 112 691.5 92 Q658 72 619.5 60.5 Q581 49 543 49 L511 49 L511 -40 L319 -40 L319 49 L287 49 Q249 49 211 60.5 Q173 72 139 92 Q105 112 78 140 Q51 168 35 200 L35 500 Q51 532 78 559.5 Q105 587 139 607.5 Q173 628 211 639.5 Q249 651 287 651 L319 651 L319 740 L511 740 L511 651 L543 651 Z M319 490 L304 490 Q281 490 262.5 481 Q244 472 236 460 L236 240 Q244 228 262.5 219 Q281 210 304 210 L319 210 L319 490 Z M594 460 Q586 472 568 481 Q550 490 527 490 L511 490 L511 210 L527 210 Q550 210 568 219 Q586 228 594 240 L594 460 Z " />
<glyph glyph-name="uni0425" unicode="&#x425;" horiz-adv-x="612" d="M447 355 L585 116 L585 0 L383 0 L301 215 L298 215 L209 0 L26 0 L26 116 L165 355 L30 584 L30 700 L229 700 L312 495 L315 495 L400 700 L582 700 L582 584 L447 355 Z " />
<glyph glyph-name="uni0426" unicode="&#x426;" horiz-adv-x="706" d="M686 161 L686 -124 L503 -124 L503 0 L43 0 L43 700 L263 700 L263 161 L387 161 L387 700 L607 700 L607 161 L686 161 Z " />
<glyph glyph-name="uni0427" unicode="&#x427;" horiz-adv-x="642" d="M599 0 L379 0 L379 235 Q333 215 272 215 Q227 215 189.5 224 Q152 233 122.5 248.5 Q93 264 72 285 Q51 306 39 329 L39 700 L259 700 L259 394 Q267 383 282.5 376 Q298 369 322 369 Q339 369 353.5 373.5 Q368 378 379 384 L379 700 L599 700 L599 0 Z " />
<glyph glyph-name="uni0428" unicode="&#x428;" horiz-adv-x="940" d="M43 0 L43 700 L263 700 L263 160 L360 160 L360 700 L580 700 L580 160 L677 160 L677 700 L897 700 L897 0 L43 0 Z " />
<glyph glyph-name="uni0429" unicode="&#x429;" horiz-adv-x="997" d="M976 161 L976 -124 L793 -124 L793 0 L43 0 L43 700 L263 700 L263 161 L360 161 L360 700 L580 700 L580 161 L677 161 L677 700 L897 700 L897 161 L976 161 Z " />
<glyph glyph-name="uni042A" unicode="&#x42a;" horiz-adv-x="694" d="M454 463 Q521 463 577.5 432.5 Q634 402 668 345 L668 120 Q656 98 636 76.5 Q616 55 589 38 Q562 21 529 10.5 Q496 0 458 0 L130 0 L130 540 L25 540 L25 700 L350 700 L350 463 L454 463 Z M350 156 L411 156 Q452 156 467 182 L467 280 Q461 291 446.5 298.5 Q432 306 411 306 L350 306 L350 156 Z " />
<glyph glyph-name="uni042B" unicode="&#x42b;" horiz-adv-x="885" d="M356 463 Q424 463 480.5 432.5 Q537 402 570 345 L570 120 Q558 98 538 76.5 Q518 55 491 38 Q464 21 431 10.5 Q398 0 361 0 L43 0 L43 700 L263 700 L263 463 L356 463 Z M622 0 L622 700 L842 700 L842 0 L622 0 Z M263 156 L313 156 Q354 156 369 182 L369 280 Q363 291 348.5 298.5 Q334 306 313 306 L263 306 L263 156 Z " />
<glyph glyph-name="uni042C" unicode="&#x42c;" horiz-adv-x="607" d="M367 463 Q434 463 490.5 432.5 Q547 402 581 345 L581 120 Q569 98 549 76.5 Q529 55 502 38 Q475 21 442 10.5 Q409 0 371 0 L43 0 L43 700 L263 700 L263 463 L367 463 Z M263 156 L323 156 Q346 156 359 163 Q372 170 380 182 L380 280 Q373 291 359 298.5 Q345 306 324 306 L263 306 L263 156 Z " />
<glyph glyph-name="uni042D" unicode="&#x42d;" horiz-adv-x="614" d="M297 545 Q238 545 221 486 L32 486 L32 579 Q43 597 63 621 Q83 645 115 666 Q147 687 193 701.5 Q239 716 301 716 Q364 716 411 701 Q458 686 492 663 Q526 640 547 613 Q568 586 579 562 L579 138 Q568 114 547 87 Q526 60 492 37 Q458 14 411 -1 Q364 -16 301 -16 Q239 -16 193 -1.5 Q147 13 115 34 Q83 55 63 79 Q43 103 32 121 L32 214 L221 214 Q238 155 297 155 Q320 155 336 162.5 Q352 170 359 183 L359 280 L187 280 L187 430 L359 430 L359 517 Q352 530 336 537.5 Q320 545 297 545 Z " />
<glyph glyph-name="uni042E" unicode="&#x42e;" horiz-adv-x="909" d="M601 716 Q663 716 709.5 701 Q756 686 789 663 Q822 640 842.5 613 Q863 586 874 562 L874 138 Q863 114 842.5 87 Q822 60 789 37 Q756 14 710 -1 Q664 -16 601 -16 Q539 -16 492.5 -1 Q446 14 413 37 Q380 60 359.5 87 Q339 114 328 138 L328 276 L263 276 L263 0 L43 0 L43 700 L263 700 L263 436 L328 436 L328 562 Q339 586 359.5 613 Q380 640 413 663 Q446 686 492 701 Q538 716 601 716 Z M654 523 Q648 534 636 542.5 Q624 551 601 551 Q578 551 566 542.5 Q554 534 548 523 L548 178 Q554 166 566 157.5 Q578 149 601 149 Q624 149 636 157.5 Q648 166 654 178 L654 523 Z " />
<glyph glyph-name="uni042F" unicode="&#x42f;" horiz-adv-x="632" d="M589 0 L369 0 L369 242 L340 242 L219 0 L36 0 L36 116 L129 272 Q70 303 36 363 L36 580 Q69 638 126.5 669 Q184 700 253 700 L589 700 L589 0 Z M243 419 Q257 392 303 392 L369 392 L369 540 L303 540 Q257 540 243 513 L243 419 Z " />
<glyph glyph-name="uni0490" unicode="&#x490;" horiz-adv-x="521" d="M263 540 L263 0 L43 0 L43 700 L313 700 L313 808 L496 808 L496 540 L263 540 Z " />
<glyph glyph-name="uni0406" unicode="&#x406;" horiz-adv-x="305" d="M43 0 L43 700 L263 700 L263 0 L43 0 Z " />
<glyph glyph-name="uni0402" unicode="&#x402;" horiz-adv-x="726" d="M467 454 Q512 454 549.5 445 Q587 436 616.5 420.5 Q646 405 667 384 Q688 363 700 340 L700 113 Q688 90 667 69 Q646 48 616.5 32.5 Q587 17 549.5 8 Q512 -1 467 -1 L417 -1 L417 153 Q440 153 456 160 Q472 167 480 178 L480 275 Q472 286 456 293 Q440 300 417 300 Q400 300 385.5 295.5 Q371 291 360 285 L360 0 L140 0 L140 540 L25 540 L25 700 L521 700 L521 540 L360 540 L360 434 Q406 454 467 454 Z " />
<glyph glyph-name="uni0452" unicode="&#x452;" horiz-adv-x="589" d="M379 657 L379 556 L253 556 L253 476 Q276 497 306 510 Q336 523 378 523 Q417 523 447 510 Q477 497 498.5 477.5 Q520 458 534 434.5 Q548 411 555 390 L555 -28 Q546 -49 526.5 -73.5 Q507 -98 476 -119 Q445 -140 401.5 -154 Q358 -168 301 -168 L301 -19 Q321 -19 334 -9 Q347 1 351 15 L351 343 Q348 350 335 357.5 Q322 365 302 365 Q270 365 253 350 L253 0 L49 0 L49 556 L16 556 L16 657 L49 657 L49 700 L253 700 L253 657 L379 657 Z " />
<glyph glyph-name="uni0403" unicode="&#x403;" horiz-adv-x="533" d="M263 540 L263 0 L43 0 L43 700 L508 700 L508 540 L263 540 Z M318 739 L175 739 L175 754 L217 907 L399 907 L399 823 L318 739 Z " />
<glyph glyph-name="uni0453" unicode="&#x453;" horiz-adv-x="468" d="M240 399 L240 0 L36 0 L36 546 L443 546 L443 399 L240 399 Z M309 598 L157 598 L157 613 L201 769 L388 769 L388 685 L309 598 Z " />
<glyph glyph-name="uni0456" unicode="&#x456;" horiz-adv-x="276" d="M37 0 L37 546 L239 546 L239 0 L37 0 Z " />
<glyph glyph-name="uni0491" unicode="&#x491;" horiz-adv-x="480" d="M240 399 L240 0 L36 0 L36 546 L282 546 L282 627 L450 627 L450 399 L240 399 Z " />
<glyph glyph-name="uni0408" unicode="&#x408;" horiz-adv-x="387" d="M347 138 Q332 108 310.5 82 Q289 56 258 37 Q227 18 184.5 7.5 Q142 -3 85 -3 Q59 -3 42 -2 Q25 -1 19 0 L19 166 L67 166 Q114 166 127 193 L127 700 L347 700 L347 138 Z " />
<glyph glyph-name="uni0404" unicode="&#x404;" horiz-adv-x="614" d="M317 545 Q294 545 278 537.5 Q262 530 255 517 L255 430 L427 430 L427 280 L255 280 L255 183 Q262 170 278 162.5 Q294 155 317 155 Q376 155 393 214 L582 214 L582 121 Q571 103 551 79 Q531 55 499 34 Q467 13 421 -1.5 Q375 -16 313 -16 Q250 -16 203 -1 Q156 14 122 37 Q88 60 67 87 Q46 114 35 138 L35 562 Q46 586 67 613 Q88 640 122 663 Q156 686 203 701 Q250 716 313 716 Q375 716 421 701.5 Q467 687 499 666 Q531 645 551 621 Q571 597 582 579 L582 486 L393 486 Q376 545 317 545 Z " />
<glyph glyph-name="uni0454" unicode="&#x454;" horiz-adv-x="554" d="M286 405 Q267 405 254 398 Q241 391 236 382 L236 335 L377 335 L377 213 L236 213 L236 165 Q241 155 254 148 Q267 141 286 141 Q331 141 348 181 L526 181 L526 96 Q519 85 502.5 66.5 Q486 48 457 29.5 Q428 11 385.5 -2.5 Q343 -16 286 -16 Q229 -16 185.5 -2 Q142 12 111.5 33 Q81 54 61.5 78.5 Q42 103 32 124 L32 423 Q42 444 61.5 468.5 Q81 493 111.5 514 Q142 535 185.5 548.5 Q229 562 286 562 Q343 562 385.5 548.5 Q428 535 457 517 Q486 499 502.5 480 Q519 461 526 450 L526 365 L348 365 Q331 405 286 405 Z " />
<glyph glyph-name="uni0407" unicode="&#x407;" horiz-adv-x="305" d="M40 903 Q62 903 78 898.5 Q94 894 104.5 888 Q115 882 121.5 875.5 Q128 869 132 865 L132 770 Q128 765 121.5 758.5 Q115 752 104.5 746 Q94 740 78 736 Q62 732 40 732 Q18 732 2 736.5 Q-14 741 -24.5 747 Q-35 753 -42 759.5 Q-49 766 -53 770 L-53 865 Q-49 869 -42 875.5 Q-35 882 -24.5 888 Q-14 894 2 898.5 Q18 903 40 903 Z M266 903 Q288 903 304 898.5 Q320 894 331 888 Q342 882 348.5 875.5 Q355 869 359 865 L359 770 Q355 765 348.5 758.5 Q342 752 331 746 Q320 740 304 736 Q288 732 266 732 Q244 732 228.5 736.5 Q213 741 202.5 747 Q192 753 185 759.5 Q178 766 174 770 L174 865 Q178 869 185 875.5 Q192 882 202.5 888 Q213 894 228.5 898.5 Q244 903 266 903 Z M43 0 L43 700 L263 700 L263 0 L43 0 Z " />
<glyph glyph-name="uni0457" unicode="&#x457;" horiz-adv-x="322" d="M46 763 Q68 763 84 758.5 Q100 754 111 748 Q122 742 128.5 735 Q135 728 138 724 L138 623 Q135 618 128.5 611.5 Q122 605 111 599 Q100 593 84 589 Q68 585 46 585 Q2 585 -18.5 599.5 Q-39 614 -47 623 L-47 724 Q-43 728 -36 735 Q-29 742 -18.5 748 Q-8 754 8 758.5 Q24 763 46 763 Z M276 763 Q298 763 314 758.5 Q330 754 340.5 748 Q351 742 357.5 735 Q364 728 368 724 L368 623 Q364 618 357.5 611.5 Q351 605 340.5 599 Q330 593 314 589 Q298 585 276 585 Q232 585 211.5 599.5 Q191 614 183 623 L183 724 Q187 728 194 735 Q201 742 211.5 748 Q222 754 238 758.5 Q254 763 276 763 Z M59 0 L59 546 L263 546 L263 0 L59 0 Z " />
</font>
</svg>
