<?xml version="1.0" encoding="UTF-8"?>
<svg xmlns="http://www.w3.org/2000/svg" xmlns:xlink="http://www.w3.org/1999/xlink" version="1.2" >
<font id="Cadillac Sans Medium">
<font-face  font-family="Cadillac Sans" units-per-em="1000" ascent="750" descent="-250" font-style="normal" font-weight="500" font-stretch="normal" cap-height="700" x-height="541" underline-position="-75" underline-thickness="50" />
<missing-glyph  horiz-adv-x="602" d="M66 -100 L66 800 L535 800 L535 -100 L66 -100 Z M161 -18 L440 -18 L440 718 L161 718 L161 -18 Z " />
<glyph glyph-name=".null" d="" />
<glyph glyph-name="nonmarkingreturn" unicode="&#xd;" horiz-adv-x="196" d="" />
<glyph glyph-name="space" unicode="&#x20;" horiz-adv-x="205" d="" />
<glyph glyph-name="A" unicode="A" horiz-adv-x="620" d="M593 0 L474 0 L424 177 L185 177 L135 0 L27 0 L27 77 L217 700 L402 700 L593 77 L593 0 Z M307 594 L304 594 L215 281 L395 281 L307 594 Z " />
<glyph glyph-name="B" unicode="B" horiz-adv-x="598" d="M461 369 Q486 358 512 338 Q538 318 555 291 L555 119 Q543 98 524.5 77 Q506 56 480.5 38.5 Q455 21 422 10.5 Q389 0 349 0 L64 0 L64 700 L344 700 Q381 700 411.5 690 Q442 680 467 663.5 Q492 647 510.5 625.5 Q529 604 541 582 L541 445 Q529 423 507 402 Q485 381 461 369 Z M320 410 Q350 410 376 424.5 Q402 439 418 464 L418 541 Q404 567 377 582.5 Q350 598 314 598 L198 598 L198 410 L320 410 Z M431 261 Q417 285 388.5 300.5 Q360 316 327 316 L198 316 L198 102 L320 102 Q365 102 391 118 Q417 134 431 160 L431 261 Z " />
<glyph glyph-name="C" unicode="C" horiz-adv-x="606" d="M313 714 Q370 714 413.5 700 Q457 686 487.5 664.5 Q518 643 537.5 618 Q557 593 568 571 L568 505 L453 505 Q441 548 407 579 Q373 610 314 610 Q264 610 232.5 587 Q201 564 187 535 L187 165 Q201 136 232.5 113 Q264 90 314 90 Q373 90 407 121 Q441 152 453 195 L568 195 L568 129 Q557 107 537.5 82 Q518 57 487.5 35.5 Q457 14 413.5 0 Q370 -14 313 -14 Q256 -14 212 0.5 Q168 15 136.5 37.5 Q105 60 84.5 86.5 Q64 113 53 138 L53 562 Q64 587 84.5 613.5 Q105 640 136.5 662.5 Q168 685 212 699.5 Q256 714 313 714 Z " />
<glyph glyph-name="D" unicode="D" horiz-adv-x="628" d="M340 700 Q389 700 428 688 Q467 676 495.5 656.5 Q524 637 543.5 612 Q563 587 574 562 L574 138 Q563 113 543.5 88 Q524 63 495.5 43.5 Q467 24 428 12 Q389 0 340 0 L64 0 L64 700 L340 700 Z M198 103 L315 103 Q364 103 396 122.5 Q428 142 440 172 L440 528 Q428 558 396 577.5 Q364 597 315 597 L198 597 L198 103 Z " />
<glyph glyph-name="E" unicode="E" horiz-adv-x="538" d="M198 596 L198 411 L469 411 L469 307 L198 307 L198 104 L496 104 L496 0 L64 0 L64 700 L489 700 L489 596 L198 596 Z " />
<glyph glyph-name="F" unicode="F" horiz-adv-x="515" d="M198 596 L198 406 L464 406 L464 302 L198 302 L198 0 L64 0 L64 700 L478 700 L478 596 L198 596 Z " />
<glyph glyph-name="G" unicode="G" horiz-adv-x="630" d="M314 610 Q265 610 232.5 587 Q200 564 187 535 L187 166 Q199 137 232 114 Q265 91 315 91 Q366 91 397.5 113 Q429 135 443 163 L443 280 L324 280 L324 382 L568 382 L568 0 L460 0 L460 53 Q434 25 394 5.5 Q354 -14 291 -14 Q240 -14 200.5 0.5 Q161 15 132 37.5 Q103 60 83 87 Q63 114 53 139 L53 562 Q63 586 84 613 Q105 640 136.5 662.5 Q168 685 212 699.5 Q256 714 313 714 Q370 714 413.5 700 Q457 686 487.5 664.5 Q518 643 538 618 Q558 593 568 571 L568 505 L453 505 Q442 548 406.5 579 Q371 610 314 610 Z " />
<glyph glyph-name="H" unicode="H" horiz-adv-x="652" d="M454 0 L454 309 L198 309 L198 0 L64 0 L64 700 L198 700 L198 413 L454 413 L454 700 L588 700 L588 0 L454 0 Z " />
<glyph glyph-name="I" unicode="I" horiz-adv-x="262" d="M64 0 L64 700 L198 700 L198 0 L64 0 Z " />
<glyph glyph-name="J" unicode="J" horiz-adv-x="387" d="M326 139 Q313 109 291.5 83.5 Q270 58 239.5 39 Q209 20 168.5 9 Q128 -2 75 -2 Q58 -2 43.5 -1.5 Q29 -1 20 0 L20 102 L65 102 Q113 102 145.5 121 Q178 140 192 172 L192 700 L326 700 L326 139 Z " />
<glyph glyph-name="K" unicode="K" horiz-adv-x="608" d="M578 0 L475 0 L272 320 L198 240 L198 0 L64 0 L64 700 L198 700 L198 406 L462 700 L551 700 L551 623 L358 414 L578 77 L578 0 Z " />
<glyph glyph-name="L" unicode="L" horiz-adv-x="457" d="M434 104 L434 0 L64 0 L64 700 L198 700 L198 104 L434 104 Z " />
<glyph glyph-name="M" unicode="M" horiz-adv-x="802" d="M612 0 L612 537 L609 537 L443 153 L359 153 L192 537 L189 537 L189 0 L64 0 L64 700 L246 700 L403 336 L406 336 L558 700 L738 700 L738 0 L612 0 Z " />
<glyph glyph-name="N" unicode="N" horiz-adv-x="665" d="M444 0 L192 508 L189 508 L189 0 L64 0 L64 700 L222 700 L473 192 L476 192 L476 700 L601 700 L601 0 L444 0 Z " />
<glyph glyph-name="O" unicode="O" horiz-adv-x="626" d="M313 714 Q370 714 414 699.5 Q458 685 489.5 662.5 Q521 640 542 613.5 Q563 587 573 562 L573 139 Q563 114 542 87 Q521 60 489.5 37.5 Q458 15 414 0.5 Q370 -14 313 -14 Q256 -14 212 0.5 Q168 15 136.5 37.5 Q105 60 84 87 Q63 114 53 139 L53 562 Q63 587 84 613.5 Q105 640 136.5 662.5 Q168 685 212 699.5 Q256 714 313 714 Z M313 610 Q264 610 231.5 587 Q199 564 187 535 L187 166 Q199 137 231.5 114 Q264 91 313 91 Q363 91 395 114 Q427 137 439 166 L439 535 Q427 564 395 587 Q363 610 313 610 Z " />
<glyph glyph-name="P" unicode="P" horiz-adv-x="584" d="M340 700 Q405 700 459.5 669.5 Q514 639 546 582 L546 382 Q532 358 512.5 336 Q493 314 467 298 Q441 282 409 272.5 Q377 263 340 263 L198 263 L198 0 L64 0 L64 700 L340 700 Z M198 366 L309 366 Q344 366 372.5 381 Q401 396 416 425 L416 538 Q399 570 369.5 583.5 Q340 597 309 597 L198 597 L198 366 Z " />
<glyph glyph-name="Q" unicode="Q" horiz-adv-x="626" d="M577 -148 L505 -148 Q476 -148 446.5 -137.5 Q417 -127 390.5 -109 Q364 -91 343.5 -66.5 Q323 -42 311 -14 Q254 -14 210.5 0.5 Q167 15 135.5 37.5 Q104 60 84 87 Q64 114 53 139 L53 562 Q64 587 84.5 613.5 Q105 640 136.5 662.5 Q168 685 212 699.5 Q256 714 313 714 Q370 714 414 699.5 Q458 685 489.5 662.5 Q521 640 541.5 613.5 Q562 587 573 562 L573 139 Q557 103 522 65 Q487 27 427 5 Q442 -24 468.5 -39 Q495 -54 515 -54 L577 -54 L577 -148 Z M187 166 Q200 137 231.5 114 Q263 91 313 91 Q364 91 395 114 Q426 137 439 166 L439 535 Q426 564 395 587 Q364 610 313 610 Q263 610 231.5 587 Q200 564 187 535 L187 166 Z " />
<glyph glyph-name="R" unicode="R" horiz-adv-x="602" d="M562 0 L458 0 L287 284 L198 284 L198 0 L64 0 L64 700 L345 700 Q410 700 464.5 669 Q519 638 550 582 L550 404 Q529 366 496.5 338 Q464 310 421 296 L562 77 L562 0 Z M315 382 Q392 382 423 441 L423 538 Q408 567 379 582 Q350 597 315 597 L198 597 L198 382 L315 382 Z " />
<glyph glyph-name="S" unicode="S" horiz-adv-x="591" d="M294 714 Q345 714 385 702 Q425 690 454.5 672 Q484 654 503.5 633 Q523 612 533 594 L533 528 L418 528 Q407 561 377 585.5 Q347 610 292 610 Q251 610 223 593 Q195 576 184 556 L184 474 Q188 466 193.5 459.5 Q199 453 208.5 447 Q218 441 233.5 435 Q249 429 273 423 L330 409 Q384 395 420 380 Q456 365 480 349 Q504 333 518.5 316 Q533 299 542 283 L542 119 Q532 101 513 77.5 Q494 54 464 34 Q434 14 392 0 Q350 -14 293 -14 Q234 -14 191 0 Q148 14 117.5 34 Q87 54 68 77 Q49 100 40 118 L40 185 L156 185 Q167 146 202 118.5 Q237 91 292 91 Q339 91 370.5 111.5 Q402 132 413 156 L413 235 Q403 254 381.5 269.5 Q360 285 312 297 L256 311 Q208 323 175 335 Q142 347 119.5 360.5 Q97 374 81.5 390 Q66 406 54 426 L54 594 Q64 612 83.5 633 Q103 654 132.5 672 Q162 690 202 702 Q242 714 294 714 Z " />
<glyph glyph-name="T" unicode="T" horiz-adv-x="538" d="M336 596 L336 0 L202 0 L202 596 L25 596 L25 700 L513 700 L513 596 L336 596 Z " />
<glyph glyph-name="U" unicode="U" horiz-adv-x="641" d="M580 139 Q569 112 548.5 86 Q528 60 496.5 37.5 Q465 15 421.5 0.5 Q378 -14 320 -14 Q263 -14 219 0.5 Q175 15 143.5 37.5 Q112 60 92 87 Q72 114 61 139 L61 700 L195 700 L195 168 Q207 138 239 115.5 Q271 93 320 93 Q370 93 401 115.5 Q432 138 446 168 L446 700 L580 700 L580 139 Z " />
<glyph glyph-name="V" unicode="V" horiz-adv-x="624" d="M403 0 L220 0 L28 623 L28 700 L149 700 L314 125 L317 125 L483 700 L597 700 L597 623 L403 0 Z " />
<glyph glyph-name="W" unicode="W" horiz-adv-x="912" d="M753 0 L575 0 L455 489 L452 489 L333 0 L158 0 L33 623 L33 700 L156 700 L259 141 L262 141 L395 700 L520 700 L655 141 L658 141 L760 700 L879 700 L879 623 L753 0 Z " />
<glyph glyph-name="X" unicode="X" horiz-adv-x="592" d="M385 358 L553 77 L553 0 L439 0 L294 270 L291 270 L143 0 L38 0 L38 77 L207 357 L45 623 L45 700 L158 700 L299 442 L302 442 L443 700 L547 700 L547 623 L385 358 Z " />
<glyph glyph-name="Y" unicode="Y" horiz-adv-x="572" d="M351 286 L351 0 L216 0 L216 298 L30 623 L30 700 L139 700 L288 418 L291 418 L438 700 L542 700 L542 623 L351 286 Z " />
<glyph glyph-name="Z" unicode="Z" horiz-adv-x="560" d="M197 104 L520 104 L520 0 L39 0 L39 88 L361 596 L45 596 L45 700 L520 700 L520 612 L197 104 Z " />
<glyph glyph-name="Agrave" unicode="&#xc0;" horiz-adv-x="620" d="M593 0 L474 0 L424 177 L185 177 L135 0 L27 0 L27 77 L217 700 L402 700 L593 77 L593 0 Z M307 594 L304 594 L215 281 L395 281 L307 594 Z M363 750 L273 750 L193 852 L193 907 L304 907 L363 765 L363 750 Z " />
<glyph glyph-name="Aacute" unicode="&#xc1;" horiz-adv-x="620" d="M593 0 L474 0 L424 177 L185 177 L135 0 L27 0 L27 77 L217 700 L402 700 L593 77 L593 0 Z M307 594 L304 594 L215 281 L395 281 L307 594 Z M342 750 L252 750 L252 765 L309 907 L423 907 L423 852 L342 750 Z " />
<glyph glyph-name="Acircumflex" unicode="&#xc2;" horiz-adv-x="620" d="M593 0 L474 0 L424 177 L185 177 L135 0 L27 0 L27 77 L217 700 L402 700 L593 77 L593 0 Z M307 594 L304 594 L215 281 L395 281 L307 594 Z M474 750 L386 750 L310 849 L234 750 L147 750 L147 765 L231 907 L391 907 L474 765 L474 750 Z " />
<glyph glyph-name="Atilde" unicode="&#xc3;" horiz-adv-x="620" d="M593 0 L474 0 L424 177 L185 177 L135 0 L27 0 L27 77 L217 700 L402 700 L593 77 L593 0 Z M307 594 L304 594 L215 281 L395 281 L307 594 Z M239 881 Q265 881 283 873 Q301 865 315.5 855 Q330 845 342.5 837 Q355 829 370 829 Q384 829 393.5 836.5 Q403 844 406 855 L406 875 L480 875 L480 822 Q474 795 448.5 772.5 Q423 750 380 750 Q354 750 336 758 Q318 766 304 776 Q290 786 278 794 Q266 802 251 802 Q236 802 226.5 793.5 Q217 785 214 775 L214 755 L140 755 L140 808 Q148 838 173.5 859.5 Q199 881 239 881 Z " />
<glyph glyph-name="Adieresis" unicode="&#xc4;" horiz-adv-x="620" d="M593 0 L474 0 L424 177 L185 177 L135 0 L27 0 L27 77 L217 700 L402 700 L593 77 L593 0 Z M307 594 L304 594 L215 281 L395 281 L307 594 Z M204 884 Q233 884 247.5 874.5 Q262 865 267 858 L267 784 Q262 778 247.5 768.5 Q233 759 204 759 Q175 759 160.5 768.5 Q146 778 141 784 L141 858 Q146 865 160.5 874.5 Q175 884 204 884 Z M416 884 Q445 884 459.5 874.5 Q474 865 479 858 L479 784 Q474 778 459.5 768.5 Q445 759 416 759 Q387 759 372.5 768.5 Q358 778 353 784 L353 858 Q358 865 372.5 874.5 Q387 884 416 884 Z " />
<glyph glyph-name="Amacron" unicode="&#x100;" horiz-adv-x="620" d="M593 0 L474 0 L424 177 L185 177 L135 0 L27 0 L27 77 L217 700 L402 700 L593 77 L593 0 Z M307 594 L304 594 L215 281 L395 281 L307 594 Z M144 765 L144 851 L476 851 L476 765 L144 765 Z " />
<glyph glyph-name="Abreve" unicode="&#x102;" horiz-adv-x="620" d="M593 0 L474 0 L424 177 L185 177 L135 0 L27 0 L27 77 L217 700 L402 700 L593 77 L593 0 Z M307 594 L304 594 L215 281 L395 281 L307 594 Z M471 824 Q454 790 415.5 765 Q377 740 310 740 Q244 740 204.5 765 Q165 790 149 824 L149 883 L240 883 L240 845 Q242 841 247 835 Q252 829 260.5 823 Q269 817 281 813 Q293 809 310 809 Q326 809 338.5 813 Q351 817 359 823 Q367 829 372 835 Q377 841 379 845 L379 883 L471 883 L471 824 Z " />
<glyph glyph-name="Aring" unicode="&#xc5;" horiz-adv-x="620" d="M593 0 L474 0 L424 177 L185 177 L135 0 L27 0 L27 77 L217 700 L232 700 Q204 715 192 740 L192 831 Q206 857 237 873.5 Q268 890 310 890 Q352 890 383 873.5 Q414 857 428 831 L428 740 Q416 715 388 700 L402 700 L593 77 L593 0 Z M253 759 Q258 751 271.5 742.5 Q285 734 310 734 Q335 734 348.5 742.5 Q362 751 367 759 L367 812 Q362 820 348.5 828.5 Q335 837 310 837 Q285 837 271.5 828.5 Q258 820 253 812 L253 759 Z M307 594 L304 594 L215 281 L395 281 L307 594 Z " />
<glyph glyph-name="Aogonek" unicode="&#x104;" horiz-adv-x="620" d="M593 0 Q543 -41 523 -66 Q503 -91 498 -102 L498 -129 Q503 -136 515.5 -141 Q528 -146 544 -146 Q555 -146 567 -144 Q579 -142 593 -137 L593 -207 Q581 -213 564 -217 Q547 -221 519 -221 Q482 -221 450.5 -209 Q419 -197 407 -171 L407 -96 Q415 -79 434.5 -53 Q454 -27 489 0 L474 0 L424 177 L185 177 L135 0 L27 0 L27 77 L217 700 L402 700 L593 77 L593 0 Z M307 594 L304 594 L215 281 L395 281 L307 594 Z " />
<glyph glyph-name="AE" unicode="&#xc6;" horiz-adv-x="860" d="M819 0 L388 0 L388 189 L212 189 L133 0 L27 0 L27 77 L299 700 L811 700 L811 596 L523 596 L523 411 L793 411 L793 307 L523 307 L523 104 L819 104 L819 0 Z M388 598 L384 598 L256 293 L388 293 L388 598 Z " />
<glyph glyph-name="Cacute" unicode="&#x106;" horiz-adv-x="606" d="M313 714 Q370 714 413.5 700 Q457 686 487.5 664.5 Q518 643 537.5 618 Q557 593 568 571 L568 505 L453 505 Q441 548 407 579 Q373 610 314 610 Q264 610 232.5 587 Q201 564 187 535 L187 165 Q201 136 232.5 113 Q264 90 314 90 Q373 90 407 121 Q441 152 453 195 L568 195 L568 129 Q557 107 537.5 82 Q518 57 487.5 35.5 Q457 14 413.5 0 Q370 -14 313 -14 Q256 -14 212 0.5 Q168 15 136.5 37.5 Q105 60 84.5 86.5 Q64 113 53 138 L53 562 Q64 587 84.5 613.5 Q105 640 136.5 662.5 Q168 685 212 699.5 Q256 714 313 714 Z M348 750 L258 750 L258 765 L315 907 L429 907 L429 852 L348 750 Z " />
<glyph glyph-name="Ccircumflex" unicode="&#x108;" horiz-adv-x="606" d="M313 714 Q370 714 413.5 700 Q457 686 487.5 664.5 Q518 643 537.5 618 Q557 593 568 571 L568 505 L453 505 Q441 548 407 579 Q373 610 314 610 Q264 610 232.5 587 Q201 564 187 535 L187 165 Q201 136 232.5 113 Q264 90 314 90 Q373 90 407 121 Q441 152 453 195 L568 195 L568 129 Q557 107 537.5 82 Q518 57 487.5 35.5 Q457 14 413.5 0 Q370 -14 313 -14 Q256 -14 212 0.5 Q168 15 136.5 37.5 Q105 60 84.5 86.5 Q64 113 53 138 L53 562 Q64 587 84.5 613.5 Q105 640 136.5 662.5 Q168 685 212 699.5 Q256 714 313 714 Z M479 750 L391 750 L315 849 L239 750 L152 750 L152 765 L236 907 L396 907 L479 765 L479 750 Z " />
<glyph glyph-name="Ccaron" unicode="&#x10c;" horiz-adv-x="606" d="M313 714 Q370 714 413.5 700 Q457 686 487.5 664.5 Q518 643 537.5 618 Q557 593 568 571 L568 505 L453 505 Q441 548 407 579 Q373 610 314 610 Q264 610 232.5 587 Q201 564 187 535 L187 165 Q201 136 232.5 113 Q264 90 314 90 Q373 90 407 121 Q441 152 453 195 L568 195 L568 129 Q557 107 537.5 82 Q518 57 487.5 35.5 Q457 14 413.5 0 Q370 -14 313 -14 Q256 -14 212 0.5 Q168 15 136.5 37.5 Q105 60 84.5 86.5 Q64 113 53 138 L53 562 Q64 587 84.5 613.5 Q105 640 136.5 662.5 Q168 685 212 699.5 Q256 714 313 714 Z M396 750 L236 750 L152 891 L152 907 L239 907 L315 807 L391 907 L479 907 L479 891 L396 750 Z " />
<glyph glyph-name="Cdotaccent" unicode="&#x10a;" horiz-adv-x="606" d="M313 714 Q370 714 413.5 700 Q457 686 487.5 664.5 Q518 643 537.5 618 Q557 593 568 571 L568 505 L453 505 Q441 548 407 579 Q373 610 314 610 Q264 610 232.5 587 Q201 564 187 535 L187 165 Q201 136 232.5 113 Q264 90 314 90 Q373 90 407 121 Q441 152 453 195 L568 195 L568 129 Q557 107 537.5 82 Q518 57 487.5 35.5 Q457 14 413.5 0 Q370 -14 313 -14 Q256 -14 212 0.5 Q168 15 136.5 37.5 Q105 60 84.5 86.5 Q64 113 53 138 L53 562 Q64 587 84.5 613.5 Q105 640 136.5 662.5 Q168 685 212 699.5 Q256 714 313 714 Z M315 891 Q344 891 361 879.5 Q378 868 384 856 L384 797 Q378 785 361 774 Q344 763 315 763 Q286 763 269 774 Q252 785 247 797 L247 856 Q252 868 269 879.5 Q286 891 315 891 Z " />
<glyph glyph-name="Ccedilla" unicode="&#xc7;" horiz-adv-x="606" d="M314 610 Q264 610 232.5 587 Q201 564 187 535 L187 165 Q201 136 232.5 113 Q264 90 314 90 Q373 90 407 121 Q441 152 453 195 L568 195 L568 129 Q558 108 539.5 84 Q521 60 492.5 39 Q464 18 424.5 3.5 Q385 -11 333 -14 L320 -46 L328 -46 Q366 -46 386.5 -62 Q407 -78 415 -95 L415 -169 Q403 -194 373.5 -209.5 Q344 -225 301 -225 Q269 -225 242 -219 Q215 -213 200 -205 L220 -148 Q236 -154 254.5 -158.5 Q273 -163 293 -163 Q313 -163 324.5 -156.5 Q336 -150 340 -142 L340 -117 Q336 -109 324.5 -104 Q313 -99 294 -99 L233 -99 L264 -11 Q219 -5 184 11 Q149 27 123 48 Q97 69 80 92.5 Q63 116 53 138 L53 562 Q64 587 84.5 613.5 Q105 640 136.5 662.5 Q168 685 212 699.5 Q256 714 313 714 Q370 714 413.5 700 Q457 686 487.5 664.5 Q518 643 537.5 618 Q557 593 568 571 L568 505 L453 505 Q441 548 407 579 Q373 610 314 610 Z " />
<glyph glyph-name="Dcaron" unicode="&#x10e;" horiz-adv-x="628" d="M340 700 Q389 700 428 688 Q467 676 495.5 656.5 Q524 637 543.5 612 Q563 587 574 562 L574 138 Q563 113 543.5 88 Q524 63 495.5 43.5 Q467 24 428 12 Q389 0 340 0 L64 0 L64 700 L340 700 Z M198 103 L315 103 Q364 103 396 122.5 Q428 142 440 172 L440 528 Q428 558 396 577.5 Q364 597 315 597 L198 597 L198 103 Z M395 750 L235 750 L151 891 L151 907 L238 907 L314 807 L390 907 L478 907 L478 891 L395 750 Z " />
<glyph glyph-name="Dcroat" unicode="&#x110;" horiz-adv-x="652" d="M360 700 Q409 700 447.5 688 Q486 676 515 656.5 Q544 637 563.5 612 Q583 587 594 562 L594 138 Q583 113 563.5 88 Q544 63 515 43.5 Q486 24 447.5 12 Q409 0 360 0 L84 0 L84 305 L35 305 L35 406 L84 406 L84 700 L360 700 Z M460 528 Q447 558 415.5 577.5 Q384 597 334 597 L218 597 L218 406 L352 406 L352 305 L218 305 L218 103 L334 103 Q384 103 415.5 122.5 Q447 142 460 172 L460 528 Z " />
<glyph glyph-name="Egrave" unicode="&#xc8;" horiz-adv-x="538" d="M198 596 L198 411 L469 411 L469 307 L198 307 L198 104 L496 104 L496 0 L64 0 L64 700 L489 700 L489 596 L198 596 Z M323 750 L233 750 L153 852 L153 907 L264 907 L323 765 L323 750 Z " />
<glyph glyph-name="Eacute" unicode="&#xc9;" horiz-adv-x="538" d="M198 596 L198 411 L469 411 L469 307 L198 307 L198 104 L496 104 L496 0 L64 0 L64 700 L489 700 L489 596 L198 596 Z M302 750 L212 750 L212 765 L269 907 L383 907 L383 852 L302 750 Z " />
<glyph glyph-name="Ecircumflex" unicode="&#xca;" horiz-adv-x="538" d="M198 596 L198 411 L469 411 L469 307 L198 307 L198 104 L496 104 L496 0 L64 0 L64 700 L489 700 L489 596 L198 596 Z M434 750 L346 750 L270 849 L194 750 L107 750 L107 765 L191 907 L351 907 L434 765 L434 750 Z " />
<glyph glyph-name="Ecaron" unicode="&#x11a;" horiz-adv-x="538" d="M198 596 L198 411 L469 411 L469 307 L198 307 L198 104 L496 104 L496 0 L64 0 L64 700 L489 700 L489 596 L198 596 Z M351 750 L191 750 L107 891 L107 907 L194 907 L270 807 L346 907 L434 907 L434 891 L351 750 Z " />
<glyph glyph-name="Edieresis" unicode="&#xcb;" horiz-adv-x="538" d="M198 596 L198 411 L469 411 L469 307 L198 307 L198 104 L496 104 L496 0 L64 0 L64 700 L489 700 L489 596 L198 596 Z M164 884 Q193 884 207.5 874.5 Q222 865 227 858 L227 784 Q222 778 207.5 768.5 Q193 759 164 759 Q135 759 120.5 768.5 Q106 778 101 784 L101 858 Q106 865 120.5 874.5 Q135 884 164 884 Z M376 884 Q405 884 419.5 874.5 Q434 865 439 858 L439 784 Q434 778 419.5 768.5 Q405 759 376 759 Q347 759 332.5 768.5 Q318 778 313 784 L313 858 Q318 865 332.5 874.5 Q347 884 376 884 Z " />
<glyph glyph-name="Emacron" unicode="&#x112;" horiz-adv-x="538" d="M198 596 L198 411 L469 411 L469 307 L198 307 L198 104 L496 104 L496 0 L64 0 L64 700 L489 700 L489 596 L198 596 Z M104 765 L104 851 L436 851 L436 765 L104 765 Z " />
<glyph glyph-name="Ebreve" unicode="&#x114;" horiz-adv-x="538" d="M198 596 L198 411 L469 411 L469 307 L198 307 L198 104 L496 104 L496 0 L64 0 L64 700 L489 700 L489 596 L198 596 Z M431 824 Q414 790 375.5 765 Q337 740 270 740 Q204 740 164.5 765 Q125 790 109 824 L109 883 L200 883 L200 845 Q202 841 207 835 Q212 829 220.5 823 Q229 817 241 813 Q253 809 270 809 Q286 809 298.5 813 Q311 817 319 823 Q327 829 332 835 Q337 841 339 845 L339 883 L431 883 L431 824 Z " />
<glyph glyph-name="Edotaccent" unicode="&#x116;" horiz-adv-x="538" d="M198 596 L198 411 L469 411 L469 307 L198 307 L198 104 L496 104 L496 0 L64 0 L64 700 L489 700 L489 596 L198 596 Z M270 891 Q299 891 316 879.5 Q333 868 339 856 L339 797 Q333 785 316 774 Q299 763 270 763 Q241 763 224 774 Q207 785 202 797 L202 856 Q207 868 224 879.5 Q241 891 270 891 Z " />
<glyph glyph-name="Eogonek" unicode="&#x118;" horiz-adv-x="538" d="M496 0 Q444 -41 424.5 -65.5 Q405 -90 401 -102 L401 -129 Q406 -136 418.5 -141 Q431 -146 447 -146 Q458 -146 470 -144 Q482 -142 496 -137 L496 -207 Q484 -213 467 -217 Q450 -221 422 -221 Q385 -221 353.5 -209 Q322 -197 310 -171 L310 -96 Q318 -79 337.5 -53 Q357 -27 392 0 L64 0 L64 700 L489 700 L489 596 L198 596 L198 411 L469 411 L469 307 L198 307 L198 104 L496 104 L496 0 Z " />
<glyph glyph-name="Gcircumflex" unicode="&#x11c;" horiz-adv-x="630" d="M314 610 Q265 610 232.5 587 Q200 564 187 535 L187 166 Q199 137 232 114 Q265 91 315 91 Q366 91 397.5 113 Q429 135 443 163 L443 280 L324 280 L324 382 L568 382 L568 0 L460 0 L460 53 Q434 25 394 5.5 Q354 -14 291 -14 Q240 -14 200.5 0.5 Q161 15 132 37.5 Q103 60 83 87 Q63 114 53 139 L53 562 Q63 586 84 613 Q105 640 136.5 662.5 Q168 685 212 699.5 Q256 714 313 714 Q370 714 413.5 700 Q457 686 487.5 664.5 Q518 643 538 618 Q558 593 568 571 L568 505 L453 505 Q442 548 406.5 579 Q371 610 314 610 Z M479 750 L391 750 L315 849 L239 750 L152 750 L152 765 L236 907 L396 907 L479 765 L479 750 Z " />
<glyph glyph-name="Gbreve" unicode="&#x11e;" horiz-adv-x="630" d="M314 610 Q265 610 232.5 587 Q200 564 187 535 L187 166 Q199 137 232 114 Q265 91 315 91 Q366 91 397.5 113 Q429 135 443 163 L443 280 L324 280 L324 382 L568 382 L568 0 L460 0 L460 53 Q434 25 394 5.5 Q354 -14 291 -14 Q240 -14 200.5 0.5 Q161 15 132 37.5 Q103 60 83 87 Q63 114 53 139 L53 562 Q63 586 84 613 Q105 640 136.5 662.5 Q168 685 212 699.5 Q256 714 313 714 Q370 714 413.5 700 Q457 686 487.5 664.5 Q518 643 538 618 Q558 593 568 571 L568 505 L453 505 Q442 548 406.5 579 Q371 610 314 610 Z M476 824 Q459 790 420.5 765 Q382 740 315 740 Q249 740 209.5 765 Q170 790 154 824 L154 883 L245 883 L245 845 Q247 841 252 835 Q257 829 265.5 823 Q274 817 286 813 Q298 809 315 809 Q331 809 343.5 813 Q356 817 364 823 Q372 829 377 835 Q382 841 384 845 L384 883 L476 883 L476 824 Z " />
<glyph glyph-name="Gdotaccent" unicode="&#x120;" horiz-adv-x="630" d="M314 610 Q265 610 232.5 587 Q200 564 187 535 L187 166 Q199 137 232 114 Q265 91 315 91 Q366 91 397.5 113 Q429 135 443 163 L443 280 L324 280 L324 382 L568 382 L568 0 L460 0 L460 53 Q434 25 394 5.5 Q354 -14 291 -14 Q240 -14 200.5 0.5 Q161 15 132 37.5 Q103 60 83 87 Q63 114 53 139 L53 562 Q63 586 84 613 Q105 640 136.5 662.5 Q168 685 212 699.5 Q256 714 313 714 Q370 714 413.5 700 Q457 686 487.5 664.5 Q518 643 538 618 Q558 593 568 571 L568 505 L453 505 Q442 548 406.5 579 Q371 610 314 610 Z M315 891 Q344 891 361 879.5 Q378 868 384 856 L384 797 Q378 785 361 774 Q344 763 315 763 Q286 763 269 774 Q252 785 247 797 L247 856 Q252 868 269 879.5 Q286 891 315 891 Z " />
<glyph glyph-name="Gcommaaccent" unicode="&#x122;" horiz-adv-x="630" d="M314 610 Q265 610 232.5 587 Q200 564 187 535 L187 166 Q199 137 232 114 Q265 91 315 91 Q366 91 397.5 113 Q429 135 443 163 L443 280 L324 280 L324 382 L568 382 L568 0 L460 0 L460 53 Q434 25 394 5.5 Q354 -14 291 -14 Q240 -14 200.5 0.5 Q161 15 132 37.5 Q103 60 83 87 Q63 114 53 139 L53 562 Q63 586 84 613 Q105 640 136.5 662.5 Q168 685 212 699.5 Q256 714 313 714 Q370 714 413.5 700 Q457 686 487.5 664.5 Q518 643 538 618 Q558 593 568 571 L568 505 L453 505 Q442 548 406.5 579 Q371 610 314 610 Z M315 -54 Q344 -54 359.5 -60.5 Q375 -67 380 -73 L380 -175 Q378 -182 372 -190.5 Q366 -199 356 -206.5 Q346 -214 331 -219 Q316 -224 297 -224 L256 -224 L256 -183 L286 -183 Q297 -183 305.5 -180.5 Q314 -178 318 -171 L318 -147 L315 -147 Q288 -147 272 -141.5 Q256 -136 251 -129 L251 -73 Q256 -67 272 -60.5 Q288 -54 315 -54 Z " />
<glyph glyph-name="Hcircumflex" unicode="&#x124;" horiz-adv-x="652" d="M454 0 L454 309 L198 309 L198 0 L64 0 L64 700 L198 700 L198 413 L454 413 L454 700 L588 700 L588 0 L454 0 Z M490 750 L402 750 L326 849 L250 750 L163 750 L163 765 L247 907 L407 907 L490 765 L490 750 Z " />
<glyph glyph-name="Hbar" unicode="&#x126;" horiz-adv-x="652" d="M588 543 L588 0 L454 0 L454 309 L198 309 L198 0 L64 0 L64 543 L27 543 L27 625 L64 625 L64 700 L198 700 L198 625 L454 625 L454 700 L588 700 L588 625 L629 625 L629 543 L588 543 Z M198 543 L198 413 L454 413 L454 543 L198 543 Z " />
<glyph glyph-name="Igrave" unicode="&#xcc;" horiz-adv-x="262" d="M64 0 L64 700 L198 700 L198 0 L64 0 Z M185 750 L95 750 L15 852 L15 907 L126 907 L185 765 L185 750 Z " />
<glyph glyph-name="Iacute" unicode="&#xcd;" horiz-adv-x="262" d="M64 0 L64 700 L198 700 L198 0 L64 0 Z M164 750 L74 750 L74 765 L131 907 L245 907 L245 852 L164 750 Z " />
<glyph glyph-name="Icircumflex" unicode="&#xce;" horiz-adv-x="262" d="M64 0 L64 700 L198 700 L198 0 L64 0 Z M295 750 L207 750 L131 849 L55 750 L-32 750 L-32 765 L52 907 L212 907 L295 765 L295 750 Z " />
<glyph glyph-name="Itilde" unicode="&#x128;" horiz-adv-x="262" d="M64 0 L64 700 L198 700 L198 0 L64 0 Z M60 881 Q86 881 104 873 Q122 865 136.5 855 Q151 845 163.5 837 Q176 829 191 829 Q205 829 214.5 836.5 Q224 844 227 855 L227 875 L301 875 L301 822 Q295 795 269.5 772.5 Q244 750 201 750 Q175 750 157 758 Q139 766 125 776 Q111 786 99 794 Q87 802 72 802 Q57 802 47.5 793.5 Q38 785 35 775 L35 755 L-39 755 L-39 808 Q-31 838 -5.5 859.5 Q20 881 60 881 Z " />
<glyph glyph-name="Idieresis" unicode="&#xcf;" horiz-adv-x="262" d="M64 0 L64 700 L198 700 L198 0 L64 0 Z M25 884 Q54 884 68.5 874.5 Q83 865 88 858 L88 784 Q83 778 68.5 768.5 Q54 759 25 759 Q-4 759 -18.5 768.5 Q-33 778 -38 784 L-38 858 Q-33 865 -18.5 874.5 Q-4 884 25 884 Z M237 884 Q266 884 280.5 874.5 Q295 865 300 858 L300 784 Q295 778 280.5 768.5 Q266 759 237 759 Q208 759 193.5 768.5 Q179 778 174 784 L174 858 Q179 865 193.5 874.5 Q208 884 237 884 Z " />
<glyph glyph-name="Imacron" unicode="&#x12a;" horiz-adv-x="262" d="M64 0 L64 700 L198 700 L198 0 L64 0 Z M-35 765 L-35 851 L297 851 L297 765 L-35 765 Z " />
<glyph glyph-name="Ibreve" unicode="&#x12c;" horiz-adv-x="262" d="M64 0 L64 700 L198 700 L198 0 L64 0 Z M292 824 Q275 790 236.5 765 Q198 740 131 740 Q65 740 25.5 765 Q-14 790 -30 824 L-30 883 L61 883 L61 845 Q63 841 68 835 Q73 829 81.5 823 Q90 817 102 813 Q114 809 131 809 Q147 809 159.5 813 Q172 817 180 823 Q188 829 193 835 Q198 841 200 845 L200 883 L292 883 L292 824 Z " />
<glyph glyph-name="Iogonek" unicode="&#x12e;" horiz-adv-x="262" d="M198 0 Q152 -37 130 -64 Q108 -91 103 -102 L103 -129 Q108 -136 120.5 -141 Q133 -146 149 -146 Q160 -146 172 -144 Q184 -142 198 -137 L198 -207 Q186 -213 169 -217 Q152 -221 124 -221 Q87 -221 55.5 -209 Q24 -197 12 -171 L12 -96 Q20 -79 39.5 -53 Q59 -27 94 0 L64 0 L64 700 L198 700 L198 0 Z " />
<glyph glyph-name="IJ" unicode="&#x132;" horiz-adv-x="649" d="M64 0 L64 700 L198 700 L198 0 L64 0 Z M588 139 Q575 109 553.5 83.5 Q532 58 501.5 39 Q471 20 430.5 9 Q390 -2 337 -2 Q320 -2 305.5 -1.5 Q291 -1 282 0 L282 102 L327 102 Q375 102 407.5 121 Q440 140 454 172 L454 700 L588 700 L588 139 Z " />
<glyph glyph-name="Jcircumflex" unicode="&#x134;" horiz-adv-x="387" d="M326 139 Q313 109 291.5 83.5 Q270 58 239.5 39 Q209 20 168.5 9 Q128 -2 75 -2 Q58 -2 43.5 -1.5 Q29 -1 20 0 L20 102 L65 102 Q113 102 145.5 121 Q178 140 192 172 L192 700 L326 700 L326 139 Z M423 750 L335 750 L259 849 L183 750 L96 750 L96 765 L180 907 L340 907 L423 765 L423 750 Z " />
<glyph glyph-name="Kcommaaccent" unicode="&#x136;" horiz-adv-x="608" d="M578 0 L475 0 L272 320 L198 240 L198 0 L64 0 L64 700 L198 700 L198 406 L462 700 L551 700 L551 623 L358 414 L578 77 L578 0 Z M304 -54 Q333 -54 348.5 -60.5 Q364 -67 369 -73 L369 -175 Q367 -182 361 -190.5 Q355 -199 345 -206.5 Q335 -214 320 -219 Q305 -224 286 -224 L245 -224 L245 -183 L275 -183 Q286 -183 294.5 -180.5 Q303 -178 307 -171 L307 -147 L304 -147 Q277 -147 261 -141.5 Q245 -136 240 -129 L240 -73 Q245 -67 261 -60.5 Q277 -54 304 -54 Z " />
<glyph glyph-name="Lacute" unicode="&#x139;" horiz-adv-x="457" d="M434 104 L434 0 L64 0 L64 700 L198 700 L198 104 L434 104 Z M174 750 L84 750 L84 765 L141 907 L255 907 L255 852 L174 750 Z " />
<glyph glyph-name="Lcaron" unicode="&#x13d;" horiz-adv-x="457" d="M434 104 L434 0 L64 0 L64 700 L198 700 L198 104 L434 104 Z M356 503 L279 503 L279 518 L299 700 L399 700 L399 635 L356 503 Z " />
<glyph glyph-name="Lcommaaccent" unicode="&#x13b;" horiz-adv-x="457" d="M434 104 L434 0 L64 0 L64 700 L198 700 L198 104 L434 104 Z M229 -54 Q258 -54 273.5 -60.5 Q289 -67 294 -73 L294 -175 Q292 -182 286 -190.5 Q280 -199 270 -206.5 Q260 -214 245 -219 Q230 -224 211 -224 L170 -224 L170 -183 L200 -183 Q211 -183 219.5 -180.5 Q228 -178 232 -171 L232 -147 L229 -147 Q202 -147 186 -141.5 Q170 -136 165 -129 L165 -73 Q170 -67 186 -60.5 Q202 -54 229 -54 Z " />
<glyph glyph-name="Lslash" unicode="&#x141;" horiz-adv-x="491" d="M469 0 L98 0 L98 201 L25 163 L25 264 L98 302 L98 700 L232 700 L232 372 L385 451 L385 350 L232 271 L232 104 L469 104 L469 0 Z " />
<glyph glyph-name="Ldot" unicode="&#x13f;" horiz-adv-x="469" d="M434 104 L434 0 L64 0 L64 700 L198 700 L198 104 L434 104 Z M439 422 L439 354 Q433 341 415 330 Q397 319 370 319 Q345 319 327 330 Q309 341 303 354 L303 422 Q309 436 326.5 446.5 Q344 457 370 457 Q397 457 415 446.5 Q433 436 439 422 Z " />
<glyph glyph-name="Nacute" unicode="&#x143;" horiz-adv-x="665" d="M444 0 L192 508 L189 508 L189 0 L64 0 L64 700 L222 700 L473 192 L476 192 L476 700 L601 700 L601 0 L444 0 Z M369 750 L279 750 L279 765 L336 907 L450 907 L450 852 L369 750 Z " />
<glyph glyph-name="Ncaron" unicode="&#x147;" horiz-adv-x="665" d="M444 0 L192 508 L189 508 L189 0 L64 0 L64 700 L222 700 L473 192 L476 192 L476 700 L601 700 L601 0 L444 0 Z M417 750 L257 750 L173 891 L173 907 L260 907 L336 807 L412 907 L500 907 L500 891 L417 750 Z " />
<glyph glyph-name="Ntilde" unicode="&#xd1;" horiz-adv-x="665" d="M444 0 L192 508 L189 508 L189 0 L64 0 L64 700 L222 700 L473 192 L476 192 L476 700 L601 700 L601 0 L444 0 Z M265 881 Q291 881 309 873 Q327 865 341.5 855 Q356 845 368.5 837 Q381 829 396 829 Q410 829 419.5 836.5 Q429 844 432 855 L432 875 L506 875 L506 822 Q500 795 474.5 772.5 Q449 750 406 750 Q380 750 362 758 Q344 766 330 776 Q316 786 304 794 Q292 802 277 802 Q262 802 252.5 793.5 Q243 785 240 775 L240 755 L166 755 L166 808 Q174 838 199.5 859.5 Q225 881 265 881 Z " />
<glyph glyph-name="Ncommaaccent" unicode="&#x145;" horiz-adv-x="665" d="M444 0 L192 508 L189 508 L189 0 L64 0 L64 700 L222 700 L473 192 L476 192 L476 700 L601 700 L601 0 L444 0 Z M332 -54 Q361 -54 376.5 -60.5 Q392 -67 397 -73 L397 -175 Q395 -182 389 -190.5 Q383 -199 373 -206.5 Q363 -214 348 -219 Q333 -224 314 -224 L273 -224 L273 -183 L303 -183 Q314 -183 322.5 -180.5 Q331 -178 335 -171 L335 -147 L332 -147 Q305 -147 289 -141.5 Q273 -136 268 -129 L268 -73 Q273 -67 289 -60.5 Q305 -54 332 -54 Z " />
<glyph glyph-name="Ograve" unicode="&#xd2;" horiz-adv-x="626" d="M313 714 Q370 714 414 699.5 Q458 685 489.5 662.5 Q521 640 542 613.5 Q563 587 573 562 L573 139 Q563 114 542 87 Q521 60 489.5 37.5 Q458 15 414 0.5 Q370 -14 313 -14 Q256 -14 212 0.5 Q168 15 136.5 37.5 Q105 60 84 87 Q63 114 53 139 L53 562 Q63 587 84 613.5 Q105 640 136.5 662.5 Q168 685 212 699.5 Q256 714 313 714 Z M313 610 Q264 610 231.5 587 Q199 564 187 535 L187 166 Q199 137 231.5 114 Q264 91 313 91 Q363 91 395 114 Q427 137 439 166 L439 535 Q427 564 395 587 Q363 610 313 610 Z M366 750 L276 750 L196 852 L196 907 L307 907 L366 765 L366 750 Z " />
<glyph glyph-name="Oacute" unicode="&#xd3;" horiz-adv-x="626" d="M313 714 Q370 714 414 699.5 Q458 685 489.5 662.5 Q521 640 542 613.5 Q563 587 573 562 L573 139 Q563 114 542 87 Q521 60 489.5 37.5 Q458 15 414 0.5 Q370 -14 313 -14 Q256 -14 212 0.5 Q168 15 136.5 37.5 Q105 60 84 87 Q63 114 53 139 L53 562 Q63 587 84 613.5 Q105 640 136.5 662.5 Q168 685 212 699.5 Q256 714 313 714 Z M313 610 Q264 610 231.5 587 Q199 564 187 535 L187 166 Q199 137 231.5 114 Q264 91 313 91 Q363 91 395 114 Q427 137 439 166 L439 535 Q427 564 395 587 Q363 610 313 610 Z M345 750 L255 750 L255 765 L312 907 L426 907 L426 852 L345 750 Z " />
<glyph glyph-name="Ocircumflex" unicode="&#xd4;" horiz-adv-x="626" d="M313 714 Q370 714 414 699.5 Q458 685 489.5 662.5 Q521 640 542 613.5 Q563 587 573 562 L573 139 Q563 114 542 87 Q521 60 489.5 37.5 Q458 15 414 0.5 Q370 -14 313 -14 Q256 -14 212 0.5 Q168 15 136.5 37.5 Q105 60 84 87 Q63 114 53 139 L53 562 Q63 587 84 613.5 Q105 640 136.5 662.5 Q168 685 212 699.5 Q256 714 313 714 Z M313 610 Q264 610 231.5 587 Q199 564 187 535 L187 166 Q199 137 231.5 114 Q264 91 313 91 Q363 91 395 114 Q427 137 439 166 L439 535 Q427 564 395 587 Q363 610 313 610 Z M477 750 L389 750 L313 849 L237 750 L150 750 L150 765 L234 907 L394 907 L477 765 L477 750 Z " />
<glyph glyph-name="Otilde" unicode="&#xd5;" horiz-adv-x="626" d="M313 714 Q370 714 414 699.5 Q458 685 489.5 662.5 Q521 640 542 613.5 Q563 587 573 562 L573 139 Q563 114 542 87 Q521 60 489.5 37.5 Q458 15 414 0.5 Q370 -14 313 -14 Q256 -14 212 0.5 Q168 15 136.5 37.5 Q105 60 84 87 Q63 114 53 139 L53 562 Q63 587 84 613.5 Q105 640 136.5 662.5 Q168 685 212 699.5 Q256 714 313 714 Z M313 610 Q264 610 231.5 587 Q199 564 187 535 L187 166 Q199 137 231.5 114 Q264 91 313 91 Q363 91 395 114 Q427 137 439 166 L439 535 Q427 564 395 587 Q363 610 313 610 Z M242 881 Q268 881 286 873 Q304 865 318.5 855 Q333 845 345.5 837 Q358 829 373 829 Q387 829 396.5 836.5 Q406 844 409 855 L409 875 L483 875 L483 822 Q477 795 451.5 772.5 Q426 750 383 750 Q357 750 339 758 Q321 766 307 776 Q293 786 281 794 Q269 802 254 802 Q239 802 229.5 793.5 Q220 785 217 775 L217 755 L143 755 L143 808 Q151 838 176.5 859.5 Q202 881 242 881 Z " />
<glyph glyph-name="Odieresis" unicode="&#xd6;" horiz-adv-x="626" d="M313 714 Q370 714 414 699.5 Q458 685 489.5 662.5 Q521 640 542 613.5 Q563 587 573 562 L573 139 Q563 114 542 87 Q521 60 489.5 37.5 Q458 15 414 0.5 Q370 -14 313 -14 Q256 -14 212 0.5 Q168 15 136.5 37.5 Q105 60 84 87 Q63 114 53 139 L53 562 Q63 587 84 613.5 Q105 640 136.5 662.5 Q168 685 212 699.5 Q256 714 313 714 Z M313 610 Q264 610 231.5 587 Q199 564 187 535 L187 166 Q199 137 231.5 114 Q264 91 313 91 Q363 91 395 114 Q427 137 439 166 L439 535 Q427 564 395 587 Q363 610 313 610 Z M207 884 Q236 884 250.5 874.5 Q265 865 270 858 L270 784 Q265 778 250.5 768.5 Q236 759 207 759 Q178 759 163.5 768.5 Q149 778 144 784 L144 858 Q149 865 163.5 874.5 Q178 884 207 884 Z M419 884 Q448 884 462.5 874.5 Q477 865 482 858 L482 784 Q477 778 462.5 768.5 Q448 759 419 759 Q390 759 375.5 768.5 Q361 778 356 784 L356 858 Q361 865 375.5 874.5 Q390 884 419 884 Z " />
<glyph glyph-name="Omacron" unicode="&#x14c;" horiz-adv-x="626" d="M313 714 Q370 714 414 699.5 Q458 685 489.5 662.5 Q521 640 542 613.5 Q563 587 573 562 L573 139 Q563 114 542 87 Q521 60 489.5 37.5 Q458 15 414 0.5 Q370 -14 313 -14 Q256 -14 212 0.5 Q168 15 136.5 37.5 Q105 60 84 87 Q63 114 53 139 L53 562 Q63 587 84 613.5 Q105 640 136.5 662.5 Q168 685 212 699.5 Q256 714 313 714 Z M313 610 Q264 610 231.5 587 Q199 564 187 535 L187 166 Q199 137 231.5 114 Q264 91 313 91 Q363 91 395 114 Q427 137 439 166 L439 535 Q427 564 395 587 Q363 610 313 610 Z M147 765 L147 851 L479 851 L479 765 L147 765 Z " />
<glyph glyph-name="Obreve" unicode="&#x14e;" horiz-adv-x="626" d="M313 714 Q370 714 414 699.5 Q458 685 489.5 662.5 Q521 640 542 613.5 Q563 587 573 562 L573 139 Q563 114 542 87 Q521 60 489.5 37.5 Q458 15 414 0.5 Q370 -14 313 -14 Q256 -14 212 0.5 Q168 15 136.5 37.5 Q105 60 84 87 Q63 114 53 139 L53 562 Q63 587 84 613.5 Q105 640 136.5 662.5 Q168 685 212 699.5 Q256 714 313 714 Z M313 610 Q264 610 231.5 587 Q199 564 187 535 L187 166 Q199 137 231.5 114 Q264 91 313 91 Q363 91 395 114 Q427 137 439 166 L439 535 Q427 564 395 587 Q363 610 313 610 Z M474 824 Q457 790 418.5 765 Q380 740 313 740 Q247 740 207.5 765 Q168 790 152 824 L152 883 L243 883 L243 845 Q245 841 250 835 Q255 829 263.5 823 Q272 817 284 813 Q296 809 313 809 Q329 809 341.5 813 Q354 817 362 823 Q370 829 375 835 Q380 841 382 845 L382 883 L474 883 L474 824 Z " />
<glyph glyph-name="Ohungarumlaut" unicode="&#x150;" horiz-adv-x="626" d="M313 714 Q370 714 414 699.5 Q458 685 489.5 662.5 Q521 640 542 613.5 Q563 587 573 562 L573 139 Q563 114 542 87 Q521 60 489.5 37.5 Q458 15 414 0.5 Q370 -14 313 -14 Q256 -14 212 0.5 Q168 15 136.5 37.5 Q105 60 84 87 Q63 114 53 139 L53 562 Q63 587 84 613.5 Q105 640 136.5 662.5 Q168 685 212 699.5 Q256 714 313 714 Z M313 610 Q264 610 231.5 587 Q199 564 187 535 L187 166 Q199 137 231.5 114 Q264 91 313 91 Q363 91 395 114 Q427 137 439 166 L439 535 Q427 564 395 587 Q363 610 313 610 Z M259 750 L179 750 L179 765 L221 906 L318 906 L318 860 L259 750 Z M448 750 L368 750 L368 765 L409 906 L506 906 L506 860 L448 750 Z " />
<glyph glyph-name="Oslash" unicode="&#xd8;" horiz-adv-x="626" d="M544 610 Q554 598 561 585.5 Q568 573 573 562 L573 139 Q562 114 541.5 87 Q521 60 489.5 37.5 Q458 15 414 0.5 Q370 -14 313 -14 Q256 -14 213.5 0 Q171 14 139 36 L114 0 L53 0 L53 49 L82 90 Q72 102 65 114.5 Q58 127 53 139 L53 562 Q64 587 84.5 613.5 Q105 640 136.5 662.5 Q168 685 212 699.5 Q256 714 313 714 Q370 714 412.5 700 Q455 686 487 665 L512 700 L573 700 L573 651 L544 610 Z M418 567 Q401 586 375 598 Q349 610 313 610 Q263 610 231.5 587 Q200 564 187 535 L187 239 L418 567 Z M208 134 Q225 115 251.5 103 Q278 91 313 91 Q364 91 395 114 Q426 137 439 166 L439 461 L208 134 Z " />
<glyph glyph-name="OE" unicode="&#x152;" horiz-adv-x="912" d="M870 0 L438 0 L438 10 Q412 -1 381 -7.5 Q350 -14 312 -14 Q255 -14 211 0.5 Q167 15 135.5 37.5 Q104 60 84 87 Q64 114 53 139 L53 562 Q64 587 84 613.5 Q104 640 135.5 662.5 Q167 685 211 699.5 Q255 714 312 714 Q350 714 381 707.5 Q412 701 438 690 L438 700 L862 700 L862 596 L572 596 L572 411 L843 411 L843 307 L572 307 L572 104 L870 104 L870 0 Z M312 91 Q363 91 393.5 114 Q424 137 438 166 L438 535 Q426 564 394.5 587 Q363 610 312 610 Q262 610 231 587 Q200 564 187 535 L187 166 Q199 137 230.5 114 Q262 91 312 91 Z " />
<glyph glyph-name="Racute" unicode="&#x154;" horiz-adv-x="602" d="M562 0 L458 0 L287 284 L198 284 L198 0 L64 0 L64 700 L345 700 Q410 700 464.5 669 Q519 638 550 582 L550 404 Q529 366 496.5 338 Q464 310 421 296 L562 77 L562 0 Z M315 382 Q392 382 423 441 L423 538 Q408 567 379 582 Q350 597 315 597 L198 597 L198 382 L315 382 Z M333 750 L243 750 L243 765 L300 907 L414 907 L414 852 L333 750 Z " />
<glyph glyph-name="Rcaron" unicode="&#x158;" horiz-adv-x="602" d="M562 0 L458 0 L287 284 L198 284 L198 0 L64 0 L64 700 L345 700 Q410 700 464.5 669 Q519 638 550 582 L550 404 Q529 366 496.5 338 Q464 310 421 296 L562 77 L562 0 Z M315 382 Q392 382 423 441 L423 538 Q408 567 379 582 Q350 597 315 597 L198 597 L198 382 L315 382 Z M381 750 L221 750 L137 891 L137 907 L224 907 L300 807 L376 907 L464 907 L464 891 L381 750 Z " />
<glyph glyph-name="Rcommaaccent" unicode="&#x156;" horiz-adv-x="602" d="M562 0 L458 0 L287 284 L198 284 L198 0 L64 0 L64 700 L345 700 Q410 700 464.5 669 Q519 638 550 582 L550 404 Q529 366 496.5 338 Q464 310 421 296 L562 77 L562 0 Z M315 382 Q392 382 423 441 L423 538 Q408 567 379 582 Q350 597 315 597 L198 597 L198 382 L315 382 Z M300 -54 Q329 -54 344.5 -60.5 Q360 -67 365 -73 L365 -175 Q363 -182 357 -190.5 Q351 -199 341 -206.5 Q331 -214 316 -219 Q301 -224 282 -224 L241 -224 L241 -183 L271 -183 Q282 -183 290.5 -180.5 Q299 -178 303 -171 L303 -147 L300 -147 Q273 -147 257 -141.5 Q241 -136 236 -129 L236 -73 Q241 -67 257 -60.5 Q273 -54 300 -54 Z " />
<glyph glyph-name="Sacute" unicode="&#x15a;" horiz-adv-x="591" d="M294 714 Q345 714 385 702 Q425 690 454.5 672 Q484 654 503.5 633 Q523 612 533 594 L533 528 L418 528 Q407 561 377 585.5 Q347 610 292 610 Q251 610 223 593 Q195 576 184 556 L184 474 Q188 466 193.5 459.5 Q199 453 208.5 447 Q218 441 233.5 435 Q249 429 273 423 L330 409 Q384 395 420 380 Q456 365 480 349 Q504 333 518.5 316 Q533 299 542 283 L542 119 Q532 101 513 77.5 Q494 54 464 34 Q434 14 392 0 Q350 -14 293 -14 Q234 -14 191 0 Q148 14 117.5 34 Q87 54 68 77 Q49 100 40 118 L40 185 L156 185 Q167 146 202 118.5 Q237 91 292 91 Q339 91 370.5 111.5 Q402 132 413 156 L413 235 Q403 254 381.5 269.5 Q360 285 312 297 L256 311 Q208 323 175 335 Q142 347 119.5 360.5 Q97 374 81.5 390 Q66 406 54 426 L54 594 Q64 612 83.5 633 Q103 654 132.5 672 Q162 690 202 702 Q242 714 294 714 Z M334 750 L244 750 L244 765 L301 907 L415 907 L415 852 L334 750 Z " />
<glyph glyph-name="Scircumflex" unicode="&#x15c;" horiz-adv-x="591" d="M294 714 Q345 714 385 702 Q425 690 454.5 672 Q484 654 503.5 633 Q523 612 533 594 L533 528 L418 528 Q407 561 377 585.5 Q347 610 292 610 Q251 610 223 593 Q195 576 184 556 L184 474 Q188 466 193.5 459.5 Q199 453 208.5 447 Q218 441 233.5 435 Q249 429 273 423 L330 409 Q384 395 420 380 Q456 365 480 349 Q504 333 518.5 316 Q533 299 542 283 L542 119 Q532 101 513 77.5 Q494 54 464 34 Q434 14 392 0 Q350 -14 293 -14 Q234 -14 191 0 Q148 14 117.5 34 Q87 54 68 77 Q49 100 40 118 L40 185 L156 185 Q167 146 202 118.5 Q237 91 292 91 Q339 91 370.5 111.5 Q402 132 413 156 L413 235 Q403 254 381.5 269.5 Q360 285 312 297 L256 311 Q208 323 175 335 Q142 347 119.5 360.5 Q97 374 81.5 390 Q66 406 54 426 L54 594 Q64 612 83.5 633 Q103 654 132.5 672 Q162 690 202 702 Q242 714 294 714 Z M466 750 L378 750 L302 849 L226 750 L139 750 L139 765 L223 907 L383 907 L466 765 L466 750 Z " />
<glyph glyph-name="Scaron" unicode="&#x160;" horiz-adv-x="591" d="M294 714 Q345 714 385 702 Q425 690 454.5 672 Q484 654 503.5 633 Q523 612 533 594 L533 528 L418 528 Q407 561 377 585.5 Q347 610 292 610 Q251 610 223 593 Q195 576 184 556 L184 474 Q188 466 193.5 459.5 Q199 453 208.5 447 Q218 441 233.5 435 Q249 429 273 423 L330 409 Q384 395 420 380 Q456 365 480 349 Q504 333 518.5 316 Q533 299 542 283 L542 119 Q532 101 513 77.5 Q494 54 464 34 Q434 14 392 0 Q350 -14 293 -14 Q234 -14 191 0 Q148 14 117.5 34 Q87 54 68 77 Q49 100 40 118 L40 185 L156 185 Q167 146 202 118.5 Q237 91 292 91 Q339 91 370.5 111.5 Q402 132 413 156 L413 235 Q403 254 381.5 269.5 Q360 285 312 297 L256 311 Q208 323 175 335 Q142 347 119.5 360.5 Q97 374 81.5 390 Q66 406 54 426 L54 594 Q64 612 83.5 633 Q103 654 132.5 672 Q162 690 202 702 Q242 714 294 714 Z M383 750 L223 750 L139 891 L139 907 L226 907 L302 807 L378 907 L466 907 L466 891 L383 750 Z " />
<glyph glyph-name="Scedilla" unicode="&#x15e;" horiz-adv-x="591" d="M330 409 Q384 395 420 380 Q456 365 480 349 Q504 333 518 316 Q532 299 542 283 L542 119 Q533 102 515.5 80.5 Q498 59 471 39.5 Q444 20 406.5 5 Q369 -10 319 -13 L306 -46 L314 -46 Q352 -46 372.5 -62 Q393 -78 401 -95 L401 -169 Q390 -194 360 -209.5 Q330 -225 287 -225 Q255 -225 228 -219 Q201 -213 187 -205 L206 -148 Q223 -154 241 -158.5 Q259 -163 279 -163 Q299 -163 310.5 -156.5 Q322 -150 326 -142 L326 -117 Q322 -109 310.5 -104 Q299 -99 280 -99 L219 -99 L249 -12 Q202 -7 166.5 8 Q131 23 106 42 Q81 61 65 81.5 Q49 102 40 118 L40 185 L156 185 Q167 146 202 118.5 Q237 91 292 91 Q342 91 372 112 Q402 133 413 156 L413 236 Q403 255 381.5 270.5 Q360 286 312 297 L256 311 Q208 323 175 335.5 Q142 348 119.5 361.5 Q97 375 82 391 Q67 407 54 427 L54 594 Q64 612 83.5 633 Q103 654 132.5 672 Q162 690 202 702 Q242 714 294 714 Q345 714 385 702 Q425 690 454.5 672 Q484 654 503.5 633 Q523 612 533 594 L533 528 L418 528 Q407 561 377 585.5 Q347 610 292 610 Q251 610 223 593 Q195 576 184 556 L184 474 Q188 466 193.5 459.5 Q199 453 208.5 447 Q218 441 233.5 435 Q249 429 273 423 L330 409 Z " />
<glyph glyph-name="Scommaaccent" unicode="&#x218;" horiz-adv-x="591" d="M294 714 Q345 714 385 702 Q425 690 454.5 672 Q484 654 503.5 633 Q523 612 533 594 L533 528 L418 528 Q407 561 377 585.5 Q347 610 292 610 Q251 610 223 593 Q195 576 184 556 L184 474 Q188 466 193.5 459.5 Q199 453 208.5 447 Q218 441 233.5 435 Q249 429 273 423 L330 409 Q384 395 420 380 Q456 365 480 349 Q504 333 518.5 316 Q533 299 542 283 L542 119 Q532 101 513 77.5 Q494 54 464 34 Q434 14 392 0 Q350 -14 293 -14 Q234 -14 191 0 Q148 14 117.5 34 Q87 54 68 77 Q49 100 40 118 L40 185 L156 185 Q167 146 202 118.5 Q237 91 292 91 Q339 91 370.5 111.5 Q402 132 413 156 L413 235 Q403 254 381.5 269.5 Q360 285 312 297 L256 311 Q208 323 175 335 Q142 347 119.5 360.5 Q97 374 81.5 390 Q66 406 54 426 L54 594 Q64 612 83.5 633 Q103 654 132.5 672 Q162 690 202 702 Q242 714 294 714 Z M292 -54 Q321 -54 336.5 -60.5 Q352 -67 357 -73 L357 -175 Q355 -182 349 -190.5 Q343 -199 333 -206.5 Q323 -214 308 -219 Q293 -224 274 -224 L233 -224 L233 -183 L263 -183 Q274 -183 282.5 -180.5 Q291 -178 295 -171 L295 -147 L292 -147 Q265 -147 249 -141.5 Q233 -136 228 -129 L228 -73 Q233 -67 249 -60.5 Q265 -54 292 -54 Z " />
<glyph glyph-name="Tcaron" unicode="&#x164;" horiz-adv-x="538" d="M336 596 L336 0 L202 0 L202 596 L25 596 L25 700 L513 700 L513 596 L336 596 Z M350 750 L190 750 L106 891 L106 907 L193 907 L269 807 L345 907 L433 907 L433 891 L350 750 Z " />
<glyph glyph-name="uni021A" unicode="&#x21a;" horiz-adv-x="538" d="M336 596 L336 0 L202 0 L202 596 L25 596 L25 700 L513 700 L513 596 L336 596 Z M269 -54 Q298 -54 313.5 -60.5 Q329 -67 334 -73 L334 -175 Q332 -182 326 -190.5 Q320 -199 310 -206.5 Q300 -214 285 -219 Q270 -224 251 -224 L210 -224 L210 -183 L240 -183 Q251 -183 259.5 -180.5 Q268 -178 272 -171 L272 -147 L269 -147 Q242 -147 226 -141.5 Q210 -136 205 -129 L205 -73 Q210 -67 226 -60.5 Q242 -54 269 -54 Z " />
<glyph glyph-name="Tbar" unicode="&#x166;" horiz-adv-x="538" d="M336 411 L463 411 L463 330 L336 330 L336 0 L202 0 L202 330 L77 330 L77 411 L202 411 L202 596 L25 596 L25 700 L513 700 L513 596 L336 596 L336 411 Z " />
<glyph glyph-name="Ugrave" unicode="&#xd9;" horiz-adv-x="641" d="M580 139 Q569 112 548.5 86 Q528 60 496.5 37.5 Q465 15 421.5 0.5 Q378 -14 320 -14 Q263 -14 219 0.5 Q175 15 143.5 37.5 Q112 60 92 87 Q72 114 61 139 L61 700 L195 700 L195 168 Q207 138 239 115.5 Q271 93 320 93 Q370 93 401 115.5 Q432 138 446 168 L446 700 L580 700 L580 139 Z M374 750 L284 750 L204 852 L204 907 L315 907 L374 765 L374 750 Z " />
<glyph glyph-name="Uacute" unicode="&#xda;" horiz-adv-x="641" d="M580 139 Q569 112 548.5 86 Q528 60 496.5 37.5 Q465 15 421.5 0.5 Q378 -14 320 -14 Q263 -14 219 0.5 Q175 15 143.5 37.5 Q112 60 92 87 Q72 114 61 139 L61 700 L195 700 L195 168 Q207 138 239 115.5 Q271 93 320 93 Q370 93 401 115.5 Q432 138 446 168 L446 700 L580 700 L580 139 Z M353 750 L263 750 L263 765 L320 907 L434 907 L434 852 L353 750 Z " />
<glyph glyph-name="Ucircumflex" unicode="&#xdb;" horiz-adv-x="641" d="M580 139 Q569 112 548.5 86 Q528 60 496.5 37.5 Q465 15 421.5 0.5 Q378 -14 320 -14 Q263 -14 219 0.5 Q175 15 143.5 37.5 Q112 60 92 87 Q72 114 61 139 L61 700 L195 700 L195 168 Q207 138 239 115.5 Q271 93 320 93 Q370 93 401 115.5 Q432 138 446 168 L446 700 L580 700 L580 139 Z M484 750 L396 750 L320 849 L244 750 L157 750 L157 765 L241 907 L401 907 L484 765 L484 750 Z " />
<glyph glyph-name="Utilde" unicode="&#x168;" horiz-adv-x="641" d="M580 139 Q569 112 548.5 86 Q528 60 496.5 37.5 Q465 15 421.5 0.5 Q378 -14 320 -14 Q263 -14 219 0.5 Q175 15 143.5 37.5 Q112 60 92 87 Q72 114 61 139 L61 700 L195 700 L195 168 Q207 138 239 115.5 Q271 93 320 93 Q370 93 401 115.5 Q432 138 446 168 L446 700 L580 700 L580 139 Z M249 881 Q275 881 293 873 Q311 865 325.5 855 Q340 845 352.5 837 Q365 829 380 829 Q394 829 403.5 836.5 Q413 844 416 855 L416 875 L490 875 L490 822 Q484 795 458.5 772.5 Q433 750 390 750 Q364 750 346 758 Q328 766 314 776 Q300 786 288 794 Q276 802 261 802 Q246 802 236.5 793.5 Q227 785 224 775 L224 755 L150 755 L150 808 Q158 838 183.5 859.5 Q209 881 249 881 Z " />
<glyph glyph-name="Udieresis" unicode="&#xdc;" horiz-adv-x="641" d="M580 139 Q569 112 548.5 86 Q528 60 496.5 37.5 Q465 15 421.5 0.5 Q378 -14 320 -14 Q263 -14 219 0.5 Q175 15 143.5 37.5 Q112 60 92 87 Q72 114 61 139 L61 700 L195 700 L195 168 Q207 138 239 115.5 Q271 93 320 93 Q370 93 401 115.5 Q432 138 446 168 L446 700 L580 700 L580 139 Z M214 884 Q243 884 257.5 874.5 Q272 865 277 858 L277 784 Q272 778 257.5 768.5 Q243 759 214 759 Q185 759 170.5 768.5 Q156 778 151 784 L151 858 Q156 865 170.5 874.5 Q185 884 214 884 Z M426 884 Q455 884 469.5 874.5 Q484 865 489 858 L489 784 Q484 778 469.5 768.5 Q455 759 426 759 Q397 759 382.5 768.5 Q368 778 363 784 L363 858 Q368 865 382.5 874.5 Q397 884 426 884 Z " />
<glyph glyph-name="Umacron" unicode="&#x16a;" horiz-adv-x="641" d="M580 139 Q569 112 548.5 86 Q528 60 496.5 37.5 Q465 15 421.5 0.5 Q378 -14 320 -14 Q263 -14 219 0.5 Q175 15 143.5 37.5 Q112 60 92 87 Q72 114 61 139 L61 700 L195 700 L195 168 Q207 138 239 115.5 Q271 93 320 93 Q370 93 401 115.5 Q432 138 446 168 L446 700 L580 700 L580 139 Z M154 765 L154 851 L486 851 L486 765 L154 765 Z " />
<glyph glyph-name="Ubreve" unicode="&#x16c;" horiz-adv-x="641" d="M580 139 Q569 112 548.5 86 Q528 60 496.5 37.5 Q465 15 421.5 0.5 Q378 -14 320 -14 Q263 -14 219 0.5 Q175 15 143.5 37.5 Q112 60 92 87 Q72 114 61 139 L61 700 L195 700 L195 168 Q207 138 239 115.5 Q271 93 320 93 Q370 93 401 115.5 Q432 138 446 168 L446 700 L580 700 L580 139 Z M481 824 Q464 790 425.5 765 Q387 740 320 740 Q254 740 214.5 765 Q175 790 159 824 L159 883 L250 883 L250 845 Q252 841 257 835 Q262 829 270.5 823 Q279 817 291 813 Q303 809 320 809 Q336 809 348.5 813 Q361 817 369 823 Q377 829 382 835 Q387 841 389 845 L389 883 L481 883 L481 824 Z " />
<glyph glyph-name="Uring" unicode="&#x16e;" horiz-adv-x="641" d="M580 139 Q569 112 548.5 86 Q528 60 496.5 37.5 Q465 15 421.5 0.5 Q378 -14 320 -14 Q263 -14 219 0.5 Q175 15 143.5 37.5 Q112 60 92 87 Q72 114 61 139 L61 700 L195 700 L195 168 Q207 138 239 115.5 Q271 93 320 93 Q370 93 401 115.5 Q432 138 446 168 L446 700 L580 700 L580 139 Z M320 890 Q362 890 393 873.5 Q424 857 438 831 L438 740 Q424 714 393 697 Q362 680 320 680 Q278 680 247 697 Q216 714 202 740 L202 831 Q216 857 247 873.5 Q278 890 320 890 Z M320 837 Q295 837 281.5 828.5 Q268 820 263 812 L263 759 Q268 751 281.5 742.5 Q295 734 320 734 Q345 734 358.5 742.5 Q372 751 377 759 L377 812 Q372 820 358.5 828.5 Q345 837 320 837 Z " />
<glyph glyph-name="Uhungarumlaut" unicode="&#x170;" horiz-adv-x="641" d="M580 139 Q569 112 548.5 86 Q528 60 496.5 37.5 Q465 15 421.5 0.5 Q378 -14 320 -14 Q263 -14 219 0.5 Q175 15 143.5 37.5 Q112 60 92 87 Q72 114 61 139 L61 700 L195 700 L195 168 Q207 138 239 115.5 Q271 93 320 93 Q370 93 401 115.5 Q432 138 446 168 L446 700 L580 700 L580 139 Z M266 750 L186 750 L186 765 L228 906 L325 906 L325 860 L266 750 Z M455 750 L375 750 L375 765 L416 906 L513 906 L513 860 L455 750 Z " />
<glyph glyph-name="Uogonek" unicode="&#x172;" horiz-adv-x="641" d="M580 139 Q570 116 553 93 Q536 70 508 44 Q484 21 463 -2.5 Q442 -26 426.5 -46 Q411 -66 401.5 -81 Q392 -96 390 -102 L390 -129 Q395 -136 407.5 -141 Q420 -146 436 -146 Q447 -146 459 -144 Q471 -142 485 -137 L485 -207 Q473 -213 456 -217 Q439 -221 411 -221 Q374 -221 342.5 -209 Q311 -197 299 -171 L299 -96 Q306 -81 322.5 -58.5 Q339 -36 367 -11 Q346 -14 320 -14 Q263 -14 219 0.5 Q175 15 143.5 37.5 Q112 60 92 87 Q72 114 61 139 L61 700 L195 700 L195 168 Q207 138 238.5 115.5 Q270 93 320 93 Q371 93 401.5 115.5 Q432 138 446 168 L446 700 L580 700 L580 139 Z " />
<glyph glyph-name="Wgrave" unicode="&#x1e80;" horiz-adv-x="912" d="M753 0 L575 0 L455 489 L452 489 L333 0 L158 0 L33 623 L33 700 L156 700 L259 141 L262 141 L395 700 L520 700 L655 141 L658 141 L760 700 L879 700 L879 623 L753 0 Z M511 750 L421 750 L341 852 L341 907 L452 907 L511 765 L511 750 Z " />
<glyph glyph-name="Wacute" unicode="&#x1e82;" horiz-adv-x="912" d="M753 0 L575 0 L455 489 L452 489 L333 0 L158 0 L33 623 L33 700 L156 700 L259 141 L262 141 L395 700 L520 700 L655 141 L658 141 L760 700 L879 700 L879 623 L753 0 Z M490 750 L400 750 L400 765 L457 907 L571 907 L571 852 L490 750 Z " />
<glyph glyph-name="Wcircumflex" unicode="&#x174;" horiz-adv-x="912" d="M753 0 L575 0 L455 489 L452 489 L333 0 L158 0 L33 623 L33 700 L156 700 L259 141 L262 141 L395 700 L520 700 L655 141 L658 141 L760 700 L879 700 L879 623 L753 0 Z M622 750 L534 750 L458 849 L382 750 L295 750 L295 765 L379 907 L539 907 L622 765 L622 750 Z " />
<glyph glyph-name="Wdieresis" unicode="&#x1e84;" horiz-adv-x="912" d="M753 0 L575 0 L455 489 L452 489 L333 0 L158 0 L33 623 L33 700 L156 700 L259 141 L262 141 L395 700 L520 700 L655 141 L658 141 L760 700 L879 700 L879 623 L753 0 Z M352 884 Q381 884 395.5 874.5 Q410 865 415 858 L415 784 Q410 778 395.5 768.5 Q381 759 352 759 Q323 759 308.5 768.5 Q294 778 289 784 L289 858 Q294 865 308.5 874.5 Q323 884 352 884 Z M564 884 Q593 884 607.5 874.5 Q622 865 627 858 L627 784 Q622 778 607.5 768.5 Q593 759 564 759 Q535 759 520.5 768.5 Q506 778 501 784 L501 858 Q506 865 520.5 874.5 Q535 884 564 884 Z " />
<glyph glyph-name="Ygrave" unicode="&#x1ef2;" horiz-adv-x="572" d="M351 286 L351 0 L216 0 L216 298 L30 623 L30 700 L139 700 L288 418 L291 418 L438 700 L542 700 L542 623 L351 286 Z M339 750 L249 750 L169 852 L169 907 L280 907 L339 765 L339 750 Z " />
<glyph glyph-name="Yacute" unicode="&#xdd;" horiz-adv-x="572" d="M351 286 L351 0 L216 0 L216 298 L30 623 L30 700 L139 700 L288 418 L291 418 L438 700 L542 700 L542 623 L351 286 Z M318 750 L228 750 L228 765 L285 907 L399 907 L399 852 L318 750 Z " />
<glyph glyph-name="Ycircumflex" unicode="&#x176;" horiz-adv-x="572" d="M351 286 L351 0 L216 0 L216 298 L30 623 L30 700 L139 700 L288 418 L291 418 L438 700 L542 700 L542 623 L351 286 Z M449 750 L361 750 L285 849 L209 750 L122 750 L122 765 L206 907 L366 907 L449 765 L449 750 Z " />
<glyph glyph-name="Ydieresis" unicode="&#x178;" horiz-adv-x="572" d="M351 286 L351 0 L216 0 L216 298 L30 623 L30 700 L139 700 L288 418 L291 418 L438 700 L542 700 L542 623 L351 286 Z M179 884 Q208 884 222.5 874.5 Q237 865 242 858 L242 784 Q237 778 222.5 768.5 Q208 759 179 759 Q150 759 135.5 768.5 Q121 778 116 784 L116 858 Q121 865 135.5 874.5 Q150 884 179 884 Z M391 884 Q420 884 434.5 874.5 Q449 865 454 858 L454 784 Q449 778 434.5 768.5 Q420 759 391 759 Q362 759 347.5 768.5 Q333 778 328 784 L328 858 Q333 865 347.5 874.5 Q362 884 391 884 Z " />
<glyph glyph-name="Zacute" unicode="&#x179;" horiz-adv-x="560" d="M197 104 L520 104 L520 0 L39 0 L39 88 L361 596 L45 596 L45 700 L520 700 L520 612 L197 104 Z M312 750 L222 750 L222 765 L279 907 L393 907 L393 852 L312 750 Z " />
<glyph glyph-name="Zcaron" unicode="&#x17d;" horiz-adv-x="560" d="M197 104 L520 104 L520 0 L39 0 L39 88 L361 596 L45 596 L45 700 L520 700 L520 612 L197 104 Z M361 750 L201 750 L117 891 L117 907 L204 907 L280 807 L356 907 L444 907 L444 891 L361 750 Z " />
<glyph glyph-name="Zdotaccent" unicode="&#x17b;" horiz-adv-x="560" d="M197 104 L520 104 L520 0 L39 0 L39 88 L361 596 L45 596 L45 700 L520 700 L520 612 L197 104 Z M280 891 Q309 891 326 879.5 Q343 868 349 856 L349 797 Q343 785 326 774 Q309 763 280 763 Q251 763 234 774 Q217 785 212 797 L212 856 Q217 868 234 879.5 Q251 891 280 891 Z " />
<glyph glyph-name="Eng" unicode="&#x14a;" horiz-adv-x="665" d="M601 -28 Q589 -57 566.5 -83.5 Q544 -110 511.5 -130 Q479 -150 436.5 -162.5 Q394 -175 341 -175 Q327 -175 316.5 -174.5 Q306 -174 300 -173 L300 -73 Q305 -74 318 -74.5 Q331 -75 339 -75 Q379 -75 409 -60.5 Q439 -46 456 -22 L192 508 L189 508 L189 0 L64 0 L64 700 L222 700 L473 192 L476 192 L476 700 L601 700 L601 -28 Z " />
<glyph glyph-name="Eth" unicode="&#xd0;" horiz-adv-x="652" d="M360 700 Q409 700 447.5 688 Q486 676 515 656.5 Q544 637 563.5 612 Q583 587 594 562 L594 138 Q583 113 563.5 88 Q544 63 515 43.5 Q486 24 447.5 12 Q409 0 360 0 L84 0 L84 305 L35 305 L35 406 L84 406 L84 700 L360 700 Z M460 528 Q447 558 415.5 577.5 Q384 597 334 597 L218 597 L218 406 L352 406 L352 305 L218 305 L218 103 L334 103 Q384 103 415.5 122.5 Q447 142 460 172 L460 528 Z " />
<glyph glyph-name="Thorn" unicode="&#xde;" horiz-adv-x="584" d="M340 586 Q405 586 459.5 555 Q514 524 546 467 L546 267 Q532 243 512.5 221 Q493 199 467 183 Q441 167 409 157.5 Q377 148 340 148 L198 148 L198 0 L64 0 L64 700 L198 700 L198 586 L340 586 Z M416 424 Q399 456 369.5 469.5 Q340 483 309 483 L198 483 L198 251 L309 251 Q344 251 372.5 266 Q401 281 416 310 L416 424 Z " />
<glyph glyph-name="a" unicode="a" horiz-adv-x="551" d="M268 555 Q319 555 358 542 Q397 529 425 509.5 Q453 490 471.5 466 Q490 442 499 421 L499 0 L379 0 L379 44 Q355 20 318 3 Q281 -14 227 -14 Q183 -14 150.5 -4.5 Q118 5 96.5 18.5 Q75 32 62 46 Q49 60 44 69 L44 239 Q49 249 62 264 Q75 279 96.5 293 Q118 307 150 317 Q182 327 226 327 L375 327 L375 396 Q364 421 335.5 439.5 Q307 458 268 458 Q226 458 199 438.5 Q172 419 161 394 L55 394 L55 454 Q61 463 75.5 479.5 Q90 496 115.5 513 Q141 530 178.5 542.5 Q216 555 268 555 Z M260 75 Q302 75 332 90 Q362 105 375 125 L375 240 L260 240 Q221 240 198 226.5 Q175 213 166 202 L166 116 Q177 100 201.5 87.5 Q226 75 260 75 Z " />
<glyph glyph-name="b" unicode="b" horiz-adv-x="555" d="M322 553 Q365 553 396.5 540.5 Q428 528 450.5 510 Q473 492 487.5 471.5 Q502 451 508 435 L508 106 Q501 89 487 68.5 Q473 48 450.5 30 Q428 12 396.5 0 Q365 -12 322 -12 Q271 -12 235 4 Q199 20 175 43 L175 0 L55 0 L55 700 L179 700 L179 501 Q203 524 238 538.5 Q273 553 322 553 Z M383 406 Q379 413 371 421.5 Q363 430 351 437.5 Q339 445 322.5 450 Q306 455 285 455 Q247 455 220.5 442.5 Q194 430 179 413 L179 129 Q194 112 220.5 99 Q247 86 285 86 Q306 86 322.5 91 Q339 96 351 103.5 Q363 111 371 119.5 Q379 128 383 135 L383 406 Z " />
<glyph glyph-name="c" unicode="c" horiz-adv-x="536" d="M278 555 Q329 555 367.5 542 Q406 529 433 510.5 Q460 492 476.5 472 Q493 452 501 436 L501 376 L395 376 Q378 416 350.5 437 Q323 458 278 458 Q237 458 209 438.5 Q181 419 171 396 L171 145 Q182 121 209 102 Q236 83 278 83 Q323 83 351 104 Q379 125 395 164 L501 164 L501 105 Q494 89 477 68.5 Q460 48 433 29.5 Q406 11 367.5 -1.5 Q329 -14 278 -14 Q227 -14 188 -1 Q149 12 120.5 31.5 Q92 51 74 75 Q56 99 47 120 L47 421 Q56 442 74 466 Q92 490 120.5 509.5 Q149 529 188 542 Q227 555 278 555 Z " />
<glyph glyph-name="d" unicode="d" horiz-adv-x="555" d="M500 0 L380 0 L380 43 Q356 19 320 3.5 Q284 -12 233 -12 Q190 -12 158.5 0 Q127 12 104.5 30 Q82 48 68 68.5 Q54 89 47 106 L47 435 Q54 451 68 471.5 Q82 492 104.5 510 Q127 528 158.5 540.5 Q190 553 233 553 Q281 553 316.5 538.5 Q352 524 376 501 L376 700 L500 700 L500 0 Z M271 86 Q308 86 334.5 99 Q361 112 376 129 L376 413 Q362 430 334.5 442.5 Q307 455 270 455 Q249 455 232.5 450 Q216 445 204 437.5 Q192 430 184 421.5 Q176 413 172 406 L172 135 Q176 128 184 119.5 Q192 111 204 103.5 Q216 96 233 91 Q250 86 271 86 Z " />
<glyph glyph-name="e" unicode="e" horiz-adv-x="545" d="M278 555 Q329 555 367.5 542 Q406 529 433 510.5 Q460 492 477 471.5 Q494 451 501 436 L501 240 L171 240 L171 145 Q181 121 209.5 101.5 Q238 82 278 82 Q323 82 351 102.5 Q379 123 396 163 L501 163 L501 105 Q494 90 477 69.5 Q460 49 433 30.5 Q406 12 367.5 -1 Q329 -14 278 -14 Q227 -14 188 -1 Q149 12 120.5 31.5 Q92 51 74 75 Q56 99 47 120 L47 421 Q55 441 74 465.5 Q93 490 121.5 510 Q150 530 188.5 542.5 Q227 555 278 555 Z M278 459 Q237 459 209.5 440 Q182 421 171 396 L171 327 L385 327 L385 396 Q375 422 347 440.5 Q319 459 278 459 Z " />
<glyph glyph-name="f" unicode="f" horiz-adv-x="345" d="M254 725 Q285 725 308 721.5 Q331 718 340 715 L340 628 Q335 629 324 630 Q313 631 300 631 Q275 631 258 626.5 Q241 622 230.5 615.5 Q220 609 214.5 602 Q209 595 206 590 L206 541 L322 541 L322 449 L206 449 L206 0 L82 0 L82 449 L22 449 L22 541 L82 541 L82 632 Q88 647 100 663.5 Q112 680 132.5 693.5 Q153 707 182.5 716 Q212 725 254 725 Z " />
<glyph glyph-name="g" unicode="g" horiz-adv-x="555" d="M500 -52 Q490 -74 472 -96.5 Q454 -119 426 -137.5 Q398 -156 359 -168 Q320 -180 269 -180 Q218 -180 179 -168 Q140 -156 112.5 -138.5 Q85 -121 68 -102.5 Q51 -84 43 -70 L43 -15 L151 -15 Q168 -47 197.5 -65 Q227 -83 269 -83 Q312 -83 338 -67 Q364 -51 376 -27 L376 78 Q351 55 316 40.5 Q281 26 234 26 Q192 26 160 38 Q128 50 105.5 68 Q83 86 68.5 106 Q54 126 47 143 L47 435 Q54 451 68.5 471.5 Q83 492 105.5 510 Q128 528 160 540.5 Q192 553 234 553 Q282 553 318 537 Q354 521 380 497 L380 541 L500 541 L500 -52 Z M271 123 Q309 123 335.5 136 Q362 149 376 166 L376 412 Q361 429 334 442 Q307 455 270 455 Q249 455 232.5 450 Q216 445 203.5 437.5 Q191 430 183 421.5 Q175 413 171 406 L171 172 Q175 165 183 156.5 Q191 148 203.5 140.5 Q216 133 233 128 Q250 123 271 123 Z " />
<glyph glyph-name="h" unicode="h" horiz-adv-x="562" d="M322 553 Q365 553 397 541 Q429 529 451.5 510.5 Q474 492 488 471.5 Q502 451 509 435 L509 0 L384 0 L384 406 Q380 413 372 421.5 Q364 430 351.5 437.5 Q339 445 322.5 450 Q306 455 285 455 Q247 455 220.5 442.5 Q194 430 179 413 L179 0 L55 0 L55 700 L179 700 L179 502 Q205 524 240 538.5 Q275 553 322 553 Z " />
<glyph glyph-name="i" unicode="i" horiz-adv-x="243" d="M59 0 L59 541 L184 541 L184 0 L59 0 Z M121 738 Q150 738 167 727 Q184 716 189 704 L189 645 Q184 633 167 622 Q150 611 121 611 Q92 611 75 622 Q58 633 53 645 L53 704 Q58 716 75 727 Q92 738 121 738 Z " />
<glyph glyph-name="j" unicode="j" horiz-adv-x="235" d="M180 -47 Q171 -68 153 -91.5 Q135 -115 107 -134.5 Q79 -154 39.5 -167 Q0 -180 -52 -180 L-52 -84 Q-9 -84 17.5 -63.5 Q44 -43 55 -15 L55 541 L180 541 L180 -47 Z M118 738 Q147 738 164 727 Q181 716 186 704 L186 645 Q181 633 164 622 Q147 611 118 611 Q89 611 72 622 Q55 633 50 645 L50 704 Q55 716 72 727 Q89 738 118 738 Z " />
<glyph glyph-name="k" unicode="k" horiz-adv-x="530" d="M511 0 L414 0 L252 236 L179 162 L179 0 L55 0 L55 700 L179 700 L179 308 L402 541 L483 541 L483 470 L335 320 L511 70 L511 0 Z " />
<glyph glyph-name="l" unicode="l" horiz-adv-x="236" d="M55 0 L55 700 L180 700 L180 0 L55 0 Z " />
<glyph glyph-name="m" unicode="m" horiz-adv-x="821" d="M600 553 Q640 553 669 541.5 Q698 530 718 512.5 Q738 495 750 475 Q762 455 768 439 L768 0 L644 0 L644 412 Q636 429 615.5 442 Q595 455 561 455 Q531 455 509 444 Q487 433 474 417 L474 0 L350 0 L350 412 Q342 428 322 441.5 Q302 455 267 455 Q235 455 213.5 444 Q192 433 179 417 L179 0 L55 0 L55 541 L171 541 L171 498 Q194 522 227.5 537.5 Q261 553 305 553 Q357 553 394 532.5 Q431 512 451 483 Q474 512 511.5 532.5 Q549 553 600 553 Z " />
<glyph glyph-name="n" unicode="n" horiz-adv-x="560" d="M321 553 Q364 553 396 541 Q428 529 450.5 510.5 Q473 492 486.5 472.5 Q500 453 507 435 L507 0 L383 0 L383 406 Q379 413 371 421.5 Q363 430 351 437.5 Q339 445 322.5 450 Q306 455 285 455 Q248 455 221 443 Q194 431 179 414 L179 0 L55 0 L55 541 L171 541 L171 495 Q197 520 235 536.5 Q273 553 321 553 Z " />
<glyph glyph-name="o" unicode="o" horiz-adv-x="556" d="M279 555 Q330 555 369 542 Q408 529 436 509.5 Q464 490 482 466 Q500 442 509 421 L509 120 Q500 99 482 75 Q464 51 436 31.5 Q408 12 369 -1 Q330 -14 279 -14 Q228 -14 188.5 -1 Q149 12 121 31.5 Q93 51 74.5 75 Q56 99 47 120 L47 421 Q56 442 74.5 466 Q93 490 121 509.5 Q149 529 188.5 542 Q228 555 279 555 Z M278 458 Q236 458 209 438.5 Q182 419 171 396 L171 145 Q182 121 209 102 Q236 83 278 83 Q320 83 347.5 102 Q375 121 385 145 L385 396 Q375 419 347.5 438.5 Q320 458 278 458 Z " />
<glyph glyph-name="p" unicode="p" horiz-adv-x="555" d="M322 553 Q365 553 396.5 540.5 Q428 528 450.5 510 Q473 492 487 471.5 Q501 451 508 435 L508 106 Q501 89 487 68.5 Q473 48 450.5 30 Q428 12 396.5 0 Q365 -12 322 -12 Q273 -12 238 2.5 Q203 17 179 40 L179 -166 L55 -166 L55 541 L175 541 L175 497 Q199 521 235 537 Q271 553 322 553 Z M383 406 Q379 413 371 421.5 Q363 430 351 437.5 Q339 445 322.5 450 Q306 455 285 455 Q247 455 220.5 442.5 Q194 430 179 413 L179 129 Q194 112 220.5 99 Q247 86 285 86 Q306 86 322.5 91 Q339 96 351 103.5 Q363 111 371 119.5 Q379 128 383 135 L383 406 Z " />
<glyph glyph-name="q" unicode="q" horiz-adv-x="555" d="M500 -166 L376 -166 L376 40 Q352 17 317 2.5 Q282 -12 233 -12 Q190 -12 158.5 0 Q127 12 104.5 30 Q82 48 68 68.5 Q54 89 47 106 L47 435 Q54 451 68 471.5 Q82 492 104.5 510 Q127 528 158.5 540.5 Q190 553 233 553 Q284 553 320 537 Q356 521 380 497 L380 541 L500 541 L500 -166 Z M271 86 Q308 86 334.5 99 Q361 112 376 129 L376 413 Q361 430 334.5 442.5 Q308 455 270 455 Q249 455 232.5 450 Q216 445 204 437.5 Q192 430 184 421.5 Q176 413 172 406 L172 135 Q176 128 184 119.5 Q192 111 204 103.5 Q216 96 233 91 Q250 86 271 86 Z " />
<glyph glyph-name="r" unicode="r" horiz-adv-x="370" d="M326 542 Q329 542 334 542 Q339 542 347 541 L347 427 Q339 428 332.5 428 Q326 428 323 428 Q268 428 232 414 Q196 400 179 380 L179 0 L55 0 L55 541 L171 541 L171 468 Q192 498 229 520 Q266 542 326 542 Z " />
<glyph glyph-name="s" unicode="s" horiz-adv-x="499" d="M249 555 Q294 555 329 545 Q364 535 389 520.5 Q414 506 429.5 490.5 Q445 475 453 463 L453 407 L348 407 Q337 431 312.5 446.5 Q288 462 249 462 Q217 462 193 450 Q169 438 161 426 L161 367 Q169 353 189 344 Q209 335 239 327 L290 316 Q367 299 408.5 274.5 Q450 250 462 228 L462 87 Q454 74 438 57.5 Q422 41 396.5 25 Q371 9 334.5 -2.5 Q298 -14 249 -14 Q200 -14 163.5 -2.5 Q127 9 101.5 25 Q76 41 60 58 Q44 75 36 87 L36 143 L142 143 Q175 79 250 79 Q286 79 311.5 93.5 Q337 108 347 124 L347 178 Q330 208 268 220 L215 231 Q174 240 145 251 Q116 262 96 274 Q76 286 64 297.5 Q52 309 45 320 L45 463 Q52 473 67.5 488.5 Q83 504 107.5 519 Q132 534 167 544.5 Q202 555 249 555 Z " />
<glyph glyph-name="t" unicode="t" horiz-adv-x="359" d="M300 85 Q313 85 324 85.5 Q335 86 340 87 L340 -1 Q328 -4 306.5 -7.5 Q285 -11 254 -11 Q212 -11 182.5 -2 Q153 7 132.5 20.5 Q112 34 100 50.5 Q88 67 82 82 L82 449 L22 449 L22 541 L82 541 L82 654 L206 654 L206 541 L322 541 L322 449 L206 449 L206 125 Q209 120 215 113 Q221 106 232 100 Q243 94 259.5 89.5 Q276 85 300 85 Z " />
<glyph glyph-name="u" unicode="u" horiz-adv-x="554" d="M499 0 L383 0 L383 45 Q359 21 323 4.5 Q287 -12 236 -12 Q194 -12 162.5 0 Q131 12 109 30 Q87 48 73 68 Q59 88 52 104 L52 541 L176 541 L176 135 Q180 128 187.5 119.5 Q195 111 206.5 103.5 Q218 96 234.5 91 Q251 86 272 86 Q311 86 336 99 Q361 112 375 128 L375 541 L499 541 L499 0 Z " />
<glyph glyph-name="v" unicode="v" horiz-adv-x="529" d="M341 0 L187 0 L32 470 L32 541 L144 541 L268 127 L271 127 L393 541 L496 541 L496 470 L341 0 Z " />
<glyph glyph-name="w" unicode="w" horiz-adv-x="789" d="M636 0 L495 0 L400 360 L397 360 L300 0 L157 0 L34 470 L34 541 L146 541 L238 134 L241 134 L346 541 L458 541 L562 134 L565 134 L656 541 L759 541 L759 470 L636 0 Z " />
<glyph glyph-name="x" unicode="x" horiz-adv-x="505" d="M338 277 L471 70 L471 0 L367 0 L254 205 L251 205 L134 0 L33 0 L33 70 L166 277 L42 470 L42 541 L145 541 L251 348 L254 348 L363 541 L463 541 L463 470 L338 277 Z " />
<glyph glyph-name="y" unicode="y" horiz-adv-x="520" d="M490 471 L299 -97 Q273 -133 226.5 -153.5 Q180 -174 117 -174 Q91 -174 70.5 -171.5 Q50 -169 40 -166 L40 -77 Q49 -78 59.5 -78.5 Q70 -79 81 -79 Q127 -79 154 -67.5 Q181 -56 194 -40 L205 1 L32 470 L32 541 L144 541 L266 156 L269 156 L385 541 L490 541 L490 471 Z " />
<glyph glyph-name="z" unicode="z" horiz-adv-x="481" d="M170 93 L452 93 L452 0 L29 0 L29 86 L304 448 L37 448 L37 541 L452 541 L452 460 L170 93 Z " />
<glyph glyph-name="agrave" unicode="&#xe0;" horiz-adv-x="551" d="M268 555 Q319 555 358 542 Q397 529 425 509.5 Q453 490 471.5 466 Q490 442 499 421 L499 0 L379 0 L379 44 Q355 20 318 3 Q281 -14 227 -14 Q183 -14 150.5 -4.5 Q118 5 96.5 18.5 Q75 32 62 46 Q49 60 44 69 L44 239 Q49 249 62 264 Q75 279 96.5 293 Q118 307 150 317 Q182 327 226 327 L375 327 L375 396 Q364 421 335.5 439.5 Q307 458 268 458 Q226 458 199 438.5 Q172 419 161 394 L55 394 L55 454 Q61 463 75.5 479.5 Q90 496 115.5 513 Q141 530 178.5 542.5 Q216 555 268 555 Z M260 75 Q302 75 332 90 Q362 105 375 125 L375 240 L260 240 Q221 240 198 226.5 Q175 213 166 202 L166 116 Q177 100 201.5 87.5 Q226 75 260 75 Z M326 606 L234 606 L153 712 L153 767 L268 767 L326 621 L326 606 Z " />
<glyph glyph-name="aacute" unicode="&#xe1;" horiz-adv-x="551" d="M268 555 Q319 555 358 542 Q397 529 425 509.5 Q453 490 471.5 466 Q490 442 499 421 L499 0 L379 0 L379 44 Q355 20 318 3 Q281 -14 227 -14 Q183 -14 150.5 -4.5 Q118 5 96.5 18.5 Q75 32 62 46 Q49 60 44 69 L44 239 Q49 249 62 264 Q75 279 96.5 293 Q118 307 150 317 Q182 327 226 327 L375 327 L375 396 Q364 421 335.5 439.5 Q307 458 268 458 Q226 458 199 438.5 Q172 419 161 394 L55 394 L55 454 Q61 463 75.5 479.5 Q90 496 115.5 513 Q141 530 178.5 542.5 Q216 555 268 555 Z M260 75 Q302 75 332 90 Q362 105 375 125 L375 240 L260 240 Q221 240 198 226.5 Q175 213 166 202 L166 116 Q177 100 201.5 87.5 Q226 75 260 75 Z M319 606 L225 606 L225 621 L283 767 L399 767 L399 712 L319 606 Z " />
<glyph glyph-name="acircumflex" unicode="&#xe2;" horiz-adv-x="551" d="M268 555 Q319 555 358 542 Q397 529 425 509.5 Q453 490 471.5 466 Q490 442 499 421 L499 0 L379 0 L379 44 Q355 20 318 3 Q281 -14 227 -14 Q183 -14 150.5 -4.5 Q118 5 96.5 18.5 Q75 32 62 46 Q49 60 44 69 L44 239 Q49 249 62 264 Q75 279 96.5 293 Q118 307 150 317 Q182 327 226 327 L375 327 L375 396 Q364 421 335.5 439.5 Q307 458 268 458 Q226 458 199 438.5 Q172 419 161 394 L55 394 L55 454 Q61 463 75.5 479.5 Q90 496 115.5 513 Q141 530 178.5 542.5 Q216 555 268 555 Z M260 75 Q302 75 332 90 Q362 105 375 125 L375 240 L260 240 Q221 240 198 226.5 Q175 213 166 202 L166 116 Q177 100 201.5 87.5 Q226 75 260 75 Z M441 604 L353 604 L277 706 L201 604 L114 604 L114 619 L198 764 L358 764 L441 619 L441 604 Z " />
<glyph glyph-name="atilde" unicode="&#xe3;" horiz-adv-x="551" d="M268 555 Q319 555 358 542 Q397 529 425 509.5 Q453 490 471.5 466 Q490 442 499 421 L499 0 L379 0 L379 44 Q355 20 318 3 Q281 -14 227 -14 Q183 -14 150.5 -4.5 Q118 5 96.5 18.5 Q75 32 62 46 Q49 60 44 69 L44 239 Q49 249 62 264 Q75 279 96.5 293 Q118 307 150 317 Q182 327 226 327 L375 327 L375 396 Q364 421 335.5 439.5 Q307 458 268 458 Q226 458 199 438.5 Q172 419 161 394 L55 394 L55 454 Q61 463 75.5 479.5 Q90 496 115.5 513 Q141 530 178.5 542.5 Q216 555 268 555 Z M260 75 Q302 75 332 90 Q362 105 375 125 L375 240 L260 240 Q221 240 198 226.5 Q175 213 166 202 L166 116 Q177 100 201.5 87.5 Q226 75 260 75 Z M206 741 Q232 741 250 733 Q268 725 282.5 715.5 Q297 706 309.5 698 Q322 690 337 690 Q351 690 361 697.5 Q371 705 373 717 L373 736 L447 736 L447 684 Q441 655 415 633 Q389 611 348 611 Q322 611 304 619 Q286 627 272 636.5 Q258 646 245.5 654 Q233 662 218 662 Q203 662 193 653.5 Q183 645 181 637 L181 616 L107 616 L107 669 Q115 700 140.5 720.5 Q166 741 206 741 Z " />
<glyph glyph-name="adieresis" unicode="&#xe4;" horiz-adv-x="551" d="M268 555 Q319 555 358 542 Q397 529 425 509.5 Q453 490 471.5 466 Q490 442 499 421 L499 0 L379 0 L379 44 Q355 20 318 3 Q281 -14 227 -14 Q183 -14 150.5 -4.5 Q118 5 96.5 18.5 Q75 32 62 46 Q49 60 44 69 L44 239 Q49 249 62 264 Q75 279 96.5 293 Q118 307 150 317 Q182 327 226 327 L375 327 L375 396 Q364 421 335.5 439.5 Q307 458 268 458 Q226 458 199 438.5 Q172 419 161 394 L55 394 L55 454 Q61 463 75.5 479.5 Q90 496 115.5 513 Q141 530 178.5 542.5 Q216 555 268 555 Z M260 75 Q302 75 332 90 Q362 105 375 125 L375 240 L260 240 Q221 240 198 226.5 Q175 213 166 202 L166 116 Q177 100 201.5 87.5 Q226 75 260 75 Z M170 737 Q199 737 214 727.5 Q229 718 234 712 L234 636 Q229 629 214 620 Q199 611 170 611 Q142 611 127 620.5 Q112 630 107 636 L107 712 Q112 718 127 727.5 Q142 737 170 737 Z M383 737 Q412 737 427 727.5 Q442 718 447 712 L447 636 Q442 629 427 620 Q412 611 383 611 Q355 611 340 620.5 Q325 630 320 636 L320 712 Q325 718 340 727.5 Q355 737 383 737 Z " />
<glyph glyph-name="amacron" unicode="&#x101;" horiz-adv-x="551" d="M268 555 Q319 555 358 542 Q397 529 425 509.5 Q453 490 471.5 466 Q490 442 499 421 L499 0 L379 0 L379 44 Q355 20 318 3 Q281 -14 227 -14 Q183 -14 150.5 -4.5 Q118 5 96.5 18.5 Q75 32 62 46 Q49 60 44 69 L44 239 Q49 249 62 264 Q75 279 96.5 293 Q118 307 150 317 Q182 327 226 327 L375 327 L375 396 Q364 421 335.5 439.5 Q307 458 268 458 Q226 458 199 438.5 Q172 419 161 394 L55 394 L55 454 Q61 463 75.5 479.5 Q90 496 115.5 513 Q141 530 178.5 542.5 Q216 555 268 555 Z M260 75 Q302 75 332 90 Q362 105 375 125 L375 240 L260 240 Q221 240 198 226.5 Q175 213 166 202 L166 116 Q177 100 201.5 87.5 Q226 75 260 75 Z M111 635 L111 721 L443 721 L443 635 L111 635 Z " />
<glyph glyph-name="abreve" unicode="&#x103;" horiz-adv-x="551" d="M268 555 Q319 555 358 542 Q397 529 425 509.5 Q453 490 471.5 466 Q490 442 499 421 L499 0 L379 0 L379 44 Q355 20 318 3 Q281 -14 227 -14 Q183 -14 150.5 -4.5 Q118 5 96.5 18.5 Q75 32 62 46 Q49 60 44 69 L44 239 Q49 249 62 264 Q75 279 96.5 293 Q118 307 150 317 Q182 327 226 327 L375 327 L375 396 Q364 421 335.5 439.5 Q307 458 268 458 Q226 458 199 438.5 Q172 419 161 394 L55 394 L55 454 Q61 463 75.5 479.5 Q90 496 115.5 513 Q141 530 178.5 542.5 Q216 555 268 555 Z M260 75 Q302 75 332 90 Q362 105 375 125 L375 240 L260 240 Q221 240 198 226.5 Q175 213 166 202 L166 116 Q177 100 201.5 87.5 Q226 75 260 75 Z M438 682 Q421 648 382.5 623 Q344 598 277 598 Q211 598 171.5 623 Q132 648 116 682 L116 741 L207 741 L207 703 Q211 694 227.5 680.5 Q244 667 277 667 Q310 667 326 680.5 Q342 694 346 703 L346 741 L438 741 L438 682 Z " />
<glyph glyph-name="aring" unicode="&#xe5;" horiz-adv-x="551" d="M268 555 Q319 555 358 542 Q397 529 425 509.5 Q453 490 471.5 466 Q490 442 499 421 L499 0 L379 0 L379 44 Q355 20 318 3 Q281 -14 227 -14 Q183 -14 150.5 -4.5 Q118 5 96.5 18.5 Q75 32 62 46 Q49 60 44 69 L44 239 Q49 249 62 264 Q75 279 96.5 293 Q118 307 150 317 Q182 327 226 327 L375 327 L375 396 Q364 421 335.5 439.5 Q307 458 268 458 Q226 458 199 438.5 Q172 419 161 394 L55 394 L55 454 Q61 463 75.5 479.5 Q90 496 115.5 513 Q141 530 178.5 542.5 Q216 555 268 555 Z M260 75 Q302 75 332 90 Q362 105 375 125 L375 240 L260 240 Q221 240 198 226.5 Q175 213 166 202 L166 116 Q177 100 201.5 87.5 Q226 75 260 75 Z M276 806 Q318 806 349 789.5 Q380 773 394 747 L394 654 Q380 628 349 611 Q318 594 276 594 Q234 594 203 611 Q172 628 158 654 L158 747 Q172 773 203 789.5 Q234 806 276 806 Z M276 753 Q251 753 237.5 744.5 Q224 736 219 728 L219 673 Q224 665 237.5 656.5 Q251 648 276 648 Q301 648 314.5 656.5 Q328 665 333 673 L333 728 Q328 736 314.5 744.5 Q301 753 276 753 Z " />
<glyph glyph-name="aogonek" unicode="&#x105;" horiz-adv-x="551" d="M464 -146 Q475 -146 487 -144 Q499 -142 513 -137 L513 -207 Q501 -213 484 -217 Q467 -221 439 -221 Q402 -221 370.5 -209 Q339 -197 327 -171 L327 -96 Q335 -79 354.5 -53 Q374 -27 409 0 L379 0 L379 44 Q355 20 318 3 Q281 -14 227 -14 Q183 -14 150.5 -4.5 Q118 5 96.5 18.5 Q75 32 62 46 Q49 60 44 69 L44 239 Q49 249 62 264 Q75 279 96.5 293 Q118 307 150 317 Q182 327 226 327 L375 327 L375 396 Q364 421 337 439.5 Q310 458 268 458 Q223 458 198 438.5 Q173 419 161 394 L55 394 L55 454 Q61 463 75.5 479.5 Q90 496 115.5 513 Q141 530 178.5 542.5 Q216 555 268 555 Q319 555 358 542 Q397 529 425 509.5 Q453 490 471.5 466 Q490 442 499 421 L499 0 Q475 -22 460 -38.5 Q445 -55 436.5 -67.5 Q428 -80 424 -88.5 Q420 -97 418 -102 L418 -129 Q423 -136 435.5 -141 Q448 -146 464 -146 Z M260 75 Q304 75 332.5 90 Q361 105 375 125 L375 240 L260 240 Q220 240 197.5 226.5 Q175 213 166 202 L166 116 Q174 105 196.5 90 Q219 75 260 75 Z " />
<glyph glyph-name="ae" unicode="&#xe6;" horiz-adv-x="872" d="M499 145 Q510 120 537 101 Q564 82 606 82 Q651 82 678.5 102.5 Q706 123 724 163 L828 163 L828 105 Q820 90 803.5 69.5 Q787 49 760 30.5 Q733 12 694.5 -1 Q656 -14 605 -14 Q542 -14 497 5.5 Q452 25 423 52 Q358 -14 236 -14 Q189 -14 155.5 -4.5 Q122 5 99 18.5 Q76 32 62.5 46 Q49 60 44 69 L44 239 Q49 249 62 264 Q75 279 96.5 293 Q118 307 150 317 Q182 327 226 327 L375 327 L375 396 Q364 421 337 439.5 Q310 458 268 458 Q223 458 198 438.5 Q173 419 161 394 L55 394 L55 454 Q61 463 75.5 479.5 Q90 496 115.5 513 Q141 530 178.5 542.5 Q216 555 268 555 Q325 555 366.5 538.5 Q408 522 437 499 Q465 522 506.5 538.5 Q548 555 605 555 Q656 555 694.5 542 Q733 529 760 510.5 Q787 492 803.5 471.5 Q820 451 828 436 L828 240 L499 240 L499 145 Z M713 327 L713 396 Q702 421 674.5 440 Q647 459 605 459 Q563 459 536.5 440 Q510 421 499 396 L499 327 L713 327 Z M260 240 Q220 240 197.5 226.5 Q175 213 166 202 L166 116 Q174 105 196.5 90 Q219 75 260 75 Q304 75 332.5 90 Q361 105 375 125 L375 240 L260 240 Z " />
<glyph glyph-name="cacute" unicode="&#x107;" horiz-adv-x="536" d="M278 555 Q329 555 367.5 542 Q406 529 433 510.5 Q460 492 476.5 472 Q493 452 501 436 L501 376 L395 376 Q378 416 350.5 437 Q323 458 278 458 Q237 458 209 438.5 Q181 419 171 396 L171 145 Q182 121 209 102 Q236 83 278 83 Q323 83 351 104 Q379 125 395 164 L501 164 L501 105 Q494 89 477 68.5 Q460 48 433 29.5 Q406 11 367.5 -1.5 Q329 -14 278 -14 Q227 -14 188 -1 Q149 12 120.5 31.5 Q92 51 74 75 Q56 99 47 120 L47 421 Q56 442 74 466 Q92 490 120.5 509.5 Q149 529 188 542 Q227 555 278 555 Z M323 606 L229 606 L229 621 L287 767 L403 767 L403 712 L323 606 Z " />
<glyph glyph-name="ccircumflex" unicode="&#x109;" horiz-adv-x="536" d="M278 555 Q329 555 367.5 542 Q406 529 433 510.5 Q460 492 476.5 472 Q493 452 501 436 L501 376 L395 376 Q378 416 350.5 437 Q323 458 278 458 Q237 458 209 438.5 Q181 419 171 396 L171 145 Q182 121 209 102 Q236 83 278 83 Q323 83 351 104 Q379 125 395 164 L501 164 L501 105 Q494 89 477 68.5 Q460 48 433 29.5 Q406 11 367.5 -1.5 Q329 -14 278 -14 Q227 -14 188 -1 Q149 12 120.5 31.5 Q92 51 74 75 Q56 99 47 120 L47 421 Q56 442 74 466 Q92 490 120.5 509.5 Q149 529 188 542 Q227 555 278 555 Z M445 604 L357 604 L281 706 L205 604 L118 604 L118 619 L202 764 L362 764 L445 619 L445 604 Z " />
<glyph glyph-name="ccaron" unicode="&#x10d;" horiz-adv-x="536" d="M278 555 Q329 555 367.5 542 Q406 529 433 510.5 Q460 492 476.5 472 Q493 452 501 436 L501 376 L395 376 Q378 416 350.5 437 Q323 458 278 458 Q237 458 209 438.5 Q181 419 171 396 L171 145 Q182 121 209 102 Q236 83 278 83 Q323 83 351 104 Q379 125 395 164 L501 164 L501 105 Q494 89 477 68.5 Q460 48 433 29.5 Q406 11 367.5 -1.5 Q329 -14 278 -14 Q227 -14 188 -1 Q149 12 120.5 31.5 Q92 51 74 75 Q56 99 47 120 L47 421 Q56 442 74 466 Q92 490 120.5 509.5 Q149 529 188 542 Q227 555 278 555 Z M362 604 L202 604 L118 748 L118 764 L205 764 L281 662 L357 764 L445 764 L445 748 L362 604 Z " />
<glyph glyph-name="cdotaccent" unicode="&#x10b;" horiz-adv-x="536" d="M278 555 Q329 555 367.5 542 Q406 529 433 510.5 Q460 492 476.5 472 Q493 452 501 436 L501 376 L395 376 Q378 416 350.5 437 Q323 458 278 458 Q237 458 209 438.5 Q181 419 171 396 L171 145 Q182 121 209 102 Q236 83 278 83 Q323 83 351 104 Q379 125 395 164 L501 164 L501 105 Q494 89 477 68.5 Q460 48 433 29.5 Q406 11 367.5 -1.5 Q329 -14 278 -14 Q227 -14 188 -1 Q149 12 120.5 31.5 Q92 51 74 75 Q56 99 47 120 L47 421 Q56 442 74 466 Q92 490 120.5 509.5 Q149 529 188 542 Q227 555 278 555 Z M281 738 Q310 738 327 727 Q344 716 349 704 L349 645 Q344 633 327 622 Q310 611 281 611 Q252 611 235 622 Q218 633 213 645 L213 704 Q218 716 235 727 Q252 738 281 738 Z " />
<glyph glyph-name="ccedilla" unicode="&#xe7;" horiz-adv-x="536" d="M278 458 Q236 458 209 438.5 Q182 419 171 396 L171 145 Q182 121 209 102 Q236 83 278 83 Q323 83 350.5 104 Q378 125 395 164 L501 164 L501 105 Q494 90 478.5 70.5 Q463 51 437.5 33 Q412 15 376.5 1.5 Q341 -12 294 -14 L281 -46 L290 -46 Q327 -46 348 -62 Q369 -78 377 -95 L377 -169 Q365 -194 335 -209.5 Q305 -225 262 -225 Q230 -225 203 -219 Q176 -213 162 -205 L182 -148 Q198 -154 216.5 -158.5 Q235 -163 255 -163 Q275 -163 286.5 -156.5 Q298 -150 302 -142 L302 -117 Q298 -109 286.5 -104 Q275 -99 256 -99 L195 -99 L226 -10 Q187 -4 157.5 10.5 Q128 25 106 43 Q84 61 69.5 81.5 Q55 102 47 120 L47 421 Q56 442 74 466 Q92 490 120.5 509.5 Q149 529 188 542 Q227 555 278 555 Q329 555 367.5 542 Q406 529 433 510.5 Q460 492 476.5 471.5 Q493 451 501 436 L501 376 L395 376 Q378 416 350.5 437 Q323 458 278 458 Z " />
<glyph glyph-name="dcaron" unicode="&#x10f;" horiz-adv-x="713" d="M500 0 L380 0 L380 43 Q356 19 320 3.5 Q284 -12 233 -12 Q190 -12 158.5 0 Q127 12 104.5 30 Q82 48 68 68.5 Q54 89 47 106 L47 435 Q54 451 68 471.5 Q82 492 104.5 510 Q127 528 158.5 540.5 Q190 553 233 553 Q281 553 316.5 538.5 Q352 524 376 501 L376 700 L500 700 L500 0 Z M271 86 Q308 86 334.5 99 Q361 112 376 129 L376 413 Q362 430 334.5 442.5 Q307 455 270 455 Q249 455 232.5 450 Q216 445 204 437.5 Q192 430 184 421.5 Q176 413 172 406 L172 135 Q176 128 184 119.5 Q192 111 204 103.5 Q216 96 233 91 Q250 86 271 86 Z M646 503 L569 503 L569 518 L589 700 L689 700 L689 635 L646 503 Z " />
<glyph glyph-name="egrave" unicode="&#xe8;" horiz-adv-x="545" d="M278 555 Q329 555 367.5 542 Q406 529 433 510.5 Q460 492 477 471.5 Q494 451 501 436 L501 240 L171 240 L171 145 Q181 121 209.5 101.5 Q238 82 278 82 Q323 82 351 102.5 Q379 123 396 163 L501 163 L501 105 Q494 90 477 69.5 Q460 49 433 30.5 Q406 12 367.5 -1 Q329 -14 278 -14 Q227 -14 188 -1 Q149 12 120.5 31.5 Q92 51 74 75 Q56 99 47 120 L47 421 Q55 441 74 465.5 Q93 490 121.5 510 Q150 530 188.5 542.5 Q227 555 278 555 Z M278 459 Q237 459 209.5 440 Q182 421 171 396 L171 327 L385 327 L385 396 Q375 422 347 440.5 Q319 459 278 459 Z M332 606 L240 606 L159 712 L159 767 L274 767 L332 621 L332 606 Z " />
<glyph glyph-name="eacute" unicode="&#xe9;" horiz-adv-x="545" d="M278 555 Q329 555 367.5 542 Q406 529 433 510.5 Q460 492 477 471.5 Q494 451 501 436 L501 240 L171 240 L171 145 Q181 121 209.5 101.5 Q238 82 278 82 Q323 82 351 102.5 Q379 123 396 163 L501 163 L501 105 Q494 90 477 69.5 Q460 49 433 30.5 Q406 12 367.5 -1 Q329 -14 278 -14 Q227 -14 188 -1 Q149 12 120.5 31.5 Q92 51 74 75 Q56 99 47 120 L47 421 Q55 441 74 465.5 Q93 490 121.5 510 Q150 530 188.5 542.5 Q227 555 278 555 Z M278 459 Q237 459 209.5 440 Q182 421 171 396 L171 327 L385 327 L385 396 Q375 422 347 440.5 Q319 459 278 459 Z M325 606 L231 606 L231 621 L289 767 L405 767 L405 712 L325 606 Z " />
<glyph glyph-name="ecircumflex" unicode="&#xea;" horiz-adv-x="545" d="M278 555 Q329 555 367.5 542 Q406 529 433 510.5 Q460 492 477 471.5 Q494 451 501 436 L501 240 L171 240 L171 145 Q181 121 209.5 101.5 Q238 82 278 82 Q323 82 351 102.5 Q379 123 396 163 L501 163 L501 105 Q494 90 477 69.5 Q460 49 433 30.5 Q406 12 367.5 -1 Q329 -14 278 -14 Q227 -14 188 -1 Q149 12 120.5 31.5 Q92 51 74 75 Q56 99 47 120 L47 421 Q55 441 74 465.5 Q93 490 121.5 510 Q150 530 188.5 542.5 Q227 555 278 555 Z M278 459 Q237 459 209.5 440 Q182 421 171 396 L171 327 L385 327 L385 396 Q375 422 347 440.5 Q319 459 278 459 Z M447 604 L359 604 L283 706 L207 604 L120 604 L120 619 L204 764 L364 764 L447 619 L447 604 Z " />
<glyph glyph-name="ecaron" unicode="&#x11b;" horiz-adv-x="545" d="M278 555 Q329 555 367.5 542 Q406 529 433 510.5 Q460 492 477 471.5 Q494 451 501 436 L501 240 L171 240 L171 145 Q181 121 209.5 101.5 Q238 82 278 82 Q323 82 351 102.5 Q379 123 396 163 L501 163 L501 105 Q494 90 477 69.5 Q460 49 433 30.5 Q406 12 367.5 -1 Q329 -14 278 -14 Q227 -14 188 -1 Q149 12 120.5 31.5 Q92 51 74 75 Q56 99 47 120 L47 421 Q55 441 74 465.5 Q93 490 121.5 510 Q150 530 188.5 542.5 Q227 555 278 555 Z M278 459 Q237 459 209.5 440 Q182 421 171 396 L171 327 L385 327 L385 396 Q375 422 347 440.5 Q319 459 278 459 Z M364 604 L204 604 L120 748 L120 764 L207 764 L283 662 L359 764 L447 764 L447 748 L364 604 Z " />
<glyph glyph-name="edieresis" unicode="&#xeb;" horiz-adv-x="545" d="M278 555 Q329 555 367.5 542 Q406 529 433 510.5 Q460 492 477 471.5 Q494 451 501 436 L501 240 L171 240 L171 145 Q181 121 209.5 101.5 Q238 82 278 82 Q323 82 351 102.5 Q379 123 396 163 L501 163 L501 105 Q494 90 477 69.5 Q460 49 433 30.5 Q406 12 367.5 -1 Q329 -14 278 -14 Q227 -14 188 -1 Q149 12 120.5 31.5 Q92 51 74 75 Q56 99 47 120 L47 421 Q55 441 74 465.5 Q93 490 121.5 510 Q150 530 188.5 542.5 Q227 555 278 555 Z M278 459 Q237 459 209.5 440 Q182 421 171 396 L171 327 L385 327 L385 396 Q375 422 347 440.5 Q319 459 278 459 Z M176 737 Q205 737 220 727.5 Q235 718 240 712 L240 636 Q235 629 220 620 Q205 611 176 611 Q148 611 133 620.5 Q118 630 113 636 L113 712 Q118 718 133 727.5 Q148 737 176 737 Z M389 737 Q418 737 433 727.5 Q448 718 453 712 L453 636 Q448 629 433 620 Q418 611 389 611 Q361 611 346 620.5 Q331 630 326 636 L326 712 Q331 718 346 727.5 Q361 737 389 737 Z " />
<glyph glyph-name="emacron" unicode="&#x113;" horiz-adv-x="545" d="M278 555 Q329 555 367.5 542 Q406 529 433 510.5 Q460 492 477 471.5 Q494 451 501 436 L501 240 L171 240 L171 145 Q181 121 209.5 101.5 Q238 82 278 82 Q323 82 351 102.5 Q379 123 396 163 L501 163 L501 105 Q494 90 477 69.5 Q460 49 433 30.5 Q406 12 367.5 -1 Q329 -14 278 -14 Q227 -14 188 -1 Q149 12 120.5 31.5 Q92 51 74 75 Q56 99 47 120 L47 421 Q55 441 74 465.5 Q93 490 121.5 510 Q150 530 188.5 542.5 Q227 555 278 555 Z M278 459 Q237 459 209.5 440 Q182 421 171 396 L171 327 L385 327 L385 396 Q375 422 347 440.5 Q319 459 278 459 Z M117 635 L117 721 L449 721 L449 635 L117 635 Z " />
<glyph glyph-name="ebreve" unicode="&#x115;" horiz-adv-x="545" d="M278 555 Q329 555 367.5 542 Q406 529 433 510.5 Q460 492 477 471.5 Q494 451 501 436 L501 240 L171 240 L171 145 Q181 121 209.5 101.5 Q238 82 278 82 Q323 82 351 102.5 Q379 123 396 163 L501 163 L501 105 Q494 90 477 69.5 Q460 49 433 30.5 Q406 12 367.5 -1 Q329 -14 278 -14 Q227 -14 188 -1 Q149 12 120.5 31.5 Q92 51 74 75 Q56 99 47 120 L47 421 Q55 441 74 465.5 Q93 490 121.5 510 Q150 530 188.5 542.5 Q227 555 278 555 Z M278 459 Q237 459 209.5 440 Q182 421 171 396 L171 327 L385 327 L385 396 Q375 422 347 440.5 Q319 459 278 459 Z M444 682 Q427 648 388.5 623 Q350 598 283 598 Q217 598 177.5 623 Q138 648 122 682 L122 741 L213 741 L213 703 Q217 694 233.5 680.5 Q250 667 283 667 Q316 667 332 680.5 Q348 694 352 703 L352 741 L444 741 L444 682 Z " />
<glyph glyph-name="edotaccent" unicode="&#x117;" horiz-adv-x="545" d="M278 555 Q329 555 367.5 542 Q406 529 433 510.5 Q460 492 477 471.5 Q494 451 501 436 L501 240 L171 240 L171 145 Q181 121 209.5 101.5 Q238 82 278 82 Q323 82 351 102.5 Q379 123 396 163 L501 163 L501 105 Q494 90 477 69.5 Q460 49 433 30.5 Q406 12 367.5 -1 Q329 -14 278 -14 Q227 -14 188 -1 Q149 12 120.5 31.5 Q92 51 74 75 Q56 99 47 120 L47 421 Q55 441 74 465.5 Q93 490 121.5 510 Q150 530 188.5 542.5 Q227 555 278 555 Z M278 459 Q237 459 209.5 440 Q182 421 171 396 L171 327 L385 327 L385 396 Q375 422 347 440.5 Q319 459 278 459 Z M283 738 Q312 738 329 727 Q346 716 351 704 L351 645 Q346 633 329 622 Q312 611 283 611 Q254 611 237 622 Q220 633 215 645 L215 704 Q220 716 237 727 Q254 738 283 738 Z " />
<glyph glyph-name="eogonek" unicode="&#x119;" horiz-adv-x="545" d="M278 555 Q329 555 367.5 542 Q406 529 433 510.5 Q460 492 476.5 471.5 Q493 451 501 436 L501 240 L171 240 L171 145 Q182 120 209 101 Q236 82 278 82 Q323 82 351 102.5 Q379 123 396 163 L501 163 L501 105 Q491 85 474.5 56.5 Q458 28 441.5 -1.5 Q425 -31 412 -58 Q399 -85 395 -102 L395 -129 Q400 -136 412.5 -141 Q425 -146 441 -146 Q452 -146 464 -144 Q476 -142 490 -137 L490 -207 Q478 -213 461 -217 Q444 -221 416 -221 Q379 -221 347.5 -209 Q316 -197 304 -171 L304 -96 Q309 -82 323 -57 Q337 -32 360 -3 Q322 -14 278 -14 Q227 -14 188 -1 Q149 12 120.5 31.5 Q92 51 74 75 Q56 99 47 120 L47 421 Q56 442 74 466 Q92 490 120.5 509.5 Q149 529 188 542 Q227 555 278 555 Z M278 459 Q236 459 209 440 Q182 421 171 396 L171 327 L385 327 L385 396 Q375 421 347.5 440 Q320 459 278 459 Z " />
<glyph glyph-name="gcircumflex" unicode="&#x11d;" horiz-adv-x="555" d="M500 -52 Q490 -74 472 -96.5 Q454 -119 426 -137.5 Q398 -156 359 -168 Q320 -180 269 -180 Q218 -180 179 -168 Q140 -156 112.5 -138.5 Q85 -121 68 -102.5 Q51 -84 43 -70 L43 -15 L151 -15 Q168 -47 197.5 -65 Q227 -83 269 -83 Q312 -83 338 -67 Q364 -51 376 -27 L376 78 Q351 55 316 40.5 Q281 26 234 26 Q192 26 160 38 Q128 50 105.5 68 Q83 86 68.5 106 Q54 126 47 143 L47 435 Q54 451 68.5 471.5 Q83 492 105.5 510 Q128 528 160 540.5 Q192 553 234 553 Q282 553 318 537 Q354 521 380 497 L380 541 L500 541 L500 -52 Z M271 123 Q309 123 335.5 136 Q362 149 376 166 L376 412 Q361 429 334 442 Q307 455 270 455 Q249 455 232.5 450 Q216 445 203.5 437.5 Q191 430 183 421.5 Q175 413 171 406 L171 172 Q175 165 183 156.5 Q191 148 203.5 140.5 Q216 133 233 128 Q250 123 271 123 Z M441 604 L353 604 L277 706 L201 604 L114 604 L114 619 L198 764 L358 764 L441 619 L441 604 Z " />
<glyph glyph-name="gbreve" unicode="&#x11f;" horiz-adv-x="555" d="M500 -52 Q490 -74 472 -96.5 Q454 -119 426 -137.5 Q398 -156 359 -168 Q320 -180 269 -180 Q218 -180 179 -168 Q140 -156 112.5 -138.5 Q85 -121 68 -102.5 Q51 -84 43 -70 L43 -15 L151 -15 Q168 -47 197.5 -65 Q227 -83 269 -83 Q312 -83 338 -67 Q364 -51 376 -27 L376 78 Q351 55 316 40.5 Q281 26 234 26 Q192 26 160 38 Q128 50 105.5 68 Q83 86 68.5 106 Q54 126 47 143 L47 435 Q54 451 68.5 471.5 Q83 492 105.5 510 Q128 528 160 540.5 Q192 553 234 553 Q282 553 318 537 Q354 521 380 497 L380 541 L500 541 L500 -52 Z M271 123 Q309 123 335.5 136 Q362 149 376 166 L376 412 Q361 429 334 442 Q307 455 270 455 Q249 455 232.5 450 Q216 445 203.5 437.5 Q191 430 183 421.5 Q175 413 171 406 L171 172 Q175 165 183 156.5 Q191 148 203.5 140.5 Q216 133 233 128 Q250 123 271 123 Z M438 682 Q421 648 382.5 623 Q344 598 277 598 Q211 598 171.5 623 Q132 648 116 682 L116 741 L207 741 L207 703 Q211 694 227.5 680.5 Q244 667 277 667 Q310 667 326 680.5 Q342 694 346 703 L346 741 L438 741 L438 682 Z " />
<glyph glyph-name="gdotaccent" unicode="&#x121;" horiz-adv-x="555" d="M500 -52 Q490 -74 472 -96.5 Q454 -119 426 -137.5 Q398 -156 359 -168 Q320 -180 269 -180 Q218 -180 179 -168 Q140 -156 112.5 -138.5 Q85 -121 68 -102.5 Q51 -84 43 -70 L43 -15 L151 -15 Q168 -47 197.5 -65 Q227 -83 269 -83 Q312 -83 338 -67 Q364 -51 376 -27 L376 78 Q351 55 316 40.5 Q281 26 234 26 Q192 26 160 38 Q128 50 105.5 68 Q83 86 68.5 106 Q54 126 47 143 L47 435 Q54 451 68.5 471.5 Q83 492 105.5 510 Q128 528 160 540.5 Q192 553 234 553 Q282 553 318 537 Q354 521 380 497 L380 541 L500 541 L500 -52 Z M271 123 Q309 123 335.5 136 Q362 149 376 166 L376 412 Q361 429 334 442 Q307 455 270 455 Q249 455 232.5 450 Q216 445 203.5 437.5 Q191 430 183 421.5 Q175 413 171 406 L171 172 Q175 165 183 156.5 Q191 148 203.5 140.5 Q216 133 233 128 Q250 123 271 123 Z M277 738 Q306 738 323 727 Q340 716 345 704 L345 645 Q340 633 323 622 Q306 611 277 611 Q248 611 231 622 Q214 633 209 645 L209 704 Q214 716 231 727 Q248 738 277 738 Z " />
<glyph glyph-name="gcommaaccent" unicode="&#x123;" horiz-adv-x="555" d="M500 -52 Q490 -74 472 -96.5 Q454 -119 426 -137.5 Q398 -156 359 -168 Q320 -180 269 -180 Q218 -180 179 -168 Q140 -156 112.5 -138.5 Q85 -121 68 -102.5 Q51 -84 43 -70 L43 -15 L151 -15 Q168 -47 197.5 -65 Q227 -83 269 -83 Q312 -83 338 -67 Q364 -51 376 -27 L376 78 Q351 55 316 40.5 Q281 26 234 26 Q192 26 160 38 Q128 50 105.5 68 Q83 86 68.5 106 Q54 126 47 143 L47 435 Q54 451 68.5 471.5 Q83 492 105.5 510 Q128 528 160 540.5 Q192 553 234 553 Q282 553 318 537 Q354 521 380 497 L380 541 L500 541 L500 -52 Z M271 123 Q309 123 335.5 136 Q362 149 376 166 L376 412 Q361 429 334 442 Q307 455 270 455 Q249 455 232.5 450 Q216 445 203.5 437.5 Q191 430 183 421.5 Q175 413 171 406 L171 172 Q175 165 183 156.5 Q191 148 203.5 140.5 Q216 133 233 128 Q250 123 271 123 Z M278 707 Q306 707 323 695.5 Q340 684 345 673 L345 628 Q340 617 323 606 Q306 595 278 595 Q249 595 232 606 Q215 617 210 628 L210 743 Q215 758 238 775.5 Q261 793 301 793 L334 793 L334 745 L313 745 Q281 745 275 733 L275 707 L278 707 Z " />
<glyph glyph-name="hcircumflex" unicode="&#x125;" horiz-adv-x="562" d="M322 553 Q365 553 397 541 Q429 529 451.5 510.5 Q474 492 488 471.5 Q502 451 509 435 L509 0 L384 0 L384 406 Q380 413 372 421.5 Q364 430 351.5 437.5 Q339 445 322.5 450 Q306 455 285 455 Q247 455 220.5 442.5 Q194 430 179 413 L179 0 L55 0 L55 700 L179 700 L179 502 Q205 524 240 538.5 Q275 553 322 553 Z M451 744 L363 744 L287 843 L211 744 L124 744 L124 759 L208 901 L368 901 L451 759 L451 744 Z " />
<glyph glyph-name="hbar" unicode="&#x127;" horiz-adv-x="575" d="M361 651 L361 583 L194 583 L194 484 Q219 505 254 519.5 Q289 534 337 534 Q380 534 411.5 522 Q443 510 465.5 492 Q488 474 501.5 453.5 Q515 433 522 416 L522 0 L398 0 L398 387 Q394 394 386 402.5 Q378 411 366 418.5 Q354 426 337.5 431 Q321 436 300 436 Q262 436 235.5 423 Q209 410 194 393 L194 0 L70 0 L70 583 L27 583 L27 651 L70 651 L70 700 L194 700 L194 651 L361 651 Z " />
<glyph glyph-name="igrave" unicode="&#xec;" horiz-adv-x="243" d="M59 0 L59 541 L184 541 L184 0 L59 0 Z M170 606 L78 606 L-3 712 L-3 767 L112 767 L170 621 L170 606 Z " />
<glyph glyph-name="iacute" unicode="&#xed;" horiz-adv-x="243" d="M59 0 L59 541 L184 541 L184 0 L59 0 Z M163 606 L69 606 L69 621 L127 767 L243 767 L243 712 L163 606 Z " />
<glyph glyph-name="icircumflex" unicode="&#xee;" horiz-adv-x="243" d="M59 0 L59 541 L184 541 L184 0 L59 0 Z M285 604 L197 604 L121 706 L45 604 L-42 604 L-42 619 L42 764 L202 764 L285 619 L285 604 Z " />
<glyph glyph-name="itilde" unicode="&#x129;" horiz-adv-x="243" d="M59 0 L59 541 L184 541 L184 0 L59 0 Z M50 741 Q76 741 94 733 Q112 725 126.5 715.5 Q141 706 153.5 698 Q166 690 181 690 Q195 690 205 697.5 Q215 705 217 717 L217 736 L291 736 L291 684 Q285 655 259 633 Q233 611 192 611 Q166 611 148 619 Q130 627 116 636.5 Q102 646 89.5 654 Q77 662 62 662 Q47 662 37 653.5 Q27 645 25 637 L25 616 L-49 616 L-49 669 Q-41 700 -15.5 720.5 Q10 741 50 741 Z " />
<glyph glyph-name="idieresis" unicode="&#xef;" horiz-adv-x="243" d="M59 0 L59 541 L184 541 L184 0 L59 0 Z M14 737 Q43 737 58 727.5 Q73 718 78 712 L78 636 Q73 629 58 620 Q43 611 14 611 Q-14 611 -29 620.5 Q-44 630 -49 636 L-49 712 Q-44 718 -29 727.5 Q-14 737 14 737 Z M227 737 Q256 737 271 727.5 Q286 718 291 712 L291 636 Q286 629 271 620 Q256 611 227 611 Q199 611 184 620.5 Q169 630 164 636 L164 712 Q169 718 184 727.5 Q199 737 227 737 Z " />
<glyph glyph-name="imacron" unicode="&#x12b;" horiz-adv-x="243" d="M59 0 L59 541 L184 541 L184 0 L59 0 Z M-45 635 L-45 721 L287 721 L287 635 L-45 635 Z " />
<glyph glyph-name="ibreve" unicode="&#x12d;" horiz-adv-x="243" d="M59 0 L59 541 L184 541 L184 0 L59 0 Z M282 682 Q265 648 226.5 623 Q188 598 121 598 Q55 598 15.5 623 Q-24 648 -40 682 L-40 741 L51 741 L51 703 Q55 694 71.5 680.5 Q88 667 121 667 Q154 667 170 680.5 Q186 694 190 703 L190 741 L282 741 L282 682 Z " />
<glyph glyph-name="iogonek" unicode="&#x12f;" horiz-adv-x="243" d="M121 738 Q150 738 167 727 Q184 716 189 704 L189 648 Q184 636 167 625 Q150 614 121 614 Q92 614 75 625 Q58 636 53 648 L53 704 Q58 716 75 727 Q92 738 121 738 Z M184 541 L184 0 Q133 -42 113 -66 Q93 -90 88 -102 L88 -129 Q93 -136 105.5 -141 Q118 -146 135 -146 Q146 -146 158 -144 Q170 -142 184 -137 L184 -207 Q171 -213 154 -217 Q137 -221 110 -221 Q73 -221 41.5 -209 Q10 -197 -3 -171 L-3 -96 Q5 -79 26 -53 Q47 -27 83 0 L59 0 L59 541 L184 541 Z " />
<glyph glyph-name="dotlessi" unicode="&#x131;" horiz-adv-x="243" d="M59 0 L59 541 L184 541 L184 0 L59 0 Z " />
<glyph glyph-name="ij" unicode="&#x133;" horiz-adv-x="478" d="M59 0 L59 541 L184 541 L184 0 L59 0 Z M121 738 Q150 738 167 727 Q184 716 189 704 L189 645 Q184 633 167 622 Q150 611 121 611 Q92 611 75 622 Q58 633 53 645 L53 704 Q58 716 75 727 Q92 738 121 738 Z M423 -47 Q414 -68 396 -91.5 Q378 -115 350 -134.5 Q322 -154 282.5 -167 Q243 -180 191 -180 L191 -84 Q234 -84 260.5 -63.5 Q287 -43 298 -15 L298 541 L423 541 L423 -47 Z M361 738 Q390 738 407 727 Q424 716 429 704 L429 645 Q424 633 407 622 Q390 611 361 611 Q332 611 315 622 Q298 633 293 645 L293 704 Q298 716 315 727 Q332 738 361 738 Z " />
<glyph glyph-name="dotlessj" unicode="&#x237;" horiz-adv-x="235" d="M180 -47 Q171 -68 153 -91.5 Q135 -115 107 -134.5 Q79 -154 39.5 -167 Q0 -180 -52 -180 L-52 -84 Q-9 -84 17.5 -63.5 Q44 -43 55 -15 L55 541 L180 541 L180 -47 Z " />
<glyph glyph-name="jcircumflex" unicode="&#x135;" horiz-adv-x="235" d="M180 -47 Q171 -68 153 -91.5 Q135 -115 107 -134.5 Q79 -154 39.5 -167 Q0 -180 -52 -180 L-52 -84 Q-9 -84 17.5 -63.5 Q44 -43 55 -15 L55 541 L180 541 L180 -47 Z M282 604 L194 604 L118 706 L42 604 L-45 604 L-45 619 L39 764 L199 764 L282 619 L282 604 Z " />
<glyph glyph-name="kcommaaccent" unicode="&#x137;" horiz-adv-x="530" d="M511 0 L414 0 L252 236 L179 162 L179 0 L55 0 L55 700 L179 700 L179 308 L402 541 L483 541 L483 470 L335 320 L511 70 L511 0 Z M265 -54 Q294 -54 309.5 -60.5 Q325 -67 330 -73 L330 -175 Q328 -182 322 -190.5 Q316 -199 306 -206.5 Q296 -214 281 -219 Q266 -224 247 -224 L206 -224 L206 -183 L236 -183 Q247 -183 255.5 -180.5 Q264 -178 268 -171 L268 -147 L265 -147 Q238 -147 222 -141.5 Q206 -136 201 -129 L201 -73 Q206 -67 222 -60.5 Q238 -54 265 -54 Z " />
<glyph glyph-name="lacute" unicode="&#x13a;" horiz-adv-x="236" d="M55 0 L55 700 L180 700 L180 0 L55 0 Z M152 749 L62 749 L62 764 L119 906 L233 906 L233 851 L152 749 Z " />
<glyph glyph-name="lcaron" unicode="&#x13e;" horiz-adv-x="392" d="M55 0 L55 700 L180 700 L180 0 L55 0 Z M325 503 L248 503 L248 518 L268 700 L368 700 L368 635 L325 503 Z " />
<glyph glyph-name="lcommaaccent" unicode="&#x13c;" horiz-adv-x="236" d="M55 0 L55 700 L180 700 L180 0 L55 0 Z M117 -54 Q146 -54 161.5 -60.5 Q177 -67 182 -73 L182 -175 Q180 -182 174 -190.5 Q168 -199 158 -206.5 Q148 -214 133 -219 Q118 -224 99 -224 L58 -224 L58 -183 L88 -183 Q99 -183 107.5 -180.5 Q116 -178 120 -171 L120 -147 L117 -147 Q90 -147 74 -141.5 Q58 -136 53 -129 L53 -73 Q58 -67 74 -60.5 Q90 -54 117 -54 Z " />
<glyph glyph-name="lslash" unicode="&#x142;" horiz-adv-x="345" d="M234 359 L234 0 L110 0 L110 287 L29 240 L29 342 L110 389 L110 700 L234 700 L234 461 L316 508 L316 406 L234 359 Z " />
<glyph glyph-name="ldot" unicode="&#x140;" horiz-adv-x="418" d="M55 0 L55 700 L180 700 L180 0 L55 0 Z M326 426 Q355 426 372 415 Q389 404 394 392 L394 333 Q389 321 372 310 Q355 299 326 299 Q297 299 280 310 Q263 321 258 333 L258 392 Q263 404 280 415 Q297 426 326 426 Z " />
<glyph glyph-name="nacute" unicode="&#x144;" horiz-adv-x="560" d="M321 553 Q364 553 396 541 Q428 529 450.5 510.5 Q473 492 486.5 472.5 Q500 453 507 435 L507 0 L383 0 L383 406 Q379 413 371 421.5 Q363 430 351 437.5 Q339 445 322.5 450 Q306 455 285 455 Q248 455 221 443 Q194 431 179 414 L179 0 L55 0 L55 541 L171 541 L171 495 Q197 520 235 536.5 Q273 553 321 553 Z M322 606 L228 606 L228 621 L286 767 L402 767 L402 712 L322 606 Z " />
<glyph glyph-name="ncaron" unicode="&#x148;" horiz-adv-x="560" d="M321 553 Q364 553 396 541 Q428 529 450.5 510.5 Q473 492 486.5 472.5 Q500 453 507 435 L507 0 L383 0 L383 406 Q379 413 371 421.5 Q363 430 351 437.5 Q339 445 322.5 450 Q306 455 285 455 Q248 455 221 443 Q194 431 179 414 L179 0 L55 0 L55 541 L171 541 L171 495 Q197 520 235 536.5 Q273 553 321 553 Z M361 604 L201 604 L117 748 L117 764 L204 764 L280 662 L356 764 L444 764 L444 748 L361 604 Z " />
<glyph glyph-name="ntilde" unicode="&#xf1;" horiz-adv-x="560" d="M321 553 Q364 553 396 541 Q428 529 450.5 510.5 Q473 492 486.5 472.5 Q500 453 507 435 L507 0 L383 0 L383 406 Q379 413 371 421.5 Q363 430 351 437.5 Q339 445 322.5 450 Q306 455 285 455 Q248 455 221 443 Q194 431 179 414 L179 0 L55 0 L55 541 L171 541 L171 495 Q197 520 235 536.5 Q273 553 321 553 Z M209 741 Q235 741 253 733 Q271 725 285.5 715.5 Q300 706 312.5 698 Q325 690 340 690 Q354 690 364 697.5 Q374 705 376 717 L376 736 L450 736 L450 684 Q444 655 418 633 Q392 611 351 611 Q325 611 307 619 Q289 627 275 636.5 Q261 646 248.5 654 Q236 662 221 662 Q206 662 196 653.5 Q186 645 184 637 L184 616 L110 616 L110 669 Q118 700 143.5 720.5 Q169 741 209 741 Z " />
<glyph glyph-name="ncommaaccent" unicode="&#x146;" horiz-adv-x="560" d="M321 553 Q364 553 396 541 Q428 529 450.5 510.5 Q473 492 486.5 472.5 Q500 453 507 435 L507 0 L383 0 L383 406 Q379 413 371 421.5 Q363 430 351 437.5 Q339 445 322.5 450 Q306 455 285 455 Q248 455 221 443 Q194 431 179 414 L179 0 L55 0 L55 541 L171 541 L171 495 Q197 520 235 536.5 Q273 553 321 553 Z M280 -54 Q309 -54 324.5 -60.5 Q340 -67 345 -73 L345 -175 Q343 -182 337 -190.5 Q331 -199 321 -206.5 Q311 -214 296 -219 Q281 -224 262 -224 L221 -224 L221 -183 L251 -183 Q262 -183 270.5 -180.5 Q279 -178 283 -171 L283 -147 L280 -147 Q253 -147 237 -141.5 Q221 -136 216 -129 L216 -73 Q221 -67 237 -60.5 Q253 -54 280 -54 Z " />
<glyph glyph-name="napostrophe" unicode="&#x149;" horiz-adv-x="560" d="M321 553 Q364 553 396 541 Q428 529 450.5 510.5 Q473 492 486.5 472.5 Q500 453 507 435 L507 0 L383 0 L383 406 Q379 413 371 421.5 Q363 430 351 437.5 Q339 445 322.5 450 Q306 455 285 455 Q248 455 221 443 Q194 431 179 414 L179 0 L55 0 L55 541 L171 541 L171 495 Q197 520 235 536.5 Q273 553 321 553 Z M81 751 Q110 751 125.5 744.5 Q141 738 146 732 L146 630 Q144 623 138 614.5 Q132 606 122 598.5 Q112 591 97 586 Q82 581 63 581 L22 581 L22 622 L52 622 Q63 622 71.5 624.5 Q80 627 84 634 L84 658 L81 658 Q54 658 38 663.5 Q22 669 17 676 L17 732 Q22 738 38 744.5 Q54 751 81 751 Z " />
<glyph glyph-name="ograve" unicode="&#xf2;" horiz-adv-x="556" d="M279 555 Q330 555 369 542 Q408 529 436 509.5 Q464 490 482 466 Q500 442 509 421 L509 120 Q500 99 482 75 Q464 51 436 31.5 Q408 12 369 -1 Q330 -14 279 -14 Q228 -14 188.5 -1 Q149 12 121 31.5 Q93 51 74.5 75 Q56 99 47 120 L47 421 Q56 442 74.5 466 Q93 490 121 509.5 Q149 529 188.5 542 Q228 555 279 555 Z M278 458 Q236 458 209 438.5 Q182 419 171 396 L171 145 Q182 121 209 102 Q236 83 278 83 Q320 83 347.5 102 Q375 121 385 145 L385 396 Q375 419 347.5 438.5 Q320 458 278 458 Z M327 606 L235 606 L154 712 L154 767 L269 767 L327 621 L327 606 Z " />
<glyph glyph-name="oacute" unicode="&#xf3;" horiz-adv-x="556" d="M279 555 Q330 555 369 542 Q408 529 436 509.5 Q464 490 482 466 Q500 442 509 421 L509 120 Q500 99 482 75 Q464 51 436 31.5 Q408 12 369 -1 Q330 -14 279 -14 Q228 -14 188.5 -1 Q149 12 121 31.5 Q93 51 74.5 75 Q56 99 47 120 L47 421 Q56 442 74.5 466 Q93 490 121 509.5 Q149 529 188.5 542 Q228 555 279 555 Z M278 458 Q236 458 209 438.5 Q182 419 171 396 L171 145 Q182 121 209 102 Q236 83 278 83 Q320 83 347.5 102 Q375 121 385 145 L385 396 Q375 419 347.5 438.5 Q320 458 278 458 Z M320 606 L226 606 L226 621 L284 767 L400 767 L400 712 L320 606 Z " />
<glyph glyph-name="ocircumflex" unicode="&#xf4;" horiz-adv-x="556" d="M279 555 Q330 555 369 542 Q408 529 436 509.5 Q464 490 482 466 Q500 442 509 421 L509 120 Q500 99 482 75 Q464 51 436 31.5 Q408 12 369 -1 Q330 -14 279 -14 Q228 -14 188.5 -1 Q149 12 121 31.5 Q93 51 74.5 75 Q56 99 47 120 L47 421 Q56 442 74.5 466 Q93 490 121 509.5 Q149 529 188.5 542 Q228 555 279 555 Z M278 458 Q236 458 209 438.5 Q182 419 171 396 L171 145 Q182 121 209 102 Q236 83 278 83 Q320 83 347.5 102 Q375 121 385 145 L385 396 Q375 419 347.5 438.5 Q320 458 278 458 Z M441 604 L353 604 L277 706 L201 604 L114 604 L114 619 L198 764 L358 764 L441 619 L441 604 Z " />
<glyph glyph-name="otilde" unicode="&#xf5;" horiz-adv-x="556" d="M279 555 Q330 555 369 542 Q408 529 436 509.5 Q464 490 482 466 Q500 442 509 421 L509 120 Q500 99 482 75 Q464 51 436 31.5 Q408 12 369 -1 Q330 -14 279 -14 Q228 -14 188.5 -1 Q149 12 121 31.5 Q93 51 74.5 75 Q56 99 47 120 L47 421 Q56 442 74.5 466 Q93 490 121 509.5 Q149 529 188.5 542 Q228 555 279 555 Z M278 458 Q236 458 209 438.5 Q182 419 171 396 L171 145 Q182 121 209 102 Q236 83 278 83 Q320 83 347.5 102 Q375 121 385 145 L385 396 Q375 419 347.5 438.5 Q320 458 278 458 Z M206 741 Q232 741 250 733 Q268 725 282.5 715.5 Q297 706 309.5 698 Q322 690 337 690 Q351 690 361 697.5 Q371 705 373 717 L373 736 L447 736 L447 684 Q441 655 415 633 Q389 611 348 611 Q322 611 304 619 Q286 627 272 636.5 Q258 646 245.5 654 Q233 662 218 662 Q203 662 193 653.5 Q183 645 181 637 L181 616 L107 616 L107 669 Q115 700 140.5 720.5 Q166 741 206 741 Z " />
<glyph glyph-name="odieresis" unicode="&#xf6;" horiz-adv-x="556" d="M279 555 Q330 555 369 542 Q408 529 436 509.5 Q464 490 482 466 Q500 442 509 421 L509 120 Q500 99 482 75 Q464 51 436 31.5 Q408 12 369 -1 Q330 -14 279 -14 Q228 -14 188.5 -1 Q149 12 121 31.5 Q93 51 74.5 75 Q56 99 47 120 L47 421 Q56 442 74.5 466 Q93 490 121 509.5 Q149 529 188.5 542 Q228 555 279 555 Z M278 458 Q236 458 209 438.5 Q182 419 171 396 L171 145 Q182 121 209 102 Q236 83 278 83 Q320 83 347.5 102 Q375 121 385 145 L385 396 Q375 419 347.5 438.5 Q320 458 278 458 Z M170 737 Q199 737 214 727.5 Q229 718 234 712 L234 636 Q229 629 214 620 Q199 611 170 611 Q142 611 127 620.5 Q112 630 107 636 L107 712 Q112 718 127 727.5 Q142 737 170 737 Z M383 737 Q412 737 427 727.5 Q442 718 447 712 L447 636 Q442 629 427 620 Q412 611 383 611 Q355 611 340 620.5 Q325 630 320 636 L320 712 Q325 718 340 727.5 Q355 737 383 737 Z " />
<glyph glyph-name="omacron" unicode="&#x14d;" horiz-adv-x="556" d="M279 555 Q330 555 369 542 Q408 529 436 509.5 Q464 490 482 466 Q500 442 509 421 L509 120 Q500 99 482 75 Q464 51 436 31.5 Q408 12 369 -1 Q330 -14 279 -14 Q228 -14 188.5 -1 Q149 12 121 31.5 Q93 51 74.5 75 Q56 99 47 120 L47 421 Q56 442 74.5 466 Q93 490 121 509.5 Q149 529 188.5 542 Q228 555 279 555 Z M278 458 Q236 458 209 438.5 Q182 419 171 396 L171 145 Q182 121 209 102 Q236 83 278 83 Q320 83 347.5 102 Q375 121 385 145 L385 396 Q375 419 347.5 438.5 Q320 458 278 458 Z M112 635 L112 721 L444 721 L444 635 L112 635 Z " />
<glyph glyph-name="obreve" unicode="&#x14f;" horiz-adv-x="556" d="M279 555 Q330 555 369 542 Q408 529 436 509.5 Q464 490 482 466 Q500 442 509 421 L509 120 Q500 99 482 75 Q464 51 436 31.5 Q408 12 369 -1 Q330 -14 279 -14 Q228 -14 188.5 -1 Q149 12 121 31.5 Q93 51 74.5 75 Q56 99 47 120 L47 421 Q56 442 74.5 466 Q93 490 121 509.5 Q149 529 188.5 542 Q228 555 279 555 Z M278 458 Q236 458 209 438.5 Q182 419 171 396 L171 145 Q182 121 209 102 Q236 83 278 83 Q320 83 347.5 102 Q375 121 385 145 L385 396 Q375 419 347.5 438.5 Q320 458 278 458 Z M438 682 Q421 648 382.5 623 Q344 598 277 598 Q211 598 171.5 623 Q132 648 116 682 L116 741 L207 741 L207 703 Q211 694 227.5 680.5 Q244 667 277 667 Q310 667 326 680.5 Q342 694 346 703 L346 741 L438 741 L438 682 Z " />
<glyph glyph-name="ohungarumlaut" unicode="&#x151;" horiz-adv-x="556" d="M279 555 Q330 555 369 542 Q408 529 436 509.5 Q464 490 482 466 Q500 442 509 421 L509 120 Q500 99 482 75 Q464 51 436 31.5 Q408 12 369 -1 Q330 -14 279 -14 Q228 -14 188.5 -1 Q149 12 121 31.5 Q93 51 74.5 75 Q56 99 47 120 L47 421 Q56 442 74.5 466 Q93 490 121 509.5 Q149 529 188.5 542 Q228 555 279 555 Z M278 458 Q236 458 209 438.5 Q182 419 171 396 L171 145 Q182 121 209 102 Q236 83 278 83 Q320 83 347.5 102 Q375 121 385 145 L385 396 Q375 419 347.5 438.5 Q320 458 278 458 Z M221 600 L141 600 L141 616 L183 760 L280 760 L280 714 L221 600 Z M410 600 L330 600 L330 616 L371 760 L468 760 L468 714 L410 600 Z " />
<glyph glyph-name="oslash" unicode="&#xf8;" horiz-adv-x="556" d="M483 464 Q492 453 498 442.5 Q504 432 509 421 L509 120 Q500 99 482 75 Q464 51 436 31.5 Q408 12 369 -1 Q330 -14 279 -14 Q230 -14 192.5 -2.5 Q155 9 127 28 L104 0 L47 0 L47 45 L73 77 Q56 98 47 120 L47 421 Q56 442 74.5 466 Q93 490 121 509.5 Q149 529 188.5 542 Q228 555 279 555 Q328 555 365 543.5 Q402 532 430 513 L453 541 L509 541 L509 496 L483 464 Z M363 431 Q349 445 327.5 453.5 Q306 462 278 462 Q236 462 209 443.5 Q182 425 171 400 L171 196 L363 431 Z M193 109 Q207 96 228.5 87.5 Q250 79 278 79 Q320 79 347.5 97.5 Q375 116 385 141 L385 344 L193 109 Z " />
<glyph glyph-name="oe" unicode="&#x153;" horiz-adv-x="882" d="M509 145 Q520 120 547 101 Q574 82 616 82 Q662 82 689.5 102.5 Q717 123 734 163 L839 163 L839 105 Q831 90 814.5 69.5 Q798 49 771 30.5 Q744 12 705.5 -1 Q667 -14 616 -14 Q559 -14 517.5 1.5 Q476 17 447 40 Q418 17 377 1.5 Q336 -14 279 -14 Q228 -14 188.5 -1 Q149 12 121 31.5 Q93 51 74.5 75 Q56 99 47 120 L47 421 Q56 442 74.5 466 Q93 490 121 509.5 Q149 529 188.5 542 Q228 555 279 555 Q336 555 377 539.5 Q418 524 447 501 Q476 524 517.5 539.5 Q559 555 616 555 Q667 555 705.5 542 Q744 529 771 510.5 Q798 492 814.5 471.5 Q831 451 839 436 L839 240 L509 240 L509 145 Z M616 459 Q574 459 547 440 Q520 421 509 396 L509 327 L723 327 L723 396 Q713 421 685.5 440 Q658 459 616 459 Z M278 83 Q320 83 347.5 102 Q375 121 385 145 L385 396 Q375 419 347.5 438.5 Q320 458 278 458 Q236 458 209 438.5 Q182 419 171 396 L171 145 Q182 121 209 102 Q236 83 278 83 Z " />
<glyph glyph-name="racute" unicode="&#x155;" horiz-adv-x="370" d="M326 542 Q329 542 334 542 Q339 542 347 541 L347 427 Q339 428 332.5 428 Q326 428 323 428 Q268 428 232 414 Q196 400 179 380 L179 0 L55 0 L55 541 L171 541 L171 468 Q192 498 229 520 Q266 542 326 542 Z M246 606 L152 606 L152 621 L210 767 L326 767 L326 712 L246 606 Z " />
<glyph glyph-name="rcaron" unicode="&#x159;" horiz-adv-x="370" d="M326 542 Q329 542 334 542 Q339 542 347 541 L347 427 Q339 428 332.5 428 Q326 428 323 428 Q268 428 232 414 Q196 400 179 380 L179 0 L55 0 L55 541 L171 541 L171 468 Q192 498 229 520 Q266 542 326 542 Z M284 604 L124 604 L40 748 L40 764 L127 764 L203 662 L279 764 L367 764 L367 748 L284 604 Z " />
<glyph glyph-name="rcommaaccent" unicode="&#x157;" horiz-adv-x="370" d="M326 542 Q329 542 334 542 Q339 542 347 541 L347 427 Q339 428 332.5 428 Q326 428 323 428 Q268 428 232 414 Q196 400 179 380 L179 0 L55 0 L55 541 L171 541 L171 468 Q192 498 229 520 Q266 542 326 542 Z M116 -54 Q145 -54 160.5 -60.5 Q176 -67 181 -73 L181 -175 Q179 -182 173 -190.5 Q167 -199 157 -206.5 Q147 -214 132 -219 Q117 -224 98 -224 L57 -224 L57 -183 L87 -183 Q98 -183 106.5 -180.5 Q115 -178 119 -171 L119 -147 L116 -147 Q89 -147 73 -141.5 Q57 -136 52 -129 L52 -73 Q57 -67 73 -60.5 Q89 -54 116 -54 Z " />
<glyph glyph-name="sacute" unicode="&#x15b;" horiz-adv-x="499" d="M249 555 Q294 555 329 545 Q364 535 389 520.5 Q414 506 429.5 490.5 Q445 475 453 463 L453 407 L348 407 Q337 431 312.5 446.5 Q288 462 249 462 Q217 462 193 450 Q169 438 161 426 L161 367 Q169 353 189 344 Q209 335 239 327 L290 316 Q367 299 408.5 274.5 Q450 250 462 228 L462 87 Q454 74 438 57.5 Q422 41 396.5 25 Q371 9 334.5 -2.5 Q298 -14 249 -14 Q200 -14 163.5 -2.5 Q127 9 101.5 25 Q76 41 60 58 Q44 75 36 87 L36 143 L142 143 Q175 79 250 79 Q286 79 311.5 93.5 Q337 108 347 124 L347 178 Q330 208 268 220 L215 231 Q174 240 145 251 Q116 262 96 274 Q76 286 64 297.5 Q52 309 45 320 L45 463 Q52 473 67.5 488.5 Q83 504 107.5 519 Q132 534 167 544.5 Q202 555 249 555 Z M298 606 L204 606 L204 621 L262 767 L378 767 L378 712 L298 606 Z " />
<glyph glyph-name="scircumflex" unicode="&#x15d;" horiz-adv-x="499" d="M249 555 Q294 555 329 545 Q364 535 389 520.5 Q414 506 429.5 490.5 Q445 475 453 463 L453 407 L348 407 Q337 431 312.5 446.5 Q288 462 249 462 Q217 462 193 450 Q169 438 161 426 L161 367 Q169 353 189 344 Q209 335 239 327 L290 316 Q367 299 408.5 274.5 Q450 250 462 228 L462 87 Q454 74 438 57.5 Q422 41 396.5 25 Q371 9 334.5 -2.5 Q298 -14 249 -14 Q200 -14 163.5 -2.5 Q127 9 101.5 25 Q76 41 60 58 Q44 75 36 87 L36 143 L142 143 Q175 79 250 79 Q286 79 311.5 93.5 Q337 108 347 124 L347 178 Q330 208 268 220 L215 231 Q174 240 145 251 Q116 262 96 274 Q76 286 64 297.5 Q52 309 45 320 L45 463 Q52 473 67.5 488.5 Q83 504 107.5 519 Q132 534 167 544.5 Q202 555 249 555 Z M420 604 L332 604 L256 706 L180 604 L93 604 L93 619 L177 764 L337 764 L420 619 L420 604 Z " />
<glyph glyph-name="scaron" unicode="&#x161;" horiz-adv-x="499" d="M249 555 Q294 555 329 545 Q364 535 389 520.5 Q414 506 429.5 490.5 Q445 475 453 463 L453 407 L348 407 Q337 431 312.5 446.5 Q288 462 249 462 Q217 462 193 450 Q169 438 161 426 L161 367 Q169 353 189 344 Q209 335 239 327 L290 316 Q367 299 408.5 274.5 Q450 250 462 228 L462 87 Q454 74 438 57.5 Q422 41 396.5 25 Q371 9 334.5 -2.5 Q298 -14 249 -14 Q200 -14 163.5 -2.5 Q127 9 101.5 25 Q76 41 60 58 Q44 75 36 87 L36 143 L142 143 Q175 79 250 79 Q286 79 311.5 93.5 Q337 108 347 124 L347 178 Q330 208 268 220 L215 231 Q174 240 145 251 Q116 262 96 274 Q76 286 64 297.5 Q52 309 45 320 L45 463 Q52 473 67.5 488.5 Q83 504 107.5 519 Q132 534 167 544.5 Q202 555 249 555 Z M337 604 L177 604 L93 748 L93 764 L180 764 L256 662 L332 764 L420 764 L420 748 L337 604 Z " />
<glyph glyph-name="scedilla" unicode="&#x15f;" horiz-adv-x="499" d="M290 316 Q369 299 409.5 273.5 Q450 248 462 228 L462 87 Q455 76 441 60.5 Q427 45 405 30 Q383 15 352 3 Q321 -9 280 -13 L267 -47 L276 -47 Q313 -47 334 -62.5 Q355 -78 363 -95 L363 -169 Q351 -194 321 -210 Q291 -226 248 -226 Q216 -226 189 -219.5 Q162 -213 148 -205 L168 -148 Q184 -155 202.5 -159 Q221 -163 241 -163 Q261 -163 272.5 -157 Q284 -151 288 -142 L288 -117 Q284 -109 272.5 -104 Q261 -99 242 -99 L181 -99 L211 -12 Q172 -8 142.5 4.5 Q113 17 91.5 31.5 Q70 46 56.5 61 Q43 76 36 87 L36 143 L142 143 Q175 79 250 79 Q288 79 312 93.5 Q336 108 347 124 L347 178 Q330 208 268 220 L215 231 Q174 240 145 251 Q116 262 96 274 Q76 286 64 297.5 Q52 309 45 320 L45 463 Q52 473 67.5 488.5 Q83 504 107.5 519 Q132 534 167 544.5 Q202 555 249 555 Q294 555 329 545 Q364 535 389 520.5 Q414 506 429.5 490 Q445 474 453 463 L453 407 L348 407 Q337 431 313 446.5 Q289 462 249 462 Q214 462 192 449.5 Q170 437 161 426 L161 367 Q169 353 189 344 Q209 335 239 327 L290 316 Z " />
<glyph glyph-name="scommaaccent" unicode="&#x219;" horiz-adv-x="499" d="M249 555 Q294 555 329 545 Q364 535 389 520.5 Q414 506 429.5 490.5 Q445 475 453 463 L453 407 L348 407 Q337 431 312.5 446.5 Q288 462 249 462 Q217 462 193 450 Q169 438 161 426 L161 367 Q169 353 189 344 Q209 335 239 327 L290 316 Q367 299 408.5 274.5 Q450 250 462 228 L462 87 Q454 74 438 57.5 Q422 41 396.5 25 Q371 9 334.5 -2.5 Q298 -14 249 -14 Q200 -14 163.5 -2.5 Q127 9 101.5 25 Q76 41 60 58 Q44 75 36 87 L36 143 L142 143 Q175 79 250 79 Q286 79 311.5 93.5 Q337 108 347 124 L347 178 Q330 208 268 220 L215 231 Q174 240 145 251 Q116 262 96 274 Q76 286 64 297.5 Q52 309 45 320 L45 463 Q52 473 67.5 488.5 Q83 504 107.5 519 Q132 534 167 544.5 Q202 555 249 555 Z M253 -54 Q282 -54 297.5 -60.5 Q313 -67 318 -73 L318 -175 Q316 -182 310 -190.5 Q304 -199 294 -206.5 Q284 -214 269 -219 Q254 -224 235 -224 L194 -224 L194 -183 L224 -183 Q235 -183 243.5 -180.5 Q252 -178 256 -171 L256 -147 L253 -147 Q226 -147 210 -141.5 Q194 -136 189 -129 L189 -73 Q194 -67 210 -60.5 Q226 -54 253 -54 Z " />
<glyph glyph-name="germandbls" unicode="&#xdf;" horiz-adv-x="559" d="M280 714 Q328 714 365 702.5 Q402 691 429 674.5 Q456 658 473 639.5 Q490 621 499 606 L499 433 Q487 414 466.5 396.5 Q446 379 423 369 Q463 349 485 323 Q507 297 518 272 L518 120 Q504 90 484 67.5 Q464 45 434.5 30 Q405 15 366 7.5 Q327 0 275 0 L275 98 Q295 98 312.5 99.5 Q330 101 345 106 Q360 111 372 122 Q384 133 394 153 L394 252 Q379 286 348.5 300.5 Q318 315 285 315 L285 410 Q317 410 343.5 422.5 Q370 435 384 458 L384 564 Q370 587 343.5 602.5 Q317 618 280 618 Q242 618 216.5 601 Q191 584 179 564 L179 0 L55 0 L55 591 Q65 611 84 632.5 Q103 654 130.5 672 Q158 690 195 702 Q232 714 280 714 Z " />
<glyph glyph-name="tcaron" unicode="&#x165;" horiz-adv-x="421" d="M392 736 L350 604 L274 604 L274 620 L294 801 L392 801 L392 736 Z M206 125 Q209 120 215 113 Q221 106 232 100 Q243 94 259.5 89.5 Q276 85 300 85 Q313 85 324 85.5 Q335 86 340 87 L340 -1 Q329 -3 307.5 -7 Q286 -11 254 -11 Q212 -11 182.5 -2 Q153 7 132.5 20.5 Q112 34 100 50.5 Q88 67 82 82 L82 449 L22 449 L22 541 L82 541 L82 654 L206 654 L206 541 L322 541 L322 449 L206 449 L206 125 Z " />
<glyph glyph-name="uni021B" unicode="&#x21b;" horiz-adv-x="359" d="M300 85 Q313 85 324 85.5 Q335 86 340 87 L340 -1 Q328 -4 306.5 -7.5 Q285 -11 254 -11 Q212 -11 182.5 -2 Q153 7 132.5 20.5 Q112 34 100 50.5 Q88 67 82 82 L82 449 L22 449 L22 541 L82 541 L82 654 L206 654 L206 541 L322 541 L322 449 L206 449 L206 125 Q209 120 215 113 Q221 106 232 100 Q243 94 259.5 89.5 Q276 85 300 85 Z M216 -54 Q245 -54 260.5 -60.5 Q276 -67 281 -73 L281 -175 Q279 -182 273 -190.5 Q267 -199 257 -206.5 Q247 -214 232 -219 Q217 -224 198 -224 L157 -224 L157 -183 L187 -183 Q198 -183 206.5 -180.5 Q215 -178 219 -171 L219 -147 L216 -147 Q189 -147 173 -141.5 Q157 -136 152 -129 L152 -73 Q157 -67 173 -60.5 Q189 -54 216 -54 Z " />
<glyph glyph-name="tbar" unicode="&#x167;" horiz-adv-x="359" d="M300 85 Q313 85 324 85.5 Q335 86 340 87 L340 -1 Q329 -3 307.5 -7 Q286 -11 254 -11 Q212 -11 182.5 -2 Q153 7 132.5 20.5 Q112 34 100 50.5 Q88 67 82 82 L82 237 L22 237 L22 329 L82 329 L82 449 L22 449 L22 541 L82 541 L82 654 L206 654 L206 541 L322 541 L322 449 L206 449 L206 329 L322 329 L322 237 L206 237 L206 125 Q209 120 215 113 Q221 106 232 100 Q243 94 259.5 89.5 Q276 85 300 85 Z " />
<glyph glyph-name="ugrave" unicode="&#xf9;" horiz-adv-x="554" d="M499 0 L383 0 L383 45 Q359 21 323 4.5 Q287 -12 236 -12 Q194 -12 162.5 0 Q131 12 109 30 Q87 48 73 68 Q59 88 52 104 L52 541 L176 541 L176 135 Q180 128 187.5 119.5 Q195 111 206.5 103.5 Q218 96 234.5 91 Q251 86 272 86 Q311 86 336 99 Q361 112 375 128 L375 541 L499 541 L499 0 Z M327 606 L235 606 L154 712 L154 767 L269 767 L327 621 L327 606 Z " />
<glyph glyph-name="uacute" unicode="&#xfa;" horiz-adv-x="554" d="M499 0 L383 0 L383 45 Q359 21 323 4.5 Q287 -12 236 -12 Q194 -12 162.5 0 Q131 12 109 30 Q87 48 73 68 Q59 88 52 104 L52 541 L176 541 L176 135 Q180 128 187.5 119.5 Q195 111 206.5 103.5 Q218 96 234.5 91 Q251 86 272 86 Q311 86 336 99 Q361 112 375 128 L375 541 L499 541 L499 0 Z M319 606 L225 606 L225 621 L283 767 L399 767 L399 712 L319 606 Z " />
<glyph glyph-name="ucircumflex" unicode="&#xfb;" horiz-adv-x="554" d="M499 0 L383 0 L383 45 Q359 21 323 4.5 Q287 -12 236 -12 Q194 -12 162.5 0 Q131 12 109 30 Q87 48 73 68 Q59 88 52 104 L52 541 L176 541 L176 135 Q180 128 187.5 119.5 Q195 111 206.5 103.5 Q218 96 234.5 91 Q251 86 272 86 Q311 86 336 99 Q361 112 375 128 L375 541 L499 541 L499 0 Z M441 604 L353 604 L277 706 L201 604 L114 604 L114 619 L198 764 L358 764 L441 619 L441 604 Z " />
<glyph glyph-name="utilde" unicode="&#x169;" horiz-adv-x="554" d="M499 0 L383 0 L383 45 Q359 21 323 4.5 Q287 -12 236 -12 Q194 -12 162.5 0 Q131 12 109 30 Q87 48 73 68 Q59 88 52 104 L52 541 L176 541 L176 135 Q180 128 187.5 119.5 Q195 111 206.5 103.5 Q218 96 234.5 91 Q251 86 272 86 Q311 86 336 99 Q361 112 375 128 L375 541 L499 541 L499 0 Z M206 741 Q232 741 250 733 Q268 725 282.5 715.5 Q297 706 309.5 698 Q322 690 337 690 Q351 690 361 697.5 Q371 705 373 717 L373 736 L447 736 L447 684 Q441 655 415 633 Q389 611 348 611 Q322 611 304 619 Q286 627 272 636.5 Q258 646 245.5 654 Q233 662 218 662 Q203 662 193 653.5 Q183 645 181 637 L181 616 L107 616 L107 669 Q115 700 140.5 720.5 Q166 741 206 741 Z " />
<glyph glyph-name="udieresis" unicode="&#xfc;" horiz-adv-x="554" d="M499 0 L383 0 L383 45 Q359 21 323 4.5 Q287 -12 236 -12 Q194 -12 162.5 0 Q131 12 109 30 Q87 48 73 68 Q59 88 52 104 L52 541 L176 541 L176 135 Q180 128 187.5 119.5 Q195 111 206.5 103.5 Q218 96 234.5 91 Q251 86 272 86 Q311 86 336 99 Q361 112 375 128 L375 541 L499 541 L499 0 Z M170 737 Q199 737 214 727.5 Q229 718 234 712 L234 636 Q229 629 214 620 Q199 611 170 611 Q142 611 127 620.5 Q112 630 107 636 L107 712 Q112 718 127 727.5 Q142 737 170 737 Z M383 737 Q412 737 427 727.5 Q442 718 447 712 L447 636 Q442 629 427 620 Q412 611 383 611 Q355 611 340 620.5 Q325 630 320 636 L320 712 Q325 718 340 727.5 Q355 737 383 737 Z " />
<glyph glyph-name="umacron" unicode="&#x16b;" horiz-adv-x="554" d="M499 0 L383 0 L383 45 Q359 21 323 4.5 Q287 -12 236 -12 Q194 -12 162.5 0 Q131 12 109 30 Q87 48 73 68 Q59 88 52 104 L52 541 L176 541 L176 135 Q180 128 187.5 119.5 Q195 111 206.5 103.5 Q218 96 234.5 91 Q251 86 272 86 Q311 86 336 99 Q361 112 375 128 L375 541 L499 541 L499 0 Z M111 635 L111 721 L443 721 L443 635 L111 635 Z " />
<glyph glyph-name="ubreve" unicode="&#x16d;" horiz-adv-x="554" d="M499 0 L383 0 L383 45 Q359 21 323 4.5 Q287 -12 236 -12 Q194 -12 162.5 0 Q131 12 109 30 Q87 48 73 68 Q59 88 52 104 L52 541 L176 541 L176 135 Q180 128 187.5 119.5 Q195 111 206.5 103.5 Q218 96 234.5 91 Q251 86 272 86 Q311 86 336 99 Q361 112 375 128 L375 541 L499 541 L499 0 Z M438 682 Q421 648 382.5 623 Q344 598 277 598 Q211 598 171.5 623 Q132 648 116 682 L116 741 L207 741 L207 703 Q211 694 227.5 680.5 Q244 667 277 667 Q310 667 326 680.5 Q342 694 346 703 L346 741 L438 741 L438 682 Z " />
<glyph glyph-name="uring" unicode="&#x16f;" horiz-adv-x="554" d="M499 0 L383 0 L383 45 Q359 21 323 4.5 Q287 -12 236 -12 Q194 -12 162.5 0 Q131 12 109 30 Q87 48 73 68 Q59 88 52 104 L52 541 L176 541 L176 135 Q180 128 187.5 119.5 Q195 111 206.5 103.5 Q218 96 234.5 91 Q251 86 272 86 Q311 86 336 99 Q361 112 375 128 L375 541 L499 541 L499 0 Z M276 806 Q318 806 349 789.5 Q380 773 394 747 L394 654 Q380 628 349 611 Q318 594 276 594 Q234 594 203 611 Q172 628 158 654 L158 747 Q172 773 203 789.5 Q234 806 276 806 Z M276 753 Q251 753 237.5 744.5 Q224 736 219 728 L219 673 Q224 665 237.5 656.5 Q251 648 276 648 Q301 648 314.5 656.5 Q328 665 333 673 L333 728 Q328 736 314.5 744.5 Q301 753 276 753 Z " />
<glyph glyph-name="uhungarumlaut" unicode="&#x171;" horiz-adv-x="554" d="M499 0 L383 0 L383 45 Q359 21 323 4.5 Q287 -12 236 -12 Q194 -12 162.5 0 Q131 12 109 30 Q87 48 73 68 Q59 88 52 104 L52 541 L176 541 L176 135 Q180 128 187.5 119.5 Q195 111 206.5 103.5 Q218 96 234.5 91 Q251 86 272 86 Q311 86 336 99 Q361 112 375 128 L375 541 L499 541 L499 0 Z M221 600 L141 600 L141 616 L183 760 L280 760 L280 714 L221 600 Z M410 600 L330 600 L330 616 L371 760 L468 760 L468 714 L410 600 Z " />
<glyph glyph-name="uogonek" unicode="&#x173;" horiz-adv-x="554" d="M499 0 Q452 -37 430.5 -63.5 Q409 -90 404 -102 L404 -129 Q409 -136 421 -141 Q433 -146 450 -146 Q461 -146 473 -144 Q485 -142 499 -137 L499 -207 Q486 -213 469 -217 Q452 -221 425 -221 Q388 -221 356.5 -209 Q325 -197 312 -171 L312 -96 Q320 -79 340 -53 Q360 -27 395 0 L383 0 L383 45 Q359 21 323 4.5 Q287 -12 236 -12 Q194 -12 162.5 0 Q131 12 109 30 Q87 48 73 68 Q59 88 52 104 L52 541 L176 541 L176 135 Q180 128 187.5 119.5 Q195 111 206.5 103.5 Q218 96 234.5 91 Q251 86 272 86 Q311 86 336 99 Q361 112 375 128 L375 541 L499 541 L499 0 Z " />
<glyph glyph-name="wgrave" unicode="&#x1e81;" horiz-adv-x="789" d="M636 0 L495 0 L400 360 L397 360 L300 0 L157 0 L34 470 L34 541 L146 541 L238 134 L241 134 L346 541 L458 541 L562 134 L565 134 L656 541 L759 541 L759 470 L636 0 Z M444 606 L352 606 L271 712 L271 767 L386 767 L444 621 L444 606 Z " />
<glyph glyph-name="wacute" unicode="&#x1e83;" horiz-adv-x="789" d="M636 0 L495 0 L400 360 L397 360 L300 0 L157 0 L34 470 L34 541 L146 541 L238 134 L241 134 L346 541 L458 541 L562 134 L565 134 L656 541 L759 541 L759 470 L636 0 Z M436 606 L342 606 L342 621 L400 767 L516 767 L516 712 L436 606 Z " />
<glyph glyph-name="wcircumflex" unicode="&#x175;" horiz-adv-x="789" d="M636 0 L495 0 L400 360 L397 360 L300 0 L157 0 L34 470 L34 541 L146 541 L238 134 L241 134 L346 541 L458 541 L562 134 L565 134 L656 541 L759 541 L759 470 L636 0 Z M558 604 L470 604 L394 706 L318 604 L231 604 L231 619 L315 764 L475 764 L558 619 L558 604 Z " />
<glyph glyph-name="wdieresis" unicode="&#x1e85;" horiz-adv-x="789" d="M636 0 L495 0 L400 360 L397 360 L300 0 L157 0 L34 470 L34 541 L146 541 L238 134 L241 134 L346 541 L458 541 L562 134 L565 134 L656 541 L759 541 L759 470 L636 0 Z M287 737 Q316 737 331 727.5 Q346 718 351 712 L351 636 Q346 629 331 620 Q316 611 287 611 Q259 611 244 620.5 Q229 630 224 636 L224 712 Q229 718 244 727.5 Q259 737 287 737 Z M500 737 Q529 737 544 727.5 Q559 718 564 712 L564 636 Q559 629 544 620 Q529 611 500 611 Q472 611 457 620.5 Q442 630 437 636 L437 712 Q442 718 457 727.5 Q472 737 500 737 Z " />
<glyph glyph-name="ygrave" unicode="&#x1ef3;" horiz-adv-x="520" d="M490 471 L299 -97 Q273 -133 226.5 -153.5 Q180 -174 117 -174 Q91 -174 70.5 -171.5 Q50 -169 40 -166 L40 -77 Q49 -78 59.5 -78.5 Q70 -79 81 -79 Q127 -79 154 -67.5 Q181 -56 194 -40 L205 1 L32 470 L32 541 L144 541 L266 156 L269 156 L385 541 L490 541 L490 471 Z M308 606 L216 606 L135 712 L135 767 L250 767 L308 621 L308 606 Z " />
<glyph glyph-name="yacute" unicode="&#xfd;" horiz-adv-x="520" d="M490 471 L299 -97 Q273 -133 226.5 -153.5 Q180 -174 117 -174 Q91 -174 70.5 -171.5 Q50 -169 40 -166 L40 -77 Q49 -78 59.5 -78.5 Q70 -79 81 -79 Q127 -79 154 -67.5 Q181 -56 194 -40 L205 1 L32 470 L32 541 L144 541 L266 156 L269 156 L385 541 L490 541 L490 471 Z M301 606 L207 606 L207 621 L265 767 L381 767 L381 712 L301 606 Z " />
<glyph glyph-name="ycircumflex" unicode="&#x177;" horiz-adv-x="520" d="M490 471 L299 -97 Q273 -133 226.5 -153.5 Q180 -174 117 -174 Q91 -174 70.5 -171.5 Q50 -169 40 -166 L40 -77 Q49 -78 59.5 -78.5 Q70 -79 81 -79 Q127 -79 154 -67.5 Q181 -56 194 -40 L205 1 L32 470 L32 541 L144 541 L266 156 L269 156 L385 541 L490 541 L490 471 Z M423 604 L335 604 L259 706 L183 604 L96 604 L96 619 L180 764 L340 764 L423 619 L423 604 Z " />
<glyph glyph-name="ydieresis" unicode="&#xff;" horiz-adv-x="520" d="M490 471 L299 -97 Q273 -133 226.5 -153.5 Q180 -174 117 -174 Q91 -174 70.5 -171.5 Q50 -169 40 -166 L40 -77 Q49 -78 59.5 -78.5 Q70 -79 81 -79 Q127 -79 154 -67.5 Q181 -56 194 -40 L205 1 L32 470 L32 541 L144 541 L266 156 L269 156 L385 541 L490 541 L490 471 Z M152 737 Q181 737 196 727.5 Q211 718 216 712 L216 636 Q211 629 196 620 Q181 611 152 611 Q124 611 109 620.5 Q94 630 89 636 L89 712 Q94 718 109 727.5 Q124 737 152 737 Z M365 737 Q394 737 409 727.5 Q424 718 429 712 L429 636 Q424 629 409 620 Q394 611 365 611 Q337 611 322 620.5 Q307 630 302 636 L302 712 Q307 718 322 727.5 Q337 737 365 737 Z " />
<glyph glyph-name="zacute" unicode="&#x17a;" horiz-adv-x="481" d="M170 93 L452 93 L452 0 L29 0 L29 86 L304 448 L37 448 L37 541 L452 541 L452 460 L170 93 Z M279 606 L185 606 L185 621 L243 767 L359 767 L359 712 L279 606 Z " />
<glyph glyph-name="zcaron" unicode="&#x17e;" horiz-adv-x="481" d="M170 93 L452 93 L452 0 L29 0 L29 86 L304 448 L37 448 L37 541 L452 541 L452 460 L170 93 Z M318 604 L158 604 L74 748 L74 764 L161 764 L237 662 L313 764 L401 764 L401 748 L318 604 Z " />
<glyph glyph-name="zdotaccent" unicode="&#x17c;" horiz-adv-x="481" d="M170 93 L452 93 L452 0 L29 0 L29 86 L304 448 L37 448 L37 541 L452 541 L452 460 L170 93 Z M237 738 Q266 738 283 727 Q300 716 305 704 L305 645 Q300 633 283 622 Q266 611 237 611 Q208 611 191 622 Q174 633 169 645 L169 704 Q174 716 191 727 Q208 738 237 738 Z " />
<glyph glyph-name="eng" unicode="&#x14b;" horiz-adv-x="562" d="M323 553 Q366 553 397.5 540.5 Q429 528 451.5 510 Q474 492 488 471.5 Q502 451 509 435 L509 -40 Q500 -61 482 -85 Q464 -109 436 -129 Q408 -149 368.5 -162 Q329 -175 278 -175 L278 -78 Q320 -78 346.5 -57.5 Q373 -37 384 -10 L384 406 Q380 413 372 421.5 Q364 430 352 437.5 Q340 445 323 450 Q306 455 285 455 Q247 455 220.5 442 Q194 429 180 412 L180 0 L55 0 L55 541 L172 541 L172 494 Q197 519 234 536 Q271 553 323 553 Z " />
<glyph glyph-name="eth" unicode="&#xf0;" horiz-adv-x="556" d="M461 590 Q495 556 510 519 L510 120 Q501 99 482.5 75 Q464 51 436 31.5 Q408 12 369 -1 Q330 -14 279 -14 Q228 -14 189 -1 Q150 12 122 31.5 Q94 51 75.5 75 Q57 99 48 120 L48 347 Q55 369 71 392 Q87 415 112.5 434.5 Q138 454 172 466.5 Q206 479 249 479 Q299 479 330 466.5 Q361 454 386 437 L386 492 Q379 508 367.5 522.5 Q356 537 341 551 L181 499 L181 570 L274 600 Q241 620 205 635.5 Q169 651 137 662 L202 733 Q253 719 304 695.5 Q355 672 400 641 L510 677 L510 606 L461 590 Z M386 339 Q372 354 345 367.5 Q318 381 280 381 Q238 381 210 363 Q182 345 172 321 L172 145 Q182 121 209 102 Q236 83 278 83 Q321 83 348 102 Q375 121 386 145 L386 339 Z " />
<glyph glyph-name="thorn" unicode="&#xfe;" horiz-adv-x="554" d="M322 553 Q365 553 396.5 540.5 Q428 528 450.5 510 Q473 492 487 471.5 Q501 451 508 435 L508 106 Q501 89 487 68.5 Q473 48 450.5 30 Q428 12 396.5 0 Q365 -12 322 -12 Q273 -12 238 2.5 Q203 17 179 40 L179 -166 L55 -166 L55 700 L179 700 L179 501 Q203 524 238 538.5 Q273 553 322 553 Z M383 406 Q379 413 371 421.5 Q363 430 351 437.5 Q339 445 322.5 450 Q306 455 285 455 Q247 455 220.5 442.5 Q194 430 179 413 L179 129 Q194 112 220.5 99 Q247 86 285 86 Q306 86 322.5 91 Q339 96 351 103.5 Q363 111 371 119.5 Q379 128 383 135 L383 406 Z " />
<glyph glyph-name="longs" unicode="&#x17f;" horiz-adv-x="331" d="M227 714 Q258 714 281 710.5 Q304 707 312 704 L312 616 Q307 617 296.5 618 Q286 619 273 619 Q249 619 232.5 614.5 Q216 610 205 603.5 Q194 597 188 590 Q182 583 179 578 L179 0 L55 0 L55 621 Q61 636 73 652.5 Q85 669 105 682.5 Q125 696 155 705 Q185 714 227 714 Z " />
<glyph glyph-name="fi" unicode="&#xfb01;" horiz-adv-x="588" d="M254 725 Q285 725 308 721.5 Q331 718 340 715 L340 628 Q335 629 324 630 Q313 631 300 631 Q275 631 258 626.5 Q241 622 230.5 615.5 Q220 609 214.5 602 Q209 595 206 590 L206 541 L322 541 L322 449 L206 449 L206 0 L82 0 L82 449 L22 449 L22 541 L82 541 L82 632 Q88 647 100 663.5 Q112 680 132.5 693.5 Q153 707 182.5 716 Q212 725 254 725 Z M404 0 L404 541 L529 541 L529 0 L404 0 Z M466 738 Q495 738 512 727 Q529 716 534 704 L534 645 Q529 633 512 622 Q495 611 466 611 Q437 611 420 622 Q403 633 398 645 L398 704 Q403 716 420 727 Q437 738 466 738 Z " />
<glyph glyph-name="fl" unicode="&#xfb02;" horiz-adv-x="581" d="M254 725 Q285 725 308 721.5 Q331 718 340 715 L340 628 Q335 629 324 630 Q313 631 300 631 Q275 631 258 626.5 Q241 622 230.5 615.5 Q220 609 214.5 602 Q209 595 206 590 L206 541 L322 541 L322 449 L206 449 L206 0 L82 0 L82 449 L22 449 L22 541 L82 541 L82 632 Q88 647 100 663.5 Q112 680 132.5 693.5 Q153 707 182.5 716 Q212 725 254 725 Z M400 0 L400 700 L525 700 L525 0 L400 0 Z " />
<glyph glyph-name="ampersand" unicode="&#x26;" horiz-adv-x="677" d="M661 0 L588 0 L521 65 Q485 30 435 8 Q385 -14 311 -14 Q254 -14 210.5 -1.5 Q167 11 135.5 30.5 Q104 50 83.5 73.5 Q63 97 53 120 L53 274 Q70 308 103 338.5 Q136 369 187 386 Q160 412 138 435 Q116 458 105 476 L105 604 Q113 618 130.5 637 Q148 656 175 673 Q202 690 240 701.5 Q278 713 326 713 Q375 713 412.5 701.5 Q450 690 477 673 Q504 656 521.5 637 Q539 618 548 604 L548 547 L436 547 Q432 559 423 571.5 Q414 584 400.5 594.5 Q387 605 368.5 611.5 Q350 618 326 618 Q289 618 264.5 604.5 Q240 591 229 578 L229 506 Q236 492 250 476.5 Q264 461 278 447 L471 262 L471 379 L580 379 L580 157 L661 79 L661 0 Z M314 82 Q357 82 389.5 96.5 Q422 111 445 137 L261 314 Q232 307 209 290.5 Q186 274 177 253 L177 148 Q191 118 228.5 100 Q266 82 314 82 Z " />
<glyph glyph-name="grave" unicode="&#x60;" horiz-adv-x="449" d="M311 606 L219 606 L138 712 L138 767 L253 767 L311 621 L311 606 Z " />
<glyph glyph-name="acute" unicode="&#xb4;" horiz-adv-x="449" d="M231 606 L137 606 L137 621 L195 767 L311 767 L311 712 L231 606 Z " />
<glyph glyph-name="circumflex" unicode="&#x2c6;" horiz-adv-x="449" d="M388 604 L300 604 L224 706 L148 604 L61 604 L61 619 L145 764 L305 764 L388 619 L388 604 Z " />
<glyph glyph-name="caron" unicode="&#x2c7;" horiz-adv-x="449" d="M305 604 L145 604 L61 748 L61 764 L148 764 L224 662 L300 764 L388 764 L388 748 L305 604 Z " />
<glyph glyph-name="tilde" unicode="&#x2dc;" horiz-adv-x="449" d="M153 741 Q179 741 197 733 Q215 725 229.5 715.5 Q244 706 256.5 698 Q269 690 284 690 Q298 690 308 697.5 Q318 705 320 717 L320 736 L394 736 L394 684 Q388 655 362 633 Q336 611 295 611 Q269 611 251 619 Q233 627 219 636.5 Q205 646 192.5 654 Q180 662 165 662 Q150 662 140 653.5 Q130 645 128 637 L128 616 L54 616 L54 669 Q62 700 87.5 720.5 Q113 741 153 741 Z " />
<glyph glyph-name="dieresis" unicode="&#xa8;" horiz-adv-x="449" d="M118 737 Q147 737 162 727.5 Q177 718 182 712 L182 636 Q177 629 162 620 Q147 611 118 611 Q90 611 75 620.5 Q60 630 55 636 L55 712 Q60 718 75 727.5 Q90 737 118 737 Z M331 737 Q360 737 375 727.5 Q390 718 395 712 L395 636 Q390 629 375 620 Q360 611 331 611 Q303 611 288 620.5 Q273 630 268 636 L268 712 Q273 718 288 727.5 Q303 737 331 737 Z " />
<glyph glyph-name="breve" unicode="&#x2d8;" horiz-adv-x="449" d="M385 682 Q368 648 329.5 623 Q291 598 224 598 Q158 598 118.5 623 Q79 648 63 682 L63 741 L154 741 L154 703 Q158 694 174.5 680.5 Q191 667 224 667 Q257 667 273 680.5 Q289 694 293 703 L293 741 L385 741 L385 682 Z " />
<glyph glyph-name="ring" unicode="&#x2da;" horiz-adv-x="449" d="M224 806 Q266 806 297 789.5 Q328 773 342 747 L342 654 Q328 628 297 611 Q266 594 224 594 Q182 594 151 611 Q120 628 106 654 L106 747 Q120 773 151 789.5 Q182 806 224 806 Z M224 753 Q199 753 185.5 744.5 Q172 736 167 728 L167 673 Q172 665 185.5 656.5 Q199 648 224 648 Q249 648 262.5 656.5 Q276 665 281 673 L281 728 Q276 736 262.5 744.5 Q249 753 224 753 Z " />
<glyph glyph-name="hungarumlaut" unicode="&#x2dd;" horiz-adv-x="449" d="M143 600 L63 600 L63 616 L105 760 L202 760 L202 714 L143 600 Z M332 600 L252 600 L252 616 L293 760 L390 760 L390 714 L332 600 Z " />
<glyph glyph-name="dotaccent" unicode="&#x2d9;" horiz-adv-x="449" d="M224 738 Q253 738 270 727 Q287 716 292 704 L292 645 Q287 633 270 622 Q253 611 224 611 Q195 611 178 622 Q161 633 156 645 L156 704 Q161 716 178 727 Q195 738 224 738 Z " />
<glyph glyph-name="cedilla" unicode="&#xb8;" horiz-adv-x="449" d="M246 -46 Q283 -46 304 -62 Q325 -78 333 -95 L333 -169 Q321 -194 291 -209.5 Q261 -225 218 -225 Q186 -225 159 -219 Q132 -213 118 -205 L138 -148 Q154 -154 172.5 -158.5 Q191 -163 211 -163 Q231 -163 242.5 -156.5 Q254 -150 258 -142 L258 -117 Q254 -109 242.5 -104 Q231 -99 212 -99 L151 -99 L187 5 L257 5 L237 -46 L246 -46 Z " />
<glyph glyph-name="ogonek" unicode="&#x2db;" horiz-adv-x="449" d="M322 0 Q298 -22 283 -38.5 Q268 -55 259.5 -67.5 Q251 -80 247 -88.5 Q243 -97 241 -102 L241 -129 Q246 -136 258.5 -141 Q271 -146 287 -146 Q298 -146 310 -144 Q322 -142 336 -137 L336 -207 Q324 -213 307 -217 Q290 -221 262 -221 Q225 -221 193.5 -209 Q162 -197 150 -171 L150 -96 Q159 -76 185.5 -43.5 Q212 -11 261 20 L322 0 Z " />
<glyph glyph-name="comma" unicode="&#x2c;" horiz-adv-x="208" d="M103 127 Q132 127 149.5 116 Q167 105 172 93 L172 -58 Q169 -66 162 -76.5 Q155 -87 143.5 -97 Q132 -107 116 -114 Q100 -121 80 -121 L47 -121 L47 -67 L73 -67 Q81 -67 90 -61 Q99 -55 103 -47 L103 -13 Q75 -13 58 -1.5 Q41 10 36 21 L36 93 Q41 105 58 116 Q75 127 103 127 Z " />
<glyph glyph-name="semicolon" unicode="&#x3b;" horiz-adv-x="223" d="M110 127 Q139 127 156.5 116 Q174 105 179 93 L179 -58 Q176 -66 169 -76.5 Q162 -87 150.5 -97 Q139 -107 123 -114 Q107 -121 87 -121 L54 -121 L54 -67 L80 -67 Q88 -67 97 -61 Q106 -55 110 -47 L110 -13 Q82 -13 65 -1.5 Q48 10 43 21 L43 93 Q48 105 65 116 Q82 127 110 127 Z M110 506 Q139 506 156.5 495 Q174 484 179 472 L179 403 Q174 392 156.5 380.5 Q139 369 110 369 Q82 369 65 380.5 Q48 392 43 403 L43 472 Q48 484 65 495 Q82 506 110 506 Z " />
<glyph glyph-name="colon" unicode="&#x3a;" horiz-adv-x="223" d="M110 127 Q139 127 156.5 116 Q174 105 179 93 L179 24 Q174 13 156.5 1.5 Q139 -10 110 -10 Q82 -10 65 1.5 Q48 13 43 24 L43 93 Q48 105 65 116 Q82 127 110 127 Z M110 506 Q139 506 156.5 495 Q174 484 179 472 L179 403 Q174 392 156.5 380.5 Q139 369 110 369 Q82 369 65 380.5 Q48 392 43 403 L43 472 Q48 484 65 495 Q82 506 110 506 Z " />
<glyph glyph-name="period" unicode="&#x2e;" horiz-adv-x="208" d="M103 127 Q132 127 149.5 116 Q167 105 172 93 L172 24 Q167 13 149.5 1.5 Q132 -10 103 -10 Q75 -10 58 1.5 Q41 13 36 24 L36 93 Q41 105 58 116 Q75 127 103 127 Z " />
<glyph glyph-name="ellipsis" unicode="&#x2026;" horiz-adv-x="613" d="M103 125 Q132 125 149.5 113.5 Q167 102 172 90 L172 24 Q167 13 149.5 1.5 Q132 -10 103 -10 Q75 -10 58 1.5 Q41 13 36 24 L36 90 Q41 102 58 113.5 Q75 125 103 125 Z M306 125 Q336 125 353 113.5 Q370 102 375 90 L375 24 Q370 13 353 1.5 Q336 -10 306 -10 Q278 -10 261 1.5 Q244 13 239 24 L239 90 Q244 102 261 113.5 Q278 125 306 125 Z M509 125 Q538 125 555 113.5 Q572 102 577 90 L577 24 Q572 13 555 1.5 Q538 -10 509 -10 Q480 -10 463.5 1.5 Q447 13 441 24 L441 90 Q447 102 463.5 113.5 Q480 125 509 125 Z " />
<glyph glyph-name="hyphen" unicode="&#x2d;" horiz-adv-x="365" d="M38 286 L38 385 L328 385 L328 286 L38 286 Z " />
<glyph glyph-name="exclam" unicode="&#x21;" horiz-adv-x="279" d="M194 178 L86 178 L70 569 L70 700 L210 700 L210 569 L194 178 Z M139 122 Q168 122 185.5 110.5 Q203 99 208 88 L208 24 Q203 13 185.5 1.5 Q168 -10 139 -10 Q110 -10 93.5 1.5 Q77 13 72 24 L72 88 Q77 99 93.5 110.5 Q110 122 139 122 Z " />
<glyph glyph-name="exclamdown" unicode="&#xa1;" horiz-adv-x="279" d="M85 366 L193 366 L209 -25 L209 -156 L69 -156 L69 -25 L85 366 Z M140 422 Q111 422 93.5 433.5 Q76 445 71 456 L71 520 Q76 531 93.5 542.5 Q111 554 140 554 Q169 554 185.5 542.5 Q202 531 207 520 L207 456 Q202 445 185.5 433.5 Q169 422 140 422 Z " />
<glyph glyph-name="question" unicode="&#x3f;" horiz-adv-x="535" d="M262 714 Q316 714 356.5 701.5 Q397 689 426.5 671 Q456 653 475 632 Q494 611 505 593 L505 423 Q494 402 470 381.5 Q446 361 426 347 L284 247 L284 185 L157 185 L157 297 L306 401 Q329 418 348.5 434 Q368 450 376 467 L376 556 Q362 577 333 593.5 Q304 610 262 610 Q215 610 184 589 Q153 568 143 540 L29 540 L29 607 Q40 623 59 641.5 Q78 660 106.5 676 Q135 692 173.5 703 Q212 714 262 714 Z M221 127 Q250 127 267 116 Q284 105 289 93 L289 24 Q284 13 267 1.5 Q250 -10 221 -10 Q192 -10 175 1.5 Q158 13 153 24 L153 93 Q158 105 175 116 Q192 127 221 127 Z " />
<glyph glyph-name="questiondown" unicode="&#xbf;" horiz-adv-x="535" d="M273 -169 Q219 -169 178.5 -156.5 Q138 -144 108.5 -126 Q79 -108 60 -87 Q41 -66 30 -48 L30 122 Q41 143 65 163.5 Q89 184 109 198 L251 298 L251 360 L378 360 L378 248 L229 144 Q206 127 186.5 111 Q167 95 159 78 L159 -11 Q173 -32 202 -48.5 Q231 -65 273 -65 Q320 -65 351 -44 Q382 -23 392 5 L506 5 L506 -62 Q495 -78 476 -96.5 Q457 -115 428.5 -131 Q400 -147 361.5 -158 Q323 -169 273 -169 Z M314 418 Q285 418 268 429 Q251 440 246 452 L246 521 Q251 532 268 543.5 Q285 555 314 555 Q343 555 360 543.5 Q377 532 382 521 L382 452 Q377 440 360 429 Q343 418 314 418 Z " />
<glyph glyph-name="quoteleft" unicode="&#x2018;" horiz-adv-x="210" d="M106 463 Q77 463 59.5 474 Q42 485 37 497 L37 648 Q40 656 47 666.5 Q54 677 65.5 687 Q77 697 93 704 Q109 711 129 711 L162 711 L162 657 L136 657 Q128 657 119 651 Q110 645 106 637 L106 603 Q134 603 151 591.5 Q168 580 173 569 L173 497 Q168 485 151 474 Q134 463 106 463 Z " />
<glyph glyph-name="quoteright" unicode="&#x2019;" horiz-adv-x="210" d="M104 714 Q133 714 150.5 703 Q168 692 173 680 L173 529 Q170 521 163 510.5 Q156 500 144.5 490 Q133 480 117 473 Q101 466 81 466 L48 466 L48 520 L74 520 Q82 520 91 526 Q100 532 104 540 L104 574 Q76 574 59 585.5 Q42 597 37 608 L37 680 Q42 692 59 703 Q76 714 104 714 Z " />
<glyph glyph-name="quotedblleft" unicode="&#x201c;" horiz-adv-x="408" d="M106 463 Q77 463 59.5 474 Q42 485 37 497 L37 648 Q40 656 47 666.5 Q54 677 65.5 687 Q77 697 93 704 Q109 711 129 711 L162 711 L162 657 L136 657 Q128 657 119 651 Q110 645 106 637 L106 603 Q134 603 151 591.5 Q168 580 173 569 L173 497 Q168 485 151 474 Q134 463 106 463 Z M305 463 Q276 463 258.5 474 Q241 485 236 497 L236 648 Q239 656 246 666.5 Q253 677 264.5 687 Q276 697 292 704 Q308 711 328 711 L361 711 L361 657 L335 657 Q327 657 318 651 Q309 645 305 637 L305 603 Q333 603 350 591.5 Q367 580 372 569 L372 497 Q367 485 350 474 Q333 463 305 463 Z " />
<glyph glyph-name="quotedblright" unicode="&#x201d;" horiz-adv-x="408" d="M104 714 Q133 714 150.5 703 Q168 692 173 680 L173 529 Q170 521 163 510.5 Q156 500 144.5 490 Q133 480 117 473 Q101 466 81 466 L48 466 L48 520 L74 520 Q82 520 91 526 Q100 532 104 540 L104 574 Q76 574 59 585.5 Q42 597 37 608 L37 680 Q42 692 59 703 Q76 714 104 714 Z M302 714 Q331 714 348.5 703 Q366 692 371 680 L371 529 Q368 521 361 510.5 Q354 500 342.5 490 Q331 480 315 473 Q299 466 279 466 L246 466 L246 520 L272 520 Q280 520 289 526 Q298 532 302 540 L302 574 Q274 574 257 585.5 Q240 597 235 608 L235 680 Q240 692 257 703 Q274 714 302 714 Z " />
<glyph glyph-name="quotesinglbase" unicode="&#x201a;" horiz-adv-x="210" d="M104 127 Q133 127 150.5 116 Q168 105 173 93 L173 -58 Q170 -66 163 -76.5 Q156 -87 144.5 -97 Q133 -107 117 -114 Q101 -121 81 -121 L48 -121 L48 -67 L74 -67 Q82 -67 91 -61 Q100 -55 104 -47 L104 -13 Q76 -13 59 -1.5 Q42 10 37 21 L37 93 Q42 105 59 116 Q76 127 104 127 Z " />
<glyph glyph-name="quotedblbase" unicode="&#x201e;" horiz-adv-x="409" d="M104 127 Q133 127 150.5 116 Q168 105 173 93 L173 -58 Q170 -66 163 -76.5 Q156 -87 144.5 -97 Q133 -107 117 -114 Q101 -121 81 -121 L48 -121 L48 -67 L74 -67 Q82 -67 91 -61 Q100 -55 104 -47 L104 -13 Q76 -13 59 -1.5 Q42 10 37 21 L37 93 Q42 105 59 116 Q76 127 104 127 Z M303 127 Q332 127 349.5 116 Q367 105 372 93 L372 -58 Q369 -66 362 -76.5 Q355 -87 343.5 -97 Q332 -107 316 -114 Q300 -121 280 -121 L247 -121 L247 -67 L273 -67 Q281 -67 290 -61 Q299 -55 303 -47 L303 -13 Q275 -13 258 -1.5 Q241 10 236 21 L236 93 Q241 105 258 116 Q275 127 303 127 Z " />
<glyph glyph-name="guilsinglleft" unicode="&#x2039;" horiz-adv-x="347" d="M140 291 L305 107 L305 40 L214 40 L38 243 L38 337 L214 541 L305 541 L305 474 L140 291 Z " />
<glyph glyph-name="guilsinglright" unicode="&#x203a;" horiz-adv-x="347" d="M310 243 L133 40 L43 40 L43 107 L207 291 L43 474 L43 541 L133 541 L310 337 L310 243 Z " />
<glyph glyph-name="guillemotleft" unicode="&#xab;" horiz-adv-x="612" d="M140 290 L305 107 L305 40 L214 40 L38 243 L38 338 L214 541 L305 541 L305 474 L140 290 Z M405 290 L570 107 L570 40 L479 40 L303 243 L303 338 L479 541 L570 541 L570 474 L405 290 Z " />
<glyph glyph-name="guillemotright" unicode="&#xbb;" horiz-adv-x="612" d="M310 243 L134 40 L43 40 L43 107 L207 290 L43 474 L43 541 L134 541 L310 338 L310 243 Z M575 243 L398 40 L307 40 L307 107 L472 290 L307 474 L307 541 L398 541 L575 338 L575 243 Z " />
<glyph glyph-name="slash" unicode="&#x2f;" horiz-adv-x="403" d="M148 -110 L43 -110 L43 -43 L254 731 L359 731 L359 664 L148 -110 Z " />
<glyph glyph-name="bar" unicode="&#x7c;" horiz-adv-x="321" d="M94 -130 L94 790 L227 790 L227 -130 L94 -130 Z " />
<glyph glyph-name="endash" unicode="&#x2013;" horiz-adv-x="565" d="M38 286 L38 385 L528 385 L528 286 L38 286 Z " />
<glyph glyph-name="emdash" unicode="&#x2014;" horiz-adv-x="865" d="M38 286 L38 385 L828 385 L828 286 L38 286 Z " />
<glyph glyph-name="bullet" unicode="&#x2022;" horiz-adv-x="341" d="M170 468 Q211 468 241 452 Q271 436 287 413 L287 286 Q271 261 241 245 Q211 229 170 229 Q128 229 98 246.5 Q68 264 54 287 L54 413 Q68 435 98 451.5 Q128 468 170 468 Z " />
<glyph glyph-name="parenleft" unicode="&#x28;" horiz-adv-x="364" d="M320 609 Q292 609 271 600.5 Q250 592 235 577.5 Q220 563 210 545 Q200 527 195 509 L195 25 Q200 6 210 -12 Q220 -30 235 -44.5 Q250 -59 271 -68 Q292 -77 320 -77 L329 -77 L329 -168 L320 -168 Q263 -168 218.5 -153 Q174 -138 142 -115 Q110 -92 89 -63 Q68 -34 57 -5 L57 537 Q68 565 89 594.5 Q110 624 142 647 Q174 670 218.5 685 Q263 700 320 700 L329 700 L329 609 L320 609 Z " />
<glyph glyph-name="parenright" unicode="&#x29;" horiz-adv-x="364" d="M43 700 Q101 700 145.5 685 Q190 670 222 647 Q254 624 275 594.5 Q296 565 307 537 L307 -5 Q296 -34 275 -63 Q254 -92 222 -115 Q190 -138 145.5 -153 Q101 -168 43 -168 L34 -168 L34 -77 L43 -77 Q71 -77 92.5 -68 Q114 -59 129 -44.5 Q144 -30 154 -12 Q164 6 169 25 L169 509 Q164 527 154 545 Q144 563 129 577.5 Q114 592 92.5 600.5 Q71 609 43 609 L34 609 L34 700 L43 700 Z " />
<glyph glyph-name="bracketleft" unicode="&#x5b;" horiz-adv-x="367" d="M200 609 L200 -77 L325 -77 L325 -168 L66 -168 L66 700 L325 700 L325 609 L200 609 Z " />
<glyph glyph-name="bracketright" unicode="&#x5d;" horiz-adv-x="367" d="M42 -168 L42 -77 L167 -77 L167 609 L42 609 L42 700 L301 700 L301 -168 L42 -168 Z " />
<glyph glyph-name="braceleft" unicode="&#x7b;" horiz-adv-x="383" d="M225 341 Q207 289 161 262 Q207 235 225 183 L225 17 Q230 -3 239.5 -22 Q249 -41 264 -55 Q279 -69 300.5 -77.5 Q322 -86 351 -86 L351 -177 Q293 -177 248.5 -162 Q204 -147 172 -123.5 Q140 -100 119 -71 Q98 -42 87 -13 L87 164 Q81 197 62 206.5 Q43 216 23 216 L23 307 Q43 307 62 316.5 Q81 326 87 359 L87 537 Q98 565 119 594.5 Q140 624 172 647 Q204 670 248.5 685 Q293 700 351 700 L351 609 Q322 609 300.5 600.5 Q279 592 264 577.5 Q249 563 239.5 544.5 Q230 526 225 505 L225 341 Z " />
<glyph glyph-name="braceright" unicode="&#x7d;" horiz-adv-x="383" d="M296 359 Q302 326 321 316.5 Q340 307 360 307 L360 216 Q340 216 321 206.5 Q302 197 296 164 L296 -13 Q285 -42 264 -71 Q243 -100 210.5 -123.5 Q178 -147 133.5 -162 Q89 -177 32 -177 L32 -86 Q61 -86 82.5 -77.5 Q104 -69 119 -55 Q134 -41 143.5 -22 Q153 -3 158 17 L158 183 Q176 235 222 262 Q176 289 158 341 L158 505 Q153 526 143.5 544.5 Q134 563 119 577.5 Q104 592 82.5 600.5 Q61 609 32 609 L32 700 Q89 700 133.5 685 Q178 670 210.5 647 Q243 624 264 594.5 Q285 565 296 537 L296 359 Z " />
<glyph glyph-name="asterisk" unicode="&#x2a;" horiz-adv-x="493" d="M450 605 Q454 593 455.5 579.5 Q457 566 454 552 L296 523 L407 408 Q402 395 392.5 384.5 Q383 374 372 366 Q361 358 348.5 352 Q336 346 322 346 L247 484 L172 346 Q158 346 145.5 352 Q133 358 122 366 Q111 374 101 384.5 Q91 395 86 408 L198 524 L40 552 Q36 566 38 579.5 Q40 593 44 605 Q49 619 55.5 631.5 Q62 644 73 652 L215 584 L194 740 Q206 747 219.5 750 Q233 753 246 753 Q277 753 299 740 L278 583 L421 652 Q431 644 438 631.5 Q445 619 450 605 Z " />
<glyph glyph-name="dagger" unicode="&#x2020;" horiz-adv-x="639" d="M606 361 L514 361 L381 372 L369 -168 L266 -168 L254 372 L124 361 L33 361 L33 473 L124 473 L252 462 L250 569 L250 700 L385 700 L385 569 L383 462 L514 473 L606 473 L606 361 Z " />
<glyph glyph-name="daggerdbl" unicode="&#x2021;" horiz-adv-x="659" d="M377 192 L514 203 L606 203 L606 91 L514 91 L375 102 L369 -168 L266 -168 L260 102 L124 91 L33 91 L33 203 L124 203 L258 192 L254 402 L124 391 L33 391 L33 503 L124 503 L252 492 L250 569 L250 700 L385 700 L385 569 L383 492 L514 503 L606 503 L606 391 L514 391 L381 402 L377 192 Z " />
<glyph glyph-name="section" unicode="&#xa7;" horiz-adv-x="520" d="M259 627 Q222 627 198 612.5 Q174 598 163 582 L163 528 Q172 513 192.5 504 Q213 495 242 488 L300 474 Q379 457 419.5 431.5 Q460 406 472 386 L472 247 Q464 236 449 219.5 Q434 203 410 189 Q436 175 451 161.5 Q466 148 472 136 L472 7 Q464 -4 448.5 -21.5 Q433 -39 407 -55 Q381 -71 344.5 -82.5 Q308 -94 259 -94 Q210 -94 173.5 -82.5 Q137 -71 111 -55 Q85 -39 69.5 -21.5 Q54 -4 47 7 L47 54 L158 54 Q163 32 189.5 12.5 Q216 -7 260 -7 Q298 -7 322 8 Q346 23 356 38 L356 92 Q348 107 327 116 Q306 125 277 132 L220 146 Q180 154 150.5 165 Q121 176 100 188 Q79 200 66 212 Q53 224 47 234 L47 373 Q55 385 70 401 Q85 417 109 432 Q84 445 69 458.5 Q54 472 47 484 L47 613 Q54 625 70 642 Q86 659 112 675 Q138 691 174.5 702.5 Q211 714 260 714 Q309 714 346 702.5 Q383 691 408.5 675 Q434 659 449.5 641.5 Q465 624 472 613 L472 566 L362 566 Q357 588 330 607.5 Q303 627 259 627 Z M356 341 Q348 356 328 366 Q308 376 278 383 L260 387 Q222 387 197.5 372.5 Q173 358 163 342 L163 279 Q171 264 191.5 254.5 Q212 245 242 237 L261 233 Q299 234 322.5 248 Q346 262 356 278 L356 341 Z " />
<glyph glyph-name="paragraph" unicode="&#xb6;" horiz-adv-x="668" d="M301 -100 L301 240 L250 240 Q213 240 181 249.5 Q149 259 123 275 Q97 291 77 313 Q57 335 44 359 L44 582 Q76 639 130.5 669.5 Q185 700 250 700 L395 700 L395 -100 L301 -100 Z M505 -100 L505 700 L599 700 L599 -100 L505 -100 Z " />
<glyph glyph-name="asciicircum" unicode="&#x5e;" horiz-adv-x="508" d="M465 342 L385 342 L263 578 L246 578 L124 342 L43 342 L43 414 L194 700 L314 700 L465 415 L465 342 Z " />
<glyph glyph-name="asciitilde" unicode="&#x7e;" horiz-adv-x="584" d="M171 443 Q207 443 241 435 Q275 427 308 417.5 Q341 408 373.5 400 Q406 392 439 392 Q464 392 484.5 399 Q505 406 520 414 Q538 424 551 436 L551 325 Q538 315 521 308 Q507 301 486.5 296 Q466 291 440 291 Q401 291 367 299 Q333 307 300.5 316.5 Q268 326 236 334 Q204 342 169 342 Q140 342 115 334 Q90 326 72 316 Q51 305 33 291 L33 397 Q49 409 70 420 Q88 428 113.5 435.5 Q139 443 171 443 Z " />
<glyph glyph-name="brokenbar" unicode="&#xa6;" horiz-adv-x="324" d="M94 393 L94 790 L227 790 L227 393 L94 393 Z M94 -128 L94 288 L227 288 L227 -128 L94 -128 Z " />
<glyph glyph-name="backslash" unicode="&#x5c;" horiz-adv-x="403" d="M359 -110 L254 -110 L43 664 L43 731 L148 731 L359 -43 L359 -110 Z " />
<glyph glyph-name="underscore" unicode="&#x5f;" horiz-adv-x="511" d="M-5 -140 L-5 -59 L516 -59 L516 -140 L-5 -140 Z " />
<glyph glyph-name="quotesingle" unicode="&#x27;" horiz-adv-x="182" d="M130 459 L52 459 L37 593 L37 700 L146 700 L146 594 L130 459 Z " />
<glyph glyph-name="quotedbl" unicode="&#x22;" horiz-adv-x="373" d="M130 459 L52 459 L37 593 L37 700 L146 700 L146 594 L130 459 Z M320 459 L242 459 L227 593 L227 700 L336 700 L336 594 L320 459 Z " />
<glyph glyph-name="at" unicode="&#x40;" horiz-adv-x="930" d="M469 714 Q560 714 631.5 687.5 Q703 661 755 621.5 Q807 582 840 537 Q873 492 886 455 L886 106 Q863 68 821.5 50 Q780 32 730 32 Q679 32 642.5 50.5 Q606 69 582 99 Q557 72 519 53 Q481 34 427 34 Q388 34 358 45.5 Q328 57 305.5 74 Q283 91 269 110 Q255 129 248 145 L248 406 Q255 421 268.5 440.5 Q282 460 303.5 477 Q325 494 354.5 505.5 Q384 517 423 517 Q471 517 506 500.5 Q541 484 564 460 L564 503 L674 503 L674 135 Q691 101 738 101 Q762 101 776.5 109.5 Q791 118 802 133 L802 439 Q791 465 766 499.5 Q741 534 700 565.5 Q659 597 601 618.5 Q543 640 467 640 Q411 640 360 626.5 Q309 613 266 587 Q223 561 189.5 523 Q156 485 134 436 L134 117 Q156 70 189.5 32 Q223 -6 266 -32.5 Q309 -59 360 -73.5 Q411 -88 467 -88 Q569 -88 652 -39 L695 -98 Q645 -128 587.5 -144.5 Q530 -161 467 -161 Q396 -161 331.5 -143.5 Q267 -126 212.5 -92.5 Q158 -59 116 -11 Q74 37 50 97 L50 456 Q75 516 118 564 Q161 612 216.5 645.5 Q272 679 336.5 696.5 Q401 714 469 714 Z M457 118 Q495 118 522.5 132 Q550 146 564 164 L564 387 Q550 405 522.5 418.5 Q495 432 457 432 Q436 432 420 427 Q404 422 392 415 Q380 408 372 400 Q364 392 360 385 L360 165 Q368 152 392 135 Q416 118 457 118 Z " />
<glyph glyph-name="copyright" unicode="&#xa9;" horiz-adv-x="803" d="M401 714 Q476 714 543 685.5 Q610 657 660 608 Q710 559 739 492.5 Q768 426 768 350 Q768 274 739 207.5 Q710 141 660 92 Q610 43 543 14.5 Q476 -14 401 -14 Q326 -14 259.5 14.5 Q193 43 143 92 Q93 141 64 207.5 Q35 274 35 350 Q35 426 64 492.5 Q93 559 143 608 Q193 657 259.5 685.5 Q326 714 401 714 Z M401 661 Q337 661 281 636.5 Q225 612 183.5 570 Q142 528 118 471 Q94 414 94 350 Q94 285 118 228.5 Q142 172 183.5 130 Q225 88 281 63.5 Q337 39 401 39 Q466 39 522 63.5 Q578 88 619.5 130 Q661 172 684.5 228.5 Q708 285 708 350 Q708 414 684.5 471 Q661 528 619.5 570 Q578 612 522 636.5 Q466 661 401 661 Z M401 579 Q445 579 478 568.5 Q511 558 534 543.5 Q557 529 571 513.5 Q585 498 591 488 L591 440 L501 440 Q494 460 469.5 479.5 Q445 499 402 499 Q365 499 342.5 484.5 Q320 470 310 456 L310 242 Q320 228 342.5 213.5 Q365 199 402 199 Q445 199 469.5 218.5 Q494 238 501 259 L591 259 L591 210 Q585 200 571 184.5 Q557 169 534 155 Q511 141 478 130.5 Q445 120 401 120 Q357 120 323.5 131 Q290 142 266 158 Q242 174 227.5 191.5 Q213 209 207 221 L207 477 Q213 490 227.5 507.5 Q242 525 266 541 Q290 557 323.5 568 Q357 579 401 579 Z " />
<glyph glyph-name="registered" unicode="&#xae;" horiz-adv-x="518" d="M259 824 Q308 824 351.5 805 Q395 786 428 753.5 Q461 721 480 677.5 Q499 634 499 585 Q499 536 480 492.5 Q461 449 428 416.5 Q395 384 351.5 365 Q308 346 259 346 Q210 346 166.5 365 Q123 384 90 416.5 Q57 449 38 492.5 Q19 536 19 585 Q19 634 38 677.5 Q57 721 90 753.5 Q123 786 166.5 805 Q210 824 259 824 Z M259 385 Q301 385 337 401 Q373 417 399.5 444 Q426 471 441.5 507.5 Q457 544 457 585 Q457 626 441.5 662.5 Q426 699 399.5 726 Q373 753 337 769 Q301 785 259 785 Q218 785 182 769 Q146 753 119.5 726 Q93 699 77.5 662.5 Q62 626 62 585 Q62 544 77.5 507.5 Q93 471 119.5 444 Q146 417 182 401 Q218 385 259 385 Z M284 727 Q309 727 333.5 713 Q358 699 370 674 L370 598 Q362 581 348 569.5 Q334 558 318 552 L366 489 L366 453 L317 453 L262 546 L219 546 L219 453 L163 453 L163 727 L284 727 Z M272 591 Q283 591 294.5 595.5 Q306 600 313 614 L313 659 Q306 673 294.5 677.5 Q283 682 272 682 L219 682 L219 591 L272 591 Z " />
<glyph glyph-name="trademark" unicode="&#x2122;" horiz-adv-x="800" d="M210 634 L210 310 L126 310 L126 634 L25 634 L25 700 L312 700 L312 634 L210 634 Z M673 310 L673 576 L671 576 L574 310 L525 310 L429 576 L427 576 L427 310 L349 310 L349 700 L461 700 L552 454 L554 454 L643 700 L751 700 L751 310 L673 310 Z " />
<glyph glyph-name="uni2117" unicode="&#x2117;" horiz-adv-x="803" d="M401 714 Q476 714 543 685.5 Q610 657 660 608 Q710 559 739 492.5 Q768 426 768 350 Q768 274 739 207.5 Q710 141 660 92 Q610 43 543 14.5 Q476 -14 401 -14 Q326 -14 259.5 14.5 Q193 43 143 92 Q93 141 64 207.5 Q35 274 35 350 Q35 426 64 492.5 Q93 559 143 608 Q193 657 259.5 685.5 Q326 714 401 714 Z M401 661 Q337 661 281 636.5 Q225 612 183.5 570 Q142 528 118 471 Q94 414 94 350 Q94 285 118 228.5 Q142 172 183.5 130 Q225 88 281 63.5 Q337 39 401 39 Q466 39 522 63.5 Q578 88 619.5 130 Q661 172 684.5 228.5 Q708 285 708 350 Q708 414 684.5 471 Q661 528 619.5 570 Q578 612 522 636.5 Q466 661 401 661 Z M451 567 Q494 567 532 543.5 Q570 520 588 479 L588 353 Q570 312 532 288.5 Q494 265 451 265 L348 265 L348 122 L258 122 L258 567 L451 567 Z M348 333 L434 333 Q454 333 472.5 343 Q491 353 502 376 L502 457 Q491 480 472.5 489.5 Q454 499 434 499 L348 499 L348 333 Z " />
<glyph glyph-name="currency" unicode="&#xa4;" horiz-adv-x="590" d="M501 483 Q509 472 515 461.5 Q521 451 526 441 L526 229 Q516 208 502 188 L532 157 L532 96 L452 96 L424 124 Q398 110 366 102.5 Q334 95 295 95 Q256 95 224.5 102.5 Q193 110 167 123 L140 96 L57 96 L57 157 L88 188 Q72 209 64 229 L64 441 Q73 460 88 483 L57 514 L57 575 L140 575 L168 547 Q194 560 225.5 567.5 Q257 575 295 575 Q334 575 366 567.5 Q398 560 424 547 L452 575 L532 575 L532 514 L501 483 Z M402 417 Q392 442 364.5 461 Q337 480 295 480 Q253 480 226 461 Q199 442 188 417 L188 253 Q199 229 226 209.5 Q253 190 295 190 Q337 190 364.5 209.5 Q392 229 402 253 L402 417 Z " />
<glyph glyph-name="Euro" unicode="&#x20ac;" horiz-adv-x="597" d="M324 616 Q282 616 252 597 Q222 578 211 553 L211 461 L442 461 L442 390 L211 390 L211 323 L442 323 L442 251 L211 251 L211 147 Q222 122 252 103 Q282 84 324 84 Q373 84 404 108.5 Q435 133 442 172 L556 172 L556 103 Q548 89 530.5 69 Q513 49 484 30.5 Q455 12 415 -1 Q375 -14 324 -14 Q273 -14 232.5 -1 Q192 12 161.5 31.5 Q131 51 111.5 74 Q92 97 83 118 L83 251 L29 251 L29 323 L83 323 L83 390 L29 390 L29 461 L83 461 L83 582 Q92 603 111.5 626 Q131 649 161.5 668.5 Q192 688 232.5 701 Q273 714 324 714 Q375 714 415 701 Q455 688 484 669.5 Q513 651 530.5 631 Q548 611 556 597 L556 528 L442 528 Q435 567 404 591.5 Q373 616 324 616 Z " />
<glyph glyph-name="dollar" unicode="&#x24;" horiz-adv-x="589" d="M329 409 Q382 395 418 379.5 Q454 364 478 348 Q502 332 516 315.5 Q530 299 539 283 L539 119 Q530 103 515 83 Q500 63 477 44.5 Q454 26 421.5 11 Q389 -4 346 -10 L346 -93 L243 -93 L243 -11 Q198 -5 164.5 10 Q131 25 107 43.5 Q83 62 67.5 82 Q52 102 44 118 L44 184 L160 184 Q171 145 205 117.5 Q239 90 293 90 Q317 90 336.5 96 Q356 102 370.5 111.5 Q385 121 394.5 132.5 Q404 144 410 155 L410 236 Q401 255 379.5 270.5 Q358 286 312 297 L257 311 Q210 323 177.5 335.5 Q145 348 122.5 361.5 Q100 375 85 391 Q70 407 58 427 L58 594 Q67 609 82 627 Q97 645 120 661.5 Q143 678 173.5 691 Q204 704 243 710 L243 793 L346 793 L346 710 Q384 704 414.5 691 Q445 678 468 661.5 Q491 645 506.5 627 Q522 609 530 594 L530 529 L415 529 Q404 562 375 586.5 Q346 611 293 611 Q253 611 226 594.5 Q199 578 188 558 L188 474 Q192 466 197 459.5 Q202 453 211.5 447 Q221 441 236 435 Q251 429 274 423 L329 409 Z " />
<glyph glyph-name="cent" unicode="&#xa2;" horiz-adv-x="536" d="M278 458 Q236 458 209 438.5 Q182 419 171 396 L171 145 Q182 121 209 102 Q236 83 278 83 Q323 83 350.5 104 Q378 125 395 164 L501 164 L501 105 Q495 91 481.5 74 Q468 57 447.5 40.5 Q427 24 398 10 Q369 -4 331 -10 L331 -93 L228 -93 L228 -10 Q189 -4 159 10 Q129 24 107 42 Q85 60 70 80.5 Q55 101 47 120 L47 421 Q55 440 70 460.5 Q85 481 107 499 Q129 517 159 531 Q189 545 228 551 L228 634 L331 634 L331 551 Q369 545 398 531 Q427 517 447.5 500.5 Q468 484 481.5 466.5 Q495 449 501 436 L501 376 L395 376 Q378 416 350.5 437 Q323 458 278 458 Z " />
<glyph glyph-name="sterling" unicode="&#xa3;" horiz-adv-x="607" d="M331 616 Q289 616 259 597 Q229 578 218 553 L218 386 L458 386 L458 303 L218 303 L218 153 Q212 140 203.5 127 Q195 114 184 101 L563 101 L563 0 L42 0 L42 87 Q52 89 67 99 Q82 109 90 131 L90 303 L36 303 L36 386 L90 386 L90 582 Q99 603 118.5 626 Q138 649 168.5 668.5 Q199 688 239.5 701 Q280 714 331 714 Q382 714 422 701 Q462 688 491 669.5 Q520 651 537.5 631 Q555 611 563 597 L563 528 L449 528 Q442 567 411 591.5 Q380 616 331 616 Z " />
<glyph glyph-name="florin" unicode="&#x192;" horiz-adv-x="426" d="M349 619 Q326 619 310.5 614.5 Q295 610 285.5 603.5 Q276 597 271 589.5 Q266 582 263 576 L263 515 L385 515 L385 424 L263 424 L263 -87 Q257 -102 245 -119 Q233 -136 213 -150 Q193 -164 164 -173 Q135 -182 95 -182 Q65 -182 40.5 -178.5 Q16 -175 5 -170 L5 -87 L52 -87 Q75 -87 90.5 -82.5 Q106 -78 116 -71.5 Q126 -65 131 -58 Q136 -51 139 -45 L139 424 L69 424 L69 515 L139 515 L139 619 Q145 634 156.5 651 Q168 668 188 681.5 Q208 695 236.5 704 Q265 713 306 713 Q336 713 360.5 709.5 Q385 706 396 702 L396 619 L349 619 Z " />
<glyph glyph-name="yen" unicode="&#xa5;" horiz-adv-x="586" d="M358 261 L554 261 L554 189 L358 189 L358 0 L223 0 L223 189 L32 189 L32 261 L223 261 L223 298 L205 329 L32 329 L32 401 L164 401 L38 623 L38 700 L146 700 L295 418 L298 418 L446 700 L549 700 L549 623 L423 401 L554 401 L554 329 L382 329 L358 286 L358 261 Z " />
<glyph glyph-name="uni20A8" unicode="&#x20a8;" horiz-adv-x="516" d="M391 628 Q413 604 428 575 L428 519 L500 519 L500 447 L428 447 L428 398 Q414 369 392 346 Q370 323 343.5 306.5 Q317 290 287 281 Q257 272 229 272 L217 272 L428 67 L428 0 L313 0 L53 272 L53 353 L197 353 Q210 353 225.5 357.5 Q241 362 255 370 Q269 378 281 390.5 Q293 403 299 419 L299 447 L53 447 L53 519 L299 519 L299 544 Q293 560 281 572 Q269 584 255 592.5 Q241 601 225.5 605.5 Q210 610 197 610 L53 610 L53 700 L500 700 L500 628 L391 628 Z " />
<glyph glyph-name="uni20BA" unicode="&#x20ba;" horiz-adv-x="581" d="M533 117 Q526 102 508 82 Q490 62 461 44 Q432 26 392 13 Q352 0 301 0 L93 0 L93 218 L29 187 L29 269 L93 300 L93 381 L29 350 L29 432 L93 463 L93 700 L222 700 L222 525 L408 615 L408 534 L222 444 L222 362 L408 452 L408 371 L222 281 L222 98 L301 98 Q353 98 382.5 123 Q412 148 420 186 L533 186 L533 117 Z " />
<glyph glyph-name="uni20BD" unicode="&#x20bd;" horiz-adv-x="594" d="M349 700 Q414 700 468 669.5 Q522 639 555 582 L555 399 Q528 350 476 316 Q424 282 349 282 L208 282 L208 223 L465 223 L465 150 L208 150 L208 0 L74 0 L74 150 L20 150 L20 223 L74 223 L74 282 L20 282 L20 370 L74 370 L74 700 L349 700 Z M426 540 Q409 572 379 585.5 Q349 599 319 599 L208 599 L208 370 L319 370 Q354 370 382 385 Q410 400 426 429 L426 540 Z " />
<glyph glyph-name="ordfeminine" unicode="&#xaa;" horiz-adv-x="392" d="M193 710 Q226 710 251.5 701.5 Q277 693 296 680 Q315 667 326.5 650.5 Q338 634 344 618 L344 358 L269 358 L269 382 Q252 368 227.5 359 Q203 350 171 350 Q142 350 120.5 356 Q99 362 84 370.5 Q69 379 60.5 388 Q52 397 48 403 L48 502 Q52 508 61 518 Q70 528 85 537.5 Q100 547 121 554 Q142 561 171 561 L266 561 L266 605 Q258 623 240 636.5 Q222 650 193 650 Q165 650 147 637 Q129 624 119 607 L55 607 L55 643 Q59 650 69 661.5 Q79 673 95.5 683.5 Q112 694 136 702 Q160 710 193 710 Z M187 409 Q217 409 237 417 Q257 425 266 438 L266 508 L187 508 Q158 508 143.5 498 Q129 488 123 480 L123 437 Q128 429 143 419 Q158 409 187 409 Z " />
<glyph glyph-name="ordmasculine" unicode="&#xba;" horiz-adv-x="399" d="M199 710 Q232 710 258 701.5 Q284 693 302.5 680 Q321 667 333 650.5 Q345 634 351 618 L351 440 Q345 425 333 409 Q321 393 302.5 380 Q284 367 258 358.5 Q232 350 199 350 Q166 350 141 358.5 Q116 367 97 380 Q78 393 66 409 Q54 425 48 440 L48 618 Q54 634 66 650.5 Q78 667 97 680 Q116 693 141 701.5 Q166 710 199 710 Z M199 648 Q171 648 152.5 635.5 Q134 623 126 605 L126 454 Q134 437 152.5 425 Q171 413 199 413 Q228 413 247 425 Q266 437 273 454 L273 605 Q266 623 247 635.5 Q228 648 199 648 Z " />
<glyph glyph-name="numbersign" unicode="&#x23;" horiz-adv-x="573" d="M445 284 L508 284 L508 195 L430 195 L399 0 L311 0 L311 67 L332 195 L190 195 L159 0 L72 0 L72 67 L93 195 L29 195 L29 284 L107 284 L128 417 L65 417 L65 507 L143 507 L174 700 L261 700 L261 633 L241 507 L382 507 L413 700 L501 700 L501 633 L481 507 L544 507 L544 417 L466 417 L445 284 Z M226 417 L205 284 L346 284 L368 417 L226 417 Z " />
<glyph glyph-name="uni2116" unicode="&#x2116;" horiz-adv-x="999" d="M792 707 Q832 707 862.5 697 Q893 687 915 671.5 Q937 656 950.5 638 Q964 620 971 605 L971 440 Q964 425 950.5 407 Q937 389 915 374 Q893 359 862.5 348.5 Q832 338 792 338 Q751 338 721 348.5 Q691 359 669.5 374 Q648 389 634 407 Q620 425 613 440 L613 605 Q620 620 634 638 Q648 656 669.5 671.5 Q691 687 721 697 Q751 707 792 707 Z M398 0 L192 476 L189 476 L189 0 L64 0 L64 700 L206 700 L411 224 L414 224 L414 700 L539 700 L539 0 L398 0 Z M793 634 Q758 634 737.5 618.5 Q717 603 709 586 L709 459 Q717 442 737.5 427 Q758 412 793 412 Q828 412 848 427 Q868 442 876 459 L876 586 Q868 603 848 618.5 Q828 634 793 634 Z M613 213 L613 292 L971 292 L971 213 L613 213 Z " />
<glyph glyph-name="zero" unicode="0" horiz-adv-x="589" d="M295 714 Q346 714 386.5 701 Q427 688 457 668.5 Q487 649 506.5 626 Q526 603 535 582 L535 118 Q526 97 506.5 74 Q487 51 457 31.5 Q427 12 386.5 -1 Q346 -14 295 -14 Q244 -14 203 -1 Q162 12 132 31.5 Q102 51 82 74 Q62 97 53 118 L53 582 Q62 603 82 626 Q102 649 132 668.5 Q162 688 203 701 Q244 714 295 714 Z M294 616 Q252 616 222 597 Q192 578 181 553 L181 147 Q192 123 222 104 Q252 85 294 85 Q336 85 366 104 Q396 123 407 147 L407 553 Q396 578 366 597 Q336 616 294 616 Z " />
<glyph glyph-name="one" unicode="1" horiz-adv-x="453" d="M411 88 L411 0 L63 0 L63 88 L176 88 L176 566 L62 518 L62 615 L218 700 L304 700 L304 88 L411 88 Z " />
<glyph glyph-name="two" unicode="2" horiz-adv-x="566" d="M278 714 Q329 714 369.5 701 Q410 688 440 668.5 Q470 649 489.5 626 Q509 603 518 582 L518 437 Q511 419 500.5 403 Q490 387 472.5 370.5 Q455 354 428 334.5 Q401 315 361 290 L287 244 Q243 217 213 192.5 Q183 168 173 145 L173 104 L524 104 L524 0 L45 0 L45 176 Q55 196 68 213 Q81 230 99 247 Q117 264 142.5 282 Q168 300 204 323 L284 372 Q330 401 356.5 424 Q383 447 390 470 L390 554 Q379 577 349.5 596.5 Q320 616 278 616 Q234 616 200.5 594 Q167 572 159 528 L46 528 L46 597 Q53 612 71.5 632 Q90 652 118.5 670.5 Q147 689 187 701.5 Q227 714 278 714 Z " />
<glyph glyph-name="three" unicode="3" horiz-adv-x="570" d="M276 714 Q327 714 366.5 701 Q406 688 434.5 669.5 Q463 651 481.5 629.5 Q500 608 508 592 L508 447 Q498 429 471 406.5 Q444 384 404 367 Q447 350 476.5 322.5 Q506 295 517 270 L517 118 Q508 98 488.5 75 Q469 52 439 32 Q409 12 368.5 -1 Q328 -14 277 -14 Q226 -14 185.5 -1 Q145 12 115.5 30 Q86 48 67 68.5 Q48 89 41 104 L41 173 L155 173 Q163 135 196 110 Q229 85 277 85 Q319 85 348.5 104 Q378 123 389 147 L389 248 Q379 275 348.5 295 Q318 315 277 315 L197 315 L197 410 L271 410 Q312 410 340.5 428.5 Q369 447 380 466 L380 563 Q370 581 343.5 598.5 Q317 616 276 616 Q250 616 230 608.5 Q210 601 196.5 590 Q183 579 175 564.5 Q167 550 164 537 L50 537 L50 606 Q57 618 74.5 636.5 Q92 655 120 672.5 Q148 690 186.5 702 Q225 714 276 714 Z " />
<glyph glyph-name="four" unicode="4" horiz-adv-x="584" d="M564 257 L564 157 L481 157 L481 0 L358 0 L358 157 L27 157 L27 253 L303 700 L481 700 L481 257 L564 257 Z M151 257 L358 257 L358 590 L355 590 L151 257 Z " />
<glyph glyph-name="five" unicode="5" horiz-adv-x="563" d="M179 595 L179 407 Q202 428 237 442 Q272 456 317 456 Q356 456 388.5 446 Q421 436 446 419.5 Q471 403 488 383.5 Q505 364 514 344 L514 104 Q506 88 488 67.5 Q470 47 441.5 29 Q413 11 373.5 -1.5 Q334 -14 283 -14 Q232 -14 192 -1.5 Q152 11 123 29 Q94 47 75 67.5 Q56 88 48 104 L48 173 L162 173 Q167 140 200 112.5 Q233 85 283 85 Q325 85 355 104 Q385 123 396 147 L396 297 Q385 323 354 342 Q323 361 283 361 Q261 361 243.5 355.5 Q226 350 213.5 342.5 Q201 335 192 326.5 Q183 318 179 312 L62 312 L62 700 L508 700 L508 595 L179 595 Z " />
<glyph glyph-name="six" unicode="6" horiz-adv-x="578" d="M296 616 Q255 616 224 597 Q193 578 182 553 L182 391 Q209 414 246 427.5 Q283 441 329 441 Q369 441 401.5 431 Q434 421 459 405 Q484 389 501 369 Q518 349 527 329 L527 104 Q520 90 501.5 69 Q483 48 454.5 30 Q426 12 386.5 -1 Q347 -14 296 -14 Q245 -14 204 -1 Q163 12 133 31.5 Q103 51 83 74.5 Q63 98 54 118 L54 582 Q64 603 83.5 626 Q103 649 133 668.5 Q163 688 204 701 Q245 714 296 714 Q347 714 386.5 701.5 Q426 689 454 671 Q482 653 500 633.5 Q518 614 527 597 L527 528 L413 528 Q406 569 375 592.5 Q344 616 296 616 Z M293 346 Q259 346 231.5 335 Q204 324 182 304 L182 147 Q193 123 223.5 104 Q254 85 296 85 Q337 85 367.5 104 Q398 123 408 147 L408 286 Q398 310 367 328 Q336 346 293 346 Z " />
<glyph glyph-name="seven" unicode="7" horiz-adv-x="501" d="M207 0 L100 0 L100 77 L346 596 L16 596 L16 700 L475 700 L475 606 L207 0 Z " />
<glyph glyph-name="eight" unicode="8" horiz-adv-x="586" d="M434 376 Q481 355 504 331.5 Q527 308 539 286 L539 118 Q531 101 513 78.5 Q495 56 465.5 35.5 Q436 15 393 0.5 Q350 -14 293 -14 Q237 -14 195.5 0 Q154 14 124.5 34 Q95 54 76 77 Q57 100 47 118 L47 286 Q59 309 83.5 329 Q108 349 151 367 Q115 386 96 406 Q77 426 68 442 L68 603 Q78 620 97 639 Q116 658 143.5 675 Q171 692 208.5 703 Q246 714 293 714 Q340 714 378 703 Q416 692 443.5 675 Q471 658 489.5 639 Q508 620 518 603 L518 442 Q509 426 489 409 Q469 392 434 376 Z M190 474 Q195 463 213 449.5 Q231 436 272 425 L303 417 Q335 425 362 441.5 Q389 458 396 474 L396 565 Q385 584 358 600 Q331 616 293 616 Q256 616 228 599.5 Q200 583 190 565 L190 474 Z M412 254 Q403 272 376.5 289.5 Q350 307 305 318 L283 323 Q235 311 207.5 290.5 Q180 270 175 254 L175 148 Q179 138 189.5 127 Q200 116 215 106.5 Q230 97 249.5 91 Q269 85 293 85 Q340 85 371 105.5 Q402 126 412 148 L412 254 Z " />
<glyph glyph-name="nine" unicode="9" horiz-adv-x="578" d="M282 714 Q333 714 373.5 701 Q414 688 444.5 668.5 Q475 649 495 625.5 Q515 602 524 582 L524 118 Q514 97 494 73.5 Q474 50 444 30.5 Q414 11 373.5 -1.5 Q333 -14 282 -14 Q231 -14 191.5 -1.5 Q152 11 123.5 29 Q95 47 77 67 Q59 87 51 103 L51 172 L164 172 Q172 131 202.5 107.5 Q233 84 282 84 Q325 84 355 103.5 Q385 123 396 147 L396 301 Q369 278 332.5 264.5 Q296 251 248 251 Q209 251 176.5 261 Q144 271 119 287 Q94 303 77 323 Q60 343 51 363 L51 596 Q59 611 77 631.5 Q95 652 123.5 670 Q152 688 191.5 701 Q231 714 282 714 Z M284 346 Q319 346 346.5 357 Q374 368 396 388 L396 553 Q385 577 355 596 Q325 615 282 615 Q240 615 210 596 Q180 577 170 553 L170 405 Q180 382 210.5 364 Q241 346 284 346 Z " />
<glyph glyph-name="uni00A0" unicode="&#xa0;" horiz-adv-x="205" d="" />
<glyph glyph-name="fraction" unicode="&#x2044;" horiz-adv-x="180" d="M-122 0 L-179 0 L-179 54 L302 700 L359 700 L359 646 L-122 0 Z " />
<glyph glyph-name="onequarter" unicode="&#xbc;" horiz-adv-x="895" d="M233 0 L176 0 L176 54 L657 700 L714 700 L714 646 L233 0 Z M277 341 L277 280 L45 280 L45 341 L117 341 L117 625 L45 619 L45 674 L134 700 L209 700 L209 341 L277 341 Z M853 158 L853 90 L797 90 L797 0 L709 0 L709 90 L484 90 L484 156 L673 420 L797 420 L797 158 L853 158 Z M574 158 L709 158 L709 343 L706 343 L574 158 Z " />
<glyph glyph-name="onehalf" unicode="&#xbd;" horiz-adv-x="952" d="M278 341 L278 280 L46 280 L46 341 L118 341 L118 625 L46 619 L46 674 L135 700 L210 700 L210 341 L278 341 Z M233 0 L176 0 L176 54 L657 700 L714 700 L714 646 L233 0 Z M733 429 Q768 429 795.5 421 Q823 413 843.5 401 Q864 389 877.5 375 Q891 361 897 348 L897 269 Q892 257 884 246 Q876 235 863.5 224 Q851 213 833 201 Q815 189 790 174 L736 142 Q708 125 688.5 110 Q669 95 662 81 L662 73 L902 73 L902 0 L574 0 L574 94 Q588 119 610 141.5 Q632 164 680 193 L737 227 Q768 246 784 259.5 Q800 273 806 289 L806 326 Q799 338 780.5 348 Q762 358 733 358 Q697 358 677.5 342 Q658 326 652 311 L574 311 L574 361 Q580 370 592.5 382 Q605 394 625 404.5 Q645 415 671.5 422 Q698 429 733 429 Z " />
<glyph glyph-name="threequarters" unicode="&#xbe;" horiz-adv-x="945" d="M275 0 L218 0 L218 54 L699 700 L756 700 L756 646 L275 0 Z M893 158 L893 90 L837 90 L837 0 L749 0 L749 90 L524 90 L524 156 L713 420 L837 420 L837 158 L893 158 Z M614 158 L749 158 L749 343 L746 343 L614 158 Z M204 709 Q238 709 265 701 Q292 693 311.5 682 Q331 671 343.5 657.5 Q356 644 362 634 L362 545 Q357 535 340 522 Q323 509 297 499 Q326 490 343.5 474 Q361 458 369 444 L369 351 Q363 339 349 325.5 Q335 312 314 300 Q293 288 265 280 Q237 272 202 272 Q167 272 139.5 279.5 Q112 287 92 297.5 Q72 308 59.5 320 Q47 332 42 340 L42 393 L116 393 Q122 373 144.5 358 Q167 343 202 343 Q230 343 250 353 Q270 363 278 376 L278 429 Q270 443 251.5 452.5 Q233 462 204 462 L150 462 L150 530 L201 530 Q228 530 246.5 539.5 Q265 549 272 558 L272 611 Q266 619 248.5 628.5 Q231 638 204 638 Q185 638 171.5 633.5 Q158 629 148.5 622 Q139 615 133 607 Q127 599 123 592 L49 592 L49 645 Q54 652 66 662.5 Q78 673 97 683.5 Q116 694 142.5 701.5 Q169 709 204 709 Z " />
<glyph glyph-name="fiveeighths" unicode="&#x215d;" horiz-adv-x="1006" d="M902 219 Q926 206 941 191 Q956 176 963 162 L963 71 Q957 59 943.5 45 Q930 31 909.5 19.5 Q889 8 861 0 Q833 -8 797 -8 Q762 -8 734.5 0 Q707 8 686.5 19.5 Q666 31 652.5 45 Q639 59 633 71 L633 162 Q640 176 655 191 Q670 206 693 219 Q673 230 661.5 240.5 Q650 251 644 259 L644 364 Q649 371 660.5 382 Q672 393 691 403.5 Q710 414 736.5 421.5 Q763 429 798 429 Q833 429 859.5 421.5 Q886 414 905 403.5 Q924 393 935.5 382 Q947 371 952 364 L952 259 Q947 252 934.5 241 Q922 230 902 219 Z M729 274 Q736 265 753 256.5 Q770 248 798 248 Q826 248 843 256.5 Q860 265 867 274 L867 334 Q860 342 843 351.5 Q826 361 798 361 Q770 361 753 351.5 Q736 342 729 334 L729 274 Z M872 156 Q865 168 845.5 178 Q826 188 798 188 Q770 188 750.5 178 Q731 168 724 156 L724 91 Q731 79 750.5 69 Q770 59 798 59 Q826 59 845.5 69 Q865 79 872 91 L872 156 Z M132 627 L132 529 Q149 540 171.5 547.5 Q194 555 226 555 Q252 555 273.5 549 Q295 543 312 534 Q329 525 340.5 513.5 Q352 502 358 490 L358 340 Q353 331 340.5 319.5 Q328 308 308 297.5 Q288 287 261 279.5 Q234 272 199 272 Q163 272 136 279.5 Q109 287 89 297.5 Q69 308 56.5 319.5 Q44 331 38 340 L38 393 L113 393 Q119 372 141.5 357.5 Q164 343 199 343 Q227 343 247 353 Q267 363 275 376 L275 459 Q267 471 248.5 481.5 Q230 492 201 492 Q173 492 155 479.5 Q137 467 132 460 L48 460 L48 700 L354 700 L354 627 L132 627 Z M289 0 L232 0 L232 54 L713 700 L770 700 L770 646 L289 0 Z " />
<glyph glyph-name="oneeighth" unicode="&#x215b;" horiz-adv-x="974" d="M249 0 L192 0 L192 54 L673 700 L730 700 L730 646 L249 0 Z M279 341 L279 280 L47 280 L47 341 L119 341 L119 625 L47 619 L47 674 L136 700 L211 700 L211 341 L279 341 Z M862 219 Q886 206 901 191 Q916 176 923 162 L923 71 Q917 59 903.5 45 Q890 31 869.5 19.5 Q849 8 821 0 Q793 -8 757 -8 Q722 -8 694.5 0 Q667 8 646.5 19.5 Q626 31 612.5 45 Q599 59 593 71 L593 162 Q600 176 615 191 Q630 206 653 219 Q633 230 621.5 240.5 Q610 251 604 259 L604 364 Q609 371 620.5 382 Q632 393 651 403.5 Q670 414 696.5 421.5 Q723 429 758 429 Q793 429 819.5 421.5 Q846 414 865 403.5 Q884 393 895.5 382 Q907 371 912 364 L912 259 Q907 252 894.5 241 Q882 230 862 219 Z M689 274 Q696 265 713 256.5 Q730 248 758 248 Q786 248 803 256.5 Q820 265 827 274 L827 334 Q820 342 803 351.5 Q786 361 758 361 Q730 361 713 351.5 Q696 342 689 334 L689 274 Z M832 156 Q825 168 805.5 178 Q786 188 758 188 Q730 188 710.5 178 Q691 168 684 156 L684 91 Q691 79 710.5 69 Q730 59 758 59 Q786 59 805.5 69 Q825 79 832 91 L832 156 Z " />
<glyph glyph-name="seveneighths" unicode="&#x215e;" horiz-adv-x="931" d="M832 219 Q856 206 871 191 Q886 176 893 162 L893 71 Q887 59 873.5 45 Q860 31 839.5 19.5 Q819 8 791 0 Q763 -8 727 -8 Q692 -8 664.5 0 Q637 8 616.5 19.5 Q596 31 582.5 45 Q569 59 563 71 L563 162 Q570 176 585 191 Q600 206 623 219 Q603 230 591.5 240.5 Q580 251 574 259 L574 364 Q579 371 590.5 382 Q602 393 621 403.5 Q640 414 666.5 421.5 Q693 429 728 429 Q763 429 789.5 421.5 Q816 414 835 403.5 Q854 393 865.5 382 Q877 371 882 364 L882 259 Q877 252 864.5 241 Q852 230 832 219 Z M659 274 Q666 265 683 256.5 Q700 248 728 248 Q756 248 773 256.5 Q790 265 797 274 L797 334 Q790 342 773 351.5 Q756 361 728 361 Q700 361 683 351.5 Q666 342 659 334 L659 274 Z M802 156 Q795 168 775.5 178 Q756 188 728 188 Q700 188 680.5 178 Q661 168 654 156 L654 91 Q661 79 680.5 69 Q700 59 728 59 Q756 59 775.5 69 Q795 79 802 91 L802 156 Z M173 280 L99 280 L99 331 L255 624 L255 627 L35 627 L35 700 L347 700 L347 636 L173 280 Z M211 0 L154 0 L154 54 L635 700 L692 700 L692 646 L211 0 Z " />
<glyph glyph-name="threeeighths" unicode="&#x215c;" horiz-adv-x="1001" d="M894 219 Q918 206 933 191 Q948 176 955 162 L955 71 Q949 59 935.5 45 Q922 31 901.5 19.5 Q881 8 853 0 Q825 -8 789 -8 Q754 -8 726.5 0 Q699 8 678.5 19.5 Q658 31 644.5 45 Q631 59 625 71 L625 162 Q632 176 647 191 Q662 206 685 219 Q665 230 653.5 240.5 Q642 251 636 259 L636 364 Q641 371 652.5 382 Q664 393 683 403.5 Q702 414 728.5 421.5 Q755 429 790 429 Q825 429 851.5 421.5 Q878 414 897 403.5 Q916 393 927.5 382 Q939 371 944 364 L944 259 Q939 252 926.5 241 Q914 230 894 219 Z M721 274 Q728 265 745 256.5 Q762 248 790 248 Q818 248 835 256.5 Q852 265 859 274 L859 334 Q852 342 835 351.5 Q818 361 790 361 Q762 361 745 351.5 Q728 342 721 334 L721 274 Z M864 156 Q857 168 837.5 178 Q818 188 790 188 Q762 188 742.5 178 Q723 168 716 156 L716 91 Q723 79 742.5 69 Q762 59 790 59 Q818 59 837.5 69 Q857 79 864 91 L864 156 Z M202 709 Q236 709 263 701 Q290 693 309.5 682 Q329 671 341.5 657.5 Q354 644 360 634 L360 545 Q355 535 338 522 Q321 509 295 499 Q324 490 341.5 474 Q359 458 367 444 L367 351 Q361 339 347 325.5 Q333 312 312 300 Q291 288 263 280 Q235 272 200 272 Q165 272 137.5 279.5 Q110 287 90 297.5 Q70 308 57.5 320 Q45 332 40 340 L40 393 L114 393 Q120 373 142.5 358 Q165 343 200 343 Q228 343 248 353 Q268 363 276 376 L276 429 Q268 443 249.5 452.5 Q231 462 202 462 L148 462 L148 530 L199 530 Q226 530 244.5 539.5 Q263 549 270 558 L270 611 Q264 619 246.5 628.5 Q229 638 202 638 Q183 638 169.5 633.5 Q156 629 146.5 622 Q137 615 131 607 Q125 599 121 592 L47 592 L47 645 Q52 652 64 662.5 Q76 673 95 683.5 Q114 694 140.5 701.5 Q167 709 202 709 Z M283 0 L226 0 L226 54 L707 700 L764 700 L764 646 L283 0 Z " />
<glyph glyph-name="twothirds" unicode="&#x2154;" horiz-adv-x="1036" d="M823 429 Q857 429 884 421 Q911 413 930.5 402 Q950 391 962.5 377.5 Q975 364 981 354 L981 265 Q976 255 959 242 Q942 229 916 219 Q945 210 962.5 194 Q980 178 988 164 L988 71 Q982 59 968 45.5 Q954 32 933 20 Q912 8 884 0 Q856 -8 821 -8 Q786 -8 758.5 -0.5 Q731 7 711 17.5 Q691 28 678.5 40 Q666 52 661 60 L661 113 L735 113 Q741 93 763.5 78 Q786 63 821 63 Q849 63 869 73 Q889 83 897 96 L897 149 Q889 163 870.5 172.5 Q852 182 823 182 L769 182 L769 250 L820 250 Q847 250 865.5 259.5 Q884 269 891 278 L891 331 Q885 339 867.5 348.5 Q850 358 823 358 Q804 358 790.5 353.5 Q777 349 767.5 342 Q758 335 752 327 Q746 319 742 312 L668 312 L668 365 Q673 372 685 382.5 Q697 393 716 403.5 Q735 414 761.5 421.5 Q788 429 823 429 Z M203 709 Q238 709 265.5 701 Q293 693 313.5 681 Q334 669 347.5 655 Q361 641 367 628 L367 549 Q362 537 354 526 Q346 515 333.5 504 Q321 493 303 481 Q285 469 260 454 L206 422 Q178 405 158.5 390 Q139 375 132 361 L132 353 L372 353 L372 280 L44 280 L44 374 Q58 399 80 421.5 Q102 444 150 473 L207 507 Q238 526 254 539.5 Q270 553 276 569 L276 606 Q269 618 250.5 628 Q232 638 203 638 Q167 638 147.5 622 Q128 606 122 591 L44 591 L44 641 Q50 650 62.5 662 Q75 674 95 684.5 Q115 695 141.5 702 Q168 709 203 709 Z M320 0 L263 0 L263 54 L744 700 L801 700 L801 646 L320 0 Z " />
<glyph glyph-name="uniE000" unicode="&#xe000;" horiz-adv-x="1028" d="M293 0 L236 0 L236 54 L717 700 L774 700 L774 646 L293 0 Z M212 639 Q184 639 164.5 629 Q145 619 139 607 L139 516 Q157 529 181 537 Q205 545 235 545 Q290 545 324 525 Q358 505 371 481 L371 340 Q366 332 353.5 320 Q341 308 321.5 297.5 Q302 287 274.5 279.5 Q247 272 212 272 Q177 272 149.5 280 Q122 288 101.5 299.5 Q81 311 67.5 325 Q54 339 47 351 L47 630 Q54 642 67.5 656 Q81 670 101.5 681.5 Q122 693 149.5 701 Q177 709 212 709 Q247 709 274.5 701.5 Q302 694 322 683 Q342 672 354 660.5 Q366 649 371 640 L371 592 L293 592 Q285 613 264 626 Q243 639 212 639 Z M212 482 Q189 482 171 476 Q153 470 139 460 L139 370 Q145 358 164.5 348 Q184 338 212 338 Q240 338 260 348 Q280 358 287 370 L287 450 Q280 463 260.5 472.5 Q241 482 212 482 Z M906 219 Q930 206 945 191 Q960 176 967 162 L967 71 Q961 59 947.5 45 Q934 31 913.5 19.5 Q893 8 865 0 Q837 -8 801 -8 Q766 -8 738.5 0 Q711 8 690.5 19.5 Q670 31 656.5 45 Q643 59 637 71 L637 162 Q644 176 659 191 Q674 206 697 219 Q677 230 665.5 240.5 Q654 251 648 259 L648 364 Q653 371 664.5 382 Q676 393 695 403.5 Q714 414 740.5 421.5 Q767 429 802 429 Q837 429 863.5 421.5 Q890 414 909 403.5 Q928 393 939.5 382 Q951 371 956 364 L956 259 Q951 252 938.5 241 Q926 230 906 219 Z M733 274 Q740 265 757 256.5 Q774 248 802 248 Q830 248 847 256.5 Q864 265 871 274 L871 334 Q864 342 847 351.5 Q830 361 802 361 Q774 361 757 351.5 Q740 342 733 334 L733 274 Z M876 156 Q869 168 849.5 178 Q830 188 802 188 Q774 188 754.5 178 Q735 168 728 156 L728 91 Q735 79 754.5 69 Q774 59 802 59 Q830 59 849.5 69 Q869 79 876 91 L876 156 Z " />
<glyph glyph-name="uniE001" unicode="&#xe001;" horiz-adv-x="1254" d="M271 341 L271 280 L39 280 L39 341 L111 341 L111 625 L39 619 L39 674 L128 700 L203 700 L203 341 L271 341 Z M1054 359 Q1026 359 1006.5 349 Q987 339 981 327 L981 236 Q999 249 1023 257 Q1047 265 1077 265 Q1132 265 1166 245 Q1200 225 1213 201 L1213 60 Q1208 52 1195.5 40 Q1183 28 1163.5 17.5 Q1144 7 1116.5 -0.5 Q1089 -8 1054 -8 Q1019 -8 991.5 0 Q964 8 943.5 19.5 Q923 31 909.5 45 Q896 59 889 71 L889 350 Q896 362 909.5 376 Q923 390 943.5 401.5 Q964 413 991.5 421 Q1019 429 1054 429 Q1089 429 1116.5 421.5 Q1144 414 1164 403 Q1184 392 1196 380.5 Q1208 369 1213 360 L1213 312 L1135 312 Q1127 333 1106 346 Q1085 359 1054 359 Z M1054 202 Q1031 202 1013 196 Q995 190 981 180 L981 90 Q987 78 1006.5 68 Q1026 58 1054 58 Q1082 58 1102 68 Q1122 78 1129 90 L1129 170 Q1122 183 1102.5 192.5 Q1083 202 1054 202 Z M225 0 L168 0 L168 54 L649 700 L706 700 L706 646 L225 0 Z M831 61 L831 0 L599 0 L599 61 L671 61 L671 345 L599 339 L599 394 L688 420 L763 420 L763 61 L831 61 Z " />
<glyph glyph-name="percent" unicode="&#x25;" horiz-adv-x="899" d="M209 709 Q244 709 272 701 Q300 693 320.5 680 Q341 667 354.5 651 Q368 635 374 620 L374 435 Q368 419 354.5 403 Q341 387 320.5 374.5 Q300 362 272 354 Q244 346 209 346 Q174 346 146.5 354 Q119 362 98.5 374.5 Q78 387 64.5 403 Q51 419 45 435 L45 620 Q51 635 64.5 651 Q78 667 98.5 680 Q119 693 146.5 701 Q174 709 209 709 Z M238 0 L181 0 L181 54 L662 700 L720 700 L720 646 L238 0 Z M209 642 Q182 642 162.5 631.5 Q143 621 136 606 L136 449 Q143 435 162.5 424 Q182 413 209 413 Q237 413 256 424 Q275 435 283 449 L283 606 Q275 621 256 631.5 Q237 642 209 642 Z M689 355 Q724 355 752 347 Q780 339 800.5 326 Q821 313 834.5 297 Q848 281 855 265 L855 80 Q848 65 834.5 49 Q821 33 800.5 20.5 Q780 8 752 0 Q724 -8 689 -8 Q654 -8 626.5 0 Q599 8 578.5 20.5 Q558 33 544.5 49 Q531 65 525 80 L525 265 Q531 281 544.5 297 Q558 313 578.5 326 Q599 339 626.5 347 Q654 355 689 355 Z M689 288 Q662 288 642.5 277 Q623 266 616 251 L616 94 Q623 80 642.5 69 Q662 58 689 58 Q717 58 736 69 Q755 80 763 94 L763 251 Q755 266 736 277 Q717 288 689 288 Z " />
<glyph glyph-name="perthousand" unicode="&#x2030;" horiz-adv-x="1284" d="M209 709 Q244 709 272 701 Q300 693 320.5 680 Q341 667 354.5 651 Q368 635 374 620 L374 435 Q368 419 354.5 403 Q341 387 320.5 374.5 Q300 362 272 354 Q244 346 209 346 Q174 346 146.5 354 Q119 362 98.5 374.5 Q78 387 64.5 403 Q51 419 45 435 L45 620 Q51 635 64.5 651 Q78 667 98.5 680 Q119 693 146.5 701 Q174 709 209 709 Z M238 0 L181 0 L181 54 L662 700 L720 700 L720 646 L238 0 Z M209 642 Q182 642 162.5 631.5 Q143 621 136 606 L136 449 Q143 435 162.5 424 Q182 413 209 413 Q237 413 256 424 Q275 435 283 449 L283 606 Q275 621 256 631.5 Q237 642 209 642 Z M689 355 Q724 355 752 347 Q780 339 800.5 326 Q821 313 834.5 297 Q848 281 855 265 L855 80 Q848 65 834.5 49 Q821 33 800.5 20.5 Q780 8 752 0 Q724 -8 689 -8 Q654 -8 626.5 0 Q599 8 578.5 20.5 Q558 33 544.5 49 Q531 65 525 80 L525 265 Q531 281 544.5 297 Q558 313 578.5 326 Q599 339 626.5 347 Q654 355 689 355 Z M1075 355 Q1110 355 1137.5 347 Q1165 339 1185.5 326 Q1206 313 1219.5 297 Q1233 281 1240 265 L1240 80 Q1233 65 1219.5 49 Q1206 33 1185.5 20.5 Q1165 8 1137.5 0 Q1110 -8 1075 -8 Q1040 -8 1012.5 0 Q985 8 964.5 20.5 Q944 33 930.5 49 Q917 65 910 80 L910 265 Q917 281 930.5 297 Q944 313 964.5 326 Q985 339 1012.5 347 Q1040 355 1075 355 Z M689 288 Q662 288 642.5 277 Q623 266 616 251 L616 94 Q623 80 642.5 69 Q662 58 689 58 Q717 58 736 69 Q755 80 763 94 L763 251 Q755 266 736 277 Q717 288 689 288 Z M1075 288 Q1047 288 1027.5 277 Q1008 266 1002 251 L1002 94 Q1008 80 1027.5 69 Q1047 58 1075 58 Q1103 58 1122 69 Q1141 80 1148 94 L1148 251 Q1141 266 1122 277 Q1103 288 1075 288 Z " />
<glyph glyph-name="plus" unicode="&#x2b;" horiz-adv-x="585" d="M343 286 L343 80 L242 80 L242 286 L38 286 L38 385 L242 385 L242 591 L343 591 L343 385 L548 385 L548 286 L343 286 Z " />
<glyph glyph-name="minus" unicode="&#x2212;" horiz-adv-x="585" d="M38 286 L38 385 L548 385 L548 286 L38 286 Z " />
<glyph glyph-name="plusminus" unicode="&#xb1;" horiz-adv-x="585" d="M548 357 L343 357 L343 176 L242 176 L242 357 L38 357 L38 457 L242 457 L242 638 L343 638 L343 457 L548 457 L548 357 Z M548 121 L548 21 L38 21 L38 121 L548 121 Z " />
<glyph glyph-name="multiply" unicode="&#xd7;" horiz-adv-x="585" d="M363 336 L536 162 L536 96 L461 96 L293 264 L125 96 L48 96 L48 162 L221 336 L48 509 L48 575 L125 575 L293 407 L461 575 L536 575 L536 509 L363 336 Z " />
<glyph glyph-name="divide" unicode="&#xf7;" horiz-adv-x="585" d="M38 286 L38 385 L548 385 L548 286 L38 286 Z M292 216 Q321 216 338.5 205 Q356 194 361 182 L361 113 Q356 102 338.5 90.5 Q321 79 292 79 Q264 79 247 90.5 Q230 102 225 113 L225 182 Q230 194 247 205 Q264 216 292 216 Z M292 595 Q321 595 338.5 584 Q356 573 361 561 L361 492 Q356 481 338.5 469.5 Q321 458 292 458 Q264 458 247 469.5 Q230 481 225 492 L225 561 Q230 573 247 584 Q264 595 292 595 Z " />
<glyph glyph-name="equal" unicode="&#x3d;" horiz-adv-x="585" d="M38 181 L38 280 L548 280 L548 181 L38 181 Z M38 392 L38 491 L548 491 L548 392 L38 392 Z " />
<glyph glyph-name="notequal" unicode="&#x2260;" horiz-adv-x="585" d="M321 280 L548 280 L548 181 L283 181 L243 80 L142 80 L182 181 L38 181 L38 280 L220 280 L264 392 L38 392 L38 491 L303 491 L342 591 L443 591 L404 491 L548 491 L548 392 L365 392 L321 280 Z " />
<glyph glyph-name="approxequal" unicode="&#x2248;" horiz-adv-x="585" d="M171 308 Q207 308 241 300 Q275 292 308 282.5 Q341 273 373.5 265 Q406 257 439 257 Q464 257 484.5 264 Q505 271 520 279 Q538 289 551 301 L551 190 Q538 180 521 173 Q507 166 486.5 161 Q466 156 440 156 Q401 156 367 164 Q333 172 300.5 181.5 Q268 191 236 199 Q204 207 169 207 Q140 207 115 199 Q90 191 72 181 Q51 170 33 156 L33 262 Q49 274 70 285 Q88 293 113.5 300.5 Q139 308 171 308 Z M171 520 Q207 520 241 512 Q275 504 308 494.5 Q341 485 373.5 477 Q406 469 439 469 Q464 469 484.5 476 Q505 483 520 491 Q538 501 551 513 L551 402 Q538 392 521 385 Q507 378 486.5 373 Q466 368 440 368 Q401 368 367 376 Q333 384 300.5 393.5 Q268 403 236 411 Q204 419 169 419 Q140 419 115 411 Q90 403 72 393 Q51 382 33 368 L33 474 Q49 486 70 497 Q88 505 113.5 512.5 Q139 520 171 520 Z " />
<glyph glyph-name="less" unicode="&#x3c;" horiz-adv-x="585" d="M165 297 L556 122 L556 53 L466 53 L28 253 L28 341 L466 541 L556 541 L556 472 L165 297 Z " />
<glyph glyph-name="greater" unicode="&#x3e;" horiz-adv-x="585" d="M556 253 L119 53 L28 53 L28 122 L419 297 L28 472 L28 541 L119 541 L556 341 L556 253 Z " />
<glyph glyph-name="lessequal" unicode="&#x2264;" horiz-adv-x="585" d="M204 380 L548 247 L548 177 L457 177 L38 336 L38 401 L457 582 L548 582 L548 513 L204 380 Z M38 21 L38 121 L548 121 L548 21 L38 21 Z " />
<glyph glyph-name="greaterequal" unicode="&#x2265;" horiz-adv-x="585" d="M548 336 L128 177 L38 177 L38 247 L382 380 L38 513 L38 582 L128 582 L548 401 L548 336 Z M38 21 L38 121 L548 121 L548 21 L38 21 Z " />
<glyph glyph-name="logicalnot" unicode="&#xac;" horiz-adv-x="585" d="M447 80 L447 286 L38 286 L38 385 L548 385 L548 80 L447 80 Z " />
<glyph glyph-name="Delta" unicode="&#x2206;" horiz-adv-x="620" d="M593 0 L27 0 L27 77 L217 700 L402 700 L593 77 L593 0 Z M307 594 L304 594 L165 104 L445 104 L307 594 Z " />
<glyph glyph-name="Omega" unicode="&#x2126;" horiz-adv-x="631" d="M451 104 L575 104 L575 0 L351 0 L351 143 Q384 149 408 170 Q432 191 441 216 L441 533 Q428 565 395 586.5 Q362 608 316 608 Q269 608 236 586.5 Q203 565 190 533 L190 216 Q200 191 223.5 170 Q247 149 281 143 L281 0 L56 0 L56 104 L181 104 Q134 124 102.5 155 Q71 186 56 222 L56 562 Q83 623 147.5 668.5 Q212 714 316 714 Q420 714 484 668.5 Q548 623 575 562 L575 222 Q560 187 528.5 155.5 Q497 124 451 104 Z " />
<glyph glyph-name="mu" unicode="&#xb5;" horiz-adv-x="554" d="M499 0 L383 0 L383 45 Q360 21 324 4.5 Q288 -12 239 -12 Q206 -12 176 -4 L176 -166 L52 -166 L52 541 L176 541 L176 132 Q179 127 187 118.5 Q195 110 206.5 102 Q218 94 234.5 89 Q251 84 272 84 Q311 84 336.5 96.5 Q362 109 375 126 L375 541 L499 541 L499 0 Z " />
<glyph glyph-name="pi" unicode="&#x3c0;" horiz-adv-x="700" d="M532 450 L532 124 Q535 119 541 112 Q547 105 557.5 98.5 Q568 92 584.5 87.5 Q601 83 625 83 Q639 83 649.5 84 Q660 85 665 86 L665 -1 Q655 -3 633.5 -7 Q612 -11 580 -11 Q538 -11 508 -2 Q478 7 458 20.5 Q438 34 426 50.5 Q414 67 408 82 L408 450 L237 450 L237 0 L113 0 L113 450 L34 450 L34 541 L663 541 L663 450 L532 450 Z " />
<glyph glyph-name="degree" unicode="&#xb0;" horiz-adv-x="386" d="M193 807 Q229 807 256.5 798 Q284 789 303.5 776.5 Q323 764 335.5 749 Q348 734 354 722 L354 592 Q348 580 335.5 565 Q323 550 303.5 537.5 Q284 525 256.5 516 Q229 507 193 507 Q157 507 130 515.5 Q103 524 83 537 Q63 550 50.5 565 Q38 580 32 592 L32 722 Q38 734 50.5 749 Q63 764 83 777 Q103 790 130 798.5 Q157 807 193 807 Z M192 734 Q163 734 145 722.5 Q127 711 119 698 L119 616 Q127 603 145 591.5 Q163 580 192 580 Q221 580 239.5 591.5 Q258 603 266 616 L266 698 Q258 711 239.5 722.5 Q221 734 192 734 Z " />
<glyph glyph-name="infinity" unicode="&#x221e;" horiz-adv-x="787" d="M542 527 Q577 527 604.5 519 Q632 511 653 498 Q674 485 687.5 469.5 Q701 454 707 438 L707 271 Q701 255 687.5 239 Q674 223 653 210.5 Q632 198 604.5 190 Q577 182 542 182 Q512 182 488.5 188 Q465 194 447.5 204.5 Q430 215 417 228 Q404 241 394 255 Q374 227 339.5 204.5 Q305 182 245 182 Q210 182 182 190 Q154 198 133.5 211 Q113 224 99.5 240 Q86 256 80 272 L80 437 Q86 453 99.5 469 Q113 485 133.5 498 Q154 511 182 519 Q210 527 245 527 Q275 527 298.5 520.5 Q322 514 339.5 503.5 Q357 493 370 480 Q383 467 393 453 Q403 467 416 480 Q429 493 447 503.5 Q465 514 488 520.5 Q511 527 542 527 Z M245 252 Q273 252 294.5 263 Q316 274 323 288 L350 355 L323 421 Q316 435 294.5 446 Q273 457 245 457 Q218 457 198.5 446 Q179 435 172 421 L172 288 Q179 274 198.5 263 Q218 252 245 252 Z M615 422 Q608 436 589.5 446.5 Q571 457 543 457 Q515 457 494.5 446.5 Q474 436 466 422 L438 352 L464 287 Q472 273 493.5 262.5 Q515 252 543 252 Q571 252 589.5 262.5 Q608 273 615 287 L615 422 Z " />
<glyph glyph-name="partialdiff" unicode="&#x2202;" horiz-adv-x="556" d="M202 733 Q249 719 297.5 698 Q346 677 388 649 Q430 621 462.5 588 Q495 555 510 519 L510 120 Q501 99 482.5 75 Q464 51 436 31.5 Q408 12 369 -1 Q330 -14 279 -14 Q228 -14 189 -1 Q150 12 122 31.5 Q94 51 75.5 75 Q57 99 48 120 L48 347 Q55 369 71 392 Q87 415 112.5 434.5 Q138 454 172 466.5 Q206 479 249 479 Q299 479 330 466.5 Q361 454 386 437 L386 492 Q374 521 346.5 546.5 Q319 572 284 594 Q249 616 210 633 Q171 650 137 662 L202 733 Z M280 382 Q238 382 210 364.5 Q182 347 172 322 L172 144 Q182 120 209 101 Q236 82 278 82 Q321 82 348 101 Q375 120 386 144 L386 340 Q372 355 345 368.5 Q318 382 280 382 Z " />
<glyph glyph-name="integral" unicode="&#x222b;" horiz-adv-x="431" d="M320 713 Q351 713 375.5 709.5 Q400 706 411 702 L411 619 L364 619 Q341 619 325.5 614.5 Q310 610 300 603.5 Q290 597 285 589.5 Q280 582 277 576 L277 -87 Q271 -102 259 -119 Q247 -136 227.5 -150 Q208 -164 179 -173 Q150 -182 110 -182 Q80 -182 55.5 -178.5 Q31 -175 20 -170 L20 -87 L67 -87 Q90 -87 105.5 -82.5 Q121 -78 130.5 -71.5 Q140 -65 145 -58 Q150 -51 153 -45 L153 619 Q159 634 171 651 Q183 668 202.5 681.5 Q222 695 251 704 Q280 713 320 713 Z " />
<glyph glyph-name="radical" unicode="&#x221a;" horiz-adv-x="590" d="M565 633 L366 0 L219 0 L76 447 L21 447 L21 541 L172 541 L292 150 L295 150 L455 700 L565 700 L565 633 Z " />
<glyph glyph-name="summation" unicode="&#x2211;" horiz-adv-x="554" d="M365 344 L365 258 L200 0 L514 0 L514 -100 L39 -100 L39 -15 L236 301 L39 615 L39 700 L514 700 L514 600 L202 600 L365 344 Z " />
<glyph glyph-name="product" unicode="&#x220f;" horiz-adv-x="640" d="M440 -100 L440 600 L200 600 L200 -100 L66 -100 L66 700 L574 700 L574 -100 L440 -100 Z " />
<glyph glyph-name="lozenge" unicode="&#x25ca;" horiz-adv-x="592" d="M367 0 L232 0 L41 350 L232 700 L367 700 L558 350 L367 0 Z M300 133 L422 350 L300 567 L177 350 L300 133 Z " />
<glyph glyph-name="arrowleft" unicode="&#x2190;" horiz-adv-x="760" d="M0 383 L316 700 L400 700 L400 624 L170 401 L760 401 L760 299 L171 299 L400 76 L400 0 L316 0 L0 316 L0 383 Z " />
<glyph glyph-name="arrowright" unicode="&#x2192;" horiz-adv-x="760" d="M760 316 L444 0 L360 0 L360 76 L589 299 L0 299 L0 401 L590 401 L360 624 L360 700 L444 700 L760 383 L760 316 Z " />
<glyph glyph-name="arrowup" unicode="&#x2191;" horiz-adv-x="760" d="M730 371 L655 371 L439 590 L439 0 L323 0 L323 590 L105 371 L30 371 L30 443 L347 760 L414 760 L730 443 L730 371 Z " />
<glyph glyph-name="arrowdown" unicode="&#x2193;" horiz-adv-x="760" d="M730 257 L414 -60 L347 -60 L30 257 L30 329 L105 329 L323 110 L323 700 L439 700 L439 110 L655 329 L730 329 L730 257 Z " />
<glyph glyph-name="uni0410" unicode="&#x410;" horiz-adv-x="620" d="M593 0 L474 0 L424 177 L185 177 L135 0 L27 0 L27 77 L217 700 L402 700 L593 77 L593 0 Z M307 594 L304 594 L215 281 L395 281 L307 594 Z " />
<glyph glyph-name="uni0411" unicode="&#x411;" horiz-adv-x="589" d="M346 433 Q377 433 407.5 424.5 Q438 416 465 401 Q492 386 514 365 Q536 344 551 318 L551 119 Q540 98 521 77 Q502 56 476.5 38.5 Q451 21 418.5 10.5 Q386 0 347 0 L64 0 L64 700 L538 700 L538 598 L198 598 L198 433 L346 433 Z M428 275 Q414 299 385.5 315 Q357 331 323 331 L198 331 L198 101 L318 101 Q363 101 388.5 118 Q414 135 428 161 L428 275 Z " />
<glyph glyph-name="uni0412" unicode="&#x412;" horiz-adv-x="598" d="M461 369 Q486 358 512 338 Q538 318 555 291 L555 119 Q543 98 524.5 77 Q506 56 480.5 38.5 Q455 21 422 10.5 Q389 0 349 0 L64 0 L64 700 L344 700 Q381 700 411.5 690 Q442 680 467 663.5 Q492 647 510.5 625.5 Q529 604 541 582 L541 445 Q529 423 507 402 Q485 381 461 369 Z M320 410 Q350 410 376 424.5 Q402 439 418 464 L418 541 Q404 567 377 582.5 Q350 598 314 598 L198 598 L198 410 L320 410 Z M431 261 Q417 285 388.5 300.5 Q360 316 327 316 L198 316 L198 102 L320 102 Q365 102 391 118 Q417 134 431 160 L431 261 Z " />
<glyph glyph-name="uni0413" unicode="&#x413;" horiz-adv-x="508" d="M198 598 L198 0 L64 0 L64 700 L483 700 L483 598 L198 598 Z " />
<glyph glyph-name="uni0414" unicode="&#x414;" horiz-adv-x="706" d="M678 -132 L564 -132 L564 0 L138 0 L138 -132 L25 -132 L25 102 Q40 106 55 114 Q70 122 83.5 131.5 Q97 141 107.5 152.5 Q118 164 123 175 L184 700 L597 700 L597 102 L678 102 L678 -132 Z M463 598 L296 598 L246 154 Q229 123 193 102 L463 102 L463 598 Z " />
<glyph glyph-name="uni0415" unicode="&#x415;" horiz-adv-x="538" d="M198 596 L198 411 L469 411 L469 307 L198 307 L198 104 L496 104 L496 0 L64 0 L64 700 L489 700 L489 596 L198 596 Z " />
<glyph glyph-name="uni0416" unicode="&#x416;" horiz-adv-x="875" d="M689 372 L845 77 L845 0 L736 0 L579 313 L501 313 L501 0 L374 0 L374 313 L295 313 L139 0 L30 0 L30 77 L185 372 L37 623 L37 700 L138 700 L296 415 L374 415 L374 700 L501 700 L501 415 L579 415 L737 700 L838 700 L838 623 L689 372 Z " />
<glyph glyph-name="uni0417" unicode="&#x417;" horiz-adv-x="597" d="M546 455 Q535 434 511 406.5 Q487 379 447 358 Q487 336 511 308.5 Q535 281 546 261 L546 118 Q536 100 517.5 77.5 Q499 55 469 34.5 Q439 14 396 0 Q353 -14 296 -14 Q238 -14 195 0 Q152 14 122 34.5 Q92 55 73 78 Q54 101 45 118 L45 183 L160 183 Q171 145 205.5 117 Q240 89 295 89 Q320 89 340 95 Q360 101 375 111 Q390 121 400 132 Q410 143 416 154 L416 241 Q411 251 400.5 263 Q390 275 375 285 Q360 295 340 301 Q320 307 295 306 L208 306 L208 409 L295 409 Q320 408 340 414 Q360 420 375 429.5 Q390 439 400.5 450.5 Q411 462 416 473 L416 546 Q410 556 400 567.5 Q390 579 375 589 Q360 599 340 605 Q320 611 295 611 Q240 611 205.5 583 Q171 555 160 517 L45 517 L45 582 Q54 599 73 622 Q92 645 122 665.5 Q152 686 195 700 Q238 714 296 714 Q353 714 396 700 Q439 686 469 665.5 Q499 645 517.5 622.5 Q536 600 546 582 L546 455 Z " />
<glyph glyph-name="uni0418" unicode="&#x418;" horiz-adv-x="665" d="M476 0 L476 499 L473 499 L198 0 L64 0 L64 700 L189 700 L189 200 L192 200 L467 700 L601 700 L601 0 L476 0 Z " />
<glyph glyph-name="uni0419" unicode="&#x419;" horiz-adv-x="665" d="M476 0 L476 499 L473 499 L198 0 L64 0 L64 700 L189 700 L189 200 L192 200 L467 700 L601 700 L601 0 L476 0 Z M493 824 Q476 790 437.5 765 Q399 740 332 740 Q266 740 226.5 765 Q187 790 171 824 L171 883 L262 883 L262 845 Q264 841 269 835 Q274 829 282.5 823 Q291 817 303 813 Q315 809 332 809 Q348 809 360.5 813 Q373 817 381 823 Q389 829 394 835 Q399 841 401 845 L401 883 L493 883 L493 824 Z " />
<glyph glyph-name="uni041A" unicode="&#x41a;" horiz-adv-x="587" d="M376 369 L558 77 L558 0 L449 0 L267 313 L193 313 L193 0 L59 0 L59 700 L193 700 L193 415 L266 415 L449 700 L550 700 L550 623 L376 369 Z " />
<glyph glyph-name="uni041B" unicode="&#x41b;" horiz-adv-x="653" d="M456 0 L456 598 L289 598 L230 83 Q201 35 152 15.5 Q103 -4 20 -4 L20 100 Q55 100 79 114 Q103 128 112 146 L176 700 L590 700 L590 0 L456 0 Z " />
<glyph glyph-name="uni041C" unicode="&#x41c;" horiz-adv-x="765" d="M576 0 L576 511 L573 511 L423 165 L342 165 L192 511 L189 511 L189 0 L64 0 L64 700 L231 700 L385 346 L388 346 L536 700 L702 700 L702 0 L576 0 Z " />
<glyph glyph-name="uni041D" unicode="&#x41d;" horiz-adv-x="652" d="M454 0 L454 309 L198 309 L198 0 L64 0 L64 700 L198 700 L198 413 L454 413 L454 700 L588 700 L588 0 L454 0 Z " />
<glyph glyph-name="uni041E" unicode="&#x41e;" horiz-adv-x="626" d="M313 714 Q370 714 414 699.5 Q458 685 489.5 662.5 Q521 640 542 613.5 Q563 587 573 562 L573 139 Q563 114 542 87 Q521 60 489.5 37.5 Q458 15 414 0.5 Q370 -14 313 -14 Q256 -14 212 0.5 Q168 15 136.5 37.5 Q105 60 84 87 Q63 114 53 139 L53 562 Q63 587 84 613.5 Q105 640 136.5 662.5 Q168 685 212 699.5 Q256 714 313 714 Z M313 610 Q264 610 231.5 587 Q199 564 187 535 L187 166 Q199 137 231.5 114 Q264 91 313 91 Q363 91 395 114 Q427 137 439 166 L439 535 Q427 564 395 587 Q363 610 313 610 Z " />
<glyph glyph-name="uni041F" unicode="&#x41f;" horiz-adv-x="640" d="M442 0 L442 598 L198 598 L198 0 L64 0 L64 700 L576 700 L576 0 L442 0 Z " />
<glyph glyph-name="uni0420" unicode="&#x420;" horiz-adv-x="584" d="M340 700 Q405 700 459.5 669.5 Q514 639 546 582 L546 382 Q532 358 512.5 336 Q493 314 467 298 Q441 282 409 272.5 Q377 263 340 263 L198 263 L198 0 L64 0 L64 700 L340 700 Z M198 366 L309 366 Q344 366 372.5 381 Q401 396 416 425 L416 538 Q399 570 369.5 583.5 Q340 597 309 597 L198 597 L198 366 Z " />
<glyph glyph-name="uni0421" unicode="&#x421;" horiz-adv-x="606" d="M313 714 Q370 714 413.5 700 Q457 686 487.5 664.5 Q518 643 537.5 618 Q557 593 568 571 L568 505 L453 505 Q441 548 407 579 Q373 610 314 610 Q264 610 232.5 587 Q201 564 187 535 L187 165 Q201 136 232.5 113 Q264 90 314 90 Q373 90 407 121 Q441 152 453 195 L568 195 L568 129 Q557 107 537.5 82 Q518 57 487.5 35.5 Q457 14 413.5 0 Q370 -14 313 -14 Q256 -14 212 0.5 Q168 15 136.5 37.5 Q105 60 84.5 86.5 Q64 113 53 138 L53 562 Q64 587 84.5 613.5 Q105 640 136.5 662.5 Q168 685 212 699.5 Q256 714 313 714 Z " />
<glyph glyph-name="uni0422" unicode="&#x422;" horiz-adv-x="538" d="M336 596 L336 0 L202 0 L202 596 L25 596 L25 700 L513 700 L513 596 L336 596 Z " />
<glyph glyph-name="uni0423" unicode="&#x423;" horiz-adv-x="571" d="M538 623 L319 67 Q284 25 240 9.5 Q196 -6 137 -6 Q120 -6 106 -4.5 Q92 -3 82 -1 L82 96 Q87 96 98 95 Q109 94 121 94 Q151 94 175.5 101.5 Q200 109 214 126 L232 178 L33 623 L33 700 L140 700 L299 327 L434 700 L538 700 L538 623 Z " />
<glyph glyph-name="uni0424" unicode="&#x424;" horiz-adv-x="764" d="M475 646 Q511 646 547 635.5 Q583 625 614.5 606.5 Q646 588 671.5 562.5 Q697 537 712 507 L712 193 Q697 163 671.5 137.5 Q646 112 614.5 93.5 Q583 75 547 64.5 Q511 54 475 54 L442 54 L442 -40 L324 -40 L324 54 L291 54 Q255 54 219 64.5 Q183 75 151.5 93.5 Q120 112 94 137.5 Q68 163 53 193 L53 507 Q68 537 94 562.5 Q120 588 151.5 606.5 Q183 625 219 635.5 Q255 646 291 646 L324 646 L324 740 L442 740 L442 646 L475 646 Z M324 546 L302 546 Q265 546 229.5 528 Q194 510 177 481 L177 219 Q194 190 229.5 172 Q265 154 302 154 L324 154 L324 546 Z M589 481 Q572 510 536 528 Q500 546 463 546 L442 546 L442 154 L463 154 Q500 154 536 172 Q572 190 589 219 L589 481 Z " />
<glyph glyph-name="uni0425" unicode="&#x425;" horiz-adv-x="592" d="M385 358 L553 77 L553 0 L439 0 L294 270 L291 270 L143 0 L38 0 L38 77 L207 357 L45 623 L45 700 L158 700 L299 442 L302 442 L443 700 L547 700 L547 623 L385 358 Z " />
<glyph glyph-name="uni0426" unicode="&#x426;" horiz-adv-x="684" d="M657 102 L657 -132 L543 -132 L543 0 L64 0 L64 700 L198 700 L198 102 L442 102 L442 700 L576 700 L576 102 L657 102 Z " />
<glyph glyph-name="uni0427" unicode="&#x427;" horiz-adv-x="629" d="M565 0 L431 0 L431 276 Q402 258 365 247 Q328 236 282 236 Q236 236 199 246 Q162 256 134 271 Q106 286 86.5 305 Q67 324 57 342 L57 700 L191 700 L191 383 Q202 368 230.5 351 Q259 334 309 334 Q350 334 381.5 346.5 Q413 359 431 375 L431 700 L565 700 L565 0 Z " />
<glyph glyph-name="uni0428" unicode="&#x428;" horiz-adv-x="919" d="M64 0 L64 700 L198 700 L198 102 L393 102 L393 700 L527 700 L527 102 L720 102 L720 700 L854 700 L854 0 L64 0 Z " />
<glyph glyph-name="uni0429" unicode="&#x429;" horiz-adv-x="963" d="M936 102 L936 -132 L822 -132 L822 0 L64 0 L64 700 L198 700 L198 102 L393 102 L393 700 L527 700 L527 102 L720 102 L720 700 L854 700 L854 102 L936 102 Z " />
<glyph glyph-name="uni042A" unicode="&#x42a;" horiz-adv-x="681" d="M436 438 Q467 438 497.5 429.5 Q528 421 555 406 Q582 391 604 370.5 Q626 350 641 324 L641 119 Q630 98 611 77 Q592 56 566.5 38.5 Q541 21 508.5 10.5 Q476 0 437 0 L154 0 L154 599 L25 599 L25 700 L288 700 L288 438 L436 438 Z M288 101 L408 101 Q453 101 478.5 118 Q504 135 518 161 L518 281 Q504 305 475.5 321 Q447 337 413 337 L288 337 L288 101 Z " />
<glyph glyph-name="uni042B" unicode="&#x42b;" horiz-adv-x="823" d="M332 438 Q363 438 393.5 429.5 Q424 421 451 406 Q478 391 500 370 Q522 349 537 324 L537 119 Q525 98 506.5 77 Q488 56 462.5 38.5 Q437 21 404 10.5 Q371 0 332 0 L64 0 L64 700 L198 700 L198 438 L332 438 Z M625 0 L625 700 L759 700 L759 0 L625 0 Z M198 101 L303 101 Q348 101 373.5 118 Q399 135 414 161 L414 281 Q400 305 371 321 Q342 337 309 337 L198 337 L198 101 Z " />
<glyph glyph-name="uni042C" unicode="&#x42c;" horiz-adv-x="591" d="M346 438 Q377 438 407.5 429.5 Q438 421 465 406 Q492 391 514 370 Q536 349 551 324 L551 119 Q540 98 521 77 Q502 56 476.5 38.5 Q451 21 418.5 10.5 Q386 0 347 0 L64 0 L64 700 L198 700 L198 438 L346 438 Z M198 101 L318 101 Q363 101 388.5 118 Q414 135 428 161 L428 281 Q414 305 385.5 321 Q357 337 323 337 L198 337 L198 101 Z " />
<glyph glyph-name="uni042D" unicode="&#x42d;" horiz-adv-x="615" d="M301 610 Q245 610 209 579.5 Q173 549 162 505 L47 505 L47 571 Q58 593 77.5 618 Q97 643 127.5 664.5 Q158 686 201.5 700 Q245 714 302 714 Q359 714 403 699.5 Q447 685 478.5 662.5 Q510 640 530.5 613.5 Q551 587 562 562 L562 138 Q551 113 530.5 86.5 Q510 60 478.5 37.5 Q447 15 403 0.5 Q359 -14 302 -14 Q245 -14 201.5 0 Q158 14 127.5 35.5 Q97 57 77.5 81.5 Q58 106 47 129 L47 195 L162 195 Q174 151 209.5 120.5 Q245 90 301 90 Q349 90 382 112.5 Q415 135 428 165 L428 308 L206 308 L206 409 L428 409 L428 535 Q415 565 382 587.5 Q349 610 301 610 Z " />
<glyph glyph-name="uni042E" unicode="&#x42e;" horiz-adv-x="880" d="M574 714 Q631 714 673.5 699.5 Q716 685 746.5 662.5 Q777 640 797 613.5 Q817 587 827 562 L827 139 Q816 113 796.5 86.5 Q777 60 746.5 37.5 Q716 15 673.5 0.5 Q631 -14 574 -14 Q518 -14 475.5 0.5 Q433 15 402.5 37.5 Q372 60 352 87 Q332 114 322 139 L322 308 L198 308 L198 0 L64 0 L64 700 L198 700 L198 410 L322 410 L322 562 Q332 587 352 613.5 Q372 640 402.5 662.5 Q433 685 475 699.5 Q517 714 574 714 Z M693 536 Q681 566 650.5 588.5 Q620 611 574 611 Q528 611 498 588.5 Q468 566 456 536 L456 165 Q467 135 497.5 112.5 Q528 90 574 90 Q621 90 651 112.5 Q681 135 693 165 L693 536 Z " />
<glyph glyph-name="uni042F" unicode="&#x42f;" horiz-adv-x="605" d="M542 0 L408 0 L408 277 L314 277 L157 0 L49 0 L49 77 L181 289 Q137 303 104 331 Q71 359 50 396 L50 582 Q82 638 136 669 Q190 700 255 700 L542 700 L542 0 Z M285 598 Q250 598 221.5 583 Q193 568 178 539 L178 436 Q193 408 220 392.5 Q247 377 285 377 L408 377 L408 598 L285 598 Z " />
<glyph glyph-name="uni0490" unicode="&#x490;" horiz-adv-x="492" d="M198 598 L198 0 L64 0 L64 700 L354 700 L354 816 L468 816 L468 598 L198 598 Z " />
<glyph glyph-name="uni0406" unicode="&#x406;" horiz-adv-x="262" d="M64 0 L64 700 L198 700 L198 0 L64 0 Z " />
<glyph glyph-name="uni0402" unicode="&#x402;" horiz-adv-x="708" d="M446 450 Q492 450 529 440 Q566 430 594.5 415 Q623 400 642 381 Q661 362 671 344 L671 104 Q661 86 642 67 Q623 48 595 33 Q567 18 530 8 Q493 -2 447 -2 L415 -2 L415 98 Q461 98 494 113.5 Q527 129 537 146 L537 300 Q525 318 494.5 333.5 Q464 349 419 349 Q380 349 348.5 337 Q317 325 298 308 L298 0 L164 0 L164 598 L25 598 L25 700 L483 700 L483 598 L298 598 L298 410 Q327 428 363.5 439 Q400 450 446 450 Z " />
<glyph glyph-name="uni0452" unicode="&#x452;" horiz-adv-x="575" d="M361 651 L361 583 L194 583 L194 484 Q219 505 254 519.5 Q289 534 337 534 Q380 534 411.5 522 Q443 510 465.5 492 Q488 474 502 453 Q516 432 522 416 L522 -35 Q514 -56 496 -80 Q478 -104 449.5 -124 Q421 -144 382 -157 Q343 -170 292 -170 L292 -75 Q334 -75 361.5 -54.5 Q389 -34 398 -6 L398 387 Q394 394 386 402.5 Q378 411 366 418.5 Q354 426 337.5 431 Q321 436 300 436 Q263 436 235.5 423 Q208 410 194 393 L194 0 L70 0 L70 583 L27 583 L27 651 L70 651 L70 700 L194 700 L194 651 L361 651 Z " />
<glyph glyph-name="uni0403" unicode="&#x403;" horiz-adv-x="508" d="M198 598 L198 0 L64 0 L64 700 L483 700 L483 598 L198 598 Z M286 750 L196 750 L196 765 L253 907 L367 907 L367 852 L286 750 Z " />
<glyph glyph-name="uni0453" unicode="&#x453;" horiz-adv-x="443" d="M180 448 L180 0 L56 0 L56 541 L417 541 L417 448 L180 448 Z M264 606 L170 606 L170 621 L228 767 L344 767 L344 712 L264 606 Z " />
<glyph glyph-name="uni0456" unicode="&#x456;" horiz-adv-x="243" d="M59 0 L59 541 L184 541 L184 0 L59 0 Z " />
<glyph glyph-name="uni0491" unicode="&#x491;" horiz-adv-x="448" d="M180 448 L180 0 L56 0 L56 541 L313 541 L313 629 L418 629 L418 448 L180 448 Z " />
<glyph glyph-name="uni0408" unicode="&#x408;" horiz-adv-x="387" d="M326 139 Q313 109 291.5 83.5 Q270 58 239.5 39 Q209 20 168.5 9 Q128 -2 75 -2 Q58 -2 43.5 -1.5 Q29 -1 20 0 L20 102 L65 102 Q113 102 145.5 121 Q178 140 192 172 L192 700 L326 700 L326 139 Z " />
<glyph glyph-name="uni0404" unicode="&#x404;" horiz-adv-x="615" d="M314 610 Q266 610 233 587.5 Q200 565 187 535 L187 409 L409 409 L409 308 L187 308 L187 165 Q200 135 233 112.5 Q266 90 314 90 Q370 90 405.5 120.5 Q441 151 453 195 L568 195 L568 129 Q557 106 537.5 81.5 Q518 57 487.5 35.5 Q457 14 413.5 0 Q370 -14 313 -14 Q256 -14 212 0.5 Q168 15 136.5 37.5 Q105 60 84.5 86.5 Q64 113 53 138 L53 562 Q64 587 84.5 613.5 Q105 640 136.5 662.5 Q168 685 212 699.5 Q256 714 313 714 Q370 714 413.5 700 Q457 686 487.5 664.5 Q518 643 537.5 618 Q557 593 568 571 L568 505 L453 505 Q442 549 406 579.5 Q370 610 314 610 Z " />
</font>
</svg>
