<?xml version="1.0" encoding="UTF-8"?>
<svg xmlns="http://www.w3.org/2000/svg" xmlns:xlink="http://www.w3.org/1999/xlink" version="1.2" >
<font id="Cadillac Sans Medium Italic">
<font-face  font-family="Cadillac Sans" units-per-em="1000" ascent="750" descent="-250" font-style="italic" font-weight="500" font-stretch="normal" slope="-12" cap-height="700" x-height="540" underline-position="-75" underline-thickness="50" />
<missing-glyph  horiz-adv-x="601" d="M455 -100 L-12 -100 L180 800 L647 800 L455 -100 Z M256 720 L98 -20 L380 -20 L538 720 L256 720 Z " />
<glyph glyph-name=".null" d="" />
<glyph glyph-name="nonmarkingreturn" unicode="&#xd;" horiz-adv-x="196" d="" />
<glyph glyph-name="space" unicode="&#x20;" horiz-adv-x="205" d="" />
<glyph glyph-name="A" unicode="A" horiz-adv-x="619" d="M550 75 L534 0 L425 0 L411 179 L170 179 L81 0 L-31 0 L-15 75 L311 700 L490 700 L550 75 Z M404 280 L380 596 L377 596 L220 280 L404 280 Z " />
<glyph glyph-name="B" unicode="B" horiz-adv-x="597" d="M482 365 Q508 353 528.5 334 Q549 315 557 290 L520 119 Q490 68 432 34 Q374 0 308 0 L7 0 L157 700 L414 700 Q487 700 539 665 Q591 630 606 582 L578 445 Q563 419 536.5 398 Q510 377 482 365 Z M462 467 L479 545 Q462 601 378 601 L266 601 L225 409 L350 409 Q383 409 412.5 424 Q442 439 462 467 Z M432 263 Q423 288 395.5 302.5 Q368 317 327 317 L206 317 L158 99 L277 99 Q326 99 357.5 115 Q389 131 411 161 L432 263 Z " />
<glyph glyph-name="C" unicode="C" horiz-adv-x="606" d="M633 571 L618 506 L510 506 Q508 551 475 582 Q442 613 385 613 Q337 613 299.5 591 Q262 569 241 535 L162 165 Q168 133 199.5 110.5 Q231 88 279 88 Q386 88 437 194 L552 194 L537 129 Q505 69 439.5 27.5 Q374 -14 270 -14 Q198 -14 145.5 9 Q93 32 63.5 67 Q34 102 26 138 L117 562 Q152 624 220.5 669 Q289 714 393 714 Q464 714 515 691.5 Q566 669 594.5 636 Q623 603 633 571 Z " />
<glyph glyph-name="D" unicode="D" horiz-adv-x="627" d="M636 562 L545 138 Q512 75 444.5 37.5 Q377 0 281 0 L7 0 L157 700 L412 700 Q509 700 566 659.5 Q623 619 636 562 Z M266 600 L159 100 L274 100 Q325 100 363.5 121 Q402 142 422 174 L500 532 Q480 600 379 600 L266 600 Z " />
<glyph glyph-name="E" unicode="E" horiz-adv-x="538" d="M558 599 L265 599 L225 409 L498 409 L476 309 L203 309 L159 101 L459 101 L438 0 L7 0 L157 700 L580 700 L558 599 Z " />
<glyph glyph-name="F" unicode="F" horiz-adv-x="515" d="M548 599 L265 599 L223 405 L492 405 L470 304 L202 304 L137 0 L7 0 L157 700 L569 700 L548 599 Z " />
<glyph glyph-name="G" unicode="G" horiz-adv-x="628" d="M241 535 L162 165 Q168 133 198.5 110.5 Q229 88 278 88 Q327 88 364 108.5 Q401 129 422 162 L448 281 L327 281 L348 381 L591 381 L510 0 L404 0 L415 52 Q388 23 346.5 4.5 Q305 -14 249 -14 Q186 -14 138 9 Q90 32 62 67.5 Q34 103 26 139 L117 562 Q150 623 219.5 668.5 Q289 714 393 714 Q464 714 515 691.5 Q566 669 595 636 Q624 603 633 571 L618 506 L509 506 Q505 553 473.5 583 Q442 613 385 613 Q338 613 300 591 Q262 569 241 535 Z " />
<glyph glyph-name="H" unicode="H" horiz-adv-x="651" d="M528 0 L398 0 L464 311 L203 311 L137 0 L7 0 L157 700 L287 700 L225 411 L486 411 L548 700 L678 700 L528 0 Z " />
<glyph glyph-name="I" unicode="I" horiz-adv-x="260" d="M137 0 L7 0 L157 700 L287 700 L137 0 Z " />
<glyph glyph-name="J" unicode="J" horiz-adv-x="387" d="M297 139 Q218 -2 29 -2 Q-12 -2 -38 0 L-17 99 L22 99 Q73 99 112 119 Q151 139 175 173 L287 700 L417 700 L297 139 Z " />
<glyph glyph-name="K" unicode="K" horiz-adv-x="606" d="M518 0 L426 0 L284 325 L189 241 L137 0 L7 0 L157 700 L287 700 L226 415 L541 700 L640 700 L624 625 L385 414 L534 75 L518 0 Z " />
<glyph glyph-name="L" unicode="L" horiz-adv-x="456" d="M159 101 L398 101 L376 0 L7 0 L157 700 L287 700 L159 101 Z " />
<glyph glyph-name="M" unicode="M" horiz-adv-x="802" d="M556 0 L673 544 L670 544 L418 155 L335 155 L248 544 L245 544 L128 0 L7 0 L157 700 L327 700 L409 330 L412 330 L643 700 L828 700 L679 0 L556 0 Z " />
<glyph glyph-name="N" unicode="N" horiz-adv-x="665" d="M394 0 L242 515 L239 515 L128 0 L7 0 L157 700 L305 700 L456 185 L459 185 L570 700 L691 700 L541 0 L394 0 Z " />
<glyph glyph-name="O" unicode="O" horiz-adv-x="626" d="M635 562 L544 139 Q505 73 438 29.5 Q371 -14 267 -14 Q196 -14 144 9 Q92 32 63 67 Q34 102 26 139 L117 562 Q154 626 222 670 Q290 714 393 714 Q464 714 516 691 Q568 668 597.5 633 Q627 598 635 562 Z M241 535 L162 165 Q167 133 198.5 110.5 Q230 88 278 88 Q325 88 361.5 110 Q398 132 420 165 L499 535 Q493 568 462.5 590.5 Q432 613 383 613 Q335 613 298.5 590.5 Q262 568 241 535 Z " />
<glyph glyph-name="P" unicode="P" horiz-adv-x="582" d="M610 582 L568 383 Q490 265 337 265 L194 265 L137 0 L7 0 L157 700 L403 700 Q562 700 610 582 Z M476 542 Q467 571 440 585.5 Q413 600 379 600 L266 600 L215 365 L324 365 Q367 365 398.5 380 Q430 395 452 428 L476 542 Z " />
<glyph glyph-name="Q" unicode="Q" horiz-adv-x="626" d="M369 -1 Q379 -26 401 -41 Q423 -56 444 -56 L506 -56 L486 -148 L416 -148 Q378 -148 342 -130 Q306 -112 281.5 -81 Q257 -50 251 -14 Q184 -11 136 12.5 Q88 36 61 70 Q34 104 26 139 L117 562 Q154 626 222 670 Q290 714 393 714 Q464 714 516 691 Q568 668 597.5 633 Q627 598 635 562 L544 139 Q481 33 369 -1 Z M420 165 L499 535 Q493 568 462.5 590.5 Q432 613 383 613 Q335 613 298.5 590.5 Q262 568 241 535 L162 165 Q167 133 198.5 110.5 Q230 88 278 88 Q325 88 361.5 110 Q398 132 420 165 Z " />
<glyph glyph-name="R" unicode="R" horiz-adv-x="601" d="M615 582 L578 405 Q520 317 425 293 L518 75 L502 0 L408 0 L293 285 L198 285 L137 0 L7 0 L157 700 L413 700 Q493 700 543.5 669 Q594 638 615 582 Z M483 540 Q474 569 448 584.5 Q422 600 386 600 L266 600 L218 381 L329 381 Q374 381 408.5 396.5 Q443 412 462 441 L483 540 Z " />
<glyph glyph-name="S" unicode="S" horiz-adv-x="591" d="M602 595 L588 530 L479 530 Q472 566 443 589.5 Q414 613 362 613 Q324 613 292 596 Q260 579 242 556 L223 469 Q229 453 244.5 443 Q260 433 304 419 L375 397 Q456 373 490.5 345.5 Q525 318 542 276 L508 119 Q421 -14 248 -14 Q176 -14 125 7.5 Q74 29 45.5 59.5 Q17 90 8 118 L22 183 L131 183 Q138 140 171 114 Q204 88 259 88 Q306 88 339 107.5 Q372 127 392 157 L409 238 Q404 257 384 270.5 Q364 284 319 298 L243 322 Q173 342 141.5 365.5 Q110 389 90 430 L125 595 Q160 644 224 679 Q288 714 381 714 Q443 714 490.5 695.5 Q538 677 565.5 649.5 Q593 622 602 595 Z " />
<glyph glyph-name="T" unicode="T" horiz-adv-x="537" d="M582 599 L404 599 L276 0 L146 0 L274 599 L95 599 L117 700 L604 700 L582 599 Z " />
<glyph glyph-name="U" unicode="U" horiz-adv-x="641" d="M551 139 Q518 79 446.5 32.5 Q375 -14 270 -14 Q166 -14 107 32 Q48 78 33 139 L153 700 L283 700 L169 167 Q175 134 203.5 112 Q232 90 280 90 Q328 90 366 112 Q404 134 427 167 L541 700 L671 700 L551 139 Z " />
<glyph glyph-name="V" unicode="V" horiz-adv-x="624" d="M671 625 L342 0 L164 0 L104 625 L120 700 L229 700 L273 121 L276 121 L569 700 L687 700 L671 625 Z " />
<glyph glyph-name="W" unicode="W" horiz-adv-x="910" d="M693 0 L518 0 L503 498 L500 498 L272 0 L101 0 L109 625 L125 700 L239 700 L222 135 L225 135 L482 700 L604 700 L619 135 L622 135 L848 700 L969 700 L953 625 L693 0 Z " />
<glyph glyph-name="X" unicode="X" horiz-adv-x="591" d="M396 356 L510 75 L494 0 L392 0 L300 273 L297 273 L90 0 L-19 0 L-3 75 L229 360 L121 625 L138 700 L238 700 L328 439 L331 439 L528 700 L637 700 L621 625 L396 356 Z " />
<glyph glyph-name="Y" unicode="Y" horiz-adv-x="570" d="M351 287 L290 0 L159 0 L223 299 L106 625 L122 700 L218 700 L310 415 L313 415 L523 700 L631 700 L615 625 L351 287 Z " />
<glyph glyph-name="Z" unicode="Z" horiz-adv-x="560" d="M164 101 L483 101 L462 0 L-18 0 L0 85 L429 599 L116 599 L138 700 L611 700 L594 615 L164 101 Z " />
<glyph glyph-name="Agrave" unicode="&#xc0;" horiz-adv-x="619" d="M550 75 L534 0 L425 0 L411 179 L170 179 L81 0 L-31 0 L-15 75 L311 700 L490 700 L550 75 Z M404 280 L380 596 L377 596 L220 280 L404 280 Z M444 750 L360 750 L302 853 L314 907 L418 907 L448 766 L444 750 Z " />
<glyph glyph-name="Aacute" unicode="&#xc1;" horiz-adv-x="619" d="M550 75 L534 0 L425 0 L411 179 L170 179 L81 0 L-31 0 L-15 75 L311 700 L490 700 L550 75 Z M404 280 L380 596 L377 596 L220 280 L404 280 Z M447 750 L355 750 L359 766 L447 907 L562 907 L549 853 L447 750 Z " />
<glyph glyph-name="Acircumflex" unicode="&#xc2;" horiz-adv-x="619" d="M550 75 L534 0 L425 0 L411 179 L170 179 L81 0 L-31 0 L-15 75 L311 700 L490 700 L550 75 Z M404 280 L380 596 L377 596 L220 280 L404 280 Z M574 750 L495 750 L439 850 L341 750 L251 750 L255 766 L369 907 L524 907 L578 766 L574 750 Z " />
<glyph glyph-name="Atilde" unicode="&#xc3;" horiz-adv-x="619" d="M550 75 L534 0 L425 0 L411 179 L170 179 L81 0 L-31 0 L-15 75 L311 700 L490 700 L550 75 Z M404 280 L380 596 L377 596 L220 280 L404 280 Z M446 848 Q460 837 468.5 832.5 Q477 828 488 828 Q515 828 531 854 L536 873 L607 873 L596 822 Q582 792 552 771.5 Q522 751 482 751 Q456 751 439.5 759 Q423 767 405 782 Q394 792 385 797 Q376 802 364 802 Q338 802 321 776 L317 756 L245 756 L256 807 Q270 839 300 859 Q330 879 369 879 Q395 879 411.5 871 Q428 863 446 848 Z " />
<glyph glyph-name="Adieresis" unicode="&#xc4;" horiz-adv-x="619" d="M550 75 L534 0 L425 0 L411 179 L170 179 L81 0 L-31 0 L-15 75 L311 700 L490 700 L550 75 Z M404 280 L380 596 L377 596 L220 280 L404 280 Z M391 858 L375 784 Q351 760 308 760 Q269 760 252 784 L268 858 Q277 867 293.5 875 Q310 883 334 883 Q375 883 391 858 Z M603 858 L587 784 Q560 760 520 760 Q484 760 463 784 L479 858 Q488 867 505 875 Q522 883 546 883 Q584 883 603 858 Z " />
<glyph glyph-name="Amacron" unicode="&#x100;" horiz-adv-x="619" d="M550 75 L534 0 L425 0 L411 179 L170 179 L81 0 L-31 0 L-15 75 L311 700 L490 700 L550 75 Z M404 280 L380 596 L377 596 L220 280 L404 280 Z M581 766 L250 766 L268 849 L598 849 L581 766 Z " />
<glyph glyph-name="Abreve" unicode="&#x102;" horiz-adv-x="619" d="M550 75 L534 0 L425 0 L411 179 L170 179 L81 0 L-31 0 L-15 75 L311 700 L490 700 L550 75 Z M404 280 L380 596 L377 596 L220 280 L404 280 Z M587 824 Q566 788 524.5 764.5 Q483 741 422 741 Q360 741 320 764.5 Q280 788 268 824 L281 883 L370 883 L361 845 Q364 832 379 820 Q394 808 424 808 Q455 808 474 819.5 Q493 831 502 845 L511 883 L600 883 L587 824 Z " />
<glyph glyph-name="Aring" unicode="&#xc5;" horiz-adv-x="619" d="M550 75 L534 0 L425 0 L411 179 L170 179 L81 0 L-31 0 L-15 75 L311 700 L324 700 Q299 715 289 739 L308 830 Q325 856 357.5 872.5 Q390 889 430 889 Q471 889 501 872.5 Q531 856 541 830 L523 739 Q505 714 479 700 L490 700 L550 75 Z M352 758 Q356 748 369 740.5 Q382 733 404 733 Q426 733 442 740.5 Q458 748 466 758 L478 812 Q474 821 461 828.5 Q448 836 426 836 Q388 836 364 812 L352 758 Z M404 280 L380 596 L377 596 L220 280 L404 280 Z " />
<glyph glyph-name="Aogonek" unicode="&#x104;" horiz-adv-x="619" d="M417 -103 L410 -130 Q414 -137 426.5 -142 Q439 -147 454 -147 Q479 -147 505 -138 L490 -206 Q475 -214 459 -217.5 Q443 -221 418 -221 Q380 -221 350 -207 Q320 -193 313 -168 L330 -93 Q341 -76 367.5 -49.5 Q394 -23 427 0 L425 0 L411 179 L170 179 L81 0 L-31 0 L-15 75 L311 700 L490 700 L550 75 L534 0 Q484 -33 455.5 -59.5 Q427 -86 417 -103 Z M404 280 L380 596 L377 596 L220 280 L404 280 Z " />
<glyph glyph-name="AE" unicode="&#xc6;" horiz-adv-x="860" d="M589 599 L548 409 L821 409 L799 309 L527 309 L482 101 L781 101 L760 0 L330 0 L371 192 L198 192 L77 0 L-31 0 L-15 75 L391 700 L902 700 L880 599 L589 599 Z M393 292 L459 601 L455 601 L261 292 L393 292 Z " />
<glyph glyph-name="Cacute" unicode="&#x106;" horiz-adv-x="606" d="M633 571 L618 506 L510 506 Q508 551 475 582 Q442 613 385 613 Q337 613 299.5 591 Q262 569 241 535 L162 165 Q168 133 199.5 110.5 Q231 88 279 88 Q386 88 437 194 L552 194 L537 129 Q505 69 439.5 27.5 Q374 -14 270 -14 Q198 -14 145.5 9 Q93 32 63.5 67 Q34 102 26 138 L117 562 Q152 624 220.5 669 Q289 714 393 714 Q464 714 515 691.5 Q566 669 594.5 636 Q623 603 633 571 Z M453 750 L361 750 L365 766 L453 907 L568 907 L555 853 L453 750 Z " />
<glyph glyph-name="Ccircumflex" unicode="&#x108;" horiz-adv-x="606" d="M633 571 L618 506 L510 506 Q508 551 475 582 Q442 613 385 613 Q337 613 299.5 591 Q262 569 241 535 L162 165 Q168 133 199.5 110.5 Q231 88 279 88 Q386 88 437 194 L552 194 L537 129 Q505 69 439.5 27.5 Q374 -14 270 -14 Q198 -14 145.5 9 Q93 32 63.5 67 Q34 102 26 138 L117 562 Q152 624 220.5 669 Q289 714 393 714 Q464 714 515 691.5 Q566 669 594.5 636 Q623 603 633 571 Z M580 750 L501 750 L445 850 L347 750 L257 750 L261 766 L375 907 L530 907 L584 766 L580 750 Z " />
<glyph glyph-name="Ccaron" unicode="&#x10c;" horiz-adv-x="606" d="M633 571 L618 506 L510 506 Q508 551 475 582 Q442 613 385 613 Q337 613 299.5 591 Q262 569 241 535 L162 165 Q168 133 199.5 110.5 Q231 88 279 88 Q386 88 437 194 L552 194 L537 129 Q505 69 439.5 27.5 Q374 -14 270 -14 Q198 -14 145.5 9 Q93 32 63.5 67 Q34 102 26 138 L117 562 Q152 624 220.5 669 Q289 714 393 714 Q464 714 515 691.5 Q566 669 594.5 636 Q623 603 633 571 Z M497 750 L341 750 L287 891 L291 907 L369 907 L425 807 L523 907 L614 907 L610 891 L497 750 Z " />
<glyph glyph-name="Cdotaccent" unicode="&#x10a;" horiz-adv-x="606" d="M633 571 L618 506 L510 506 Q508 551 475 582 Q442 613 385 613 Q337 613 299.5 591 Q262 569 241 535 L162 165 Q168 133 199.5 110.5 Q231 88 279 88 Q386 88 437 194 L552 194 L537 129 Q505 69 439.5 27.5 Q374 -14 270 -14 Q198 -14 145.5 9 Q93 32 63.5 67 Q34 102 26 138 L117 562 Q152 624 220.5 669 Q289 714 393 714 Q464 714 515 691.5 Q566 669 594.5 636 Q623 603 633 571 Z M508 856 L495 798 Q487 785 467.5 775 Q448 765 421 765 Q395 765 380 774.5 Q365 784 362 798 L375 856 Q384 869 403.5 879 Q423 889 448 889 Q474 889 489 879 Q504 869 508 856 Z " />
<glyph glyph-name="Ccedilla" unicode="&#xc7;" horiz-adv-x="606" d="M241 535 L162 165 Q168 133 199.5 110.5 Q231 88 279 88 Q386 88 437 194 L552 194 L537 129 Q506 71 443.5 30 Q381 -11 282 -14 L262 -47 L271 -47 Q302 -47 322.5 -61.5 Q343 -76 348 -95 L332 -169 Q295 -225 210 -225 Q180 -225 152.5 -219 Q125 -213 111 -204 L143 -149 Q175 -164 213 -164 Q232 -164 245 -158 Q258 -152 264 -142 L270 -117 Q268 -109 256.5 -103.5 Q245 -98 227 -98 L167 -98 L216 -10 Q135 2 86 45.5 Q37 89 26 138 L117 562 Q152 624 220.5 669 Q289 714 393 714 Q464 714 515 691.5 Q566 669 594.5 636 Q623 603 633 571 L618 506 L510 506 Q508 551 475 582 Q442 613 385 613 Q337 613 299.5 591 Q262 569 241 535 Z " />
<glyph glyph-name="Dcaron" unicode="&#x10e;" horiz-adv-x="627" d="M636 562 L545 138 Q512 75 444.5 37.5 Q377 0 281 0 L7 0 L157 700 L412 700 Q509 700 566 659.5 Q623 619 636 562 Z M266 600 L159 100 L274 100 Q325 100 363.5 121 Q402 142 422 174 L500 532 Q480 600 379 600 L266 600 Z M495 750 L339 750 L285 891 L289 907 L367 907 L423 807 L521 907 L612 907 L608 891 L495 750 Z " />
<glyph glyph-name="Dcroat" unicode="&#x110;" horiz-adv-x="647" d="M656 562 L565 138 Q532 75 464.5 37.5 Q397 0 301 0 L27 0 L93 307 L43 307 L65 405 L114 405 L177 700 L432 700 Q529 700 585.5 659.5 Q642 619 656 562 Z M519 532 Q510 564 480.5 582 Q451 600 399 600 L285 600 L244 405 L382 405 L360 307 L223 307 L178 100 L294 100 Q345 100 383.5 121 Q422 142 442 174 L519 532 Z " />
<glyph glyph-name="Egrave" unicode="&#xc8;" horiz-adv-x="538" d="M558 599 L265 599 L225 409 L498 409 L476 309 L203 309 L159 101 L459 101 L438 0 L7 0 L157 700 L580 700 L558 599 Z M416 750 L332 750 L274 853 L286 907 L390 907 L420 766 L416 750 Z " />
<glyph glyph-name="Eacute" unicode="&#xc9;" horiz-adv-x="538" d="M558 599 L265 599 L225 409 L498 409 L476 309 L203 309 L159 101 L459 101 L438 0 L7 0 L157 700 L580 700 L558 599 Z M419 750 L327 750 L331 766 L419 907 L534 907 L521 853 L419 750 Z " />
<glyph glyph-name="Ecircumflex" unicode="&#xca;" horiz-adv-x="538" d="M558 599 L265 599 L225 409 L498 409 L476 309 L203 309 L159 101 L459 101 L438 0 L7 0 L157 700 L580 700 L558 599 Z M546 750 L467 750 L411 850 L313 750 L223 750 L227 766 L341 907 L496 907 L550 766 L546 750 Z " />
<glyph glyph-name="Ecaron" unicode="&#x11a;" horiz-adv-x="538" d="M558 599 L265 599 L225 409 L498 409 L476 309 L203 309 L159 101 L459 101 L438 0 L7 0 L157 700 L580 700 L558 599 Z M463 750 L307 750 L253 891 L257 907 L335 907 L391 807 L489 907 L580 907 L576 891 L463 750 Z " />
<glyph glyph-name="Edieresis" unicode="&#xcb;" horiz-adv-x="538" d="M558 599 L265 599 L225 409 L498 409 L476 309 L203 309 L159 101 L459 101 L438 0 L7 0 L157 700 L580 700 L558 599 Z M363 858 L347 784 Q323 760 280 760 Q241 760 224 784 L240 858 Q249 867 265.5 875 Q282 883 306 883 Q347 883 363 858 Z M575 858 L559 784 Q532 760 492 760 Q456 760 435 784 L451 858 Q460 867 477 875 Q494 883 518 883 Q556 883 575 858 Z " />
<glyph glyph-name="Emacron" unicode="&#x112;" horiz-adv-x="538" d="M558 599 L265 599 L225 409 L498 409 L476 309 L203 309 L159 101 L459 101 L438 0 L7 0 L157 700 L580 700 L558 599 Z M553 766 L222 766 L240 849 L570 849 L553 766 Z " />
<glyph glyph-name="Ebreve" unicode="&#x114;" horiz-adv-x="538" d="M558 599 L265 599 L225 409 L498 409 L476 309 L203 309 L159 101 L459 101 L438 0 L7 0 L157 700 L580 700 L558 599 Z M559 824 Q538 788 496.5 764.5 Q455 741 394 741 Q332 741 292 764.5 Q252 788 240 824 L253 883 L342 883 L333 845 Q336 832 351 820 Q366 808 396 808 Q427 808 446 819.5 Q465 831 474 845 L483 883 L572 883 L559 824 Z " />
<glyph glyph-name="Edotaccent" unicode="&#x116;" horiz-adv-x="538" d="M558 599 L265 599 L225 409 L498 409 L476 309 L203 309 L159 101 L459 101 L438 0 L7 0 L157 700 L580 700 L558 599 Z M474 856 L461 798 Q453 785 433.5 775 Q414 765 387 765 Q361 765 346 774.5 Q331 784 328 798 L341 856 Q350 869 369.5 879 Q389 889 414 889 Q440 889 455 879 Q470 869 474 856 Z " />
<glyph glyph-name="Eogonek" unicode="&#x118;" horiz-adv-x="538" d="M265 599 L225 409 L498 409 L476 309 L203 309 L159 101 L459 101 L438 0 Q387 -33 358.5 -59.5 Q330 -86 320 -103 L313 -130 Q317 -137 329.5 -142 Q342 -147 357 -147 Q382 -147 408 -138 L393 -206 Q378 -214 362 -217.5 Q346 -221 321 -221 Q283 -221 253 -206.5 Q223 -192 216 -168 L233 -93 Q245 -74 273.5 -48.5 Q302 -23 340 0 L7 0 L157 700 L580 700 L558 599 L265 599 Z " />
<glyph glyph-name="Gcircumflex" unicode="&#x11c;" horiz-adv-x="628" d="M241 535 L162 165 Q168 133 198.5 110.5 Q229 88 278 88 Q327 88 364 108.5 Q401 129 422 162 L448 281 L327 281 L348 381 L591 381 L510 0 L404 0 L415 52 Q388 23 346.5 4.5 Q305 -14 249 -14 Q186 -14 138 9 Q90 32 62 67.5 Q34 103 26 139 L117 562 Q150 623 219.5 668.5 Q289 714 393 714 Q464 714 515 691.5 Q566 669 595 636 Q624 603 633 571 L618 506 L509 506 Q505 553 473.5 583 Q442 613 385 613 Q338 613 300 591 Q262 569 241 535 Z M573 750 L494 750 L438 850 L340 750 L250 750 L254 766 L368 907 L523 907 L577 766 L573 750 Z " />
<glyph glyph-name="Gbreve" unicode="&#x11e;" horiz-adv-x="628" d="M241 535 L162 165 Q168 133 198.5 110.5 Q229 88 278 88 Q327 88 364 108.5 Q401 129 422 162 L448 281 L327 281 L348 381 L591 381 L510 0 L404 0 L415 52 Q388 23 346.5 4.5 Q305 -14 249 -14 Q186 -14 138 9 Q90 32 62 67.5 Q34 103 26 139 L117 562 Q150 623 219.5 668.5 Q289 714 393 714 Q464 714 515 691.5 Q566 669 595 636 Q624 603 633 571 L618 506 L509 506 Q505 553 473.5 583 Q442 613 385 613 Q338 613 300 591 Q262 569 241 535 Z M586 824 Q565 788 523.5 764.5 Q482 741 421 741 Q359 741 319 764.5 Q279 788 267 824 L280 883 L369 883 L360 845 Q363 832 378 820 Q393 808 423 808 Q454 808 473 819.5 Q492 831 501 845 L510 883 L599 883 L586 824 Z " />
<glyph glyph-name="Gdotaccent" unicode="&#x120;" horiz-adv-x="628" d="M241 535 L162 165 Q168 133 198.5 110.5 Q229 88 278 88 Q327 88 364 108.5 Q401 129 422 162 L448 281 L327 281 L348 381 L591 381 L510 0 L404 0 L415 52 Q388 23 346.5 4.5 Q305 -14 249 -14 Q186 -14 138 9 Q90 32 62 67.5 Q34 103 26 139 L117 562 Q150 623 219.5 668.5 Q289 714 393 714 Q464 714 515 691.5 Q566 669 595 636 Q624 603 633 571 L618 506 L509 506 Q505 553 473.5 583 Q442 613 385 613 Q338 613 300 591 Q262 569 241 535 Z M501 856 L488 798 Q480 785 460.5 775 Q441 765 414 765 Q388 765 373 774.5 Q358 784 355 798 L368 856 Q377 869 396.5 879 Q416 889 441 889 Q467 889 482 879 Q497 869 501 856 Z " />
<glyph glyph-name="Gcommaaccent" unicode="&#x122;" horiz-adv-x="628" d="M241 535 L162 165 Q168 133 198.5 110.5 Q229 88 278 88 Q327 88 364 108.5 Q401 129 422 162 L448 281 L327 281 L348 381 L591 381 L510 0 L404 0 L415 52 Q388 23 346.5 4.5 Q305 -14 249 -14 Q186 -14 138 9 Q90 32 62 67.5 Q34 103 26 139 L117 562 Q150 623 219.5 668.5 Q289 714 393 714 Q464 714 515 691.5 Q566 669 595 636 Q624 603 633 571 L618 506 L509 506 Q505 553 473.5 583 Q442 613 385 613 Q338 613 300 591 Q262 569 241 535 Z M160 -182 L188 -182 Q214 -182 223 -169 L228 -146 Q205 -146 188 -141.5 Q171 -137 167 -129 L179 -74 Q186 -66 202.5 -60.5 Q219 -55 245 -55 Q288 -55 305 -74 L284 -174 Q274 -194 251.5 -208.5 Q229 -223 193 -223 L152 -223 L160 -182 Z " />
<glyph glyph-name="Hcircumflex" unicode="&#x124;" horiz-adv-x="651" d="M528 0 L398 0 L464 311 L203 311 L137 0 L7 0 L157 700 L287 700 L225 411 L486 411 L548 700 L678 700 L528 0 Z M590 750 L511 750 L455 850 L357 750 L267 750 L271 766 L385 907 L540 907 L594 766 L590 750 Z " />
<glyph glyph-name="Hbar" unicode="&#x126;" horiz-adv-x="651" d="M692 544 L654 544 L537 0 L407 0 L473 311 L213 311 L146 0 L16 0 L133 544 L92 544 L109 624 L150 624 L166 700 L296 700 L280 624 L541 624 L557 700 L687 700 L671 624 L710 624 L692 544 Z M524 544 L263 544 L234 411 L495 411 L524 544 Z " />
<glyph glyph-name="Igrave" unicode="&#xcc;" horiz-adv-x="260" d="M137 0 L7 0 L157 700 L287 700 L137 0 Z M265 750 L181 750 L123 853 L135 907 L239 907 L269 766 L265 750 Z " />
<glyph glyph-name="Iacute" unicode="&#xcd;" horiz-adv-x="260" d="M137 0 L7 0 L157 700 L287 700 L137 0 Z M268 750 L176 750 L180 766 L268 907 L383 907 L370 853 L268 750 Z " />
<glyph glyph-name="Icircumflex" unicode="&#xce;" horiz-adv-x="260" d="M137 0 L7 0 L157 700 L287 700 L137 0 Z M395 750 L316 750 L260 850 L162 750 L72 750 L76 766 L190 907 L345 907 L399 766 L395 750 Z " />
<glyph glyph-name="Itilde" unicode="&#x128;" horiz-adv-x="260" d="M137 0 L7 0 L157 700 L287 700 L137 0 Z M267 848 Q281 837 289.5 832.5 Q298 828 309 828 Q336 828 352 854 L357 873 L428 873 L417 822 Q403 792 373 771.5 Q343 751 303 751 Q277 751 260.5 759 Q244 767 226 782 Q215 792 206 797 Q197 802 185 802 Q159 802 142 776 L138 756 L66 756 L77 807 Q91 839 121 859 Q151 879 190 879 Q216 879 232.5 871 Q249 863 267 848 Z " />
<glyph glyph-name="Idieresis" unicode="&#xcf;" horiz-adv-x="260" d="M137 0 L7 0 L157 700 L287 700 L137 0 Z M212 858 L196 784 Q172 760 129 760 Q90 760 73 784 L89 858 Q98 867 114.5 875 Q131 883 155 883 Q196 883 212 858 Z M424 858 L408 784 Q381 760 341 760 Q305 760 284 784 L300 858 Q309 867 326 875 Q343 883 367 883 Q405 883 424 858 Z " />
<glyph glyph-name="Imacron" unicode="&#x12a;" horiz-adv-x="260" d="M137 0 L7 0 L157 700 L287 700 L137 0 Z M402 766 L71 766 L89 849 L419 849 L402 766 Z " />
<glyph glyph-name="Ibreve" unicode="&#x12c;" horiz-adv-x="260" d="M137 0 L7 0 L157 700 L287 700 L137 0 Z M408 824 Q387 788 345.5 764.5 Q304 741 243 741 Q181 741 141 764.5 Q101 788 89 824 L102 883 L191 883 L182 845 Q185 832 200 820 Q215 808 245 808 Q276 808 295 819.5 Q314 831 323 845 L332 883 L421 883 L408 824 Z " />
<glyph glyph-name="Iogonek" unicode="&#x12e;" horiz-adv-x="260" d="M20 -103 L13 -130 Q16 -137 29 -142 Q42 -147 57 -147 Q83 -147 107 -138 L92 -206 Q78 -214 62 -217.5 Q46 -221 20 -221 Q-18 -221 -48 -207 Q-78 -193 -84 -168 L-67 -93 Q-55 -75 -27 -49 Q1 -23 37 0 L7 0 L157 700 L287 700 L137 0 Q87 -33 58.5 -59.5 Q30 -86 20 -103 Z " />
<glyph glyph-name="IJ" unicode="&#x132;" horiz-adv-x="647" d="M137 0 L7 0 L157 700 L287 700 L137 0 Z M557 139 Q478 -2 289 -2 Q248 -2 222 0 L243 99 L282 99 Q333 99 372 119 Q411 139 435 173 L547 700 L677 700 L557 139 Z " />
<glyph glyph-name="Jcircumflex" unicode="&#x134;" horiz-adv-x="387" d="M297 139 Q218 -2 29 -2 Q-12 -2 -38 0 L-17 99 L22 99 Q73 99 112 119 Q151 139 175 173 L287 700 L417 700 L297 139 Z M525 750 L446 750 L390 850 L292 750 L202 750 L206 766 L320 907 L475 907 L529 766 L525 750 Z " />
<glyph glyph-name="Kcommaaccent" unicode="&#x136;" horiz-adv-x="606" d="M518 0 L426 0 L284 325 L189 241 L137 0 L7 0 L157 700 L287 700 L226 415 L541 700 L640 700 L624 625 L385 414 L534 75 L518 0 Z M175 -182 L203 -182 Q229 -182 238 -169 L243 -146 Q220 -146 203 -141.5 Q186 -137 182 -129 L194 -74 Q201 -66 217.5 -60.5 Q234 -55 260 -55 Q303 -55 320 -74 L299 -174 Q289 -194 266.5 -208.5 Q244 -223 208 -223 L167 -223 L175 -182 Z " />
<glyph glyph-name="Lacute" unicode="&#x139;" horiz-adv-x="456" d="M159 101 L398 101 L376 0 L7 0 L157 700 L287 700 L159 101 Z M278 750 L186 750 L190 766 L278 907 L393 907 L380 853 L278 750 Z " />
<glyph glyph-name="Lcaron" unicode="&#x13d;" horiz-adv-x="462" d="M159 101 L398 101 L376 0 L7 0 L157 700 L287 700 L159 101 Z M474 637 L403 505 L328 505 L332 520 L390 700 L487 700 L474 637 Z " />
<glyph glyph-name="Lcommaaccent" unicode="&#x13b;" horiz-adv-x="456" d="M159 101 L398 101 L376 0 L7 0 L157 700 L287 700 L159 101 Z M73 -182 L101 -182 Q127 -182 136 -169 L141 -146 Q118 -146 101 -141.5 Q84 -137 80 -129 L92 -74 Q99 -66 115.5 -60.5 Q132 -55 158 -55 Q201 -55 218 -74 L197 -174 Q187 -194 164.5 -208.5 Q142 -223 106 -223 L65 -223 L73 -182 Z " />
<glyph glyph-name="Lslash" unicode="&#x141;" horiz-adv-x="490" d="M432 101 L410 0 L41 0 L84 201 L1 163 L23 263 L106 302 L191 700 L321 700 L250 369 L423 450 L401 349 L229 269 L193 101 L432 101 Z " />
<glyph glyph-name="Ldot" unicode="&#x13f;" horiz-adv-x="466" d="M159 101 L398 101 L376 0 L7 0 L157 700 L287 700 L159 101 Z M463 422 L449 354 Q426 321 380 321 Q354 321 337.5 331 Q321 341 316 354 L331 422 Q339 436 357 445.5 Q375 455 399 455 Q425 455 442 445 Q459 435 463 422 Z " />
<glyph glyph-name="Nacute" unicode="&#x143;" horiz-adv-x="665" d="M394 0 L242 515 L239 515 L128 0 L7 0 L157 700 L305 700 L456 185 L459 185 L570 700 L691 700 L541 0 L394 0 Z M474 750 L382 750 L386 766 L474 907 L589 907 L576 853 L474 750 Z " />
<glyph glyph-name="Ncaron" unicode="&#x147;" horiz-adv-x="665" d="M394 0 L242 515 L239 515 L128 0 L7 0 L157 700 L305 700 L456 185 L459 185 L570 700 L691 700 L541 0 L394 0 Z M518 750 L362 750 L308 891 L312 907 L390 907 L446 807 L544 907 L635 907 L631 891 L518 750 Z " />
<glyph glyph-name="Ntilde" unicode="&#xd1;" horiz-adv-x="665" d="M394 0 L242 515 L239 515 L128 0 L7 0 L157 700 L305 700 L456 185 L459 185 L570 700 L691 700 L541 0 L394 0 Z M473 848 Q487 837 495.5 832.5 Q504 828 515 828 Q542 828 558 854 L563 873 L634 873 L623 822 Q609 792 579 771.5 Q549 751 509 751 Q483 751 466.5 759 Q450 767 432 782 Q421 792 412 797 Q403 802 391 802 Q365 802 348 776 L344 756 L272 756 L283 807 Q297 839 327 859 Q357 879 396 879 Q422 879 438.5 871 Q455 863 473 848 Z " />
<glyph glyph-name="Ncommaaccent" unicode="&#x145;" horiz-adv-x="665" d="M394 0 L242 515 L239 515 L128 0 L7 0 L157 700 L305 700 L456 185 L459 185 L570 700 L691 700 L541 0 L394 0 Z M177 -182 L205 -182 Q231 -182 240 -169 L245 -146 Q222 -146 205 -141.5 Q188 -137 184 -129 L196 -74 Q203 -66 219.5 -60.5 Q236 -55 262 -55 Q305 -55 322 -74 L301 -174 Q291 -194 268.5 -208.5 Q246 -223 210 -223 L169 -223 L177 -182 Z " />
<glyph glyph-name="Ograve" unicode="&#xd2;" horiz-adv-x="626" d="M635 562 L544 139 Q505 73 438 29.5 Q371 -14 267 -14 Q196 -14 144 9 Q92 32 63 67 Q34 102 26 139 L117 562 Q154 626 222 670 Q290 714 393 714 Q464 714 516 691 Q568 668 597.5 633 Q627 598 635 562 Z M241 535 L162 165 Q167 133 198.5 110.5 Q230 88 278 88 Q325 88 361.5 110 Q398 132 420 165 L499 535 Q493 568 462.5 590.5 Q432 613 383 613 Q335 613 298.5 590.5 Q262 568 241 535 Z M447 750 L363 750 L305 853 L317 907 L421 907 L451 766 L447 750 Z " />
<glyph glyph-name="Oacute" unicode="&#xd3;" horiz-adv-x="626" d="M635 562 L544 139 Q505 73 438 29.5 Q371 -14 267 -14 Q196 -14 144 9 Q92 32 63 67 Q34 102 26 139 L117 562 Q154 626 222 670 Q290 714 393 714 Q464 714 516 691 Q568 668 597.5 633 Q627 598 635 562 Z M241 535 L162 165 Q167 133 198.5 110.5 Q230 88 278 88 Q325 88 361.5 110 Q398 132 420 165 L499 535 Q493 568 462.5 590.5 Q432 613 383 613 Q335 613 298.5 590.5 Q262 568 241 535 Z M451 750 L359 750 L363 766 L451 907 L566 907 L553 853 L451 750 Z " />
<glyph glyph-name="Ocircumflex" unicode="&#xd4;" horiz-adv-x="626" d="M635 562 L544 139 Q505 73 438 29.5 Q371 -14 267 -14 Q196 -14 144 9 Q92 32 63 67 Q34 102 26 139 L117 562 Q154 626 222 670 Q290 714 393 714 Q464 714 516 691 Q568 668 597.5 633 Q627 598 635 562 Z M241 535 L162 165 Q167 133 198.5 110.5 Q230 88 278 88 Q325 88 361.5 110 Q398 132 420 165 L499 535 Q493 568 462.5 590.5 Q432 613 383 613 Q335 613 298.5 590.5 Q262 568 241 535 Z M578 750 L499 750 L443 850 L345 750 L255 750 L259 766 L373 907 L528 907 L582 766 L578 750 Z " />
<glyph glyph-name="Otilde" unicode="&#xd5;" horiz-adv-x="626" d="M635 562 L544 139 Q505 73 438 29.5 Q371 -14 267 -14 Q196 -14 144 9 Q92 32 63 67 Q34 102 26 139 L117 562 Q154 626 222 670 Q290 714 393 714 Q464 714 516 691 Q568 668 597.5 633 Q627 598 635 562 Z M241 535 L162 165 Q167 133 198.5 110.5 Q230 88 278 88 Q325 88 361.5 110 Q398 132 420 165 L499 535 Q493 568 462.5 590.5 Q432 613 383 613 Q335 613 298.5 590.5 Q262 568 241 535 Z M450 848 Q464 837 472.5 832.5 Q481 828 492 828 Q519 828 535 854 L540 873 L611 873 L600 822 Q586 792 556 771.5 Q526 751 486 751 Q460 751 443.5 759 Q427 767 409 782 Q398 792 389 797 Q380 802 368 802 Q342 802 325 776 L321 756 L249 756 L260 807 Q274 839 304 859 Q334 879 373 879 Q399 879 415.5 871 Q432 863 450 848 Z " />
<glyph glyph-name="Odieresis" unicode="&#xd6;" horiz-adv-x="626" d="M635 562 L544 139 Q505 73 438 29.5 Q371 -14 267 -14 Q196 -14 144 9 Q92 32 63 67 Q34 102 26 139 L117 562 Q154 626 222 670 Q290 714 393 714 Q464 714 516 691 Q568 668 597.5 633 Q627 598 635 562 Z M241 535 L162 165 Q167 133 198.5 110.5 Q230 88 278 88 Q325 88 361.5 110 Q398 132 420 165 L499 535 Q493 568 462.5 590.5 Q432 613 383 613 Q335 613 298.5 590.5 Q262 568 241 535 Z M395 858 L379 784 Q355 760 312 760 Q273 760 256 784 L272 858 Q281 867 297.5 875 Q314 883 338 883 Q379 883 395 858 Z M607 858 L591 784 Q564 760 524 760 Q488 760 467 784 L483 858 Q492 867 509 875 Q526 883 550 883 Q588 883 607 858 Z " />
<glyph glyph-name="Omacron" unicode="&#x14c;" horiz-adv-x="626" d="M635 562 L544 139 Q505 73 438 29.5 Q371 -14 267 -14 Q196 -14 144 9 Q92 32 63 67 Q34 102 26 139 L117 562 Q154 626 222 670 Q290 714 393 714 Q464 714 516 691 Q568 668 597.5 633 Q627 598 635 562 Z M241 535 L162 165 Q167 133 198.5 110.5 Q230 88 278 88 Q325 88 361.5 110 Q398 132 420 165 L499 535 Q493 568 462.5 590.5 Q432 613 383 613 Q335 613 298.5 590.5 Q262 568 241 535 Z M585 766 L254 766 L272 849 L602 849 L585 766 Z " />
<glyph glyph-name="Obreve" unicode="&#x14e;" horiz-adv-x="626" d="M635 562 L544 139 Q505 73 438 29.5 Q371 -14 267 -14 Q196 -14 144 9 Q92 32 63 67 Q34 102 26 139 L117 562 Q154 626 222 670 Q290 714 393 714 Q464 714 516 691 Q568 668 597.5 633 Q627 598 635 562 Z M241 535 L162 165 Q167 133 198.5 110.5 Q230 88 278 88 Q325 88 361.5 110 Q398 132 420 165 L499 535 Q493 568 462.5 590.5 Q432 613 383 613 Q335 613 298.5 590.5 Q262 568 241 535 Z M591 824 Q570 788 528.5 764.5 Q487 741 426 741 Q364 741 324 764.5 Q284 788 272 824 L285 883 L374 883 L365 845 Q368 832 383 820 Q398 808 428 808 Q459 808 478 819.5 Q497 831 506 845 L515 883 L604 883 L591 824 Z " />
<glyph glyph-name="Ohungarumlaut" unicode="&#x150;" horiz-adv-x="626" d="M635 562 L544 139 Q505 73 438 29.5 Q371 -14 267 -14 Q196 -14 144 9 Q92 32 63 67 Q34 102 26 139 L117 562 Q154 626 222 670 Q290 714 393 714 Q464 714 516 691 Q568 668 597.5 633 Q627 598 635 562 Z M241 535 L162 165 Q167 133 198.5 110.5 Q230 88 278 88 Q325 88 361.5 110 Q398 132 420 165 L499 535 Q493 568 462.5 590.5 Q432 613 383 613 Q335 613 298.5 590.5 Q262 568 241 535 Z M362 750 L284 750 L287 765 L360 906 L454 906 L444 861 L362 750 Z M549 750 L472 750 L475 765 L547 906 L641 906 L631 861 L549 750 Z " />
<glyph glyph-name="Oslash" unicode="&#xd8;" horiz-adv-x="626" d="M654 651 L615 609 Q628 588 635 562 L544 139 Q505 73 438 29.5 Q371 -14 267 -14 Q161 -14 94 38 L60 0 L-4 0 L7 49 L46 92 Q30 117 26 139 L117 562 Q154 626 222 670 Q290 714 393 714 Q497 714 565 663 L599 700 L664 700 L654 651 Z M177 236 L482 572 Q467 591 441.5 602 Q416 613 383 613 Q335 613 298.5 590.5 Q262 568 241 535 L177 236 Z M484 465 L178 129 Q193 110 219 99 Q245 88 278 88 Q325 88 361.5 110 Q398 132 420 165 L484 465 Z " />
<glyph glyph-name="OE" unicode="&#x152;" horiz-adv-x="915" d="M643 599 L602 409 L875 409 L854 309 L581 309 L536 101 L837 101 L815 0 L385 0 L389 19 Q325 -14 260 -14 Q192 -14 142 9 Q92 32 63 67 Q34 102 26 139 L117 562 Q154 626 222 670 Q290 714 393 714 Q478 714 530 680 L534 700 L957 700 L936 599 L643 599 Z M416 145 L504 556 Q489 581 456.5 597 Q424 613 383 613 Q335 613 298.5 590.5 Q262 568 241 535 L162 165 Q167 133 198.5 110.5 Q230 88 278 88 Q318 88 354.5 104 Q391 120 416 145 Z " />
<glyph glyph-name="Racute" unicode="&#x154;" horiz-adv-x="601" d="M615 582 L578 405 Q520 317 425 293 L518 75 L502 0 L408 0 L293 285 L198 285 L137 0 L7 0 L157 700 L413 700 Q493 700 543.5 669 Q594 638 615 582 Z M483 540 Q474 569 448 584.5 Q422 600 386 600 L266 600 L218 381 L329 381 Q374 381 408.5 396.5 Q443 412 462 441 L483 540 Z M438 750 L346 750 L350 766 L438 907 L553 907 L540 853 L438 750 Z " />
<glyph glyph-name="Rcaron" unicode="&#x158;" horiz-adv-x="601" d="M615 582 L578 405 Q520 317 425 293 L518 75 L502 0 L408 0 L293 285 L198 285 L137 0 L7 0 L157 700 L413 700 Q493 700 543.5 669 Q594 638 615 582 Z M483 540 Q474 569 448 584.5 Q422 600 386 600 L266 600 L218 381 L329 381 Q374 381 408.5 396.5 Q443 412 462 441 L483 540 Z M482 750 L326 750 L272 891 L276 907 L354 907 L410 807 L508 907 L599 907 L595 891 L482 750 Z " />
<glyph glyph-name="Rcommaaccent" unicode="&#x156;" horiz-adv-x="601" d="M615 582 L578 405 Q520 317 425 293 L518 75 L502 0 L408 0 L293 285 L198 285 L137 0 L7 0 L157 700 L413 700 Q493 700 543.5 669 Q594 638 615 582 Z M483 540 Q474 569 448 584.5 Q422 600 386 600 L266 600 L218 381 L329 381 Q374 381 408.5 396.5 Q443 412 462 441 L483 540 Z M145 -182 L173 -182 Q199 -182 208 -169 L213 -146 Q190 -146 173 -141.5 Q156 -137 152 -129 L164 -74 Q171 -66 187.5 -60.5 Q204 -55 230 -55 Q273 -55 290 -74 L269 -174 Q259 -194 236.5 -208.5 Q214 -223 178 -223 L137 -223 L145 -182 Z " />
<glyph glyph-name="Sacute" unicode="&#x15a;" horiz-adv-x="591" d="M602 595 L588 530 L479 530 Q472 566 443 589.5 Q414 613 362 613 Q324 613 292 596 Q260 579 242 556 L223 469 Q229 453 244.5 443 Q260 433 304 419 L375 397 Q456 373 490.5 345.5 Q525 318 542 276 L508 119 Q421 -14 248 -14 Q176 -14 125 7.5 Q74 29 45.5 59.5 Q17 90 8 118 L22 183 L131 183 Q138 140 171 114 Q204 88 259 88 Q306 88 339 107.5 Q372 127 392 157 L409 238 Q404 257 384 270.5 Q364 284 319 298 L243 322 Q173 342 141.5 365.5 Q110 389 90 430 L125 595 Q160 644 224 679 Q288 714 381 714 Q443 714 490.5 695.5 Q538 677 565.5 649.5 Q593 622 602 595 Z M439 750 L347 750 L351 766 L439 907 L554 907 L541 853 L439 750 Z " />
<glyph glyph-name="Scircumflex" unicode="&#x15c;" horiz-adv-x="591" d="M602 595 L588 530 L479 530 Q472 566 443 589.5 Q414 613 362 613 Q324 613 292 596 Q260 579 242 556 L223 469 Q229 453 244.5 443 Q260 433 304 419 L375 397 Q456 373 490.5 345.5 Q525 318 542 276 L508 119 Q421 -14 248 -14 Q176 -14 125 7.5 Q74 29 45.5 59.5 Q17 90 8 118 L22 183 L131 183 Q138 140 171 114 Q204 88 259 88 Q306 88 339 107.5 Q372 127 392 157 L409 238 Q404 257 384 270.5 Q364 284 319 298 L243 322 Q173 342 141.5 365.5 Q110 389 90 430 L125 595 Q160 644 224 679 Q288 714 381 714 Q443 714 490.5 695.5 Q538 677 565.5 649.5 Q593 622 602 595 Z M566 750 L487 750 L431 850 L333 750 L243 750 L247 766 L361 907 L516 907 L570 766 L566 750 Z " />
<glyph glyph-name="Scaron" unicode="&#x160;" horiz-adv-x="591" d="M602 595 L588 530 L479 530 Q472 566 443 589.5 Q414 613 362 613 Q324 613 292 596 Q260 579 242 556 L223 469 Q229 453 244.5 443 Q260 433 304 419 L375 397 Q456 373 490.5 345.5 Q525 318 542 276 L508 119 Q421 -14 248 -14 Q176 -14 125 7.5 Q74 29 45.5 59.5 Q17 90 8 118 L22 183 L131 183 Q138 140 171 114 Q204 88 259 88 Q306 88 339 107.5 Q372 127 392 157 L409 238 Q404 257 384 270.5 Q364 284 319 298 L243 322 Q173 342 141.5 365.5 Q110 389 90 430 L125 595 Q160 644 224 679 Q288 714 381 714 Q443 714 490.5 695.5 Q538 677 565.5 649.5 Q593 622 602 595 Z M483 750 L327 750 L273 891 L277 907 L355 907 L411 807 L509 907 L600 907 L596 891 L483 750 Z " />
<glyph glyph-name="Scedilla" unicode="&#x15e;" horiz-adv-x="591" d="M242 556 L223 469 Q229 453 244.5 443 Q260 433 304 419 L375 397 Q456 373 490.5 345.5 Q525 318 542 276 L508 119 Q427 -7 266 -14 L246 -47 L255 -47 Q286 -47 306.5 -61.5 Q327 -76 332 -95 L315 -169 Q278 -225 193 -225 Q163 -225 136 -219 Q109 -213 95 -204 L126 -149 Q159 -164 196 -164 Q215 -164 228.5 -158 Q242 -152 248 -142 L253 -117 Q251 -109 240 -103.5 Q229 -98 211 -98 L151 -98 L199 -11 Q143 -4 102 17.5 Q61 39 38 66 Q15 93 8 118 L22 183 L131 183 Q138 140 171 114 Q204 88 259 88 Q306 88 339 107.5 Q372 127 392 157 L409 238 Q404 257 384 270.5 Q364 284 319 298 L243 322 Q173 342 141.5 365.5 Q110 389 90 430 L125 595 Q160 644 224 679 Q288 714 381 714 Q443 714 490.5 695.5 Q538 677 565.5 649.5 Q593 622 602 595 L588 530 L479 530 Q472 566 443 589.5 Q414 613 362 613 Q324 613 292 596 Q260 579 242 556 Z " />
<glyph glyph-name="Scommaaccent" unicode="&#x218;" horiz-adv-x="591" d="M602 595 L588 530 L479 530 Q472 566 443 589.5 Q414 613 362 613 Q324 613 292 596 Q260 579 242 556 L223 469 Q229 453 244.5 443 Q260 433 304 419 L375 397 Q456 373 490.5 345.5 Q525 318 542 276 L508 119 Q421 -14 248 -14 Q176 -14 125 7.5 Q74 29 45.5 59.5 Q17 90 8 118 L22 183 L131 183 Q138 140 171 114 Q204 88 259 88 Q306 88 339 107.5 Q372 127 392 157 L409 238 Q404 257 384 270.5 Q364 284 319 298 L243 322 Q173 342 141.5 365.5 Q110 389 90 430 L125 595 Q160 644 224 679 Q288 714 381 714 Q443 714 490.5 695.5 Q538 677 565.5 649.5 Q593 622 602 595 Z M146 -182 L174 -182 Q200 -182 209 -169 L214 -146 Q191 -146 174 -141.5 Q157 -137 153 -129 L165 -74 Q172 -66 188.5 -60.5 Q205 -55 231 -55 Q274 -55 291 -74 L270 -174 Q260 -194 237.5 -208.5 Q215 -223 179 -223 L138 -223 L146 -182 Z " />
<glyph glyph-name="Tcaron" unicode="&#x164;" horiz-adv-x="537" d="M582 599 L404 599 L276 0 L146 0 L274 599 L95 599 L117 700 L604 700 L582 599 Z M451 750 L295 750 L241 891 L245 907 L323 907 L379 807 L477 907 L568 907 L564 891 L451 750 Z " />
<glyph glyph-name="uni021A" unicode="&#x21a;" horiz-adv-x="537" d="M582 599 L404 599 L276 0 L146 0 L274 599 L95 599 L117 700 L604 700 L582 599 Z M114 -182 L142 -182 Q168 -182 177 -169 L182 -146 Q159 -146 142 -141.5 Q125 -137 121 -129 L133 -74 Q140 -66 156.5 -60.5 Q173 -55 199 -55 Q242 -55 259 -74 L238 -174 Q228 -194 205.5 -208.5 Q183 -223 147 -223 L106 -223 L114 -182 Z " />
<glyph glyph-name="Tbar" unicode="&#x166;" horiz-adv-x="537" d="M413 599 L373 411 L502 411 L485 331 L356 331 L285 0 L155 0 L226 331 L101 331 L118 411 L243 411 L283 599 L104 599 L126 700 L613 700 L592 599 L413 599 Z " />
<glyph glyph-name="Ugrave" unicode="&#xd9;" horiz-adv-x="641" d="M551 139 Q518 79 446.5 32.5 Q375 -14 270 -14 Q166 -14 107 32 Q48 78 33 139 L153 700 L283 700 L169 167 Q175 134 203.5 112 Q232 90 280 90 Q328 90 366 112 Q404 134 427 167 L541 700 L671 700 L551 139 Z M455 750 L371 750 L313 853 L325 907 L429 907 L459 766 L455 750 Z " />
<glyph glyph-name="Uacute" unicode="&#xda;" horiz-adv-x="641" d="M551 139 Q518 79 446.5 32.5 Q375 -14 270 -14 Q166 -14 107 32 Q48 78 33 139 L153 700 L283 700 L169 167 Q175 134 203.5 112 Q232 90 280 90 Q328 90 366 112 Q404 134 427 167 L541 700 L671 700 L551 139 Z M458 750 L366 750 L370 766 L458 907 L573 907 L560 853 L458 750 Z " />
<glyph glyph-name="Ucircumflex" unicode="&#xdb;" horiz-adv-x="641" d="M551 139 Q518 79 446.5 32.5 Q375 -14 270 -14 Q166 -14 107 32 Q48 78 33 139 L153 700 L283 700 L169 167 Q175 134 203.5 112 Q232 90 280 90 Q328 90 366 112 Q404 134 427 167 L541 700 L671 700 L551 139 Z M585 750 L506 750 L450 850 L352 750 L262 750 L266 766 L380 907 L535 907 L589 766 L585 750 Z " />
<glyph glyph-name="Utilde" unicode="&#x168;" horiz-adv-x="641" d="M551 139 Q518 79 446.5 32.5 Q375 -14 270 -14 Q166 -14 107 32 Q48 78 33 139 L153 700 L283 700 L169 167 Q175 134 203.5 112 Q232 90 280 90 Q328 90 366 112 Q404 134 427 167 L541 700 L671 700 L551 139 Z M457 848 Q471 837 479.5 832.5 Q488 828 499 828 Q526 828 542 854 L547 873 L618 873 L607 822 Q593 792 563 771.5 Q533 751 493 751 Q467 751 450.5 759 Q434 767 416 782 Q405 792 396 797 Q387 802 375 802 Q349 802 332 776 L328 756 L256 756 L267 807 Q281 839 311 859 Q341 879 380 879 Q406 879 422.5 871 Q439 863 457 848 Z " />
<glyph glyph-name="Udieresis" unicode="&#xdc;" horiz-adv-x="641" d="M551 139 Q518 79 446.5 32.5 Q375 -14 270 -14 Q166 -14 107 32 Q48 78 33 139 L153 700 L283 700 L169 167 Q175 134 203.5 112 Q232 90 280 90 Q328 90 366 112 Q404 134 427 167 L541 700 L671 700 L551 139 Z M402 858 L386 784 Q362 760 319 760 Q280 760 263 784 L279 858 Q288 867 304.5 875 Q321 883 345 883 Q386 883 402 858 Z M614 858 L598 784 Q571 760 531 760 Q495 760 474 784 L490 858 Q499 867 516 875 Q533 883 557 883 Q595 883 614 858 Z " />
<glyph glyph-name="Umacron" unicode="&#x16a;" horiz-adv-x="641" d="M551 139 Q518 79 446.5 32.5 Q375 -14 270 -14 Q166 -14 107 32 Q48 78 33 139 L153 700 L283 700 L169 167 Q175 134 203.5 112 Q232 90 280 90 Q328 90 366 112 Q404 134 427 167 L541 700 L671 700 L551 139 Z M592 766 L261 766 L279 849 L609 849 L592 766 Z " />
<glyph glyph-name="Ubreve" unicode="&#x16c;" horiz-adv-x="641" d="M551 139 Q518 79 446.5 32.5 Q375 -14 270 -14 Q166 -14 107 32 Q48 78 33 139 L153 700 L283 700 L169 167 Q175 134 203.5 112 Q232 90 280 90 Q328 90 366 112 Q404 134 427 167 L541 700 L671 700 L551 139 Z M598 824 Q577 788 535.5 764.5 Q494 741 433 741 Q371 741 331 764.5 Q291 788 279 824 L292 883 L381 883 L372 845 Q375 832 390 820 Q405 808 435 808 Q466 808 485 819.5 Q504 831 513 845 L522 883 L611 883 L598 824 Z " />
<glyph glyph-name="Uring" unicode="&#x16e;" horiz-adv-x="641" d="M551 139 Q518 79 446.5 32.5 Q375 -14 270 -14 Q166 -14 107 32 Q48 78 33 139 L153 700 L283 700 L169 167 Q175 134 203.5 112 Q232 90 280 90 Q328 90 366 112 Q404 134 427 167 L541 700 L671 700 L551 139 Z M557 830 L539 739 Q522 713 489.5 696.5 Q457 680 417 680 Q376 680 345.5 697 Q315 714 306 739 L324 830 Q341 856 373.5 872.5 Q406 889 447 889 Q487 889 517 872.5 Q547 856 557 830 Z M380 812 L369 758 Q373 748 386 740.5 Q399 733 421 733 Q443 733 458.5 740.5 Q474 748 482 758 L494 812 Q490 821 477 828.5 Q464 836 442 836 Q404 836 380 812 Z " />
<glyph glyph-name="Uhungarumlaut" unicode="&#x170;" horiz-adv-x="641" d="M551 139 Q518 79 446.5 32.5 Q375 -14 270 -14 Q166 -14 107 32 Q48 78 33 139 L153 700 L283 700 L169 167 Q175 134 203.5 112 Q232 90 280 90 Q328 90 366 112 Q404 134 427 167 L541 700 L671 700 L551 139 Z M369 750 L291 750 L294 765 L367 906 L461 906 L451 861 L369 750 Z M556 750 L479 750 L482 765 L554 906 L648 906 L638 861 L556 750 Z " />
<glyph glyph-name="Uogonek" unicode="&#x172;" horiz-adv-x="641" d="M671 700 L551 139 Q525 90 458 37 Q329 -66 309 -103 L303 -130 Q306 -137 318.5 -142 Q331 -147 347 -147 Q371 -147 397 -138 L382 -206 Q354 -221 310 -221 Q272 -221 242 -207 Q212 -193 206 -168 L222 -93 Q234 -76 256.5 -54.5 Q279 -33 308 -13 Q295 -14 270 -14 Q166 -14 107 32 Q48 78 33 139 L153 700 L283 700 L169 167 Q175 134 203.5 112 Q232 90 280 90 Q328 90 366 112 Q404 134 427 167 L541 700 L671 700 Z " />
<glyph glyph-name="Wgrave" unicode="&#x1e80;" horiz-adv-x="910" d="M693 0 L518 0 L503 498 L500 498 L272 0 L101 0 L109 625 L125 700 L239 700 L222 135 L225 135 L482 700 L604 700 L619 135 L622 135 L848 700 L969 700 L953 625 L693 0 Z M591 750 L507 750 L449 853 L461 907 L565 907 L595 766 L591 750 Z " />
<glyph glyph-name="Wacute" unicode="&#x1e82;" horiz-adv-x="910" d="M693 0 L518 0 L503 498 L500 498 L272 0 L101 0 L109 625 L125 700 L239 700 L222 135 L225 135 L482 700 L604 700 L619 135 L622 135 L848 700 L969 700 L953 625 L693 0 Z M595 750 L503 750 L507 766 L595 907 L710 907 L697 853 L595 750 Z " />
<glyph glyph-name="Wcircumflex" unicode="&#x174;" horiz-adv-x="910" d="M693 0 L518 0 L503 498 L500 498 L272 0 L101 0 L109 625 L125 700 L239 700 L222 135 L225 135 L482 700 L604 700 L619 135 L622 135 L848 700 L969 700 L953 625 L693 0 Z M722 750 L643 750 L587 850 L489 750 L399 750 L403 766 L517 907 L672 907 L726 766 L722 750 Z " />
<glyph glyph-name="Wdieresis" unicode="&#x1e84;" horiz-adv-x="910" d="M693 0 L518 0 L503 498 L500 498 L272 0 L101 0 L109 625 L125 700 L239 700 L222 135 L225 135 L482 700 L604 700 L619 135 L622 135 L848 700 L969 700 L953 625 L693 0 Z M539 858 L523 784 Q499 760 456 760 Q417 760 400 784 L416 858 Q425 867 441.5 875 Q458 883 482 883 Q523 883 539 858 Z M751 858 L735 784 Q708 760 668 760 Q632 760 611 784 L627 858 Q636 867 653 875 Q670 883 694 883 Q732 883 751 858 Z " />
<glyph glyph-name="Ygrave" unicode="&#x1ef2;" horiz-adv-x="570" d="M351 287 L290 0 L159 0 L223 299 L106 625 L122 700 L218 700 L310 415 L313 415 L523 700 L631 700 L615 625 L351 287 Z M419 750 L335 750 L277 853 L289 907 L393 907 L423 766 L419 750 Z " />
<glyph glyph-name="Yacute" unicode="&#xdd;" horiz-adv-x="570" d="M351 287 L290 0 L159 0 L223 299 L106 625 L122 700 L218 700 L310 415 L313 415 L523 700 L631 700 L615 625 L351 287 Z M423 750 L331 750 L335 766 L423 907 L538 907 L525 853 L423 750 Z " />
<glyph glyph-name="Ycircumflex" unicode="&#x176;" horiz-adv-x="570" d="M351 287 L290 0 L159 0 L223 299 L106 625 L122 700 L218 700 L310 415 L313 415 L523 700 L631 700 L615 625 L351 287 Z M550 750 L471 750 L415 850 L317 750 L227 750 L231 766 L345 907 L500 907 L554 766 L550 750 Z " />
<glyph glyph-name="Ydieresis" unicode="&#x178;" horiz-adv-x="570" d="M351 287 L290 0 L159 0 L223 299 L106 625 L122 700 L218 700 L310 415 L313 415 L523 700 L631 700 L615 625 L351 287 Z M367 858 L351 784 Q327 760 284 760 Q245 760 228 784 L244 858 Q253 867 269.5 875 Q286 883 310 883 Q351 883 367 858 Z M579 858 L563 784 Q536 760 496 760 Q460 760 439 784 L455 858 Q464 867 481 875 Q498 883 522 883 Q560 883 579 858 Z " />
<glyph glyph-name="Zacute" unicode="&#x179;" horiz-adv-x="560" d="M164 101 L483 101 L462 0 L-18 0 L0 85 L429 599 L116 599 L138 700 L611 700 L594 615 L164 101 Z M418 750 L326 750 L330 766 L418 907 L533 907 L520 853 L418 750 Z " />
<glyph glyph-name="Zcaron" unicode="&#x17d;" horiz-adv-x="560" d="M164 101 L483 101 L462 0 L-18 0 L0 85 L429 599 L116 599 L138 700 L611 700 L594 615 L164 101 Z M462 750 L306 750 L252 891 L256 907 L334 907 L390 807 L488 907 L579 907 L575 891 L462 750 Z " />
<glyph glyph-name="Zdotaccent" unicode="&#x17b;" horiz-adv-x="560" d="M164 101 L483 101 L462 0 L-18 0 L0 85 L429 599 L116 599 L138 700 L611 700 L594 615 L164 101 Z M473 856 L460 798 Q452 785 432.5 775 Q413 765 386 765 Q360 765 345 774.5 Q330 784 327 798 L340 856 Q349 869 368.5 879 Q388 889 413 889 Q439 889 454 879 Q469 869 473 856 Z " />
<glyph glyph-name="Eng" unicode="&#x14a;" horiz-adv-x="665" d="M535 -30 Q499 -99 428 -136.5 Q357 -174 257 -174 Q220 -174 204 -172 L225 -76 Q239 -78 264 -78 Q304 -78 339 -61.5 Q374 -45 399 -18 L242 515 L239 515 L128 0 L7 0 L157 700 L305 700 L456 185 L459 185 L570 700 L691 700 L535 -30 Z " />
<glyph glyph-name="Eth" unicode="&#xd0;" horiz-adv-x="647" d="M656 562 L565 138 Q532 75 464.5 37.5 Q397 0 301 0 L27 0 L93 307 L43 307 L65 405 L114 405 L177 700 L432 700 Q529 700 585.5 659.5 Q642 619 656 562 Z M519 532 Q510 564 480.5 582 Q451 600 399 600 L285 600 L244 405 L382 405 L360 307 L223 307 L178 100 L294 100 Q345 100 383.5 121 Q422 142 442 174 L519 532 Z " />
<glyph glyph-name="Thorn" unicode="&#xde;" horiz-adv-x="582" d="M586 467 L544 269 Q466 150 313 150 L169 150 L137 0 L7 0 L157 700 L287 700 L262 585 L378 585 Q538 585 586 467 Z M452 427 Q443 456 416 470.5 Q389 485 355 485 L241 485 L191 250 L300 250 Q343 250 374 265 Q405 280 428 313 L452 427 Z " />
<glyph glyph-name="a" unicode="a" horiz-adv-x="550" d="M530 421 L439 0 L323 0 L332 43 Q268 -14 181 -14 Q104 -14 61.5 12.5 Q19 39 1 69 L38 239 Q61 271 109 298.5 Q157 326 229 326 L389 326 L404 397 Q398 424 373 442 Q348 460 308 460 Q230 460 189 396 L82 396 L96 454 Q122 490 175.5 522.5 Q229 555 319 555 Q381 555 426.5 534 Q472 513 497.5 482 Q523 451 530 421 Z M221 74 Q260 74 292 89 Q324 104 345 126 L370 241 L258 241 Q218 241 192.5 229.5 Q167 218 148 201 L130 114 Q138 99 161 86.5 Q184 74 221 74 Z " />
<glyph glyph-name="b" unicode="b" horiz-adv-x="554" d="M542 435 L471 105 Q443 59 393 23.5 Q343 -12 268 -12 Q175 -12 125 49 L115 0 L-2 0 L148 700 L269 700 L226 502 Q290 552 372 552 Q425 552 461.5 533 Q498 514 517.5 487 Q537 460 542 435 Z M415 407 Q408 426 386 441.5 Q364 457 324 457 Q286 457 256.5 444 Q227 431 207 411 L147 130 Q161 110 187.5 96.5 Q214 83 249 83 Q288 83 314.5 97.5 Q341 112 356 132 L415 407 Z " />
<glyph glyph-name="c" unicode="c" horiz-adv-x="535" d="M535 435 L523 377 L426 377 Q420 415 390.5 437.5 Q361 460 315 460 Q275 460 244 441.5 Q213 423 195 396 L140 142 Q146 116 172.5 98.5 Q199 81 240 81 Q326 81 374 163 L476 163 L465 105 Q436 59 379.5 22.5 Q323 -14 233 -14 Q170 -14 122.5 6.5 Q75 27 48.5 58 Q22 89 15 120 L81 421 Q111 476 172.5 515.5 Q234 555 327 555 Q388 555 433 535 Q478 515 503 487.5 Q528 460 535 435 Z " />
<glyph glyph-name="d" unicode="d" horiz-adv-x="554" d="M590 700 L440 0 L324 0 L333 44 Q274 -12 188 -12 Q135 -12 97 7 Q59 26 38.5 53 Q18 80 13 105 L83 435 Q111 481 161.5 516.5 Q212 552 288 552 Q377 552 426 499 L469 700 L590 700 Z M232 83 Q268 83 297.5 96.5 Q327 110 347 131 L409 417 Q394 435 368.5 446 Q343 457 308 457 Q269 457 241.5 442 Q214 427 198 407 L140 133 Q147 115 170 99 Q193 83 232 83 Z " />
<glyph glyph-name="e" unicode="e" horiz-adv-x="544" d="M535 435 L494 242 L162 242 L141 141 Q147 115 173 97 Q199 79 239 79 Q326 79 369 162 L476 162 L465 105 Q436 58 378 22 Q320 -14 229 -14 Q166 -14 120 6.5 Q74 27 48 58 Q22 89 15 120 L81 421 Q111 475 173 515 Q235 555 327 555 Q389 555 433.5 535 Q478 515 503 487 Q528 459 535 435 Z M195 397 L181 327 L400 327 L415 399 Q409 425 383 443 Q357 461 316 461 Q276 461 244 442.5 Q212 424 195 397 Z " />
<glyph glyph-name="f" unicode="f" horiz-adv-x="345" d="M435 715 L416 630 Q413 630 399 631.5 Q385 633 374 633 Q303 633 273 594 L261 540 L379 540 L359 451 L242 451 L145 0 L25 0 L121 451 L60 451 L80 540 L141 540 L160 632 Q181 669 227.5 697 Q274 725 344 725 Q395 725 435 715 Z " />
<glyph glyph-name="g" unicode="g" horiz-adv-x="554" d="M556 540 L428 -52 Q399 -106 337.5 -143 Q276 -180 183 -180 Q93 -180 41.5 -145.5 Q-10 -111 -29 -70 L-17 -16 L81 -16 Q92 -49 121.5 -67.5 Q151 -86 195 -86 Q278 -86 314 -28 L336 76 Q276 25 196 25 Q143 25 105 44 Q67 63 46 90 Q25 117 20 142 L83 435 Q111 481 161.5 516.5 Q212 552 288 552 Q380 552 430 495 L440 540 L556 540 Z M357 171 L409 417 Q396 434 369.5 445.5 Q343 457 308 457 Q269 457 241.5 442 Q214 427 198 407 L147 170 Q154 152 177 136 Q200 120 239 120 Q308 120 357 171 Z " />
<glyph glyph-name="h" unicode="h" horiz-adv-x="561" d="M543 435 L449 0 L328 0 L415 407 Q408 426 384.5 441.5 Q361 457 323 457 Q254 457 207 412 L119 0 L-2 0 L148 700 L269 700 L226 503 Q291 552 370 552 Q423 552 460.5 533.5 Q498 515 518 488 Q538 461 543 435 Z " />
<glyph glyph-name="i" unicode="i" horiz-adv-x="241" d="M123 0 L2 0 L118 540 L239 540 L123 0 Z M280 703 L267 645 Q259 632 239.5 622 Q220 612 193 612 Q168 612 152.5 622 Q137 632 134 645 L147 703 Q155 717 175 727 Q195 737 221 737 Q247 737 262 727 Q277 717 280 703 Z " />
<glyph glyph-name="j" unicode="j" horiz-adv-x="233" d="M109 -47 Q78 -107 12.5 -143.5 Q-53 -180 -150 -180 L-130 -87 Q-91 -87 -56.5 -65.5 Q-22 -44 -5 -14 L114 540 L235 540 L109 -47 Z M277 703 L264 645 Q256 632 236.5 622 Q217 612 190 612 Q165 612 149.5 622 Q134 632 131 645 L144 703 Q152 717 172 727 Q192 737 218 737 Q244 737 259 727 Q274 717 277 703 Z " />
<glyph glyph-name="k" unicode="k" horiz-adv-x="528" d="M451 0 L364 0 L248 242 L154 164 L119 0 L-2 0 L148 700 L269 700 L186 315 L451 540 L539 540 L525 472 L342 320 L465 68 L451 0 Z " />
<glyph glyph-name="l" unicode="l" horiz-adv-x="234" d="M120 0 L-2 0 L148 700 L269 700 L120 0 Z " />
<glyph glyph-name="m" unicode="m" horiz-adv-x="820" d="M803 440 L708 0 L588 0 L677 413 Q671 431 652.5 444 Q634 457 599 457 Q542 457 504 419 L413 0 L293 0 L382 413 Q377 431 358.5 444 Q340 457 306 457 Q276 457 250.5 446 Q225 435 207 417 L119 0 L-2 0 L114 540 L227 540 L217 495 Q274 552 354 552 Q405 552 439 533 Q473 514 491 485 Q558 552 649 552 Q721 552 758.5 517 Q796 482 803 440 Z " />
<glyph glyph-name="n" unicode="n" horiz-adv-x="560" d="M541 435 L448 0 L327 0 L415 407 Q407 426 385 441.5 Q363 457 324 457 Q287 457 256.5 444 Q226 431 206 410 L119 0 L-2 0 L114 540 L227 540 L217 495 Q283 552 370 552 Q447 552 489 515 Q531 478 541 435 Z " />
<glyph glyph-name="o" unicode="o" horiz-adv-x="556" d="M541 421 L475 120 Q444 66 383.5 26 Q323 -14 230 -14 Q166 -14 120 6.5 Q74 27 48 58 Q22 89 15 120 L81 421 Q112 475 173 515 Q234 555 327 555 Q390 555 436 534.5 Q482 514 508 483 Q534 452 541 421 Z M195 394 L140 142 Q146 116 172.5 98.5 Q199 81 240 81 Q281 81 312 100 Q343 119 360 147 L415 399 Q409 425 382.5 442.5 Q356 460 315 460 Q275 460 243.5 440.5 Q212 421 195 394 Z " />
<glyph glyph-name="p" unicode="p" horiz-adv-x="554" d="M542 435 L471 105 Q443 59 393 23.5 Q343 -12 268 -12 Q177 -12 128 46 L83 -166 L-38 -166 L114 540 L231 540 L222 499 Q287 552 372 552 Q425 552 461.5 533 Q498 514 517.5 487 Q537 460 542 435 Z M415 407 Q408 426 386 441.5 Q364 457 324 457 Q287 457 257.5 444.5 Q228 432 208 412 L147 130 Q161 110 187.5 96.5 Q214 83 249 83 Q288 83 314.5 97.5 Q341 112 356 132 L415 407 Z " />
<glyph glyph-name="q" unicode="q" horiz-adv-x="554" d="M556 540 L404 -166 L283 -166 L327 38 Q268 -12 188 -12 Q135 -12 97 7 Q59 26 38.5 53 Q18 80 13 105 L83 435 Q111 481 161.5 516.5 Q212 552 288 552 Q380 552 430 495 L440 540 L556 540 Z M347 131 L409 418 Q395 436 369 446.5 Q343 457 308 457 Q269 457 241.5 442 Q214 427 198 407 L140 133 Q147 115 170 99 Q193 83 232 83 Q268 83 297.5 96.5 Q327 110 347 131 Z " />
<glyph glyph-name="r" unicode="r" horiz-adv-x="368" d="M404 540 L380 430 Q369 431 356 431 Q305 431 265 417 Q225 403 201 382 L119 0 L-2 0 L114 540 L227 540 L211 468 Q244 502 282.5 522 Q321 542 375 542 Q382 542 404 540 Z " />
<glyph glyph-name="s" unicode="s" horiz-adv-x="497" d="M493 463 L481 408 L385 408 Q376 433 350.5 448.5 Q325 464 287 464 Q254 464 230 453.5 Q206 443 191 428 L179 368 Q189 343 249 327 L299 314 Q369 296 402.5 273 Q436 250 450 222 L420 87 Q391 46 338.5 16 Q286 -14 202 -14 Q115 -14 65 18 Q15 50 -3 87 L10 142 L108 142 Q119 109 146 93 Q173 77 213 77 Q248 77 274.5 90 Q301 103 316 123 L330 182 Q323 196 305.5 206 Q288 216 258 224 L207 237 Q138 255 107.5 276.5 Q77 298 58 329 L87 463 Q112 496 165.5 525.5 Q219 555 299 555 Q378 555 426 526 Q474 497 493 463 Z " />
<glyph glyph-name="t" unicode="t" horiz-adv-x="358" d="M243 451 L172 120 Q188 82 259 82 Q278 82 299 85 L281 -1 Q246 -11 207 -11 Q131 -11 92.5 16.5 Q54 44 43 82 L123 451 L60 451 L80 540 L142 540 L166 654 L286 654 L262 540 L379 540 L359 451 L243 451 Z " />
<glyph glyph-name="u" unicode="u" horiz-adv-x="553" d="M555 540 L439 0 L326 0 L336 43 Q276 -12 190 -12 Q138 -12 100.5 7 Q63 26 42.5 53 Q22 80 17 104 L111 540 L231 540 L144 133 Q150 115 173 99 Q196 83 235 83 Q271 83 299.5 95.5 Q328 108 346 127 L435 540 L555 540 Z " />
<glyph glyph-name="v" unicode="v" horiz-adv-x="527" d="M538 472 L280 0 L131 0 L76 472 L91 540 L191 540 L227 123 L230 123 L444 540 L553 540 L538 472 Z " />
<glyph glyph-name="w" unicode="w" horiz-adv-x="788" d="M576 0 L439 0 L417 365 L414 365 L240 0 L100 0 L78 472 L93 540 L194 540 L199 130 L202 130 L398 540 L507 540 L525 130 L528 130 L709 540 L815 540 L800 472 L576 0 Z " />
<glyph glyph-name="x" unicode="x" horiz-adv-x="503" d="M334 275 L426 69 L411 0 L317 0 L245 205 L242 205 L80 0 L-24 0 L-9 69 L172 280 L85 472 L100 540 L193 540 L262 348 L265 348 L415 540 L519 540 L504 472 L334 275 Z " />
<glyph glyph-name="y" unicode="y" horiz-adv-x="519" d="M436 540 L546 540 L532 473 L218 -98 Q182 -139 135 -156.5 Q88 -174 24 -174 Q-28 -174 -54 -166 L-35 -79 Q-17 -82 9 -82 Q79 -82 123 -42 L148 7 L76 471 L91 540 L190 540 L235 153 L238 153 L436 540 Z " />
<glyph glyph-name="z" unicode="z" horiz-adv-x="480" d="M136 90 L413 90 L393 0 L-29 0 L-11 83 L338 450 L75 450 L95 540 L509 540 L492 462 L136 90 Z " />
<glyph glyph-name="agrave" unicode="&#xe0;" horiz-adv-x="550" d="M530 421 L439 0 L323 0 L332 43 Q268 -14 181 -14 Q104 -14 61.5 12.5 Q19 39 1 69 L38 239 Q61 271 109 298.5 Q157 326 229 326 L389 326 L404 397 Q398 424 373 442 Q348 460 308 460 Q230 460 189 396 L82 396 L96 454 Q122 490 175.5 522.5 Q229 555 319 555 Q381 555 426.5 534 Q472 513 497.5 482 Q523 451 530 421 Z M221 74 Q260 74 292 89 Q324 104 345 126 L370 241 L258 241 Q218 241 192.5 229.5 Q167 218 148 201 L130 114 Q138 99 161 86.5 Q184 74 221 74 Z M398 622 L396 607 L310 607 L251 713 L264 767 L371 767 L398 622 Z " />
<glyph glyph-name="aacute" unicode="&#xe1;" horiz-adv-x="550" d="M530 421 L439 0 L323 0 L332 43 Q268 -14 181 -14 Q104 -14 61.5 12.5 Q19 39 1 69 L38 239 Q61 271 109 298.5 Q157 326 229 326 L389 326 L404 397 Q398 424 373 442 Q348 460 308 460 Q230 460 189 396 L82 396 L96 454 Q122 490 175.5 522.5 Q229 555 319 555 Q381 555 426.5 534 Q472 513 497.5 482 Q523 451 530 421 Z M221 74 Q260 74 292 89 Q324 104 345 126 L370 241 L258 241 Q218 241 192.5 229.5 Q167 218 148 201 L130 114 Q138 99 161 86.5 Q184 74 221 74 Z M495 713 L393 607 L296 607 L299 622 L389 767 L507 767 L495 713 Z " />
<glyph glyph-name="acircumflex" unicode="&#xe2;" horiz-adv-x="550" d="M530 421 L439 0 L323 0 L332 43 Q268 -14 181 -14 Q104 -14 61.5 12.5 Q19 39 1 69 L38 239 Q61 271 109 298.5 Q157 326 229 326 L389 326 L404 397 Q398 424 373 442 Q348 460 308 460 Q230 460 189 396 L82 396 L96 454 Q122 490 175.5 522.5 Q229 555 319 555 Q381 555 426.5 534 Q472 513 497.5 482 Q523 451 530 421 Z M221 74 Q260 74 292 89 Q324 104 345 126 L370 241 L258 241 Q218 241 192.5 229.5 Q167 218 148 201 L130 114 Q138 99 161 86.5 Q184 74 221 74 Z M509 604 L430 604 L375 707 L276 604 L186 604 L190 620 L305 764 L460 764 L513 620 L509 604 Z " />
<glyph glyph-name="atilde" unicode="&#xe3;" horiz-adv-x="550" d="M530 421 L439 0 L323 0 L332 43 Q268 -14 181 -14 Q104 -14 61.5 12.5 Q19 39 1 69 L38 239 Q61 271 109 298.5 Q157 326 229 326 L389 326 L404 397 Q398 424 373 442 Q348 460 308 460 Q230 460 189 396 L82 396 L96 454 Q122 490 175.5 522.5 Q229 555 319 555 Q381 555 426.5 534 Q472 513 497.5 482 Q523 451 530 421 Z M221 74 Q260 74 292 89 Q324 104 345 126 L370 241 L258 241 Q218 241 192.5 229.5 Q167 218 148 201 L130 114 Q138 99 161 86.5 Q184 74 221 74 Z M382 709 Q400 698 409 693.5 Q418 689 429 689 Q456 689 469 716 L473 735 L545 735 L534 684 Q520 652 493.5 632 Q467 612 429 612 Q403 612 384.5 620 Q366 628 345 643 Q330 653 320 658 Q310 663 298 663 Q283 663 274 656.5 Q265 650 258 638 L254 617 L182 617 L194 669 Q208 701 235 720.5 Q262 740 298 740 Q324 740 342.5 732 Q361 724 382 709 Z " />
<glyph glyph-name="adieresis" unicode="&#xe4;" horiz-adv-x="550" d="M530 421 L439 0 L323 0 L332 43 Q268 -14 181 -14 Q104 -14 61.5 12.5 Q19 39 1 69 L38 239 Q61 271 109 298.5 Q157 326 229 326 L389 326 L404 397 Q398 424 373 442 Q348 460 308 460 Q230 460 189 396 L82 396 L96 454 Q122 490 175.5 522.5 Q229 555 319 555 Q381 555 426.5 534 Q472 513 497.5 482 Q523 451 530 421 Z M221 74 Q260 74 292 89 Q324 104 345 126 L370 241 L258 241 Q218 241 192.5 229.5 Q167 218 148 201 L130 114 Q138 99 161 86.5 Q184 74 221 74 Z M327 711 L311 637 Q283 612 243 612 Q219 612 205 620 Q191 628 187 637 L203 711 Q211 720 228.5 728 Q246 736 270 736 Q308 736 327 711 Z M539 711 L523 637 Q498 612 455 612 Q431 612 418 620 Q405 628 399 637 L415 711 Q424 720 441 728 Q458 736 482 736 Q520 736 539 711 Z " />
<glyph glyph-name="amacron" unicode="&#x101;" horiz-adv-x="550" d="M530 421 L439 0 L323 0 L332 43 Q268 -14 181 -14 Q104 -14 61.5 12.5 Q19 39 1 69 L38 239 Q61 271 109 298.5 Q157 326 229 326 L389 326 L404 397 Q398 424 373 442 Q348 460 308 460 Q230 460 189 396 L82 396 L96 454 Q122 490 175.5 522.5 Q229 555 319 555 Q381 555 426.5 534 Q472 513 497.5 482 Q523 451 530 421 Z M221 74 Q260 74 292 89 Q324 104 345 126 L370 241 L258 241 Q218 241 192.5 229.5 Q167 218 148 201 L130 114 Q138 99 161 86.5 Q184 74 221 74 Z M520 636 L190 636 L208 720 L538 720 L520 636 Z " />
<glyph glyph-name="abreve" unicode="&#x103;" horiz-adv-x="550" d="M530 421 L439 0 L323 0 L332 43 Q268 -14 181 -14 Q104 -14 61.5 12.5 Q19 39 1 69 L38 239 Q61 271 109 298.5 Q157 326 229 326 L389 326 L404 397 Q398 424 373 442 Q348 460 308 460 Q230 460 189 396 L82 396 L96 454 Q122 490 175.5 522.5 Q229 555 319 555 Q381 555 426.5 534 Q472 513 497.5 482 Q523 451 530 421 Z M221 74 Q260 74 292 89 Q324 104 345 126 L370 241 L258 241 Q218 241 192.5 229.5 Q167 218 148 201 L130 114 Q138 99 161 86.5 Q184 74 221 74 Z M524 681 Q502 645 460 622 Q418 599 357 599 Q295 599 256 622.5 Q217 646 205 681 L218 741 L307 741 L298 703 Q300 690 315.5 678 Q331 666 361 666 Q392 666 411 677.5 Q430 689 439 703 L447 741 L537 741 L524 681 Z " />
<glyph glyph-name="aring" unicode="&#xe5;" horiz-adv-x="550" d="M530 421 L439 0 L323 0 L332 43 Q268 -14 181 -14 Q104 -14 61.5 12.5 Q19 39 1 69 L38 239 Q61 271 109 298.5 Q157 326 229 326 L389 326 L404 397 Q398 424 373 442 Q348 460 308 460 Q230 460 189 396 L82 396 L96 454 Q122 490 175.5 522.5 Q229 555 319 555 Q381 555 426.5 534 Q472 513 497.5 482 Q523 451 530 421 Z M221 74 Q260 74 292 89 Q324 104 345 126 L370 241 L258 241 Q218 241 192.5 229.5 Q167 218 148 201 L130 114 Q138 99 161 86.5 Q184 74 221 74 Z M494 746 L475 654 Q458 628 425.5 611.5 Q393 595 353 595 Q312 595 281.5 611.5 Q251 628 242 654 L260 746 Q277 772 310 788.5 Q343 805 383 805 Q424 805 454 788.5 Q484 772 494 746 Z M317 728 L305 672 Q309 663 322 655.5 Q335 648 357 648 Q379 648 394 655.5 Q409 663 418 672 L430 728 Q426 737 413 744.5 Q400 752 378 752 Q356 752 341 744.5 Q326 737 317 728 Z " />
<glyph glyph-name="aogonek" unicode="&#x105;" horiz-adv-x="550" d="M322 -103 L315 -130 Q318 -137 330.5 -142 Q343 -147 359 -147 Q383 -147 409 -138 L394 -206 Q366 -221 322 -221 Q284 -221 254 -207 Q224 -193 218 -168 L234 -93 Q246 -75 274.5 -49 Q303 -23 339 0 L323 0 L332 43 Q268 -14 181 -14 Q104 -14 61.5 12.5 Q19 39 1 69 L38 239 Q61 271 109 298.5 Q157 326 229 326 L389 326 L404 397 Q398 424 373 442 Q348 460 308 460 Q230 460 189 396 L82 396 L96 454 Q122 490 175.5 522.5 Q229 555 319 555 Q381 555 426.5 534 Q472 513 497.5 482 Q523 451 530 421 L439 0 Q388 -33 359.5 -60 Q331 -87 322 -103 Z M221 74 Q260 74 292 89 Q324 104 345 126 L370 241 L258 241 Q218 241 192.5 229.5 Q167 218 148 201 L130 114 Q138 99 161 86.5 Q184 74 221 74 Z " />
<glyph glyph-name="ae" unicode="&#xe6;" horiz-adv-x="873" d="M491 242 L470 141 Q476 115 502 97 Q528 79 568 79 Q653 79 698 162 L805 162 L794 105 Q766 58 707.5 22 Q649 -14 558 -14 Q499 -14 455.5 4 Q412 22 383 51 Q348 22 300.5 4 Q253 -14 193 -14 Q110 -14 65.5 12.5 Q21 39 1 69 L38 239 Q61 272 109.5 299.5 Q158 327 229 327 L389 327 L406 404 Q395 428 370.5 444 Q346 460 308 460 Q230 460 189 396 L82 396 L96 454 Q122 490 175.5 522.5 Q229 555 319 555 Q420 555 480 500 Q555 555 656 555 Q718 555 762.5 535 Q807 515 831.5 487 Q856 459 863 435 L823 242 L491 242 Z M523 397 L509 327 L729 327 L743 399 Q738 425 712 443 Q686 461 644 461 Q604 461 572.5 442.5 Q541 424 523 397 Z M222 74 Q259 74 291 88.5 Q323 103 345 125 L370 242 L258 242 Q218 242 193 230.5 Q168 219 148 201 L130 114 Q138 100 161.5 87 Q185 74 222 74 Z " />
<glyph glyph-name="cacute" unicode="&#x107;" horiz-adv-x="535" d="M535 435 L523 377 L426 377 Q420 415 390.5 437.5 Q361 460 315 460 Q275 460 244 441.5 Q213 423 195 396 L140 142 Q146 116 172.5 98.5 Q199 81 240 81 Q326 81 374 163 L476 163 L465 105 Q436 59 379.5 22.5 Q323 -14 233 -14 Q170 -14 122.5 6.5 Q75 27 48.5 58 Q22 89 15 120 L81 421 Q111 476 172.5 515.5 Q234 555 327 555 Q388 555 433 535 Q478 515 503 487.5 Q528 460 535 435 Z M499 713 L397 607 L300 607 L303 622 L393 767 L511 767 L499 713 Z " />
<glyph glyph-name="ccircumflex" unicode="&#x109;" horiz-adv-x="535" d="M535 435 L523 377 L426 377 Q420 415 390.5 437.5 Q361 460 315 460 Q275 460 244 441.5 Q213 423 195 396 L140 142 Q146 116 172.5 98.5 Q199 81 240 81 Q326 81 374 163 L476 163 L465 105 Q436 59 379.5 22.5 Q323 -14 233 -14 Q170 -14 122.5 6.5 Q75 27 48.5 58 Q22 89 15 120 L81 421 Q111 476 172.5 515.5 Q234 555 327 555 Q388 555 433 535 Q478 515 503 487.5 Q528 460 535 435 Z M513 604 L434 604 L379 707 L280 604 L190 604 L194 620 L309 764 L464 764 L517 620 L513 604 Z " />
<glyph glyph-name="ccaron" unicode="&#x10d;" horiz-adv-x="535" d="M535 435 L523 377 L426 377 Q420 415 390.5 437.5 Q361 460 315 460 Q275 460 244 441.5 Q213 423 195 396 L140 142 Q146 116 172.5 98.5 Q199 81 240 81 Q326 81 374 163 L476 163 L465 105 Q436 59 379.5 22.5 Q323 -14 233 -14 Q170 -14 122.5 6.5 Q75 27 48.5 58 Q22 89 15 120 L81 421 Q111 476 172.5 515.5 Q234 555 327 555 Q388 555 433 535 Q478 515 503 487.5 Q528 460 535 435 Z M430 604 L274 604 L221 748 L225 764 L303 764 L359 662 L457 764 L548 764 L544 748 L430 604 Z " />
<glyph glyph-name="cdotaccent" unicode="&#x10b;" horiz-adv-x="535" d="M535 435 L523 377 L426 377 Q420 415 390.5 437.5 Q361 460 315 460 Q275 460 244 441.5 Q213 423 195 396 L140 142 Q146 116 172.5 98.5 Q199 81 240 81 Q326 81 374 163 L476 163 L465 105 Q436 59 379.5 22.5 Q323 -14 233 -14 Q170 -14 122.5 6.5 Q75 27 48.5 58 Q22 89 15 120 L81 421 Q111 476 172.5 515.5 Q234 555 327 555 Q388 555 433 535 Q478 515 503 487.5 Q528 460 535 435 Z M441 703 L428 645 Q420 632 400.5 622 Q381 612 354 612 Q329 612 313.5 622 Q298 632 295 645 L308 703 Q316 717 336 727 Q356 737 382 737 Q408 737 423 727 Q438 717 441 703 Z " />
<glyph glyph-name="ccedilla" unicode="&#xe7;" horiz-adv-x="535" d="M195 396 L140 142 Q146 116 172.5 98.5 Q199 81 240 81 Q326 81 374 163 L476 163 L465 105 Q436 59 381 23 Q326 -13 239 -14 L219 -47 L228 -47 Q259 -47 279.5 -61.5 Q300 -76 305 -95 L288 -169 Q251 -225 166 -225 Q136 -225 109 -219 Q82 -213 67 -204 L99 -149 Q132 -164 169 -164 Q188 -164 201.5 -158 Q215 -152 221 -142 L226 -117 Q224 -109 213 -103.5 Q202 -98 184 -98 L124 -98 L173 -9 Q106 4 64.5 41.5 Q23 79 15 120 L81 421 Q111 476 172.5 515.5 Q234 555 327 555 Q388 555 433 535 Q478 515 503 487.5 Q528 460 535 435 L523 377 L426 377 Q420 415 390.5 437.5 Q361 460 315 460 Q275 460 244 441.5 Q213 423 195 396 Z " />
<glyph glyph-name="dcaron" unicode="&#x10f;" horiz-adv-x="710" d="M590 700 L440 0 L324 0 L333 44 Q274 -12 188 -12 Q135 -12 97 7 Q59 26 38.5 53 Q18 80 13 105 L83 435 Q111 481 161.5 516.5 Q212 552 288 552 Q377 552 426 499 L469 700 L590 700 Z M232 83 Q268 83 297.5 96.5 Q327 110 347 131 L409 417 Q394 435 368.5 446 Q343 457 308 457 Q269 457 241.5 442 Q214 427 198 407 L140 133 Q147 115 170 99 Q193 83 232 83 Z M765 637 L694 505 L619 505 L623 520 L681 700 L778 700 L765 637 Z " />
<glyph glyph-name="egrave" unicode="&#xe8;" horiz-adv-x="544" d="M535 435 L494 242 L162 242 L141 141 Q147 115 173 97 Q199 79 239 79 Q326 79 369 162 L476 162 L465 105 Q436 58 378 22 Q320 -14 229 -14 Q166 -14 120 6.5 Q74 27 48 58 Q22 89 15 120 L81 421 Q111 475 173 515 Q235 555 327 555 Q389 555 433.5 535 Q478 515 503 487 Q528 459 535 435 Z M195 397 L181 327 L400 327 L415 399 Q409 425 383 443 Q357 461 316 461 Q276 461 244 442.5 Q212 424 195 397 Z M404 622 L402 607 L316 607 L257 713 L270 767 L377 767 L404 622 Z " />
<glyph glyph-name="eacute" unicode="&#xe9;" horiz-adv-x="544" d="M535 435 L494 242 L162 242 L141 141 Q147 115 173 97 Q199 79 239 79 Q326 79 369 162 L476 162 L465 105 Q436 58 378 22 Q320 -14 229 -14 Q166 -14 120 6.5 Q74 27 48 58 Q22 89 15 120 L81 421 Q111 475 173 515 Q235 555 327 555 Q389 555 433.5 535 Q478 515 503 487 Q528 459 535 435 Z M195 397 L181 327 L400 327 L415 399 Q409 425 383 443 Q357 461 316 461 Q276 461 244 442.5 Q212 424 195 397 Z M502 713 L400 607 L303 607 L306 622 L396 767 L514 767 L502 713 Z " />
<glyph glyph-name="ecircumflex" unicode="&#xea;" horiz-adv-x="544" d="M535 435 L494 242 L162 242 L141 141 Q147 115 173 97 Q199 79 239 79 Q326 79 369 162 L476 162 L465 105 Q436 58 378 22 Q320 -14 229 -14 Q166 -14 120 6.5 Q74 27 48 58 Q22 89 15 120 L81 421 Q111 475 173 515 Q235 555 327 555 Q389 555 433.5 535 Q478 515 503 487 Q528 459 535 435 Z M195 397 L181 327 L400 327 L415 399 Q409 425 383 443 Q357 461 316 461 Q276 461 244 442.5 Q212 424 195 397 Z M516 604 L437 604 L382 707 L283 604 L193 604 L197 620 L312 764 L467 764 L520 620 L516 604 Z " />
<glyph glyph-name="ecaron" unicode="&#x11b;" horiz-adv-x="544" d="M535 435 L494 242 L162 242 L141 141 Q147 115 173 97 Q199 79 239 79 Q326 79 369 162 L476 162 L465 105 Q436 58 378 22 Q320 -14 229 -14 Q166 -14 120 6.5 Q74 27 48 58 Q22 89 15 120 L81 421 Q111 475 173 515 Q235 555 327 555 Q389 555 433.5 535 Q478 515 503 487 Q528 459 535 435 Z M195 397 L181 327 L400 327 L415 399 Q409 425 383 443 Q357 461 316 461 Q276 461 244 442.5 Q212 424 195 397 Z M433 604 L277 604 L224 748 L228 764 L306 764 L362 662 L460 764 L551 764 L547 748 L433 604 Z " />
<glyph glyph-name="edieresis" unicode="&#xeb;" horiz-adv-x="544" d="M535 435 L494 242 L162 242 L141 141 Q147 115 173 97 Q199 79 239 79 Q326 79 369 162 L476 162 L465 105 Q436 58 378 22 Q320 -14 229 -14 Q166 -14 120 6.5 Q74 27 48 58 Q22 89 15 120 L81 421 Q111 475 173 515 Q235 555 327 555 Q389 555 433.5 535 Q478 515 503 487 Q528 459 535 435 Z M195 397 L181 327 L400 327 L415 399 Q409 425 383 443 Q357 461 316 461 Q276 461 244 442.5 Q212 424 195 397 Z M334 711 L318 637 Q290 612 250 612 Q226 612 212 620 Q198 628 194 637 L210 711 Q218 720 235.5 728 Q253 736 277 736 Q315 736 334 711 Z M546 711 L530 637 Q505 612 462 612 Q438 612 425 620 Q412 628 406 637 L422 711 Q431 720 448 728 Q465 736 489 736 Q527 736 546 711 Z " />
<glyph glyph-name="emacron" unicode="&#x113;" horiz-adv-x="544" d="M535 435 L494 242 L162 242 L141 141 Q147 115 173 97 Q199 79 239 79 Q326 79 369 162 L476 162 L465 105 Q436 58 378 22 Q320 -14 229 -14 Q166 -14 120 6.5 Q74 27 48 58 Q22 89 15 120 L81 421 Q111 475 173 515 Q235 555 327 555 Q389 555 433.5 535 Q478 515 503 487 Q528 459 535 435 Z M195 397 L181 327 L400 327 L415 399 Q409 425 383 443 Q357 461 316 461 Q276 461 244 442.5 Q212 424 195 397 Z M526 636 L196 636 L214 720 L544 720 L526 636 Z " />
<glyph glyph-name="ebreve" unicode="&#x115;" horiz-adv-x="544" d="M535 435 L494 242 L162 242 L141 141 Q147 115 173 97 Q199 79 239 79 Q326 79 369 162 L476 162 L465 105 Q436 58 378 22 Q320 -14 229 -14 Q166 -14 120 6.5 Q74 27 48 58 Q22 89 15 120 L81 421 Q111 475 173 515 Q235 555 327 555 Q389 555 433.5 535 Q478 515 503 487 Q528 459 535 435 Z M195 397 L181 327 L400 327 L415 399 Q409 425 383 443 Q357 461 316 461 Q276 461 244 442.5 Q212 424 195 397 Z M531 681 Q509 645 467 622 Q425 599 364 599 Q302 599 263 622.5 Q224 646 212 681 L225 741 L314 741 L305 703 Q307 690 322.5 678 Q338 666 368 666 Q399 666 418 677.5 Q437 689 446 703 L454 741 L544 741 L531 681 Z " />
<glyph glyph-name="edotaccent" unicode="&#x117;" horiz-adv-x="544" d="M535 435 L494 242 L162 242 L141 141 Q147 115 173 97 Q199 79 239 79 Q326 79 369 162 L476 162 L465 105 Q436 58 378 22 Q320 -14 229 -14 Q166 -14 120 6.5 Q74 27 48 58 Q22 89 15 120 L81 421 Q111 475 173 515 Q235 555 327 555 Q389 555 433.5 535 Q478 515 503 487 Q528 459 535 435 Z M195 397 L181 327 L400 327 L415 399 Q409 425 383 443 Q357 461 316 461 Q276 461 244 442.5 Q212 424 195 397 Z M443 703 L430 645 Q422 632 402.5 622 Q383 612 356 612 Q331 612 315.5 622 Q300 632 297 645 L310 703 Q318 717 338 727 Q358 737 384 737 Q410 737 425 727 Q440 717 443 703 Z " />
<glyph glyph-name="eogonek" unicode="&#x119;" horiz-adv-x="544" d="M162 242 L141 141 Q147 115 173 97 Q199 79 239 79 Q326 79 369 162 L476 162 L465 105 Q453 80 412 43 Q367 -1 337.5 -41.5 Q308 -82 300 -102 L294 -130 Q297 -137 309.5 -142 Q322 -147 338 -147 Q362 -147 388 -138 L373 -206 Q345 -221 301 -221 Q263 -221 233.5 -207 Q204 -193 197 -168 L213 -93 Q221 -79 240.5 -56 Q260 -33 285 -10 Q260 -14 229 -14 Q166 -14 120 6.5 Q74 27 48 58 Q22 89 15 120 L81 421 Q111 475 173 515 Q235 555 327 555 Q389 555 433.5 535 Q478 515 503 487 Q528 459 535 435 L494 242 L162 242 Z M181 327 L400 327 L415 399 Q409 425 383 443 Q357 461 316 461 Q276 461 244 442.5 Q212 424 195 397 L181 327 Z " />
<glyph glyph-name="gcircumflex" unicode="&#x11d;" horiz-adv-x="554" d="M556 540 L428 -52 Q399 -106 337.5 -143 Q276 -180 183 -180 Q93 -180 41.5 -145.5 Q-10 -111 -29 -70 L-17 -16 L81 -16 Q92 -49 121.5 -67.5 Q151 -86 195 -86 Q278 -86 314 -28 L336 76 Q276 25 196 25 Q143 25 105 44 Q67 63 46 90 Q25 117 20 142 L83 435 Q111 481 161.5 516.5 Q212 552 288 552 Q380 552 430 495 L440 540 L556 540 Z M357 171 L409 417 Q396 434 369.5 445.5 Q343 457 308 457 Q269 457 241.5 442 Q214 427 198 407 L147 170 Q154 152 177 136 Q200 120 239 120 Q308 120 357 171 Z M510 604 L431 604 L376 707 L277 604 L187 604 L191 620 L306 764 L461 764 L514 620 L510 604 Z " />
<glyph glyph-name="gbreve" unicode="&#x11f;" horiz-adv-x="554" d="M556 540 L428 -52 Q399 -106 337.5 -143 Q276 -180 183 -180 Q93 -180 41.5 -145.5 Q-10 -111 -29 -70 L-17 -16 L81 -16 Q92 -49 121.5 -67.5 Q151 -86 195 -86 Q278 -86 314 -28 L336 76 Q276 25 196 25 Q143 25 105 44 Q67 63 46 90 Q25 117 20 142 L83 435 Q111 481 161.5 516.5 Q212 552 288 552 Q380 552 430 495 L440 540 L556 540 Z M357 171 L409 417 Q396 434 369.5 445.5 Q343 457 308 457 Q269 457 241.5 442 Q214 427 198 407 L147 170 Q154 152 177 136 Q200 120 239 120 Q308 120 357 171 Z M525 681 Q503 645 461 622 Q419 599 358 599 Q296 599 257 622.5 Q218 646 206 681 L219 741 L308 741 L299 703 Q301 690 316.5 678 Q332 666 362 666 Q393 666 412 677.5 Q431 689 440 703 L448 741 L538 741 L525 681 Z " />
<glyph glyph-name="gdotaccent" unicode="&#x121;" horiz-adv-x="554" d="M556 540 L428 -52 Q399 -106 337.5 -143 Q276 -180 183 -180 Q93 -180 41.5 -145.5 Q-10 -111 -29 -70 L-17 -16 L81 -16 Q92 -49 121.5 -67.5 Q151 -86 195 -86 Q278 -86 314 -28 L336 76 Q276 25 196 25 Q143 25 105 44 Q67 63 46 90 Q25 117 20 142 L83 435 Q111 481 161.5 516.5 Q212 552 288 552 Q380 552 430 495 L440 540 L556 540 Z M357 171 L409 417 Q396 434 369.5 445.5 Q343 457 308 457 Q269 457 241.5 442 Q214 427 198 407 L147 170 Q154 152 177 136 Q200 120 239 120 Q308 120 357 171 Z M437 703 L424 645 Q416 632 396.5 622 Q377 612 350 612 Q325 612 309.5 622 Q294 632 291 645 L304 703 Q312 717 332 727 Q352 737 378 737 Q404 737 419 727 Q434 717 437 703 Z " />
<glyph glyph-name="gcommaaccent" unicode="&#x123;" horiz-adv-x="554" d="M556 540 L428 -52 Q399 -106 337.5 -143 Q276 -180 183 -180 Q93 -180 41.5 -145.5 Q-10 -111 -29 -70 L-17 -16 L81 -16 Q92 -49 121.5 -67.5 Q151 -86 195 -86 Q278 -86 314 -28 L336 76 Q276 25 196 25 Q143 25 105 44 Q67 63 46 90 Q25 117 20 142 L83 435 Q111 481 161.5 516.5 Q212 552 288 552 Q380 552 430 495 L440 540 L556 540 Z M357 171 L409 417 Q396 434 369.5 445.5 Q343 457 308 457 Q269 457 241.5 442 Q214 427 198 407 L147 170 Q154 152 177 136 Q200 120 239 120 Q308 120 357 171 Z M315 731 L310 705 Q359 705 371 672 L362 628 Q353 614 335.5 604.5 Q318 595 293 595 Q268 595 252 605 Q236 615 231 628 L255 742 Q263 759 287.5 774.5 Q312 790 347 790 L386 790 L376 743 L358 743 Q324 743 315 731 Z " />
<glyph glyph-name="hcircumflex" unicode="&#x125;" horiz-adv-x="561" d="M543 435 L449 0 L328 0 L415 407 Q408 426 384.5 441.5 Q361 457 323 457 Q254 457 207 412 L119 0 L-2 0 L148 700 L269 700 L226 503 Q291 552 370 552 Q423 552 460.5 533.5 Q498 515 518 488 Q538 461 543 435 Z M551 744 L472 744 L416 844 L318 744 L228 744 L232 760 L346 901 L501 901 L555 760 L551 744 Z " />
<glyph glyph-name="hbar" unicode="&#x127;" horiz-adv-x="575" d="M553 417 L464 0 L343 0 L426 389 Q419 408 395 423.5 Q371 439 334 439 Q266 439 218 395 L134 0 L13 0 L139 585 L95 585 L109 651 L153 651 L163 700 L284 700 L273 651 L443 651 L428 585 L259 585 L238 485 Q301 534 381 534 Q434 534 471 515 Q508 496 528 469.5 Q548 443 553 417 Z " />
<glyph glyph-name="igrave" unicode="&#xec;" horiz-adv-x="241" d="M123 0 L2 0 L118 540 L239 540 L123 0 Z M242 622 L240 607 L154 607 L95 713 L108 767 L215 767 L242 622 Z " />
<glyph glyph-name="iacute" unicode="&#xed;" horiz-adv-x="241" d="M123 0 L2 0 L118 540 L239 540 L123 0 Z M339 713 L237 607 L140 607 L143 622 L233 767 L351 767 L339 713 Z " />
<glyph glyph-name="icircumflex" unicode="&#xee;" horiz-adv-x="241" d="M123 0 L2 0 L118 540 L239 540 L123 0 Z M353 604 L274 604 L219 707 L120 604 L30 604 L34 620 L149 764 L304 764 L357 620 L353 604 Z " />
<glyph glyph-name="itilde" unicode="&#x129;" horiz-adv-x="241" d="M123 0 L2 0 L118 540 L239 540 L123 0 Z M226 709 Q244 698 253 693.5 Q262 689 273 689 Q300 689 313 716 L317 735 L389 735 L378 684 Q364 652 337.5 632 Q311 612 273 612 Q247 612 228.5 620 Q210 628 189 643 Q174 653 164 658 Q154 663 142 663 Q127 663 118 656.5 Q109 650 102 638 L98 617 L26 617 L38 669 Q52 701 79 720.5 Q106 740 142 740 Q168 740 186.5 732 Q205 724 226 709 Z " />
<glyph glyph-name="idieresis" unicode="&#xef;" horiz-adv-x="241" d="M123 0 L2 0 L118 540 L239 540 L123 0 Z M171 711 L155 637 Q127 612 87 612 Q63 612 49 620 Q35 628 31 637 L47 711 Q55 720 72.5 728 Q90 736 114 736 Q152 736 171 711 Z M383 711 L367 637 Q342 612 299 612 Q275 612 262 620 Q249 628 243 637 L259 711 Q268 720 285 728 Q302 736 326 736 Q364 736 383 711 Z " />
<glyph glyph-name="imacron" unicode="&#x12b;" horiz-adv-x="241" d="M123 0 L2 0 L118 540 L239 540 L123 0 Z M363 636 L33 636 L51 720 L381 720 L363 636 Z " />
<glyph glyph-name="ibreve" unicode="&#x12d;" horiz-adv-x="241" d="M123 0 L2 0 L118 540 L239 540 L123 0 Z M368 681 Q346 645 304 622 Q262 599 201 599 Q139 599 100 622.5 Q61 646 49 681 L62 741 L151 741 L142 703 Q144 690 159.5 678 Q175 666 205 666 Q236 666 255 677.5 Q274 689 283 703 L291 741 L381 741 L368 681 Z " />
<glyph glyph-name="iogonek" unicode="&#x12f;" horiz-adv-x="241" d="M280 703 L267 645 Q259 632 239.5 622 Q220 612 194 612 Q168 612 152.5 622 Q137 632 134 645 L147 703 Q155 717 175 727 Q195 737 221 737 Q247 737 262 727 Q277 717 280 703 Z M118 540 L239 540 L123 0 Q72 -33 43.5 -60 Q15 -87 6 -103 L-1 -130 Q2 -137 14.5 -142 Q27 -147 43 -147 Q67 -147 93 -138 L78 -206 Q50 -221 6 -221 Q-32 -221 -62 -207 Q-92 -193 -98 -168 L-81 -93 Q-69 -74 -41 -48.5 Q-13 -23 23 0 L2 0 L118 540 Z " />
<glyph glyph-name="dotlessi" unicode="&#x131;" horiz-adv-x="241" d="M123 0 L2 0 L118 540 L239 540 L123 0 Z " />
<glyph glyph-name="ij" unicode="&#x133;" horiz-adv-x="474" d="M123 0 L2 0 L118 540 L239 540 L123 0 Z M280 703 L267 645 Q259 632 239.5 622 Q220 612 193 612 Q168 612 152.5 622 Q137 632 134 645 L147 703 Q155 717 175 727 Q195 737 221 737 Q247 737 262 727 Q277 717 280 703 Z M350 -47 Q319 -107 253.5 -143.5 Q188 -180 91 -180 L111 -87 Q150 -87 184.5 -65.5 Q219 -44 236 -14 L355 540 L476 540 L350 -47 Z M518 703 L505 645 Q497 632 477.5 622 Q458 612 431 612 Q406 612 390.5 622 Q375 632 372 645 L385 703 Q393 717 413 727 Q433 737 459 737 Q485 737 500 727 Q515 717 518 703 Z " />
<glyph glyph-name="jcircumflex" unicode="&#x135;" horiz-adv-x="233" d="M109 -47 Q78 -107 12.5 -143.5 Q-53 -180 -150 -180 L-130 -87 Q-91 -87 -56.5 -65.5 Q-22 -44 -5 -14 L114 540 L235 540 L109 -47 Z M350 604 L271 604 L216 707 L117 604 L27 604 L31 620 L146 764 L301 764 L354 620 L350 604 Z " />
<glyph glyph-name="kcommaaccent" unicode="&#x137;" horiz-adv-x="528" d="M451 0 L364 0 L248 242 L154 164 L119 0 L-2 0 L148 700 L269 700 L186 315 L451 540 L539 540 L525 472 L342 320 L465 68 L451 0 Z M109 -182 L137 -182 Q163 -182 172 -169 L177 -146 Q154 -146 137 -141.5 Q120 -137 116 -129 L128 -74 Q135 -66 151.5 -60.5 Q168 -55 194 -55 Q237 -55 254 -74 L233 -174 Q223 -194 200.5 -208.5 Q178 -223 142 -223 L101 -223 L109 -182 Z " />
<glyph glyph-name="lacute" unicode="&#x13a;" horiz-adv-x="234" d="M120 0 L-2 0 L148 700 L269 700 L120 0 Z M255 749 L163 749 L167 765 L255 906 L370 906 L357 852 L255 749 Z " />
<glyph glyph-name="lcaron" unicode="&#x13e;" horiz-adv-x="388" d="M120 0 L-2 0 L148 700 L269 700 L120 0 Z M443 637 L372 505 L297 505 L301 520 L359 700 L456 700 L443 637 Z " />
<glyph glyph-name="lcommaaccent" unicode="&#x13c;" horiz-adv-x="234" d="M120 0 L-2 0 L148 700 L269 700 L120 0 Z M-39 -182 L-11 -182 Q15 -182 24 -169 L29 -146 Q6 -146 -11 -141.5 Q-28 -137 -32 -129 L-20 -74 Q-13 -66 3.5 -60.5 Q20 -55 46 -55 Q89 -55 106 -74 L85 -174 Q75 -194 52.5 -208.5 Q30 -223 -6 -223 L-47 -223 L-39 -182 Z " />
<glyph glyph-name="lslash" unicode="&#x142;" horiz-adv-x="345" d="M345 408 L251 360 L174 0 L54 0 L116 290 L24 242 L45 341 L137 389 L204 700 L324 700 L272 458 L366 507 L345 408 Z " />
<glyph glyph-name="ldot" unicode="&#x140;" horiz-adv-x="414" d="M120 0 L-2 0 L148 700 L269 700 L120 0 Z M418 391 L405 333 Q397 320 377.5 310 Q358 300 331 300 Q306 300 290.5 310 Q275 320 272 333 L285 391 Q293 405 313 415 Q333 425 359 425 Q385 425 400 415 Q415 405 418 391 Z " />
<glyph glyph-name="nacute" unicode="&#x144;" horiz-adv-x="560" d="M541 435 L448 0 L327 0 L415 407 Q407 426 385 441.5 Q363 457 324 457 Q287 457 256.5 444 Q226 431 206 410 L119 0 L-2 0 L114 540 L227 540 L217 495 Q283 552 370 552 Q447 552 489 515 Q531 478 541 435 Z M498 713 L396 607 L299 607 L302 622 L392 767 L510 767 L498 713 Z " />
<glyph glyph-name="ncaron" unicode="&#x148;" horiz-adv-x="560" d="M541 435 L448 0 L327 0 L415 407 Q407 426 385 441.5 Q363 457 324 457 Q287 457 256.5 444 Q226 431 206 410 L119 0 L-2 0 L114 540 L227 540 L217 495 Q283 552 370 552 Q447 552 489 515 Q531 478 541 435 Z M429 604 L273 604 L220 748 L224 764 L302 764 L358 662 L456 764 L547 764 L543 748 L429 604 Z " />
<glyph glyph-name="ntilde" unicode="&#xf1;" horiz-adv-x="560" d="M541 435 L448 0 L327 0 L415 407 Q407 426 385 441.5 Q363 457 324 457 Q287 457 256.5 444 Q226 431 206 410 L119 0 L-2 0 L114 540 L227 540 L217 495 Q283 552 370 552 Q447 552 489 515 Q531 478 541 435 Z M385 709 Q403 698 412 693.5 Q421 689 432 689 Q459 689 472 716 L476 735 L548 735 L537 684 Q523 652 496.5 632 Q470 612 432 612 Q406 612 387.5 620 Q369 628 348 643 Q333 653 323 658 Q313 663 301 663 Q286 663 277 656.5 Q268 650 261 638 L257 617 L185 617 L197 669 Q211 701 238 720.5 Q265 740 301 740 Q327 740 345.5 732 Q364 724 385 709 Z " />
<glyph glyph-name="ncommaaccent" unicode="&#x146;" horiz-adv-x="560" d="M541 435 L448 0 L327 0 L415 407 Q407 426 385 441.5 Q363 457 324 457 Q287 457 256.5 444 Q226 431 206 410 L119 0 L-2 0 L114 540 L227 540 L217 495 Q283 552 370 552 Q447 552 489 515 Q531 478 541 435 Z M124 -182 L152 -182 Q178 -182 187 -169 L192 -146 Q169 -146 152 -141.5 Q135 -137 131 -129 L143 -74 Q150 -66 166.5 -60.5 Q183 -55 209 -55 Q252 -55 269 -74 L248 -174 Q238 -194 215.5 -208.5 Q193 -223 157 -223 L116 -223 L124 -182 Z " />
<glyph glyph-name="napostrophe" unicode="&#x149;" horiz-adv-x="560" d="M541 435 L448 0 L327 0 L415 407 Q407 426 385 441.5 Q363 457 324 457 Q287 457 256.5 444 Q226 431 206 410 L119 0 L-2 0 L114 540 L227 540 L217 495 Q283 552 370 552 Q447 552 489 515 Q531 478 541 435 Z M39 622 L67 622 Q93 622 102 635 L107 658 Q84 658 67 662.5 Q50 667 46 675 L58 730 Q65 738 81.5 743.5 Q98 749 124 749 Q167 749 184 730 L163 630 Q153 610 130.5 595.5 Q108 581 72 581 L31 581 L39 622 Z " />
<glyph glyph-name="ograve" unicode="&#xf2;" horiz-adv-x="556" d="M541 421 L475 120 Q444 66 383.5 26 Q323 -14 230 -14 Q166 -14 120 6.5 Q74 27 48 58 Q22 89 15 120 L81 421 Q112 475 173 515 Q234 555 327 555 Q390 555 436 534.5 Q482 514 508 483 Q534 452 541 421 Z M195 394 L140 142 Q146 116 172.5 98.5 Q199 81 240 81 Q281 81 312 100 Q343 119 360 147 L415 399 Q409 425 382.5 442.5 Q356 460 315 460 Q275 460 243.5 440.5 Q212 421 195 394 Z M398 622 L396 607 L310 607 L251 713 L264 767 L371 767 L398 622 Z " />
<glyph glyph-name="oacute" unicode="&#xf3;" horiz-adv-x="556" d="M541 421 L475 120 Q444 66 383.5 26 Q323 -14 230 -14 Q166 -14 120 6.5 Q74 27 48 58 Q22 89 15 120 L81 421 Q112 475 173 515 Q234 555 327 555 Q390 555 436 534.5 Q482 514 508 483 Q534 452 541 421 Z M195 394 L140 142 Q146 116 172.5 98.5 Q199 81 240 81 Q281 81 312 100 Q343 119 360 147 L415 399 Q409 425 382.5 442.5 Q356 460 315 460 Q275 460 243.5 440.5 Q212 421 195 394 Z M496 713 L394 607 L297 607 L300 622 L390 767 L508 767 L496 713 Z " />
<glyph glyph-name="ocircumflex" unicode="&#xf4;" horiz-adv-x="556" d="M541 421 L475 120 Q444 66 383.5 26 Q323 -14 230 -14 Q166 -14 120 6.5 Q74 27 48 58 Q22 89 15 120 L81 421 Q112 475 173 515 Q234 555 327 555 Q390 555 436 534.5 Q482 514 508 483 Q534 452 541 421 Z M195 394 L140 142 Q146 116 172.5 98.5 Q199 81 240 81 Q281 81 312 100 Q343 119 360 147 L415 399 Q409 425 382.5 442.5 Q356 460 315 460 Q275 460 243.5 440.5 Q212 421 195 394 Z M510 604 L431 604 L376 707 L277 604 L187 604 L191 620 L306 764 L461 764 L514 620 L510 604 Z " />
<glyph glyph-name="otilde" unicode="&#xf5;" horiz-adv-x="556" d="M541 421 L475 120 Q444 66 383.5 26 Q323 -14 230 -14 Q166 -14 120 6.5 Q74 27 48 58 Q22 89 15 120 L81 421 Q112 475 173 515 Q234 555 327 555 Q390 555 436 534.5 Q482 514 508 483 Q534 452 541 421 Z M195 394 L140 142 Q146 116 172.5 98.5 Q199 81 240 81 Q281 81 312 100 Q343 119 360 147 L415 399 Q409 425 382.5 442.5 Q356 460 315 460 Q275 460 243.5 440.5 Q212 421 195 394 Z M383 709 Q401 698 410 693.5 Q419 689 430 689 Q457 689 470 716 L474 735 L546 735 L535 684 Q521 652 494.5 632 Q468 612 430 612 Q404 612 385.5 620 Q367 628 346 643 Q331 653 321 658 Q311 663 299 663 Q284 663 275 656.5 Q266 650 259 638 L255 617 L183 617 L195 669 Q209 701 236 720.5 Q263 740 299 740 Q325 740 343.5 732 Q362 724 383 709 Z " />
<glyph glyph-name="odieresis" unicode="&#xf6;" horiz-adv-x="556" d="M541 421 L475 120 Q444 66 383.5 26 Q323 -14 230 -14 Q166 -14 120 6.5 Q74 27 48 58 Q22 89 15 120 L81 421 Q112 475 173 515 Q234 555 327 555 Q390 555 436 534.5 Q482 514 508 483 Q534 452 541 421 Z M195 394 L140 142 Q146 116 172.5 98.5 Q199 81 240 81 Q281 81 312 100 Q343 119 360 147 L415 399 Q409 425 382.5 442.5 Q356 460 315 460 Q275 460 243.5 440.5 Q212 421 195 394 Z M328 711 L312 637 Q284 612 244 612 Q220 612 206 620 Q192 628 188 637 L204 711 Q212 720 229.5 728 Q247 736 271 736 Q309 736 328 711 Z M540 711 L524 637 Q499 612 456 612 Q432 612 419 620 Q406 628 400 637 L416 711 Q425 720 442 728 Q459 736 483 736 Q521 736 540 711 Z " />
<glyph glyph-name="omacron" unicode="&#x14d;" horiz-adv-x="556" d="M541 421 L475 120 Q444 66 383.5 26 Q323 -14 230 -14 Q166 -14 120 6.5 Q74 27 48 58 Q22 89 15 120 L81 421 Q112 475 173 515 Q234 555 327 555 Q390 555 436 534.5 Q482 514 508 483 Q534 452 541 421 Z M195 394 L140 142 Q146 116 172.5 98.5 Q199 81 240 81 Q281 81 312 100 Q343 119 360 147 L415 399 Q409 425 382.5 442.5 Q356 460 315 460 Q275 460 243.5 440.5 Q212 421 195 394 Z M520 636 L190 636 L208 720 L538 720 L520 636 Z " />
<glyph glyph-name="obreve" unicode="&#x14f;" horiz-adv-x="556" d="M541 421 L475 120 Q444 66 383.5 26 Q323 -14 230 -14 Q166 -14 120 6.5 Q74 27 48 58 Q22 89 15 120 L81 421 Q112 475 173 515 Q234 555 327 555 Q390 555 436 534.5 Q482 514 508 483 Q534 452 541 421 Z M195 394 L140 142 Q146 116 172.5 98.5 Q199 81 240 81 Q281 81 312 100 Q343 119 360 147 L415 399 Q409 425 382.5 442.5 Q356 460 315 460 Q275 460 243.5 440.5 Q212 421 195 394 Z M525 681 Q503 645 461 622 Q419 599 358 599 Q296 599 257 622.5 Q218 646 206 681 L219 741 L308 741 L299 703 Q301 690 316.5 678 Q332 666 362 666 Q393 666 412 677.5 Q431 689 440 703 L448 741 L538 741 L525 681 Z " />
<glyph glyph-name="ohungarumlaut" unicode="&#x151;" horiz-adv-x="556" d="M541 421 L475 120 Q444 66 383.5 26 Q323 -14 230 -14 Q166 -14 120 6.5 Q74 27 48 58 Q22 89 15 120 L81 421 Q112 475 173 515 Q234 555 327 555 Q390 555 436 534.5 Q482 514 508 483 Q534 452 541 421 Z M195 394 L140 142 Q146 116 172.5 98.5 Q199 81 240 81 Q281 81 312 100 Q343 119 360 147 L415 399 Q409 425 382.5 442.5 Q356 460 315 460 Q275 460 243.5 440.5 Q212 421 195 394 Z M293 600 L209 600 L213 616 L287 760 L386 760 L376 715 L293 600 Z M482 600 L399 600 L403 616 L475 760 L575 760 L565 715 L482 600 Z " />
<glyph glyph-name="oslash" unicode="&#xf8;" horiz-adv-x="556" d="M556 496 L523 463 Q536 443 541 421 L475 120 Q444 66 383.5 26 Q323 -14 230 -14 Q140 -14 80 29 L51 0 L-10 0 L-1 45 L33 78 Q20 98 15 120 L81 421 Q112 475 173 515 Q234 555 327 555 Q416 555 476 512 L505 540 L566 540 L556 496 Z M152 194 L395 433 Q366 460 315 460 Q275 460 243.5 440.5 Q212 421 195 394 L152 194 Z M404 347 L160 108 Q189 81 240 81 Q281 81 312 100 Q343 119 360 147 L404 347 Z " />
<glyph glyph-name="oe" unicode="&#x153;" horiz-adv-x="884" d="M502 242 L481 141 Q487 115 513 97 Q539 79 579 79 Q664 79 709 162 L816 162 L804 105 Q776 59 718 22.5 Q660 -14 569 -14 Q467 -14 405 41 Q335 -14 230 -14 Q166 -14 120 6.5 Q74 27 48 58 Q22 89 15 120 L81 421 Q112 475 173 515 Q234 555 327 555 Q380 555 421 540 Q462 525 490 500 Q562 555 667 555 Q729 555 773.5 535 Q818 515 842.5 487 Q867 459 874 435 L833 242 L502 242 Z M536 400 L520 327 L739 327 L754 399 Q749 425 723 443 Q697 461 655 461 Q616 461 585.5 443.5 Q555 426 536 400 Z M360 147 L398 318 L415 399 Q409 425 383 442.5 Q357 460 315 460 Q275 460 243.5 440.5 Q212 421 195 394 L140 142 Q146 116 172.5 98.5 Q199 81 240 81 Q281 81 312 100 Q343 119 360 147 Z " />
<glyph glyph-name="racute" unicode="&#x155;" horiz-adv-x="368" d="M404 540 L380 430 Q369 431 356 431 Q305 431 265 417 Q225 403 201 382 L119 0 L-2 0 L114 540 L227 540 L211 468 Q244 502 282.5 522 Q321 542 375 542 Q382 542 404 540 Z M422 713 L320 607 L223 607 L226 622 L316 767 L434 767 L422 713 Z " />
<glyph glyph-name="rcaron" unicode="&#x159;" horiz-adv-x="368" d="M404 540 L380 430 Q369 431 356 431 Q305 431 265 417 Q225 403 201 382 L119 0 L-2 0 L114 540 L227 540 L211 468 Q244 502 282.5 522 Q321 542 375 542 Q382 542 404 540 Z M353 604 L197 604 L144 748 L148 764 L226 764 L282 662 L380 764 L471 764 L467 748 L353 604 Z " />
<glyph glyph-name="rcommaaccent" unicode="&#x157;" horiz-adv-x="368" d="M404 540 L380 430 Q369 431 356 431 Q305 431 265 417 Q225 403 201 382 L119 0 L-2 0 L114 540 L227 540 L211 468 Q244 502 282.5 522 Q321 542 375 542 Q382 542 404 540 Z M-40 -182 L-12 -182 Q14 -182 23 -169 L28 -146 Q5 -146 -12 -141.5 Q-29 -137 -33 -129 L-21 -74 Q-14 -66 2.5 -60.5 Q19 -55 45 -55 Q88 -55 105 -74 L84 -174 Q74 -194 51.5 -208.5 Q29 -223 -7 -223 L-48 -223 L-40 -182 Z " />
<glyph glyph-name="sacute" unicode="&#x15b;" horiz-adv-x="497" d="M493 463 L481 408 L385 408 Q376 433 350.5 448.5 Q325 464 287 464 Q254 464 230 453.5 Q206 443 191 428 L179 368 Q189 343 249 327 L299 314 Q369 296 402.5 273 Q436 250 450 222 L420 87 Q391 46 338.5 16 Q286 -14 202 -14 Q115 -14 65 18 Q15 50 -3 87 L10 142 L108 142 Q119 109 146 93 Q173 77 213 77 Q248 77 274.5 90 Q301 103 316 123 L330 182 Q323 196 305.5 206 Q288 216 258 224 L207 237 Q138 255 107.5 276.5 Q77 298 58 329 L87 463 Q112 496 165.5 525.5 Q219 555 299 555 Q378 555 426 526 Q474 497 493 463 Z M474 713 L372 607 L275 607 L278 622 L368 767 L486 767 L474 713 Z " />
<glyph glyph-name="scircumflex" unicode="&#x15d;" horiz-adv-x="497" d="M493 463 L481 408 L385 408 Q376 433 350.5 448.5 Q325 464 287 464 Q254 464 230 453.5 Q206 443 191 428 L179 368 Q189 343 249 327 L299 314 Q369 296 402.5 273 Q436 250 450 222 L420 87 Q391 46 338.5 16 Q286 -14 202 -14 Q115 -14 65 18 Q15 50 -3 87 L10 142 L108 142 Q119 109 146 93 Q173 77 213 77 Q248 77 274.5 90 Q301 103 316 123 L330 182 Q323 196 305.5 206 Q288 216 258 224 L207 237 Q138 255 107.5 276.5 Q77 298 58 329 L87 463 Q112 496 165.5 525.5 Q219 555 299 555 Q378 555 426 526 Q474 497 493 463 Z M488 604 L409 604 L354 707 L255 604 L165 604 L169 620 L284 764 L439 764 L492 620 L488 604 Z " />
<glyph glyph-name="scaron" unicode="&#x161;" horiz-adv-x="497" d="M493 463 L481 408 L385 408 Q376 433 350.5 448.5 Q325 464 287 464 Q254 464 230 453.5 Q206 443 191 428 L179 368 Q189 343 249 327 L299 314 Q369 296 402.5 273 Q436 250 450 222 L420 87 Q391 46 338.5 16 Q286 -14 202 -14 Q115 -14 65 18 Q15 50 -3 87 L10 142 L108 142 Q119 109 146 93 Q173 77 213 77 Q248 77 274.5 90 Q301 103 316 123 L330 182 Q323 196 305.5 206 Q288 216 258 224 L207 237 Q138 255 107.5 276.5 Q77 298 58 329 L87 463 Q112 496 165.5 525.5 Q219 555 299 555 Q378 555 426 526 Q474 497 493 463 Z M405 604 L249 604 L196 748 L200 764 L278 764 L334 662 L432 764 L523 764 L519 748 L405 604 Z " />
<glyph glyph-name="scedilla" unicode="&#x15f;" horiz-adv-x="497" d="M191 428 L179 368 Q189 343 249 327 L299 314 Q369 296 402.5 273 Q436 250 450 222 L420 87 Q395 50 348.5 21 Q302 -8 229 -13 L209 -47 L217 -47 Q248 -47 269 -61.5 Q290 -76 295 -95 L278 -169 Q241 -225 156 -225 Q126 -225 99 -219 Q72 -213 57 -204 L89 -150 Q124 -164 159 -164 Q177 -164 190.5 -158 Q204 -152 210 -143 L216 -117 Q214 -109 203 -103.5 Q192 -98 174 -98 L114 -98 L161 -12 Q93 -5 52.5 25 Q12 55 -3 87 L10 142 L108 142 Q129 77 213 77 Q248 77 274.5 90 Q301 103 316 123 L330 182 Q323 196 305.5 206 Q288 216 258 224 L207 237 Q138 255 107.5 276.5 Q77 298 58 329 L87 463 Q112 496 165.5 525.5 Q219 555 299 555 Q378 555 426 526 Q474 497 493 463 L481 408 L385 408 Q376 433 350.5 448.5 Q325 464 287 464 Q254 464 230 453.5 Q206 443 191 428 Z " />
<glyph glyph-name="scommaaccent" unicode="&#x219;" horiz-adv-x="497" d="M493 463 L481 408 L385 408 Q376 433 350.5 448.5 Q325 464 287 464 Q254 464 230 453.5 Q206 443 191 428 L179 368 Q189 343 249 327 L299 314 Q369 296 402.5 273 Q436 250 450 222 L420 87 Q391 46 338.5 16 Q286 -14 202 -14 Q115 -14 65 18 Q15 50 -3 87 L10 142 L108 142 Q119 109 146 93 Q173 77 213 77 Q248 77 274.5 90 Q301 103 316 123 L330 182 Q323 196 305.5 206 Q288 216 258 224 L207 237 Q138 255 107.5 276.5 Q77 298 58 329 L87 463 Q112 496 165.5 525.5 Q219 555 299 555 Q378 555 426 526 Q474 497 493 463 Z M109 -182 L137 -182 Q163 -182 172 -169 L177 -146 Q154 -146 137 -141.5 Q120 -137 116 -129 L128 -74 Q135 -66 151.5 -60.5 Q168 -55 194 -55 Q237 -55 254 -74 L233 -174 Q223 -194 200.5 -208.5 Q178 -223 142 -223 L101 -223 L109 -182 Z " />
<glyph glyph-name="germandbls" unicode="&#xdf;" horiz-adv-x="558" d="M569 606 L533 434 Q517 410 491 391 Q465 372 437 361 Q472 342 491 320 Q510 298 517 271 L483 120 Q446 53 383.5 26.5 Q321 0 217 0 L238 95 Q286 95 316 105.5 Q346 116 370 152 L392 252 Q385 284 358 300 Q331 316 295 317 L314 409 Q377 409 426 458 L450 566 Q441 590 415.5 605 Q390 620 354 620 Q318 620 288.5 604.5 Q259 589 240 566 L119 0 L-2 0 L125 592 Q153 640 215.5 677 Q278 714 362 714 Q421 714 464.5 696.5 Q508 679 533.5 654 Q559 629 569 606 Z " />
<glyph glyph-name="tcaron" unicode="&#x165;" horiz-adv-x="418" d="M252 451 L181 120 Q197 82 268 82 Q287 82 308 85 L290 -1 Q255 -11 216 -11 Q140 -11 101.5 16.5 Q63 44 52 82 L132 451 L69 451 L89 540 L151 540 L175 654 L295 654 L271 540 L388 540 L368 451 L252 451 Z M499 737 L428 605 L353 605 L357 620 L415 800 L512 800 L499 737 Z " />
<glyph glyph-name="uni021B" unicode="&#x21b;" horiz-adv-x="358" d="M243 451 L172 120 Q188 82 259 82 Q278 82 299 85 L281 -1 Q246 -11 207 -11 Q131 -11 92.5 16.5 Q54 44 43 82 L123 451 L60 451 L80 540 L142 540 L166 654 L286 654 L262 540 L379 540 L359 451 L243 451 Z M69 -182 L97 -182 Q123 -182 132 -169 L137 -146 Q114 -146 97 -141.5 Q80 -137 76 -129 L88 -74 Q95 -66 111.5 -60.5 Q128 -55 154 -55 Q197 -55 214 -74 L193 -174 Q183 -194 160.5 -208.5 Q138 -223 102 -223 L61 -223 L69 -182 Z " />
<glyph glyph-name="tbar" unicode="&#x167;" horiz-adv-x="358" d="M252 451 L226 328 L343 328 L325 239 L207 239 L181 120 Q197 82 268 82 Q287 82 308 85 L290 -1 Q255 -11 217 -11 Q140 -11 101.5 16.5 Q63 44 52 82 L86 239 L26 239 L44 328 L105 328 L131 451 L69 451 L89 540 L150 540 L175 654 L296 654 L271 540 L388 540 L368 451 L252 451 Z " />
<glyph glyph-name="ugrave" unicode="&#xf9;" horiz-adv-x="553" d="M555 540 L439 0 L326 0 L336 43 Q276 -12 190 -12 Q138 -12 100.5 7 Q63 26 42.5 53 Q22 80 17 104 L111 540 L231 540 L144 133 Q150 115 173 99 Q196 83 235 83 Q271 83 299.5 95.5 Q328 108 346 127 L435 540 L555 540 Z M398 622 L396 607 L310 607 L251 713 L264 767 L371 767 L398 622 Z " />
<glyph glyph-name="uacute" unicode="&#xfa;" horiz-adv-x="553" d="M555 540 L439 0 L326 0 L336 43 Q276 -12 190 -12 Q138 -12 100.5 7 Q63 26 42.5 53 Q22 80 17 104 L111 540 L231 540 L144 133 Q150 115 173 99 Q196 83 235 83 Q271 83 299.5 95.5 Q328 108 346 127 L435 540 L555 540 Z M496 713 L394 607 L297 607 L300 622 L390 767 L508 767 L496 713 Z " />
<glyph glyph-name="ucircumflex" unicode="&#xfb;" horiz-adv-x="553" d="M555 540 L439 0 L326 0 L336 43 Q276 -12 190 -12 Q138 -12 100.5 7 Q63 26 42.5 53 Q22 80 17 104 L111 540 L231 540 L144 133 Q150 115 173 99 Q196 83 235 83 Q271 83 299.5 95.5 Q328 108 346 127 L435 540 L555 540 Z M510 604 L431 604 L376 707 L277 604 L187 604 L191 620 L306 764 L461 764 L514 620 L510 604 Z " />
<glyph glyph-name="utilde" unicode="&#x169;" horiz-adv-x="553" d="M555 540 L439 0 L326 0 L336 43 Q276 -12 190 -12 Q138 -12 100.5 7 Q63 26 42.5 53 Q22 80 17 104 L111 540 L231 540 L144 133 Q150 115 173 99 Q196 83 235 83 Q271 83 299.5 95.5 Q328 108 346 127 L435 540 L555 540 Z M383 709 Q401 698 410 693.5 Q419 689 430 689 Q457 689 470 716 L474 735 L546 735 L535 684 Q521 652 494.5 632 Q468 612 430 612 Q404 612 385.5 620 Q367 628 346 643 Q331 653 321 658 Q311 663 299 663 Q284 663 275 656.5 Q266 650 259 638 L255 617 L183 617 L195 669 Q209 701 236 720.5 Q263 740 299 740 Q325 740 343.5 732 Q362 724 383 709 Z " />
<glyph glyph-name="udieresis" unicode="&#xfc;" horiz-adv-x="553" d="M555 540 L439 0 L326 0 L336 43 Q276 -12 190 -12 Q138 -12 100.5 7 Q63 26 42.5 53 Q22 80 17 104 L111 540 L231 540 L144 133 Q150 115 173 99 Q196 83 235 83 Q271 83 299.5 95.5 Q328 108 346 127 L435 540 L555 540 Z M328 711 L312 637 Q284 612 244 612 Q220 612 206 620 Q192 628 188 637 L204 711 Q212 720 229.5 728 Q247 736 271 736 Q309 736 328 711 Z M540 711 L524 637 Q499 612 456 612 Q432 612 419 620 Q406 628 400 637 L416 711 Q425 720 442 728 Q459 736 483 736 Q521 736 540 711 Z " />
<glyph glyph-name="umacron" unicode="&#x16b;" horiz-adv-x="553" d="M555 540 L439 0 L326 0 L336 43 Q276 -12 190 -12 Q138 -12 100.5 7 Q63 26 42.5 53 Q22 80 17 104 L111 540 L231 540 L144 133 Q150 115 173 99 Q196 83 235 83 Q271 83 299.5 95.5 Q328 108 346 127 L435 540 L555 540 Z M520 636 L190 636 L208 720 L538 720 L520 636 Z " />
<glyph glyph-name="ubreve" unicode="&#x16d;" horiz-adv-x="553" d="M555 540 L439 0 L326 0 L336 43 Q276 -12 190 -12 Q138 -12 100.5 7 Q63 26 42.5 53 Q22 80 17 104 L111 540 L231 540 L144 133 Q150 115 173 99 Q196 83 235 83 Q271 83 299.5 95.5 Q328 108 346 127 L435 540 L555 540 Z M525 681 Q503 645 461 622 Q419 599 358 599 Q296 599 257 622.5 Q218 646 206 681 L219 741 L308 741 L299 703 Q301 690 316.5 678 Q332 666 362 666 Q393 666 412 677.5 Q431 689 440 703 L448 741 L538 741 L525 681 Z " />
<glyph glyph-name="uring" unicode="&#x16f;" horiz-adv-x="553" d="M555 540 L439 0 L326 0 L336 43 Q276 -12 190 -12 Q138 -12 100.5 7 Q63 26 42.5 53 Q22 80 17 104 L111 540 L231 540 L144 133 Q150 115 173 99 Q196 83 235 83 Q271 83 299.5 95.5 Q328 108 346 127 L435 540 L555 540 Z M495 746 L476 654 Q459 628 426.5 611.5 Q394 595 354 595 Q313 595 282.5 611.5 Q252 628 243 654 L261 746 Q278 772 311 788.5 Q344 805 384 805 Q425 805 455 788.5 Q485 772 495 746 Z M318 728 L306 672 Q310 663 323 655.5 Q336 648 358 648 Q380 648 395 655.5 Q410 663 419 672 L431 728 Q427 737 414 744.5 Q401 752 379 752 Q357 752 342 744.5 Q327 737 318 728 Z " />
<glyph glyph-name="uhungarumlaut" unicode="&#x171;" horiz-adv-x="553" d="M555 540 L439 0 L326 0 L336 43 Q276 -12 190 -12 Q138 -12 100.5 7 Q63 26 42.5 53 Q22 80 17 104 L111 540 L231 540 L144 133 Q150 115 173 99 Q196 83 235 83 Q271 83 299.5 95.5 Q328 108 346 127 L435 540 L555 540 Z M293 600 L209 600 L213 616 L287 760 L386 760 L376 715 L293 600 Z M482 600 L399 600 L403 616 L475 760 L575 760 L565 715 L482 600 Z " />
<glyph glyph-name="uogonek" unicode="&#x173;" horiz-adv-x="553" d="M322 -103 L315 -130 Q318 -137 330.5 -142 Q343 -147 359 -147 Q383 -147 409 -138 L394 -206 Q366 -221 322 -221 Q284 -221 254 -207 Q224 -193 218 -168 L234 -93 Q246 -75 274.5 -49 Q303 -23 339 0 L326 0 L336 43 Q276 -12 190 -12 Q138 -12 100.5 7 Q63 26 42.5 53 Q22 80 17 104 L111 540 L231 540 L144 133 Q150 115 173 99 Q196 83 235 83 Q271 83 299.5 95.5 Q328 108 346 127 L435 540 L555 540 L439 0 Q388 -33 359.5 -60 Q331 -87 322 -103 Z " />
<glyph glyph-name="wgrave" unicode="&#x1e81;" horiz-adv-x="788" d="M576 0 L439 0 L417 365 L414 365 L240 0 L100 0 L78 472 L93 540 L194 540 L199 130 L202 130 L398 540 L507 540 L525 130 L528 130 L709 540 L815 540 L800 472 L576 0 Z M515 622 L513 607 L427 607 L368 713 L381 767 L488 767 L515 622 Z " />
<glyph glyph-name="wacute" unicode="&#x1e83;" horiz-adv-x="788" d="M576 0 L439 0 L417 365 L414 365 L240 0 L100 0 L78 472 L93 540 L194 540 L199 130 L202 130 L398 540 L507 540 L525 130 L528 130 L709 540 L815 540 L800 472 L576 0 Z M612 713 L510 607 L413 607 L416 622 L506 767 L624 767 L612 713 Z " />
<glyph glyph-name="wcircumflex" unicode="&#x175;" horiz-adv-x="788" d="M576 0 L439 0 L417 365 L414 365 L240 0 L100 0 L78 472 L93 540 L194 540 L199 130 L202 130 L398 540 L507 540 L525 130 L528 130 L709 540 L815 540 L800 472 L576 0 Z M627 604 L548 604 L493 707 L394 604 L304 604 L308 620 L423 764 L578 764 L631 620 L627 604 Z " />
<glyph glyph-name="wdieresis" unicode="&#x1e85;" horiz-adv-x="788" d="M576 0 L439 0 L417 365 L414 365 L240 0 L100 0 L78 472 L93 540 L194 540 L199 130 L202 130 L398 540 L507 540 L525 130 L528 130 L709 540 L815 540 L800 472 L576 0 Z M445 711 L429 637 Q401 612 361 612 Q337 612 323 620 Q309 628 305 637 L321 711 Q329 720 346.5 728 Q364 736 388 736 Q426 736 445 711 Z M657 711 L641 637 Q616 612 573 612 Q549 612 536 620 Q523 628 517 637 L533 711 Q542 720 559 728 Q576 736 600 736 Q638 736 657 711 Z " />
<glyph glyph-name="ygrave" unicode="&#x1ef3;" horiz-adv-x="519" d="M436 540 L546 540 L532 473 L218 -98 Q182 -139 135 -156.5 Q88 -174 24 -174 Q-28 -174 -54 -166 L-35 -79 Q-17 -82 9 -82 Q79 -82 123 -42 L148 7 L76 471 L91 540 L190 540 L235 153 L238 153 L436 540 Z M379 622 L377 607 L291 607 L232 713 L245 767 L352 767 L379 622 Z " />
<glyph glyph-name="yacute" unicode="&#xfd;" horiz-adv-x="519" d="M436 540 L546 540 L532 473 L218 -98 Q182 -139 135 -156.5 Q88 -174 24 -174 Q-28 -174 -54 -166 L-35 -79 Q-17 -82 9 -82 Q79 -82 123 -42 L148 7 L76 471 L91 540 L190 540 L235 153 L238 153 L436 540 Z M477 713 L375 607 L278 607 L281 622 L371 767 L489 767 L477 713 Z " />
<glyph glyph-name="ycircumflex" unicode="&#x177;" horiz-adv-x="519" d="M436 540 L546 540 L532 473 L218 -98 Q182 -139 135 -156.5 Q88 -174 24 -174 Q-28 -174 -54 -166 L-35 -79 Q-17 -82 9 -82 Q79 -82 123 -42 L148 7 L76 471 L91 540 L190 540 L235 153 L238 153 L436 540 Z M491 604 L412 604 L357 707 L258 604 L168 604 L172 620 L287 764 L442 764 L495 620 L491 604 Z " />
<glyph glyph-name="ydieresis" unicode="&#xff;" horiz-adv-x="519" d="M436 540 L546 540 L532 473 L218 -98 Q182 -139 135 -156.5 Q88 -174 24 -174 Q-28 -174 -54 -166 L-35 -79 Q-17 -82 9 -82 Q79 -82 123 -42 L148 7 L76 471 L91 540 L190 540 L235 153 L238 153 L436 540 Z M309 711 L293 637 Q265 612 225 612 Q201 612 187 620 Q173 628 169 637 L185 711 Q193 720 210.5 728 Q228 736 252 736 Q290 736 309 711 Z M521 711 L505 637 Q480 612 437 612 Q413 612 400 620 Q387 628 381 637 L397 711 Q406 720 423 728 Q440 736 464 736 Q502 736 521 711 Z " />
<glyph glyph-name="zacute" unicode="&#x17a;" horiz-adv-x="480" d="M136 90 L413 90 L393 0 L-29 0 L-11 83 L338 450 L75 450 L95 540 L509 540 L492 462 L136 90 Z M455 713 L353 607 L256 607 L259 622 L349 767 L467 767 L455 713 Z " />
<glyph glyph-name="zcaron" unicode="&#x17e;" horiz-adv-x="480" d="M136 90 L413 90 L393 0 L-29 0 L-11 83 L338 450 L75 450 L95 540 L509 540 L492 462 L136 90 Z M386 604 L230 604 L177 748 L181 764 L259 764 L315 662 L413 764 L504 764 L500 748 L386 604 Z " />
<glyph glyph-name="zdotaccent" unicode="&#x17c;" horiz-adv-x="480" d="M136 90 L413 90 L393 0 L-29 0 L-11 83 L338 450 L75 450 L95 540 L509 540 L492 462 L136 90 Z M397 703 L384 645 Q376 632 356.5 622 Q337 612 310 612 Q285 612 269.5 622 Q254 632 251 645 L264 703 Q272 717 292 727 Q312 737 338 737 Q364 737 379 727 Q394 717 397 703 Z " />
<glyph glyph-name="eng" unicode="&#x14b;" horiz-adv-x="560" d="M541 435 L438 -47 Q407 -107 341.5 -143.5 Q276 -180 179 -180 L199 -87 Q238 -87 272.5 -65.5 Q307 -44 324 -14 L415 407 Q407 426 385 441.5 Q363 457 324 457 Q287 457 256.5 444 Q226 431 206 410 L119 0 L-2 0 L114 540 L227 540 L217 495 Q283 552 370 552 Q447 552 489 515 Q531 478 541 435 Z " />
<glyph glyph-name="eth" unicode="&#xf0;" horiz-adv-x="555" d="M580 607 L523 589 Q550 556 561 519 L475 120 Q443 64 381 25 Q319 -14 228 -14 Q136 -14 83.5 27 Q31 68 16 120 L65 348 Q80 379 111.5 409.5 Q143 440 188.5 460 Q234 480 288 480 Q329 480 364.5 467.5 Q400 455 424 434 L436 495 Q430 523 406 554 L230 500 L245 570 L352 602 Q293 645 222 665 L300 733 Q348 718 393.5 693.5 Q439 669 474 639 L596 676 L580 607 Z M361 144 L403 343 Q367 385 300 385 Q259 385 228 367.5 Q197 350 180 323 L142 144 Q148 118 174 99.5 Q200 81 241 81 Q281 81 312.5 99 Q344 117 361 144 Z " />
<glyph glyph-name="thorn" unicode="&#xfe;" horiz-adv-x="554" d="M542 435 L471 105 Q443 59 393 23.5 Q343 -12 268 -12 Q177 -12 128 46 L83 -166 L-38 -166 L148 700 L269 700 L226 502 Q288 552 372 552 Q425 552 461.5 533 Q498 514 517.5 487 Q537 460 542 435 Z M415 407 Q408 426 386 441.5 Q364 457 324 457 Q286 457 256 444 Q226 431 206 410 L146 131 Q160 110 186.5 96.5 Q213 83 249 83 Q288 83 314.5 97.5 Q341 112 356 132 L415 407 Z " />
<glyph glyph-name="longs" unicode="&#x17f;" horiz-adv-x="330" d="M409 715 L391 630 Q387 630 372.5 631.5 Q358 633 348 633 Q277 633 247 594 L120 0 L-1 0 L135 632 Q155 669 201.5 697 Q248 725 318 725 Q369 725 409 715 Z " />
<glyph glyph-name="fi" unicode="&#xfb01;" horiz-adv-x="586" d="M435 715 L416 630 Q413 630 399 631.5 Q385 633 374 633 Q303 633 273 594 L261 540 L379 540 L359 451 L242 451 L145 0 L25 0 L121 451 L60 451 L80 540 L141 540 L160 632 Q181 669 227.5 697 Q274 725 344 725 Q395 725 435 715 Z M468 0 L347 0 L463 540 L584 540 L468 0 Z M625 703 L612 645 Q604 632 584.5 622 Q565 612 538 612 Q513 612 497.5 622 Q482 632 479 645 L492 703 Q500 717 520 727 Q540 737 566 737 Q592 737 607 727 Q622 717 625 703 Z " />
<glyph glyph-name="fl" unicode="&#xfb02;" horiz-adv-x="579" d="M435 715 L416 630 Q413 630 399 631.5 Q385 633 374 633 Q303 633 273 594 L261 540 L379 540 L359 451 L242 451 L145 0 L25 0 L121 451 L60 451 L80 540 L141 540 L160 632 Q181 669 227.5 697 Q274 725 344 725 Q395 725 435 715 Z M465 0 L343 0 L493 700 L614 700 L465 0 Z " />
<glyph glyph-name="ampersand" unicode="&#x26;" horiz-adv-x="676" d="M618 77 L602 0 L536 0 L481 66 Q385 -14 259 -14 Q157 -14 97.5 26.5 Q38 67 21 120 L55 273 Q78 309 119.5 338.5 Q161 368 215 384 Q162 447 152 480 L177 605 Q208 647 267 680 Q326 713 412 713 Q497 713 547.5 679.5 Q598 646 618 605 L606 548 L505 548 Q497 578 471.5 599 Q446 620 398 620 Q362 620 335 607 Q308 594 292 577 L277 507 Q279 493 288.5 478.5 Q298 464 316 442 L468 258 L494 379 L601 379 L553 157 L618 77 Z M276 79 Q358 79 420 139 L274 314 Q242 307 213 289.5 Q184 272 170 250 L147 145 Q157 115 193.5 97 Q230 79 276 79 Z " />
<glyph glyph-name="grave" unicode="&#x60;" horiz-adv-x="447" d="M382 622 L380 607 L294 607 L235 713 L248 767 L355 767 L382 622 Z " />
<glyph glyph-name="acute" unicode="&#xb4;" horiz-adv-x="447" d="M407 713 L305 607 L208 607 L211 622 L301 767 L419 767 L407 713 Z " />
<glyph glyph-name="circumflex" unicode="&#x2c6;" horiz-adv-x="447" d="M456 604 L377 604 L322 707 L223 604 L133 604 L137 620 L252 764 L407 764 L460 620 L456 604 Z " />
<glyph glyph-name="caron" unicode="&#x2c7;" horiz-adv-x="447" d="M373 604 L217 604 L164 748 L168 764 L246 764 L302 662 L400 764 L491 764 L487 748 L373 604 Z " />
<glyph glyph-name="tilde" unicode="&#x2dc;" horiz-adv-x="447" d="M329 709 Q347 698 356 693.5 Q365 689 376 689 Q403 689 416 716 L420 735 L492 735 L481 684 Q467 652 440.5 632 Q414 612 376 612 Q350 612 331.5 620 Q313 628 292 643 Q277 653 267 658 Q257 663 245 663 Q230 663 221 656.5 Q212 650 205 638 L201 617 L129 617 L141 669 Q155 701 182 720.5 Q209 740 245 740 Q271 740 289.5 732 Q308 724 329 709 Z " />
<glyph glyph-name="dieresis" unicode="&#xa8;" horiz-adv-x="447" d="M275 711 L259 637 Q231 612 191 612 Q167 612 153 620 Q139 628 135 637 L151 711 Q159 720 176.5 728 Q194 736 218 736 Q256 736 275 711 Z M487 711 L471 637 Q446 612 403 612 Q379 612 366 620 Q353 628 347 637 L363 711 Q372 720 389 728 Q406 736 430 736 Q468 736 487 711 Z " />
<glyph glyph-name="breve" unicode="&#x2d8;" horiz-adv-x="447" d="M471 681 Q449 645 407 622 Q365 599 304 599 Q242 599 203 622.5 Q164 646 152 681 L165 741 L254 741 L245 703 Q247 690 262.5 678 Q278 666 308 666 Q339 666 358 677.5 Q377 689 386 703 L394 741 L484 741 L471 681 Z " />
<glyph glyph-name="ring" unicode="&#x2da;" horiz-adv-x="447" d="M442 746 L423 654 Q406 628 373.5 611.5 Q341 595 301 595 Q260 595 229.5 611.5 Q199 628 190 654 L208 746 Q225 772 258 788.5 Q291 805 331 805 Q372 805 402 788.5 Q432 772 442 746 Z M265 728 L253 672 Q257 663 270 655.5 Q283 648 305 648 Q327 648 342 655.5 Q357 663 366 672 L378 728 Q374 737 361 744.5 Q348 752 326 752 Q304 752 289 744.5 Q274 737 265 728 Z " />
<glyph glyph-name="hungarumlaut" unicode="&#x2dd;" horiz-adv-x="447" d="M214 600 L130 600 L134 616 L208 760 L307 760 L297 715 L214 600 Z M403 600 L320 600 L324 616 L396 760 L496 760 L486 715 L403 600 Z " />
<glyph glyph-name="dotaccent" unicode="&#x2d9;" horiz-adv-x="447" d="M383 703 L370 645 Q362 632 342.5 622 Q323 612 296 612 Q271 612 255.5 622 Q240 632 237 645 L250 703 Q258 717 278 727 Q298 737 324 737 Q350 737 365 727 Q380 717 383 703 Z " />
<glyph glyph-name="cedilla" unicode="&#xb8;" horiz-adv-x="447" d="M167 -47 L176 -47 Q207 -47 227.5 -61.5 Q248 -76 253 -95 L237 -169 Q200 -225 114 -225 Q84 -225 57 -219 Q30 -213 16 -204 L48 -149 Q80 -164 117 -164 Q136 -164 149.5 -158 Q163 -152 169 -142 L174 -117 Q172 -109 161 -103.5 Q150 -98 132 -98 L72 -98 L129 5 L199 5 L167 -47 Z " />
<glyph glyph-name="ogonek" unicode="&#x2db;" horiz-adv-x="447" d="M278 0 Q227 -33 198.5 -59.5 Q170 -86 160 -103 L154 -130 Q157 -137 169.5 -142 Q182 -147 197 -147 Q222 -147 248 -138 L233 -206 Q218 -214 202 -217.5 Q186 -221 161 -221 Q123 -221 93.5 -207 Q64 -193 57 -168 L73 -93 Q88 -70 126.5 -37 Q165 -4 213 20 L278 0 Z " />
<glyph glyph-name="comma" unicode="&#x2c;" horiz-adv-x="205" d="M131 91 L99 -60 Q86 -86 60 -102.5 Q34 -119 -4 -119 L-36 -119 L-25 -67 L-2 -67 Q20 -67 34 -48 L42 -13 Q17 -13 2 -2.5 Q-13 8 -17 20 L-1 92 Q8 105 26 114.5 Q44 124 68 124 Q92 124 108.5 114 Q125 104 131 91 Z " />
<glyph glyph-name="semicolon" unicode="&#x3b;" horiz-adv-x="221" d="M138 91 L106 -60 Q93 -86 67 -102.5 Q41 -119 3 -119 L-29 -119 L-18 -67 L5 -67 Q27 -67 41 -48 L49 -13 Q24 -13 9 -2.5 Q-6 8 -10 20 L6 92 Q15 105 33 114.5 Q51 124 75 124 Q99 124 115.5 114 Q132 104 138 91 Z M221 472 L207 404 Q184 371 137 371 Q112 371 95.5 381 Q79 391 74 404 L89 472 Q97 486 115 495.5 Q133 505 157 505 Q183 505 200 495 Q217 485 221 472 Z " />
<glyph glyph-name="colon" unicode="&#x3a;" horiz-adv-x="221" d="M138 91 L124 23 Q101 -10 54 -10 Q29 -10 12.5 0 Q-4 10 -9 23 L6 91 Q14 105 32 114.5 Q50 124 74 124 Q100 124 117 114 Q134 104 138 91 Z M221 472 L207 404 Q184 371 137 371 Q112 371 95.5 381 Q79 391 74 404 L89 472 Q97 486 115 495.5 Q133 505 157 505 Q183 505 200 495 Q217 485 221 472 Z " />
<glyph glyph-name="period" unicode="&#x2e;" horiz-adv-x="205" d="M131 91 L117 23 Q94 -10 47 -10 Q22 -10 5.5 0 Q-11 10 -16 23 L-1 91 Q7 105 25 114.5 Q43 124 67 124 Q93 124 110 114 Q127 104 131 91 Z " />
<glyph glyph-name="ellipsis" unicode="&#x2026;" horiz-adv-x="606" d="M130 88 L117 23 Q108 10 88.5 0 Q69 -10 43 -10 Q18 -10 3 0 Q-12 10 -16 23 L-2 88 Q7 102 26 112 Q45 122 71 122 Q97 122 112 112 Q127 102 130 88 Z M331 88 L317 23 Q309 11 289 0.5 Q269 -10 243 -10 Q218 -10 203.5 0 Q189 10 185 23 L199 88 Q208 102 227 112 Q246 122 272 122 Q298 122 313 112 Q328 102 331 88 Z M531 88 L518 23 Q509 10 489.5 0 Q470 -10 444 -10 Q419 -10 404 0 Q389 10 385 23 L399 88 Q408 102 427 112 Q446 122 472 122 Q498 122 513 112 Q528 102 531 88 Z " />
<glyph glyph-name="hyphen" unicode="&#x2d;" horiz-adv-x="365" d="M331 288 L42 288 L63 384 L351 384 L331 288 Z " />
<glyph glyph-name="exclam" unicode="&#x21;" horiz-adv-x="278" d="M272 571 L172 179 L68 179 L136 571 L163 700 L299 700 L272 571 Z M168 91 L154 23 Q131 -10 85 -10 Q59 -10 42.5 0 Q26 10 21 23 L36 91 Q45 105 63 114.5 Q81 124 104 124 Q131 124 147.5 114 Q164 104 168 91 Z " />
<glyph glyph-name="exclamdown" unicode="&#xa1;" horiz-adv-x="278" d="M110 453 L124 520 Q146 554 193 554 Q219 554 235.5 543.5 Q252 533 257 520 L242 453 Q233 439 215 429 Q197 419 174 419 Q147 419 130.5 429 Q114 439 110 453 Z M6 -28 L106 365 L210 365 L142 -28 L115 -156 L-21 -156 L6 -28 Z " />
<glyph glyph-name="question" unicode="&#x3f;" horiz-adv-x="534" d="M574 594 L536 423 Q522 404 495 384 Q468 364 441 348 L276 247 L263 183 L140 183 L164 295 L337 402 Q403 442 420 468 L441 557 Q428 581 401.5 597 Q375 613 335 613 Q291 613 254 592.5 Q217 572 198 541 L88 541 L101 607 Q139 650 202 682 Q265 714 355 714 Q449 714 501 677.5 Q553 641 574 594 Z M249 91 L235 23 Q212 -10 166 -10 Q140 -10 123.5 0 Q107 10 102 23 L117 91 Q125 105 143 114.5 Q161 124 185 124 Q211 124 228 114 Q245 104 249 91 Z " />
<glyph glyph-name="questiondown" unicode="&#xbf;" horiz-adv-x="534" d="M285 454 L300 521 Q309 535 326 545 Q343 555 369 555 Q394 555 411 544.5 Q428 534 432 521 L418 454 Q409 440 391 430 Q373 420 350 420 Q323 420 306.5 430.5 Q290 441 285 454 Z M-39 -49 L-2 121 Q24 155 94 197 L258 298 L272 362 L395 362 L371 249 L198 142 Q132 104 114 77 L94 -13 Q106 -36 133 -52 Q160 -68 199 -68 Q243 -68 280.5 -47 Q318 -26 336 4 L447 4 L433 -62 Q394 -106 332 -138 Q270 -170 179 -170 Q85 -170 33 -133 Q-19 -96 -39 -49 Z " />
<glyph glyph-name="quoteleft" unicode="&#x2018;" horiz-adv-x="208" d="M80 500 L112 651 Q125 677 151 693.5 Q177 710 215 710 L247 710 L236 658 L213 658 Q193 658 177 639 L169 604 Q194 604 209 593.5 Q224 583 228 571 L212 499 Q203 486 185.5 476.5 Q168 467 143 467 Q119 467 102.5 477 Q86 487 80 500 Z " />
<glyph glyph-name="quoteright" unicode="&#x2019;" horiz-adv-x="208" d="M265 681 L233 530 Q220 504 194 487.5 Q168 471 130 471 L98 471 L109 523 L132 523 Q154 523 168 542 L176 577 Q151 577 136 587.5 Q121 598 117 610 L133 682 Q142 695 160 704.5 Q178 714 202 714 Q226 714 242.5 704 Q259 694 265 681 Z " />
<glyph glyph-name="quotedblleft" unicode="&#x201c;" horiz-adv-x="403" d="M87 501 L119 651 Q133 677 158.5 694 Q184 711 222 711 L255 711 L243 658 L220 658 Q198 658 185 640 L177 605 Q202 605 216.5 594.5 Q231 584 235 571 L220 500 Q210 486 192.5 476.5 Q175 467 150 467 Q126 467 109.5 477 Q93 487 87 501 Z M283 501 L315 651 Q329 677 354.5 694 Q380 711 418 711 L450 711 L439 658 L416 658 Q395 658 380 640 L372 605 Q397 605 412.5 594.5 Q428 584 431 571 L415 500 Q406 487 388.5 477 Q371 467 346 467 Q322 467 305.5 477 Q289 487 283 501 Z " />
<glyph glyph-name="quotedblright" unicode="&#x201d;" horiz-adv-x="403" d="M265 681 L233 530 Q220 504 194 487.5 Q168 471 130 471 L98 471 L109 523 L132 523 Q154 523 168 542 L176 577 Q151 577 136 587.5 Q121 598 117 610 L133 682 Q142 695 160 704.5 Q178 714 202 714 Q226 714 242.5 704 Q259 694 265 681 Z M461 681 L429 530 Q416 504 390 487.5 Q364 471 326 471 L294 471 L305 523 L328 523 Q350 523 364 542 L372 577 Q347 577 332 587.5 Q317 598 313 610 L329 682 Q338 695 356 704.5 Q374 714 398 714 Q422 714 438.5 704 Q455 694 461 681 Z " />
<glyph glyph-name="quotesinglbase" unicode="&#x201a;" horiz-adv-x="208" d="M143 91 L111 -60 Q98 -86 72 -102.5 Q46 -119 8 -119 L-24 -119 L-13 -67 L10 -67 Q32 -67 46 -48 L54 -13 Q29 -13 14 -2.5 Q-1 8 -5 20 L11 92 Q20 105 38 114.5 Q56 124 80 124 Q104 124 120.5 114 Q137 104 143 91 Z " />
<glyph glyph-name="quotedblbase" unicode="&#x201e;" horiz-adv-x="404" d="M131 91 L99 -60 Q86 -86 60 -102.5 Q34 -119 -4 -119 L-36 -119 L-25 -67 L-2 -67 Q20 -67 34 -48 L42 -13 Q17 -13 2 -2.5 Q-13 8 -17 20 L-1 92 Q8 105 26 114.5 Q44 124 68 124 Q92 124 108.5 114 Q125 104 131 91 Z M327 91 L295 -60 Q282 -86 256 -102.5 Q230 -119 192 -119 L160 -119 L171 -67 L194 -67 Q216 -67 230 -48 L238 -13 Q213 -13 198 -2.5 Q183 8 179 20 L195 92 Q204 105 222 114.5 Q240 124 264 124 Q288 124 304.5 114 Q321 104 327 91 Z " />
<glyph glyph-name="guilsinglleft" unicode="&#x2039;" horiz-adv-x="346" d="M139 287 L267 106 L254 41 L184 41 L33 248 L52 339 L271 540 L361 540 L347 476 L139 287 Z " />
<glyph glyph-name="guilsinglright" unicode="&#x203a;" horiz-adv-x="346" d="M303 243 L84 41 L-5 41 L9 106 L217 295 L88 476 L101 540 L171 540 L323 334 L303 243 Z " />
<glyph glyph-name="guillemotleft" unicode="&#xab;" horiz-adv-x="610" d="M139 287 L267 106 L254 41 L184 41 L33 248 L52 339 L271 540 L361 540 L347 476 L139 287 Z M403 287 L531 106 L518 41 L448 41 L297 248 L316 339 L535 540 L625 540 L611 476 L403 287 Z " />
<glyph glyph-name="guillemotright" unicode="&#xbb;" horiz-adv-x="610" d="M303 243 L84 41 L-6 41 L8 106 L216 295 L88 476 L101 540 L171 540 L323 334 L303 243 Z M567 243 L348 41 L258 41 L272 106 L480 295 L352 476 L365 540 L435 540 L587 334 L567 243 Z " />
<glyph glyph-name="slash" unicode="&#x2f;" horiz-adv-x="402" d="M443 666 L63 -110 L-39 -110 L-24 -45 L354 731 L456 731 L443 666 Z " />
<glyph glyph-name="bar" unicode="&#x7c;" horiz-adv-x="322" d="M244 -130 L115 -130 L115 790 L244 790 L244 -130 Z " />
<glyph glyph-name="endash" unicode="&#x2013;" horiz-adv-x="565" d="M531 288 L42 288 L63 384 L551 384 L531 288 Z " />
<glyph glyph-name="emdash" unicode="&#x2014;" horiz-adv-x="865" d="M831 288 L42 288 L63 384 L851 384 L831 288 Z " />
<glyph glyph-name="bullet" unicode="&#x2022;" horiz-adv-x="340" d="M315 413 L289 287 Q245 231 167 231 Q128 231 99 247.5 Q70 264 59 288 L86 413 Q104 437 135.5 452 Q167 467 206 467 Q244 467 273.5 451.5 Q303 436 315 413 Z " />
<glyph glyph-name="parenleft" unicode="&#x28;" horiz-adv-x="364" d="M403 612 L394 612 Q346 612 304.5 580 Q263 548 242 506 L138 23 Q139 -21 165 -50.5 Q191 -80 245 -80 L254 -80 L235 -168 L226 -168 Q124 -168 69.5 -119.5 Q15 -71 -1 -5 L115 537 Q134 578 175 615.5 Q216 653 274 676.5 Q332 700 399 700 L421 700 L403 612 Z " />
<glyph glyph-name="parenright" unicode="&#x29;" horiz-adv-x="364" d="M-40 -80 L-32 -80 Q16 -80 57.5 -48 Q99 -16 121 26 L225 509 Q224 552 197.5 582 Q171 612 117 612 L108 612 L127 700 L136 700 Q238 700 293 651.5 Q348 603 364 537 L248 -5 Q229 -46 188 -83.5 Q147 -121 89 -144.5 Q31 -168 -36 -168 L-59 -168 L-40 -80 Z " />
<glyph glyph-name="bracketleft" unicode="&#x5b;" horiz-adv-x="367" d="M398 612 L271 612 L122 -80 L249 -80 L230 -168 L-27 -168 L159 700 L416 700 L398 612 Z " />
<glyph glyph-name="bracketright" unicode="&#x5d;" horiz-adv-x="367" d="M206 -168 L-51 -168 L-32 -80 L95 -80 L243 612 L117 612 L135 700 L392 700 L206 -168 Z " />
<glyph glyph-name="braceleft" unicode="&#x7b;" horiz-adv-x="383" d="M27 -14 L65 166 Q66 196 51 206.5 Q36 217 12 217 L31 306 Q86 306 107 358 L145 537 Q179 604 255.5 652 Q332 700 443 700 L424 612 Q373 612 333 581 Q293 550 271 504 L237 338 Q214 289 152 259 Q195 230 203 181 L166 10 Q168 -33 195.5 -60.5 Q223 -88 274 -88 L255 -176 Q156 -176 99 -127 Q42 -78 27 -14 Z " />
<glyph glyph-name="braceright" unicode="&#x7d;" horiz-adv-x="383" d="M352 537 L314 358 Q313 306 368 306 L349 217 Q324 217 304 206.5 Q284 196 272 166 L234 -14 Q201 -81 124.5 -128.5 Q48 -176 -63 -176 L-45 -88 Q6 -88 46.5 -57 Q87 -26 108 19 L143 186 Q166 236 227 265 Q185 294 177 343 L214 513 Q212 556 184.5 584 Q157 612 105 612 L124 700 Q193 700 241.5 675.5 Q290 651 316.5 614 Q343 577 352 537 Z " />
<glyph glyph-name="asterisk" unicode="&#x2a;" horiz-adv-x="494" d="M510 571 Q510 565 508 553 L351 523 L460 407 Q452 387 426 366 Q402 347 377 346 L302 485 L225 346 Q200 347 176 366 Q150 387 142 407 L252 523 L95 553 Q93 559 93 571 Q93 588 98 605 Q109 636 127 650 L269 584 L250 740 Q270 752 301 752 Q332 752 352 740 L332 583 L476 650 Q493 637 504 605 Q510 585 510 571 Z " />
<glyph glyph-name="dagger" unicode="&#x2020;" horiz-adv-x="638" d="M633 363 L541 363 L407 374 L396 -168 L296 -168 L284 374 L153 363 L62 363 L62 472 L153 472 L283 462 L280 571 L280 700 L411 700 L411 571 L409 462 L541 472 L633 472 L633 363 Z " />
<glyph glyph-name="daggerdbl" unicode="&#x2021;" horiz-adv-x="658" d="M386 192 L523 202 L615 202 L615 93 L523 93 L384 104 L378 -168 L278 -168 L272 104 L135 93 L44 93 L44 202 L135 202 L271 192 L266 404 L135 393 L44 393 L44 502 L135 502 L264 492 L263 571 L263 700 L394 700 L394 571 L392 492 L523 502 L615 502 L615 393 L523 393 L390 404 L386 192 Z " />
<glyph glyph-name="section" unicode="&#xa7;" horiz-adv-x="520" d="M228 583 L216 529 Q222 514 240 504 Q258 494 289 487 L342 473 Q459 447 495 386 L466 247 Q441 211 386 186 Q425 164 440 131 L414 7 Q389 -29 331.5 -62 Q274 -95 188 -95 Q129 -95 86.5 -77.5 Q44 -60 21 -36 Q-2 -12 -8 7 L2 53 L102 53 Q110 28 134.5 9.5 Q159 -9 200 -9 Q236 -9 264 4 Q292 17 308 36 L320 91 Q313 106 295.5 116 Q278 126 247 133 L194 147 Q79 172 40 234 L69 373 Q94 409 150 434 Q113 456 95 489 L122 613 Q146 649 204 681.5 Q262 714 347 714 Q407 714 449 696.5 Q491 679 514 656 Q537 633 544 613 L534 567 L434 567 Q426 592 401.5 610.5 Q377 629 336 629 Q300 629 271.5 616 Q243 603 228 583 Z M302 385 L272 392 Q241 389 215.5 374.5 Q190 360 176 343 L162 278 Q171 252 234 235 L264 228 Q295 231 320.5 245.5 Q346 260 360 277 L374 342 Q365 368 302 385 Z " />
<glyph glyph-name="paragraph" unicode="&#xb6;" horiz-adv-x="668" d="M315 -100 L223 -100 L297 241 L245 241 Q175 241 128.5 274.5 Q82 308 64 360 L111 582 Q155 638 216 669 Q277 700 342 700 L486 700 L315 -100 Z M519 -100 L426 -100 L597 700 L690 700 L519 -100 Z " />
<glyph glyph-name="asciicircum" unicode="&#x5e;" horiz-adv-x="509" d="M495 342 L415 342 L291 582 L274 582 L149 342 L73 342 L73 412 L225 700 L343 700 L495 413 L495 342 Z " />
<glyph glyph-name="asciitilde" unicode="&#x7e;" horiz-adv-x="584" d="M325 415 Q364 403 393.5 396.5 Q423 390 452 390 Q481 390 506 400 Q531 410 547.5 421.5 Q564 433 564 434 L564 327 Q564 326 548.5 317 Q533 308 508.5 300.5 Q484 293 453 293 Q418 293 386.5 299.5 Q355 306 310 319 Q272 331 242.5 337.5 Q213 344 182 344 Q147 344 117 332.5 Q87 321 66.5 307.5 Q46 294 46 293 L46 395 Q46 396 65 408.5 Q84 421 115 431 Q146 441 184 441 Q217 441 249 434.5 Q281 428 325 415 Z " />
<glyph glyph-name="brokenbar" unicode="&#xa6;" horiz-adv-x="321" d="M244 393 L115 393 L115 790 L244 790 L244 393 Z M244 -128 L115 -128 L115 287 L244 287 L244 -128 Z " />
<glyph glyph-name="backslash" unicode="&#x5c;" horiz-adv-x="402" d="M290 -45 L275 -110 L173 -110 L129 666 L142 731 L244 731 L290 -45 Z " />
<glyph glyph-name="underscore" unicode="&#x5f;" horiz-adv-x="510" d="M427 -139 L-93 -139 L-75 -60 L445 -60 L427 -139 Z " />
<glyph glyph-name="quotesingle" unicode="&#x27;" horiz-adv-x="180" d="M213 596 L169 462 L94 462 L107 596 L129 700 L235 700 L213 596 Z " />
<glyph glyph-name="quotedbl" unicode="&#x22;" horiz-adv-x="369" d="M213 596 L169 462 L94 462 L107 596 L129 700 L235 700 L213 596 Z M401 596 L357 462 L282 462 L295 596 L317 700 L423 700 L401 596 Z " />
<glyph glyph-name="at" unicode="&#x40;" horiz-adv-x="931" d="M926 455 L851 106 Q823 68 782 50 Q741 32 697 32 Q601 32 556 92 Q484 33 390 33 Q342 33 305.5 51 Q269 69 248 95 Q227 121 223 144 L278 406 Q305 448 355.5 482.5 Q406 517 475 517 Q560 517 607 456 L617 504 L724 504 L644 134 Q659 100 704 100 Q727 100 742.5 108 Q758 116 775 133 L841 440 Q833 482 800 528.5 Q767 575 704 608.5 Q641 642 547 642 Q436 642 335.5 586.5 Q235 531 170 437 L100 116 Q123 21 201 -34.5 Q279 -90 390 -90 Q492 -90 587 -41 L618 -103 Q520 -161 382 -161 Q241 -161 143 -92.5 Q45 -24 14 97 L90 456 Q162 579 287 646.5 Q412 714 555 714 Q667 714 747.5 672 Q828 630 872 570 Q916 510 926 455 Z M424 116 Q461 116 492 129 Q523 142 543 162 L592 388 Q581 408 555.5 421.5 Q530 435 493 435 Q455 435 425.5 419.5 Q396 404 383 386 L335 164 Q343 146 364.5 131 Q386 116 424 116 Z " />
<glyph glyph-name="copyright" unicode="&#xa9;" horiz-adv-x="804" d="M782 350 Q782 250 732.5 166.5 Q683 83 598.5 34.5 Q514 -14 415 -14 Q316 -14 232 34.5 Q148 83 98.5 166.5 Q49 250 49 350 Q49 450 98.5 533.5 Q148 617 232 665.5 Q316 714 415 714 Q514 714 598.5 665.5 Q683 617 732.5 533.5 Q782 450 782 350 Z M107 350 Q107 265 148 193.5 Q189 122 260 80 Q331 38 415 38 Q500 38 570.5 80 Q641 122 682 193.5 Q723 265 723 350 Q723 435 682 506.5 Q641 578 570.5 620 Q500 662 415 662 Q331 662 260 620 Q189 578 148 506.5 Q107 435 107 350 Z M605 488 L605 440 L517 440 Q509 464 482.5 482.5 Q456 501 416 501 Q382 501 358 487.5 Q334 474 322 457 L322 241 Q334 224 358 210.5 Q382 197 416 197 Q456 197 482.5 215.5 Q509 234 517 258 L605 258 L605 210 Q585 178 538 149 Q491 120 415 120 Q337 120 288 152.5 Q239 185 221 221 L221 477 Q239 513 288 546 Q337 579 415 579 Q491 579 538 549.5 Q585 520 605 488 Z " />
<glyph glyph-name="registered" unicode="&#xae;" horiz-adv-x="518" d="M566 585 Q566 521 533 466 Q500 411 444.5 378.5 Q389 346 325 346 Q261 346 205.5 378.5 Q150 411 117.5 466 Q85 521 85 585 Q85 649 117.5 704 Q150 759 205.5 791.5 Q261 824 325 824 Q389 824 444.5 791.5 Q500 759 533 704 Q566 649 566 585 Z M524 585 Q524 639 497.5 685.5 Q471 732 425 759 Q379 786 325 786 Q271 786 226 759 Q181 732 154.5 685.5 Q128 639 128 585 Q128 531 154.5 484.5 Q181 438 226 411 Q271 384 325 384 Q379 384 425 411 Q471 438 497.5 484.5 Q524 531 524 585 Z M436 674 L436 599 Q421 567 383 553 L432 488 L432 453 L384 453 L328 547 L284 547 L284 453 L230 453 L230 727 L350 727 Q376 727 400 712.5 Q424 698 436 674 Z M284 591 L338 591 Q370 591 380 614 L380 659 Q370 683 338 683 L284 683 L284 591 Z " />
<glyph glyph-name="trademark" unicode="&#x2122;" horiz-adv-x="799" d="M391 636 L288 636 L218 310 L137 310 L206 636 L103 636 L117 700 L404 700 L391 636 Z M758 310 L682 310 L739 580 L737 580 L582 310 L534 310 L493 580 L491 580 L434 310 L358 310 L441 700 L551 700 L590 450 L592 450 L735 700 L841 700 L758 310 Z " />
<glyph glyph-name="uni2117" unicode="&#x2117;" horiz-adv-x="804" d="M768 350 Q768 250 718.5 166.5 Q669 83 585 34.5 Q501 -14 402 -14 Q303 -14 219 34.5 Q135 83 85.5 166.5 Q36 250 36 350 Q36 450 85.5 533.5 Q135 617 219 665.5 Q303 714 402 714 Q501 714 585 665.5 Q669 617 718.5 533.5 Q768 450 768 350 Z M94 350 Q94 265 135 193.5 Q176 122 247 80 Q318 38 402 38 Q487 38 557.5 80 Q628 122 668.5 193.5 Q709 265 709 350 Q709 435 668.5 506.5 Q628 578 557.5 620 Q487 662 402 662 Q318 662 247 620 Q176 578 135 506.5 Q94 435 94 350 Z M589 479 L589 354 Q570 314 532.5 289.5 Q495 265 451 265 L346 265 L346 121 L259 121 L259 568 L451 568 Q495 568 532.5 544 Q570 520 589 479 Z M346 501 L346 332 L434 332 Q456 332 474.5 343 Q493 354 504 377 L504 458 Q493 480 474.5 490.5 Q456 501 434 501 L346 501 Z " />
<glyph glyph-name="currency" unicode="&#xa4;" horiz-adv-x="590" d="M546 515 L514 483 Q529 465 540 440 L540 230 Q530 208 515 189 L546 157 L546 97 L468 97 L440 125 Q382 96 310 96 Q240 96 182 125 L154 97 L73 97 L73 157 L105 188 Q90 209 80 230 L80 440 Q91 465 105 483 L73 515 L73 575 L154 575 L182 546 Q240 575 310 575 Q381 575 439 546 L468 575 L546 575 L546 515 Z M420 417 Q409 445 380 463.5 Q351 482 310 482 Q270 482 241 463.5 Q212 445 201 417 L201 254 Q212 226 241 207.5 Q270 189 310 189 Q351 189 380 207.5 Q409 226 420 254 L420 417 Z " />
<glyph glyph-name="Euro" unicode="&#x20ac;" horiz-adv-x="597" d="M269 554 L249 461 L481 461 L467 391 L234 391 L219 323 L452 323 L436 252 L204 252 L181 146 Q187 119 216.5 100.5 Q246 82 288 82 Q336 82 371 106.5 Q406 131 424 171 L534 171 L519 101 Q489 57 428 21.5 Q367 -14 276 -14 Q213 -14 164.5 7 Q116 28 87.5 58.5 Q59 89 51 118 L80 252 L26 252 L41 323 L95 323 L109 391 L56 391 L70 461 L124 461 L150 582 Q183 636 249 675 Q315 714 409 714 Q471 714 517 694 Q563 674 589.5 647 Q616 620 625 597 L610 529 L507 529 Q506 567 475 593 Q444 619 395 619 Q354 619 320 600 Q286 581 269 554 Z " />
<glyph glyph-name="dollar" unicode="&#x24;" horiz-adv-x="588" d="M247 559 L229 474 Q235 456 249.5 445 Q264 434 306 422 L362 405 Q423 388 458 368.5 Q493 349 510 329 Q527 309 540 282 L505 119 Q472 72 418 34.5 Q364 -3 283 -12 L266 -93 L167 -93 L184 -10 Q58 9 11 118 L26 183 L138 183 Q140 142 170.5 114.5 Q201 87 254 87 Q299 87 334 107 Q369 127 388 154 L405 236 Q400 258 380.5 273 Q361 288 319 300 L262 315 Q183 336 149 361.5 Q115 387 92 428 L129 595 Q157 636 210.5 670 Q264 704 339 712 L357 793 L457 793 L438 709 Q502 698 542.5 665 Q583 632 598 595 L584 531 L473 531 Q468 568 442 591 Q416 614 365 614 Q328 614 295.5 597.5 Q263 581 247 559 Z " />
<glyph glyph-name="cent" unicode="&#xa2;" horiz-adv-x="535" d="M195 396 L140 142 Q146 116 172.5 98.5 Q199 81 240 81 Q326 81 374 163 L476 163 L465 105 Q439 64 391.5 29.5 Q344 -5 269 -13 L251 -93 L151 -93 L169 -8 Q104 6 63.5 43 Q23 80 15 120 L81 421 Q107 469 159.5 507 Q212 545 289 553 L307 634 L407 634 L389 549 Q451 535 488.5 501 Q526 467 535 435 L523 377 L426 377 Q420 415 390.5 437.5 Q361 460 315 460 Q275 460 244 441.5 Q213 423 195 396 Z " />
<glyph glyph-name="sterling" unicode="&#xa3;" horiz-adv-x="607" d="M276 554 L240 385 L482 385 L465 304 L222 304 L190 151 Q174 124 143 98 L525 98 L504 0 L-16 0 L3 84 Q15 87 32 99 Q49 111 61 130 L98 304 L45 304 L62 385 L116 385 L158 582 Q190 635 256.5 674.5 Q323 714 417 714 Q479 714 525.5 694 Q572 674 598.5 647 Q625 620 632 597 L617 529 L515 529 Q510 569 480 594 Q450 619 402 619 Q361 619 328 600.5 Q295 582 276 554 Z " />
<glyph glyph-name="florin" unicode="&#x192;" horiz-adv-x="427" d="M327 577 L314 515 L438 515 L420 427 L295 427 L185 -87 Q161 -126 115 -154 Q69 -182 -3 -182 Q-31 -182 -54.5 -178.5 Q-78 -175 -90 -171 L-72 -90 L-24 -90 Q46 -90 73 -46 L174 427 L105 427 L123 515 L193 515 L215 619 Q239 657 285 685 Q331 713 403 713 Q431 713 455 709.5 Q479 706 490 702 L472 622 L424 622 Q355 622 327 577 Z " />
<glyph glyph-name="yen" unicode="&#xa5;" horiz-adv-x="584" d="M623 625 L446 399 L580 399 L564 328 L391 328 L359 287 L353 259 L550 259 L534 188 L338 188 L298 0 L167 0 L207 188 L15 188 L30 259 L222 259 L231 299 L221 328 L44 328 L60 399 L195 399 L114 625 L130 700 L226 700 L318 414 L321 414 L529 700 L639 700 L623 625 Z " />
<glyph glyph-name="uni20A8" unicode="&#x20a8;" horiz-adv-x="516" d="M577 629 L462 629 Q483 608 493 574 L481 520 L554 520 L538 449 L466 449 L455 399 Q425 342 363 308 Q301 274 238 274 L210 274 L384 65 L370 0 L274 0 L55 273 L72 352 L199 352 Q241 352 278 370 Q315 388 335 420 L341 449 L92 449 L108 520 L356 520 L362 545 Q356 575 329 593.5 Q302 612 273 612 L128 612 L146 700 L592 700 L577 629 Z " />
<glyph glyph-name="uni20BA" unicode="&#x20ba;" horiz-adv-x="580" d="M513 185 L499 118 Q465 72 404 36 Q343 0 252 0 L36 0 L83 219 L13 189 L30 269 L100 300 L118 382 L47 351 L64 431 L135 463 L186 700 L310 700 L272 523 L480 614 L463 534 L255 443 L238 360 L446 451 L428 371 L221 280 L182 96 L255 96 Q306 96 346.5 121.5 Q387 147 405 185 L513 185 Z " />
<glyph glyph-name="uni20BD" unicode="&#x20bd;" horiz-adv-x="592" d="M619 582 L580 400 Q541 343 487 313.5 Q433 284 360 284 L207 284 L194 223 L453 223 L438 152 L179 152 L146 0 L16 0 L49 152 L-5 152 L10 223 L64 223 L77 284 L23 284 L41 369 L95 369 L166 700 L429 700 Q494 700 545.5 668.5 Q597 637 619 582 Z M486 542 Q475 572 449 587 Q423 602 390 602 L276 602 L226 369 L325 369 Q416 369 461 429 L486 542 Z " />
<glyph glyph-name="ordfeminine" unicode="&#xaa;" horiz-adv-x="392" d="M418 619 L363 358 L291 358 L297 384 Q252 350 197 350 Q162 350 136 360 Q110 370 96 383 Q82 396 78 406 L99 505 Q143 561 222 561 L329 561 L339 605 Q336 625 319 638 Q302 651 273 651 Q223 651 192 607 L125 607 L132 643 Q148 666 184.5 688 Q221 710 277 710 Q339 710 375 682.5 Q411 655 418 619 Z M218 408 Q270 408 304 442 L318 508 L240 508 Q192 508 167 481 L157 436 Q162 426 178 417 Q194 408 218 408 Z " />
<glyph glyph-name="ordmasculine" unicode="&#xba;" horiz-adv-x="399" d="M425 619 L387 440 Q365 402 325.5 376 Q286 350 226 350 Q166 350 129.5 377.5 Q93 405 85 440 L123 619 Q146 657 185.5 683.5 Q225 710 284 710 Q345 710 381.5 682.5 Q418 655 425 619 Z M196 605 L164 453 Q167 436 184.5 424 Q202 412 229 412 Q256 412 278.5 423.5 Q301 435 314 453 L346 605 Q342 625 325 637 Q308 649 280 649 Q252 649 230 637 Q208 625 196 605 Z " />
<glyph glyph-name="numbersign" unicode="&#x23;" horiz-adv-x="574" d="M446 282 L511 282 L492 196 L414 196 L340 0 L255 0 L269 65 L318 196 L174 196 L100 0 L15 0 L29 65 L78 196 L14 196 L33 282 L111 282 L161 418 L98 418 L116 505 L194 505 L267 700 L352 700 L339 635 L290 505 L434 505 L507 700 L592 700 L579 635 L530 505 L595 505 L576 418 L497 418 L446 282 Z M257 418 L206 282 L351 282 L401 418 L257 418 Z " />
<glyph glyph-name="uni2116" unicode="&#x2116;" horiz-adv-x="996" d="M1039 605 L1004 440 Q976 400 926 369 Q876 338 805 338 Q733 338 696 369 Q659 400 648 440 L684 605 Q711 645 761.5 676 Q812 707 884 707 Q956 707 992.5 676 Q1029 645 1039 605 Z M479 0 L341 0 L235 483 L232 483 L128 0 L7 0 L157 700 L296 700 L401 217 L404 217 L508 700 L629 700 L479 0 Z M773 587 L746 459 Q751 439 769.5 424.5 Q788 410 821 410 Q853 410 877 424 Q901 438 916 459 L943 587 Q938 607 919.5 621.5 Q901 636 869 636 Q836 636 812 622 Q788 608 773 587 Z M956 214 L600 214 L616 291 L972 291 L956 214 Z " />
<glyph glyph-name="zero" unicode="0" horiz-adv-x="588" d="M601 582 L501 118 Q469 64 404 25 Q339 -14 247 -14 Q183 -14 134.5 6.5 Q86 27 57.5 57.5 Q29 88 21 118 L121 582 Q153 635 219 674.5 Q285 714 378 714 Q441 714 489 694 Q537 674 565 643.5 Q593 613 601 582 Z M239 554 L151 147 Q157 120 186.5 101 Q216 82 257 82 Q299 82 331.5 100.5 Q364 119 383 147 L471 554 Q466 581 436 600 Q406 619 365 619 Q323 619 290 600.5 Q257 582 239 554 Z " />
<glyph glyph-name="one" unicode="1" horiz-adv-x="453" d="M262 86 L370 86 L351 0 L6 0 L24 86 L138 86 L240 563 L116 514 L137 615 L311 700 L393 700 L262 86 Z " />
<glyph glyph-name="two" unicode="2" horiz-adv-x="566" d="M584 582 L553 437 Q532 397 495 367.5 Q458 338 365 288 L284 244 Q168 182 143 143 L133 101 L486 101 L465 0 L-13 0 L24 174 Q52 215 90.5 246.5 Q129 278 210 323 L300 372 Q360 405 391 427 Q422 449 436 471 L455 557 Q447 583 419.5 601 Q392 619 352 619 Q308 619 270 595 Q232 571 212 529 L102 529 L116 597 Q146 641 209.5 677.5 Q273 714 364 714 Q428 714 474.5 693.5 Q521 673 548.5 643 Q576 613 584 582 Z " />
<glyph glyph-name="three" unicode="3" horiz-adv-x="570" d="M575 592 L545 448 Q531 424 499.5 402.5 Q468 381 424 365 Q461 351 486 323 Q511 295 516 269 L483 118 Q453 64 386.5 25 Q320 -14 226 -14 Q164 -14 117.5 5.5 Q71 25 43.5 52.5 Q16 80 6 104 L21 172 L126 172 Q130 133 160.5 107.5 Q191 82 238 82 Q280 82 313 100.5 Q346 119 365 147 L388 248 Q382 277 355 297 Q328 317 285 317 L208 317 L228 409 L292 409 Q338 409 372.5 427 Q407 445 425 469 L445 566 Q438 587 412.5 603 Q387 619 349 619 Q300 619 267.5 595 Q235 571 221 539 L108 539 L123 606 Q150 644 211 679 Q272 714 361 714 Q423 714 469 694 Q515 674 541 646 Q567 618 575 592 Z " />
<glyph glyph-name="four" unicode="4" horiz-adv-x="583" d="M476 256 L560 256 L539 159 L454 159 L420 0 L301 0 L335 159 L3 159 L23 252 L392 700 L570 700 L476 256 Z M425 590 L152 256 L357 256 L428 590 L425 590 Z " />
<glyph glyph-name="five" unicode="5" horiz-adv-x="563" d="M247 598 L207 413 Q270 456 346 456 Q420 456 467.5 422 Q515 388 529 343 L478 104 Q448 58 385.5 22 Q323 -14 233 -14 Q171 -14 124 5.5 Q77 25 49.5 52 Q22 79 13 104 L28 172 L134 172 Q136 135 165.5 108.5 Q195 82 244 82 Q284 82 318 101.5 Q352 121 372 149 L405 300 Q397 327 371 345 Q345 363 304 363 Q265 363 234.5 347 Q204 331 186 313 L72 313 L155 700 L599 700 L577 598 L247 598 Z " />
<glyph glyph-name="six" unicode="6" horiz-adv-x="577" d="M240 554 L206 397 Q274 441 354 441 Q428 441 476.5 407 Q525 373 538 328 L490 104 Q462 60 398.5 23 Q335 -14 244 -14 Q181 -14 133.5 6.5 Q86 27 58 57.5 Q30 88 22 118 L122 582 Q155 636 221 675 Q287 714 380 714 Q442 714 487.5 694.5 Q533 675 559.5 648.5 Q586 622 596 597 L581 529 L477 529 Q474 570 444.5 594.5 Q415 619 366 619 Q326 619 292.5 600 Q259 581 240 554 Z M186 306 L152 147 Q158 120 186 101 Q214 82 255 82 Q296 82 331.5 101 Q367 120 384 147 L414 287 Q407 313 379.5 330.5 Q352 348 310 348 Q244 348 186 306 Z " />
<glyph glyph-name="seven" unicode="7" horiz-adv-x="499" d="M546 608 L144 0 L37 0 L53 75 L409 599 L86 599 L107 700 L565 700 L546 608 Z " />
<glyph glyph-name="eight" unicode="8" horiz-adv-x="586" d="M453 374 Q493 355 512.5 333 Q532 311 542 284 L505 118 Q476 68 410.5 27 Q345 -14 244 -14 Q146 -14 90 27 Q34 68 15 118 L52 286 Q85 337 175 371 Q125 400 108 445 L141 604 Q175 647 234.5 680.5 Q294 714 377 714 Q462 714 515 679.5 Q568 645 587 604 L553 443 Q523 401 453 374 Z M462 569 Q453 589 427 603.5 Q401 618 364 618 Q326 618 297.5 603 Q269 588 251 567 L231 474 Q238 459 253.5 446.5 Q269 434 305 423 L333 415 Q367 423 399 441.5 Q431 460 442 477 L462 569 Z M412 258 Q406 277 382.5 293.5 Q359 310 317 321 L297 326 Q249 317 214 294.5 Q179 272 168 254 L144 147 Q153 123 182.5 103 Q212 83 256 83 Q303 83 336 102 Q369 121 388 149 L412 258 Z " />
<glyph glyph-name="nine" unicode="9" horiz-adv-x="577" d="M590 582 L490 118 Q457 64 391 25 Q325 -14 232 -14 Q170 -14 124.5 5.5 Q79 25 52.5 51.5 Q26 78 16 103 L31 171 L135 171 Q138 130 167.5 105.5 Q197 81 246 81 Q286 81 319.5 100 Q353 119 372 146 L404 295 Q338 252 256 252 Q182 252 133 285.5 Q84 319 71 364 L122 596 Q150 640 213 677 Q276 714 367 714 Q430 714 478 693.5 Q526 673 554 642.5 Q582 612 590 582 Z M424 388 L460 553 Q454 580 426 599 Q398 618 357 618 Q316 618 280.5 599 Q245 580 228 553 L195 406 Q202 380 229.5 362 Q257 344 299 344 Q367 344 424 388 Z " />
<glyph glyph-name="uni00A0" unicode="&#xa0;" horiz-adv-x="205" d="" />
<glyph glyph-name="fraction" unicode="&#x2044;" horiz-adv-x="179" d="M440 648 L-167 0 L-238 0 L-226 52 L380 700 L450 700 L440 648 Z " />
<glyph glyph-name="onequarter" unicode="&#xbc;" horiz-adv-x="893" d="M795 648 L188 0 L117 0 L129 52 L735 700 L805 700 L795 648 Z M221 339 L290 339 L278 280 L49 280 L61 339 L133 339 L195 627 L120 621 L132 675 L226 700 L299 700 L221 339 Z M770 157 L827 157 L812 91 L755 91 L737 0 L652 0 L670 91 L445 91 L459 156 L703 420 L826 420 L770 157 Z M722 345 L552 157 L685 157 L725 345 L722 345 Z " />
<glyph glyph-name="onehalf" unicode="&#xbd;" horiz-adv-x="950" d="M222 339 L291 339 L279 280 L50 280 L62 339 L134 339 L196 627 L121 621 L133 675 L227 700 L300 700 L222 339 Z M794 648 L187 0 L116 0 L128 52 L734 700 L804 700 L794 648 Z M911 348 L895 270 Q879 244 853 224.5 Q827 205 767 173 L706 142 Q635 105 617 80 L616 71 L858 71 L842 0 L516 0 L535 93 Q552 121 580 144.5 Q608 168 661 196 L726 230 Q764 249 782 261.5 Q800 274 809 289 L818 326 Q812 340 795.5 349.5 Q779 359 751 359 Q720 359 693.5 344.5 Q667 330 655 312 L582 312 L592 360 Q612 386 653 407.5 Q694 429 756 429 Q820 429 860 404 Q900 379 911 348 Z " />
<glyph glyph-name="threequarters" unicode="&#xbe;" horiz-adv-x="943" d="M838 648 L231 0 L160 0 L172 52 L778 700 L848 700 L838 648 Z M812 157 L869 157 L854 91 L797 91 L779 0 L694 0 L712 91 L487 91 L501 156 L745 420 L868 420 L812 157 Z M764 345 L594 157 L727 157 L767 345 L764 345 Z M440 634 L421 546 Q412 534 392 519.5 Q372 505 345 496 Q369 487 385 473 Q401 459 407 443 L387 351 Q366 318 322 295 Q278 272 213 272 Q170 272 136.5 283.5 Q103 295 83 311 Q63 327 58 340 L70 393 L138 393 Q142 371 164.5 356 Q187 341 221 341 Q248 341 269 350.5 Q290 360 303 375 L315 429 Q310 443 292 453 Q274 463 246 463 L194 463 L208 529 L258 529 Q284 529 305 538 Q326 547 336 559 L347 611 Q342 622 325.5 630.5 Q309 639 284 639 Q226 639 191 592 L120 592 L131 645 Q150 669 190 689 Q230 709 291 709 Q353 709 390.5 685 Q428 661 440 634 Z " />
<glyph glyph-name="fiveeighths" unicode="&#x215d;" horiz-adv-x="1005" d="M891 215 Q931 192 940 162 L920 71 Q900 39 855.5 15.5 Q811 -8 747 -8 Q683 -8 642.5 16 Q602 40 591 71 L611 162 Q639 201 685 222 Q669 231 658 241.5 Q647 252 643 260 L665 364 Q682 386 723 407.5 Q764 429 826 429 Q887 429 923.5 407.5 Q960 386 972 364 L949 260 Q943 250 928 237.5 Q913 225 891 215 Z M728 274 Q735 263 751.5 255 Q768 247 794 247 Q820 247 840 255 Q860 263 870 274 L884 335 Q864 363 819 363 Q794 363 774 354.5 Q754 346 742 335 L728 274 Z M850 156 Q846 170 827.5 179.5 Q809 189 782 189 Q755 189 732 179.5 Q709 170 698 156 L685 91 Q690 77 708.5 67 Q727 57 754 57 Q781 57 803.5 67 Q826 77 837 91 L850 156 Z M432 629 L209 629 L188 529 Q225 555 282 555 Q329 555 363 535 Q397 515 406 489 L374 340 Q355 314 314 293 Q273 272 213 272 Q150 272 110 294 Q70 316 55 340 L67 393 L135 393 Q140 371 162 356 Q184 341 219 341 Q246 341 268.5 351 Q291 361 301 375 L319 459 Q313 473 296 483 Q279 493 252 493 Q228 493 206 482 Q184 471 173 460 L91 460 L143 700 L448 700 L432 629 Z M853 648 L246 0 L175 0 L187 52 L793 700 L863 700 L853 648 Z " />
<glyph glyph-name="oneeighth" unicode="&#x215b;" horiz-adv-x="974" d="M813 648 L206 0 L135 0 L147 52 L753 700 L823 700 L813 648 Z M225 339 L294 339 L282 280 L53 280 L65 339 L137 339 L199 627 L124 621 L136 675 L230 700 L303 700 L225 339 Z M851 215 Q891 192 900 162 L880 71 Q860 39 815.5 15.5 Q771 -8 707 -8 Q643 -8 602.5 16 Q562 40 551 71 L571 162 Q599 201 645 222 Q629 231 618 241.5 Q607 252 603 260 L625 364 Q642 386 683 407.5 Q724 429 786 429 Q847 429 883.5 407.5 Q920 386 932 364 L909 260 Q903 250 888 237.5 Q873 225 851 215 Z M688 274 Q695 263 711.5 255 Q728 247 754 247 Q780 247 800 255 Q820 263 830 274 L844 335 Q824 363 779 363 Q754 363 734 354.5 Q714 346 702 335 L688 274 Z M810 156 Q806 170 787.5 179.5 Q769 189 742 189 Q715 189 692 179.5 Q669 170 658 156 L645 91 Q650 77 668.5 67 Q687 57 714 57 Q741 57 763.5 67 Q786 77 797 91 L810 156 Z " />
<glyph glyph-name="seveneighths" unicode="&#x215e;" horiz-adv-x="929" d="M821 215 Q861 192 870 162 L850 71 Q830 39 785.5 15.5 Q741 -8 677 -8 Q613 -8 572.5 16 Q532 40 521 71 L541 162 Q569 201 615 222 Q599 231 588 241.5 Q577 252 573 260 L595 364 Q612 386 653 407.5 Q694 429 756 429 Q817 429 853.5 407.5 Q890 386 902 364 L879 260 Q873 250 858 237.5 Q843 225 821 215 Z M658 274 Q665 263 681.5 255 Q698 247 724 247 Q750 247 770 255 Q790 263 800 274 L814 335 Q794 363 749 363 Q724 363 704 354.5 Q684 346 672 335 L658 274 Z M780 156 Q776 170 757.5 179.5 Q739 189 712 189 Q685 189 662 179.5 Q639 170 628 156 L615 91 Q620 77 638.5 67 Q657 57 684 57 Q711 57 733.5 67 Q756 77 767 91 L780 156 Z M427 638 L183 280 L104 280 L113 330 L327 626 L327 629 L114 629 L129 700 L440 700 L427 638 Z M774 648 L167 0 L96 0 L108 52 L714 700 L784 700 L774 648 Z " />
<glyph glyph-name="threeeighths" unicode="&#x215c;" horiz-adv-x="1000" d="M883 215 Q923 192 932 162 L912 71 Q892 39 847.5 15.5 Q803 -8 739 -8 Q675 -8 634.5 16 Q594 40 583 71 L603 162 Q631 201 677 222 Q661 231 650 241.5 Q639 252 635 260 L657 364 Q674 386 715 407.5 Q756 429 818 429 Q879 429 915.5 407.5 Q952 386 964 364 L941 260 Q935 250 920 237.5 Q905 225 883 215 Z M720 274 Q727 263 743.5 255 Q760 247 786 247 Q812 247 832 255 Q852 263 862 274 L876 335 Q856 363 811 363 Q786 363 766 354.5 Q746 346 734 335 L720 274 Z M842 156 Q838 170 819.5 179.5 Q801 189 774 189 Q747 189 724 179.5 Q701 170 690 156 L677 91 Q682 77 700.5 67 Q719 57 746 57 Q773 57 795.5 67 Q818 77 829 91 L842 156 Z M438 634 L419 546 Q410 534 390 519.5 Q370 505 343 496 Q367 487 383 473 Q399 459 405 443 L385 351 Q364 318 320 295 Q276 272 211 272 Q168 272 134.5 283.5 Q101 295 81 311 Q61 327 56 340 L68 393 L136 393 Q140 371 162.5 356 Q185 341 219 341 Q246 341 267 350.5 Q288 360 301 375 L313 429 Q308 443 290 453 Q272 463 244 463 L192 463 L206 529 L256 529 Q282 529 303 538 Q324 547 334 559 L345 611 Q340 622 323.5 630.5 Q307 639 282 639 Q224 639 189 592 L118 592 L129 645 Q148 669 188 689 Q228 709 289 709 Q351 709 388.5 685 Q426 661 438 634 Z M847 648 L240 0 L169 0 L181 52 L787 700 L857 700 L847 648 Z " />
<glyph glyph-name="twothirds" unicode="&#x2154;" horiz-adv-x="1034" d="M998 354 L979 266 Q970 254 950 239.5 Q930 225 903 216 Q927 207 943 193 Q959 179 965 163 L945 71 Q924 38 880 15 Q836 -8 771 -8 Q728 -8 694.5 3.5 Q661 15 641 31 Q621 47 616 60 L628 113 L696 113 Q700 91 722.5 76 Q745 61 779 61 Q806 61 827 70.5 Q848 80 861 95 L873 149 Q868 163 850 173 Q832 183 804 183 L752 183 L766 249 L816 249 Q842 249 863 258 Q884 267 894 279 L905 331 Q900 342 883.5 350.5 Q867 359 842 359 Q784 359 749 312 L678 312 L689 365 Q708 389 748 409 Q788 429 849 429 Q911 429 948.5 405 Q986 381 998 354 Z M443 628 L427 550 Q411 524 385 504.5 Q359 485 299 453 L238 422 Q167 385 149 360 L148 351 L390 351 L374 280 L48 280 L67 373 Q84 401 112 424.5 Q140 448 193 476 L258 510 Q296 529 314 541.5 Q332 554 341 569 L350 606 Q344 620 327.5 629.5 Q311 639 283 639 Q252 639 225.5 624.5 Q199 610 187 592 L114 592 L124 640 Q144 666 185 687.5 Q226 709 288 709 Q352 709 392 684 Q432 659 443 628 Z M883 648 L276 0 L205 0 L217 52 L823 700 L893 700 L883 648 Z " />
<glyph glyph-name="uniE000" unicode="&#xe000;" horiz-adv-x="1026" d="M857 648 L250 0 L179 0 L191 52 L797 700 L867 700 L857 648 Z M211 607 L192 520 Q234 545 286 545 Q338 545 372 526 Q406 507 418 480 L387 340 Q368 314 327 293 Q286 272 223 272 Q160 272 119.5 297 Q79 322 67 351 L127 630 Q148 662 193 685.5 Q238 709 303 709 Q364 709 400.5 687.5 Q437 666 452 640 L442 593 L370 593 Q365 615 344.5 628 Q324 641 294 641 Q268 641 244.5 631 Q221 621 211 607 Z M179 460 L160 370 Q164 356 182.5 346 Q201 336 228 336 Q255 336 277 346 Q299 356 310 370 L328 451 Q323 465 305 474.5 Q287 484 259 484 Q218 484 179 460 Z M895 215 Q935 192 944 162 L924 71 Q904 39 859.5 15.5 Q815 -8 751 -8 Q687 -8 646.5 16 Q606 40 595 71 L615 162 Q643 201 689 222 Q673 231 662 241.5 Q651 252 647 260 L669 364 Q686 386 727 407.5 Q768 429 830 429 Q891 429 927.5 407.5 Q964 386 976 364 L953 260 Q947 250 932 237.5 Q917 225 895 215 Z M732 274 Q739 263 755.5 255 Q772 247 798 247 Q824 247 844 255 Q864 263 874 274 L888 335 Q868 363 823 363 Q798 363 778 354.5 Q758 346 746 335 L732 274 Z M854 156 Q850 170 831.5 179.5 Q813 189 786 189 Q759 189 736 179.5 Q713 170 702 156 L689 91 Q694 77 712.5 67 Q731 57 758 57 Q785 57 807.5 67 Q830 77 841 91 L854 156 Z " />
<glyph glyph-name="uniE001" unicode="&#xe001;" horiz-adv-x="1252" d="M217 339 L286 339 L274 280 L45 280 L57 339 L129 339 L191 627 L116 621 L128 675 L222 700 L295 700 L217 339 Z M992 327 L973 240 Q1015 265 1067 265 Q1119 265 1153 246 Q1187 227 1199 200 L1168 60 Q1149 34 1108 13 Q1067 -8 1004 -8 Q941 -8 900.5 17 Q860 42 848 71 L908 350 Q929 382 974 405.5 Q1019 429 1084 429 Q1145 429 1181.5 407.5 Q1218 386 1233 360 L1223 313 L1151 313 Q1146 335 1125.5 348 Q1105 361 1075 361 Q1049 361 1025.5 351 Q1002 341 992 327 Z M960 180 L941 90 Q945 76 963.5 66 Q982 56 1009 56 Q1036 56 1058 66 Q1080 76 1091 90 L1109 171 Q1104 185 1086 194.5 Q1068 204 1040 204 Q999 204 960 180 Z M789 648 L182 0 L111 0 L123 52 L729 700 L799 700 L789 648 Z M716 59 L785 59 L773 0 L544 0 L556 59 L628 59 L690 347 L615 341 L627 395 L721 420 L794 420 L716 59 Z " />
<glyph glyph-name="percent" unicode="&#x25;" horiz-adv-x="898" d="M448 620 L408 435 Q386 398 342.5 372.5 Q299 347 235 347 Q170 347 130 373 Q90 399 80 435 L120 620 Q143 657 187 683 Q231 709 294 709 Q359 709 398.5 682.5 Q438 656 448 620 Z M800 648 L182 0 L122 0 L134 52 L751 700 L810 700 L800 648 Z M206 607 L172 448 Q177 433 195 422.5 Q213 412 240 412 Q267 412 289.5 422.5 Q312 433 322 448 L356 607 Q352 623 334 633.5 Q316 644 289 644 Q262 644 239.5 633.5 Q217 623 206 607 Z M852 265 L811 80 Q790 44 746 18 Q702 -8 638 -8 Q574 -8 534 18.5 Q494 45 483 80 L524 265 Q546 302 590 328 Q634 354 698 354 Q763 354 802.5 327.5 Q842 301 852 265 Z M609 252 L576 93 Q581 78 599 67.5 Q617 57 644 57 Q671 57 693.5 67.5 Q716 78 726 93 L760 252 Q755 268 737 278.5 Q719 289 692 289 Q665 289 643 278.5 Q621 268 609 252 Z " />
<glyph glyph-name="perthousand" unicode="&#x2030;" horiz-adv-x="1282" d="M448 620 L408 435 Q386 398 342.5 372.5 Q299 347 235 347 Q170 347 130 373 Q90 399 80 435 L120 620 Q143 657 187 683 Q231 709 294 709 Q359 709 398.5 682.5 Q438 656 448 620 Z M800 648 L182 0 L122 0 L134 52 L751 700 L810 700 L800 648 Z M206 607 L172 448 Q177 433 195 422.5 Q213 412 240 412 Q267 412 289.5 422.5 Q312 433 322 448 L356 607 Q352 623 334 633.5 Q316 644 289 644 Q262 644 239.5 633.5 Q217 623 206 607 Z M852 265 L811 80 Q790 44 746 18 Q702 -8 638 -8 Q574 -8 534 18.5 Q494 45 483 80 L524 265 Q546 302 590 328 Q634 354 698 354 Q763 354 802.5 327.5 Q842 301 852 265 Z M1236 265 L1196 80 Q1174 44 1130.5 18 Q1087 -8 1023 -8 Q959 -8 919 18.5 Q879 45 868 80 L908 265 Q931 302 975 328 Q1019 354 1083 354 Q1148 354 1187.5 327.5 Q1227 301 1236 265 Z M609 252 L576 93 Q581 78 599 67.5 Q617 57 644 57 Q671 57 693.5 67.5 Q716 78 726 93 L760 252 Q755 268 737 278.5 Q719 289 692 289 Q665 289 643 278.5 Q621 268 609 252 Z M994 252 L960 93 Q965 78 983 67.5 Q1001 57 1028 57 Q1055 57 1077.5 67.5 Q1100 78 1110 93 L1144 252 Q1140 268 1122 278.5 Q1104 289 1077 289 Q1050 289 1027.5 278.5 Q1005 268 994 252 Z " />
<glyph glyph-name="plus" unicode="&#x2b;" horiz-adv-x="585" d="M342 288 L342 81 L243 81 L243 288 L38 288 L38 384 L243 384 L243 590 L342 590 L342 384 L547 384 L547 288 L342 288 Z " />
<glyph glyph-name="minus" unicode="&#x2212;" horiz-adv-x="585" d="M50 288 L50 384 L559 384 L559 288 L50 288 Z " />
<glyph glyph-name="plusminus" unicode="&#xb1;" horiz-adv-x="585" d="M547 357 L342 357 L342 175 L243 175 L243 357 L38 357 L38 454 L243 454 L243 636 L342 636 L342 454 L547 454 L547 357 Z M547 119 L547 21 L38 21 L38 119 L547 119 Z " />
<glyph glyph-name="multiply" unicode="&#xd7;" horiz-adv-x="585" d="M376 336 L549 161 L549 97 L477 97 L307 266 L138 97 L64 97 L64 161 L238 336 L64 510 L64 575 L138 575 L307 405 L477 575 L549 575 L549 510 L376 336 Z " />
<glyph glyph-name="divide" unicode="&#xf7;" horiz-adv-x="585" d="M370 559 L370 492 Q365 479 347 468.5 Q329 458 303 458 Q278 458 261 468 Q244 478 237 492 L237 559 Q244 573 261 583 Q278 593 303 593 Q329 593 347 583 Q365 573 370 559 Z M558 288 L50 288 L50 384 L558 384 L558 288 Z M370 182 L370 115 Q365 102 347 91.5 Q329 81 303 81 Q278 81 261 91 Q244 101 237 115 L237 182 Q244 196 261 206 Q278 216 303 216 Q329 216 347 206 Q365 196 370 182 Z " />
<glyph glyph-name="equal" unicode="&#x3d;" horiz-adv-x="585" d="M50 183 L50 279 L559 279 L559 183 L50 183 Z M50 393 L50 489 L559 489 L559 393 L50 393 Z " />
<glyph glyph-name="notequal" unicode="&#x2260;" horiz-adv-x="585" d="M332 279 L560 279 L560 183 L294 183 L254 81 L156 81 L196 183 L51 183 L51 279 L234 279 L279 393 L51 393 L51 489 L316 489 L356 590 L454 590 L415 489 L560 489 L560 393 L377 393 L332 279 Z " />
<glyph glyph-name="approxequal" unicode="&#x2248;" horiz-adv-x="585" d="M328 280 Q367 268 396.5 261.5 Q426 255 455 255 Q484 255 509 265 Q534 275 550.5 286.5 Q567 298 567 299 L567 192 Q567 191 551.5 182 Q536 173 511.5 165.5 Q487 158 456 158 Q421 158 389.5 164.5 Q358 171 313 184 Q275 196 245.5 202.5 Q216 209 185 209 Q150 209 120 197.5 Q90 186 69.5 172.5 Q49 159 49 158 L49 260 Q49 261 68 273.5 Q87 286 118 296 Q149 306 187 306 Q220 306 252 299.5 Q284 293 328 280 Z M328 492 Q367 480 396.5 473.5 Q426 467 455 467 Q484 467 509 477 Q534 487 550.5 498.5 Q567 510 567 511 L567 404 Q567 403 551.5 394 Q536 385 511.5 377.5 Q487 370 456 370 Q421 370 389.5 376.5 Q358 383 313 396 Q275 408 245.5 414.5 Q216 421 185 421 Q150 421 120 409.5 Q90 398 69.5 384.5 Q49 371 49 370 L49 472 Q49 473 68 485.5 Q87 498 118 508 Q149 518 187 518 Q220 518 252 511.5 Q284 505 328 492 Z " />
<glyph glyph-name="less" unicode="&#x3c;" horiz-adv-x="585" d="M153 297 L546 121 L546 54 L459 54 L19 255 L19 340 L459 540 L546 540 L546 473 L153 297 Z " />
<glyph glyph-name="greater" unicode="&#x3e;" horiz-adv-x="585" d="M576 255 L136 54 L49 54 L49 121 L442 297 L49 473 L49 540 L136 540 L576 340 L576 255 Z " />
<glyph glyph-name="lessequal" unicode="&#x2264;" horiz-adv-x="585" d="M193 373 L548 243 L548 176 L460 176 L39 335 L39 399 L460 580 L548 580 L548 512 L193 373 Z M39 21 L39 119 L548 119 L548 21 L39 21 Z " />
<glyph glyph-name="greaterequal" unicode="&#x2265;" horiz-adv-x="585" d="M559 335 L138 176 L51 176 L51 243 L405 373 L51 512 L51 580 L138 580 L559 399 L559 335 Z M51 21 L51 119 L559 119 L559 21 L51 21 Z " />
<glyph glyph-name="logicalnot" unicode="&#xac;" horiz-adv-x="585" d="M543 81 L445 81 L445 288 L34 288 L34 384 L543 384 L543 81 Z " />
<glyph glyph-name="uni00AD" unicode="&#xad;" horiz-adv-x="365" d="M331 288 L42 288 L63 384 L351 384 L331 288 Z " />
<glyph glyph-name="Delta" unicode="&#x2206;" horiz-adv-x="619" d="M550 75 L534 0 L-31 0 L-15 75 L311 700 L490 700 L550 75 Z M414 101 L380 596 L377 596 L127 101 L414 101 Z " />
<glyph glyph-name="Omega" unicode="&#x2126;" horiz-adv-x="631" d="M420 101 L538 101 L516 0 L294 0 L323 140 Q359 146 388.5 168 Q418 190 433 217 L502 536 Q496 569 466 590 Q436 611 388 611 Q341 611 302.5 589.5 Q264 568 244 536 L175 217 Q179 191 199 169 Q219 147 252 140 L222 0 L-1 0 L20 101 L153 101 Q110 121 83 152.5 Q56 184 46 220 L120 562 Q155 624 226.5 669 Q298 714 401 714 Q471 714 521.5 690.5 Q572 667 600 632.5 Q628 598 637 562 L564 219 Q520 140 420 101 Z " />
<glyph glyph-name="mu" unicode="&#xb5;" horiz-adv-x="556" d="M557 540 L441 0 L329 0 L340 49 Q279 -12 194 -12 Q152 -12 120 5 L83 -166 L-38 -166 L114 540 L235 540 L146 127 Q156 109 179 96 Q202 83 236 83 Q300 83 349 130 L437 540 L557 540 Z " />
<glyph glyph-name="pi" unicode="&#x3c0;" horiz-adv-x="621" d="M633 451 L569 451 L472 0 L352 0 L449 451 L248 451 L151 0 L31 0 L128 451 L64 451 L84 540 L653 540 L633 451 Z " />
<glyph glyph-name="degree" unicode="&#xb0;" horiz-adv-x="385" d="M450 722 L422 593 Q401 559 358 533.5 Q315 508 251 508 Q190 508 151.5 534.5 Q113 561 101 593 L129 722 Q150 755 193.5 781 Q237 807 300 807 Q362 807 401 780 Q440 753 450 722 Z M210 699 L191 616 Q197 601 214 590 Q231 579 258 579 Q312 579 341 616 L360 699 Q353 715 336 725.5 Q319 736 291 736 Q263 736 241.5 725 Q220 714 210 699 Z " />
<glyph glyph-name="infinity" unicode="&#x221e;" horiz-adv-x="786" d="M715 439 L715 271 Q700 235 657 208.5 Q614 182 550 182 Q495 182 461 202 Q427 222 402 256 Q378 223 342.5 202.5 Q307 182 252 182 Q188 182 145.5 209 Q103 236 88 272 L88 438 Q103 474 145.5 500.5 Q188 527 252 527 Q308 527 342.5 506.5 Q377 486 401 452 Q425 486 459.5 506.5 Q494 527 550 527 Q614 527 656.5 500.5 Q699 474 715 439 Z M331 288 L358 355 L331 421 Q325 437 303 448 Q281 459 253 459 Q226 459 205.5 448 Q185 437 178 421 L178 288 Q185 272 205.5 261.5 Q226 251 253 251 Q281 251 303 262 Q325 273 331 288 Z M625 422 Q618 437 598 448 Q578 459 551 459 Q524 459 502.5 448 Q481 437 473 422 L445 352 L471 287 Q479 272 501 261.5 Q523 251 551 251 Q578 251 598 261.5 Q618 272 625 287 L625 422 Z " />
<glyph glyph-name="partialdiff" unicode="&#x2202;" horiz-adv-x="555" d="M508 519 L508 120 Q486 67 428 26.5 Q370 -14 279 -14 Q187 -14 129.5 26.5 Q72 67 48 120 L48 348 Q59 380 85.5 410 Q112 440 154 460 Q196 480 250 480 Q296 480 327.5 469 Q359 458 388 437 L388 492 Q365 546 292.5 591 Q220 636 137 664 L201 733 Q304 703 392.5 645 Q481 587 508 519 Z M169 324 L169 143 Q180 116 209 97.5 Q238 79 278 79 Q319 79 348 97.5 Q377 116 388 143 L388 342 Q371 360 343 373 Q315 386 279 386 Q239 386 209.5 368 Q180 350 169 324 Z " />
<glyph glyph-name="integral" unicode="&#x222b;" horiz-adv-x="432" d="M412 702 L412 622 L364 622 Q296 622 276 577 L276 -87 Q261 -126 221 -154 Q181 -182 109 -182 Q81 -182 56.5 -178.5 Q32 -175 20 -171 L20 -90 L68 -90 Q109 -90 128 -77 Q147 -64 156 -46 L156 619 Q171 657 210.5 685 Q250 713 322 713 Q350 713 375 709.5 Q400 706 412 702 Z " />
<glyph glyph-name="radical" unicode="&#x221a;" horiz-adv-x="590" d="M605 635 L404 0 L261 0 L117 449 L61 449 L61 540 L210 540 L332 145 L335 145 L498 700 L605 700 L605 635 Z " />
<glyph glyph-name="summation" unicode="&#x2211;" horiz-adv-x="554" d="M390 343 L390 259 L223 -3 L540 -3 L540 -100 L66 -100 L66 -18 L265 301 L66 618 L66 700 L540 700 L540 603 L224 603 L390 343 Z " />
<glyph glyph-name="product" unicode="&#x220f;" horiz-adv-x="640" d="M591 -100 L461 -100 L461 603 L214 603 L214 -100 L84 -100 L84 700 L591 700 L591 -100 Z " />
<glyph glyph-name="lozenge" unicode="&#x25ca;" horiz-adv-x="591" d="M381 0 L250 0 L58 350 L250 700 L381 700 L573 350 L381 0 Z M315 129 L441 350 L315 571 L190 350 L315 129 Z " />
<glyph glyph-name="arrowleft" unicode="&#x2190;" horiz-adv-x="760" d="M16 382 L333 700 L413 700 L413 626 L180 399 L776 399 L776 300 L181 300 L413 74 L413 0 L333 0 L16 317 L16 382 Z " />
<glyph glyph-name="arrowright" unicode="&#x2192;" horiz-adv-x="760" d="M779 317 L462 0 L381 0 L381 74 L614 300 L19 300 L19 399 L615 399 L381 626 L381 700 L462 700 L779 382 L779 317 Z " />
<glyph glyph-name="arrowup" unicode="&#x2191;" horiz-adv-x="760" d="M752 372 L679 372 L459 595 L459 0 L346 0 L346 595 L124 372 L52 372 L52 442 L370 760 L435 760 L752 442 L752 372 Z " />
<glyph glyph-name="arrowdown" unicode="&#x2193;" horiz-adv-x="760" d="M726 258 L409 -60 L344 -60 L26 258 L26 328 L99 328 L320 105 L320 700 L433 700 L433 105 L653 328 L726 328 L726 258 Z " />
<glyph glyph-name="uni0410" unicode="&#x410;" horiz-adv-x="619" d="M550 75 L534 0 L425 0 L411 179 L170 179 L81 0 L-31 0 L-15 75 L311 700 L490 700 L550 75 Z M404 280 L380 596 L377 596 L220 280 L404 280 Z " />
<glyph glyph-name="uni0411" unicode="&#x411;" horiz-adv-x="588" d="M266 600 L230 432 L365 432 Q434 432 487.5 400 Q541 368 560 317 L517 119 Q483 64 426 32 Q369 0 298 0 L7 0 L157 700 L628 700 L607 600 L266 600 Z M208 333 L158 99 L280 99 Q323 99 353 115 Q383 131 406 160 L432 276 Q424 301 396 317 Q368 333 329 333 L208 333 Z " />
<glyph glyph-name="uni0412" unicode="&#x412;" horiz-adv-x="597" d="M482 365 Q508 353 528.5 334 Q549 315 557 290 L520 119 Q490 68 432 34 Q374 0 308 0 L7 0 L157 700 L414 700 Q487 700 539 665 Q591 630 606 582 L578 445 Q563 419 536.5 398 Q510 377 482 365 Z M462 467 L479 545 Q462 601 378 601 L266 601 L225 409 L350 409 Q383 409 412.5 424 Q442 439 462 467 Z M432 263 Q423 288 395.5 302.5 Q368 317 327 317 L206 317 L158 99 L277 99 Q326 99 357.5 115 Q389 131 411 161 L432 263 Z " />
<glyph glyph-name="uni0413" unicode="&#x413;" horiz-adv-x="507" d="M552 600 L266 600 L137 0 L7 0 L157 700 L574 700 L552 600 Z " />
<glyph glyph-name="uni0414" unicode="&#x414;" horiz-adv-x="704" d="M558 100 L639 100 L589 -132 L478 -132 L507 0 L77 0 L49 -132 L-62 -132 L-12 100 Q20 108 54 129 Q88 150 103 172 L277 700 L687 700 L558 100 Z M428 100 L536 600 L363 600 L217 152 Q194 121 153 100 L428 100 Z " />
<glyph glyph-name="uni0415" unicode="&#x415;" horiz-adv-x="538" d="M558 599 L265 599 L225 409 L498 409 L476 309 L203 309 L159 101 L459 101 L438 0 L7 0 L157 700 L580 700 L558 599 Z " />
<glyph glyph-name="uni0416" unicode="&#x416;" horiz-adv-x="873" d="M911 625 L707 371 L801 75 L785 0 L684 0 L593 314 L507 314 L440 0 L317 0 L384 314 L310 314 L84 0 L-28 0 L-12 75 L208 372 L113 625 L129 700 L221 700 L320 414 L405 414 L467 700 L590 700 L529 414 L604 414 L823 700 L928 700 L911 625 Z " />
<glyph glyph-name="uni0417" unicode="&#x417;" horiz-adv-x="597" d="M611 582 L584 456 Q543 387 463 353 Q495 334 515 308.5 Q535 283 542 260 L512 118 Q425 -14 244 -14 Q174 -14 125 8 Q76 30 49.5 60 Q23 90 13 118 L27 182 L135 182 Q141 139 171.5 112.5 Q202 86 256 86 Q303 86 339 106 Q375 126 393 153 L412 240 Q406 267 376 287.5 Q346 308 290 308 L217 308 L221 325 L238 408 L328 408 Q377 408 410.5 427 Q444 446 463 474 L478 547 Q470 574 442.5 594 Q415 614 369 614 Q315 614 273.5 586.5 Q232 559 213 518 L98 518 L112 582 Q146 633 212.5 673.5 Q279 714 381 714 Q450 714 499 692 Q548 670 575 640 Q602 610 611 582 Z " />
<glyph glyph-name="uni0418" unicode="&#x418;" horiz-adv-x="665" d="M541 0 L420 0 L528 506 L525 506 L143 0 L7 0 L157 700 L278 700 L170 194 L173 194 L555 700 L691 700 L541 0 Z " />
<glyph glyph-name="uni0419" unicode="&#x419;" horiz-adv-x="665" d="M541 0 L420 0 L528 506 L525 506 L143 0 L7 0 L157 700 L278 700 L170 194 L173 194 L555 700 L691 700 L541 0 Z M610 824 Q589 788 547.5 764.5 Q506 741 445 741 Q383 741 343 764.5 Q303 788 291 824 L304 883 L393 883 L384 845 Q387 832 402 820 Q417 808 447 808 Q478 808 497 819.5 Q516 831 525 845 L534 883 L623 883 L610 824 Z " />
<glyph glyph-name="uni041A" unicode="&#x41a;" horiz-adv-x="586" d="M393 368 L514 75 L498 0 L403 0 L281 314 L199 314 L132 0 L2 0 L152 700 L282 700 L220 414 L292 414 L535 700 L639 700 L623 625 L393 368 Z " />
<glyph glyph-name="uni041B" unicode="&#x41b;" horiz-adv-x="652" d="M530 0 L400 0 L528 600 L357 600 L188 83 Q151 33 99.5 14.5 Q48 -4 -38 -4 L-17 97 Q17 97 44.5 110.5 Q72 124 85 144 L269 700 L680 700 L530 0 Z " />
<glyph glyph-name="uni041C" unicode="&#x41c;" horiz-adv-x="764" d="M520 0 L631 518 L628 518 L400 167 L319 167 L242 518 L239 518 L128 0 L7 0 L157 700 L315 700 L394 342 L397 342 L626 700 L792 700 L642 0 L520 0 Z " />
<glyph glyph-name="uni041D" unicode="&#x41d;" horiz-adv-x="651" d="M528 0 L398 0 L464 311 L203 311 L137 0 L7 0 L157 700 L287 700 L225 411 L486 411 L548 700 L678 700 L528 0 Z " />
<glyph glyph-name="uni041E" unicode="&#x41e;" horiz-adv-x="626" d="M635 562 L544 139 Q505 73 438 29.5 Q371 -14 267 -14 Q196 -14 144 9 Q92 32 63 67 Q34 102 26 139 L117 562 Q154 626 222 670 Q290 714 393 714 Q464 714 516 691 Q568 668 597.5 633 Q627 598 635 562 Z M241 535 L162 165 Q167 133 198.5 110.5 Q230 88 278 88 Q325 88 361.5 110 Q398 132 420 165 L499 535 Q493 568 462.5 590.5 Q432 613 383 613 Q335 613 298.5 590.5 Q262 568 241 535 Z " />
<glyph glyph-name="uni041F" unicode="&#x41f;" horiz-adv-x="645" d="M523 0 L393 0 L521 599 L265 599 L137 0 L7 0 L157 700 L673 700 L523 0 Z " />
<glyph glyph-name="uni0420" unicode="&#x420;" horiz-adv-x="582" d="M610 582 L568 383 Q490 265 337 265 L194 265 L137 0 L7 0 L157 700 L403 700 Q562 700 610 582 Z M476 542 Q467 571 440 585.5 Q413 600 379 600 L266 600 L215 365 L324 365 Q367 365 398.5 380 Q430 395 452 428 L476 542 Z " />
<glyph glyph-name="uni0421" unicode="&#x421;" horiz-adv-x="606" d="M633 571 L618 506 L510 506 Q508 551 475 582 Q442 613 385 613 Q337 613 299.5 591 Q262 569 241 535 L162 165 Q168 133 199.5 110.5 Q231 88 279 88 Q386 88 437 194 L552 194 L537 129 Q505 69 439.5 27.5 Q374 -14 270 -14 Q198 -14 145.5 9 Q93 32 63.5 67 Q34 102 26 138 L117 562 Q152 624 220.5 669 Q289 714 393 714 Q464 714 515 691.5 Q566 669 594.5 636 Q623 603 633 571 Z " />
<glyph glyph-name="uni0422" unicode="&#x422;" horiz-adv-x="537" d="M582 599 L404 599 L276 0 L146 0 L274 599 L95 599 L117 700 L604 700 L582 599 Z " />
<glyph glyph-name="uni0423" unicode="&#x423;" horiz-adv-x="570" d="M629 700 L612 625 L273 67 Q233 24 188.5 9 Q144 -6 82 -6 Q57 -6 24 -1 L44 93 Q64 91 82 91 Q140 91 179 124 L213 183 L109 625 L125 700 L223 700 L302 322 L521 700 L629 700 Z " />
<glyph glyph-name="uni0424" unicode="&#x424;" horiz-adv-x="761" d="M760 507 L692 193 Q649 129 577.5 91.5 Q506 54 433 54 L392 54 L372 -40 L258 -40 L278 54 L252 54 Q205 54 160 72.5 Q115 91 82.5 123 Q50 155 38 193 L105 507 Q145 570 217.5 608 Q290 646 364 646 L405 646 L425 740 L539 740 L519 646 L545 646 Q592 646 637 627 Q682 608 715 576.5 Q748 545 760 507 Z M384 548 L363 548 Q325 548 284 529 Q243 510 219 482 L163 218 Q174 189 206.5 170.5 Q239 152 277 152 L299 152 L384 548 Z M633 482 Q623 511 590.5 529.5 Q558 548 520 548 L498 548 L413 152 L435 152 Q473 152 514.5 170.5 Q556 189 577 218 L633 482 Z " />
<glyph glyph-name="uni0425" unicode="&#x425;" horiz-adv-x="591" d="M396 356 L510 75 L494 0 L392 0 L300 273 L297 273 L90 0 L-19 0 L-3 75 L229 360 L121 625 L138 700 L238 700 L328 439 L331 439 L528 700 L637 700 L621 625 L396 356 Z " />
<glyph glyph-name="uni0426" unicode="&#x426;" horiz-adv-x="683" d="M538 100 L619 100 L569 -132 L459 -132 L487 0 L7 0 L157 700 L287 700 L159 100 L408 100 L537 700 L667 700 L538 100 Z " />
<glyph glyph-name="uni0427" unicode="&#x427;" horiz-adv-x="628" d="M655 700 L505 0 L375 0 L434 276 Q368 237 287 237 Q228 237 183 253 Q138 269 110.5 293 Q83 317 73 342 L150 700 L280 700 L213 383 Q222 363 248 347.5 Q274 332 317 332 Q358 332 395 346 Q432 360 456 380 L525 700 L655 700 Z " />
<glyph glyph-name="uni0428" unicode="&#x428;" horiz-adv-x="918" d="M794 0 L7 0 L157 700 L287 700 L158 100 L357 100 L486 700 L616 700 L487 100 L686 100 L814 700 L944 700 L794 0 Z " />
<glyph glyph-name="uni0429" unicode="&#x429;" horiz-adv-x="961" d="M816 100 L897 100 L847 -132 L737 -132 L765 0 L7 0 L157 700 L287 700 L159 100 L358 100 L486 700 L616 700 L488 100 L686 100 L814 700 L944 700 L816 100 Z " />
<glyph glyph-name="uni042A" unicode="&#x42a;" horiz-adv-x="681" d="M651 323 L607 119 Q575 68 518.5 34 Q462 0 388 0 L98 0 L227 602 L96 602 L117 700 L377 700 L321 437 L461 437 Q524 437 578.5 404.5 Q633 372 651 323 Z M524 283 Q514 308 487 323 Q460 338 426 338 L300 338 L249 99 L368 99 Q410 99 441 116.5 Q472 134 497 162 L524 283 Z " />
<glyph glyph-name="uni042B" unicode="&#x42b;" horiz-adv-x="820" d="M231 437 L357 437 Q420 437 474 404.5 Q528 372 547 323 L503 119 Q470 68 413.5 34 Q357 0 283 0 L7 0 L157 700 L287 700 L231 437 Z M697 0 L567 0 L717 700 L847 700 L697 0 Z M209 338 L158 99 L264 99 Q306 99 336.5 116 Q367 133 393 162 L420 283 Q410 308 383 323 Q356 338 321 338 L209 338 Z " />
<glyph glyph-name="uni042C" unicode="&#x42c;" horiz-adv-x="590" d="M231 437 L371 437 Q434 437 488 404.5 Q542 372 561 323 L517 119 Q484 68 427.5 34 Q371 0 298 0 L7 0 L157 700 L287 700 L231 437 Z M209 338 L158 99 L278 99 Q320 99 350.5 116 Q381 133 407 162 L434 283 Q424 308 397 323 Q370 338 336 338 L209 338 Z " />
<glyph glyph-name="uni042D" unicode="&#x42d;" horiz-adv-x="615" d="M623 562 L532 138 Q498 76 429 31 Q360 -14 257 -14 Q186 -14 135 8.5 Q84 31 55.5 64 Q27 97 17 129 L31 194 L140 194 Q141 149 174 118 Q207 87 265 87 Q312 87 349.5 109 Q387 131 408 165 L439 310 L215 310 L236 408 L460 408 L488 535 Q482 567 450.5 589.5 Q419 612 370 612 Q263 612 212 506 L98 506 L112 571 Q144 631 210 672.5 Q276 714 380 714 Q451 714 503.5 691 Q556 668 585.5 633 Q615 598 623 562 Z " />
<glyph glyph-name="uni042E" unicode="&#x42e;" horiz-adv-x="879" d="M887 562 L796 139 Q759 75 692 30.5 Q625 -14 523 -14 Q453 -14 404 9.5 Q355 33 328 68 Q301 103 293 139 L330 309 L203 309 L137 0 L7 0 L157 700 L287 700 L225 409 L352 409 L384 562 Q422 626 488.5 670 Q555 714 657 714 Q727 714 776 690.5 Q825 667 851.5 632.5 Q878 598 887 562 Z M752 536 Q745 569 717 591.5 Q689 614 644 614 Q600 614 564.5 592.5 Q529 571 509 536 L429 164 Q436 131 464 109 Q492 87 537 87 Q581 87 616.5 108 Q652 129 672 164 L752 536 Z " />
<glyph glyph-name="uni042F" unicode="&#x42f;" horiz-adv-x="604" d="M632 700 L482 0 L352 0 L411 279 L322 279 L101 0 L-9 0 L8 75 L190 292 Q150 307 121 334.5 Q92 362 78 398 L118 582 Q159 638 216.5 669 Q274 700 337 700 L632 700 Z M480 600 L362 600 Q279 600 231 538 L210 434 Q220 406 246.5 391 Q273 376 314 376 L432 376 L480 600 Z " />
<glyph glyph-name="uni0490" unicode="&#x490;" horiz-adv-x="491" d="M537 600 L266 600 L137 0 L7 0 L157 700 L448 700 L473 817 L584 817 L537 600 Z " />
<glyph glyph-name="uni0406" unicode="&#x406;" horiz-adv-x="260" d="M137 0 L7 0 L157 700 L287 700 L137 0 Z " />
<glyph glyph-name="uni0402" unicode="&#x402;" horiz-adv-x="708" d="M685 344 L634 103 Q600 56 537 27 Q474 -2 387 -2 L356 -2 L378 95 Q425 95 460 110.5 Q495 126 513 145 L547 301 Q538 321 510.5 336 Q483 351 437 351 Q399 351 363.5 337.5 Q328 324 303 304 L237 0 L107 0 L236 600 L96 600 L117 700 L573 700 L552 600 L366 600 L326 413 Q391 449 474 449 Q559 449 613 417 Q667 385 685 344 Z " />
<glyph glyph-name="uni0452" unicode="&#x452;" horiz-adv-x="575" d="M553 417 L454 -47 Q423 -107 357.5 -143.5 Q292 -180 195 -180 L215 -87 Q254 -87 288.5 -65.5 Q323 -44 340 -14 L427 389 Q419 408 397 423.5 Q375 439 336 439 Q298 439 268 425.5 Q238 412 217 391 L134 0 L13 0 L139 585 L95 585 L109 651 L153 651 L163 700 L284 700 L273 651 L443 651 L428 585 L259 585 L237 484 Q301 534 382 534 Q459 534 501 497 Q543 460 553 417 Z " />
<glyph glyph-name="uni0403" unicode="&#x403;" horiz-adv-x="507" d="M552 600 L266 600 L137 0 L7 0 L157 700 L574 700 L552 600 Z M391 750 L299 750 L303 766 L391 907 L506 907 L493 853 L391 750 Z " />
<glyph glyph-name="uni0453" unicode="&#x453;" horiz-adv-x="442" d="M454 451 L215 451 L119 0 L-1 0 L115 540 L474 540 L454 451 Z M440 713 L338 607 L241 607 L244 622 L334 767 L452 767 L440 713 Z " />
<glyph glyph-name="uni0456" unicode="&#x456;" horiz-adv-x="241" d="M123 0 L2 0 L118 540 L239 540 L123 0 Z " />
<glyph glyph-name="uni0491" unicode="&#x491;" horiz-adv-x="447" d="M455 451 L215 451 L119 0 L-1 0 L115 540 L373 540 L391 629 L493 629 L455 451 Z " />
<glyph glyph-name="uni0408" unicode="&#x408;" horiz-adv-x="387" d="M297 139 Q218 -2 29 -2 Q-12 -2 -38 0 L-17 99 L22 99 Q73 99 112 119 Q151 139 175 173 L287 700 L417 700 L297 139 Z " />
<glyph glyph-name="uni0404" unicode="&#x404;" horiz-adv-x="615" d="M241 535 L214 408 L437 408 L416 310 L193 310 L162 165 Q168 133 199.5 110.5 Q231 88 279 88 Q386 88 437 194 L552 194 L537 129 Q505 69 439.5 27.5 Q374 -14 270 -14 Q198 -14 145.5 9 Q93 32 63.5 67 Q34 102 26 138 L117 562 Q152 624 220.5 669 Q289 714 393 714 Q464 714 515 691.5 Q566 669 594.5 636 Q623 603 633 571 L618 506 L510 506 Q508 551 475 582 Q442 613 385 613 Q337 613 299.5 591 Q262 569 241 535 Z " />
<glyph glyph-name="uni0454" unicode="&#x454;" horiz-adv-x="535" d="M195 396 L178 316 L366 316 L348 231 L160 231 L140 142 Q146 116 172 98.5 Q198 81 239 81 Q284 81 317 102 Q350 123 374 163 L476 163 L465 105 Q437 59 379.5 22.5 Q322 -14 232 -14 Q168 -14 121.5 6.5 Q75 27 48.5 58 Q22 89 15 120 L81 421 Q111 476 172.5 515.5 Q234 555 327 555 Q388 555 433 535 Q478 515 503.5 487 Q529 459 535 435 L523 377 L424 377 Q418 416 389.5 438 Q361 460 315 460 Q275 460 244 441.5 Q213 423 195 396 Z " />
<glyph glyph-name="uni0407" unicode="&#x407;" horiz-adv-x="260" d="M219 845 L206 780 Q193 770 178.5 763 Q164 756 140 756 Q116 756 103 763.5 Q90 771 84 780 L98 845 Q126 870 164 870 Q188 870 201 862 Q214 854 219 845 Z M409 845 L396 780 Q369 756 330 756 Q306 756 292.5 763.5 Q279 771 275 780 L288 845 Q316 870 353 870 Q378 870 391 862 Q404 854 409 845 Z M137 0 L7 0 L157 700 L287 700 L137 0 Z " />
<glyph glyph-name="uni0457" unicode="&#x457;" horiz-adv-x="273" d="M201 710 L186 641 Q159 617 120 617 Q80 617 65 641 L80 710 Q107 734 145 734 Q186 734 201 710 Z M383 710 L368 641 Q341 617 302 617 Q262 617 247 641 L262 710 Q289 734 327 734 Q368 734 383 710 Z M138 0 L18 0 L134 540 L254 540 L138 0 Z " />
<glyph glyph-name="uni0409" unicode="&#x409;" horiz-adv-x="983" d="M955 323 L911 119 Q878 67 822 33.5 Q766 0 692 0 L401 0 L530 600 L359 600 L189 83 Q152 33 101 14.5 Q50 -4 -37 -4 L-15 97 Q19 97 46 110.5 Q73 124 87 144 L270 700 L681 700 L625 437 L765 437 Q828 437 882 404.5 Q936 372 955 323 Z M828 283 Q818 308 791 323 Q764 338 730 338 L604 338 L552 99 L672 99 Q714 99 744.5 116 Q775 133 801 162 L828 283 Z " />
<glyph glyph-name="uni0459" unicode="&#x459;" horiz-adv-x="843" d="M810 258 L774 92 Q708 0 595 0 L329 0 L425 451 L285 451 L164 76 Q130 33 82 14.5 Q34 -4 -43 -4 L-24 89 Q6 89 31 101.5 Q56 114 68 132 L203 540 L565 540 L525 350 L647 350 Q710 350 750 324 Q790 298 810 258 Z M688 217 Q681 235 661 248 Q641 261 611 261 L506 261 L469 89 L568 89 Q629 89 670 136 L688 217 Z " />
<glyph glyph-name="uni040A" unicode="&#x40a;" horiz-adv-x="967" d="M938 323 L894 119 Q861 67 805 33.5 Q749 0 675 0 L384 0 L457 339 L268 339 L195 0 L65 0 L215 700 L345 700 L289 437 L478 437 L534 700 L664 700 L608 437 L748 437 Q811 437 865 404.5 Q919 372 938 323 Z M811 283 Q801 308 774 323 Q747 338 713 338 L587 338 L535 99 L655 99 Q697 99 727.5 116 Q758 133 784 162 L811 283 Z " />
<glyph glyph-name="uni045A" unicode="&#x45a;" horiz-adv-x="843" d="M810 256 L774 92 Q708 0 595 0 L330 0 L385 258 L175 258 L119 0 L-1 0 L115 540 L235 540 L194 348 L404 348 L446 540 L566 540 L526 348 L647 348 Q709 348 750 322 Q791 296 810 256 Z M687 215 Q681 232 660.5 245.5 Q640 259 611 259 L506 259 L471 89 L568 89 Q629 89 670 136 L687 215 Z " />
<glyph glyph-name="uni0458" unicode="&#x458;" horiz-adv-x="233" d="M277 703 L264 645 Q256 632 236.5 622 Q217 612 190 612 Q165 612 149.5 622 Q134 632 131 645 L144 703 Q152 717 172 727 Q192 737 218 737 Q244 737 259 727 Q274 717 277 703 Z M109 -47 Q78 -107 12.5 -143.5 Q-53 -180 -150 -180 L-130 -87 Q-91 -87 -56.5 -65.5 Q-22 -44 -5 -14 L114 540 L235 540 L109 -47 Z " />
<glyph glyph-name="uni0405" unicode="&#x405;" horiz-adv-x="591" d="M602 595 L588 530 L479 530 Q472 566 443 589.5 Q414 613 362 613 Q324 613 292 596 Q260 579 242 556 L223 469 Q229 453 244.5 443 Q260 433 304 419 L375 397 Q456 373 490.5 345.5 Q525 318 542 276 L508 119 Q421 -14 248 -14 Q176 -14 125 7.5 Q74 29 45.5 59.5 Q17 90 8 118 L22 183 L131 183 Q138 140 171 114 Q204 88 259 88 Q306 88 339 107.5 Q372 127 392 157 L409 238 Q404 257 384 270.5 Q364 284 319 298 L243 322 Q173 342 141.5 365.5 Q110 389 90 430 L125 595 Q160 644 224 679 Q288 714 381 714 Q443 714 490.5 695.5 Q538 677 565.5 649.5 Q593 622 602 595 Z " />
<glyph glyph-name="uni040B" unicode="&#x40b;" horiz-adv-x="679" d="M552 600 L366 600 L329 427 L460 427 Q523 427 576 394.5 Q629 362 647 312 L580 0 L460 0 L519 274 Q510 299 483 314 Q456 329 418 329 L308 329 L237 0 L107 0 L236 600 L96 600 L117 700 L573 700 L552 600 Z " />
<glyph glyph-name="uni045B" unicode="&#x45b;" horiz-adv-x="575" d="M553 417 L464 0 L343 0 L426 389 Q419 408 395 423.5 Q371 439 334 439 Q266 439 218 395 L134 0 L13 0 L139 585 L95 585 L109 651 L153 651 L163 700 L284 700 L273 651 L443 651 L428 585 L259 585 L238 485 Q301 534 381 534 Q434 534 471 515 Q508 496 528 469.5 Q548 443 553 417 Z " />
<glyph glyph-name="uni040C" unicode="&#x40c;" horiz-adv-x="586" d="M393 368 L514 75 L498 0 L403 0 L281 314 L199 314 L132 0 L2 0 L152 700 L282 700 L220 414 L292 414 L535 700 L639 700 L623 625 L393 368 Z M431 750 L339 750 L343 766 L431 907 L546 907 L533 853 L431 750 Z " />
<glyph glyph-name="uni045C" unicode="&#x45c;" horiz-adv-x="513" d="M343 280 L447 69 L432 0 L351 0 L239 233 L169 233 L119 0 L-1 0 L115 540 L235 540 L188 323 L250 323 L450 540 L542 540 L528 473 L343 280 Z M475 713 L373 607 L276 607 L279 622 L369 767 L487 767 L475 713 Z " />
<glyph glyph-name="uni0455" unicode="&#x455;" horiz-adv-x="497" d="M493 463 L481 408 L385 408 Q376 433 350.5 448.5 Q325 464 287 464 Q254 464 230 453.5 Q206 443 191 428 L179 368 Q189 343 249 327 L299 314 Q369 296 402.5 273 Q436 250 450 222 L420 87 Q391 46 338.5 16 Q286 -14 202 -14 Q115 -14 65 18 Q15 50 -3 87 L10 142 L108 142 Q119 109 146 93 Q173 77 213 77 Q248 77 274.5 90 Q301 103 316 123 L330 182 Q323 196 305.5 206 Q288 216 258 224 L207 237 Q138 255 107.5 276.5 Q77 298 58 329 L87 463 Q112 496 165.5 525.5 Q219 555 299 555 Q378 555 426 526 Q474 497 493 463 Z " />
<glyph glyph-name="uni040E" unicode="&#x40e;" horiz-adv-x="566" d="M555 824 Q534 788 492.5 764.5 Q451 741 390 741 Q328 741 288 764.5 Q248 788 236 824 L249 883 L338 883 L329 845 Q332 832 347 820 Q362 808 392 808 Q423 808 442 819.5 Q461 831 470 845 L479 883 L568 883 L555 824 Z M629 700 L612 625 L273 67 Q233 24 188.5 9 Q144 -6 82 -6 Q57 -6 24 -1 L44 93 Q64 91 82 91 Q140 91 179 124 L213 183 L109 625 L125 700 L223 700 L302 322 L521 700 L629 700 Z " />
<glyph glyph-name="uni045E" unicode="&#x45e;" horiz-adv-x="519" d="M436 540 L546 540 L532 473 L218 -98 Q182 -139 135 -156.5 Q88 -174 24 -174 Q-28 -174 -54 -166 L-35 -79 Q-17 -82 9 -82 Q79 -82 123 -42 L148 7 L76 471 L91 540 L190 540 L235 153 L238 153 L436 540 Z M506 681 Q484 645 442 622 Q400 599 339 599 Q277 599 238 622.5 Q199 646 187 681 L200 741 L289 741 L280 703 Q282 690 297.5 678 Q313 666 343 666 Q374 666 393 677.5 Q412 689 421 703 L429 741 L519 741 L506 681 Z " />
<glyph glyph-name="uni040F" unicode="&#x40f;" horiz-adv-x="642" d="M519 0 L318 0 L290 -130 L180 -130 L208 0 L7 0 L157 700 L287 700 L158 100 L411 100 L539 700 L669 700 L519 0 Z " />
<glyph glyph-name="uni045F" unicode="&#x45f;" horiz-adv-x="567" d="M452 0 L277 0 L252 -120 L150 -120 L175 0 L-1 0 L115 540 L235 540 L139 90 L351 90 L447 540 L568 540 L452 0 Z " />
<glyph glyph-name="uni0401" unicode="&#x401;" horiz-adv-x="538" d="M558 599 L265 599 L225 409 L498 409 L476 309 L203 309 L159 101 L459 101 L438 0 L7 0 L157 700 L580 700 L558 599 Z M363 858 L347 784 Q323 760 280 760 Q241 760 224 784 L240 858 Q249 867 265.5 875 Q282 883 306 883 Q347 883 363 858 Z M575 858 L559 784 Q532 760 492 760 Q456 760 435 784 L451 858 Q460 867 477 875 Q494 883 518 883 Q556 883 575 858 Z " />
<glyph glyph-name="uni0451" unicode="&#x451;" horiz-adv-x="544" d="M535 435 L494 242 L162 242 L141 141 Q147 115 173 97 Q199 79 239 79 Q326 79 369 162 L476 162 L465 105 Q436 58 378 22 Q320 -14 229 -14 Q166 -14 120 6.5 Q74 27 48 58 Q22 89 15 120 L81 421 Q111 475 173 515 Q235 555 327 555 Q389 555 433.5 535 Q478 515 503 487 Q528 459 535 435 Z M195 397 L181 327 L400 327 L415 399 Q409 425 383 443 Q357 461 316 461 Q276 461 244 442.5 Q212 424 195 397 Z M334 711 L318 637 Q290 612 250 612 Q226 612 212 620 Q198 628 194 637 L210 711 Q218 720 235.5 728 Q253 736 277 736 Q315 736 334 711 Z M546 711 L530 637 Q505 612 462 612 Q438 612 425 620 Q412 628 406 637 L422 711 Q431 720 448 728 Q465 736 489 736 Q527 736 546 711 Z " />
<glyph glyph-name="uni044F" unicode="&#x44f;" horiz-adv-x="545" d="M546 540 L430 0 L310 0 L352 197 L272 197 L94 0 L-8 0 L6 67 L147 208 Q117 220 94 241 Q71 262 58 289 L93 449 Q122 489 167 514.5 Q212 540 261 540 L546 540 Z M406 451 L297 451 Q236 451 197 404 L180 326 Q188 307 210 294 Q232 281 267 281 L370 281 L406 451 Z " />
<glyph glyph-name="uni0430" unicode="&#x430;" horiz-adv-x="550" d="M530 421 L439 0 L323 0 L332 43 Q268 -14 181 -14 Q104 -14 61.5 12.5 Q19 39 1 69 L38 239 Q61 271 109 298.5 Q157 326 229 326 L389 326 L404 397 Q398 424 373 442 Q348 460 308 460 Q230 460 189 396 L82 396 L96 454 Q122 490 175.5 522.5 Q229 555 319 555 Q381 555 426.5 534 Q472 513 497.5 482 Q523 451 530 421 Z M221 74 Q260 74 292 89 Q324 104 345 126 L370 241 L258 241 Q218 241 192.5 229.5 Q167 218 148 201 L130 114 Q138 99 161 86.5 Q184 74 221 74 Z " />
<glyph glyph-name="uni0431" unicode="&#x431;" horiz-adv-x="548" d="M584 714 L565 624 Q545 603 501 591 Q457 579 377 568 Q259 553 212 504 L198 435 Q264 481 339 481 Q394 481 433 460 Q472 439 493.5 409 Q515 379 520 350 L470 120 Q438 64 378.5 25 Q319 -14 227 -14 Q164 -14 119.5 6.5 Q75 27 50.5 57.5 Q26 88 18 120 L110 546 Q139 588 196.5 617 Q254 646 347 664 Q419 678 450.5 688.5 Q482 699 502 714 L584 714 Z M177 339 L135 141 Q141 115 167.5 97 Q194 79 233 79 Q274 79 306 97 Q338 115 355 143 L394 323 Q390 349 363.5 368 Q337 387 295 387 Q262 387 230 373.5 Q198 360 177 339 Z " />
<glyph glyph-name="uni0432" unicode="&#x432;" horiz-adv-x="534" d="M518 449 L493 333 Q479 314 457.5 299.5 Q436 285 413 278 Q461 258 475 224 L447 92 Q420 50 374.5 25 Q329 0 273 0 L-1 0 L115 540 L365 540 Q423 540 463.5 513 Q504 486 518 449 Z M184 314 L294 314 Q327 314 350.5 326.5 Q374 339 389 358 L401 412 Q393 431 373.5 442 Q354 453 323 453 L213 453 L184 314 Z M359 193 Q354 211 334.5 221.5 Q315 232 284 232 L167 232 L136 88 L243 88 Q281 88 304 100 Q327 112 346 135 L359 193 Z " />
<glyph glyph-name="uni0433" unicode="&#x433;" horiz-adv-x="442" d="M454 451 L215 451 L119 0 L-1 0 L115 540 L474 540 L454 451 Z " />
<glyph glyph-name="uni0434" unicode="&#x434;" horiz-adv-x="611" d="M473 90 L549 90 L504 -120 L401 -120 L426 0 L59 0 L34 -120 L-68 -120 L-23 90 Q6 98 36.5 117 Q67 136 80 156 L208 540 L570 540 L473 90 Z M131 90 L353 90 L430 451 L290 451 L187 137 Q167 108 131 90 Z " />
<glyph glyph-name="uni0435" unicode="&#x435;" horiz-adv-x="544" d="M535 435 L494 242 L162 242 L141 141 Q147 115 173 97 Q199 79 239 79 Q326 79 369 162 L476 162 L465 105 Q436 58 378 22 Q320 -14 229 -14 Q166 -14 120 6.5 Q74 27 48 58 Q22 89 15 120 L81 421 Q111 475 173 515 Q235 555 327 555 Q389 555 433.5 535 Q478 515 503 487 Q528 459 535 435 Z M195 397 L181 327 L400 327 L415 399 Q409 425 383 443 Q357 461 316 461 Q276 461 244 442.5 Q212 424 195 397 Z " />
<glyph glyph-name="uni0436" unicode="&#x436;" horiz-adv-x="743" d="M598 282 L672 69 L657 0 L568 0 L489 233 L419 233 L368 0 L254 0 L304 233 L247 233 L72 0 L-29 0 L-15 69 L151 286 L80 473 L94 540 L177 540 L257 323 L323 323 L370 540 L484 540 L438 323 L498 323 L670 540 L765 540 L751 473 L598 282 Z " />
<glyph glyph-name="uni0437" unicode="&#x437;" horiz-adv-x="521" d="M513 449 L489 342 Q454 300 402 276 Q445 251 460 209 L435 92 Q405 50 350 18 Q295 -14 208 -14 Q120 -14 71 20 Q22 54 4 92 L17 151 L116 151 Q123 117 149 98 Q175 79 218 79 Q255 79 283 94 Q311 109 328 131 L342 192 Q335 210 312.5 222 Q290 234 251 234 L188 234 L206 317 L271 317 Q308 317 333.5 330 Q359 343 379 365 L389 415 Q383 433 360 447.5 Q337 462 299 462 Q216 462 172 389 L69 389 L82 449 Q108 488 166 521.5 Q224 555 310 555 Q399 555 447.5 522 Q496 489 513 449 Z " />
<glyph glyph-name="uni0438" unicode="&#x438;" horiz-adv-x="585" d="M470 0 L357 0 L439 381 L436 381 L125 0 L-1 0 L115 540 L227 540 L145 160 L148 160 L459 540 L586 540 L470 0 Z " />
<glyph glyph-name="uni0439" unicode="&#x439;" horiz-adv-x="585" d="M470 0 L357 0 L439 381 L436 381 L125 0 L-1 0 L115 540 L227 540 L145 160 L148 160 L459 540 L586 540 L470 0 Z M540 681 Q518 645 476 622 Q434 599 373 599 Q311 599 272 622.5 Q233 646 221 681 L234 741 L323 741 L314 703 Q316 690 331.5 678 Q347 666 377 666 Q408 666 427 677.5 Q446 689 455 703 L463 741 L553 741 L540 681 Z " />
<glyph glyph-name="uni043A" unicode="&#x43a;" horiz-adv-x="513" d="M343 280 L447 69 L432 0 L351 0 L239 233 L169 233 L119 0 L-1 0 L115 540 L235 540 L188 323 L250 323 L450 540 L542 540 L528 473 L343 280 Z " />
<glyph glyph-name="uni043B" unicode="&#x43b;" horiz-adv-x="565" d="M449 0 L329 0 L425 451 L285 451 L164 76 Q132 31 84 13.5 Q36 -4 -43 -4 L-24 89 Q6 89 31 101.5 Q56 114 68 132 L203 540 L565 540 L449 0 Z " />
<glyph glyph-name="uni043C" unicode="&#x43c;" horiz-adv-x="672" d="M444 0 L527 388 L524 388 L332 125 L276 125 L198 388 L195 388 L111 0 L-1 0 L115 540 L257 540 L334 283 L337 283 L521 540 L673 540 L557 0 L444 0 Z " />
<glyph glyph-name="uni043D" unicode="&#x43d;" horiz-adv-x="581" d="M466 0 L345 0 L396 233 L169 233 L119 0 L-1 0 L115 540 L235 540 L188 323 L414 323 L461 540 L582 540 L466 0 Z " />
<glyph glyph-name="uni043E" unicode="&#x43e;" horiz-adv-x="556" d="M541 421 L475 120 Q444 66 383.5 26 Q323 -14 230 -14 Q166 -14 120 6.5 Q74 27 48 58 Q22 89 15 120 L81 421 Q112 475 173 515 Q234 555 327 555 Q390 555 436 534.5 Q482 514 508 483 Q534 452 541 421 Z M195 394 L140 142 Q146 116 172.5 98.5 Q199 81 240 81 Q281 81 312 100 Q343 119 360 147 L415 399 Q409 425 382.5 442.5 Q356 460 315 460 Q275 460 243.5 440.5 Q212 421 195 394 Z " />
<glyph glyph-name="uni043F" unicode="&#x43f;" horiz-adv-x="560" d="M445 0 L325 0 L421 451 L215 451 L119 0 L-1 0 L115 540 L561 540 L445 0 Z " />
<glyph glyph-name="uni0440" unicode="&#x440;" horiz-adv-x="554" d="M542 435 L471 105 Q443 59 393 23.5 Q343 -12 268 -12 Q177 -12 128 46 L83 -166 L-38 -166 L114 540 L231 540 L222 499 Q287 552 372 552 Q425 552 461.5 533 Q498 514 517.5 487 Q537 460 542 435 Z M415 407 Q408 426 386 441.5 Q364 457 324 457 Q287 457 257.5 444.5 Q228 432 208 412 L147 130 Q161 110 187.5 96.5 Q214 83 249 83 Q288 83 314.5 97.5 Q341 112 356 132 L415 407 Z " />
<glyph glyph-name="uni0441" unicode="&#x441;" horiz-adv-x="535" d="M535 435 L523 377 L426 377 Q420 415 390.5 437.5 Q361 460 315 460 Q275 460 244 441.5 Q213 423 195 396 L140 142 Q146 116 172.5 98.5 Q199 81 240 81 Q326 81 374 163 L476 163 L465 105 Q436 59 379.5 22.5 Q323 -14 233 -14 Q170 -14 122.5 6.5 Q75 27 48.5 58 Q22 89 15 120 L81 421 Q111 476 172.5 515.5 Q234 555 327 555 Q388 555 433 535 Q478 515 503 487.5 Q528 460 535 435 Z " />
<glyph glyph-name="uni0442" unicode="&#x442;" horiz-adv-x="481" d="M219 451 L63 451 L83 540 L514 540 L494 451 L339 451 L243 0 L123 0 L219 451 Z " />
<glyph glyph-name="uni0443" unicode="&#x443;" horiz-adv-x="519" d="M436 540 L546 540 L532 473 L218 -98 Q182 -139 135 -156.5 Q88 -174 24 -174 Q-28 -174 -54 -166 L-35 -79 Q-17 -82 9 -82 Q79 -82 123 -42 L148 7 L76 471 L91 540 L190 540 L235 153 L238 153 L436 540 Z " />
<glyph glyph-name="uni0444" unicode="&#x444;" horiz-adv-x="758" d="M748 442 L674 99 Q649 54 600.5 21 Q552 -12 483 -12 Q424 -12 383 18 L343 -166 L228 -166 L267 15 Q223 -12 166 -12 Q98 -12 60 22.5 Q22 57 11 99 L85 442 Q109 486 158 519 Q207 552 276 552 Q338 552 376 522 L414 700 L529 700 L492 525 Q538 552 594 552 Q662 552 699.5 518 Q737 484 748 442 Z M359 443 Q334 460 297 460 Q262 460 237.5 446.5 Q213 433 200 417 L136 123 Q143 107 161.5 94 Q180 81 215 81 Q251 81 285 98 L359 443 Z M623 417 Q602 460 544 460 Q506 460 474 443 L400 98 Q426 81 468 81 Q500 81 523 94 Q546 107 559 123 L623 417 Z " />
<glyph glyph-name="uni0445" unicode="&#x445;" horiz-adv-x="503" d="M334 275 L426 69 L411 0 L317 0 L245 205 L242 205 L80 0 L-24 0 L-9 69 L172 280 L85 472 L100 540 L193 540 L262 348 L265 348 L415 540 L519 540 L504 472 L334 275 Z " />
<glyph glyph-name="uni0446" unicode="&#x446;" horiz-adv-x="602" d="M465 90 L539 90 L494 -120 L391 -120 L416 0 L-1 0 L115 540 L235 540 L139 90 L344 90 L441 540 L561 540 L465 90 Z " />
<glyph glyph-name="uni0447" unicode="&#x447;" horiz-adv-x="538" d="M538 540 L422 0 L302 0 L345 202 Q297 182 237 182 Q162 182 115 206 Q68 230 50 263 L110 540 L230 540 L181 311 Q205 273 272 273 Q321 273 366 298 L418 540 L538 540 Z " />
<glyph glyph-name="uni0448" unicode="&#x448;" horiz-adv-x="798" d="M683 0 L-1 0 L115 540 L235 540 L139 90 L300 90 L397 540 L518 540 L421 90 L583 90 L679 540 L799 540 L683 0 Z " />
<glyph glyph-name="uni0449" unicode="&#x449;" horiz-adv-x="843" d="M703 90 L777 90 L732 -120 L629 -120 L654 0 L-1 0 L115 540 L235 540 L139 90 L300 90 L397 540 L518 540 L421 90 L583 90 L679 540 L799 540 L703 90 Z " />
<glyph glyph-name="uni044A" unicode="&#x44a;" horiz-adv-x="604" d="M567 258 L530 92 Q465 0 351 0 L85 0 L182 451 L63 451 L83 540 L321 540 L281 350 L404 350 Q466 350 506.5 324 Q547 298 567 258 Z M444 217 Q437 235 417 248 Q397 261 368 261 L262 261 L226 89 L324 89 Q385 89 426 136 L444 217 Z " />
<glyph glyph-name="uni044B" unicode="&#x44b;" horiz-adv-x="727" d="M195 350 L308 350 Q371 350 411 324 Q451 298 471 258 L435 92 Q369 0 256 0 L-1 0 L115 540 L235 540 L195 350 Z M612 0 L492 0 L608 540 L728 540 L612 0 Z M176 261 L140 89 L229 89 Q290 89 331 136 L349 217 Q342 235 322 248 Q302 261 272 261 L176 261 Z " />
<glyph glyph-name="uni044C" unicode="&#x44c;" horiz-adv-x="517" d="M195 350 L317 350 Q380 350 420 324 Q460 298 480 258 L444 92 Q378 0 265 0 L-1 0 L115 540 L235 540 L195 350 Z M176 261 L140 89 L238 89 Q299 89 340 136 L358 217 Q351 235 331 248 Q311 261 281 261 L176 261 Z " />
<glyph glyph-name="uni044D" unicode="&#x44d;" horiz-adv-x="535" d="M520 421 L454 120 Q424 65 362.5 25.5 Q301 -14 208 -14 Q146 -14 101 5.5 Q56 25 31 53 Q6 81 0 106 L12 163 L111 163 Q117 124 145.5 102.5 Q174 81 219 81 Q259 81 291 99 Q323 117 340 144 L358 231 L170 231 L189 316 L377 316 L395 399 Q388 425 362 442.5 Q336 460 296 460 Q250 460 217.5 439 Q185 418 161 377 L58 377 L70 436 Q98 482 156 518.5 Q214 555 304 555 Q367 555 413.5 534.5 Q460 514 486.5 483 Q513 452 520 421 Z " />
<glyph glyph-name="uni044E" unicode="&#x44e;" horiz-adv-x="790" d="M776 421 L710 120 Q679 66 618.5 26 Q558 -14 465 -14 Q402 -14 355.5 6.5 Q309 27 283.5 58 Q258 89 251 120 L275 232 L169 232 L119 0 L-1 0 L115 540 L235 540 L188 321 L295 321 L316 421 Q347 475 408 515 Q469 555 562 555 Q626 555 672 534.5 Q718 514 743.5 483 Q769 452 776 421 Z M651 399 Q645 425 618 442.5 Q591 460 550 460 Q510 460 479 441 Q448 422 431 394 L376 142 Q382 116 408 98.5 Q434 81 475 81 Q516 81 548 100 Q580 119 596 147 L651 399 Z " />
<glyph glyph-name="Idot" unicode="&#x130;" horiz-adv-x="260" d="M137 0 L7 0 L157 700 L287 700 L137 0 Z M323 856 L310 798 Q302 785 282.5 775 Q263 765 236 765 Q210 765 195 774.5 Q180 784 177 798 L190 856 Q199 869 218.5 879 Q238 889 263 889 Q289 889 304 879 Q319 869 323 856 Z " />
<glyph glyph-name="uni0162" unicode="&#x162;" horiz-adv-x="537" d="M604 700 L582 599 L404 599 L276 0 L244 0 L216 -47 L224 -47 Q255 -47 276 -61.5 Q297 -76 301 -95 L285 -169 Q248 -225 163 -225 Q133 -225 106 -219 Q79 -213 64 -204 L96 -149 Q128 -164 166 -164 Q185 -164 198 -158 Q211 -152 217 -142 L223 -117 Q221 -109 209.5 -103.5 Q198 -98 180 -98 L120 -98 L177 0 L146 0 L274 599 L95 599 L117 700 L604 700 Z " />
<glyph glyph-name="dslash" unicode="&#x111;" horiz-adv-x="577" d="M618 585 L565 585 L440 0 L324 0 L333 44 Q274 -12 188 -12 Q135 -12 97 7 Q59 26 38.5 53 Q18 80 13 105 L80 417 Q108 463 158.5 498.5 Q209 534 285 534 Q374 534 422 481 L445 585 L284 585 L299 651 L459 651 L469 700 L590 700 L579 651 L632 651 L618 585 Z M232 83 Q268 83 297.5 96.5 Q327 110 347 131 L405 399 Q390 416 364 427.5 Q338 439 304 439 Q266 439 239 424 Q212 409 195 389 L140 133 Q147 115 170 99 Q193 83 232 83 Z " />
<glyph glyph-name="uni0237" unicode="&#x237;" horiz-adv-x="233" d="M109 -47 Q78 -107 12.5 -143.5 Q-53 -180 -150 -180 L-130 -87 Q-91 -87 -56.5 -65.5 Q-22 -44 -5 -14 L114 540 L235 540 L109 -47 Z " />
<glyph glyph-name="uni0163" unicode="&#x163;" horiz-adv-x="358" d="M243 451 L172 120 Q188 82 259 82 Q278 82 299 85 L281 -1 Q246 -11 207 -11 L191 -11 L168 -47 L177 -47 Q208 -47 228.5 -61.5 Q249 -76 254 -95 L238 -169 Q201 -225 116 -225 Q86 -225 58.5 -219 Q31 -213 17 -204 L49 -149 Q81 -164 119 -164 Q138 -164 151 -158 Q164 -152 170 -142 L176 -117 Q174 -109 162.5 -103.5 Q151 -98 133 -98 L73 -98 L128 0 Q62 22 43 82 L123 451 L60 451 L80 540 L142 540 L166 654 L286 654 L262 540 L379 540 L359 451 L243 451 Z " />
<glyph glyph-name="f_f" unicode="&#xfb00;" horiz-adv-x="654" d="M582 594 L571 540 L688 540 L669 451 L551 451 L455 0 L334 0 L431 451 L369 451 L242 451 L145 0 L25 0 L121 451 L60 451 L80 540 L141 540 L160 632 Q181 669 227.5 697 Q274 725 344 725 Q395 725 435 715 L416 630 Q413 630 399 631.5 Q385 633 374 633 Q303 633 273 594 L261 540 L409 540 L450 540 L470 632 Q490 669 536.5 697 Q583 725 653 725 Q704 725 744 715 L726 630 Q722 630 707.5 631.5 Q693 633 683 633 Q612 633 582 594 Z " />
<glyph glyph-name="uni04D8" unicode="&#x4d8;" horiz-adv-x="616" d="M626 562 L535 138 Q500 76 431 31 Q362 -14 259 -14 Q188 -14 137 8.5 Q86 31 57.5 64 Q29 97 19 129 L72 374 L455 374 L490 535 Q484 567 452.5 589.5 Q421 612 372 612 Q267 612 214 506 L100 506 L114 571 Q146 631 212 672.5 Q278 714 382 714 Q453 714 505.5 691 Q558 668 587.5 633 Q617 598 626 562 Z M411 165 L435 278 L172 278 L147 164 Q157 130 188.5 108.5 Q220 87 267 87 Q314 87 351.5 109 Q389 131 411 165 Z " />
<glyph glyph-name="uni04D9" unicode="&#x4d9;" horiz-adv-x="544" d="M10 106 L51 299 L382 299 L403 399 Q397 425 371.5 443 Q346 461 305 461 Q261 461 229 440.5 Q197 420 175 378 L68 378 L80 436 Q108 482 166 518.5 Q224 555 315 555 Q379 555 425 534.5 Q471 514 496.5 483 Q522 452 529 421 L464 120 Q433 65 371 25.5 Q309 -14 217 -14 Q155 -14 110.5 6 Q66 26 41.5 54 Q17 82 10 106 Z M350 144 L364 214 L145 214 L130 141 Q135 115 161 97 Q187 79 229 79 Q269 79 300.5 97.5 Q332 116 350 144 Z " />
<glyph glyph-name="Alpha" unicode="&#x391;" horiz-adv-x="619" d="M550 75 L534 0 L425 0 L411 179 L170 179 L81 0 L-31 0 L-15 75 L311 700 L490 700 L550 75 Z M404 280 L380 596 L377 596 L220 280 L404 280 Z " />
<glyph glyph-name="Beta" unicode="&#x392;" horiz-adv-x="597" d="M482 365 Q508 353 528.5 334 Q549 315 557 290 L520 119 Q490 68 432 34 Q374 0 308 0 L7 0 L157 700 L414 700 Q487 700 539 665 Q591 630 606 582 L578 445 Q563 419 536.5 398 Q510 377 482 365 Z M462 467 L479 545 Q462 601 378 601 L266 601 L225 409 L350 409 Q383 409 412.5 424 Q442 439 462 467 Z M432 263 Q423 288 395.5 302.5 Q368 317 327 317 L206 317 L158 99 L277 99 Q326 99 357.5 115 Q389 131 411 161 L432 263 Z " />
<glyph glyph-name="Gamma" unicode="&#x393;" horiz-adv-x="468" d="M514 599 L265 599 L137 0 L7 0 L157 700 L535 700 L514 599 Z " />
<glyph glyph-name="Epsilon" unicode="&#x395;" horiz-adv-x="538" d="M558 599 L265 599 L225 409 L498 409 L476 309 L203 309 L159 101 L459 101 L438 0 L7 0 L157 700 L580 700 L558 599 Z " />
<glyph glyph-name="Zeta" unicode="&#x396;" horiz-adv-x="560" d="M164 101 L483 101 L462 0 L-18 0 L0 85 L429 599 L116 599 L138 700 L611 700 L594 615 L164 101 Z " />
<glyph glyph-name="Eta" unicode="&#x397;" horiz-adv-x="651" d="M528 0 L398 0 L464 311 L203 311 L137 0 L7 0 L157 700 L287 700 L225 411 L486 411 L548 700 L678 700 L528 0 Z " />
<glyph glyph-name="Theta" unicode="&#x398;" horiz-adv-x="626" d="M635 562 L544 139 Q505 73 438 29.5 Q371 -14 267 -14 Q196 -14 144 9 Q92 32 63 67 Q34 102 26 139 L117 562 Q154 626 222 670 Q290 714 393 714 Q464 714 516 691 Q568 668 597.5 633 Q627 598 635 562 Z M241 535 L162 165 Q167 133 198.5 110.5 Q230 88 278 88 Q325 88 361.5 110 Q398 132 420 165 L499 535 Q493 568 462.5 590.5 Q432 613 383 613 Q335 613 298.5 590.5 Q262 568 241 535 Z M424 401 L406 320 L240 320 L258 401 L424 401 Z " />
<glyph glyph-name="Iota" unicode="&#x399;" horiz-adv-x="260" d="M137 0 L7 0 L157 700 L287 700 L137 0 Z " />
<glyph glyph-name="Kappa" unicode="&#x39a;" horiz-adv-x="606" d="M518 0 L426 0 L284 325 L189 241 L137 0 L7 0 L157 700 L287 700 L226 415 L541 700 L640 700 L624 625 L385 414 L534 75 L518 0 Z " />
<glyph glyph-name="Lambda" unicode="&#x39b;" horiz-adv-x="616" d="M310 700 L489 700 L547 75 L531 0 L412 0 L372 569 L369 569 L86 0 L-31 0 L-15 75 L310 700 Z " />
<glyph glyph-name="Mu" unicode="&#x39c;" horiz-adv-x="802" d="M556 0 L673 544 L670 544 L418 155 L335 155 L248 544 L245 544 L128 0 L7 0 L157 700 L327 700 L409 330 L412 330 L643 700 L828 700 L679 0 L556 0 Z " />
<glyph glyph-name="Nu" unicode="&#x39d;" horiz-adv-x="665" d="M394 0 L242 515 L239 515 L128 0 L7 0 L157 700 L305 700 L456 185 L459 185 L570 700 L691 700 L541 0 L394 0 Z " />
<glyph glyph-name="Xi" unicode="&#x39e;" horiz-adv-x="571" d="M591 599 L420 599 L380 410 L517 410 L495 310 L358 310 L314 101 L489 101 L468 0 L-13 0 L8 101 L186 101 L231 310 L93 310 L114 410 L253 410 L293 599 L120 599 L141 700 L613 700 L591 599 Z " />
<glyph glyph-name="Omicron" unicode="&#x39f;" horiz-adv-x="626" d="M635 562 L544 139 Q505 73 438 29.5 Q371 -14 267 -14 Q196 -14 144 9 Q92 32 63 67 Q34 102 26 139 L117 562 Q154 626 222 670 Q290 714 393 714 Q464 714 516 691 Q568 668 597.5 633 Q627 598 635 562 Z M241 535 L162 165 Q167 133 198.5 110.5 Q230 88 278 88 Q325 88 361.5 110 Q398 132 420 165 L499 535 Q493 568 462.5 590.5 Q432 613 383 613 Q335 613 298.5 590.5 Q262 568 241 535 Z " />
<glyph glyph-name="Pi" unicode="&#x3a0;" horiz-adv-x="645" d="M523 0 L393 0 L521 599 L265 599 L137 0 L7 0 L157 700 L673 700 L523 0 Z " />
<glyph glyph-name="Rho" unicode="&#x3a1;" horiz-adv-x="582" d="M610 582 L568 383 Q490 265 337 265 L194 265 L137 0 L7 0 L157 700 L403 700 Q562 700 610 582 Z M476 542 Q467 571 440 585.5 Q413 600 379 600 L266 600 L215 365 L324 365 Q367 365 398.5 380 Q430 395 452 428 L476 542 Z " />
<glyph glyph-name="Sigma" unicode="&#x3a3;" horiz-adv-x="563" d="M583 599 L261 599 L389 351 L162 101 L483 101 L462 0 L-18 0 L0 86 L247 361 L121 603 L141 700 L604 700 L583 599 Z " />
<glyph glyph-name="Tau" unicode="&#x3a4;" horiz-adv-x="537" d="M582 599 L404 599 L276 0 L146 0 L274 599 L95 599 L117 700 L604 700 L582 599 Z " />
<glyph glyph-name="Upsilon" unicode="&#x3a5;" horiz-adv-x="570" d="M351 287 L290 0 L159 0 L223 299 L106 625 L122 700 L218 700 L310 415 L313 415 L523 700 L631 700 L615 625 L351 287 Z " />
<glyph glyph-name="Phi" unicode="&#x3a6;" horiz-adv-x="782" d="M780 508 L711 192 Q669 127 597.5 88.5 Q526 50 452 50 L401 50 L386 -20 L272 -20 L286 50 L252 50 Q205 50 160 69.5 Q115 89 82 121.5 Q49 154 37 192 L106 508 Q147 572 221 614.5 Q295 657 367 657 L416 657 L430 720 L545 720 L531 657 L568 657 Q614 657 658.5 635.5 Q703 614 735.5 580 Q768 546 780 508 Z M307 148 L395 559 L366 559 Q330 559 287 535.5 Q244 512 219 482 L163 218 Q174 189 207 168.5 Q240 148 277 148 L307 148 Z M654 482 Q644 513 611.5 536 Q579 559 542 559 L510 559 L422 148 L455 148 Q493 148 535.5 168.5 Q578 189 597 218 L654 482 Z " />
<glyph glyph-name="Chi" unicode="&#x3a7;" horiz-adv-x="591" d="M396 356 L510 75 L494 0 L392 0 L300 273 L297 273 L90 0 L-19 0 L-3 75 L229 360 L121 625 L138 700 L238 700 L328 439 L331 439 L528 700 L637 700 L621 625 L396 356 Z " />
<glyph glyph-name="Psi" unicode="&#x3a8;" horiz-adv-x="765" d="M800 700 L710 276 Q669 215 600 177 Q531 139 440 139 L412 139 L383 0 L266 0 L295 139 L284 139 Q195 139 137 179 Q79 219 58 276 L149 700 L271 700 L187 307 Q196 280 227 259 Q258 238 307 238 L317 238 L415 700 L532 700 L434 238 L449 238 Q499 238 536 258.5 Q573 279 594 307 L678 700 L800 700 Z " />
<glyph glyph-name="Alphatonos" unicode="&#x386;" horiz-adv-x="619" d="M550 75 L534 0 L425 0 L411 179 L170 179 L81 0 L-31 0 L-15 75 L311 700 L490 700 L550 75 Z M404 280 L380 596 L377 596 L220 280 L404 280 Z M204 700 L193 646 L89 537 L-6 537 L-3 553 L89 700 L204 700 Z " />
<glyph glyph-name="Epsilontonos" unicode="&#x388;" horiz-adv-x="538" d="M558 599 L265 599 L225 409 L498 409 L476 309 L203 309 L159 101 L459 101 L438 0 L7 0 L157 700 L580 700 L558 599 Z M96 700 L85 646 L-19 537 L-114 537 L-111 553 L-19 700 L96 700 Z " />
<glyph glyph-name="Etatonos" unicode="&#x389;" horiz-adv-x="651" d="M528 0 L398 0 L464 311 L203 311 L137 0 L7 0 L157 700 L287 700 L225 411 L486 411 L548 700 L678 700 L528 0 Z M96 700 L85 646 L-19 537 L-114 537 L-111 553 L-19 700 L96 700 Z " />
<glyph glyph-name="Iotatonos" unicode="&#x38a;" horiz-adv-x="260" d="M137 0 L7 0 L157 700 L287 700 L137 0 Z M96 700 L85 646 L-19 537 L-114 537 L-111 553 L-19 700 L96 700 Z " />
<glyph glyph-name="Omicrontonos" unicode="&#x38c;" horiz-adv-x="626" d="M635 562 L544 139 Q505 73 438 29.5 Q371 -14 267 -14 Q196 -14 144 9 Q92 32 63 67 Q34 102 26 139 L117 562 Q154 626 222 670 Q290 714 393 714 Q464 714 516 691 Q568 668 597.5 633 Q627 598 635 562 Z M241 535 L162 165 Q167 133 198.5 110.5 Q230 88 278 88 Q325 88 361.5 110 Q398 132 420 165 L499 535 Q493 568 462.5 590.5 Q432 613 383 613 Q335 613 298.5 590.5 Q262 568 241 535 Z M114 700 L103 646 L-1 537 L-96 537 L-93 553 L-1 700 L114 700 Z " />
<glyph glyph-name="Upsilontonos" unicode="&#x38e;" horiz-adv-x="570" d="M351 287 L290 0 L159 0 L223 299 L106 625 L122 700 L218 700 L310 415 L313 415 L523 700 L631 700 L615 625 L351 287 Z M85 700 L74 646 L-30 537 L-125 537 L-122 553 L-30 700 L85 700 Z " />
<glyph glyph-name="Omegatonos" unicode="&#x38f;" horiz-adv-x="631" d="M420 101 L538 101 L516 0 L294 0 L323 140 Q359 146 388.5 168 Q418 190 433 217 L502 536 Q496 569 466 590 Q436 611 388 611 Q341 611 302.5 589.5 Q264 568 244 536 L175 217 Q179 191 199 169 Q219 147 252 140 L222 0 L-1 0 L20 101 L153 101 Q110 121 83 152.5 Q56 184 46 220 L120 562 Q155 624 226.5 669 Q298 714 401 714 Q471 714 521.5 690.5 Q572 667 600 632.5 Q628 598 637 562 L564 219 Q520 140 420 101 Z M114 700 L103 646 L-1 537 L-96 537 L-93 553 L-1 700 L114 700 Z " />
<glyph glyph-name="Iotadieresis" unicode="&#x3aa;" horiz-adv-x="260" d="M137 0 L7 0 L157 700 L287 700 L137 0 Z M212 858 L196 784 Q172 760 129 760 Q90 760 73 784 L89 858 Q98 867 114.5 875 Q131 883 155 883 Q196 883 212 858 Z M424 858 L408 784 Q381 760 341 760 Q305 760 284 784 L300 858 Q309 867 326 875 Q343 883 367 883 Q405 883 424 858 Z " />
<glyph glyph-name="Upsilondieresis" unicode="&#x3ab;" horiz-adv-x="570" d="M351 287 L290 0 L159 0 L223 299 L106 625 L122 700 L218 700 L310 415 L313 415 L523 700 L631 700 L615 625 L351 287 Z M367 858 L351 784 Q327 760 284 760 Q245 760 228 784 L244 858 Q253 867 269.5 875 Q286 883 310 883 Q351 883 367 858 Z M579 858 L563 784 Q536 760 496 760 Q460 760 439 784 L455 858 Q464 867 481 875 Q498 883 522 883 Q560 883 579 858 Z " />
<glyph glyph-name="alpha" unicode="&#x3b1;" horiz-adv-x="553" d="M555 540 L439 0 L323 0 L332 43 Q272 -12 188 -12 Q135 -12 97 7 Q59 26 38.5 53 Q18 80 13 105 L83 435 Q111 481 161.5 516.5 Q212 552 288 552 Q381 552 429 495 L439 540 L555 540 Z M232 83 Q267 83 296.5 96.5 Q326 110 346 130 L408 418 Q394 436 368 446.5 Q342 457 308 457 Q269 457 241.5 442 Q214 427 198 407 L140 133 Q147 115 170 99 Q193 83 232 83 Z " />
<glyph glyph-name="beta" unicode="&#x3b2;" horiz-adv-x="558" d="M436 380 Q505 346 520 286 L483 120 Q455 65 400.5 26.5 Q346 -12 266 -12 Q178 -12 128 43 L83 -166 L-38 -166 L125 592 Q159 643 219 678.5 Q279 714 363 714 Q444 714 494.5 681.5 Q545 649 563 610 L529 448 Q516 427 490.5 409.5 Q465 392 436 380 Z M438 570 Q417 619 351 619 Q318 619 287.5 603 Q257 587 240 563 L147 133 Q160 113 187.5 99 Q215 85 250 85 Q291 85 322 104 Q353 123 371 152 L396 271 Q389 303 362 318 Q335 333 299 333 L273 333 L293 421 L312 421 Q343 421 370.5 435.5 Q398 450 417 473 L438 570 Z " />
<glyph glyph-name="gamma" unicode="&#x3b3;" horiz-adv-x="525" d="M536 472 L265 2 L228 -166 L108 -166 L144 1 L74 472 L89 540 L188 540 L233 153 L236 153 L443 540 L551 540 L536 472 Z " />
<glyph glyph-name="delta" unicode="&#x3b4;" horiz-adv-x="555" d="M260 590 L249 535 Q254 521 270.5 509.5 Q287 498 316 492 L363 483 Q434 468 475 431 Q516 394 525 352 L475 120 Q443 65 381 25.5 Q319 -14 227 -14 Q135 -14 82 27 Q29 68 15 120 L63 342 Q82 376 119.5 405.5 Q157 435 211 450 Q178 464 159.5 482.5 Q141 501 135 517 L157 625 Q184 658 237.5 686 Q291 714 369 714 Q445 714 492 685.5 Q539 657 558 625 L548 579 L448 579 Q420 627 358 627 Q300 627 260 590 Z M306 402 Q266 402 232 382 Q198 362 182 335 L140 144 Q146 117 171.5 99.5 Q197 82 238 82 Q278 82 311 101.5 Q344 121 361 149 L403 340 Q397 367 372 384.5 Q347 402 306 402 Z " />
<glyph glyph-name="epsilon" unicode="&#x3b5;" horiz-adv-x="531" d="M197 411 L188 370 Q198 346 221 332.5 Q244 319 277 319 L350 319 L334 235 L265 235 Q229 235 197 221.5 Q165 208 148 183 L136 126 Q146 107 172.5 93 Q199 79 238 79 Q280 79 313 97 Q346 115 364 139 L470 139 L459 87 Q431 47 373.5 16.5 Q316 -14 226 -14 Q138 -14 83.5 18.5 Q29 51 7 88 L30 198 Q46 224 74.5 247 Q103 270 136 284 Q112 294 94 312.5 Q76 331 67 352 L87 449 Q115 490 173 522.5 Q231 555 320 555 Q381 555 426 537.5 Q471 520 497 496 Q523 472 531 450 L521 402 L417 402 Q410 427 381.5 444 Q353 461 310 461 Q271 461 242.5 447 Q214 433 197 411 Z " />
<glyph glyph-name="zeta" unicode="&#x3b6;" horiz-adv-x="497" d="M160 246 L138 140 Q149 123 174 109.5 Q199 96 238 96 L421 96 L373 -125 L269 -125 L295 0 L204 0 Q120 0 72.5 34 Q25 68 11 112 L44 267 Q59 294 78.5 317.5 Q98 341 129 369 L392 608 L139 608 L158 700 L560 700 L542 613 L224 321 Q179 280 160 246 Z " />
<glyph glyph-name="eta" unicode="&#x3b7;" horiz-adv-x="560" d="M541 435 L412 -166 L291 -166 L415 407 Q407 426 385 441.5 Q363 457 324 457 Q287 457 256.5 444 Q226 431 206 410 L119 0 L-2 0 L114 540 L227 540 L217 495 Q283 552 370 552 Q447 552 489 515 Q531 478 541 435 Z " />
<glyph glyph-name="theta" unicode="&#x3b8;" horiz-adv-x="555" d="M571 595 L465 105 Q428 56 369.5 21 Q311 -14 224 -14 Q137 -14 87 22.5 Q37 59 19 105 L124 595 Q214 714 364 714 Q451 714 501.5 677.5 Q552 641 571 595 Z M234 561 L203 415 L414 415 L445 561 Q440 581 415.5 598 Q391 615 351 615 Q312 615 281.5 598.5 Q251 582 234 561 Z M355 139 L396 332 L185 332 L144 139 Q150 118 174 101.5 Q198 85 238 85 Q278 85 309 101.5 Q340 118 355 139 Z " />
<glyph glyph-name="iota" unicode="&#x3b9;" horiz-adv-x="241" d="M123 0 L2 0 L118 540 L239 540 L123 0 Z " />
</font>
</svg>
