<?xml version="1.0" encoding="UTF-8"?>
<svg xmlns="http://www.w3.org/2000/svg" xmlns:xlink="http://www.w3.org/1999/xlink" version="1.2" >
<font id="Cadillac Sans Thin Italic">
<font-face  font-family="Cadillac Sans" units-per-em="1000" ascent="750" descent="-250" font-style="italic" font-weight="100" font-stretch="normal" slope="-12" cap-height="700" x-height="534" underline-position="-75" underline-thickness="50" />
<missing-glyph  horiz-adv-x="595" d="M416 -100 L21 -100 L214 800 L609 800 L416 -100 Z M238 773 L57 -73 L392 -73 L573 773 L238 773 Z " />
<glyph glyph-name=".null" d="" />
<glyph glyph-name="nonmarkingreturn" unicode="&#xd;" horiz-adv-x="196" d="" />
<glyph glyph-name="space" unicode="&#x20;" horiz-adv-x="210" d="" />
<glyph glyph-name="A" unicode="A" horiz-adv-x="589" d="M496 0 L477 0 L445 233 L132 233 L0 0 L-23 0 L-17 28 L365 700 L409 700 L502 28 L496 0 Z M384 673 L381 673 L148 262 L441 262 L384 673 Z " />
<glyph glyph-name="B" unicode="B" horiz-adv-x="574" d="M571 583 L543 455 Q524 425 488.5 400 Q453 375 414 359 Q449 346 477.5 321.5 Q506 297 518 264 L487 118 Q454 64 399.5 32 Q345 0 270 0 L32 0 L183 700 L396 700 Q464 700 508.5 667 Q553 634 571 583 Z M539 576 Q525 621 486.5 646 Q448 671 391 671 L207 671 L143 374 L342 374 Q384 374 435 400.5 Q486 427 516 468 L539 576 Z M334 345 L136 345 L69 29 L255 29 Q331 29 377.5 55.5 Q424 82 460 131 L487 257 Q473 296 430.5 320.5 Q388 345 334 345 Z " />
<glyph glyph-name="C" unicode="C" horiz-adv-x="607" d="M615 562 L610 538 L591 538 Q580 602 530.5 643 Q481 684 400 684 Q319 684 259.5 645 Q200 606 165 549 L79 146 Q90 91 137 54 Q184 17 261 17 Q342 17 403 57 Q464 97 502 163 L529 163 L523 139 Q487 77 421.5 32.5 Q356 -12 263 -12 Q199 -12 153 10.5 Q107 33 81 67.5 Q55 102 47 139 L139 562 Q172 622 238.5 667.5 Q305 713 398 713 Q462 713 508.5 690.5 Q555 668 581 633.5 Q607 599 615 562 Z " />
<glyph glyph-name="D" unicode="D" horiz-adv-x="621" d="M610 562 L519 138 Q481 79 414 39.5 Q347 0 253 0 L32 0 L183 700 L396 700 Q492 700 544.5 660 Q597 620 610 562 Z M207 671 L69 29 L252 29 Q332 29 393.5 63.5 Q455 98 491 151 L578 555 Q568 608 521 639.5 Q474 671 395 671 L207 671 Z " />
<glyph glyph-name="E" unicode="E" horiz-adv-x="545" d="M207 671 L143 377 L478 377 L472 348 L137 348 L69 29 L439 29 L432 0 L32 0 L183 700 L573 700 L567 671 L207 671 Z " />
<glyph glyph-name="F" unicode="F" horiz-adv-x="515" d="M207 671 L144 378 L474 378 L467 349 L137 349 L62 0 L32 0 L183 700 L563 700 L557 671 L207 671 Z " />
<glyph glyph-name="G" unicode="G" horiz-adv-x="628" d="M615 562 L610 538 L589 538 Q578 601 529.5 642.5 Q481 684 399 684 Q320 684 259.5 645 Q199 606 165 549 L79 146 Q90 91 137 54 Q184 17 262 17 Q341 17 401 55.5 Q461 94 497 152 L532 318 L347 318 L353 347 L568 347 L493 0 L463 0 L483 89 Q446 45 390 16.5 Q334 -12 262 -12 Q168 -12 114 33.5 Q60 79 47 139 L139 562 Q174 622 239.5 667.5 Q305 713 398 713 Q462 713 508.5 690 Q555 667 581 633 Q607 599 615 562 Z " />
<glyph glyph-name="H" unicode="H" horiz-adv-x="636" d="M458 0 L533 346 L137 346 L62 0 L32 0 L183 700 L213 700 L143 375 L539 375 L609 700 L639 700 L488 0 L458 0 Z " />
<glyph glyph-name="I" unicode="I" horiz-adv-x="210" d="M62 0 L32 0 L183 700 L213 700 L62 0 Z " />
<glyph glyph-name="J" unicode="J" horiz-adv-x="386" d="M273 139 Q237 76 167 37.5 Q97 -1 5 -1 Q-18 -1 -27.5 -0.5 Q-37 0 -38 0 L-31 29 L12 29 Q86 29 149 62.5 Q212 96 247 152 L364 700 L394 700 L273 139 Z " />
<glyph glyph-name="K" unicode="K" horiz-adv-x="567" d="M474 0 L461 0 L264 398 L122 278 L62 0 L32 0 L183 700 L213 700 L131 321 L578 700 L595 700 L589 672 L287 417 L480 28 L474 0 Z " />
<glyph glyph-name="L" unicode="L" horiz-adv-x="450" d="M69 29 L374 29 L367 0 L32 0 L183 700 L213 700 L69 29 Z " />
<glyph glyph-name="M" unicode="M" horiz-adv-x="785" d="M607 0 L752 671 L749 671 L397 200 L356 200 L210 671 L207 671 L62 0 L32 0 L183 700 L232 700 L379 229 L382 229 L733 700 L788 700 L637 0 L607 0 Z " />
<glyph glyph-name="N" unicode="N" horiz-adv-x="653" d="M458 0 L210 671 L207 671 L62 0 L32 0 L183 700 L230 700 L479 29 L482 29 L626 700 L656 700 L505 0 L458 0 Z " />
<glyph glyph-name="O" unicode="O" horiz-adv-x="626" d="M615 562 L524 138 Q484 75 420 31.5 Q356 -12 263 -12 Q199 -12 153 10.5 Q107 33 81 67.5 Q55 102 47 139 L139 563 Q179 626 242 669.5 Q305 713 398 713 Q462 713 508.5 690.5 Q555 668 581 633.5 Q607 599 615 562 Z M165 549 L79 146 Q90 91 137 54 Q184 17 261 17 Q339 17 399 55.5 Q459 94 497 152 L583 555 Q573 609 525 646.5 Q477 684 400 684 Q322 684 262.5 645.5 Q203 607 165 549 Z " />
<glyph glyph-name="P" unicode="P" horiz-adv-x="551" d="M564 583 L526 407 Q489 352 432 321 Q375 290 311 290 L125 290 L62 0 L32 0 L183 700 L384 700 Q452 700 498.5 668.5 Q545 637 564 583 Z M532 576 Q515 625 475.5 648 Q436 671 380 671 L207 671 L131 319 L312 319 Q364 319 414 345.5 Q464 372 499 420 L532 576 Z " />
<glyph glyph-name="Q" unicode="Q" horiz-adv-x="626" d="M615 562 L524 138 Q488 80 429.5 37.5 Q371 -5 287 -11 Q295 -43 317 -67 Q339 -91 365.5 -104 Q392 -117 414 -117 L468 -117 L463 -144 L401 -144 Q368 -144 336 -125 Q304 -106 281.5 -75.5 Q259 -45 254 -12 Q164 -9 112 36 Q60 81 47 139 L139 563 Q179 626 242 669.5 Q305 713 398 713 Q462 713 508.5 690.5 Q555 668 581 633.5 Q607 599 615 562 Z M583 555 Q573 609 525 646.5 Q477 684 400 684 Q322 684 262.5 645.5 Q203 607 165 549 L79 146 Q90 91 137 54 Q184 17 261 17 Q339 17 399 55.5 Q459 94 497 152 L583 555 Z " />
<glyph glyph-name="R" unicode="R" horiz-adv-x="575" d="M574 583 L542 437 Q507 381 451.5 350.5 Q396 320 329 320 L322 320 L463 28 L457 0 L444 0 L290 320 L131 320 L62 0 L32 0 L183 700 L391 700 Q460 700 508.5 668.5 Q557 637 574 583 Z M542 576 Q528 623 487 647 Q446 671 392 671 L207 671 L137 349 L327 349 Q382 349 431 374.5 Q480 400 516 449 L542 576 Z " />
<glyph glyph-name="S" unicode="S" horiz-adv-x="560" d="M565 599 L560 574 L539 574 Q525 623 479.5 653 Q434 683 366 683 Q303 683 250.5 655.5 Q198 628 164 586 L141 475 Q150 445 178.5 427 Q207 409 275 387 L350 363 Q430 338 461 311 Q492 284 502 246 L474 118 Q439 66 378 27 Q317 -12 228 -12 Q165 -12 118.5 9 Q72 30 45.5 60 Q19 90 10 118 L15 143 L36 143 Q53 89 101.5 53 Q150 17 229 17 Q303 17 360 51.5 Q417 86 447 131 L470 239 Q464 269 436 292 Q408 315 339 337 L262 361 Q187 384 155.5 407 Q124 430 109 468 L137 599 Q225 712 367 712 Q447 712 496 678.5 Q545 645 565 599 Z " />
<glyph glyph-name="T" unicode="T" horiz-adv-x="520" d="M582 671 L362 671 L217 0 L187 0 L332 671 L112 671 L118 700 L588 700 L582 671 Z " />
<glyph glyph-name="U" unicode="U" horiz-adv-x="646" d="M533 139 Q495 75 429.5 31.5 Q364 -12 270 -12 Q176 -12 123 33 Q70 78 57 139 L178 700 L208 700 L89 146 Q100 91 146.5 54 Q193 17 270 17 Q347 17 410 56 Q473 95 507 152 L624 700 L654 700 L533 139 Z " />
<glyph glyph-name="V" unicode="V" horiz-adv-x="589" d="M259 0 L215 0 L122 672 L128 700 L147 700 L240 29 L243 29 L623 700 L647 700 L641 672 L259 0 Z " />
<glyph glyph-name="W" unicode="W" horiz-adv-x="868" d="M620 0 L574 0 L522 671 L519 671 L178 0 L132 0 L127 672 L133 700 L155 700 L159 30 L162 30 L502 700 L548 700 L600 30 L603 30 L895 700 L921 700 L915 672 L620 0 Z " />
<glyph glyph-name="X" unicode="X" horiz-adv-x="568" d="M324 355 L463 28 L457 0 L444 0 L301 336 L298 336 L14 0 L-6 0 L0 28 L282 361 L146 672 L152 700 L165 700 L305 380 L308 380 L584 700 L603 700 L597 672 L324 355 Z " />
<glyph glyph-name="Y" unicode="Y" horiz-adv-x="534" d="M293 321 L224 0 L194 0 L264 322 L128 672 L134 700 L148 700 L282 353 L284 353 L566 700 L586 700 L580 672 L293 321 Z " />
<glyph glyph-name="Z" unicode="Z" horiz-adv-x="568" d="M45 29 L462 29 L455 0 L-3 0 L2 24 L560 671 L152 671 L158 700 L606 700 L601 676 L45 29 Z " />
<glyph glyph-name="Agrave" unicode="&#xc0;" horiz-adv-x="589" d="M496 0 L477 0 L445 233 L132 233 L0 0 L-23 0 L-17 28 L365 700 L409 700 L502 28 L496 0 Z M384 673 L381 673 L148 262 L441 262 L384 673 Z M396 755 L380 755 L326 879 L330 899 L350 899 L399 771 L396 755 Z " />
<glyph glyph-name="Aacute" unicode="&#xc1;" horiz-adv-x="589" d="M496 0 L477 0 L445 233 L132 233 L0 0 L-23 0 L-17 28 L365 700 L409 700 L502 28 L496 0 Z M384 673 L381 673 L148 262 L441 262 L384 673 Z M408 755 L387 755 L390 771 L495 899 L520 899 L516 879 L408 755 Z " />
<glyph glyph-name="Acircumflex" unicode="&#xc2;" horiz-adv-x="589" d="M496 0 L477 0 L445 233 L132 233 L0 0 L-23 0 L-17 28 L365 700 L409 700 L502 28 L496 0 Z M384 673 L381 673 L148 262 L441 262 L384 673 Z M520 755 L505 755 L430 879 L299 755 L280 755 L283 771 L411 899 L451 899 L523 771 L520 755 Z " />
<glyph glyph-name="Atilde" unicode="&#xc3;" horiz-adv-x="589" d="M496 0 L477 0 L445 233 L132 233 L0 0 L-23 0 L-17 28 L365 700 L409 700 L502 28 L496 0 Z M384 673 L381 673 L148 262 L441 262 L384 673 Z M419 817 Q435 804 447.5 797 Q460 790 475 790 Q493 790 508.5 799 Q524 808 533 823 L536 841 L560 841 L554 814 Q540 790 521.5 777.5 Q503 765 474 765 Q455 765 441 772.5 Q427 780 406 795 Q390 808 377.5 815 Q365 822 350 822 Q329 822 313 812.5 Q297 803 289 790 L285 771 L261 771 L266 798 Q298 847 352 847 Q371 847 385.5 839.5 Q400 832 419 817 Z " />
<glyph glyph-name="Adieresis" unicode="&#xc4;" horiz-adv-x="589" d="M496 0 L477 0 L445 233 L132 233 L0 0 L-23 0 L-17 28 L365 700 L409 700 L502 28 L496 0 Z M384 673 L381 673 L148 262 L441 262 L384 673 Z M351 831 L344 795 Q341 792 332.5 789 Q324 786 316 786 Q308 786 302 789 Q296 792 294 795 L301 831 Q304 834 312 837 Q320 840 328 840 Q336 840 342.5 837 Q349 834 351 831 Z M530 831 L523 795 Q520 792 511.5 789 Q503 786 495 786 Q487 786 481 789 Q475 792 473 795 L480 831 Q483 834 491 837 Q499 840 507 840 Q515 840 521.5 837 Q528 834 530 831 Z " />
<glyph glyph-name="Amacron" unicode="&#x100;" horiz-adv-x="589" d="M496 0 L477 0 L445 233 L132 233 L0 0 L-23 0 L-17 28 L365 700 L409 700 L502 28 L496 0 Z M384 673 L381 673 L148 262 L441 262 L384 673 Z M267 788 L272 814 L552 814 L547 788 L267 788 Z " />
<glyph glyph-name="Abreve" unicode="&#x102;" horiz-adv-x="589" d="M496 0 L477 0 L445 233 L132 233 L0 0 L-23 0 L-17 28 L365 700 L409 700 L502 28 L496 0 Z M384 673 L381 673 L148 262 L441 262 L384 673 Z M529 813 Q515 789 485.5 769.5 Q456 750 406 750 Q357 750 330.5 771 Q304 792 297 813 L305 856 L332 856 L325 822 Q327 807 347.5 791 Q368 775 407 775 Q446 775 470.5 790.5 Q495 806 503 822 L510 856 L537 856 L529 813 Z " />
<glyph glyph-name="Aring" unicode="&#xc5;" horiz-adv-x="589" d="M502 28 L496 0 L477 0 L445 233 L132 233 L0 0 L-23 0 L-17 28 L362 695 Q342 701 327.5 712.5 Q313 724 308 736 L325 815 Q337 833 362 846 Q387 859 418 859 Q449 859 471.5 845.5 Q494 832 501 815 L484 736 Q473 721 453.5 709 Q434 697 410 693 L502 28 Z M392 717 Q414 717 431.5 725 Q449 733 459 744 L473 807 Q468 818 453.5 826 Q439 834 417 834 Q376 834 349 807 L335 744 Q341 733 355.5 725 Q370 717 392 717 Z M441 262 L384 673 L381 673 L148 262 L441 262 Z " />
<glyph glyph-name="Aogonek" unicode="&#x104;" horiz-adv-x="589" d="M369 -110 L360 -154 Q362 -164 377 -172 Q392 -180 411 -180 Q430 -180 442.5 -177 Q455 -174 472 -166 L467 -192 Q441 -205 409 -205 Q380 -205 358.5 -192 Q337 -179 333 -161 L346 -100 Q379 -46 475 13 L445 233 L132 233 L0 0 L-23 0 L-17 28 L365 700 L409 700 L502 28 L496 0 Q440 -36 410 -65 Q380 -94 369 -110 Z M441 262 L384 673 L381 673 L148 262 L441 262 Z " />
<glyph glyph-name="AE" unicode="&#xc6;" horiz-adv-x="835" d="M722 0 L322 0 L377 257 L170 257 L-13 0 L-33 0 L-27 28 L450 700 L863 700 L857 671 L497 671 L433 377 L768 377 L762 348 L427 348 L359 29 L729 29 L722 0 Z M467 671 L464 671 L190 286 L384 286 L467 671 Z " />
<glyph glyph-name="Cacute" unicode="&#x106;" horiz-adv-x="607" d="M615 562 L610 538 L591 538 Q580 602 530.5 643 Q481 684 400 684 Q319 684 259.5 645 Q200 606 165 549 L79 146 Q90 91 137 54 Q184 17 261 17 Q342 17 403 57 Q464 97 502 163 L529 163 L523 139 Q487 77 421.5 32.5 Q356 -12 263 -12 Q199 -12 153 10.5 Q107 33 81 67.5 Q55 102 47 139 L139 562 Q172 622 238.5 667.5 Q305 713 398 713 Q462 713 508.5 690.5 Q555 668 581 633.5 Q607 599 615 562 Z M425 755 L404 755 L407 771 L512 899 L537 899 L533 879 L425 755 Z " />
<glyph glyph-name="Ccircumflex" unicode="&#x108;" horiz-adv-x="607" d="M615 562 L610 538 L591 538 Q580 602 530.5 643 Q481 684 400 684 Q319 684 259.5 645 Q200 606 165 549 L79 146 Q90 91 137 54 Q184 17 261 17 Q342 17 403 57 Q464 97 502 163 L529 163 L523 139 Q487 77 421.5 32.5 Q356 -12 263 -12 Q199 -12 153 10.5 Q107 33 81 67.5 Q55 102 47 139 L139 562 Q172 622 238.5 667.5 Q305 713 398 713 Q462 713 508.5 690.5 Q555 668 581 633.5 Q607 599 615 562 Z M537 755 L522 755 L447 879 L316 755 L297 755 L300 771 L428 899 L468 899 L540 771 L537 755 Z " />
<glyph glyph-name="Ccaron" unicode="&#x10c;" horiz-adv-x="607" d="M615 562 L610 538 L591 538 Q580 602 530.5 643 Q481 684 400 684 Q319 684 259.5 645 Q200 606 165 549 L79 146 Q90 91 137 54 Q184 17 261 17 Q342 17 403 57 Q464 97 502 163 L529 163 L523 139 Q487 77 421.5 32.5 Q356 -12 263 -12 Q199 -12 153 10.5 Q107 33 81 67.5 Q55 102 47 139 L139 562 Q172 622 238.5 667.5 Q305 713 398 713 Q462 713 508.5 690.5 Q555 668 581 633.5 Q607 599 615 562 Z M437 755 L397 755 L324 883 L328 899 L343 899 L418 774 L549 899 L568 899 L564 883 L437 755 Z " />
<glyph glyph-name="Cdotaccent" unicode="&#x10a;" horiz-adv-x="607" d="M615 562 L610 538 L591 538 Q580 602 530.5 643 Q481 684 400 684 Q319 684 259.5 645 Q200 606 165 549 L79 146 Q90 91 137 54 Q184 17 261 17 Q342 17 403 57 Q464 97 502 163 L529 163 L523 139 Q487 77 421.5 32.5 Q356 -12 263 -12 Q199 -12 153 10.5 Q107 33 81 67.5 Q55 102 47 139 L139 562 Q172 622 238.5 667.5 Q305 713 398 713 Q462 713 508.5 690.5 Q555 668 581 633.5 Q607 599 615 562 Z M459 840 L451 806 Q442 797 425 797 Q417 797 411 800 Q405 803 403 806 L411 840 Q420 849 437 849 Q445 849 451 846 Q457 843 459 840 Z " />
<glyph glyph-name="Ccedilla" unicode="&#xc7;" horiz-adv-x="607" d="M615 562 L610 538 L591 538 Q580 602 530.5 643 Q481 684 400 684 Q319 684 259.5 645 Q200 606 165 549 L79 146 Q90 91 136.5 54 Q183 17 260 17 Q341 17 402.5 57 Q464 97 502 163 L529 163 L523 139 Q487 77 421.5 32.5 Q356 -12 263 -12 L260 -12 L230 -63 L250 -63 Q278 -63 297 -76 Q316 -89 322 -106 L308 -171 Q295 -189 273.5 -201.5 Q252 -214 223 -214 Q175 -214 139 -187 L151 -165 Q167 -178 183.5 -184.5 Q200 -191 224 -191 Q244 -191 260.5 -182 Q277 -173 286 -162 L296 -111 Q293 -101 280.5 -93 Q268 -85 248 -85 L192 -85 L234 -11 Q153 -3 106 40.5 Q59 84 47 139 L139 562 Q172 622 238.5 667.5 Q305 713 398 713 Q462 713 508.5 690.5 Q555 668 581 633.5 Q607 599 615 562 Z " />
<glyph glyph-name="Dcaron" unicode="&#x10e;" horiz-adv-x="621" d="M610 562 L519 138 Q481 79 414 39.5 Q347 0 253 0 L32 0 L183 700 L396 700 Q492 700 544.5 660 Q597 620 610 562 Z M207 671 L69 29 L252 29 Q332 29 393.5 63.5 Q455 98 491 151 L578 555 Q568 608 521 639.5 Q474 671 395 671 L207 671 Z M436 755 L396 755 L323 883 L327 899 L342 899 L417 774 L548 899 L567 899 L563 883 L436 755 Z " />
<glyph glyph-name="Dcroat" unicode="&#x110;" horiz-adv-x="651" d="M640 562 L549 138 Q511 79 444 39.5 Q377 0 283 0 L62 0 L136 342 L66 342 L72 371 L142 371 L213 700 L426 700 Q522 700 574.5 660 Q627 620 640 562 Z M608 555 Q598 608 551 639.5 Q504 671 425 671 L237 671 L173 371 L392 371 L386 342 L166 342 L99 29 L282 29 Q362 29 423.5 63.5 Q485 98 521 151 L608 555 Z " />
<glyph glyph-name="Egrave" unicode="&#xc8;" horiz-adv-x="545" d="M207 671 L143 377 L478 377 L472 348 L137 348 L69 29 L439 29 L432 0 L32 0 L183 700 L573 700 L567 671 L207 671 Z M374 755 L358 755 L304 879 L308 899 L328 899 L377 771 L374 755 Z " />
<glyph glyph-name="Eacute" unicode="&#xc9;" horiz-adv-x="545" d="M207 671 L143 377 L478 377 L472 348 L137 348 L69 29 L439 29 L432 0 L32 0 L183 700 L573 700 L567 671 L207 671 Z M386 755 L365 755 L368 771 L473 899 L498 899 L494 879 L386 755 Z " />
<glyph glyph-name="Ecircumflex" unicode="&#xca;" horiz-adv-x="545" d="M207 671 L143 377 L478 377 L472 348 L137 348 L69 29 L439 29 L432 0 L32 0 L183 700 L573 700 L567 671 L207 671 Z M498 755 L483 755 L408 879 L277 755 L258 755 L261 771 L389 899 L429 899 L501 771 L498 755 Z " />
<glyph glyph-name="Ecaron" unicode="&#x11a;" horiz-adv-x="545" d="M207 671 L143 377 L478 377 L472 348 L137 348 L69 29 L439 29 L432 0 L32 0 L183 700 L573 700 L567 671 L207 671 Z M398 755 L358 755 L285 883 L289 899 L304 899 L379 774 L510 899 L529 899 L525 883 L398 755 Z " />
<glyph glyph-name="Edieresis" unicode="&#xcb;" horiz-adv-x="545" d="M207 671 L143 377 L478 377 L472 348 L137 348 L69 29 L439 29 L432 0 L32 0 L183 700 L573 700 L567 671 L207 671 Z M329 831 L322 795 Q319 792 310.5 789 Q302 786 294 786 Q286 786 280 789 Q274 792 272 795 L279 831 Q282 834 290 837 Q298 840 306 840 Q314 840 320.5 837 Q327 834 329 831 Z M508 831 L501 795 Q498 792 489.5 789 Q481 786 473 786 Q465 786 459 789 Q453 792 451 795 L458 831 Q461 834 469 837 Q477 840 485 840 Q493 840 499.5 837 Q506 834 508 831 Z " />
<glyph glyph-name="Emacron" unicode="&#x112;" horiz-adv-x="545" d="M207 671 L143 377 L478 377 L472 348 L137 348 L69 29 L439 29 L432 0 L32 0 L183 700 L573 700 L567 671 L207 671 Z M245 788 L250 814 L530 814 L525 788 L245 788 Z " />
<glyph glyph-name="Ebreve" unicode="&#x114;" horiz-adv-x="545" d="M207 671 L143 377 L478 377 L472 348 L137 348 L69 29 L439 29 L432 0 L32 0 L183 700 L573 700 L567 671 L207 671 Z M507 813 Q493 789 463.5 769.5 Q434 750 384 750 Q335 750 308.5 771 Q282 792 275 813 L283 856 L310 856 L303 822 Q305 807 325.5 791 Q346 775 385 775 Q424 775 448.5 790.5 Q473 806 481 822 L488 856 L515 856 L507 813 Z " />
<glyph glyph-name="Edotaccent" unicode="&#x116;" horiz-adv-x="545" d="M207 671 L143 377 L478 377 L472 348 L137 348 L69 29 L439 29 L432 0 L32 0 L183 700 L573 700 L567 671 L207 671 Z M420 840 L412 806 Q403 797 386 797 Q378 797 372 800 Q366 803 364 806 L372 840 Q381 849 398 849 Q406 849 412 846 Q418 843 420 840 Z " />
<glyph glyph-name="Eogonek" unicode="&#x118;" horiz-adv-x="545" d="M207 671 L143 377 L478 377 L472 348 L137 348 L69 29 L439 29 L432 0 Q377 -33 340.5 -64.5 Q304 -96 294 -110 L285 -154 Q287 -164 302 -172 Q317 -180 336 -180 Q355 -180 367.5 -177 Q380 -174 397 -166 L392 -192 Q366 -205 334 -205 Q305 -205 283.5 -192 Q262 -179 258 -161 L271 -100 Q283 -81 314.5 -54 Q346 -27 392 0 L32 0 L183 700 L573 700 L567 671 L207 671 Z " />
<glyph glyph-name="Gcircumflex" unicode="&#x11c;" horiz-adv-x="628" d="M615 562 L610 538 L589 538 Q578 601 529.5 642.5 Q481 684 399 684 Q320 684 259.5 645 Q199 606 165 549 L79 146 Q90 91 137 54 Q184 17 262 17 Q341 17 401 55.5 Q461 94 497 152 L532 318 L347 318 L353 347 L568 347 L493 0 L463 0 L483 89 Q446 45 390 16.5 Q334 -12 262 -12 Q168 -12 114 33.5 Q60 79 47 139 L139 562 Q174 622 239.5 667.5 Q305 713 398 713 Q462 713 508.5 690 Q555 667 581 633 Q607 599 615 562 Z M539 755 L524 755 L449 879 L318 755 L299 755 L302 771 L430 899 L470 899 L542 771 L539 755 Z " />
<glyph glyph-name="Gbreve" unicode="&#x11e;" horiz-adv-x="628" d="M615 562 L610 538 L589 538 Q578 601 529.5 642.5 Q481 684 399 684 Q320 684 259.5 645 Q199 606 165 549 L79 146 Q90 91 137 54 Q184 17 262 17 Q341 17 401 55.5 Q461 94 497 152 L532 318 L347 318 L353 347 L568 347 L493 0 L463 0 L483 89 Q446 45 390 16.5 Q334 -12 262 -12 Q168 -12 114 33.5 Q60 79 47 139 L139 562 Q174 622 239.5 667.5 Q305 713 398 713 Q462 713 508.5 690 Q555 667 581 633 Q607 599 615 562 Z M548 813 Q534 789 504.5 769.5 Q475 750 425 750 Q376 750 349.5 771 Q323 792 316 813 L324 856 L351 856 L344 822 Q346 807 366.5 791 Q387 775 426 775 Q465 775 489.5 790.5 Q514 806 522 822 L529 856 L556 856 L548 813 Z " />
<glyph glyph-name="Gdotaccent" unicode="&#x120;" horiz-adv-x="628" d="M615 562 L610 538 L589 538 Q578 601 529.5 642.5 Q481 684 399 684 Q320 684 259.5 645 Q199 606 165 549 L79 146 Q90 91 137 54 Q184 17 262 17 Q341 17 401 55.5 Q461 94 497 152 L532 318 L347 318 L353 347 L568 347 L493 0 L463 0 L483 89 Q446 45 390 16.5 Q334 -12 262 -12 Q168 -12 114 33.5 Q60 79 47 139 L139 562 Q174 622 239.5 667.5 Q305 713 398 713 Q462 713 508.5 690 Q555 667 581 633 Q607 599 615 562 Z M461 840 L453 806 Q444 797 427 797 Q419 797 413 800 Q407 803 405 806 L413 840 Q422 849 439 849 Q447 849 453 846 Q459 843 461 840 Z " />
<glyph glyph-name="Gcommaaccent" unicode="&#x122;" horiz-adv-x="628" d="M615 562 L610 538 L589 538 Q578 601 529.5 642.5 Q481 684 399 684 Q320 684 259.5 645 Q199 606 165 549 L79 146 Q90 91 137 54 Q184 17 262 17 Q341 17 401 55.5 Q461 94 497 152 L532 318 L347 318 L353 347 L568 347 L493 0 L463 0 L483 89 Q446 45 390 16.5 Q334 -12 262 -12 Q168 -12 114 33.5 Q60 79 47 139 L139 562 Q174 622 239.5 667.5 Q305 713 398 713 Q462 713 508.5 690 Q555 667 581 633 Q607 599 615 562 Z M208 -163 L214 -163 Q221 -163 226 -157 L233 -123 Q227 -123 221.5 -120.5 Q216 -118 215 -115 L222 -81 Q230 -73 244 -73 Q250 -73 255 -75.5 Q260 -78 262 -81 L246 -160 Q236 -180 215 -180 L205 -180 L208 -163 Z " />
<glyph glyph-name="Hcircumflex" unicode="&#x124;" horiz-adv-x="636" d="M458 0 L533 346 L137 346 L62 0 L32 0 L183 700 L213 700 L143 375 L539 375 L609 700 L639 700 L488 0 L458 0 Z M543 755 L528 755 L453 879 L322 755 L303 755 L306 771 L434 899 L474 899 L546 771 L543 755 Z " />
<glyph glyph-name="Hbar" unicode="&#x126;" horiz-adv-x="636" d="M621 573 L497 0 L467 0 L542 346 L146 346 L71 0 L41 0 L165 573 L102 573 L108 600 L170 600 L192 700 L222 700 L200 600 L596 600 L618 700 L648 700 L626 600 L684 600 L678 573 L621 573 Z M195 573 L152 375 L548 375 L591 573 L195 573 Z " />
<glyph glyph-name="Igrave" unicode="&#xcc;" horiz-adv-x="210" d="M62 0 L32 0 L183 700 L213 700 L62 0 Z M206 755 L190 755 L136 879 L140 899 L160 899 L209 771 L206 755 Z " />
<glyph glyph-name="Iacute" unicode="&#xcd;" horiz-adv-x="210" d="M62 0 L32 0 L183 700 L213 700 L62 0 Z M218 755 L197 755 L200 771 L305 899 L330 899 L326 879 L218 755 Z " />
<glyph glyph-name="Icircumflex" unicode="&#xce;" horiz-adv-x="210" d="M62 0 L32 0 L183 700 L213 700 L62 0 Z M330 755 L315 755 L240 879 L109 755 L90 755 L93 771 L221 899 L261 899 L333 771 L330 755 Z " />
<glyph glyph-name="Itilde" unicode="&#x128;" horiz-adv-x="210" d="M62 0 L32 0 L183 700 L213 700 L62 0 Z M229 817 Q245 804 257.5 797 Q270 790 285 790 Q303 790 318.5 799 Q334 808 343 823 L346 841 L370 841 L364 814 Q350 790 331.5 777.5 Q313 765 284 765 Q265 765 251 772.5 Q237 780 216 795 Q200 808 187.5 815 Q175 822 160 822 Q139 822 123 812.5 Q107 803 99 790 L95 771 L71 771 L76 798 Q108 847 162 847 Q181 847 195.5 839.5 Q210 832 229 817 Z " />
<glyph glyph-name="Idieresis" unicode="&#xcf;" horiz-adv-x="210" d="M62 0 L32 0 L183 700 L213 700 L62 0 Z M161 831 L154 795 Q151 792 142.5 789 Q134 786 126 786 Q118 786 112 789 Q106 792 104 795 L111 831 Q114 834 122 837 Q130 840 138 840 Q146 840 152.5 837 Q159 834 161 831 Z M340 831 L333 795 Q330 792 321.5 789 Q313 786 305 786 Q297 786 291 789 Q285 792 283 795 L290 831 Q293 834 301 837 Q309 840 317 840 Q325 840 331.5 837 Q338 834 340 831 Z " />
<glyph glyph-name="Imacron" unicode="&#x12a;" horiz-adv-x="210" d="M62 0 L32 0 L183 700 L213 700 L62 0 Z M77 788 L82 814 L362 814 L357 788 L77 788 Z " />
<glyph glyph-name="Ibreve" unicode="&#x12c;" horiz-adv-x="210" d="M62 0 L32 0 L183 700 L213 700 L62 0 Z M339 813 Q325 789 295.5 769.5 Q266 750 216 750 Q167 750 140.5 771 Q114 792 107 813 L115 856 L142 856 L135 822 Q137 807 157.5 791 Q178 775 217 775 Q256 775 280.5 790.5 Q305 806 313 822 L320 856 L347 856 L339 813 Z " />
<glyph glyph-name="Iogonek" unicode="&#x12e;" horiz-adv-x="210" d="M-65 -110 L-74 -154 Q-72 -164 -57 -172 Q-42 -180 -23 -180 Q-4 -180 8.5 -177 Q21 -174 38 -166 L33 -192 Q7 -205 -25 -205 Q-54 -205 -75.5 -192 Q-97 -179 -101 -161 L-88 -100 Q-59 -51 33 6 L183 700 L213 700 L62 0 Q6 -36 -24 -65 Q-54 -94 -65 -110 Z " />
<glyph glyph-name="IJ" unicode="&#x132;" horiz-adv-x="596" d="M62 0 L32 0 L183 700 L213 700 L62 0 Z M483 139 Q447 76 377 37.5 Q307 -1 215 -1 Q192 -1 182.5 -0.5 Q173 0 172 0 L179 29 L222 29 Q296 29 359 62.5 Q422 96 457 152 L574 700 L604 700 L483 139 Z " />
<glyph glyph-name="Jcircumflex" unicode="&#x134;" horiz-adv-x="386" d="M273 139 Q237 76 167 37.5 Q97 -1 5 -1 Q-18 -1 -27.5 -0.5 Q-37 0 -38 0 L-31 29 L12 29 Q86 29 149 62.5 Q212 96 247 152 L364 700 L394 700 L273 139 Z M510 755 L495 755 L420 879 L289 755 L270 755 L273 771 L401 899 L441 899 L513 771 L510 755 Z " />
<glyph glyph-name="Kcommaaccent" unicode="&#x136;" horiz-adv-x="567" d="M474 0 L461 0 L264 398 L122 278 L62 0 L32 0 L183 700 L213 700 L131 321 L578 700 L595 700 L589 672 L287 417 L480 28 L474 0 Z M205 -163 L211 -163 Q218 -163 223 -157 L230 -123 Q224 -123 218.5 -120.5 Q213 -118 212 -115 L219 -81 Q227 -73 241 -73 Q247 -73 252 -75.5 Q257 -78 259 -81 L243 -160 Q233 -180 212 -180 L202 -180 L205 -163 Z " />
<glyph glyph-name="Lacute" unicode="&#x139;" horiz-adv-x="450" d="M69 29 L374 29 L367 0 L32 0 L183 700 L213 700 L69 29 Z M219 755 L198 755 L201 771 L306 899 L331 899 L327 879 L219 755 Z " />
<glyph glyph-name="Lcaron" unicode="&#x13d;" horiz-adv-x="450" d="M69 29 L374 29 L367 0 L32 0 L183 700 L213 700 L69 29 Z M335 555 L315 555 L318 571 L363 700 L390 700 L386 680 L335 555 Z " />
<glyph glyph-name="Lcommaaccent" unicode="&#x13b;" horiz-adv-x="450" d="M69 29 L374 29 L367 0 L32 0 L183 700 L213 700 L69 29 Z M116 -163 L122 -163 Q129 -163 134 -157 L141 -123 Q135 -123 129.5 -120.5 Q124 -118 123 -115 L130 -81 Q138 -73 152 -73 Q158 -73 163 -75.5 Q168 -78 170 -81 L154 -160 Q144 -180 123 -180 L113 -180 L116 -163 Z " />
<glyph glyph-name="Lslash" unicode="&#x141;" horiz-adv-x="480" d="M397 0 L62 0 L117 253 L17 206 L24 240 L124 287 L213 700 L243 700 L158 303 L408 420 L400 386 L150 269 L99 29 L404 29 L397 0 Z " />
<glyph glyph-name="Ldot" unicode="&#x13f;" horiz-adv-x="450" d="M69 29 L374 29 L367 0 L32 0 L183 700 L213 700 L69 29 Z M419 407 L411 373 Q402 364 386 364 Q377 364 370.5 367 Q364 370 363 373 L371 407 Q374 410 381 413 Q388 416 396 416 Q404 416 410.5 413 Q417 410 419 407 Z " />
<glyph glyph-name="Nacute" unicode="&#x143;" horiz-adv-x="653" d="M458 0 L210 671 L207 671 L62 0 L32 0 L183 700 L230 700 L479 29 L482 29 L626 700 L656 700 L505 0 L458 0 Z M440 755 L419 755 L422 771 L527 899 L552 899 L548 879 L440 755 Z " />
<glyph glyph-name="Ncaron" unicode="&#x147;" horiz-adv-x="653" d="M458 0 L210 671 L207 671 L62 0 L32 0 L183 700 L230 700 L479 29 L482 29 L626 700 L656 700 L505 0 L458 0 Z M452 755 L412 755 L339 883 L343 899 L358 899 L433 774 L564 899 L583 899 L579 883 L452 755 Z " />
<glyph glyph-name="Ntilde" unicode="&#xd1;" horiz-adv-x="653" d="M458 0 L210 671 L207 671 L62 0 L32 0 L183 700 L230 700 L479 29 L482 29 L626 700 L656 700 L505 0 L458 0 Z M451 817 Q467 804 479.5 797 Q492 790 507 790 Q525 790 540.5 799 Q556 808 565 823 L568 841 L592 841 L586 814 Q572 790 553.5 777.5 Q535 765 506 765 Q487 765 473 772.5 Q459 780 438 795 Q422 808 409.5 815 Q397 822 382 822 Q361 822 345 812.5 Q329 803 321 790 L317 771 L293 771 L298 798 Q330 847 384 847 Q403 847 417.5 839.5 Q432 832 451 817 Z " />
<glyph glyph-name="Ncommaaccent" unicode="&#x145;" horiz-adv-x="653" d="M458 0 L210 671 L207 671 L62 0 L32 0 L183 700 L230 700 L479 29 L482 29 L626 700 L656 700 L505 0 L458 0 Z M218 -163 L224 -163 Q231 -163 236 -157 L243 -123 Q237 -123 231.5 -120.5 Q226 -118 225 -115 L232 -81 Q240 -73 254 -73 Q260 -73 265 -75.5 Q270 -78 272 -81 L256 -160 Q246 -180 225 -180 L215 -180 L218 -163 Z " />
<glyph glyph-name="Ograve" unicode="&#xd2;" horiz-adv-x="626" d="M615 562 L524 138 Q484 75 420 31.5 Q356 -12 263 -12 Q199 -12 153 10.5 Q107 33 81 67.5 Q55 102 47 139 L139 563 Q179 626 242 669.5 Q305 713 398 713 Q462 713 508.5 690.5 Q555 668 581 633.5 Q607 599 615 562 Z M165 549 L79 146 Q90 91 137 54 Q184 17 261 17 Q339 17 399 55.5 Q459 94 497 152 L583 555 Q573 609 525 646.5 Q477 684 400 684 Q322 684 262.5 645.5 Q203 607 165 549 Z M414 755 L398 755 L344 879 L348 899 L368 899 L417 771 L414 755 Z " />
<glyph glyph-name="Oacute" unicode="&#xd3;" horiz-adv-x="626" d="M615 562 L524 138 Q484 75 420 31.5 Q356 -12 263 -12 Q199 -12 153 10.5 Q107 33 81 67.5 Q55 102 47 139 L139 563 Q179 626 242 669.5 Q305 713 398 713 Q462 713 508.5 690.5 Q555 668 581 633.5 Q607 599 615 562 Z M165 549 L79 146 Q90 91 137 54 Q184 17 261 17 Q339 17 399 55.5 Q459 94 497 152 L583 555 Q573 609 525 646.5 Q477 684 400 684 Q322 684 262.5 645.5 Q203 607 165 549 Z M426 755 L405 755 L408 771 L513 899 L538 899 L534 879 L426 755 Z " />
<glyph glyph-name="Ocircumflex" unicode="&#xd4;" horiz-adv-x="626" d="M615 562 L524 138 Q484 75 420 31.5 Q356 -12 263 -12 Q199 -12 153 10.5 Q107 33 81 67.5 Q55 102 47 139 L139 563 Q179 626 242 669.5 Q305 713 398 713 Q462 713 508.5 690.5 Q555 668 581 633.5 Q607 599 615 562 Z M165 549 L79 146 Q90 91 137 54 Q184 17 261 17 Q339 17 399 55.5 Q459 94 497 152 L583 555 Q573 609 525 646.5 Q477 684 400 684 Q322 684 262.5 645.5 Q203 607 165 549 Z M538 755 L523 755 L448 879 L317 755 L298 755 L301 771 L429 899 L469 899 L541 771 L538 755 Z " />
<glyph glyph-name="Otilde" unicode="&#xd5;" horiz-adv-x="626" d="M615 562 L524 138 Q484 75 420 31.5 Q356 -12 263 -12 Q199 -12 153 10.5 Q107 33 81 67.5 Q55 102 47 139 L139 563 Q179 626 242 669.5 Q305 713 398 713 Q462 713 508.5 690.5 Q555 668 581 633.5 Q607 599 615 562 Z M165 549 L79 146 Q90 91 137 54 Q184 17 261 17 Q339 17 399 55.5 Q459 94 497 152 L583 555 Q573 609 525 646.5 Q477 684 400 684 Q322 684 262.5 645.5 Q203 607 165 549 Z M437 817 Q453 804 465.5 797 Q478 790 493 790 Q511 790 526.5 799 Q542 808 551 823 L554 841 L578 841 L572 814 Q558 790 539.5 777.5 Q521 765 492 765 Q473 765 459 772.5 Q445 780 424 795 Q408 808 395.5 815 Q383 822 368 822 Q347 822 331 812.5 Q315 803 307 790 L303 771 L279 771 L284 798 Q316 847 370 847 Q389 847 403.5 839.5 Q418 832 437 817 Z " />
<glyph glyph-name="Odieresis" unicode="&#xd6;" horiz-adv-x="626" d="M615 562 L524 138 Q484 75 420 31.5 Q356 -12 263 -12 Q199 -12 153 10.5 Q107 33 81 67.5 Q55 102 47 139 L139 563 Q179 626 242 669.5 Q305 713 398 713 Q462 713 508.5 690.5 Q555 668 581 633.5 Q607 599 615 562 Z M165 549 L79 146 Q90 91 137 54 Q184 17 261 17 Q339 17 399 55.5 Q459 94 497 152 L583 555 Q573 609 525 646.5 Q477 684 400 684 Q322 684 262.5 645.5 Q203 607 165 549 Z M369 831 L362 795 Q359 792 350.5 789 Q342 786 334 786 Q326 786 320 789 Q314 792 312 795 L319 831 Q322 834 330 837 Q338 840 346 840 Q354 840 360.5 837 Q367 834 369 831 Z M548 831 L541 795 Q538 792 529.5 789 Q521 786 513 786 Q505 786 499 789 Q493 792 491 795 L498 831 Q501 834 509 837 Q517 840 525 840 Q533 840 539.5 837 Q546 834 548 831 Z " />
<glyph glyph-name="Omacron" unicode="&#x14c;" horiz-adv-x="626" d="M615 562 L524 138 Q484 75 420 31.5 Q356 -12 263 -12 Q199 -12 153 10.5 Q107 33 81 67.5 Q55 102 47 139 L139 563 Q179 626 242 669.5 Q305 713 398 713 Q462 713 508.5 690.5 Q555 668 581 633.5 Q607 599 615 562 Z M165 549 L79 146 Q90 91 137 54 Q184 17 261 17 Q339 17 399 55.5 Q459 94 497 152 L583 555 Q573 609 525 646.5 Q477 684 400 684 Q322 684 262.5 645.5 Q203 607 165 549 Z M285 788 L290 814 L570 814 L565 788 L285 788 Z " />
<glyph glyph-name="Obreve" unicode="&#x14e;" horiz-adv-x="626" d="M615 562 L524 138 Q484 75 420 31.5 Q356 -12 263 -12 Q199 -12 153 10.5 Q107 33 81 67.5 Q55 102 47 139 L139 563 Q179 626 242 669.5 Q305 713 398 713 Q462 713 508.5 690.5 Q555 668 581 633.5 Q607 599 615 562 Z M165 549 L79 146 Q90 91 137 54 Q184 17 261 17 Q339 17 399 55.5 Q459 94 497 152 L583 555 Q573 609 525 646.5 Q477 684 400 684 Q322 684 262.5 645.5 Q203 607 165 549 Z M547 813 Q533 789 503.5 769.5 Q474 750 424 750 Q375 750 348.5 771 Q322 792 315 813 L323 856 L350 856 L343 822 Q345 807 365.5 791 Q386 775 425 775 Q464 775 488.5 790.5 Q513 806 521 822 L528 856 L555 856 L547 813 Z " />
<glyph glyph-name="Ohungarumlaut" unicode="&#x150;" horiz-adv-x="626" d="M615 562 L524 138 Q484 75 420 31.5 Q356 -12 263 -12 Q199 -12 153 10.5 Q107 33 81 67.5 Q55 102 47 139 L139 563 Q179 626 242 669.5 Q305 713 398 713 Q462 713 508.5 690.5 Q555 668 581 633.5 Q607 599 615 562 Z M165 549 L79 146 Q90 91 137 54 Q184 17 261 17 Q339 17 399 55.5 Q459 94 497 152 L583 555 Q573 609 525 646.5 Q477 684 400 684 Q322 684 262.5 645.5 Q203 607 165 549 Z M349 755 L330 755 L333 771 L418 899 L441 899 L437 879 L349 755 Z M509 755 L490 755 L493 771 L578 899 L601 899 L597 879 L509 755 Z " />
<glyph glyph-name="Oslash" unicode="&#xd8;" horiz-adv-x="626" d="M640 682 L588 623 Q609 593 615 562 L524 138 Q484 75 420 31.5 Q356 -12 263 -12 Q205 -12 162 6.5 Q119 25 91 56 L41 0 L17 0 L22 18 L74 77 Q53 108 47 139 L139 563 Q179 626 242 669.5 Q305 713 398 713 Q456 713 499.5 694.5 Q543 676 571 644 L620 700 L644 700 L640 682 Z M95 102 L551 622 Q527 650 488.5 667 Q450 684 400 684 Q322 684 262.5 645.5 Q203 607 165 549 L79 146 Q84 121 95 102 Z M567 599 L111 79 Q135 50 173 33.5 Q211 17 261 17 Q339 17 399 55.5 Q459 94 497 152 L583 555 Q578 580 567 599 Z " />
<glyph glyph-name="OE" unicode="&#x152;" horiz-adv-x="977" d="M596 473 L575 377 L910 377 L904 348 L569 348 L559 299 L501 29 L871 29 L864 0 L464 0 L482 83 Q393 -12 263 -12 Q199 -12 153 10.5 Q107 33 81 67.5 Q55 102 47 139 L139 563 Q179 626 242 669.5 Q305 713 398 713 Q471 713 520.5 684.5 Q570 656 596 611 L615 700 L1005 700 L999 671 L639 671 L596 473 Z M494 139 L586 566 Q570 613 521 648.5 Q472 684 400 684 Q322 684 262.5 645.5 Q203 607 165 549 L79 146 Q90 91 137 54 Q184 17 261 17 Q335 17 395.5 51.5 Q456 86 494 139 Z " />
<glyph glyph-name="Racute" unicode="&#x154;" horiz-adv-x="575" d="M574 583 L542 437 Q507 381 451.5 350.5 Q396 320 329 320 L322 320 L463 28 L457 0 L444 0 L290 320 L131 320 L62 0 L32 0 L183 700 L391 700 Q460 700 508.5 668.5 Q557 637 574 583 Z M542 576 Q528 623 487 647 Q446 671 392 671 L207 671 L137 349 L327 349 Q382 349 431 374.5 Q480 400 516 449 L542 576 Z M400 755 L379 755 L382 771 L487 899 L512 899 L508 879 L400 755 Z " />
<glyph glyph-name="Rcaron" unicode="&#x158;" horiz-adv-x="575" d="M574 583 L542 437 Q507 381 451.5 350.5 Q396 320 329 320 L322 320 L463 28 L457 0 L444 0 L290 320 L131 320 L62 0 L32 0 L183 700 L391 700 Q460 700 508.5 668.5 Q557 637 574 583 Z M542 576 Q528 623 487 647 Q446 671 392 671 L207 671 L137 349 L327 349 Q382 349 431 374.5 Q480 400 516 449 L542 576 Z M412 755 L372 755 L299 883 L303 899 L318 899 L393 774 L524 899 L543 899 L539 883 L412 755 Z " />
<glyph glyph-name="Rcommaaccent" unicode="&#x156;" horiz-adv-x="575" d="M574 583 L542 437 Q507 381 451.5 350.5 Q396 320 329 320 L322 320 L463 28 L457 0 L444 0 L290 320 L131 320 L62 0 L32 0 L183 700 L391 700 Q460 700 508.5 668.5 Q557 637 574 583 Z M542 576 Q528 623 487 647 Q446 671 392 671 L207 671 L137 349 L327 349 Q382 349 431 374.5 Q480 400 516 449 L542 576 Z M178 -163 L184 -163 Q191 -163 196 -157 L203 -123 Q197 -123 191.5 -120.5 Q186 -118 185 -115 L192 -81 Q200 -73 214 -73 Q220 -73 225 -75.5 Q230 -78 232 -81 L216 -160 Q206 -180 185 -180 L175 -180 L178 -163 Z " />
<glyph glyph-name="Sacute" unicode="&#x15a;" horiz-adv-x="560" d="M565 599 L560 574 L539 574 Q525 623 479.5 653 Q434 683 366 683 Q303 683 250.5 655.5 Q198 628 164 586 L141 475 Q150 445 178.5 427 Q207 409 275 387 L350 363 Q430 338 461 311 Q492 284 502 246 L474 118 Q439 66 378 27 Q317 -12 228 -12 Q165 -12 118.5 9 Q72 30 45.5 60 Q19 90 10 118 L15 143 L36 143 Q53 89 101.5 53 Q150 17 229 17 Q303 17 360 51.5 Q417 86 447 131 L470 239 Q464 269 436 292 Q408 315 339 337 L262 361 Q187 384 155.5 407 Q124 430 109 468 L137 599 Q225 712 367 712 Q447 712 496 678.5 Q545 645 565 599 Z M402 755 L381 755 L384 771 L489 899 L514 899 L510 879 L402 755 Z " />
<glyph glyph-name="Scircumflex" unicode="&#x15c;" horiz-adv-x="560" d="M565 599 L560 574 L539 574 Q525 623 479.5 653 Q434 683 366 683 Q303 683 250.5 655.5 Q198 628 164 586 L141 475 Q150 445 178.5 427 Q207 409 275 387 L350 363 Q430 338 461 311 Q492 284 502 246 L474 118 Q439 66 378 27 Q317 -12 228 -12 Q165 -12 118.5 9 Q72 30 45.5 60 Q19 90 10 118 L15 143 L36 143 Q53 89 101.5 53 Q150 17 229 17 Q303 17 360 51.5 Q417 86 447 131 L470 239 Q464 269 436 292 Q408 315 339 337 L262 361 Q187 384 155.5 407 Q124 430 109 468 L137 599 Q225 712 367 712 Q447 712 496 678.5 Q545 645 565 599 Z M514 755 L499 755 L424 879 L293 755 L274 755 L277 771 L405 899 L445 899 L517 771 L514 755 Z " />
<glyph glyph-name="Scaron" unicode="&#x160;" horiz-adv-x="560" d="M565 599 L560 574 L539 574 Q525 623 479.5 653 Q434 683 366 683 Q303 683 250.5 655.5 Q198 628 164 586 L141 475 Q150 445 178.5 427 Q207 409 275 387 L350 363 Q430 338 461 311 Q492 284 502 246 L474 118 Q439 66 378 27 Q317 -12 228 -12 Q165 -12 118.5 9 Q72 30 45.5 60 Q19 90 10 118 L15 143 L36 143 Q53 89 101.5 53 Q150 17 229 17 Q303 17 360 51.5 Q417 86 447 131 L470 239 Q464 269 436 292 Q408 315 339 337 L262 361 Q187 384 155.5 407 Q124 430 109 468 L137 599 Q225 712 367 712 Q447 712 496 678.5 Q545 645 565 599 Z M414 755 L374 755 L301 883 L305 899 L320 899 L395 774 L526 899 L545 899 L541 883 L414 755 Z " />
<glyph glyph-name="Scedilla" unicode="&#x15e;" horiz-adv-x="560" d="M565 599 L560 574 L539 574 Q525 623 479.5 653 Q434 683 366 683 Q303 683 250.5 655.5 Q198 628 164 586 L141 475 Q150 445 178.5 427 Q207 409 275 387 L350 363 Q430 338 461 311 Q492 284 502 246 L474 118 Q439 66 378.5 27 Q318 -12 229 -12 L199 -63 L219 -63 Q247 -63 266 -76 Q285 -89 291 -106 L277 -171 Q264 -189 242.5 -201.5 Q221 -214 192 -214 Q144 -214 108 -187 L120 -165 Q136 -178 152.5 -184.5 Q169 -191 193 -191 Q213 -191 229.5 -182 Q246 -173 255 -162 L265 -111 Q262 -101 249.5 -93 Q237 -85 217 -85 L161 -85 L203 -11 Q147 -7 106.5 14.5 Q66 36 42.5 64 Q19 92 10 118 L15 143 L36 143 Q53 89 101.5 53 Q150 17 229 17 Q303 17 360 51.5 Q417 86 447 131 L470 239 Q464 269 436 292 Q408 315 339 337 L262 361 Q187 384 155.5 407 Q124 430 109 468 L137 599 Q225 712 367 712 Q447 712 496 678.5 Q545 645 565 599 Z " />
<glyph glyph-name="Scommaaccent" unicode="&#x218;" horiz-adv-x="560" d="M565 599 L560 574 L539 574 Q525 623 479.5 653 Q434 683 366 683 Q303 683 250.5 655.5 Q198 628 164 586 L141 475 Q150 445 178.5 427 Q207 409 275 387 L350 363 Q430 338 461 311 Q492 284 502 246 L474 118 Q439 66 378 27 Q317 -12 228 -12 Q165 -12 118.5 9 Q72 30 45.5 60 Q19 90 10 118 L15 143 L36 143 Q53 89 101.5 53 Q150 17 229 17 Q303 17 360 51.5 Q417 86 447 131 L470 239 Q464 269 436 292 Q408 315 339 337 L262 361 Q187 384 155.5 407 Q124 430 109 468 L137 599 Q225 712 367 712 Q447 712 496 678.5 Q545 645 565 599 Z M171 -163 L177 -163 Q184 -163 189 -157 L196 -123 Q190 -123 184.5 -120.5 Q179 -118 178 -115 L185 -81 Q193 -73 207 -73 Q213 -73 218 -75.5 Q223 -78 225 -81 L209 -160 Q199 -180 178 -180 L168 -180 L171 -163 Z " />
<glyph glyph-name="Tcaron" unicode="&#x164;" horiz-adv-x="520" d="M582 671 L362 671 L217 0 L187 0 L332 671 L112 671 L118 700 L588 700 L582 671 Z M385 755 L345 755 L272 883 L276 899 L291 899 L366 774 L497 899 L516 899 L512 883 L385 755 Z " />
<glyph glyph-name="uni021A" unicode="&#x21a;" horiz-adv-x="520" d="M582 671 L362 671 L217 0 L187 0 L332 671 L112 671 L118 700 L588 700 L582 671 Z M151 -163 L157 -163 Q164 -163 169 -157 L176 -123 Q170 -123 164.5 -120.5 Q159 -118 158 -115 L165 -81 Q173 -73 187 -73 Q193 -73 198 -75.5 Q203 -78 205 -81 L189 -160 Q179 -180 158 -180 L148 -180 L151 -163 Z " />
<glyph glyph-name="Tbar" unicode="&#x166;" horiz-adv-x="520" d="M312 400 L473 400 L467 373 L307 373 L226 0 L196 0 L277 373 L117 373 L123 400 L282 400 L341 671 L121 671 L127 700 L597 700 L591 671 L371 671 L312 400 Z " />
<glyph glyph-name="Ugrave" unicode="&#xd9;" horiz-adv-x="646" d="M533 139 Q495 75 429.5 31.5 Q364 -12 270 -12 Q176 -12 123 33 Q70 78 57 139 L178 700 L208 700 L89 146 Q100 91 146.5 54 Q193 17 270 17 Q347 17 410 56 Q473 95 507 152 L624 700 L654 700 L533 139 Z M424 755 L408 755 L354 879 L358 899 L378 899 L427 771 L424 755 Z " />
<glyph glyph-name="Uacute" unicode="&#xda;" horiz-adv-x="646" d="M533 139 Q495 75 429.5 31.5 Q364 -12 270 -12 Q176 -12 123 33 Q70 78 57 139 L178 700 L208 700 L89 146 Q100 91 146.5 54 Q193 17 270 17 Q347 17 410 56 Q473 95 507 152 L624 700 L654 700 L533 139 Z M436 755 L415 755 L418 771 L523 899 L548 899 L544 879 L436 755 Z " />
<glyph glyph-name="Ucircumflex" unicode="&#xdb;" horiz-adv-x="646" d="M533 139 Q495 75 429.5 31.5 Q364 -12 270 -12 Q176 -12 123 33 Q70 78 57 139 L178 700 L208 700 L89 146 Q100 91 146.5 54 Q193 17 270 17 Q347 17 410 56 Q473 95 507 152 L624 700 L654 700 L533 139 Z M548 755 L533 755 L458 879 L327 755 L308 755 L311 771 L439 899 L479 899 L551 771 L548 755 Z " />
<glyph glyph-name="Utilde" unicode="&#x168;" horiz-adv-x="646" d="M533 139 Q495 75 429.5 31.5 Q364 -12 270 -12 Q176 -12 123 33 Q70 78 57 139 L178 700 L208 700 L89 146 Q100 91 146.5 54 Q193 17 270 17 Q347 17 410 56 Q473 95 507 152 L624 700 L654 700 L533 139 Z M447 817 Q463 804 475.5 797 Q488 790 503 790 Q521 790 536.5 799 Q552 808 561 823 L564 841 L588 841 L582 814 Q568 790 549.5 777.5 Q531 765 502 765 Q483 765 469 772.5 Q455 780 434 795 Q418 808 405.5 815 Q393 822 378 822 Q357 822 341 812.5 Q325 803 317 790 L313 771 L289 771 L294 798 Q326 847 380 847 Q399 847 413.5 839.5 Q428 832 447 817 Z " />
<glyph glyph-name="Udieresis" unicode="&#xdc;" horiz-adv-x="646" d="M533 139 Q495 75 429.5 31.5 Q364 -12 270 -12 Q176 -12 123 33 Q70 78 57 139 L178 700 L208 700 L89 146 Q100 91 146.5 54 Q193 17 270 17 Q347 17 410 56 Q473 95 507 152 L624 700 L654 700 L533 139 Z M379 831 L372 795 Q369 792 360.5 789 Q352 786 344 786 Q336 786 330 789 Q324 792 322 795 L329 831 Q332 834 340 837 Q348 840 356 840 Q364 840 370.5 837 Q377 834 379 831 Z M558 831 L551 795 Q548 792 539.5 789 Q531 786 523 786 Q515 786 509 789 Q503 792 501 795 L508 831 Q511 834 519 837 Q527 840 535 840 Q543 840 549.5 837 Q556 834 558 831 Z " />
<glyph glyph-name="Umacron" unicode="&#x16a;" horiz-adv-x="646" d="M533 139 Q495 75 429.5 31.5 Q364 -12 270 -12 Q176 -12 123 33 Q70 78 57 139 L178 700 L208 700 L89 146 Q100 91 146.5 54 Q193 17 270 17 Q347 17 410 56 Q473 95 507 152 L624 700 L654 700 L533 139 Z M295 788 L300 814 L580 814 L575 788 L295 788 Z " />
<glyph glyph-name="Ubreve" unicode="&#x16c;" horiz-adv-x="646" d="M533 139 Q495 75 429.5 31.5 Q364 -12 270 -12 Q176 -12 123 33 Q70 78 57 139 L178 700 L208 700 L89 146 Q100 91 146.5 54 Q193 17 270 17 Q347 17 410 56 Q473 95 507 152 L624 700 L654 700 L533 139 Z M557 813 Q543 789 513.5 769.5 Q484 750 434 750 Q385 750 358.5 771 Q332 792 325 813 L333 856 L360 856 L353 822 Q355 807 375.5 791 Q396 775 435 775 Q474 775 498.5 790.5 Q523 806 531 822 L538 856 L565 856 L557 813 Z " />
<glyph glyph-name="Uring" unicode="&#x16e;" horiz-adv-x="646" d="M533 139 Q495 75 429.5 31.5 Q364 -12 270 -12 Q176 -12 123 33 Q70 78 57 139 L178 700 L208 700 L89 146 Q100 91 146.5 54 Q193 17 270 17 Q347 17 410 56 Q473 95 507 152 L624 700 L654 700 L533 139 Z M529 815 L512 736 Q499 718 474.5 705 Q450 692 419 692 Q388 692 365.5 705.5 Q343 719 336 736 L353 815 Q365 833 390 846 Q415 859 446 859 Q477 859 499.5 845.5 Q522 832 529 815 Z M377 807 L363 744 Q369 733 383.5 725 Q398 717 420 717 Q442 717 459.5 725 Q477 733 487 744 L501 807 Q496 818 481.5 826 Q467 834 445 834 Q404 834 377 807 Z " />
<glyph glyph-name="Uhungarumlaut" unicode="&#x170;" horiz-adv-x="646" d="M533 139 Q495 75 429.5 31.5 Q364 -12 270 -12 Q176 -12 123 33 Q70 78 57 139 L178 700 L208 700 L89 146 Q100 91 146.5 54 Q193 17 270 17 Q347 17 410 56 Q473 95 507 152 L624 700 L654 700 L533 139 Z M359 755 L340 755 L343 771 L428 899 L451 899 L447 879 L359 755 Z M519 755 L500 755 L503 771 L588 899 L611 899 L607 879 L519 755 Z " />
<glyph glyph-name="Uogonek" unicode="&#x172;" horiz-adv-x="646" d="M654 700 L533 139 Q494 72 420 25 Q377 -3 327 -46.5 Q277 -90 263 -110 L254 -154 Q256 -164 271 -172 Q286 -180 305 -180 Q324 -180 336.5 -177 Q349 -174 366 -166 L361 -192 Q335 -205 303 -205 Q274 -205 252.5 -192 Q231 -179 227 -161 L240 -100 Q269 -52 346 -2 Q312 -12 270 -12 Q176 -12 123 33 Q70 78 57 139 L178 700 L208 700 L89 146 Q100 91 146.5 54 Q193 17 270 17 Q347 17 410 56 Q473 95 507 152 L624 700 L654 700 Z " />
<glyph glyph-name="Wgrave" unicode="&#x1e80;" horiz-adv-x="868" d="M620 0 L574 0 L522 671 L519 671 L178 0 L132 0 L127 672 L133 700 L155 700 L159 30 L162 30 L502 700 L548 700 L600 30 L603 30 L895 700 L921 700 L915 672 L620 0 Z M535 755 L519 755 L465 879 L469 899 L489 899 L538 771 L535 755 Z " />
<glyph glyph-name="Wacute" unicode="&#x1e82;" horiz-adv-x="868" d="M620 0 L574 0 L522 671 L519 671 L178 0 L132 0 L127 672 L133 700 L155 700 L159 30 L162 30 L502 700 L548 700 L600 30 L603 30 L895 700 L921 700 L915 672 L620 0 Z M547 755 L526 755 L529 771 L634 899 L659 899 L655 879 L547 755 Z " />
<glyph glyph-name="Wcircumflex" unicode="&#x174;" horiz-adv-x="868" d="M620 0 L574 0 L522 671 L519 671 L178 0 L132 0 L127 672 L133 700 L155 700 L159 30 L162 30 L502 700 L548 700 L600 30 L603 30 L895 700 L921 700 L915 672 L620 0 Z M659 755 L644 755 L569 879 L438 755 L419 755 L422 771 L550 899 L590 899 L662 771 L659 755 Z " />
<glyph glyph-name="Wdieresis" unicode="&#x1e84;" horiz-adv-x="868" d="M620 0 L574 0 L522 671 L519 671 L178 0 L132 0 L127 672 L133 700 L155 700 L159 30 L162 30 L502 700 L548 700 L600 30 L603 30 L895 700 L921 700 L915 672 L620 0 Z M490 831 L483 795 Q480 792 471.5 789 Q463 786 455 786 Q447 786 441 789 Q435 792 433 795 L440 831 Q443 834 451 837 Q459 840 467 840 Q475 840 481.5 837 Q488 834 490 831 Z M669 831 L662 795 Q659 792 650.5 789 Q642 786 634 786 Q626 786 620 789 Q614 792 612 795 L619 831 Q622 834 630 837 Q638 840 646 840 Q654 840 660.5 837 Q667 834 669 831 Z " />
<glyph glyph-name="Ygrave" unicode="&#x1ef2;" horiz-adv-x="534" d="M293 321 L224 0 L194 0 L264 322 L128 672 L134 700 L148 700 L282 353 L284 353 L566 700 L586 700 L580 672 L293 321 Z M368 755 L352 755 L298 879 L302 899 L322 899 L371 771 L368 755 Z " />
<glyph glyph-name="Yacute" unicode="&#xdd;" horiz-adv-x="534" d="M293 321 L224 0 L194 0 L264 322 L128 672 L134 700 L148 700 L282 353 L284 353 L566 700 L586 700 L580 672 L293 321 Z M380 755 L359 755 L362 771 L467 899 L492 899 L488 879 L380 755 Z " />
<glyph glyph-name="Ycircumflex" unicode="&#x176;" horiz-adv-x="534" d="M293 321 L224 0 L194 0 L264 322 L128 672 L134 700 L148 700 L282 353 L284 353 L566 700 L586 700 L580 672 L293 321 Z M492 755 L477 755 L402 879 L271 755 L252 755 L255 771 L383 899 L423 899 L495 771 L492 755 Z " />
<glyph glyph-name="Ydieresis" unicode="&#x178;" horiz-adv-x="534" d="M293 321 L224 0 L194 0 L264 322 L128 672 L134 700 L148 700 L282 353 L284 353 L566 700 L586 700 L580 672 L293 321 Z M323 831 L316 795 Q313 792 304.5 789 Q296 786 288 786 Q280 786 274 789 Q268 792 266 795 L273 831 Q276 834 284 837 Q292 840 300 840 Q308 840 314.5 837 Q321 834 323 831 Z M502 831 L495 795 Q492 792 483.5 789 Q475 786 467 786 Q459 786 453 789 Q447 792 445 795 L452 831 Q455 834 463 837 Q471 840 479 840 Q487 840 493.5 837 Q500 834 502 831 Z " />
<glyph glyph-name="Zacute" unicode="&#x179;" horiz-adv-x="568" d="M45 29 L462 29 L455 0 L-3 0 L2 24 L560 671 L152 671 L158 700 L606 700 L601 676 L45 29 Z M397 755 L376 755 L379 771 L484 899 L509 899 L505 879 L397 755 Z " />
<glyph glyph-name="Zcaron" unicode="&#x17d;" horiz-adv-x="568" d="M45 29 L462 29 L455 0 L-3 0 L2 24 L560 671 L152 671 L158 700 L606 700 L601 676 L45 29 Z M409 755 L369 755 L296 883 L300 899 L315 899 L390 774 L521 899 L540 899 L536 883 L409 755 Z " />
<glyph glyph-name="Zdotaccent" unicode="&#x17b;" horiz-adv-x="568" d="M45 29 L462 29 L455 0 L-3 0 L2 24 L560 671 L152 671 L158 700 L606 700 L601 676 L45 29 Z M431 840 L423 806 Q414 797 397 797 Q389 797 383 800 Q377 803 375 806 L383 840 Q392 849 409 849 Q417 849 423 846 Q429 843 431 840 Z " />
<glyph glyph-name="Eng" unicode="&#x14a;" horiz-adv-x="653" d="M501 -19 Q461 -85 391 -127 Q321 -169 230 -169 Q206 -169 188 -167 L194 -138 Q210 -140 237 -140 Q305 -140 364 -107 Q423 -74 465 -19 L210 671 L207 671 L62 0 L32 0 L183 700 L230 700 L479 29 L482 29 L626 700 L656 700 L501 -19 Z " />
<glyph glyph-name="Eth" unicode="&#xd0;" horiz-adv-x="651" d="M640 562 L549 138 Q511 79 444 39.5 Q377 0 283 0 L62 0 L136 342 L66 342 L72 371 L142 371 L213 700 L426 700 Q522 700 574.5 660 Q627 620 640 562 Z M608 555 Q598 608 551 639.5 Q504 671 425 671 L237 671 L173 371 L392 371 L386 342 L166 342 L99 29 L282 29 Q362 29 423.5 63.5 Q485 98 521 151 L608 555 Z " />
<glyph glyph-name="Thorn" unicode="&#xde;" horiz-adv-x="551" d="M537 459 L499 283 Q462 228 405 197 Q348 166 284 166 L98 166 L62 0 L32 0 L183 700 L213 700 L186 576 L357 576 Q425 576 471.5 544.5 Q518 513 537 459 Z M505 452 Q488 501 448.5 524 Q409 547 353 547 L180 547 L104 195 L285 195 Q337 195 387 221.5 Q437 248 472 296 L505 452 Z " />
<glyph glyph-name="a" unicode="a" horiz-adv-x="528" d="M486 418 L395 0 L367 0 L383 70 Q351 35 302 11.5 Q253 -12 189 -12 Q119 -12 77 14.5 Q35 41 18 72 L51 225 Q62 240 86.5 259.5 Q111 279 150.5 293.5 Q190 308 239 308 L434 308 L456 411 Q448 456 407.5 487 Q367 518 302 518 Q242 518 198 492.5 Q154 467 131 435 L105 435 L109 455 Q135 487 185 516.5 Q235 546 303 546 Q357 546 396.5 526.5 Q436 507 458 478 Q480 449 486 418 Z M392 113 L428 282 L248 282 Q184 282 141 260.5 Q98 239 76 213 L48 79 Q63 55 96.5 35.5 Q130 16 191 16 Q256 16 308 44 Q360 72 392 113 Z " />
<glyph glyph-name="b" unicode="b" horiz-adv-x="534" d="M508 447 L430 87 Q355 -12 230 -12 Q171 -12 128.5 8.5 Q86 29 64 60 L50 0 L22 0 L173 700 L201 700 L153 477 Q184 507 229 526.5 Q274 546 332 546 Q408 546 451.5 514 Q495 482 508 447 Z M478 440 Q467 469 429 493.5 Q391 518 331 518 Q272 518 224 494.5 Q176 471 144 436 L70 94 Q91 61 132 38.5 Q173 16 230 16 Q292 16 336 41.5 Q380 67 406 100 L478 440 Z " />
<glyph glyph-name="c" unicode="c" horiz-adv-x="514" d="M502 418 L497 398 L477 398 Q469 450 429.5 484 Q390 518 321 518 Q255 518 202.5 485.5 Q150 453 122 405 L62 123 Q71 77 109.5 46.5 Q148 16 214 16 Q281 16 333 49.5 Q385 83 416 136 L441 136 L436 116 Q408 65 350 26.5 Q292 -12 213 -12 Q133 -12 87.5 27 Q42 66 32 116 L98 418 Q128 470 185 508 Q242 546 323 546 Q401 546 446.5 507 Q492 468 502 418 Z " />
<glyph glyph-name="d" unicode="d" horiz-adv-x="534" d="M547 700 L396 0 L368 0 L381 56 Q350 26 304.5 7 Q259 -12 200 -12 Q124 -12 82 20 Q40 52 26 87 L104 447 Q133 484 182 515 Q231 546 307 546 Q366 546 407.5 526 Q449 506 471 475 L519 700 L547 700 Z M389 98 L463 441 Q444 474 404 496 Q364 518 306 518 Q244 518 199.5 492 Q155 466 128 434 L56 94 Q69 64 104.5 40 Q140 16 202 16 Q262 16 310 39 Q358 62 389 98 Z " />
<glyph glyph-name="e" unicode="e" horiz-adv-x="529" d="M502 418 L472 282 L96 282 L62 123 Q71 77 109.5 46.5 Q148 16 214 16 Q280 16 331.5 49 Q383 82 415 136 L441 136 L436 116 Q406 64 349.5 26 Q293 -12 213 -12 Q133 -12 87.5 27 Q42 66 32 116 L98 418 Q127 469 184 507.5 Q241 546 320 546 Q374 546 413.5 527 Q453 508 474.5 478.5 Q496 449 502 418 Z M122 405 L102 308 L450 308 L472 411 Q466 456 426 487 Q386 518 320 518 Q254 518 202.5 485.5 Q151 453 122 405 Z " />
<glyph glyph-name="f" unicode="f" horiz-adv-x="331" d="M421 707 L415 682 Q387 686 357 686 Q297 686 260.5 663 Q224 640 207 612 L191 534 L364 534 L358 508 L185 508 L75 0 L47 0 L157 508 L75 508 L81 534 L163 534 L182 624 Q201 657 243 685 Q285 713 357 713 Q397 713 421 707 Z " />
<glyph glyph-name="g" unicode="g" horiz-adv-x="534" d="M512 534 L384 -59 Q351 -111 296.5 -144 Q242 -177 162 -177 Q109 -177 70 -160.5 Q31 -144 9.5 -120.5 Q-12 -97 -19 -77 L-15 -56 L4 -56 Q19 -96 60 -122.5 Q101 -149 165 -149 Q229 -149 278 -121 Q327 -93 359 -46 L387 84 Q355 54 309 35 Q263 16 204 16 Q128 16 87 48 Q46 80 32 115 L104 447 Q133 484 182 515 Q231 546 307 546 Q366 546 407.5 526 Q449 506 471 475 L484 534 L512 534 Z M396 127 L463 442 Q444 475 404 496.5 Q364 518 306 518 Q244 518 199.5 492 Q155 466 128 434 L62 122 Q75 91 108.5 67.5 Q142 44 204 44 Q265 44 314.5 67.5 Q364 91 396 127 Z " />
<glyph glyph-name="h" unicode="h" horiz-adv-x="544" d="M508 447 L411 0 L383 0 L478 440 Q466 469 430 493.5 Q394 518 329 518 Q272 518 223 493.5 Q174 469 144 434 L50 0 L22 0 L173 700 L201 700 L153 475 Q183 506 228.5 526 Q274 546 332 546 Q408 546 451.5 514 Q495 482 508 447 Z " />
<glyph glyph-name="i" unicode="i" horiz-adv-x="196" d="M54 0 L26 0 L142 534 L170 534 L54 0 Z M214 696 L206 662 Q197 653 181 653 Q173 653 166.5 656 Q160 659 158 662 L166 696 Q175 705 192 705 Q200 705 206 702 Q212 699 214 696 Z " />
<glyph glyph-name="j" unicode="j" horiz-adv-x="188" d="M40 -50 Q11 -102 -48 -140 Q-107 -178 -186 -178 L-180 -150 Q-116 -150 -65.5 -117.5 Q-15 -85 15 -37 L138 534 L166 534 L40 -50 Z M210 696 L202 662 Q193 653 177 653 Q169 653 162.5 656 Q156 659 154 662 L162 696 Q171 705 188 705 Q196 705 202 702 Q208 699 210 696 Z " />
<glyph glyph-name="k" unicode="k" horiz-adv-x="485" d="M407 0 L395 0 L226 297 L91 189 L50 0 L22 0 L173 700 L201 700 L99 229 L475 534 L493 534 L487 508 L249 316 L413 26 L407 0 Z " />
<glyph glyph-name="l" unicode="l" horiz-adv-x="188" d="M50 0 L22 0 L173 700 L201 700 L50 0 Z " />
<glyph glyph-name="m" unicode="m" horiz-adv-x="785" d="M750 457 L652 0 L624 0 L721 447 Q713 475 685 496.5 Q657 518 607 518 Q556 518 514 495.5 Q472 473 445 438 L351 0 L323 0 L420 447 Q412 475 384 496.5 Q356 518 306 518 Q256 518 213.5 495.5 Q171 473 144 439 L50 0 L22 0 L138 534 L166 534 L154 481 Q180 509 218.5 527.5 Q257 546 307 546 Q363 546 395.5 523.5 Q428 501 443 471 Q470 502 511 524 Q552 546 608 546 Q672 546 706 517.5 Q740 489 750 457 Z " />
<glyph glyph-name="n" unicode="n" horiz-adv-x="544" d="M508 447 L411 0 L383 0 L478 440 Q466 469 429.5 493.5 Q393 518 333 518 Q273 518 223.5 494.5 Q174 471 144 436 L50 0 L22 0 L138 534 L166 534 L153 478 Q184 508 230 527 Q276 546 335 546 Q409 546 452 514 Q495 482 508 447 Z " />
<glyph glyph-name="o" unicode="o" horiz-adv-x="534" d="M502 418 L436 116 Q405 63 348 25.5 Q291 -12 212 -12 Q133 -12 87.5 27 Q42 66 32 116 L98 418 Q129 471 185.5 508.5 Q242 546 321 546 Q401 546 446.5 507 Q492 468 502 418 Z M122 404 L62 123 Q71 76 109 46 Q147 16 213 16 Q279 16 331.5 48.5 Q384 81 412 130 L472 411 Q463 458 425 488 Q387 518 321 518 Q255 518 203 485 Q151 452 122 404 Z " />
<glyph glyph-name="p" unicode="p" horiz-adv-x="534" d="M508 447 L430 87 Q355 -12 230 -12 Q171 -12 128.5 8.5 Q86 29 64 60 L15 -166 L-13 -166 L138 534 L166 534 L153 477 Q184 507 229 526.5 Q274 546 332 546 Q408 546 451.5 514 Q495 482 508 447 Z M478 440 Q467 469 429 493.5 Q391 518 331 518 Q271 518 223.5 495 Q176 472 144 436 L71 94 Q92 60 133 38 Q174 16 230 16 Q292 16 336 41.5 Q380 67 406 100 L478 440 Z " />
<glyph glyph-name="q" unicode="q" horiz-adv-x="534" d="M512 534 L361 -166 L333 -166 L380 55 Q349 26 303.5 7 Q258 -12 200 -12 Q124 -12 82 20 Q40 52 26 87 L104 447 Q133 484 182 515 Q231 546 307 546 Q366 546 407.5 525.5 Q449 505 471 474 L484 534 L512 534 Z M389 98 L463 442 Q443 476 403.5 497 Q364 518 306 518 Q244 518 199.5 492 Q155 466 128 434 L56 94 Q69 64 104.5 40 Q140 16 202 16 Q262 16 310 39 Q358 62 389 98 Z " />
<glyph glyph-name="r" unicode="r" horiz-adv-x="329" d="M362 534 L355 505 L334 506 Q275 506 225.5 484.5 Q176 463 142 429 L50 0 L22 0 L138 534 L166 534 L151 467 Q229 535 334 535 Q351 535 362 534 Z " />
<glyph glyph-name="s" unicode="s" horiz-adv-x="464" d="M447 468 L443 448 L423 448 Q410 476 372 497 Q334 518 283 518 Q235 518 195.5 500.5 Q156 483 128 455 L107 360 Q117 343 139 329 Q161 315 207 300 L275 278 Q382 244 399 196 L374 79 Q349 45 300 16.5 Q251 -12 182 -12 Q112 -12 68.5 17.5 Q25 47 10 79 L14 99 L33 99 Q48 65 86.5 40.5 Q125 16 185 16 Q240 16 281.5 38 Q323 60 349 92 L370 189 Q361 210 335.5 224.5 Q310 239 262 254 L193 276 Q142 292 114 313 Q86 334 78 353 L103 468 Q126 497 174 521.5 Q222 546 286 546 Q348 546 390 521 Q432 496 447 468 Z " />
<glyph glyph-name="t" unicode="t" horiz-adv-x="341" d="M185 508 L95 91 Q103 65 130.5 43 Q158 21 218 21 Q249 21 274 26 L269 0 Q244 -7 212 -7 Q144 -7 110.5 20.5 Q77 48 65 82 L157 508 L75 508 L81 534 L162 534 L187 650 L215 650 L190 534 L364 534 L358 508 L185 508 Z " />
<glyph glyph-name="u" unicode="u" horiz-adv-x="534" d="M512 534 L396 0 L368 0 L379 50 Q313 -12 207 -12 Q134 -12 92 18 Q50 48 35 80 L133 534 L161 534 L65 90 Q78 62 113.5 39 Q149 16 209 16 Q318 16 389 91 L484 534 L512 534 Z " />
<glyph glyph-name="v" unicode="v" horiz-adv-x="490" d="M208 0 L166 0 L92 508 L98 534 L116 534 L190 27 L193 27 L486 534 L508 534 L502 508 L208 0 Z " />
<glyph glyph-name="w" unicode="w" horiz-adv-x="754" d="M517 0 L475 0 L431 509 L428 509 L163 0 L121 0 L97 508 L103 534 L123 534 L145 27 L148 27 L412 534 L456 534 L499 27 L502 27 L744 534 L767 534 L761 508 L517 0 Z " />
<glyph glyph-name="x" unicode="x" horiz-adv-x="452" d="M245 271 L355 26 L349 0 L338 0 L226 251 L224 251 L4 0 L-13 0 L-7 26 L210 274 L105 508 L111 534 L123 534 L229 295 L231 295 L439 534 L457 534 L451 508 L245 271 Z " />
<glyph glyph-name="y" unicode="y" horiz-adv-x="488" d="M486 534 L510 534 L504 509 L161 -99 Q126 -140 83 -156 Q40 -172 -10 -172 Q-32 -172 -47 -169 L-41 -142 Q-26 -144 -5 -144 Q41 -144 74 -129 Q107 -114 134 -86 L177 -9 L102 506 L108 534 L127 534 L198 30 L201 30 L486 534 Z " />
<glyph glyph-name="z" unicode="z" horiz-adv-x="456" d="M20 26 L369 26 L363 0 L-23 0 L-18 24 L435 508 L97 508 L103 534 L479 534 L474 510 L20 26 Z " />
<glyph glyph-name="agrave" unicode="&#xe0;" horiz-adv-x="528" d="M486 418 L395 0 L367 0 L383 70 Q351 35 302 11.5 Q253 -12 189 -12 Q119 -12 77 14.5 Q35 41 18 72 L51 225 Q62 240 86.5 259.5 Q111 279 150.5 293.5 Q190 308 239 308 L434 308 L456 411 Q448 456 407.5 487 Q367 518 302 518 Q242 518 198 492.5 Q154 467 131 435 L105 435 L109 455 Q135 487 185 516.5 Q235 546 303 546 Q357 546 396.5 526.5 Q436 507 458 478 Q480 449 486 418 Z M392 113 L428 282 L248 282 Q184 282 141 260.5 Q98 239 76 213 L48 79 Q63 55 96.5 35.5 Q130 16 191 16 Q256 16 308 44 Q360 72 392 113 Z M345 605 L329 605 L278 739 L282 759 L302 759 L349 621 L345 605 Z " />
<glyph glyph-name="aacute" unicode="&#xe1;" horiz-adv-x="528" d="M486 418 L395 0 L367 0 L383 70 Q351 35 302 11.5 Q253 -12 189 -12 Q119 -12 77 14.5 Q35 41 18 72 L51 225 Q62 240 86.5 259.5 Q111 279 150.5 293.5 Q190 308 239 308 L434 308 L456 411 Q448 456 407.5 487 Q367 518 302 518 Q242 518 198 492.5 Q154 467 131 435 L105 435 L109 455 Q135 487 185 516.5 Q235 546 303 546 Q357 546 396.5 526.5 Q436 507 458 478 Q480 449 486 418 Z M392 113 L428 282 L248 282 Q184 282 141 260.5 Q98 239 76 213 L48 79 Q63 55 96.5 35.5 Q130 16 191 16 Q256 16 308 44 Q360 72 392 113 Z M354 605 L333 605 L337 621 L444 759 L469 759 L465 739 L354 605 Z " />
<glyph glyph-name="acircumflex" unicode="&#xe2;" horiz-adv-x="528" d="M486 418 L395 0 L367 0 L383 70 Q351 35 302 11.5 Q253 -12 189 -12 Q119 -12 77 14.5 Q35 41 18 72 L51 225 Q62 240 86.5 259.5 Q111 279 150.5 293.5 Q190 308 239 308 L434 308 L456 411 Q448 456 407.5 487 Q367 518 302 518 Q242 518 198 492.5 Q154 467 131 435 L105 435 L109 455 Q135 487 185 516.5 Q235 546 303 546 Q357 546 396.5 526.5 Q436 507 458 478 Q480 449 486 418 Z M392 113 L428 282 L248 282 Q184 282 141 260.5 Q98 239 76 213 L48 79 Q63 55 96.5 35.5 Q130 16 191 16 Q256 16 308 44 Q360 72 392 113 Z M456 605 L442 605 L369 740 L236 605 L216 605 L220 621 L350 759 L390 759 L460 621 L456 605 Z " />
<glyph glyph-name="atilde" unicode="&#xe3;" horiz-adv-x="528" d="M486 418 L395 0 L367 0 L383 70 Q351 35 302 11.5 Q253 -12 189 -12 Q119 -12 77 14.5 Q35 41 18 72 L51 225 Q62 240 86.5 259.5 Q111 279 150.5 293.5 Q190 308 239 308 L434 308 L456 411 Q448 456 407.5 487 Q367 518 302 518 Q242 518 198 492.5 Q154 467 131 435 L105 435 L109 455 Q135 487 185 516.5 Q235 546 303 546 Q357 546 396.5 526.5 Q436 507 458 478 Q480 449 486 418 Z M392 113 L428 282 L248 282 Q184 282 141 260.5 Q98 239 76 213 L48 79 Q63 55 96.5 35.5 Q130 16 191 16 Q256 16 308 44 Q360 72 392 113 Z M360 688 Q377 675 390 668 Q403 661 418 661 Q448 661 473 694 L477 712 L501 712 L495 685 Q480 661 461.5 648.5 Q443 636 416 636 Q397 636 382 643.5 Q367 651 347 666 Q329 679 315.5 686 Q302 693 286 693 Q266 693 254 684 Q242 675 230 661 L226 642 L202 642 L208 669 Q237 718 290 718 Q309 718 323.5 710.5 Q338 703 360 688 Z " />
<glyph glyph-name="adieresis" unicode="&#xe4;" horiz-adv-x="528" d="M486 418 L395 0 L367 0 L383 70 Q351 35 302 11.5 Q253 -12 189 -12 Q119 -12 77 14.5 Q35 41 18 72 L51 225 Q62 240 86.5 259.5 Q111 279 150.5 293.5 Q190 308 239 308 L434 308 L456 411 Q448 456 407.5 487 Q367 518 302 518 Q242 518 198 492.5 Q154 467 131 435 L105 435 L109 455 Q135 487 185 516.5 Q235 546 303 546 Q357 546 396.5 526.5 Q436 507 458 478 Q480 449 486 418 Z M392 113 L428 282 L248 282 Q184 282 141 260.5 Q98 239 76 213 L48 79 Q63 55 96.5 35.5 Q130 16 191 16 Q256 16 308 44 Q360 72 392 113 Z M290 693 L282 657 Q280 654 272 651 Q264 648 256 648 Q248 648 241.5 651 Q235 654 232 657 L240 693 Q243 696 251 699 Q259 702 267 702 Q275 702 281.5 699 Q288 696 290 693 Z M469 693 L461 657 Q459 654 451 651 Q443 648 435 648 Q427 648 420.5 651 Q414 654 411 657 L419 693 Q422 696 430 699 Q438 702 446 702 Q454 702 460.5 699 Q467 696 469 693 Z " />
<glyph glyph-name="amacron" unicode="&#x101;" horiz-adv-x="528" d="M486 418 L395 0 L367 0 L383 70 Q351 35 302 11.5 Q253 -12 189 -12 Q119 -12 77 14.5 Q35 41 18 72 L51 225 Q62 240 86.5 259.5 Q111 279 150.5 293.5 Q190 308 239 308 L434 308 L456 411 Q448 456 407.5 487 Q367 518 302 518 Q242 518 198 492.5 Q154 467 131 435 L105 435 L109 455 Q135 487 185 516.5 Q235 546 303 546 Q357 546 396.5 526.5 Q436 507 458 478 Q480 449 486 418 Z M392 113 L428 282 L248 282 Q184 282 141 260.5 Q98 239 76 213 L48 79 Q63 55 96.5 35.5 Q130 16 191 16 Q256 16 308 44 Q360 72 392 113 Z M491 674 L211 674 L217 700 L497 700 L491 674 Z " />
<glyph glyph-name="abreve" unicode="&#x103;" horiz-adv-x="528" d="M486 418 L395 0 L367 0 L383 70 Q351 35 302 11.5 Q253 -12 189 -12 Q119 -12 77 14.5 Q35 41 18 72 L51 225 Q62 240 86.5 259.5 Q111 279 150.5 293.5 Q190 308 239 308 L434 308 L456 411 Q448 456 407.5 487 Q367 518 302 518 Q242 518 198 492.5 Q154 467 131 435 L105 435 L109 455 Q135 487 185 516.5 Q235 546 303 546 Q357 546 396.5 526.5 Q436 507 458 478 Q480 449 486 418 Z M392 113 L428 282 L248 282 Q184 282 141 260.5 Q98 239 76 213 L48 79 Q63 55 96.5 35.5 Q130 16 191 16 Q256 16 308 44 Q360 72 392 113 Z M469 679 Q426 616 344 616 Q295 616 268.5 636.5 Q242 657 237 679 L245 722 L272 722 L265 688 Q267 673 286.5 657 Q306 641 345 641 Q384 641 409.5 657 Q435 673 443 688 L450 722 L477 722 L469 679 Z " />
<glyph glyph-name="aring" unicode="&#xe5;" horiz-adv-x="528" d="M486 418 L395 0 L367 0 L383 70 Q351 35 302 11.5 Q253 -12 189 -12 Q119 -12 77 14.5 Q35 41 18 72 L51 225 Q62 240 86.5 259.5 Q111 279 150.5 293.5 Q190 308 239 308 L434 308 L456 411 Q448 456 407.5 487 Q367 518 302 518 Q242 518 198 492.5 Q154 467 131 435 L105 435 L109 455 Q135 487 185 516.5 Q235 546 303 546 Q357 546 396.5 526.5 Q436 507 458 478 Q480 449 486 418 Z M392 113 L428 282 L248 282 Q184 282 141 260.5 Q98 239 76 213 L48 79 Q63 55 96.5 35.5 Q130 16 191 16 Q256 16 308 44 Q360 72 392 113 Z M450 725 L433 646 Q420 628 395.5 615 Q371 602 340 602 Q309 602 286.5 615.5 Q264 629 257 646 L274 725 Q286 743 311 756 Q336 769 367 769 Q398 769 420.5 755.5 Q443 742 450 725 Z M298 717 L284 654 Q290 643 304.5 635 Q319 627 341 627 Q363 627 380.5 635 Q398 643 408 654 L422 717 Q417 728 402.5 736 Q388 744 366 744 Q325 744 298 717 Z " />
<glyph glyph-name="aogonek" unicode="&#x105;" horiz-adv-x="528" d="M268 -110 L259 -154 Q261 -164 276 -172 Q291 -180 310 -180 Q329 -180 341.5 -177 Q354 -174 371 -166 L366 -192 Q340 -205 308 -205 Q279 -205 257.5 -192 Q236 -179 232 -161 L245 -100 Q276 -49 369 7 L383 70 Q351 35 302 11.5 Q253 -12 189 -12 Q119 -12 77 14.5 Q35 41 18 72 L51 225 Q62 240 86.5 259.5 Q111 279 150.5 293.5 Q190 308 239 308 L434 308 L456 411 Q448 456 407.5 487 Q367 518 302 518 Q242 518 198 492.5 Q154 467 131 435 L105 435 L109 455 Q135 487 185 516.5 Q235 546 303 546 Q357 546 396.5 526.5 Q436 507 458 478 Q480 449 486 418 L395 0 Q339 -36 309 -65 Q279 -94 268 -110 Z M392 113 L428 282 L248 282 Q184 282 141 260.5 Q98 239 76 213 L48 79 Q63 55 96.5 35.5 Q130 16 191 16 Q256 16 308 44 Q360 72 392 113 Z " />
<glyph glyph-name="ae" unicode="&#xe6;" horiz-adv-x="889" d="M456 282 L422 123 Q431 77 469.5 46.5 Q508 16 574 16 Q640 16 691.5 49 Q743 82 775 136 L801 136 L796 116 Q766 64 709.5 26 Q653 -12 573 -12 Q506 -12 463 16.5 Q420 45 401 87 Q368 47 313.5 17.5 Q259 -12 189 -12 Q119 -12 77 14.5 Q35 41 18 72 L51 225 Q62 240 86.5 259.5 Q111 279 150.5 293.5 Q190 308 239 308 L434 308 L457 412 Q448 456 407.5 487 Q367 518 302 518 Q242 518 198 492.5 Q154 467 131 435 L105 435 L109 455 Q135 487 185 516.5 Q235 546 303 546 Q370 546 414 517 Q458 488 477 446 Q510 489 561.5 517.5 Q613 546 680 546 Q734 546 773.5 527 Q813 508 834.5 478.5 Q856 449 862 418 L832 282 L456 282 Z M482 405 L462 308 L810 308 L832 411 Q826 456 786 487 Q746 518 680 518 Q614 518 562.5 485.5 Q511 453 482 405 Z M428 282 L248 282 Q184 282 141 260.5 Q98 239 76 213 L48 79 Q63 55 96.5 35.5 Q130 16 191 16 Q253 16 304.5 45.5 Q356 75 393 119 L428 282 Z " />
<glyph glyph-name="cacute" unicode="&#x107;" horiz-adv-x="514" d="M502 418 L497 398 L477 398 Q469 450 429.5 484 Q390 518 321 518 Q255 518 202.5 485.5 Q150 453 122 405 L62 123 Q71 77 109.5 46.5 Q148 16 214 16 Q281 16 333 49.5 Q385 83 416 136 L441 136 L436 116 Q408 65 350 26.5 Q292 -12 213 -12 Q133 -12 87.5 27 Q42 66 32 116 L98 418 Q128 470 185 508 Q242 546 323 546 Q401 546 446.5 507 Q492 468 502 418 Z M355 605 L334 605 L338 621 L445 759 L470 759 L466 739 L355 605 Z " />
<glyph glyph-name="ccircumflex" unicode="&#x109;" horiz-adv-x="514" d="M502 418 L497 398 L477 398 Q469 450 429.5 484 Q390 518 321 518 Q255 518 202.5 485.5 Q150 453 122 405 L62 123 Q71 77 109.5 46.5 Q148 16 214 16 Q281 16 333 49.5 Q385 83 416 136 L441 136 L436 116 Q408 65 350 26.5 Q292 -12 213 -12 Q133 -12 87.5 27 Q42 66 32 116 L98 418 Q128 470 185 508 Q242 546 323 546 Q401 546 446.5 507 Q492 468 502 418 Z M457 605 L443 605 L370 740 L237 605 L217 605 L221 621 L351 759 L391 759 L461 621 L457 605 Z " />
<glyph glyph-name="ccaron" unicode="&#x10d;" horiz-adv-x="514" d="M502 418 L497 398 L477 398 Q469 450 429.5 484 Q390 518 321 518 Q255 518 202.5 485.5 Q150 453 122 405 L62 123 Q71 77 109.5 46.5 Q148 16 214 16 Q281 16 333 49.5 Q385 83 416 136 L441 136 L436 116 Q408 65 350 26.5 Q292 -12 213 -12 Q133 -12 87.5 27 Q42 66 32 116 L98 418 Q128 470 185 508 Q242 546 323 546 Q401 546 446.5 507 Q492 468 502 418 Z M357 605 L317 605 L247 743 L251 759 L266 759 L339 625 L472 759 L491 759 L487 743 L357 605 Z " />
<glyph glyph-name="cdotaccent" unicode="&#x10b;" horiz-adv-x="514" d="M502 418 L497 398 L477 398 Q469 450 429.5 484 Q390 518 321 518 Q255 518 202.5 485.5 Q150 453 122 405 L62 123 Q71 77 109.5 46.5 Q148 16 214 16 Q281 16 333 49.5 Q385 83 416 136 L441 136 L436 116 Q408 65 350 26.5 Q292 -12 213 -12 Q133 -12 87.5 27 Q42 66 32 116 L98 418 Q128 470 185 508 Q242 546 323 546 Q401 546 446.5 507 Q492 468 502 418 Z M381 696 L373 662 Q364 653 348 653 Q340 653 333.5 656 Q327 659 325 662 L333 696 Q342 705 359 705 Q367 705 373 702 Q379 699 381 696 Z " />
<glyph glyph-name="ccedilla" unicode="&#xe7;" horiz-adv-x="514" d="M502 418 L497 398 L477 398 Q469 450 429.5 484 Q390 518 321 518 Q255 518 202.5 485.5 Q150 453 122 405 L62 123 Q71 77 109.5 46.5 Q148 16 214 16 Q281 16 333 49.5 Q385 83 416 136 L441 136 L436 116 Q407 65 351 27 Q295 -11 217 -12 L187 -63 L207 -63 Q235 -63 254 -76 Q273 -89 279 -106 L265 -171 Q252 -189 230.5 -201.5 Q209 -214 180 -214 Q132 -214 96 -187 L108 -165 Q124 -178 140.5 -184.5 Q157 -191 181 -191 Q201 -191 217.5 -182 Q234 -173 243 -162 L253 -111 Q250 -101 237.5 -93 Q225 -85 205 -85 L149 -85 L191 -11 Q121 -5 81 32.5 Q41 70 32 116 L98 418 Q128 470 185 508 Q242 546 323 546 Q401 546 446.5 507 Q492 468 502 418 Z " />
<glyph glyph-name="dcaron" unicode="&#x10f;" horiz-adv-x="650" d="M547 700 L396 0 L368 0 L381 56 Q350 26 304.5 7 Q259 -12 200 -12 Q124 -12 82 20 Q40 52 26 87 L104 447 Q133 484 182 515 Q231 546 307 546 Q366 546 407.5 526 Q449 506 471 475 L519 700 L547 700 Z M389 98 L463 441 Q444 474 404 496 Q364 518 306 518 Q244 518 199.5 492 Q155 466 128 434 L56 94 Q69 64 104.5 40 Q140 16 202 16 Q262 16 310 39 Q358 62 389 98 Z M654 555 L634 555 L637 571 L682 700 L709 700 L705 680 L654 555 Z " />
<glyph glyph-name="egrave" unicode="&#xe8;" horiz-adv-x="529" d="M502 418 L472 282 L96 282 L62 123 Q71 77 109.5 46.5 Q148 16 214 16 Q280 16 331.5 49 Q383 82 415 136 L441 136 L436 116 Q406 64 349.5 26 Q293 -12 213 -12 Q133 -12 87.5 27 Q42 66 32 116 L98 418 Q127 469 184 507.5 Q241 546 320 546 Q374 546 413.5 527 Q453 508 474.5 478.5 Q496 449 502 418 Z M122 405 L102 308 L450 308 L472 411 Q466 456 426 487 Q386 518 320 518 Q254 518 202.5 485.5 Q151 453 122 405 Z M355 605 L339 605 L288 739 L292 759 L312 759 L359 621 L355 605 Z " />
<glyph glyph-name="eacute" unicode="&#xe9;" horiz-adv-x="529" d="M502 418 L472 282 L96 282 L62 123 Q71 77 109.5 46.5 Q148 16 214 16 Q280 16 331.5 49 Q383 82 415 136 L441 136 L436 116 Q406 64 349.5 26 Q293 -12 213 -12 Q133 -12 87.5 27 Q42 66 32 116 L98 418 Q127 469 184 507.5 Q241 546 320 546 Q374 546 413.5 527 Q453 508 474.5 478.5 Q496 449 502 418 Z M122 405 L102 308 L450 308 L472 411 Q466 456 426 487 Q386 518 320 518 Q254 518 202.5 485.5 Q151 453 122 405 Z M364 605 L343 605 L347 621 L454 759 L479 759 L475 739 L364 605 Z " />
<glyph glyph-name="ecircumflex" unicode="&#xea;" horiz-adv-x="529" d="M502 418 L472 282 L96 282 L62 123 Q71 77 109.5 46.5 Q148 16 214 16 Q280 16 331.5 49 Q383 82 415 136 L441 136 L436 116 Q406 64 349.5 26 Q293 -12 213 -12 Q133 -12 87.5 27 Q42 66 32 116 L98 418 Q127 469 184 507.5 Q241 546 320 546 Q374 546 413.5 527 Q453 508 474.5 478.5 Q496 449 502 418 Z M122 405 L102 308 L450 308 L472 411 Q466 456 426 487 Q386 518 320 518 Q254 518 202.5 485.5 Q151 453 122 405 Z M466 605 L452 605 L379 740 L246 605 L226 605 L230 621 L360 759 L400 759 L470 621 L466 605 Z " />
<glyph glyph-name="ecaron" unicode="&#x11b;" horiz-adv-x="529" d="M502 418 L472 282 L96 282 L62 123 Q71 77 109.5 46.5 Q148 16 214 16 Q280 16 331.5 49 Q383 82 415 136 L441 136 L436 116 Q406 64 349.5 26 Q293 -12 213 -12 Q133 -12 87.5 27 Q42 66 32 116 L98 418 Q127 469 184 507.5 Q241 546 320 546 Q374 546 413.5 527 Q453 508 474.5 478.5 Q496 449 502 418 Z M122 405 L102 308 L450 308 L472 411 Q466 456 426 487 Q386 518 320 518 Q254 518 202.5 485.5 Q151 453 122 405 Z M366 605 L326 605 L256 743 L260 759 L275 759 L348 625 L481 759 L500 759 L496 743 L366 605 Z " />
<glyph glyph-name="edieresis" unicode="&#xeb;" horiz-adv-x="529" d="M502 418 L472 282 L96 282 L62 123 Q71 77 109.5 46.5 Q148 16 214 16 Q280 16 331.5 49 Q383 82 415 136 L441 136 L436 116 Q406 64 349.5 26 Q293 -12 213 -12 Q133 -12 87.5 27 Q42 66 32 116 L98 418 Q127 469 184 507.5 Q241 546 320 546 Q374 546 413.5 527 Q453 508 474.5 478.5 Q496 449 502 418 Z M122 405 L102 308 L450 308 L472 411 Q466 456 426 487 Q386 518 320 518 Q254 518 202.5 485.5 Q151 453 122 405 Z M300 693 L292 657 Q290 654 282 651 Q274 648 266 648 Q258 648 251.5 651 Q245 654 242 657 L250 693 Q253 696 261 699 Q269 702 277 702 Q285 702 291.5 699 Q298 696 300 693 Z M479 693 L471 657 Q469 654 461 651 Q453 648 445 648 Q437 648 430.5 651 Q424 654 421 657 L429 693 Q432 696 440 699 Q448 702 456 702 Q464 702 470.5 699 Q477 696 479 693 Z " />
<glyph glyph-name="emacron" unicode="&#x113;" horiz-adv-x="529" d="M502 418 L472 282 L96 282 L62 123 Q71 77 109.5 46.5 Q148 16 214 16 Q280 16 331.5 49 Q383 82 415 136 L441 136 L436 116 Q406 64 349.5 26 Q293 -12 213 -12 Q133 -12 87.5 27 Q42 66 32 116 L98 418 Q127 469 184 507.5 Q241 546 320 546 Q374 546 413.5 527 Q453 508 474.5 478.5 Q496 449 502 418 Z M122 405 L102 308 L450 308 L472 411 Q466 456 426 487 Q386 518 320 518 Q254 518 202.5 485.5 Q151 453 122 405 Z M501 674 L221 674 L227 700 L507 700 L501 674 Z " />
<glyph glyph-name="ebreve" unicode="&#x115;" horiz-adv-x="529" d="M502 418 L472 282 L96 282 L62 123 Q71 77 109.5 46.5 Q148 16 214 16 Q280 16 331.5 49 Q383 82 415 136 L441 136 L436 116 Q406 64 349.5 26 Q293 -12 213 -12 Q133 -12 87.5 27 Q42 66 32 116 L98 418 Q127 469 184 507.5 Q241 546 320 546 Q374 546 413.5 527 Q453 508 474.5 478.5 Q496 449 502 418 Z M122 405 L102 308 L450 308 L472 411 Q466 456 426 487 Q386 518 320 518 Q254 518 202.5 485.5 Q151 453 122 405 Z M479 679 Q436 616 354 616 Q305 616 278.5 636.5 Q252 657 247 679 L255 722 L282 722 L275 688 Q277 673 296.5 657 Q316 641 355 641 Q394 641 419.5 657 Q445 673 453 688 L460 722 L487 722 L479 679 Z " />
<glyph glyph-name="edotaccent" unicode="&#x117;" horiz-adv-x="529" d="M502 418 L472 282 L96 282 L62 123 Q71 77 109.5 46.5 Q148 16 214 16 Q280 16 331.5 49 Q383 82 415 136 L441 136 L436 116 Q406 64 349.5 26 Q293 -12 213 -12 Q133 -12 87.5 27 Q42 66 32 116 L98 418 Q127 469 184 507.5 Q241 546 320 546 Q374 546 413.5 527 Q453 508 474.5 478.5 Q496 449 502 418 Z M122 405 L102 308 L450 308 L472 411 Q466 456 426 487 Q386 518 320 518 Q254 518 202.5 485.5 Q151 453 122 405 Z M390 696 L382 662 Q373 653 357 653 Q349 653 342.5 656 Q336 659 334 662 L342 696 Q351 705 368 705 Q376 705 382 702 Q388 699 390 696 Z " />
<glyph glyph-name="eogonek" unicode="&#x119;" horiz-adv-x="529" d="M96 282 L62 123 Q71 77 109.5 46.5 Q148 16 214 16 Q280 16 331.5 49 Q383 82 415 136 L441 136 L436 116 Q413 77 368 37 Q315 -9 282.5 -50 Q250 -91 242 -110 L233 -154 Q235 -164 250 -172 Q265 -180 284 -180 Q303 -180 315.5 -177 Q328 -174 345 -166 L340 -192 Q314 -205 282 -205 Q253 -205 231.5 -192 Q210 -179 206 -161 L219 -100 Q236 -63 297 1 Q256 -12 213 -12 Q133 -12 87.5 27 Q42 66 32 116 L98 418 Q127 469 184 507.5 Q241 546 320 546 Q374 546 413.5 527 Q453 508 474.5 478.5 Q496 449 502 418 L472 282 L96 282 Z M102 308 L450 308 L472 411 Q466 456 426 487 Q386 518 320 518 Q254 518 202.5 485.5 Q151 453 122 405 L102 308 Z " />
<glyph glyph-name="gcircumflex" unicode="&#x11d;" horiz-adv-x="534" d="M512 534 L384 -59 Q351 -111 296.5 -144 Q242 -177 162 -177 Q109 -177 70 -160.5 Q31 -144 9.5 -120.5 Q-12 -97 -19 -77 L-15 -56 L4 -56 Q19 -96 60 -122.5 Q101 -149 165 -149 Q229 -149 278 -121 Q327 -93 359 -46 L387 84 Q355 54 309 35 Q263 16 204 16 Q128 16 87 48 Q46 80 32 115 L104 447 Q133 484 182 515 Q231 546 307 546 Q366 546 407.5 526 Q449 506 471 475 L484 534 L512 534 Z M396 127 L463 442 Q444 475 404 496.5 Q364 518 306 518 Q244 518 199.5 492 Q155 466 128 434 L62 122 Q75 91 108.5 67.5 Q142 44 204 44 Q265 44 314.5 67.5 Q364 91 396 127 Z M459 605 L445 605 L372 740 L239 605 L219 605 L223 621 L353 759 L393 759 L463 621 L459 605 Z " />
<glyph glyph-name="gbreve" unicode="&#x11f;" horiz-adv-x="534" d="M512 534 L384 -59 Q351 -111 296.5 -144 Q242 -177 162 -177 Q109 -177 70 -160.5 Q31 -144 9.5 -120.5 Q-12 -97 -19 -77 L-15 -56 L4 -56 Q19 -96 60 -122.5 Q101 -149 165 -149 Q229 -149 278 -121 Q327 -93 359 -46 L387 84 Q355 54 309 35 Q263 16 204 16 Q128 16 87 48 Q46 80 32 115 L104 447 Q133 484 182 515 Q231 546 307 546 Q366 546 407.5 526 Q449 506 471 475 L484 534 L512 534 Z M396 127 L463 442 Q444 475 404 496.5 Q364 518 306 518 Q244 518 199.5 492 Q155 466 128 434 L62 122 Q75 91 108.5 67.5 Q142 44 204 44 Q265 44 314.5 67.5 Q364 91 396 127 Z M472 679 Q429 616 347 616 Q298 616 271.5 636.5 Q245 657 240 679 L248 722 L275 722 L268 688 Q270 673 289.5 657 Q309 641 348 641 Q387 641 412.5 657 Q438 673 446 688 L453 722 L480 722 L472 679 Z " />
<glyph glyph-name="gdotaccent" unicode="&#x121;" horiz-adv-x="534" d="M512 534 L384 -59 Q351 -111 296.5 -144 Q242 -177 162 -177 Q109 -177 70 -160.5 Q31 -144 9.5 -120.5 Q-12 -97 -19 -77 L-15 -56 L4 -56 Q19 -96 60 -122.5 Q101 -149 165 -149 Q229 -149 278 -121 Q327 -93 359 -46 L387 84 Q355 54 309 35 Q263 16 204 16 Q128 16 87 48 Q46 80 32 115 L104 447 Q133 484 182 515 Q231 546 307 546 Q366 546 407.5 526 Q449 506 471 475 L484 534 L512 534 Z M396 127 L463 442 Q444 475 404 496.5 Q364 518 306 518 Q244 518 199.5 492 Q155 466 128 434 L62 122 Q75 91 108.5 67.5 Q142 44 204 44 Q265 44 314.5 67.5 Q364 91 396 127 Z M383 696 L375 662 Q366 653 350 653 Q342 653 335.5 656 Q329 659 327 662 L335 696 Q344 705 361 705 Q369 705 375 702 Q381 699 383 696 Z " />
<glyph glyph-name="gcommaaccent" unicode="&#x123;" horiz-adv-x="534" d="M512 534 L384 -59 Q351 -111 296.5 -144 Q242 -177 162 -177 Q109 -177 70 -160.5 Q31 -144 9.5 -120.5 Q-12 -97 -19 -77 L-15 -56 L4 -56 Q19 -96 60 -122.5 Q101 -149 165 -149 Q229 -149 278 -121 Q327 -93 359 -46 L387 84 Q355 54 309 35 Q263 16 204 16 Q128 16 87 48 Q46 80 32 115 L104 447 Q133 484 182 515 Q231 546 307 546 Q366 546 407.5 526 Q449 506 471 475 L484 534 L512 534 Z M396 127 L463 442 Q444 475 404 496.5 Q364 518 306 518 Q244 518 199.5 492 Q155 466 128 434 L62 122 Q75 91 108.5 67.5 Q142 44 204 44 Q265 44 314.5 67.5 Q364 91 396 127 Z M301 697 L293 661 Q301 661 307 658.5 Q313 656 315 653 L309 623 Q301 615 284 615 Q269 615 263 623 L279 700 Q282 707 291.5 714 Q301 721 314 721 L326 721 L323 703 L313 703 Q307 703 301 697 Z " />
<glyph glyph-name="hcircumflex" unicode="&#x125;" horiz-adv-x="544" d="M508 447 L411 0 L383 0 L478 440 Q466 469 430 493.5 Q394 518 329 518 Q272 518 223 493.5 Q174 469 144 434 L50 0 L22 0 L173 700 L201 700 L153 475 Q183 506 228.5 526 Q274 546 332 546 Q408 546 451.5 514 Q495 482 508 447 Z M498 744 L483 744 L408 868 L277 744 L258 744 L261 760 L389 888 L429 888 L501 760 L498 744 Z " />
<glyph glyph-name="hbar" unicode="&#x127;" horiz-adv-x="559" d="M523 447 L426 0 L398 0 L493 440 Q481 469 445 493.5 Q409 518 344 518 Q287 518 238 493.5 Q189 469 159 434 L65 0 L37 0 L171 620 L116 620 L121 644 L176 644 L188 700 L216 700 L204 644 L422 644 L417 620 L199 620 L168 475 Q198 506 243.5 526 Q289 546 347 546 Q423 546 466.5 514 Q510 482 523 447 Z " />
<glyph glyph-name="igrave" unicode="&#xec;" horiz-adv-x="196" d="M54 0 L26 0 L142 534 L170 534 L54 0 Z M179 605 L163 605 L112 739 L116 759 L136 759 L183 621 L179 605 Z " />
<glyph glyph-name="iacute" unicode="&#xed;" horiz-adv-x="196" d="M54 0 L26 0 L142 534 L170 534 L54 0 Z M188 605 L167 605 L171 621 L278 759 L303 759 L299 739 L188 605 Z " />
<glyph glyph-name="icircumflex" unicode="&#xee;" horiz-adv-x="196" d="M54 0 L26 0 L142 534 L170 534 L54 0 Z M290 605 L276 605 L203 740 L70 605 L50 605 L54 621 L184 759 L224 759 L294 621 L290 605 Z " />
<glyph glyph-name="itilde" unicode="&#x129;" horiz-adv-x="196" d="M54 0 L26 0 L142 534 L170 534 L54 0 Z M194 688 Q211 675 224 668 Q237 661 252 661 Q282 661 307 694 L311 712 L335 712 L329 685 Q314 661 295.5 648.5 Q277 636 250 636 Q231 636 216 643.5 Q201 651 181 666 Q163 679 149.5 686 Q136 693 120 693 Q100 693 88 684 Q76 675 64 661 L60 642 L36 642 L42 669 Q71 718 124 718 Q143 718 157.5 710.5 Q172 703 194 688 Z " />
<glyph glyph-name="idieresis" unicode="&#xef;" horiz-adv-x="196" d="M54 0 L26 0 L142 534 L170 534 L54 0 Z M124 693 L116 657 Q114 654 106 651 Q98 648 90 648 Q82 648 75.5 651 Q69 654 66 657 L74 693 Q77 696 85 699 Q93 702 101 702 Q109 702 115.5 699 Q122 696 124 693 Z M303 693 L295 657 Q293 654 285 651 Q277 648 269 648 Q261 648 254.5 651 Q248 654 245 657 L253 693 Q256 696 264 699 Q272 702 280 702 Q288 702 294.5 699 Q301 696 303 693 Z " />
<glyph glyph-name="imacron" unicode="&#x12b;" horiz-adv-x="196" d="M54 0 L26 0 L142 534 L170 534 L54 0 Z M325 674 L45 674 L51 700 L331 700 L325 674 Z " />
<glyph glyph-name="ibreve" unicode="&#x12d;" horiz-adv-x="196" d="M54 0 L26 0 L142 534 L170 534 L54 0 Z M303 679 Q260 616 178 616 Q129 616 102.5 636.5 Q76 657 71 679 L79 722 L106 722 L99 688 Q101 673 120.5 657 Q140 641 179 641 Q218 641 243.5 657 Q269 673 277 688 L284 722 L311 722 L303 679 Z " />
<glyph glyph-name="iogonek" unicode="&#x12f;" horiz-adv-x="196" d="M214 696 L206 662 Q197 653 181 653 Q173 653 166.5 656 Q160 659 158 662 L166 696 Q175 705 192 705 Q200 705 206 702 Q212 699 214 696 Z M142 534 L170 534 L54 0 Q-2 -36 -32 -65 Q-62 -94 -73 -110 L-82 -154 Q-80 -164 -65 -172 Q-50 -180 -31 -180 Q-12 -180 0.5 -177 Q13 -174 30 -166 L25 -192 Q-1 -205 -33 -205 Q-62 -205 -83.5 -192 Q-105 -179 -109 -161 L-96 -100 Q-65 -49 28 7 L142 534 Z " />
<glyph glyph-name="dotlessi" unicode="&#x131;" horiz-adv-x="196" d="M54 0 L26 0 L142 534 L170 534 L54 0 Z " />
<glyph glyph-name="ij" unicode="&#x133;" horiz-adv-x="384" d="M54 0 L26 0 L142 534 L170 534 L54 0 Z M214 696 L206 662 Q197 653 181 653 Q173 653 166.5 656 Q160 659 158 662 L166 696 Q175 705 192 705 Q200 705 206 702 Q212 699 214 696 Z M236 -50 Q207 -102 148 -140 Q89 -178 10 -178 L16 -150 Q80 -150 130.5 -117.5 Q181 -85 211 -37 L334 534 L362 534 L236 -50 Z M406 696 L398 662 Q389 653 373 653 Q365 653 358.5 656 Q352 659 350 662 L358 696 Q367 705 384 705 Q392 705 398 702 Q404 699 406 696 Z " />
<glyph glyph-name="jcircumflex" unicode="&#x135;" horiz-adv-x="188" d="M40 -50 Q11 -102 -48 -140 Q-107 -178 -186 -178 L-180 -150 Q-116 -150 -65.5 -117.5 Q-15 -85 15 -37 L138 534 L166 534 L40 -50 Z M286 605 L272 605 L199 740 L66 605 L46 605 L50 621 L180 759 L220 759 L290 621 L286 605 Z " />
<glyph glyph-name="kcommaaccent" unicode="&#x137;" horiz-adv-x="485" d="M407 0 L395 0 L226 297 L91 189 L50 0 L22 0 L173 700 L201 700 L99 229 L475 534 L493 534 L487 508 L249 316 L413 26 L407 0 Z M134 -163 L140 -163 Q147 -163 152 -157 L159 -123 Q153 -123 147.5 -120.5 Q142 -118 141 -115 L148 -81 Q156 -73 170 -73 Q176 -73 181 -75.5 Q186 -78 188 -81 L172 -160 Q162 -180 141 -180 L131 -180 L134 -163 Z " />
<glyph glyph-name="lacute" unicode="&#x13a;" horiz-adv-x="188" d="M50 0 L22 0 L173 700 L201 700 L50 0 Z M206 751 L185 751 L188 767 L293 895 L318 895 L314 875 L206 751 Z " />
<glyph glyph-name="lcaron" unicode="&#x13e;" horiz-adv-x="306" d="M50 0 L22 0 L173 700 L201 700 L50 0 Z M309 555 L289 555 L292 571 L337 700 L364 700 L360 680 L309 555 Z " />
<glyph glyph-name="lcommaaccent" unicode="&#x13c;" horiz-adv-x="188" d="M50 0 L22 0 L173 700 L201 700 L50 0 Z M-15 -163 L-9 -163 Q-2 -163 3 -157 L10 -123 Q4 -123 -1.5 -120.5 Q-7 -118 -8 -115 L-1 -81 Q7 -73 21 -73 Q27 -73 32 -75.5 Q37 -78 39 -81 L23 -160 Q13 -180 -8 -180 L-18 -180 L-15 -163 Z " />
<glyph glyph-name="lslash" unicode="&#x142;" horiz-adv-x="332" d="M205 382 L122 0 L94 0 L173 366 L38 297 L45 328 L180 397 L245 700 L273 700 L211 414 L346 483 L340 452 L205 382 Z " />
<glyph glyph-name="ldot" unicode="&#x140;" horiz-adv-x="329" d="M50 0 L22 0 L173 700 L201 700 L50 0 Z M311 383 L303 349 Q294 340 278 340 Q270 340 263.5 343 Q257 346 255 349 L263 383 Q272 392 289 392 Q297 392 303 389 Q309 386 311 383 Z " />
<glyph glyph-name="nacute" unicode="&#x144;" horiz-adv-x="544" d="M508 447 L411 0 L383 0 L478 440 Q466 469 429.5 493.5 Q393 518 333 518 Q273 518 223.5 494.5 Q174 471 144 436 L50 0 L22 0 L138 534 L166 534 L153 478 Q184 508 230 527 Q276 546 335 546 Q409 546 452 514 Q495 482 508 447 Z M362 605 L341 605 L345 621 L452 759 L477 759 L473 739 L362 605 Z " />
<glyph glyph-name="ncaron" unicode="&#x148;" horiz-adv-x="544" d="M508 447 L411 0 L383 0 L478 440 Q466 469 429.5 493.5 Q393 518 333 518 Q273 518 223.5 494.5 Q174 471 144 436 L50 0 L22 0 L138 534 L166 534 L153 478 Q184 508 230 527 Q276 546 335 546 Q409 546 452 514 Q495 482 508 447 Z M364 605 L324 605 L254 743 L258 759 L273 759 L346 625 L479 759 L498 759 L494 743 L364 605 Z " />
<glyph glyph-name="ntilde" unicode="&#xf1;" horiz-adv-x="544" d="M508 447 L411 0 L383 0 L478 440 Q466 469 429.5 493.5 Q393 518 333 518 Q273 518 223.5 494.5 Q174 471 144 436 L50 0 L22 0 L138 534 L166 534 L153 478 Q184 508 230 527 Q276 546 335 546 Q409 546 452 514 Q495 482 508 447 Z M368 688 Q385 675 398 668 Q411 661 426 661 Q456 661 481 694 L485 712 L509 712 L503 685 Q488 661 469.5 648.5 Q451 636 424 636 Q405 636 390 643.5 Q375 651 355 666 Q337 679 323.5 686 Q310 693 294 693 Q274 693 262 684 Q250 675 238 661 L234 642 L210 642 L216 669 Q245 718 298 718 Q317 718 331.5 710.5 Q346 703 368 688 Z " />
<glyph glyph-name="ncommaaccent" unicode="&#x146;" horiz-adv-x="544" d="M508 447 L411 0 L383 0 L478 440 Q466 469 429.5 493.5 Q393 518 333 518 Q273 518 223.5 494.5 Q174 471 144 436 L50 0 L22 0 L138 534 L166 534 L153 478 Q184 508 230 527 Q276 546 335 546 Q409 546 452 514 Q495 482 508 447 Z M163 -163 L169 -163 Q176 -163 181 -157 L188 -123 Q182 -123 176.5 -120.5 Q171 -118 170 -115 L177 -81 Q185 -73 199 -73 Q205 -73 210 -75.5 Q215 -78 217 -81 L201 -160 Q191 -180 170 -180 L160 -180 L163 -163 Z " />
<glyph glyph-name="napostrophe" unicode="&#x149;" horiz-adv-x="544" d="M508 447 L411 0 L383 0 L478 440 Q466 469 429.5 493.5 Q393 518 333 518 Q273 518 223.5 494.5 Q174 471 144 436 L50 0 L22 0 L138 534 L166 534 L153 478 Q184 508 230 527 Q276 546 335 546 Q409 546 452 514 Q495 482 508 447 Z M41 618 L47 618 Q54 618 59 624 L66 658 Q60 658 54.5 660.5 Q49 663 48 666 L55 700 Q63 708 77 708 Q83 708 88 705.5 Q93 703 95 700 L79 621 Q69 601 48 601 L38 601 L41 618 Z " />
<glyph glyph-name="ograve" unicode="&#xf2;" horiz-adv-x="534" d="M502 418 L436 116 Q405 63 348 25.5 Q291 -12 212 -12 Q133 -12 87.5 27 Q42 66 32 116 L98 418 Q129 471 185.5 508.5 Q242 546 321 546 Q401 546 446.5 507 Q492 468 502 418 Z M122 404 L62 123 Q71 76 109 46 Q147 16 213 16 Q279 16 331.5 48.5 Q384 81 412 130 L472 411 Q463 458 425 488 Q387 518 321 518 Q255 518 203 485 Q151 452 122 404 Z M348 605 L332 605 L281 739 L285 759 L305 759 L352 621 L348 605 Z " />
<glyph glyph-name="oacute" unicode="&#xf3;" horiz-adv-x="534" d="M502 418 L436 116 Q405 63 348 25.5 Q291 -12 212 -12 Q133 -12 87.5 27 Q42 66 32 116 L98 418 Q129 471 185.5 508.5 Q242 546 321 546 Q401 546 446.5 507 Q492 468 502 418 Z M122 404 L62 123 Q71 76 109 46 Q147 16 213 16 Q279 16 331.5 48.5 Q384 81 412 130 L472 411 Q463 458 425 488 Q387 518 321 518 Q255 518 203 485 Q151 452 122 404 Z M357 605 L336 605 L340 621 L447 759 L472 759 L468 739 L357 605 Z " />
<glyph glyph-name="ocircumflex" unicode="&#xf4;" horiz-adv-x="534" d="M502 418 L436 116 Q405 63 348 25.5 Q291 -12 212 -12 Q133 -12 87.5 27 Q42 66 32 116 L98 418 Q129 471 185.5 508.5 Q242 546 321 546 Q401 546 446.5 507 Q492 468 502 418 Z M122 404 L62 123 Q71 76 109 46 Q147 16 213 16 Q279 16 331.5 48.5 Q384 81 412 130 L472 411 Q463 458 425 488 Q387 518 321 518 Q255 518 203 485 Q151 452 122 404 Z M459 605 L445 605 L372 740 L239 605 L219 605 L223 621 L353 759 L393 759 L463 621 L459 605 Z " />
<glyph glyph-name="otilde" unicode="&#xf5;" horiz-adv-x="534" d="M502 418 L436 116 Q405 63 348 25.5 Q291 -12 212 -12 Q133 -12 87.5 27 Q42 66 32 116 L98 418 Q129 471 185.5 508.5 Q242 546 321 546 Q401 546 446.5 507 Q492 468 502 418 Z M122 404 L62 123 Q71 76 109 46 Q147 16 213 16 Q279 16 331.5 48.5 Q384 81 412 130 L472 411 Q463 458 425 488 Q387 518 321 518 Q255 518 203 485 Q151 452 122 404 Z M363 688 Q380 675 393 668 Q406 661 421 661 Q451 661 476 694 L480 712 L504 712 L498 685 Q483 661 464.5 648.5 Q446 636 419 636 Q400 636 385 643.5 Q370 651 350 666 Q332 679 318.5 686 Q305 693 289 693 Q269 693 257 684 Q245 675 233 661 L229 642 L205 642 L211 669 Q240 718 293 718 Q312 718 326.5 710.5 Q341 703 363 688 Z " />
<glyph glyph-name="odieresis" unicode="&#xf6;" horiz-adv-x="534" d="M502 418 L436 116 Q405 63 348 25.5 Q291 -12 212 -12 Q133 -12 87.5 27 Q42 66 32 116 L98 418 Q129 471 185.5 508.5 Q242 546 321 546 Q401 546 446.5 507 Q492 468 502 418 Z M122 404 L62 123 Q71 76 109 46 Q147 16 213 16 Q279 16 331.5 48.5 Q384 81 412 130 L472 411 Q463 458 425 488 Q387 518 321 518 Q255 518 203 485 Q151 452 122 404 Z M293 693 L285 657 Q283 654 275 651 Q267 648 259 648 Q251 648 244.5 651 Q238 654 235 657 L243 693 Q246 696 254 699 Q262 702 270 702 Q278 702 284.5 699 Q291 696 293 693 Z M472 693 L464 657 Q462 654 454 651 Q446 648 438 648 Q430 648 423.5 651 Q417 654 414 657 L422 693 Q425 696 433 699 Q441 702 449 702 Q457 702 463.5 699 Q470 696 472 693 Z " />
<glyph glyph-name="omacron" unicode="&#x14d;" horiz-adv-x="534" d="M502 418 L436 116 Q405 63 348 25.5 Q291 -12 212 -12 Q133 -12 87.5 27 Q42 66 32 116 L98 418 Q129 471 185.5 508.5 Q242 546 321 546 Q401 546 446.5 507 Q492 468 502 418 Z M122 404 L62 123 Q71 76 109 46 Q147 16 213 16 Q279 16 331.5 48.5 Q384 81 412 130 L472 411 Q463 458 425 488 Q387 518 321 518 Q255 518 203 485 Q151 452 122 404 Z M494 674 L214 674 L220 700 L500 700 L494 674 Z " />
<glyph glyph-name="obreve" unicode="&#x14f;" horiz-adv-x="534" d="M502 418 L436 116 Q405 63 348 25.5 Q291 -12 212 -12 Q133 -12 87.5 27 Q42 66 32 116 L98 418 Q129 471 185.5 508.5 Q242 546 321 546 Q401 546 446.5 507 Q492 468 502 418 Z M122 404 L62 123 Q71 76 109 46 Q147 16 213 16 Q279 16 331.5 48.5 Q384 81 412 130 L472 411 Q463 458 425 488 Q387 518 321 518 Q255 518 203 485 Q151 452 122 404 Z M472 679 Q429 616 347 616 Q298 616 271.5 636.5 Q245 657 240 679 L248 722 L275 722 L268 688 Q270 673 289.5 657 Q309 641 348 641 Q387 641 412.5 657 Q438 673 446 688 L453 722 L480 722 L472 679 Z " />
<glyph glyph-name="ohungarumlaut" unicode="&#x151;" horiz-adv-x="534" d="M502 418 L436 116 Q405 63 348 25.5 Q291 -12 212 -12 Q133 -12 87.5 27 Q42 66 32 116 L98 418 Q129 471 185.5 508.5 Q242 546 321 546 Q401 546 446.5 507 Q492 468 502 418 Z M122 404 L62 123 Q71 76 109 46 Q147 16 213 16 Q279 16 331.5 48.5 Q384 81 412 130 L472 411 Q463 458 425 488 Q387 518 321 518 Q255 518 203 485 Q151 452 122 404 Z M264 605 L243 605 L247 621 L334 759 L359 759 L355 739 L264 605 Z M424 605 L403 605 L407 621 L494 759 L519 759 L515 739 L424 605 Z " />
<glyph glyph-name="oslash" unicode="&#xf8;" horiz-adv-x="534" d="M522 516 L479 472 Q497 445 502 418 L436 116 Q405 63 348 25.5 Q291 -12 212 -12 Q121 -12 70 43 L29 0 L7 0 L12 18 L54 62 Q36 91 32 116 L98 418 Q129 471 185.5 508.5 Q242 546 321 546 Q369 546 405 531 Q441 516 464 491 L505 534 L527 534 L522 516 Z M76 85 L444 470 Q403 518 321 518 Q255 518 203 485 Q151 452 122 404 L62 123 Q67 100 76 85 Z M458 449 L90 64 Q131 16 213 16 Q279 16 331.5 48.5 Q384 81 412 130 L472 411 Q467 434 458 449 Z " />
<glyph glyph-name="oe" unicode="&#x153;" horiz-adv-x="905" d="M459 223 L438 123 Q447 77 485.5 46.5 Q524 16 590 16 Q656 16 707.5 49 Q759 82 791 136 L817 136 L812 116 Q782 64 725.5 26 Q669 -12 589 -12 Q522 -12 478.5 17 Q435 46 417 88 Q383 44 331.5 16 Q280 -12 212 -12 Q133 -12 87.5 27 Q42 66 32 116 L98 418 Q129 471 185.5 508.5 Q242 546 321 546 Q388 546 431.5 517 Q475 488 493 446 Q526 489 577.5 517.5 Q629 546 696 546 Q750 546 789.5 527 Q829 508 850.5 478.5 Q872 449 878 418 L848 282 L472 282 L459 223 Z M411 127 L452 317 L472 411 Q463 458 425 488 Q387 518 321 518 Q255 518 203 485 Q151 452 122 404 L62 123 Q71 76 109 46 Q147 16 213 16 Q278 16 329.5 47.5 Q381 79 411 127 Z M500 408 L479 311 L478 308 L826 308 L848 411 Q842 456 802 487 Q762 518 696 518 Q631 518 580 486.5 Q529 455 500 408 Z " />
<glyph glyph-name="racute" unicode="&#x155;" horiz-adv-x="329" d="M362 534 L355 505 L334 506 Q275 506 225.5 484.5 Q176 463 142 429 L50 0 L22 0 L138 534 L166 534 L151 467 Q229 535 334 535 Q351 535 362 534 Z M285 605 L264 605 L268 621 L375 759 L400 759 L396 739 L285 605 Z " />
<glyph glyph-name="rcaron" unicode="&#x159;" horiz-adv-x="329" d="M362 534 L355 505 L334 506 Q275 506 225.5 484.5 Q176 463 142 429 L50 0 L22 0 L138 534 L166 534 L151 467 Q229 535 334 535 Q351 535 362 534 Z M287 605 L247 605 L177 743 L181 759 L196 759 L269 625 L402 759 L421 759 L417 743 L287 605 Z " />
<glyph glyph-name="rcommaaccent" unicode="&#x157;" horiz-adv-x="329" d="M362 534 L355 505 L334 506 Q275 506 225.5 484.5 Q176 463 142 429 L50 0 L22 0 L138 534 L166 534 L151 467 Q229 535 334 535 Q351 535 362 534 Z M-15 -163 L-9 -163 Q-2 -163 3 -157 L10 -123 Q4 -123 -1.5 -120.5 Q-7 -118 -8 -115 L-1 -81 Q7 -73 21 -73 Q27 -73 32 -75.5 Q37 -78 39 -81 L23 -160 Q13 -180 -8 -180 L-18 -180 L-15 -163 Z " />
<glyph glyph-name="sacute" unicode="&#x15b;" horiz-adv-x="464" d="M447 468 L443 448 L423 448 Q410 476 372 497 Q334 518 283 518 Q235 518 195.5 500.5 Q156 483 128 455 L107 360 Q117 343 139 329 Q161 315 207 300 L275 278 Q382 244 399 196 L374 79 Q349 45 300 16.5 Q251 -12 182 -12 Q112 -12 68.5 17.5 Q25 47 10 79 L14 99 L33 99 Q48 65 86.5 40.5 Q125 16 185 16 Q240 16 281.5 38 Q323 60 349 92 L370 189 Q361 210 335.5 224.5 Q310 239 262 254 L193 276 Q142 292 114 313 Q86 334 78 353 L103 468 Q126 497 174 521.5 Q222 546 286 546 Q348 546 390 521 Q432 496 447 468 Z M327 605 L306 605 L310 621 L417 759 L442 759 L438 739 L327 605 Z " />
<glyph glyph-name="scircumflex" unicode="&#x15d;" horiz-adv-x="464" d="M447 468 L443 448 L423 448 Q410 476 372 497 Q334 518 283 518 Q235 518 195.5 500.5 Q156 483 128 455 L107 360 Q117 343 139 329 Q161 315 207 300 L275 278 Q382 244 399 196 L374 79 Q349 45 300 16.5 Q251 -12 182 -12 Q112 -12 68.5 17.5 Q25 47 10 79 L14 99 L33 99 Q48 65 86.5 40.5 Q125 16 185 16 Q240 16 281.5 38 Q323 60 349 92 L370 189 Q361 210 335.5 224.5 Q310 239 262 254 L193 276 Q142 292 114 313 Q86 334 78 353 L103 468 Q126 497 174 521.5 Q222 546 286 546 Q348 546 390 521 Q432 496 447 468 Z M429 605 L415 605 L342 740 L209 605 L189 605 L193 621 L323 759 L363 759 L433 621 L429 605 Z " />
<glyph glyph-name="scaron" unicode="&#x161;" horiz-adv-x="464" d="M447 468 L443 448 L423 448 Q410 476 372 497 Q334 518 283 518 Q235 518 195.5 500.5 Q156 483 128 455 L107 360 Q117 343 139 329 Q161 315 207 300 L275 278 Q382 244 399 196 L374 79 Q349 45 300 16.5 Q251 -12 182 -12 Q112 -12 68.5 17.5 Q25 47 10 79 L14 99 L33 99 Q48 65 86.5 40.5 Q125 16 185 16 Q240 16 281.5 38 Q323 60 349 92 L370 189 Q361 210 335.5 224.5 Q310 239 262 254 L193 276 Q142 292 114 313 Q86 334 78 353 L103 468 Q126 497 174 521.5 Q222 546 286 546 Q348 546 390 521 Q432 496 447 468 Z M329 605 L289 605 L219 743 L223 759 L238 759 L311 625 L444 759 L463 759 L459 743 L329 605 Z " />
<glyph glyph-name="scedilla" unicode="&#x15f;" horiz-adv-x="464" d="M447 468 L443 448 L423 448 Q410 476 372 497 Q334 518 283 518 Q235 518 195.5 500.5 Q156 483 128 455 L107 360 Q117 343 139 329 Q161 315 207 300 L275 278 Q382 244 399 196 L374 79 Q348 45 301 17 Q254 -11 188 -12 L158 -63 L178 -63 Q206 -63 225 -76 Q244 -89 250 -106 L236 -171 Q223 -189 201.5 -201.5 Q180 -214 151 -214 Q103 -214 67 -187 L79 -165 Q95 -178 111.5 -184.5 Q128 -191 152 -191 Q172 -191 188.5 -182 Q205 -173 214 -162 L224 -111 Q221 -101 208.5 -93 Q196 -85 176 -85 L120 -85 L162 -11 Q100 -6 61.5 22 Q23 50 10 79 L14 99 L33 99 Q48 65 86.5 40.5 Q125 16 185 16 Q240 16 281.5 38 Q323 60 349 92 L370 189 Q361 210 335.5 224.5 Q310 239 262 254 L193 276 Q142 292 114 313 Q86 334 78 353 L103 468 Q126 497 174 521.5 Q222 546 286 546 Q348 546 390 521 Q432 496 447 468 Z " />
<glyph glyph-name="scommaaccent" unicode="&#x219;" horiz-adv-x="464" d="M447 468 L443 448 L423 448 Q410 476 372 497 Q334 518 283 518 Q235 518 195.5 500.5 Q156 483 128 455 L107 360 Q117 343 139 329 Q161 315 207 300 L275 278 Q382 244 399 196 L374 79 Q349 45 300 16.5 Q251 -12 182 -12 Q112 -12 68.5 17.5 Q25 47 10 79 L14 99 L33 99 Q48 65 86.5 40.5 Q125 16 185 16 Q240 16 281.5 38 Q323 60 349 92 L370 189 Q361 210 335.5 224.5 Q310 239 262 254 L193 276 Q142 292 114 313 Q86 334 78 353 L103 468 Q126 497 174 521.5 Q222 546 286 546 Q348 546 390 521 Q432 496 447 468 Z M130 -163 L136 -163 Q143 -163 148 -157 L155 -123 Q149 -123 143.5 -120.5 Q138 -118 137 -115 L144 -81 Q152 -73 166 -73 Q172 -73 177 -75.5 Q182 -78 184 -81 L168 -160 Q158 -180 137 -180 L127 -180 L130 -163 Z " />
<glyph glyph-name="germandbls" unicode="&#xdf;" horiz-adv-x="544" d="M537 607 L503 449 Q482 423 447.5 402.5 Q413 382 375 371 Q419 356 446.5 325.5 Q474 295 482 258 L451 116 Q412 52 355 26 Q298 0 214 0 L221 29 Q289 29 337.5 48 Q386 67 427 129 L453 251 Q445 299 400 328.5 Q355 358 304 358 L309 385 Q358 385 403 407 Q448 429 478 463 L508 598 Q494 637 456 661 Q418 685 361 685 Q302 685 255 659 Q208 633 179 595 L50 0 L22 0 L153 607 Q183 651 238 682 Q293 713 363 713 Q432 713 476 681.5 Q520 650 537 607 Z " />
<glyph glyph-name="tcaron" unicode="&#x165;" horiz-adv-x="341" d="M194 508 L104 91 Q112 65 139.5 43 Q167 21 227 21 Q258 21 283 26 L278 0 Q253 -7 221 -7 Q153 -7 119.5 20.5 Q86 48 74 82 L166 508 L84 508 L90 534 L171 534 L196 650 L224 650 L199 534 L373 534 L367 508 L194 508 Z M352 627 L332 627 L335 643 L380 772 L407 772 L403 752 L352 627 Z " />
<glyph glyph-name="uni021B" unicode="&#x21b;" horiz-adv-x="341" d="M185 508 L95 91 Q103 65 130.5 43 Q158 21 218 21 Q249 21 274 26 L269 0 Q244 -7 212 -7 Q144 -7 110.5 20.5 Q77 48 65 82 L157 508 L75 508 L81 534 L162 534 L187 650 L215 650 L190 534 L364 534 L358 508 L185 508 Z M112 -163 L118 -163 Q125 -163 130 -157 L137 -123 Q131 -123 125.5 -120.5 Q120 -118 119 -115 L126 -81 Q134 -73 148 -73 Q154 -73 159 -75.5 Q164 -78 166 -81 L150 -160 Q140 -180 119 -180 L109 -180 L112 -163 Z " />
<glyph glyph-name="tbar" unicode="&#x167;" horiz-adv-x="341" d="M194 508 L150 306 L324 306 L318 280 L145 280 L104 91 Q112 65 139.5 43 Q167 21 227 21 Q258 21 283 26 L278 0 Q254 -7 221 -7 Q153 -7 119.5 20.5 Q86 48 74 82 L117 280 L35 280 L41 306 L122 306 L166 508 L84 508 L90 534 L171 534 L196 650 L224 650 L199 534 L373 534 L367 508 L194 508 Z " />
<glyph glyph-name="ugrave" unicode="&#xf9;" horiz-adv-x="534" d="M512 534 L396 0 L368 0 L379 50 Q313 -12 207 -12 Q134 -12 92 18 Q50 48 35 80 L133 534 L161 534 L65 90 Q78 62 113.5 39 Q149 16 209 16 Q318 16 389 91 L484 534 L512 534 Z M348 605 L332 605 L281 739 L285 759 L305 759 L352 621 L348 605 Z " />
<glyph glyph-name="uacute" unicode="&#xfa;" horiz-adv-x="534" d="M512 534 L396 0 L368 0 L379 50 Q313 -12 207 -12 Q134 -12 92 18 Q50 48 35 80 L133 534 L161 534 L65 90 Q78 62 113.5 39 Q149 16 209 16 Q318 16 389 91 L484 534 L512 534 Z M357 605 L336 605 L340 621 L447 759 L472 759 L468 739 L357 605 Z " />
<glyph glyph-name="ucircumflex" unicode="&#xfb;" horiz-adv-x="534" d="M512 534 L396 0 L368 0 L379 50 Q313 -12 207 -12 Q134 -12 92 18 Q50 48 35 80 L133 534 L161 534 L65 90 Q78 62 113.5 39 Q149 16 209 16 Q318 16 389 91 L484 534 L512 534 Z M459 605 L445 605 L372 740 L239 605 L219 605 L223 621 L353 759 L393 759 L463 621 L459 605 Z " />
<glyph glyph-name="utilde" unicode="&#x169;" horiz-adv-x="534" d="M512 534 L396 0 L368 0 L379 50 Q313 -12 207 -12 Q134 -12 92 18 Q50 48 35 80 L133 534 L161 534 L65 90 Q78 62 113.5 39 Q149 16 209 16 Q318 16 389 91 L484 534 L512 534 Z M363 688 Q380 675 393 668 Q406 661 421 661 Q451 661 476 694 L480 712 L504 712 L498 685 Q483 661 464.5 648.5 Q446 636 419 636 Q400 636 385 643.5 Q370 651 350 666 Q332 679 318.5 686 Q305 693 289 693 Q269 693 257 684 Q245 675 233 661 L229 642 L205 642 L211 669 Q240 718 293 718 Q312 718 326.5 710.5 Q341 703 363 688 Z " />
<glyph glyph-name="udieresis" unicode="&#xfc;" horiz-adv-x="534" d="M512 534 L396 0 L368 0 L379 50 Q313 -12 207 -12 Q134 -12 92 18 Q50 48 35 80 L133 534 L161 534 L65 90 Q78 62 113.5 39 Q149 16 209 16 Q318 16 389 91 L484 534 L512 534 Z M293 693 L285 657 Q283 654 275 651 Q267 648 259 648 Q251 648 244.5 651 Q238 654 235 657 L243 693 Q246 696 254 699 Q262 702 270 702 Q278 702 284.5 699 Q291 696 293 693 Z M472 693 L464 657 Q462 654 454 651 Q446 648 438 648 Q430 648 423.5 651 Q417 654 414 657 L422 693 Q425 696 433 699 Q441 702 449 702 Q457 702 463.5 699 Q470 696 472 693 Z " />
<glyph glyph-name="umacron" unicode="&#x16b;" horiz-adv-x="534" d="M512 534 L396 0 L368 0 L379 50 Q313 -12 207 -12 Q134 -12 92 18 Q50 48 35 80 L133 534 L161 534 L65 90 Q78 62 113.5 39 Q149 16 209 16 Q318 16 389 91 L484 534 L512 534 Z M494 674 L214 674 L220 700 L500 700 L494 674 Z " />
<glyph glyph-name="ubreve" unicode="&#x16d;" horiz-adv-x="534" d="M512 534 L396 0 L368 0 L379 50 Q313 -12 207 -12 Q134 -12 92 18 Q50 48 35 80 L133 534 L161 534 L65 90 Q78 62 113.5 39 Q149 16 209 16 Q318 16 389 91 L484 534 L512 534 Z M472 679 Q429 616 347 616 Q298 616 271.5 636.5 Q245 657 240 679 L248 722 L275 722 L268 688 Q270 673 289.5 657 Q309 641 348 641 Q387 641 412.5 657 Q438 673 446 688 L453 722 L480 722 L472 679 Z " />
<glyph glyph-name="uring" unicode="&#x16f;" horiz-adv-x="534" d="M512 534 L396 0 L368 0 L379 50 Q313 -12 207 -12 Q134 -12 92 18 Q50 48 35 80 L133 534 L161 534 L65 90 Q78 62 113.5 39 Q149 16 209 16 Q318 16 389 91 L484 534 L512 534 Z M453 725 L436 646 Q423 628 398.5 615 Q374 602 343 602 Q312 602 289.5 615.5 Q267 629 260 646 L277 725 Q289 743 314 756 Q339 769 370 769 Q401 769 423.5 755.5 Q446 742 453 725 Z M301 717 L287 654 Q293 643 307.5 635 Q322 627 344 627 Q366 627 383.5 635 Q401 643 411 654 L425 717 Q420 728 405.5 736 Q391 744 369 744 Q328 744 301 717 Z " />
<glyph glyph-name="uhungarumlaut" unicode="&#x171;" horiz-adv-x="534" d="M512 534 L396 0 L368 0 L379 50 Q313 -12 207 -12 Q134 -12 92 18 Q50 48 35 80 L133 534 L161 534 L65 90 Q78 62 113.5 39 Q149 16 209 16 Q318 16 389 91 L484 534 L512 534 Z M264 605 L243 605 L247 621 L334 759 L359 759 L355 739 L264 605 Z M424 605 L403 605 L407 621 L494 759 L519 759 L515 739 L424 605 Z " />
<glyph glyph-name="uogonek" unicode="&#x173;" horiz-adv-x="534" d="M269 -110 L260 -154 Q262 -164 277 -172 Q292 -180 311 -180 Q330 -180 342.5 -177 Q355 -174 372 -166 L367 -192 Q341 -205 309 -205 Q280 -205 258.5 -192 Q237 -179 233 -161 L246 -100 Q277 -49 370 7 L379 50 Q313 -12 207 -12 Q134 -12 92 18 Q50 48 35 80 L133 534 L161 534 L65 90 Q78 62 113.5 39 Q149 16 209 16 Q318 16 389 91 L484 534 L512 534 L396 0 Q340 -36 310 -65 Q280 -94 269 -110 Z " />
<glyph glyph-name="wgrave" unicode="&#x1e81;" horiz-adv-x="754" d="M517 0 L475 0 L431 509 L428 509 L163 0 L121 0 L97 508 L103 534 L123 534 L145 27 L148 27 L412 534 L456 534 L499 27 L502 27 L744 534 L767 534 L761 508 L517 0 Z M458 605 L442 605 L391 739 L395 759 L415 759 L462 621 L458 605 Z " />
<glyph glyph-name="wacute" unicode="&#x1e83;" horiz-adv-x="754" d="M517 0 L475 0 L431 509 L428 509 L163 0 L121 0 L97 508 L103 534 L123 534 L145 27 L148 27 L412 534 L456 534 L499 27 L502 27 L744 534 L767 534 L761 508 L517 0 Z M467 605 L446 605 L450 621 L557 759 L582 759 L578 739 L467 605 Z " />
<glyph glyph-name="wcircumflex" unicode="&#x175;" horiz-adv-x="754" d="M517 0 L475 0 L431 509 L428 509 L163 0 L121 0 L97 508 L103 534 L123 534 L145 27 L148 27 L412 534 L456 534 L499 27 L502 27 L744 534 L767 534 L761 508 L517 0 Z M569 605 L555 605 L482 740 L349 605 L329 605 L333 621 L463 759 L503 759 L573 621 L569 605 Z " />
<glyph glyph-name="wdieresis" unicode="&#x1e85;" horiz-adv-x="754" d="M517 0 L475 0 L431 509 L428 509 L163 0 L121 0 L97 508 L103 534 L123 534 L145 27 L148 27 L412 534 L456 534 L499 27 L502 27 L744 534 L767 534 L761 508 L517 0 Z M403 693 L395 657 Q393 654 385 651 Q377 648 369 648 Q361 648 354.5 651 Q348 654 345 657 L353 693 Q356 696 364 699 Q372 702 380 702 Q388 702 394.5 699 Q401 696 403 693 Z M582 693 L574 657 Q572 654 564 651 Q556 648 548 648 Q540 648 533.5 651 Q527 654 524 657 L532 693 Q535 696 543 699 Q551 702 559 702 Q567 702 573.5 699 Q580 696 582 693 Z " />
<glyph glyph-name="ygrave" unicode="&#x1ef3;" horiz-adv-x="488" d="M486 534 L510 534 L504 509 L161 -99 Q126 -140 83 -156 Q40 -172 -10 -172 Q-32 -172 -47 -169 L-41 -142 Q-26 -144 -5 -144 Q41 -144 74 -129 Q107 -114 134 -86 L177 -9 L102 506 L108 534 L127 534 L198 30 L201 30 L486 534 Z M325 605 L309 605 L258 739 L262 759 L282 759 L329 621 L325 605 Z " />
<glyph glyph-name="yacute" unicode="&#xfd;" horiz-adv-x="488" d="M486 534 L510 534 L504 509 L161 -99 Q126 -140 83 -156 Q40 -172 -10 -172 Q-32 -172 -47 -169 L-41 -142 Q-26 -144 -5 -144 Q41 -144 74 -129 Q107 -114 134 -86 L177 -9 L102 506 L108 534 L127 534 L198 30 L201 30 L486 534 Z M334 605 L313 605 L317 621 L424 759 L449 759 L445 739 L334 605 Z " />
<glyph glyph-name="ycircumflex" unicode="&#x177;" horiz-adv-x="488" d="M486 534 L510 534 L504 509 L161 -99 Q126 -140 83 -156 Q40 -172 -10 -172 Q-32 -172 -47 -169 L-41 -142 Q-26 -144 -5 -144 Q41 -144 74 -129 Q107 -114 134 -86 L177 -9 L102 506 L108 534 L127 534 L198 30 L201 30 L486 534 Z M436 605 L422 605 L349 740 L216 605 L196 605 L200 621 L330 759 L370 759 L440 621 L436 605 Z " />
<glyph glyph-name="ydieresis" unicode="&#xff;" horiz-adv-x="488" d="M486 534 L510 534 L504 509 L161 -99 Q126 -140 83 -156 Q40 -172 -10 -172 Q-32 -172 -47 -169 L-41 -142 Q-26 -144 -5 -144 Q41 -144 74 -129 Q107 -114 134 -86 L177 -9 L102 506 L108 534 L127 534 L198 30 L201 30 L486 534 Z M270 693 L262 657 Q260 654 252 651 Q244 648 236 648 Q228 648 221.5 651 Q215 654 212 657 L220 693 Q223 696 231 699 Q239 702 247 702 Q255 702 261.5 699 Q268 696 270 693 Z M449 693 L441 657 Q439 654 431 651 Q423 648 415 648 Q407 648 400.5 651 Q394 654 391 657 L399 693 Q402 696 410 699 Q418 702 426 702 Q434 702 440.5 699 Q447 696 449 693 Z " />
<glyph glyph-name="zacute" unicode="&#x17a;" horiz-adv-x="456" d="M20 26 L369 26 L363 0 L-23 0 L-18 24 L435 508 L97 508 L103 534 L479 534 L474 510 L20 26 Z M317 605 L296 605 L300 621 L407 759 L432 759 L428 739 L317 605 Z " />
<glyph glyph-name="zcaron" unicode="&#x17e;" horiz-adv-x="456" d="M20 26 L369 26 L363 0 L-23 0 L-18 24 L435 508 L97 508 L103 534 L479 534 L474 510 L20 26 Z M319 605 L279 605 L209 743 L213 759 L228 759 L301 625 L434 759 L453 759 L449 743 L319 605 Z " />
<glyph glyph-name="zdotaccent" unicode="&#x17c;" horiz-adv-x="456" d="M20 26 L369 26 L363 0 L-23 0 L-18 24 L435 508 L97 508 L103 534 L479 534 L474 510 L20 26 Z M343 696 L335 662 Q326 653 310 653 Q302 653 295.5 656 Q289 659 287 662 L295 696 Q304 705 321 705 Q329 705 335 702 Q341 699 343 696 Z " />
<glyph glyph-name="eng" unicode="&#x14b;" horiz-adv-x="544" d="M508 447 L400 -50 Q371 -102 312 -140 Q253 -178 174 -178 L180 -150 Q244 -150 294.5 -117.5 Q345 -85 375 -37 L478 440 Q466 469 429.5 493.5 Q393 518 333 518 Q273 518 223.5 494.5 Q174 471 144 436 L50 0 L22 0 L138 534 L166 534 L153 478 Q184 508 230 527 Q276 546 335 546 Q409 546 452 514 Q495 482 508 447 Z " />
<glyph glyph-name="eth" unicode="&#xf0;" horiz-adv-x="534" d="M551 644 L454 614 Q510 558 521 502 L437 116 Q406 63 351.5 25.5 Q297 -12 218 -12 Q164 -12 124.5 7 Q85 26 62.5 55.5 Q40 85 33 116 L87 368 Q119 420 175 458 Q231 496 307 496 Q363 496 407 470.5 Q451 445 472 408 L491 495 Q481 550 423 605 L246 551 L251 577 L403 623 Q337 678 250 710 L276 729 Q364 696 435 633 L556 670 L551 644 Z M463 364 Q449 407 406 437.5 Q363 468 307 468 Q242 468 192.5 435.5 Q143 403 113 355 L63 123 Q74 77 114 46.5 Q154 16 219 16 Q283 16 331.5 48 Q380 80 413 129 L463 364 Z " />
<glyph glyph-name="thorn" unicode="&#xfe;" horiz-adv-x="534" d="M508 447 L430 87 Q355 -12 230 -12 Q171 -12 128.5 8.5 Q86 29 64 60 L15 -166 L-13 -166 L173 700 L201 700 L153 477 Q184 507 229 526.5 Q274 546 332 546 Q408 546 451.5 514 Q495 482 508 447 Z M478 440 Q467 469 429 493.5 Q391 518 331 518 Q272 518 223.5 495 Q175 472 144 436 L71 94 Q92 60 133 38 Q174 16 230 16 Q292 16 336 41.5 Q380 67 406 100 L478 440 Z " />
<glyph glyph-name="longs" unicode="&#x17f;" horiz-adv-x="316" d="M395 707 L389 682 Q361 686 331 686 Q271 686 234.5 663 Q198 640 181 612 L49 0 L21 0 L156 624 Q175 657 217 685 Q259 713 331 713 Q371 713 395 707 Z " />
<glyph glyph-name="fi" unicode="&#xfb01;" horiz-adv-x="527" d="M421 707 L415 682 Q387 686 357 686 Q297 686 260.5 663 Q224 640 207 612 L191 534 L364 534 L358 508 L185 508 L75 0 L47 0 L157 508 L75 508 L81 534 L163 534 L182 624 Q201 657 243 685 Q285 713 357 713 Q397 713 421 707 Z M385 0 L357 0 L473 534 L501 534 L385 0 Z M545 696 L537 662 Q528 653 512 653 Q504 653 497.5 656 Q491 659 489 662 L497 696 Q506 705 523 705 Q531 705 537 702 Q543 699 545 696 Z " />
<glyph glyph-name="fl" unicode="&#xfb02;" horiz-adv-x="519" d="M421 707 L415 682 Q387 686 357 686 Q297 686 260.5 663 Q224 640 207 612 L191 534 L364 534 L358 508 L185 508 L75 0 L47 0 L157 508 L75 508 L81 534 L163 534 L182 624 Q201 657 243 685 Q285 713 357 713 Q397 713 421 707 Z M381 0 L353 0 L504 700 L532 700 L381 0 Z " />
<glyph glyph-name="ampersand" unicode="&#x26;" horiz-adv-x="648" d="M581 26 L575 0 L567 0 L483 103 Q384 -12 243 -12 Q158 -12 106 25.5 Q54 63 42 116 L75 267 Q138 359 253 386 L232 411 Q211 438 199.5 456 Q188 474 180 496 L209 631 Q231 658 283 685 Q335 712 404 712 Q470 712 513 686 Q556 660 573 632 L568 609 L551 609 Q537 638 499 661 Q461 684 402 684 Q347 684 304 664.5 Q261 645 234 618 L210 505 Q217 474 254 428 L476 155 L520 356 L548 356 L499 127 L581 26 Z M465 125 L271 364 Q217 353 171 323 Q125 293 100 254 L72 123 Q83 72 131.5 43.5 Q180 15 247 15 Q371 15 465 125 Z " />
<glyph glyph-name="grave" unicode="&#x60;" horiz-adv-x="400" d="M322 605 L306 605 L255 739 L259 759 L279 759 L326 621 L322 605 Z " />
<glyph glyph-name="acute" unicode="&#xb4;" horiz-adv-x="400" d="M243 605 L222 605 L226 621 L333 759 L358 759 L354 739 L243 605 Z " />
<glyph glyph-name="circumflex" unicode="&#x2c6;" horiz-adv-x="400" d="M392 605 L378 605 L305 740 L172 605 L152 605 L156 621 L286 759 L326 759 L396 621 L392 605 Z " />
<glyph glyph-name="caron" unicode="&#x2c7;" horiz-adv-x="400" d="M292 605 L252 605 L182 743 L186 759 L201 759 L274 625 L407 759 L426 759 L422 743 L292 605 Z " />
<glyph glyph-name="tilde" unicode="&#x2dc;" horiz-adv-x="400" d="M296 688 Q313 675 326 668 Q339 661 354 661 Q384 661 409 694 L413 712 L437 712 L431 685 Q416 661 397.5 648.5 Q379 636 352 636 Q333 636 318 643.5 Q303 651 283 666 Q265 679 251.5 686 Q238 693 222 693 Q202 693 190 684 Q178 675 166 661 L162 642 L138 642 L144 669 Q173 718 226 718 Q245 718 259.5 710.5 Q274 703 296 688 Z " />
<glyph glyph-name="dieresis" unicode="&#xa8;" horiz-adv-x="400" d="M228 693 L220 657 Q218 654 210 651 Q202 648 194 648 Q186 648 179.5 651 Q173 654 170 657 L178 693 Q181 696 189 699 Q197 702 205 702 Q213 702 219.5 699 Q226 696 228 693 Z M407 693 L399 657 Q397 654 389 651 Q381 648 373 648 Q365 648 358.5 651 Q352 654 349 657 L357 693 Q360 696 368 699 Q376 702 384 702 Q392 702 398.5 699 Q405 696 407 693 Z " />
<glyph glyph-name="breve" unicode="&#x2d8;" horiz-adv-x="400" d="M405 679 Q362 616 280 616 Q231 616 204.5 636.5 Q178 657 173 679 L181 722 L208 722 L201 688 Q203 673 222.5 657 Q242 641 281 641 Q320 641 345.5 657 Q371 673 379 688 L386 722 L413 722 L405 679 Z " />
<glyph glyph-name="ring" unicode="&#x2da;" horiz-adv-x="400" d="M386 725 L369 646 Q356 628 331.5 615 Q307 602 276 602 Q245 602 222.5 615.5 Q200 629 193 646 L210 725 Q222 743 247 756 Q272 769 303 769 Q334 769 356.5 755.5 Q379 742 386 725 Z M234 717 L220 654 Q226 643 240.5 635 Q255 627 277 627 Q299 627 316.5 635 Q334 643 344 654 L358 717 Q353 728 338.5 736 Q324 744 302 744 Q261 744 234 717 Z " />
<glyph glyph-name="hungarumlaut" unicode="&#x2dd;" horiz-adv-x="400" d="M173 605 L152 605 L156 621 L243 759 L268 759 L264 739 L173 605 Z M333 605 L312 605 L316 621 L403 759 L428 759 L424 739 L333 605 Z " />
<glyph glyph-name="dotaccent" unicode="&#x2d9;" horiz-adv-x="400" d="M316 696 L308 662 Q299 653 283 653 Q275 653 268.5 656 Q262 659 260 662 L268 696 Q277 705 294 705 Q302 705 308 702 Q314 699 316 696 Z " />
<glyph glyph-name="cedilla" unicode="&#xb8;" horiz-adv-x="400" d="M119 -63 L139 -63 Q167 -63 186 -76 Q205 -89 211 -106 L197 -171 Q184 -189 162.5 -201.5 Q141 -214 112 -214 Q64 -214 28 -187 L40 -165 Q56 -178 72.5 -184.5 Q89 -191 113 -191 Q133 -191 149.5 -182 Q166 -173 175 -162 L185 -111 Q182 -101 169.5 -93 Q157 -85 137 -85 L81 -85 L133 6 L159 6 L119 -63 Z " />
<glyph glyph-name="ogonek" unicode="&#x2db;" horiz-adv-x="400" d="M224 0 Q168 -36 138 -65 Q108 -94 97 -110 L88 -154 Q90 -164 105 -172 Q120 -180 139 -180 Q158 -180 170.5 -177 Q183 -174 200 -166 L195 -192 Q169 -205 137 -205 Q108 -205 86.5 -192 Q65 -179 61 -161 L74 -100 Q107 -46 206 12 L224 0 Z " />
<glyph glyph-name="comma" unicode="&#x2c;" horiz-adv-x="144" d="M47 38 L23 -70 Q12 -92 -14 -92 L-27 -92 L-23 -73 L-13 -73 Q-4 -73 0 -66 L13 -9 Q6 -9 -1 -6 Q-8 -3 -9 0 L-1 38 Q8 47 24 47 Q38 47 47 38 Z " />
<glyph glyph-name="semicolon" unicode="&#x3b;" horiz-adv-x="164" d="M57 38 L33 -70 Q22 -92 -4 -92 L-17 -92 L-13 -73 L-3 -73 Q6 -73 10 -66 L23 -9 Q16 -9 9 -6 Q2 -3 1 0 L9 38 Q18 47 34 47 Q48 47 57 38 Z M150 470 L142 436 Q133 427 117 427 Q108 427 101.5 430 Q95 433 94 436 L102 470 Q105 473 112 476 Q119 479 127 479 Q135 479 141.5 476 Q148 473 150 470 Z " />
<glyph glyph-name="colon" unicode="&#x3a;" horiz-adv-x="164" d="M57 38 L49 4 Q40 -5 24 -5 Q15 -5 8.5 -2 Q2 1 1 4 L9 38 Q12 41 19 44 Q26 47 34 47 Q42 47 48.5 44 Q55 41 57 38 Z M150 470 L142 436 Q133 427 117 427 Q108 427 101.5 430 Q95 433 94 436 L102 470 Q105 473 112 476 Q119 479 127 479 Q135 479 141.5 476 Q148 473 150 470 Z " />
<glyph glyph-name="period" unicode="&#x2e;" horiz-adv-x="144" d="M47 38 L39 4 Q30 -5 14 -5 Q5 -5 -1.5 -2 Q-8 1 -9 4 L-1 38 Q2 41 9 44 Q16 47 24 47 Q32 47 38.5 44 Q45 41 47 38 Z " />
<glyph glyph-name="ellipsis" unicode="&#x2026;" horiz-adv-x="432" d="M46 35 L39 4 Q37 1 29 -2 Q21 -5 13 -5 Q5 -5 -1.5 -2 Q-8 1 -9 4 L-2 35 Q0 38 8 41 Q16 44 24 44 Q32 44 38.5 41 Q45 38 46 35 Z M190 35 L183 4 Q181 1 173 -2 Q165 -5 157 -5 Q149 -5 142.5 -2 Q136 1 135 4 L142 35 Q144 38 152 41 Q160 44 168 44 Q176 44 182.5 41 Q189 38 190 35 Z M334 35 L327 4 Q325 1 317 -2 Q309 -5 301 -5 Q293 -5 286.5 -2 Q280 1 279 4 L286 35 Q288 38 296 41 Q304 44 312 44 Q320 44 326.5 41 Q333 38 334 35 Z " />
<glyph glyph-name="hyphen" unicode="&#x2d;" horiz-adv-x="360" d="M323 327 L63 327 L69 354 L329 354 L323 327 Z " />
<glyph glyph-name="exclam" unicode="&#x21;" horiz-adv-x="248" d="M217 622 L106 126 L82 126 L185 622 L201 700 L233 700 L217 622 Z M99 38 L91 4 Q82 -5 66 -5 Q57 -5 50.5 -2 Q44 1 43 4 L51 38 Q54 41 61 44 Q68 47 76 47 Q84 47 90.5 44 Q97 41 99 38 Z " />
<glyph glyph-name="exclamdown" unicode="&#xa1;" horiz-adv-x="248" d="M149 502 L157 536 Q166 545 182 545 Q191 545 197.5 542 Q204 539 205 536 L197 502 Q194 499 187 496 Q180 493 172 493 Q164 493 157.5 496 Q151 499 149 502 Z M31 -82 L142 414 L166 414 L63 -82 L47 -160 L15 -160 L31 -82 Z " />
<glyph glyph-name="question" unicode="&#x3f;" horiz-adv-x="516" d="M544 607 L508 441 Q494 421 470.5 403 Q447 385 409 361 L217 237 L195 136 L165 136 L190 253 L395 386 Q427 407 448.5 423 Q470 439 482 454 L512 600 Q493 635 449.5 659.5 Q406 684 344 684 Q225 684 136 583 L113 583 L118 607 Q160 652 214 682.5 Q268 713 346 713 Q424 713 473 681 Q522 649 544 607 Z M184 38 L176 4 Q167 -5 151 -5 Q142 -5 135.5 -2 Q129 1 128 4 L136 38 Q139 41 146 44 Q153 47 161 47 Q169 47 175.5 44 Q182 41 184 38 Z " />
<glyph glyph-name="questiondown" unicode="&#xbf;" horiz-adv-x="516" d="M332 503 L340 537 Q349 546 365 546 Q374 546 380.5 543 Q387 540 388 537 L380 503 Q377 500 370 497 Q363 494 355 494 Q347 494 340.5 497 Q334 500 332 503 Z M-28 -66 L8 100 Q22 120 45.5 138 Q69 156 107 180 L299 304 L321 405 L351 405 L326 288 L121 155 Q89 134 67.5 118 Q46 102 34 87 L4 -59 Q23 -94 66.5 -118.5 Q110 -143 172 -143 Q291 -143 380 -42 L403 -42 L398 -66 Q356 -111 302 -141.5 Q248 -172 170 -172 Q92 -172 43 -140 Q-6 -108 -28 -66 Z " />
<glyph glyph-name="quoteleft" unicode="&#x2018;" horiz-adv-x="148" d="M109 579 L133 687 Q144 709 170 709 L183 709 L179 690 L169 690 Q160 690 156 683 L143 626 Q150 626 157 623 Q164 620 165 617 L157 579 Q148 570 132 570 Q118 570 109 579 Z " />
<glyph glyph-name="quoteright" unicode="&#x2019;" horiz-adv-x="148" d="M200 705 L176 597 Q165 575 139 575 L126 575 L130 594 L140 594 Q149 594 153 601 L166 658 Q159 658 152 661 Q145 664 144 667 L152 705 Q161 714 177 714 Q191 714 200 705 Z " />
<glyph glyph-name="quotedblleft" unicode="&#x201c;" horiz-adv-x="288" d="M109 579 L133 687 Q144 709 170 709 L183 709 L179 690 L169 690 Q160 690 156 683 L143 626 Q150 626 157 623 Q164 620 165 617 L157 579 Q148 570 132 570 Q118 570 109 579 Z M249 579 L273 687 Q284 709 310 709 L323 709 L319 690 L309 690 Q300 690 296 683 L283 626 Q290 626 297 623 Q304 620 305 617 L297 579 Q288 570 272 570 Q258 570 249 579 Z " />
<glyph glyph-name="quotedblright" unicode="&#x201d;" horiz-adv-x="288" d="M199 704 L175 596 Q164 574 138 574 L125 574 L129 593 L139 593 Q148 593 152 600 L165 657 Q158 657 151 660 Q144 663 143 666 L151 704 Q160 713 176 713 Q190 713 199 704 Z M339 704 L315 596 Q304 574 278 574 L265 574 L269 593 L279 593 Q288 593 292 600 L305 657 Q298 657 291 660 Q284 663 283 666 L291 704 Q300 713 316 713 Q330 713 339 704 Z " />
<glyph glyph-name="quotesinglbase" unicode="&#x201a;" horiz-adv-x="148" d="M56 38 L32 -70 Q21 -92 -5 -92 L-18 -92 L-14 -73 L-4 -73 Q5 -73 9 -66 L22 -9 Q15 -9 8 -6 Q1 -3 0 0 L8 38 Q17 47 33 47 Q47 47 56 38 Z " />
<glyph glyph-name="quotedblbase" unicode="&#x201e;" horiz-adv-x="290" d="M56 38 L32 -70 Q21 -92 -5 -92 L-18 -92 L-14 -73 L-4 -73 Q5 -73 9 -66 L22 -9 Q15 -9 8 -6 Q1 -3 0 0 L8 38 Q17 47 33 47 Q47 47 56 38 Z M198 38 L174 -70 Q163 -92 137 -92 L124 -92 L128 -73 L138 -73 Q147 -73 151 -66 L164 -9 Q157 -9 150 -6 Q143 -3 142 0 L150 38 Q159 47 175 47 Q189 47 198 38 Z " />
<glyph glyph-name="guilsinglleft" unicode="&#x2039;" horiz-adv-x="320" d="M84 299 L222 89 L218 71 L203 71 L56 295 L59 310 L298 534 L318 534 L313 516 L84 299 Z " />
<glyph glyph-name="guilsinglright" unicode="&#x203a;" horiz-adv-x="320" d="M277 295 L38 71 L18 71 L23 89 L252 306 L114 516 L118 534 L133 534 L280 310 L277 295 Z " />
<glyph glyph-name="guillemotleft" unicode="&#xab;" horiz-adv-x="559" d="M84 299 L222 89 L218 71 L203 71 L56 295 L59 310 L298 534 L318 534 L313 516 L84 299 Z M322 299 L460 89 L456 71 L441 71 L294 295 L297 310 L536 534 L556 534 L551 516 L322 299 Z " />
<glyph glyph-name="guillemotright" unicode="&#xbb;" horiz-adv-x="559" d="M277 295 L38 71 L18 71 L23 89 L252 306 L114 516 L118 534 L133 534 L280 310 L277 295 Z M515 295 L276 71 L256 71 L261 89 L490 306 L352 516 L356 534 L371 534 L518 310 L515 295 Z " />
<glyph glyph-name="slash" unicode="&#x2f;" horiz-adv-x="369" d="M404 713 L3 -110 L-21 -110 L-17 -92 L385 731 L409 731 L404 713 Z " />
<glyph glyph-name="bar" unicode="&#x7c;" horiz-adv-x="328" d="M200 -130 L172 -130 L172 790 L200 790 L200 -130 Z " />
<glyph glyph-name="endash" unicode="&#x2013;" horiz-adv-x="560" d="M523 327 L63 327 L69 354 L529 354 L523 327 Z " />
<glyph glyph-name="emdash" unicode="&#x2014;" horiz-adv-x="860" d="M823 327 L63 327 L69 354 L829 354 L823 327 Z " />
<glyph glyph-name="bullet" unicode="&#x2022;" horiz-adv-x="305" d="M254 405 L238 326 Q210 290 161 290 Q137 290 118 300.5 Q99 311 93 326 L109 405 Q136 439 185 439 Q210 439 228 429.5 Q246 420 254 405 Z " />
<glyph glyph-name="parenleft" unicode="&#x28;" horiz-adv-x="373" d="M415 673 L410 673 Q337 673 273.5 632.5 Q210 592 173 536 L56 -10 Q68 -66 113.5 -103.5 Q159 -141 235 -141 L241 -141 L235 -168 L230 -168 Q141 -168 89 -122.5 Q37 -77 24 -17 L145 549 Q181 610 250.5 655 Q320 700 412 700 L421 700 L415 673 Z " />
<glyph glyph-name="parenright" unicode="&#x29;" horiz-adv-x="373" d="M-42 -141 L-37 -141 Q36 -141 99.5 -100.5 Q163 -60 200 -4 L317 542 Q305 598 259.5 635.5 Q214 673 138 673 L132 673 L138 700 L143 700 Q232 700 284 654.5 Q336 609 349 549 L228 -17 Q192 -78 122.5 -123 Q53 -168 -39 -168 L-48 -168 L-42 -141 Z " />
<glyph glyph-name="bracketleft" unicode="&#x5b;" horiz-adv-x="365" d="M392 673 L217 673 L42 -141 L217 -141 L212 -168 L7 -168 L193 700 L398 700 L392 673 Z " />
<glyph glyph-name="bracketright" unicode="&#x5d;" horiz-adv-x="365" d="M172 -168 L-33 -168 L-28 -141 L147 -141 L322 673 L147 673 L153 700 L358 700 L172 -168 Z " />
<glyph glyph-name="braceleft" unicode="&#x7b;" horiz-adv-x="391" d="M51 -20 L98 197 Q95 231 70.5 241 Q46 251 12 251 L18 278 Q52 278 80.5 288 Q109 298 127 332 L173 549 Q209 610 279.5 655 Q350 700 444 700 L438 673 Q363 673 301.5 634 Q240 595 201 536 L154 319 Q129 279 87 263 Q122 245 129 204 L83 -13 Q93 -69 140 -106.5 Q187 -144 263 -144 L257 -171 Q164 -171 114 -126 Q64 -81 51 -20 Z " />
<glyph glyph-name="braceright" unicode="&#x7d;" horiz-adv-x="391" d="M339 549 L292 332 Q295 298 319.5 288 Q344 278 378 278 L372 251 Q338 251 309.5 241 Q281 231 263 197 L217 -20 Q181 -81 110.5 -126 Q40 -171 -54 -171 L-48 -144 Q27 -144 88.5 -105 Q150 -66 189 -7 L236 210 Q261 250 303 266 Q268 284 261 325 L307 542 Q297 598 250 635.5 Q203 673 127 673 L133 700 Q226 700 276 655 Q326 610 339 549 Z " />
<glyph glyph-name="asterisk" unicode="&#x2a;" horiz-adv-x="499" d="M502 588 L315 536 L436 385 Q435 378 425 371 Q418 364 410 366 L305 525 L200 366 L197 365 Q191 365 185 371 Q175 378 174 385 L295 536 L107 588 Q105 592 105 595 Q105 600 107 604 Q112 616 117 618 L297 550 L289 741 Q294 746 305 746 Q316 746 321 741 L313 551 L492 618 Q497 616 502 604 Q505 593 502 588 Z " />
<glyph glyph-name="dagger" unicode="&#x2020;" horiz-adv-x="616" d="M586 423 L508 423 L342 428 L338 -168 L316 -168 L312 428 L148 423 L70 423 L70 453 L148 453 L312 448 L311 622 L311 700 L343 700 L343 622 L342 448 L508 453 L586 453 L586 423 Z " />
<glyph glyph-name="daggerdbl" unicode="&#x2021;" horiz-adv-x="636" d="M332 178 L500 183 L578 183 L578 153 L500 153 L332 158 L330 -168 L308 -168 L306 158 L140 153 L62 153 L62 183 L140 183 L306 178 L304 458 L140 453 L62 453 L62 483 L140 483 L304 478 L303 622 L303 700 L335 700 L335 622 L334 478 L500 483 L578 483 L578 453 L500 453 L334 458 L332 178 Z " />
<glyph glyph-name="section" unicode="&#xa7;" horiz-adv-x="504" d="M511 622 L505 599 L487 599 Q477 631 439 658 Q401 685 341 685 Q284 685 241 662.5 Q198 640 171 609 L154 528 Q164 508 190 492.5 Q216 477 262 465 L330 447 Q380 434 411.5 412 Q443 390 455 365 L430 246 Q413 222 378 199.5 Q343 177 296 167 Q337 152 363 132.5 Q389 113 398 92 L375 -9 Q351 -42 300.5 -71 Q250 -100 180 -100 Q131 -100 95.5 -84.5 Q60 -69 39 -48 Q18 -27 11 -9 L17 14 L35 14 Q45 -18 83 -45 Q121 -72 181 -72 Q238 -72 281 -49.5 Q324 -27 351 4 L368 85 Q358 105 332 120.5 Q306 136 260 148 L192 166 Q142 179 110.5 201 Q79 223 67 248 L92 367 Q109 391 144 413.5 Q179 436 226 446 Q185 461 159 480.5 Q133 500 124 521 L147 622 Q171 655 221.5 684 Q272 713 342 713 Q391 713 426.5 697.5 Q462 682 483 661 Q504 640 511 622 Z M319 421 L283 431 Q224 425 183 404.5 Q142 384 119 357 L97 258 Q106 235 131.5 219.5 Q157 204 203 192 L239 182 Q349 192 403 256 L425 355 Q416 378 390.5 393.5 Q365 409 319 421 Z " />
<glyph glyph-name="paragraph" unicode="&#xb6;" horiz-adv-x="655" d="M278 -100 L249 -100 L329 270 L251 270 Q189 270 145.5 302.5 Q102 335 86 387 L128 583 Q168 637 226 668.5 Q284 700 343 700 L450 700 L278 -100 Z M476 -100 L447 -100 L619 700 L648 700 L476 -100 Z " />
<glyph glyph-name="asciicircum" unicode="&#x5e;" horiz-adv-x="522" d="M482 361 L482 342 L463 342 L287 677 L275 677 L100 342 L80 342 L80 360 L258 700 L304 700 L482 361 Z " />
<glyph glyph-name="asciitilde" unicode="&#x7e;" horiz-adv-x="580" d="M320 380 Q359 368 388.5 361.5 Q418 355 447 355 Q476 355 501 365 Q526 375 542.5 386.5 Q559 398 559 399 L559 363 Q559 362 543.5 353 Q528 344 503.5 336.5 Q479 329 448 329 Q413 329 381.5 335.5 Q350 342 305 355 Q267 367 237.5 373.5 Q208 380 177 380 Q142 380 112 368.5 Q82 357 61.5 343.5 Q41 330 41 329 L41 360 Q41 361 60 373.5 Q79 386 110 396 Q141 406 179 406 Q212 406 244 399.5 Q276 393 320 380 Z " />
<glyph glyph-name="brokenbar" unicode="&#xa6;" horiz-adv-x="328" d="M172 410 L172 790 L200 790 L200 410 L172 410 Z M172 -130 L172 270 L200 270 L200 -130 L172 -130 Z " />
<glyph glyph-name="backslash" unicode="&#x5c;" horiz-adv-x="369" d="M232 -92 L228 -110 L204 -110 L155 713 L160 731 L184 731 L232 -92 Z " />
<glyph glyph-name="underscore" unicode="&#x5f;" horiz-adv-x="480" d="M404 -110 L-86 -110 L-80 -83 L410 -83 L404 -110 Z " />
<glyph glyph-name="quotesingle" unicode="&#x27;" horiz-adv-x="128" d="M160 654 L132 542 L114 542 L132 654 L143 700 L171 700 L160 654 Z " />
<glyph glyph-name="quotedbl" unicode="&#x22;" horiz-adv-x="264" d="M160 654 L132 542 L114 542 L132 654 L143 700 L171 700 L160 654 Z M296 654 L268 542 L250 542 L268 654 L279 700 L307 700 L296 654 Z " />
<glyph glyph-name="at" unicode="&#x40;" horiz-adv-x="960" d="M920 457 L847 114 Q796 40 716 40 Q678 40 651 58 Q624 76 614 103 Q582 71 532.5 49.5 Q483 28 420 28 Q344 28 304.5 59.5 Q265 91 251 127 L315 427 Q344 465 394 495.5 Q444 526 520 526 Q579 526 620 506.5 Q661 487 683 457 L695 514 L723 514 L639 123 Q647 95 666.5 81 Q686 67 718 67 Q750 67 773.5 80.5 Q797 94 821 123 L892 450 Q883 496 847.5 550.5 Q812 605 742 645 Q672 685 569 685 Q446 685 333 620.5 Q220 556 148 450 L73 103 Q97 -5 183 -69 Q269 -133 394 -133 Q449 -133 506 -117.5 Q563 -102 610 -73 L625 -97 Q515 -160 394 -160 Q304 -160 230.5 -129 Q157 -98 108 -40 Q59 18 43 95 L120 457 Q197 576 316.5 644 Q436 712 570 712 Q680 712 756 669 Q832 626 871 567.5 Q910 509 920 457 Z M615 140 L675 421 Q657 455 617 476.5 Q577 498 518 498 Q457 498 412 473 Q367 448 341 417 L282 137 Q294 105 327 80.5 Q360 56 422 56 Q484 56 534 80 Q584 104 615 140 Z " />
<glyph glyph-name="copyright" unicode="&#xa9;" horiz-adv-x="826" d="M792 350 Q792 252 743 168.5 Q694 85 610.5 36 Q527 -13 429 -13 Q331 -13 247.5 36 Q164 85 115 168.5 Q66 252 66 350 Q66 448 115 531.5 Q164 615 247.5 664 Q331 713 429 713 Q527 713 610.5 664 Q694 615 743 531.5 Q792 448 792 350 Z M94 350 Q94 259 139 181.5 Q184 104 261 58.5 Q338 13 429 13 Q520 13 597 58.5 Q674 104 719 181.5 Q764 259 764 350 Q764 441 719 518.5 Q674 596 597 641.5 Q520 687 429 687 Q338 687 261 641.5 Q184 596 139 518.5 Q94 441 94 350 Z M611 484 L611 463 L588 463 Q574 495 532 522 Q490 549 429 549 Q373 549 334.5 526.5 Q296 504 275 474 L275 222 Q296 192 334.5 169.5 Q373 147 429 147 Q490 147 532 174 Q574 201 588 233 L611 233 L611 212 Q589 178 544 149.5 Q499 121 429 121 Q359 121 314.5 149.5 Q270 178 247 212 L247 484 Q270 518 314.5 546.5 Q359 575 429 575 Q499 575 544 546.5 Q589 518 611 484 Z " />
<glyph glyph-name="registered" unicode="&#xae;" horiz-adv-x="518" d="M566 585 Q566 521 533.5 466 Q501 411 446 378.5 Q391 346 327 346 Q263 346 208 378.5 Q153 411 120.5 466 Q88 521 88 585 Q88 649 120.5 704 Q153 759 208 791.5 Q263 824 327 824 Q391 824 446 791.5 Q501 759 533.5 704 Q566 649 566 585 Z M540 585 Q540 644 511.5 693.5 Q483 743 434 772 Q385 801 327 801 Q269 801 220 772 Q171 743 142.5 693.5 Q114 644 114 585 Q114 526 142.5 476.5 Q171 427 220 398 Q269 369 327 369 Q385 369 434 398 Q483 427 511.5 476.5 Q540 526 540 585 Z M431 682 L431 612 Q420 590 399 576 Q378 562 355 560 L423 462 L423 446 L408 446 L330 560 L265 560 L265 446 L243 446 L243 734 L349 734 Q373 734 396 720 Q419 706 431 682 Z M409 676 Q399 697 382.5 705 Q366 713 345 713 L265 713 L265 582 L345 582 Q391 582 409 618 L409 676 Z " />
<glyph glyph-name="trademark" unicode="&#x2122;" horiz-adv-x="776" d="M272 680 L192 310 L168 310 L248 680 L119 680 L123 700 L405 700 L401 680 L272 680 Z M691 310 L770 676 L768 676 L556 310 L530 310 L476 676 L474 676 L395 310 L371 310 L455 700 L498 700 L551 346 L553 346 L756 700 L799 700 L715 310 L691 310 Z " />
<glyph glyph-name="uni2117" unicode="&#x2117;" horiz-adv-x="826" d="M776 350 Q776 252 727 168.5 Q678 85 594.5 36 Q511 -13 413 -13 Q315 -13 231.5 36 Q148 85 99 168.5 Q50 252 50 350 Q50 448 99 531.5 Q148 615 231.5 664 Q315 713 413 713 Q511 713 594.5 664 Q678 615 727 531.5 Q776 448 776 350 Z M78 350 Q78 259 123 181.5 Q168 104 245 58.5 Q322 13 413 13 Q504 13 581 58.5 Q658 104 703 181.5 Q748 259 748 350 Q748 441 703 518.5 Q658 596 581 641.5 Q504 687 413 687 Q322 687 245 641.5 Q168 596 123 518.5 Q78 441 78 350 Z M595 487 L595 372 Q573 329 537 305 Q501 281 459 281 L311 281 L311 99 L281 99 L281 578 L459 578 Q501 578 537 554 Q573 530 595 487 Z M311 549 L311 310 L451 310 Q528 310 565 382 L565 477 Q528 549 451 549 L311 549 Z " />
<glyph glyph-name="currency" unicode="&#xa4;" horiz-adv-x="590" d="M522 536 L471 485 Q495 460 509 426 L509 254 Q495 220 471 195 L522 144 L522 126 L500 126 L451 175 Q392 126 307 126 Q222 126 164 175 L115 126 L92 126 L92 144 L143 195 Q119 220 105 254 L105 426 Q119 460 143 485 L92 536 L92 554 L115 554 L164 505 Q222 554 307 554 Q392 554 451 505 L500 554 L522 554 L522 536 Z M481 416 Q462 463 417 494.5 Q372 526 307 526 Q242 526 197 494.5 Q152 463 133 416 L133 264 Q152 217 197 185.5 Q242 154 307 154 Q372 154 417 185.5 Q462 217 481 264 L481 416 Z " />
<glyph glyph-name="Euro" unicode="&#x20ac;" horiz-adv-x="590" d="M598 584 L593 561 L574 561 Q565 616 521 650 Q477 684 407 684 Q342 684 285.5 651 Q229 618 200 574 L170 434 L448 434 L443 410 L165 410 L143 310 L421 310 L416 286 L138 286 L104 126 Q114 81 156 48.5 Q198 16 264 16 Q333 16 389.5 51.5 Q446 87 478 139 L502 139 L497 116 Q466 65 404.5 26.5 Q343 -12 264 -12 Q209 -12 168.5 7 Q128 26 104.5 55.5 Q81 85 73 116 L110 286 L39 286 L44 310 L115 310 L136 410 L66 410 L71 434 L142 434 L174 584 Q205 634 267 673 Q329 712 408 712 Q463 712 504 692.5 Q545 673 568 643.5 Q591 614 598 584 Z " />
<glyph glyph-name="dollar" unicode="&#x24;" horiz-adv-x="574" d="M566 599 L561 574 L542 574 Q527 624 483 653.5 Q439 683 372 683 Q309 683 258 656 Q207 629 173 586 L150 475 Q158 444 187.5 424 Q217 404 280 386 L355 365 Q433 343 463 315.5 Q493 288 504 249 L475 118 Q388 -7 241 -12 L223 -97 L195 -97 L213 -12 Q131 -7 83 33 Q35 73 19 118 L24 143 L43 143 Q57 93 106 55 Q155 17 231 17 Q305 17 361.5 51.5 Q418 86 448 131 L472 242 Q465 274 437.5 297 Q410 320 342 339 L267 360 Q196 380 164.5 405 Q133 430 118 468 L146 599 Q179 645 235.5 678 Q292 711 369 712 L386 797 L414 797 L396 711 Q465 706 507 674 Q549 642 566 599 Z " />
<glyph glyph-name="cent" unicode="&#xa2;" horiz-adv-x="514" d="M502 418 L497 398 L477 398 Q469 450 429.5 484 Q390 518 321 518 Q255 518 202.5 485.5 Q150 453 122 405 L62 123 Q71 77 109.5 46.5 Q148 16 214 16 Q281 16 333 49.5 Q385 83 416 136 L441 136 L436 116 Q409 67 355 29 Q301 -9 226 -12 L208 -97 L178 -97 L196 -11 Q124 -7 82.5 31 Q41 69 32 116 L98 418 Q127 468 182.5 506 Q238 544 316 546 L334 631 L364 631 L346 545 Q414 539 453.5 501.5 Q493 464 502 418 Z " />
<glyph glyph-name="sterling" unicode="&#xa3;" horiz-adv-x="605" d="M613 584 L608 561 L589 561 Q578 614 534.5 649 Q491 684 422 684 Q357 684 300.5 651.5 Q244 619 215 574 L170 366 L452 366 L445 340 L165 340 L109 82 Q93 52 52 26 L493 26 L487 0 L-8 0 L-2 26 Q16 31 41.5 49 Q67 67 84 96 L137 340 L65 340 L72 366 L142 366 L189 584 Q219 634 281.5 673 Q344 712 424 712 Q478 712 518 692.5 Q558 673 581.5 643.5 Q605 614 613 584 Z " />
<glyph glyph-name="florin" unicode="&#x192;" horiz-adv-x="444" d="M295 611 L274 514 L457 514 L452 490 L269 490 L144 -95 Q116 -133 78 -158.5 Q40 -184 -32 -184 Q-52 -184 -69.5 -182 Q-87 -180 -95 -177 L-90 -156 L-32 -156 Q72 -156 118 -83 L241 490 L151 490 L156 514 L247 514 L270 623 Q295 659 334 685.5 Q373 712 445 712 Q465 712 483 710 Q501 708 508 705 L503 684 L445 684 Q341 684 295 611 Z " />
<glyph glyph-name="yen" unicode="&#xa5;" horiz-adv-x="544" d="M275 215 L493 215 L488 191 L270 191 L229 0 L199 0 L241 191 L24 191 L29 215 L246 215 L269 321 L51 321 L56 345 L260 345 L133 672 L139 700 L153 700 L287 352 L289 352 L571 700 L591 700 L585 672 L318 345 L520 345 L515 321 L298 321 L275 215 Z " />
<glyph glyph-name="uni20A8" unicode="&#x20a8;" horiz-adv-x="525" d="M600 676 L415 676 Q446 657 467.5 629.5 Q489 602 493 569 L482 518 L566 518 L561 494 L477 494 L466 441 Q431 378 372.5 344.5 Q314 311 252 311 L120 311 L378 18 L373 0 L354 0 L84 311 L90 339 L250 339 Q303 339 357 369.5 Q411 400 442 454 L451 494 L124 494 L129 518 L456 518 L465 562 Q459 596 437 621 Q415 646 386.5 658.5 Q358 671 334 671 L162 671 L168 700 L605 700 L600 676 Z " />
<glyph glyph-name="uni20BA" unicode="&#x20ba;" horiz-adv-x="550" d="M465 151 L460 128 Q430 78 365 39 Q300 0 220 0 L53 0 L111 270 L33 236 L39 262 L117 296 L140 402 L61 368 L68 394 L145 428 L204 700 L232 700 L176 441 L430 552 L425 526 L171 416 L148 309 L402 420 L397 394 L142 283 L87 28 L216 28 Q286 28 347 62.5 Q408 97 443 151 L465 151 Z " />
<glyph glyph-name="uni20BD" unicode="&#x20bd;" horiz-adv-x="551" d="M562 583 L528 427 Q491 372 438 343.5 Q385 315 320 315 L130 315 L108 215 L413 215 L408 191 L103 191 L62 0 L32 0 L73 191 L4 191 L9 215 L78 215 L100 315 L30 315 L35 339 L105 339 L183 700 L392 700 Q452 700 499 668 Q546 636 562 583 Z M532 576 Q517 626 475 649 Q433 672 383 672 L207 672 L135 339 L309 339 Q370 339 419 364.5 Q468 390 503 440 L532 576 Z " />
<glyph glyph-name="ordfeminine" unicode="&#xaa;" horiz-adv-x="383" d="M399 625 L344 365 L319 365 L327 402 Q279 358 206 358 Q158 358 129.5 375.5 Q101 393 91 410 L111 505 Q126 524 157.5 541 Q189 558 238 558 L359 558 L373 621 Q368 648 342.5 665 Q317 682 277 682 Q208 682 165 628 L141 628 L146 648 Q198 707 278 707 Q331 707 362.5 681.5 Q394 656 399 625 Z M332 435 L354 534 L240 534 Q181 534 136 495 L120 420 Q129 407 149.5 394.5 Q170 382 206 382 Q246 382 278 397 Q310 412 332 435 Z " />
<glyph glyph-name="ordmasculine" unicode="&#xba;" horiz-adv-x="391" d="M407 625 L368 439 Q347 406 310 382 Q273 358 220 358 Q167 358 136 382.5 Q105 407 97 439 L136 625 Q157 659 194.5 683 Q232 707 284 707 Q337 707 368 682.5 Q399 658 407 625 Z M164 618 L127 446 Q132 419 156 401 Q180 383 220 383 Q260 383 291 401 Q322 419 342 446 L379 618 Q373 646 349 664 Q325 682 284 682 Q244 682 213 663.5 Q182 645 164 618 Z " />
<glyph glyph-name="numbersign" unicode="&#x23;" horiz-adv-x="592" d="M412 239 L508 239 L503 215 L403 215 L322 0 L298 0 L303 18 L377 215 L150 215 L69 0 L45 0 L50 18 L124 215 L29 215 L34 239 L133 239 L212 449 L116 449 L121 473 L221 473 L306 700 L330 700 L326 682 L247 473 L474 473 L559 700 L583 700 L579 682 L500 473 L596 473 L591 449 L491 449 L412 239 Z M238 449 L159 239 L386 239 L465 449 L238 449 Z " />
<glyph glyph-name="uni2116" unicode="&#x2116;" horiz-adv-x="920" d="M965 614 L925 433 Q899 397 857 369 Q815 341 753 341 Q649 341 620 433 L660 614 Q686 651 727.5 678.5 Q769 706 831 706 Q893 706 923.5 678.5 Q954 651 965 614 Z M419 0 L367 0 L209 671 L207 671 L62 0 L32 0 L183 700 L235 700 L394 29 L396 29 L540 700 L570 700 L419 0 Z M684 605 L650 442 Q659 410 685 388.5 Q711 367 760 367 Q844 367 901 442 L935 605 Q913 681 827 681 Q740 681 684 605 Z M886 247 L581 247 L587 274 L892 274 L886 247 Z " />
<glyph glyph-name="zero" unicode="0" horiz-adv-x="574" d="M567 584 L466 116 Q435 66 373 27 Q311 -12 232 -12 Q177 -12 137 7 Q97 26 73.5 55.5 Q50 85 42 116 L143 584 Q174 634 236 673 Q298 712 377 712 Q432 712 472 693 Q512 674 535.5 644.5 Q559 615 567 584 Z M169 574 L73 126 Q84 80 125.5 48 Q167 16 233 16 Q299 16 354 48.5 Q409 81 442 129 L538 577 Q528 623 485 653.5 Q442 684 376 684 Q310 684 255 652 Q200 620 169 574 Z " />
<glyph glyph-name="one" unicode="1" horiz-adv-x="416" d="M178 26 L303 26 L297 0 L13 0 L19 26 L150 26 L286 659 L140 596 L147 626 L310 700 L323 700 L178 26 Z " />
<glyph glyph-name="two" unicode="2" horiz-adv-x="552" d="M552 584 L523 449 Q502 418 464 389.5 Q426 361 371 331 L242 260 Q158 214 116.5 180.5 Q75 147 54 113 L36 26 L443 26 L437 0 L2 0 L30 128 Q50 157 69.5 176.5 Q89 196 126 221.5 Q163 247 230 284 L354 353 Q410 384 446 410.5 Q482 437 498 463 L523 577 Q514 622 470.5 653 Q427 684 361 684 Q293 684 236 648 Q179 612 147 560 L123 560 L128 584 Q164 635 224 673.5 Q284 712 362 712 Q416 712 457 692.5 Q498 673 521.5 643.5 Q545 614 552 584 Z " />
<glyph glyph-name="three" unicode="3" horiz-adv-x="559" d="M536 604 L507 469 Q490 442 451.5 414.5 Q413 387 361 372 Q413 358 443 325 Q473 292 481 254 L451 116 Q421 65 359.5 26.5 Q298 -12 218 -12 Q165 -12 124 7.5 Q83 27 58.5 56.5 Q34 86 27 116 L32 140 L52 140 Q62 88 107 52 Q152 16 220 16 Q286 16 341 48.5 Q396 81 427 129 L453 251 Q444 296 400 327.5 Q356 359 286 359 L227 359 L232 384 L283 384 Q345 384 398 413.5 Q451 443 482 478 L508 597 Q495 631 454.5 657.5 Q414 684 351 684 Q285 684 231 653 Q177 622 150 580 L127 580 L132 604 Q159 643 216.5 677.5 Q274 712 351 712 Q404 712 444 694 Q484 676 506.5 651 Q529 626 536 604 Z " />
<glyph glyph-name="four" unicode="4" horiz-adv-x="549" d="M517 226 L511 200 L403 200 L360 0 L332 0 L375 200 L17 200 L23 226 L463 700 L511 700 L409 226 L517 226 Z M59 226 L381 226 L477 674 L474 674 L59 226 Z " />
<glyph glyph-name="five" unicode="5" horiz-adv-x="564" d="M205 672 L145 393 Q175 420 219 439 Q263 458 319 458 Q373 458 414 438 Q455 418 478.5 388.5 Q502 359 508 330 L461 116 Q432 66 370 27 Q308 -12 229 -12 Q175 -12 133.5 7.5 Q92 27 68 56.5 Q44 86 37 116 L42 140 L62 140 Q71 86 116 51 Q161 16 231 16 Q296 16 351 49 Q406 82 437 129 L478 323 Q469 367 426 398.5 Q383 430 317 430 Q256 430 211.5 407 Q167 384 137 355 L109 355 L183 700 L577 700 L571 672 L205 672 Z " />
<glyph glyph-name="six" unicode="6" horiz-adv-x="569" d="M567 584 L562 560 L543 560 Q533 613 489 648.5 Q445 684 376 684 Q309 684 253 650.5 Q197 617 168 571 L121 353 Q158 389 207.5 411 Q257 433 317 433 Q371 433 412 413.5 Q453 394 476.5 365 Q500 336 507 305 L466 116 Q433 65 372.5 26.5 Q312 -12 233 -12 Q179 -12 138 7.5 Q97 27 73 56.5 Q49 86 42 116 L143 584 Q174 634 236 673 Q298 712 377 712 Q431 712 471.5 692.5 Q512 673 535.5 644 Q559 615 567 584 Z M111 305 L73 126 Q84 80 126 48 Q168 16 234 16 Q299 16 354 49 Q409 82 442 129 L478 298 Q467 343 424.5 374 Q382 405 316 405 Q253 405 197 376 Q141 347 111 305 Z " />
<glyph glyph-name="seven" unicode="7" horiz-adv-x="470" d="M526 673 L73 0 L52 0 L58 28 L493 672 L102 672 L108 700 L532 700 L526 673 Z " />
<glyph glyph-name="eight" unicode="8" horiz-adv-x="576" d="M563 599 L537 475 Q511 439 472 414.5 Q433 390 361 370 Q416 355 446 336.5 Q476 318 489 299.5 Q502 281 513 253 L484 118 Q449 67 385.5 27.5 Q322 -12 232 -12 Q143 -12 94 28 Q45 68 28 118 L57 253 Q77 280 98 299 Q119 318 158 337 Q197 356 261 373 Q200 391 170 417 Q140 443 129 476 L155 599 Q191 647 246 679.5 Q301 712 378 712 Q453 712 500.5 677.5 Q548 643 563 599 Z M535 593 Q518 634 479 659 Q440 684 377 684 Q315 684 264.5 656.5 Q214 629 181 587 L157 481 Q175 425 280 394 L318 383 Q403 406 445.5 430 Q488 454 511 487 L535 593 Z M347 349 L307 360 Q209 336 160.5 308.5 Q112 281 82 241 L57 125 Q65 100 87.5 75 Q110 50 147.5 33 Q185 16 236 16 Q310 16 369 51.5 Q428 87 459 131 L485 248 Q473 283 444.5 306.5 Q416 330 347 349 Z " />
<glyph glyph-name="nine" unicode="9" horiz-adv-x="569" d="M563 584 L462 116 Q431 66 369 27 Q307 -12 228 -12 Q174 -12 133.5 7.5 Q93 27 69.5 56 Q46 85 38 116 L43 140 L62 140 Q72 87 116 51.5 Q160 16 229 16 Q296 16 352 49.5 Q408 83 437 129 L483 344 Q447 308 397 285.5 Q347 263 287 263 Q233 263 192 282.5 Q151 302 127.5 331 Q104 360 97 391 L139 584 Q172 635 232.5 673.5 Q293 712 372 712 Q426 712 467 692.5 Q508 673 532 643.5 Q556 614 563 584 Z M493 392 L532 574 Q521 620 479 652 Q437 684 371 684 Q306 684 251 651 Q196 618 163 571 L126 398 Q137 353 180 322 Q223 291 289 291 Q352 291 408 320 Q464 349 493 392 Z " />
<glyph glyph-name="uni00A0" unicode="&#xa0;" horiz-adv-x="210" d="" />
<glyph glyph-name="fraction" unicode="&#x2044;" horiz-adv-x="145" d="M424 682 L-225 0 L-248 0 L-243 18 L405 700 L428 700 L424 682 Z " />
<glyph glyph-name="onequarter" unicode="&#xbc;" horiz-adv-x="810" d="M764 682 L115 0 L92 0 L97 18 L745 700 L768 700 L764 682 Z M170 303 L247 303 L242 280 L56 280 L61 303 L142 303 L221 673 L136 661 L141 681 L238 700 L255 700 L170 303 Z M760 139 L755 115 L684 115 L659 0 L631 0 L656 115 L415 115 L420 139 L706 420 L749 420 L689 139 L760 139 Z M455 139 L661 139 L715 394 L713 394 L455 139 Z " />
<glyph glyph-name="onehalf" unicode="&#xbd;" horiz-adv-x="879" d="M169 303 L246 303 L241 280 L55 280 L60 303 L141 303 L220 673 L135 661 L140 681 L237 700 L254 700 L169 303 Z M762 682 L113 0 L90 0 L95 18 L743 700 L766 700 L762 682 Z M852 349 L837 274 Q812 236 728 189 L639 138 Q585 108 561 89 Q537 70 523 49 L519 26 L790 26 L784 0 L485 0 L497 57 Q516 85 541.5 106 Q567 127 633 165 L719 214 Q759 237 779.5 252 Q800 267 812 285 L825 346 Q815 371 788 387 Q761 403 716 403 Q671 403 635.5 382.5 Q600 362 577 334 L556 334 L560 354 Q580 382 622.5 405 Q665 428 718 428 Q774 428 809 404.5 Q844 381 852 349 Z " />
<glyph glyph-name="threequarters" unicode="&#xbe;" horiz-adv-x="880" d="M823 682 L174 0 L151 0 L156 18 L804 700 L827 700 L823 682 Z M819 139 L814 115 L743 115 L718 0 L690 0 L715 115 L474 115 L479 139 L765 420 L808 420 L748 139 L819 139 Z M514 139 L720 139 L774 394 L772 394 L514 139 Z M412 642 L395 559 Q385 543 361 527 Q337 511 304 502 Q338 494 356.5 475 Q375 456 381 434 L363 350 Q342 319 301 296 Q260 273 205 273 Q167 273 137 284.5 Q107 296 88.5 313.5 Q70 331 66 348 L71 370 L87 370 Q98 340 129 319 Q160 298 205 298 Q247 298 283.5 317 Q320 336 338 361 L352 432 Q346 456 317 472.5 Q288 489 245 489 L203 489 L209 514 L245 514 Q285 514 318 530.5 Q351 547 369 567 L384 637 Q374 656 349.5 669.5 Q325 683 285 683 Q241 683 209 665 Q177 647 157 621 L135 621 L140 643 Q160 668 196 688 Q232 708 287 708 Q340 708 371.5 687 Q403 666 412 642 Z " />
<glyph glyph-name="fiveeighths" unicode="&#x215d;" horiz-adv-x="961" d="M922 363 L903 277 Q892 259 869.5 243 Q847 227 815 219 Q844 208 862.5 189 Q881 170 885 152 L868 70 Q847 37 807.5 15 Q768 -7 712 -7 Q656 -7 618.5 17 Q581 41 574 70 L591 152 Q605 175 630.5 194.5 Q656 214 691 224 Q666 234 649.5 248.5 Q633 263 627 277 L646 363 Q664 388 701 408 Q738 428 792 428 Q846 428 879 407 Q912 386 922 363 Z M892 354 Q883 373 857.5 388 Q832 403 792 403 Q751 403 719 387.5 Q687 372 672 354 L657 282 Q665 264 692 248.5 Q719 233 760 233 Q830 233 877 282 L892 354 Z M750 209 Q707 209 671.5 191.5 Q636 174 618 149 L604 78 Q610 53 639 35 Q668 17 711 17 Q753 17 788.5 35 Q824 53 841 78 L855 149 Q849 174 821 191.5 Q793 209 750 209 Z M428 674 L182 674 L148 517 Q191 555 261 555 Q314 555 347.5 532 Q381 509 393 480 L364 348 Q342 318 304 295.5 Q266 273 211 273 Q172 273 141.5 284.5 Q111 296 92.5 313.5 Q74 331 69 348 L74 370 L89 370 Q127 298 209 298 Q252 298 287 315.5 Q322 333 340 358 L364 470 Q357 495 328.5 513 Q300 531 258 531 Q222 531 192 517.5 Q162 504 142 487 L115 487 L161 700 L434 700 L428 674 Z M836 682 L187 0 L164 0 L169 18 L817 700 L840 700 L836 682 Z " />
<glyph glyph-name="oneeighth" unicode="&#x215b;" horiz-adv-x="885" d="M764 682 L115 0 L92 0 L97 18 L745 700 L768 700 L764 682 Z M168 303 L245 303 L240 280 L54 280 L59 303 L140 303 L219 673 L134 661 L139 681 L236 700 L253 700 L168 303 Z M851 363 L832 277 Q821 259 798.5 243 Q776 227 744 219 Q773 208 791.5 189 Q810 170 814 152 L797 70 Q776 37 736.5 15 Q697 -7 641 -7 Q585 -7 547.5 17 Q510 41 503 70 L520 152 Q534 175 559.5 194.5 Q585 214 620 224 Q595 234 578.5 248.5 Q562 263 556 277 L575 363 Q593 388 630 408 Q667 428 721 428 Q775 428 808 407 Q841 386 851 363 Z M821 354 Q812 373 786.5 388 Q761 403 721 403 Q680 403 648 387.5 Q616 372 601 354 L586 282 Q594 264 621 248.5 Q648 233 689 233 Q759 233 806 282 L821 354 Z M679 209 Q636 209 600.5 191.5 Q565 174 547 149 L533 78 Q539 53 568 35 Q597 17 640 17 Q682 17 717.5 35 Q753 53 770 78 L784 149 Q778 174 750 191.5 Q722 209 679 209 Z " />
<glyph glyph-name="seveneighths" unicode="&#x215e;" horiz-adv-x="898" d="M873 363 L854 277 Q843 259 820.5 243 Q798 227 766 219 Q795 208 813.5 189 Q832 170 836 152 L819 70 Q798 37 758.5 15 Q719 -7 663 -7 Q607 -7 569.5 17 Q532 41 525 70 L542 152 Q556 175 581.5 194.5 Q607 214 642 224 Q617 234 600.5 248.5 Q584 263 578 277 L597 363 Q615 388 652 408 Q689 428 743 428 Q797 428 830 407 Q863 386 873 363 Z M843 354 Q834 373 808.5 388 Q783 403 743 403 Q702 403 670 387.5 Q638 372 623 354 L608 282 Q616 264 643 248.5 Q670 233 711 233 Q781 233 828 282 L843 354 Z M701 209 Q658 209 622.5 191.5 Q587 174 569 149 L555 78 Q561 53 590 35 Q619 17 662 17 Q704 17 739.5 35 Q775 53 792 78 L806 149 Q800 174 772 191.5 Q744 209 701 209 Z M424 677 L142 280 L122 280 L127 302 L388 672 L388 674 L132 674 L138 700 L429 700 L424 677 Z M761 682 L112 0 L89 0 L94 18 L742 700 L765 700 L761 682 Z " />
<glyph glyph-name="threeeighths" unicode="&#x215c;" horiz-adv-x="935" d="M915 363 L896 277 Q885 259 862.5 243 Q840 227 808 219 Q837 208 855.5 189 Q874 170 878 152 L861 70 Q840 37 800.5 15 Q761 -7 705 -7 Q649 -7 611.5 17 Q574 41 567 70 L584 152 Q598 175 623.5 194.5 Q649 214 684 224 Q659 234 642.5 248.5 Q626 263 620 277 L639 363 Q657 388 694 408 Q731 428 785 428 Q839 428 872 407 Q905 386 915 363 Z M885 354 Q876 373 850.5 388 Q825 403 785 403 Q744 403 712 387.5 Q680 372 665 354 L650 282 Q658 264 685 248.5 Q712 233 753 233 Q823 233 870 282 L885 354 Z M743 209 Q700 209 664.5 191.5 Q629 174 611 149 L597 78 Q603 53 632 35 Q661 17 704 17 Q746 17 781.5 35 Q817 53 834 78 L848 149 Q842 174 814 191.5 Q786 209 743 209 Z M415 642 L398 559 Q388 543 364 527 Q340 511 307 502 Q341 494 359.5 475 Q378 456 384 434 L366 350 Q345 319 304 296 Q263 273 208 273 Q170 273 140 284.5 Q110 296 91.5 313.5 Q73 331 69 348 L74 370 L90 370 Q101 340 132 319 Q163 298 208 298 Q250 298 286.5 317 Q323 336 341 361 L355 432 Q349 456 320 472.5 Q291 489 248 489 L206 489 L212 514 L248 514 Q288 514 321 530.5 Q354 547 372 567 L387 637 Q377 656 352.5 669.5 Q328 683 288 683 Q244 683 212 665 Q180 647 160 621 L138 621 L143 643 Q163 668 199 688 Q235 708 290 708 Q343 708 374.5 687 Q406 666 415 642 Z M829 682 L180 0 L157 0 L162 18 L810 700 L833 700 L829 682 Z " />
<glyph glyph-name="twothirds" unicode="&#x2154;" horiz-adv-x="999" d="M969 362 L952 279 Q942 263 918 247 Q894 231 861 222 Q895 214 913.5 195 Q932 176 938 154 L920 70 Q899 39 858 16 Q817 -7 762 -7 Q724 -7 694 4.5 Q664 16 645.5 33.5 Q627 51 623 68 L628 90 L644 90 Q655 60 686 39 Q717 18 762 18 Q804 18 840.5 37 Q877 56 895 81 L909 152 Q903 176 874 192.5 Q845 209 802 209 L760 209 L766 234 L802 234 Q842 234 875 250.5 Q908 267 926 287 L941 357 Q931 376 906.5 389.5 Q882 403 842 403 Q798 403 766 385 Q734 367 714 341 L692 341 L697 363 Q717 388 753 408 Q789 428 844 428 Q897 428 928.5 407 Q960 386 969 362 Z M422 629 L407 554 Q382 516 298 469 L209 418 Q155 388 131 369 Q107 350 93 329 L89 306 L360 306 L354 280 L55 280 L67 337 Q86 365 111.5 386 Q137 407 203 445 L289 494 Q329 517 349.5 532 Q370 547 382 565 L395 626 Q385 651 358 667 Q331 683 286 683 Q241 683 205.5 662.5 Q170 642 147 614 L126 614 L130 634 Q150 662 192.5 685 Q235 708 288 708 Q344 708 379 684.5 Q414 661 422 629 Z M866 682 L217 0 L194 0 L199 18 L847 700 L870 700 L866 682 Z " />
<glyph glyph-name="uniE000" unicode="&#xe000;" horiz-adv-x="985" d="M840 682 L191 0 L168 0 L173 18 L821 700 L844 700 L840 682 Z M435 633 L432 614 L414 614 Q409 643 377.5 663 Q346 683 300 683 Q260 683 224 665 Q188 647 169 623 L142 496 Q192 541 267 541 Q321 541 356.5 517.5 Q392 494 400 466 L374 348 Q354 317 313.5 295 Q273 273 217 273 Q161 273 125 297 Q89 321 82 350 L142 631 Q161 661 203.5 684.5 Q246 708 301 708 Q356 708 391 685 Q426 662 435 633 Z M134 458 L112 358 Q118 333 146 315 Q174 297 217 297 Q260 297 296 315 Q332 333 350 361 L370 459 Q364 483 335.5 500 Q307 517 264 517 Q225 517 190 500 Q155 483 134 458 Z M927 363 L908 277 Q897 259 874.5 243 Q852 227 820 219 Q849 208 867.5 189 Q886 170 890 152 L873 70 Q852 37 812.5 15 Q773 -7 717 -7 Q661 -7 623.5 17 Q586 41 579 70 L596 152 Q610 175 635.5 194.5 Q661 214 696 224 Q671 234 654.5 248.5 Q638 263 632 277 L651 363 Q669 388 706 408 Q743 428 797 428 Q851 428 884 407 Q917 386 927 363 Z M897 354 Q888 373 862.5 388 Q837 403 797 403 Q756 403 724 387.5 Q692 372 677 354 L662 282 Q670 264 697 248.5 Q724 233 765 233 Q835 233 882 282 L897 354 Z M755 209 Q712 209 676.5 191.5 Q641 174 623 149 L609 78 Q615 53 644 35 Q673 17 716 17 Q758 17 793.5 35 Q829 53 846 78 L860 149 Q854 174 826 191.5 Q798 209 755 209 Z " />
<glyph glyph-name="uniE001" unicode="&#xe001;" horiz-adv-x="1260" d="M170 303 L247 303 L242 280 L56 280 L61 303 L142 303 L221 673 L136 661 L141 681 L238 700 L255 700 L170 303 Z M1231 353 L1228 334 L1210 334 Q1205 363 1173.5 383 Q1142 403 1096 403 Q1056 403 1020 385 Q984 367 965 343 L938 216 Q988 261 1063 261 Q1117 261 1152.5 237.5 Q1188 214 1196 186 L1170 68 Q1150 37 1109.5 15 Q1069 -7 1013 -7 Q957 -7 921 17 Q885 41 878 70 L938 351 Q957 381 999.5 404.5 Q1042 428 1097 428 Q1152 428 1187 405 Q1222 382 1231 353 Z M930 178 L908 78 Q914 53 942 35 Q970 17 1013 17 Q1056 17 1092 35 Q1128 53 1146 81 L1166 179 Q1160 203 1131.5 220 Q1103 237 1060 237 Q1021 237 986 220 Q951 203 930 178 Z M780 682 L131 0 L108 0 L113 18 L761 700 L784 700 L780 682 Z M681 23 L758 23 L753 0 L567 0 L572 23 L653 23 L732 393 L647 381 L652 401 L749 420 L766 420 L681 23 Z " />
<glyph glyph-name="percent" unicode="&#x25;" horiz-adv-x="863" d="M421 629 L379 431 Q357 400 316.5 376.5 Q276 353 221 353 Q165 353 130.5 376.5 Q96 400 85 431 L127 629 Q149 661 190 684.5 Q231 708 286 708 Q342 708 376.5 684 Q411 660 421 629 Z M783 682 L133 0 L111 0 L116 18 L765 700 L787 700 L783 682 Z M155 622 L115 438 Q124 413 151.5 395.5 Q179 378 221 378 Q264 378 299 395.5 Q334 413 352 438 L392 622 Q381 649 354.5 666 Q328 683 286 683 Q243 683 207 665 Q171 647 155 622 Z M813 269 L771 71 Q749 40 708.5 16.5 Q668 -7 613 -7 Q557 -7 522.5 16.5 Q488 40 477 71 L519 269 Q541 301 582 324.5 Q623 348 678 348 Q734 348 768.5 324 Q803 300 813 269 Z M547 262 L507 78 Q516 53 543.5 35.5 Q571 18 613 18 Q656 18 691 35.5 Q726 53 744 78 L784 262 Q773 289 746.5 306 Q720 323 678 323 Q635 323 599 305 Q563 287 547 262 Z " />
<glyph glyph-name="perthousand" unicode="&#x2030;" horiz-adv-x="1233" d="M421 629 L379 431 Q357 400 316.5 376.5 Q276 353 221 353 Q165 353 130.5 376.5 Q96 400 85 431 L127 629 Q149 661 190 684.5 Q231 708 286 708 Q342 708 376.5 684 Q411 660 421 629 Z M783 682 L133 0 L111 0 L116 18 L765 700 L787 700 L783 682 Z M155 622 L115 438 Q124 413 151.5 395.5 Q179 378 221 378 Q264 378 299 395.5 Q334 413 352 438 L392 622 Q381 649 354.5 666 Q328 683 286 683 Q243 683 207 665 Q171 647 155 622 Z M813 269 L771 71 Q749 40 708.5 16.5 Q668 -7 613 -7 Q557 -7 522.5 16.5 Q488 40 477 71 L519 269 Q541 301 582 324.5 Q623 348 678 348 Q734 348 768.5 324 Q803 300 813 269 Z M1183 269 L1141 71 Q1119 40 1078.5 16.5 Q1038 -7 983 -7 Q927 -7 892.5 16.5 Q858 40 847 71 L889 269 Q911 301 952 324.5 Q993 348 1048 348 Q1104 348 1138.5 324 Q1173 300 1183 269 Z M547 262 L507 78 Q516 53 543.5 35.5 Q571 18 613 18 Q656 18 691 35.5 Q726 53 744 78 L784 262 Q773 289 746.5 306 Q720 323 678 323 Q635 323 599 305 Q563 287 547 262 Z M917 262 L877 78 Q886 53 913.5 35.5 Q941 18 983 18 Q1026 18 1061 35.5 Q1096 53 1114 78 L1154 262 Q1143 289 1116.5 306 Q1090 323 1048 323 Q1005 323 969 305 Q933 287 917 262 Z " />
<glyph glyph-name="plus" unicode="&#x2b;" horiz-adv-x="580" d="M303 327 L303 100 L276 100 L276 327 L50 327 L50 354 L276 354 L276 580 L303 580 L303 354 L530 354 L530 327 L303 327 Z " />
<glyph glyph-name="minus" unicode="&#x2212;" horiz-adv-x="580" d="M58 327 L58 354 L538 354 L538 327 L58 327 Z " />
<glyph glyph-name="plusminus" unicode="&#xb1;" horiz-adv-x="580" d="M530 357 L303 357 L303 150 L276 150 L276 357 L50 357 L50 384 L276 384 L276 590 L303 590 L303 384 L530 384 L530 357 Z M530 64 L530 37 L50 37 L50 64 L530 64 Z " />
<glyph glyph-name="multiply" unicode="&#xd7;" horiz-adv-x="580" d="M318 340 L514 144 L514 126 L494 126 L299 321 L104 126 L84 126 L84 144 L280 340 L84 536 L84 554 L104 554 L299 359 L494 554 L514 554 L514 536 L318 340 Z " />
<glyph glyph-name="divide" unicode="&#xf7;" horiz-adv-x="580" d="M300 526 Q308 526 315 523 Q322 520 324 517 L324 483 Q322 480 315 477 Q308 474 300 474 Q292 474 285 477 Q278 480 276 483 L276 517 Q278 520 285 523 Q292 526 300 526 Z M60 327 L60 354 L540 354 L540 327 L60 327 Z M300 210 Q308 210 315 207 Q322 204 324 201 L324 167 Q322 164 315 161 Q308 158 300 158 Q292 158 285 161 Q278 164 276 167 L276 201 Q278 204 285 207 Q292 210 300 210 Z " />
<glyph glyph-name="equal" unicode="&#x3d;" horiz-adv-x="580" d="M58 227 L58 254 L538 254 L538 227 L58 227 Z M58 427 L58 454 L538 454 L538 427 L58 427 Z " />
<glyph glyph-name="notequal" unicode="&#x2260;" horiz-adv-x="580" d="M276 254 L539 254 L539 227 L265 227 L212 100 L185 100 L238 227 L59 227 L59 254 L249 254 L321 427 L59 427 L59 454 L333 454 L385 580 L412 580 L360 454 L539 454 L539 427 L348 427 L276 254 Z " />
<glyph glyph-name="approxequal" unicode="&#x2248;" horiz-adv-x="580" d="M183 283 Q216 283 248 276.5 Q280 270 324 257 Q363 245 392.5 238.5 Q422 232 451 232 Q480 232 505 242 Q530 252 546.5 263.5 Q563 275 563 276 L563 240 Q563 239 547.5 230 Q532 221 507.5 213.5 Q483 206 452 206 Q417 206 385.5 212.5 Q354 219 309 232 Q271 244 241.5 250.5 Q212 257 181 257 Q146 257 116 245.5 Q86 234 65.5 220.5 Q45 207 45 206 L45 237 Q45 238 64 250.5 Q83 263 114 273 Q145 283 183 283 Z M183 483 Q216 483 248 476.5 Q280 470 324 457 Q363 445 392.5 438.5 Q422 432 451 432 Q480 432 505 442 Q530 452 546.5 463.5 Q563 475 563 476 L563 440 Q563 439 547.5 430 Q532 421 507.5 413.5 Q483 406 452 406 Q417 406 385.5 412.5 Q354 419 309 432 Q271 444 241.5 450.5 Q212 457 181 457 Q146 457 116 445.5 Q86 434 65.5 420.5 Q45 407 45 406 L45 437 Q45 438 64 450.5 Q83 463 114 473 Q145 483 183 483 Z " />
<glyph glyph-name="less" unicode="&#x3c;" horiz-adv-x="580" d="M69 302 L535 93 L535 71 L515 71 L25 294 L25 311 L515 534 L535 534 L535 512 L69 302 Z " />
<glyph glyph-name="greater" unicode="&#x3e;" horiz-adv-x="580" d="M555 294 L65 71 L45 71 L45 93 L511 302 L45 512 L45 534 L65 534 L555 311 L555 294 Z " />
<glyph glyph-name="lessequal" unicode="&#x2264;" horiz-adv-x="580" d="M101 338 L530 163 L530 141 L510 141 L50 329 L50 346 L510 534 L530 534 L530 512 L101 338 Z M50 37 L50 64 L530 64 L530 37 L50 37 Z " />
<glyph glyph-name="greaterequal" unicode="&#x2265;" horiz-adv-x="580" d="M537 329 L77 141 L57 141 L57 163 L486 338 L57 512 L57 534 L77 534 L537 346 L537 329 Z M57 37 L57 64 L537 64 L537 37 L57 37 Z " />
<glyph glyph-name="logicalnot" unicode="&#xac;" horiz-adv-x="580" d="M520 100 L493 100 L493 327 L40 327 L40 354 L520 354 L520 100 Z " />
<glyph glyph-name="uni00AD" unicode="&#xad;" horiz-adv-x="360" d="M323 327 L63 327 L69 354 L329 354 L323 327 Z " />
<glyph glyph-name="Delta" unicode="&#x2206;" horiz-adv-x="589" d="M496 0 L-23 0 L-17 28 L365 700 L409 700 L502 28 L496 0 Z M385 671 L382 671 L17 29 L473 29 L385 671 Z " />
<glyph glyph-name="Omega" unicode="&#x2126;" horiz-adv-x="626" d="M351 29 L500 29 L493 0 L299 0 L310 46 Q374 56 424 95 Q474 134 503 181 L583 555 Q573 609 526 646.5 Q479 684 402 684 Q326 684 263 644.5 Q200 605 165 549 L85 175 Q95 130 128 93.5 Q161 57 223 46 L212 0 L17 0 L24 29 L180 29 Q128 47 95 85 Q62 123 53 167 L139 562 Q178 624 244 668.5 Q310 713 403 713 Q496 713 548.5 667 Q601 621 615 562 L529 167 Q505 122 458 84.5 Q411 47 351 29 Z " />
<glyph glyph-name="mu" unicode="&#xb5;" horiz-adv-x="539" d="M517 534 L401 0 L373 0 L385 51 Q314 -12 213 -12 Q156 -12 119 8.5 Q82 29 63 58 L15 -166 L-13 -166 L138 534 L166 534 L70 90 Q87 61 122 38.5 Q157 16 215 16 Q318 16 394 90 L489 534 L517 534 Z " />
<glyph glyph-name="pi" unicode="&#x3c0;" horiz-adv-x="603" d="M625 508 L543 508 L433 0 L405 0 L515 508 L192 508 L82 0 L54 0 L164 508 L82 508 L88 534 L631 534 L625 508 Z " />
<glyph glyph-name="degree" unicode="&#xb0;" horiz-adv-x="362" d="M422 734 L395 607 Q374 579 336.5 556.5 Q299 534 245 534 Q191 534 157 557.5 Q123 581 113 607 L140 734 Q161 761 199 784 Q237 807 291 807 Q345 807 379 783 Q413 759 422 734 Z M163 724 L140 617 Q150 594 175.5 577 Q201 560 244 560 Q287 560 316.5 575.5 Q346 591 372 617 L395 724 Q385 747 359 764 Q333 781 291 781 Q247 781 215 764 Q183 747 163 724 Z " />
<glyph glyph-name="infinity" unicode="&#x221e;" horiz-adv-x="790" d="M729 439 L729 257 Q715 226 676.5 202 Q638 178 582 178 Q528 178 495 200 Q462 222 436 257 L414 313 L391 257 Q365 222 332.5 200 Q300 178 246 178 Q190 178 151.5 202 Q113 226 99 257 L99 439 Q113 470 151.5 494 Q190 518 246 518 Q300 518 332.5 496 Q365 474 391 439 L414 383 L436 439 Q462 474 495 496 Q528 518 582 518 Q638 518 676.5 494 Q715 470 729 439 Z M400 348 L366 432 Q344 460 315.5 476.5 Q287 493 246 493 Q203 493 171 475.5 Q139 458 127 432 L127 264 Q139 238 171 220.5 Q203 203 246 203 Q287 203 315.5 219.5 Q344 236 366 264 L400 348 Z M700 432 Q688 458 656.5 475.5 Q625 493 582 493 Q509 493 461 432 L427 348 L461 264 Q509 203 582 203 Q625 203 656.5 220.5 Q688 238 700 264 L700 432 Z " />
<glyph glyph-name="partialdiff" unicode="&#x2202;" horiz-adv-x="534" d="M470 502 L470 116 Q449 65 398 26.5 Q347 -12 268 -12 Q189 -12 138 26.5 Q87 65 66 116 L66 368 Q87 419 138 457.5 Q189 496 268 496 Q327 496 370 473 Q413 450 442 413 L442 492 Q417 555 334 616 Q251 677 155 710 L177 729 Q277 694 361.5 629 Q446 564 470 502 Z M94 358 L94 126 Q113 79 158 47.5 Q203 16 268 16 Q333 16 378 47.5 Q423 79 442 126 L442 358 Q421 405 377 436.5 Q333 468 268 468 Q203 468 158 436.5 Q113 405 94 358 Z " />
<glyph glyph-name="integral" unicode="&#x222b;" horiz-adv-x="454" d="M434 705 L434 684 L376 684 Q271 684 241 611 L241 -95 Q222 -132 189 -158 Q156 -184 84 -184 Q64 -184 46 -182 Q28 -180 20 -177 L20 -156 L78 -156 Q183 -156 213 -83 L213 623 Q232 660 265 686 Q298 712 370 712 Q390 712 408 710 Q426 708 434 705 Z " />
<glyph glyph-name="radical" unicode="&#x221a;" horiz-adv-x="578" d="M588 682 L343 0 L308 0 L123 509 L60 509 L60 534 L143 534 L325 36 L328 36 L564 700 L588 700 L588 682 Z " />
<glyph glyph-name="summation" unicode="&#x2211;" horiz-adv-x="558" d="M360 314 L360 289 L120 -73 L533 -73 L533 -100 L85 -100 L85 -76 L334 301 L85 676 L85 700 L533 700 L533 673 L121 673 L360 314 Z " />
<glyph glyph-name="product" unicode="&#x220f;" horiz-adv-x="656" d="M541 -100 L541 673 L145 673 L145 -100 L115 -100 L115 700 L571 700 L571 -100 L541 -100 Z " />
<glyph glyph-name="lozenge" unicode="&#x25ca;" horiz-adv-x="561" d="M311 0 L280 0 L70 350 L280 700 L311 700 L521 350 L311 0 Z M295 25 L488 350 L295 675 L103 350 L295 25 Z " />
<glyph glyph-name="arrowleft" unicode="&#x2190;" horiz-adv-x="760" d="M24 364 L359 700 L374 700 L374 674 L64 364 L784 364 L784 335 L65 335 L374 26 L374 0 L359 0 L24 335 L24 364 Z " />
<glyph glyph-name="arrowright" unicode="&#x2192;" horiz-adv-x="760" d="M770 335 L435 0 L420 0 L420 26 L729 335 L10 335 L10 364 L730 364 L420 674 L420 700 L435 700 L770 364 L770 335 Z " />
<glyph glyph-name="arrowup" unicode="&#x2191;" horiz-adv-x="760" d="M760 410 L735 410 L426 720 L426 0 L396 0 L396 720 L85 410 L60 410 L60 424 L396 760 L426 760 L760 424 L760 410 Z " />
<glyph glyph-name="arrowdown" unicode="&#x2193;" horiz-adv-x="760" d="M723 276 L389 -60 L359 -60 L23 276 L23 290 L48 290 L359 -20 L359 700 L389 700 L389 -20 L698 290 L723 290 L723 276 Z " />
<glyph glyph-name="uni0410" unicode="&#x410;" horiz-adv-x="589" d="M496 0 L477 0 L445 233 L132 233 L0 0 L-23 0 L-17 28 L365 700 L409 700 L502 28 L496 0 Z M384 673 L381 673 L148 262 L441 262 L384 673 Z " />
<glyph glyph-name="uni0411" unicode="&#x411;" horiz-adv-x="566" d="M207 671 L150 408 L344 408 Q406 408 456.5 376 Q507 344 523 298 L484 118 Q449 65 392.5 32.5 Q336 0 259 0 L32 0 L183 700 L597 700 L591 671 L207 671 Z M144 379 L69 29 L256 29 Q323 29 370 55.5 Q417 82 457 131 L491 291 Q476 330 434 354.5 Q392 379 337 379 L144 379 Z " />
<glyph glyph-name="uni0412" unicode="&#x412;" horiz-adv-x="574" d="M571 583 L543 455 Q524 425 488.5 400 Q453 375 414 359 Q449 346 477.5 321.5 Q506 297 518 264 L487 118 Q454 64 399.5 32 Q345 0 270 0 L32 0 L183 700 L396 700 Q464 700 508.5 667 Q553 634 571 583 Z M539 576 Q525 621 486.5 646 Q448 671 391 671 L207 671 L143 374 L342 374 Q384 374 435 400.5 Q486 427 516 468 L539 576 Z M334 345 L136 345 L69 29 L255 29 Q331 29 377.5 55.5 Q424 82 460 131 L487 257 Q473 296 430.5 320.5 Q388 345 334 345 Z " />
<glyph glyph-name="uni0413" unicode="&#x413;" horiz-adv-x="477" d="M539 671 L207 671 L62 0 L32 0 L183 700 L545 700 L539 671 Z " />
<glyph glyph-name="uni0414" unicode="&#x414;" horiz-adv-x="657" d="M487 29 L571 29 L534 -141 L504 -141 L534 0 L2 0 L-28 -141 L-58 -141 L-21 29 Q17 39 54 64.5 Q91 90 104 113 L295 700 L632 700 L487 29 Z M457 29 L596 671 L315 671 L131 101 Q118 79 93 59.5 Q68 40 37 29 L457 29 Z " />
<glyph glyph-name="uni0415" unicode="&#x415;" horiz-adv-x="545" d="M207 671 L143 377 L478 377 L472 348 L137 348 L69 29 L439 29 L432 0 L32 0 L183 700 L573 700 L567 671 L207 671 Z " />
<glyph glyph-name="uni0416" unicode="&#x416;" horiz-adv-x="824" d="M608 369 L737 28 L731 0 L716 0 L582 354 L446 354 L369 0 L339 0 L416 354 L284 354 L-4 0 L-23 0 L-17 28 L260 371 L132 672 L138 700 L151 700 L286 383 L422 383 L490 700 L520 700 L452 383 L584 383 L855 700 L872 700 L866 672 L608 369 Z " />
<glyph glyph-name="uni0417" unicode="&#x417;" horiz-adv-x="596" d="M589 583 L567 478 Q496 386 401 361 Q449 346 476.5 314 Q504 282 517 247 L489 118 Q453 65 392.5 26.5 Q332 -12 240 -12 Q149 -12 98.5 29 Q48 70 33 118 L38 142 L63 142 Q73 92 118.5 54.5 Q164 17 242 17 Q315 17 371.5 51.5 Q428 86 462 131 L486 240 Q473 283 428.5 317 Q384 351 310 348 L248 348 L249 353 L254 377 L316 377 Q389 374 448.5 410.5 Q508 447 539 491 L557 576 Q546 617 501 650.5 Q456 684 382 684 Q306 684 247 646.5 Q188 609 151 559 L128 559 L133 583 Q171 634 232 673.5 Q293 713 383 713 Q474 713 523 673 Q572 633 589 583 Z " />
<glyph glyph-name="uni0418" unicode="&#x418;" horiz-adv-x="653" d="M475 0 L620 671 L617 671 L82 0 L32 0 L183 700 L213 700 L69 29 L72 29 L606 700 L656 700 L505 0 L475 0 Z " />
<glyph glyph-name="uni0419" unicode="&#x419;" horiz-adv-x="653" d="M475 0 L620 671 L617 671 L82 0 L32 0 L183 700 L213 700 L69 29 L72 29 L606 700 L656 700 L505 0 L475 0 Z M561 813 Q547 789 517.5 769.5 Q488 750 438 750 Q389 750 362.5 771 Q336 792 329 813 L337 856 L364 856 L357 822 Q359 807 379.5 791 Q400 775 439 775 Q478 775 502.5 790.5 Q527 806 535 822 L542 856 L569 856 L561 813 Z " />
<glyph glyph-name="uni041A" unicode="&#x41a;" horiz-adv-x="547" d="M295 369 L460 28 L454 0 L440 0 L270 354 L139 354 L62 0 L32 0 L183 700 L213 700 L145 383 L270 383 L577 700 L595 700 L589 672 L295 369 Z " />
<glyph glyph-name="uni041B" unicode="&#x41b;" horiz-adv-x="626" d="M478 0 L448 0 L593 671 L312 671 L119 75 Q98 41 57 19 Q16 -3 -38 -3 L-32 27 Q8 27 42.5 46.5 Q77 66 93 91 L292 700 L629 700 L478 0 Z " />
<glyph glyph-name="uni041C" unicode="&#x41c;" horiz-adv-x="745" d="M567 0 L712 671 L709 671 L381 215 L342 215 L210 671 L207 671 L62 0 L32 0 L183 700 L233 700 L364 244 L367 244 L694 700 L748 700 L597 0 L567 0 Z " />
<glyph glyph-name="uni041D" unicode="&#x41d;" horiz-adv-x="636" d="M458 0 L533 346 L137 346 L62 0 L32 0 L183 700 L213 700 L143 375 L539 375 L609 700 L639 700 L488 0 L458 0 Z " />
<glyph glyph-name="uni041E" unicode="&#x41e;" horiz-adv-x="626" d="M615 562 L524 138 Q484 75 420 31.5 Q356 -12 263 -12 Q199 -12 153 10.5 Q107 33 81 67.5 Q55 102 47 139 L139 563 Q179 626 242 669.5 Q305 713 398 713 Q462 713 508.5 690.5 Q555 668 581 633.5 Q607 599 615 562 Z M165 549 L79 146 Q90 91 137 54 Q184 17 261 17 Q339 17 399 55.5 Q459 94 497 152 L583 555 Q573 609 525 646.5 Q477 684 400 684 Q322 684 262.5 645.5 Q203 607 165 549 Z " />
<glyph glyph-name="uni041F" unicode="&#x41f;" horiz-adv-x="631" d="M483 0 L453 0 L598 671 L207 671 L62 0 L32 0 L183 700 L634 700 L483 0 Z " />
<glyph glyph-name="uni0420" unicode="&#x420;" horiz-adv-x="551" d="M564 583 L526 407 Q489 352 432 321 Q375 290 311 290 L125 290 L62 0 L32 0 L183 700 L384 700 Q452 700 498.5 668.5 Q545 637 564 583 Z M532 576 Q515 625 475.5 648 Q436 671 380 671 L207 671 L131 319 L312 319 Q364 319 414 345.5 Q464 372 499 420 L532 576 Z " />
<glyph glyph-name="uni0421" unicode="&#x421;" horiz-adv-x="607" d="M615 562 L610 538 L591 538 Q580 602 530.5 643 Q481 684 400 684 Q319 684 259.5 645 Q200 606 165 549 L79 146 Q90 91 137 54 Q184 17 261 17 Q342 17 403 57 Q464 97 502 163 L529 163 L523 139 Q487 77 421.5 32.5 Q356 -12 263 -12 Q199 -12 153 10.5 Q107 33 81 67.5 Q55 102 47 139 L139 562 Q172 622 238.5 667.5 Q305 713 398 713 Q462 713 508.5 690.5 Q555 668 581 633.5 Q607 599 615 562 Z " />
<glyph glyph-name="uni0422" unicode="&#x422;" horiz-adv-x="520" d="M582 671 L362 671 L217 0 L187 0 L332 671 L112 671 L118 700 L588 700 L582 671 Z " />
<glyph glyph-name="uni0423" unicode="&#x423;" horiz-adv-x="540" d="M592 700 L586 672 L209 58 Q162 -3 66 -3 Q51 -3 31 -1 L37 28 Q41 28 51.5 27 Q62 26 74 26 Q140 26 186 72 L242 165 L128 672 L134 700 L151 700 L264 198 L570 700 L592 700 Z " />
<glyph glyph-name="uni0424" unicode="&#x424;" horiz-adv-x="687" d="M665 515 L595 185 Q555 129 486.5 93.5 Q418 58 351 58 L313 58 L292 -40 L262 -40 L283 58 L256 58 Q190 58 134 94.5 Q78 131 58 185 L128 515 Q169 569 237 605.5 Q305 642 370 642 L408 642 L429 740 L459 740 L438 642 L467 642 Q511 642 552 625 Q593 608 623.5 578.5 Q654 549 665 515 Z M289 87 L402 613 L375 613 Q320 613 257 582.5 Q194 552 156 505 L90 195 Q106 147 156 117 Q206 87 262 87 L289 87 Z M633 505 Q618 553 568 583 Q518 613 460 613 L432 613 L319 87 L347 87 Q403 87 466 117 Q529 147 567 195 L633 505 Z " />
<glyph glyph-name="uni0425" unicode="&#x425;" horiz-adv-x="568" d="M324 355 L463 28 L457 0 L444 0 L301 336 L298 336 L14 0 L-6 0 L0 28 L282 361 L146 672 L152 700 L165 700 L305 380 L308 380 L584 700 L603 700 L597 672 L324 355 Z " />
<glyph glyph-name="uni0426" unicode="&#x426;" horiz-adv-x="657" d="M571 29 L534 -141 L504 -141 L534 0 L32 0 L183 700 L213 700 L69 29 L458 29 L602 700 L632 700 L488 29 L571 29 Z " />
<glyph glyph-name="uni0427" unicode="&#x427;" horiz-adv-x="613" d="M616 700 L465 0 L435 0 L507 332 Q470 302 415 282.5 Q360 263 296 263 Q213 263 165.5 293.5 Q118 324 100 358 L173 700 L203 700 L132 370 Q146 342 187 317 Q228 292 299 292 Q367 292 424.5 315.5 Q482 339 516 374 L586 700 L616 700 Z " />
<glyph glyph-name="uni0428" unicode="&#x428;" horiz-adv-x="894" d="M32 0 L183 700 L213 700 L69 29 L381 29 L525 700 L555 700 L411 29 L723 29 L867 700 L897 700 L746 0 L32 0 Z " />
<glyph glyph-name="uni0429" unicode="&#x429;" horiz-adv-x="922" d="M836 29 L799 -141 L769 -141 L799 0 L32 0 L183 700 L213 700 L69 29 L381 29 L525 700 L555 700 L411 29 L723 29 L867 700 L897 700 L753 29 L836 29 Z " />
<glyph glyph-name="uni042A" unicode="&#x42a;" horiz-adv-x="665" d="M617 298 L578 118 Q541 67 484.5 33.5 Q428 0 352 0 L126 0 L271 671 L112 671 L118 700 L307 700 L244 408 L440 408 Q497 408 548.5 375 Q600 342 617 298 Z M585 291 Q570 328 528 353.5 Q486 379 435 379 L238 379 L163 29 L344 29 Q468 29 551 131 L585 291 Z " />
<glyph glyph-name="uni042B" unicode="&#x42b;" horiz-adv-x="748" d="M150 408 L326 408 Q383 408 434.5 375 Q486 342 503 298 L464 118 Q427 67 370.5 33.5 Q314 0 238 0 L32 0 L183 700 L213 700 L150 408 Z M600 0 L570 0 L721 700 L751 700 L600 0 Z M144 379 L69 29 L230 29 Q354 29 437 131 L471 291 Q456 328 414 353.5 Q372 379 321 379 L144 379 Z " />
<glyph glyph-name="uni042C" unicode="&#x42c;" horiz-adv-x="571" d="M150 408 L346 408 Q403 408 454.5 375 Q506 342 523 298 L484 118 Q447 67 390.5 33.5 Q334 0 258 0 L32 0 L183 700 L213 700 L150 408 Z M144 379 L69 29 L250 29 Q374 29 457 131 L491 291 Q476 328 434 353.5 Q392 379 341 379 L144 379 Z " />
<glyph glyph-name="uni042D" unicode="&#x42d;" horiz-adv-x="616" d="M605 562 L513 139 Q480 79 413.5 33.5 Q347 -12 254 -12 Q190 -12 143.5 10.5 Q97 33 71 67.5 Q45 102 37 139 L42 163 L61 163 Q72 99 121.5 58 Q171 17 252 17 Q333 17 392.5 56 Q452 95 487 152 L529 348 L246 348 L252 377 L535 377 L573 555 Q562 610 515.5 647 Q469 684 392 684 Q311 684 249.5 644 Q188 604 150 538 L123 538 L129 562 Q165 624 230.5 668.5 Q296 713 389 713 Q453 713 499 690.5 Q545 668 571 633.5 Q597 599 605 562 Z " />
<glyph glyph-name="uni042E" unicode="&#x42e;" horiz-adv-x="846" d="M835 562 L743 139 Q703 76 640 32 Q577 -12 488 -12 Q398 -12 349.5 33 Q301 78 287 139 L332 348 L137 348 L62 0 L32 0 L183 700 L213 700 L143 377 L339 377 L379 562 Q419 625 481.5 669 Q544 713 633 713 Q722 713 772 668 Q822 623 835 562 Z M803 555 Q793 610 748.5 647 Q704 684 632 684 Q561 684 501.5 645 Q442 606 405 549 L319 146 Q329 91 373.5 54 Q418 17 490 17 Q562 17 621 56 Q680 95 717 152 L803 555 Z " />
<glyph glyph-name="uni042F" unicode="&#x42f;" horiz-adv-x="574" d="M577 700 L426 0 L396 0 L465 320 L301 320 L27 0 L7 0 L13 28 L263 320 Q204 324 162 356.5 Q120 389 104 437 L136 583 Q176 638 231 669 Q286 700 351 700 L577 700 Z M471 349 L541 671 L351 671 Q300 671 250 645 Q200 619 162 570 L136 443 Q152 397 189 373 Q226 349 281 349 L471 349 Z " />
<glyph glyph-name="uni0490" unicode="&#x490;" horiz-adv-x="458" d="M207 671 L62 0 L32 0 L183 700 L496 700 L523 827 L553 827 L520 671 L207 671 Z " />
<glyph glyph-name="uni0406" unicode="&#x406;" horiz-adv-x="210" d="M62 0 L32 0 L183 700 L213 700 L62 0 Z " />
<glyph glyph-name="uni0402" unicode="&#x402;" horiz-adv-x="687" d="M653 342 L600 94 Q568 58 508.5 28.5 Q449 -1 365 -1 L354 -1 L360 28 Q435 28 491.5 54.5 Q548 81 574 109 L622 333 Q608 361 566.5 384.5 Q525 408 453 408 Q386 408 328 384 Q270 360 236 324 L166 0 L136 0 L281 671 L112 671 L118 700 L531 700 L525 671 L311 671 L246 368 Q282 398 336 417.5 Q390 437 454 437 Q537 437 585.5 406.5 Q634 376 653 342 Z " />
<glyph glyph-name="uni0452" unicode="&#x452;" horiz-adv-x="559" d="M523 447 L415 -50 Q386 -102 327 -140 Q268 -178 189 -178 L195 -150 Q259 -150 309.5 -117.5 Q360 -85 390 -37 L493 440 Q481 469 444.5 493.5 Q408 518 348 518 Q288 518 238.5 495 Q189 472 159 437 L65 0 L37 0 L171 620 L116 620 L121 644 L176 644 L188 700 L216 700 L204 644 L422 644 L417 620 L199 620 L168 478 Q199 508 245 527 Q291 546 350 546 Q424 546 467 514 Q510 482 523 447 Z " />
<glyph glyph-name="uni0403" unicode="&#x403;" horiz-adv-x="477" d="M539 671 L207 671 L62 0 L32 0 L183 700 L545 700 L539 671 Z M352 755 L331 755 L334 771 L439 899 L464 899 L460 879 L352 755 Z " />
<glyph glyph-name="uni0453" unicode="&#x453;" horiz-adv-x="412" d="M439 508 L160 508 L50 0 L22 0 L138 534 L445 534 L439 508 Z M296 605 L275 605 L279 621 L386 759 L411 759 L407 739 L296 605 Z " />
<glyph glyph-name="uni0456" unicode="&#x456;" horiz-adv-x="196" d="M54 0 L26 0 L142 534 L170 534 L54 0 Z " />
<glyph glyph-name="uni0491" unicode="&#x491;" horiz-adv-x="410" d="M160 508 L50 0 L22 0 L138 534 L410 534 L430 630 L458 630 L432 508 L160 508 Z " />
<glyph glyph-name="uni0408" unicode="&#x408;" horiz-adv-x="386" d="M273 139 Q237 76 167 37.5 Q97 -1 5 -1 Q-18 -1 -27.5 -0.5 Q-37 0 -38 0 L-31 29 L12 29 Q86 29 149 62.5 Q212 96 247 152 L364 700 L394 700 L273 139 Z " />
<glyph glyph-name="uni0404" unicode="&#x404;" horiz-adv-x="616" d="M615 562 L610 538 L591 538 Q580 602 530.5 643 Q481 684 400 684 Q319 684 259.5 645 Q200 606 165 549 L128 377 L410 377 L404 348 L122 348 L79 146 Q90 91 136.5 54 Q183 17 260 17 Q341 17 402.5 57 Q464 97 502 163 L529 163 L523 139 Q487 77 421.5 32.5 Q356 -12 263 -12 Q199 -12 153 10.5 Q107 33 81 67.5 Q55 102 47 139 L139 562 Q172 622 238.5 667.5 Q305 713 398 713 Q462 713 508.5 690.5 Q555 668 581 633.5 Q607 599 615 562 Z " />
<glyph glyph-name="uni0454" unicode="&#x454;" horiz-adv-x="514" d="M502 418 L497 398 L477 398 Q469 450 429.5 484 Q390 518 321 518 Q255 518 202.5 485.5 Q150 453 122 405 L97 289 L337 289 L332 263 L92 263 L62 123 Q71 77 109.5 46.5 Q148 16 214 16 Q281 16 333 49.5 Q385 83 416 136 L441 136 L436 116 Q408 65 350 26.5 Q292 -12 213 -12 Q133 -12 87.5 27 Q42 66 32 116 L98 418 Q128 470 185 508 Q242 546 323 546 Q401 546 446.5 507 Q492 468 502 418 Z " />
<glyph glyph-name="uni0407" unicode="&#x407;" horiz-adv-x="210" d="M176 823 L169 792 Q166 789 158 786 Q150 783 142 783 Q134 783 127.5 786 Q121 789 119 792 L126 823 Q128 826 136 829 Q144 832 152 832 Q160 832 166.5 829 Q173 826 176 823 Z M325 823 L318 792 Q315 789 307 786 Q299 783 291 783 Q283 783 276.5 786 Q270 789 268 792 L275 823 Q277 826 285 829 Q293 832 301 832 Q309 832 315.5 829 Q322 826 325 823 Z M62 0 L32 0 L183 700 L213 700 L62 0 Z " />
<glyph glyph-name="uni0457" unicode="&#x457;" horiz-adv-x="219" d="M161 693 L154 662 Q145 653 128 653 Q120 653 113 656 Q106 659 104 662 L111 693 Q114 696 122 699 Q130 702 138 702 Q146 702 152.5 699 Q159 696 161 693 Z M290 693 L283 662 Q274 653 257 653 Q249 653 242 656 Q235 659 233 662 L240 693 Q243 696 251 699 Q259 702 267 702 Q275 702 281.5 699 Q288 696 290 693 Z M65 0 L37 0 L153 534 L181 534 L65 0 Z " />
<glyph glyph-name="uni0409" unicode="&#x409;" horiz-adv-x="987" d="M939 298 L900 118 Q863 67 806.5 33.5 Q750 0 674 0 L448 0 L593 671 L312 671 L119 75 Q98 41 57 19 Q16 -3 -38 -3 L-32 27 Q8 27 42.5 46.5 Q77 66 93 91 L292 700 L629 700 L566 408 L762 408 Q819 408 870.5 375 Q922 342 939 298 Z M907 291 Q892 328 850 353.5 Q808 379 757 379 L560 379 L485 29 L666 29 Q790 29 873 131 L907 291 Z " />
<glyph glyph-name="uni0459" unicode="&#x459;" horiz-adv-x="813" d="M762 224 L733 89 Q704 49 659.5 24.5 Q615 0 567 0 L361 0 L471 508 L239 508 L99 70 Q80 39 42.5 17.5 Q5 -4 -44 -4 L-38 24 Q-1 24 29.5 41 Q60 58 73 81 L220 534 L505 534 L456 313 L623 313 Q673 313 711 287.5 Q749 262 762 224 Z M733 218 Q722 246 690.5 266.5 Q659 287 616 287 L451 287 L395 26 L568 26 Q603 26 642.5 47.5 Q682 69 708 101 L733 218 Z " />
<glyph glyph-name="uni040A" unicode="&#x40a;" horiz-adv-x="974" d="M926 298 L887 118 Q850 67 793.5 33.5 Q737 0 661 0 L435 0 L517 379 L202 379 L120 0 L90 0 L241 700 L271 700 L208 408 L523 408 L586 700 L616 700 L553 408 L749 408 Q806 408 857.5 375 Q909 342 926 298 Z M894 291 Q879 328 837 353.5 Q795 379 744 379 L547 379 L472 29 L653 29 Q777 29 860 131 L894 291 Z " />
<glyph glyph-name="uni045A" unicode="&#x45a;" horiz-adv-x="816" d="M767 224 L738 89 Q709 49 664.5 24.5 Q620 0 572 0 L366 0 L428 287 L112 287 L50 0 L22 0 L138 534 L166 534 L117 313 L434 313 L482 534 L510 534 L461 313 L628 313 Q678 313 716 287.5 Q754 262 767 224 Z M738 218 Q727 246 695.5 266.5 Q664 287 621 287 L456 287 L400 26 L573 26 Q608 26 647.5 47.5 Q687 69 713 101 L738 218 Z " />
<glyph glyph-name="uni0458" unicode="&#x458;" horiz-adv-x="188" d="M210 696 L202 662 Q193 653 177 653 Q169 653 162.5 656 Q156 659 154 662 L162 696 Q171 705 188 705 Q196 705 202 702 Q208 699 210 696 Z M40 -50 Q11 -102 -48 -140 Q-107 -178 -186 -178 L-180 -150 Q-116 -150 -65.5 -117.5 Q-15 -85 15 -37 L138 534 L166 534 L40 -50 Z " />
<glyph glyph-name="uni0405" unicode="&#x405;" horiz-adv-x="560" d="M565 599 L560 574 L539 574 Q525 623 479.5 653 Q434 683 366 683 Q303 683 250.5 655.5 Q198 628 164 586 L141 475 Q150 445 178.5 427 Q207 409 275 387 L350 363 Q430 338 461 311 Q492 284 502 246 L474 118 Q439 66 378 27 Q317 -12 228 -12 Q165 -12 118.5 9 Q72 30 45.5 60 Q19 90 10 118 L15 143 L36 143 Q53 89 101.5 53 Q150 17 229 17 Q303 17 360 51.5 Q417 86 447 131 L470 239 Q464 269 436 292 Q408 315 339 337 L262 361 Q187 384 155.5 407 Q124 430 109 468 L137 599 Q225 712 367 712 Q447 712 496 678.5 Q545 645 565 599 Z " />
<glyph glyph-name="uni040B" unicode="&#x40b;" horiz-adv-x="660" d="M525 671 L311 671 L254 408 L438 408 Q496 408 546 375.5 Q596 343 612 298 L547 0 L517 0 L580 291 Q565 328 524 353.5 Q483 379 435 379 L248 379 L166 0 L136 0 L281 671 L112 671 L118 700 L531 700 L525 671 Z " />
<glyph glyph-name="uni045B" unicode="&#x45b;" horiz-adv-x="559" d="M523 447 L426 0 L398 0 L493 440 Q481 469 445 493.5 Q409 518 344 518 Q287 518 238 493.5 Q189 469 159 434 L65 0 L37 0 L171 620 L116 620 L121 644 L176 644 L188 700 L216 700 L204 644 L422 644 L417 620 L199 620 L168 475 Q198 506 243.5 526 Q289 546 347 546 Q423 546 466.5 514 Q510 482 523 447 Z " />
<glyph glyph-name="uni040C" unicode="&#x40c;" horiz-adv-x="547" d="M295 369 L460 28 L454 0 L440 0 L270 354 L139 354 L62 0 L32 0 L183 700 L213 700 L145 383 L270 383 L577 700 L595 700 L589 672 L295 369 Z M387 755 L366 755 L369 771 L474 899 L499 899 L495 879 L387 755 Z " />
<glyph glyph-name="uni045C" unicode="&#x45c;" horiz-adv-x="465" d="M249 281 L393 26 L387 0 L376 0 L223 268 L108 268 L50 0 L22 0 L138 534 L166 534 L114 294 L224 294 L476 534 L493 534 L487 508 L249 281 Z M323 605 L302 605 L306 621 L413 759 L438 759 L434 739 L323 605 Z " />
<glyph glyph-name="uni0455" unicode="&#x455;" horiz-adv-x="464" d="M447 468 L443 448 L423 448 Q410 476 372 497 Q334 518 283 518 Q235 518 195.5 500.5 Q156 483 128 455 L107 360 Q117 343 139 329 Q161 315 207 300 L275 278 Q382 244 399 196 L374 79 Q349 45 300 16.5 Q251 -12 182 -12 Q112 -12 68.5 17.5 Q25 47 10 79 L14 99 L33 99 Q48 65 86.5 40.5 Q125 16 185 16 Q240 16 281.5 38 Q323 60 349 92 L370 189 Q361 210 335.5 224.5 Q310 239 262 254 L193 276 Q142 292 114 313 Q86 334 78 353 L103 468 Q126 497 174 521.5 Q222 546 286 546 Q348 546 390 521 Q432 496 447 468 Z " />
<glyph glyph-name="uni040E" unicode="&#x40e;" horiz-adv-x="540" d="M502 813 Q488 789 458.5 769.5 Q429 750 379 750 Q330 750 303.5 771 Q277 792 270 813 L278 856 L305 856 L298 822 Q300 807 320.5 791 Q341 775 380 775 Q419 775 443.5 790.5 Q468 806 476 822 L483 856 L510 856 L502 813 Z M592 700 L586 672 L209 58 Q162 -3 66 -3 Q51 -3 31 -1 L37 28 Q41 28 51.5 27 Q62 26 74 26 Q140 26 186 72 L242 165 L128 672 L134 700 L151 700 L264 198 L570 700 L592 700 Z " />
<glyph glyph-name="uni045E" unicode="&#x45e;" horiz-adv-x="488" d="M486 534 L510 534 L504 509 L161 -99 Q126 -140 83 -156 Q40 -172 -10 -172 Q-32 -172 -47 -169 L-41 -142 Q-26 -144 -5 -144 Q41 -144 74 -129 Q107 -114 134 -86 L177 -9 L102 506 L108 534 L127 534 L198 30 L201 30 L486 534 Z M449 679 Q406 616 324 616 Q275 616 248.5 636.5 Q222 657 217 679 L225 722 L252 722 L245 688 Q247 673 266.5 657 Q286 641 325 641 Q364 641 389.5 657 Q415 673 423 688 L430 722 L457 722 L449 679 Z " />
<glyph glyph-name="uni040F" unicode="&#x40f;" horiz-adv-x="634" d="M274 0 L246 -136 L216 -136 L244 0 L32 0 L183 700 L213 700 L69 29 L463 29 L607 700 L637 700 L486 0 L274 0 Z " />
<glyph glyph-name="uni045F" unicode="&#x45f;" horiz-adv-x="550" d="M232 0 L206 -126 L178 -126 L204 0 L22 0 L138 534 L166 534 L56 26 L390 26 L500 534 L528 534 L412 0 L232 0 Z " />
<glyph glyph-name="uni0401" unicode="&#x401;" horiz-adv-x="545" d="M207 671 L143 377 L478 377 L472 348 L137 348 L69 29 L439 29 L432 0 L32 0 L183 700 L573 700 L567 671 L207 671 Z M329 831 L322 795 Q319 792 310.5 789 Q302 786 294 786 Q286 786 280 789 Q274 792 272 795 L279 831 Q282 834 290 837 Q298 840 306 840 Q314 840 320.5 837 Q327 834 329 831 Z M508 831 L501 795 Q498 792 489.5 789 Q481 786 473 786 Q465 786 459 789 Q453 792 451 795 L458 831 Q461 834 469 837 Q477 840 485 840 Q493 840 499.5 837 Q506 834 508 831 Z " />
<glyph glyph-name="uni0451" unicode="&#x451;" horiz-adv-x="529" d="M502 418 L472 282 L96 282 L62 123 Q71 77 109.5 46.5 Q148 16 214 16 Q280 16 331.5 49 Q383 82 415 136 L441 136 L436 116 Q406 64 349.5 26 Q293 -12 213 -12 Q133 -12 87.5 27 Q42 66 32 116 L98 418 Q127 469 184 507.5 Q241 546 320 546 Q374 546 413.5 527 Q453 508 474.5 478.5 Q496 449 502 418 Z M122 405 L102 308 L450 308 L472 411 Q466 456 426 487 Q386 518 320 518 Q254 518 202.5 485.5 Q151 453 122 405 Z M300 693 L292 657 Q290 654 282 651 Q274 648 266 648 Q258 648 251.5 651 Q245 654 242 657 L250 693 Q253 696 261 699 Q269 702 277 702 Q285 702 291.5 699 Q298 696 300 693 Z M479 693 L471 657 Q469 654 461 651 Q453 648 445 648 Q437 648 430.5 651 Q424 654 421 657 L429 693 Q432 696 440 699 Q448 702 456 702 Q464 702 470.5 699 Q477 696 479 693 Z " />
<glyph glyph-name="uni044F" unicode="&#x44f;" horiz-adv-x="508" d="M486 534 L370 0 L342 0 L392 232 L245 232 L26 0 L7 0 L12 24 L209 232 Q161 235 126.5 259.5 Q92 284 76 321 L103 445 Q130 484 174.5 509 Q219 534 267 534 L486 534 Z M398 258 L452 508 L268 508 Q231 508 191 485.5 Q151 463 128 433 L106 327 Q118 299 148.5 278.5 Q179 258 220 258 L398 258 Z " />
<glyph glyph-name="uni0430" unicode="&#x430;" horiz-adv-x="528" d="M486 418 L395 0 L367 0 L383 70 Q351 35 302 11.5 Q253 -12 189 -12 Q119 -12 77 14.5 Q35 41 18 72 L51 225 Q62 240 86.5 259.5 Q111 279 150.5 293.5 Q190 308 239 308 L434 308 L456 411 Q448 456 407.5 487 Q367 518 302 518 Q242 518 198 492.5 Q154 467 131 435 L105 435 L109 455 Q135 487 185 516.5 Q235 546 303 546 Q357 546 396.5 526.5 Q436 507 458 478 Q480 449 486 418 Z M392 113 L428 282 L248 282 Q184 282 141 260.5 Q98 239 76 213 L48 79 Q63 55 96.5 35.5 Q130 16 191 16 Q256 16 308 44 Q360 72 392 113 Z " />
<glyph glyph-name="uni0431" unicode="&#x431;" horiz-adv-x="535" d="M155 543 L132 434 Q204 502 316 502 Q368 502 406.5 483 Q445 464 467 434.5 Q489 405 495 374 L439 116 Q407 64 350.5 26 Q294 -12 215 -12 Q136 -12 90.5 27 Q45 66 35 116 L129 553 Q182 630 365 663 Q449 678 482 688 Q515 698 531 713 L551 713 L545 686 Q528 670 491 660 Q454 650 365 636 Q292 624 237.5 599.5 Q183 575 155 543 Z M123 392 L65 123 Q77 77 114 46.5 Q151 16 216 16 Q280 16 330.5 48 Q381 80 415 129 L466 367 Q457 413 417.5 443.5 Q378 474 313 474 Q256 474 206 451 Q156 428 123 392 Z " />
<glyph glyph-name="uni0432" unicode="&#x432;" horiz-adv-x="516" d="M480 445 L458 343 Q423 296 359 272 Q386 262 406.5 243 Q427 224 436 200 L413 90 Q350 0 239 0 L22 0 L138 534 L344 534 Q393 534 429.5 508.5 Q466 483 480 445 Z M451 439 Q437 471 408 490 Q379 509 341 509 L160 509 L111 285 L303 285 Q337 285 373 305 Q409 325 433 354 L451 439 Z M298 259 L106 259 L56 26 L230 26 Q284 26 321 45.5 Q358 65 388 102 L408 194 Q397 221 366 240 Q335 259 298 259 Z " />
<glyph glyph-name="uni0433" unicode="&#x433;" horiz-adv-x="412" d="M439 508 L160 508 L50 0 L22 0 L138 534 L445 534 L439 508 Z " />
<glyph glyph-name="uni0434" unicode="&#x434;" horiz-adv-x="553" d="M392 26 L466 26 L434 -126 L406 -126 L432 0 L-15 0 L-41 -126 L-69 -126 L-37 26 Q-2 36 32 58 Q66 80 77 101 L217 534 L502 534 L392 26 Z M18 26 L364 26 L468 508 L236 508 L102 90 Q91 71 68 53.5 Q45 36 18 26 Z " />
<glyph glyph-name="uni0435" unicode="&#x435;" horiz-adv-x="529" d="M502 418 L472 282 L96 282 L62 123 Q71 77 109.5 46.5 Q148 16 214 16 Q280 16 331.5 49 Q383 82 415 136 L441 136 L436 116 Q406 64 349.5 26 Q293 -12 213 -12 Q133 -12 87.5 27 Q42 66 32 116 L98 418 Q127 469 184 507.5 Q241 546 320 546 Q374 546 413.5 527 Q453 508 474.5 478.5 Q496 449 502 418 Z M122 405 L102 308 L450 308 L472 411 Q466 456 426 487 Q386 518 320 518 Q254 518 202.5 485.5 Q151 453 122 405 Z " />
<glyph glyph-name="uni0436" unicode="&#x436;" horiz-adv-x="666" d="M479 281 L579 26 L573 0 L561 0 L455 268 L347 268 L289 0 L261 0 L319 268 L216 268 L-5 0 L-23 0 L-17 26 L192 283 L97 508 L103 534 L115 534 L216 294 L325 294 L377 534 L405 534 L353 294 L456 294 L660 534 L679 534 L673 508 L479 281 Z " />
<glyph glyph-name="uni0437" unicode="&#x437;" horiz-adv-x="499" d="M472 445 L453 356 Q436 331 405 309.5 Q374 288 332 277 Q370 266 390 246.5 Q410 227 420 202 L396 89 Q320 -12 194 -12 Q119 -12 77.5 20 Q36 52 22 89 L27 109 L47 109 Q61 72 97.5 44 Q134 16 197 16 Q302 16 371 101 L392 197 Q382 226 347.5 246 Q313 266 252 266 L212 266 L217 292 L257 292 Q317 292 361 313.5 Q405 335 428 367 L443 439 Q433 470 397 494 Q361 518 300 518 Q236 518 190.5 490 Q145 462 118 425 L93 425 L98 445 Q131 486 178 516 Q225 546 300 546 Q376 546 416.5 514.5 Q457 483 472 445 Z " />
<glyph glyph-name="uni0438" unicode="&#x438;" horiz-adv-x="562" d="M396 0 L505 503 L502 503 L66 0 L22 0 L138 534 L166 534 L57 31 L60 31 L495 534 L540 534 L424 0 L396 0 Z " />
<glyph glyph-name="uni0439" unicode="&#x439;" horiz-adv-x="562" d="M396 0 L505 503 L502 503 L66 0 L22 0 L138 534 L166 534 L57 31 L60 31 L495 534 L540 534 L424 0 L396 0 Z M486 679 Q443 616 361 616 Q312 616 285.5 636.5 Q259 657 254 679 L262 722 L289 722 L282 688 Q284 673 303.5 657 Q323 641 362 641 Q401 641 426.5 657 Q452 673 460 688 L467 722 L494 722 L486 679 Z " />
<glyph glyph-name="uni043A" unicode="&#x43a;" horiz-adv-x="465" d="M249 281 L393 26 L387 0 L376 0 L223 268 L108 268 L50 0 L22 0 L138 534 L166 534 L114 294 L224 294 L476 534 L493 534 L487 508 L249 281 Z " />
<glyph glyph-name="uni043B" unicode="&#x43b;" horiz-adv-x="527" d="M389 0 L361 0 L471 508 L238 508 L97 67 Q78 37 41.5 16.5 Q5 -4 -44 -4 L-38 24 Q-1 24 29.5 41 Q60 58 73 81 L220 534 L505 534 L389 0 Z " />
<glyph glyph-name="uni043C" unicode="&#x43c;" horiz-adv-x="638" d="M472 0 L581 505 L578 505 L314 159 L278 159 L162 505 L159 505 L50 0 L22 0 L138 534 L182 534 L297 187 L300 187 L566 534 L616 534 L500 0 L472 0 Z " />
<glyph glyph-name="uni043D" unicode="&#x43d;" horiz-adv-x="558" d="M392 0 L449 262 L107 262 L50 0 L22 0 L138 534 L166 534 L112 288 L454 288 L508 534 L536 534 L420 0 L392 0 Z " />
<glyph glyph-name="uni043E" unicode="&#x43e;" horiz-adv-x="534" d="M502 418 L436 116 Q405 63 348 25.5 Q291 -12 212 -12 Q133 -12 87.5 27 Q42 66 32 116 L98 418 Q129 471 185.5 508.5 Q242 546 321 546 Q401 546 446.5 507 Q492 468 502 418 Z M122 404 L62 123 Q71 76 109 46 Q147 16 213 16 Q279 16 331.5 48.5 Q384 81 412 130 L472 411 Q463 458 425 488 Q387 518 321 518 Q255 518 203 485 Q151 452 122 404 Z " />
<glyph glyph-name="uni043F" unicode="&#x43f;" horiz-adv-x="540" d="M374 0 L484 508 L160 508 L50 0 L22 0 L138 534 L518 534 L402 0 L374 0 Z " />
<glyph glyph-name="uni0440" unicode="&#x440;" horiz-adv-x="534" d="M508 447 L430 87 Q355 -12 230 -12 Q171 -12 128.5 8.5 Q86 29 64 60 L15 -166 L-13 -166 L138 534 L166 534 L153 477 Q184 507 229 526.5 Q274 546 332 546 Q408 546 451.5 514 Q495 482 508 447 Z M478 440 Q467 469 429 493.5 Q391 518 331 518 Q271 518 223.5 495 Q176 472 144 436 L71 94 Q92 60 133 38 Q174 16 230 16 Q292 16 336 41.5 Q380 67 406 100 L478 440 Z " />
<glyph glyph-name="uni0441" unicode="&#x441;" horiz-adv-x="514" d="M502 418 L497 398 L477 398 Q469 450 429.5 484 Q390 518 321 518 Q255 518 202.5 485.5 Q150 453 122 405 L62 123 Q71 77 109.5 46.5 Q148 16 214 16 Q281 16 333 49.5 Q385 83 416 136 L441 136 L436 116 Q408 65 350 26.5 Q292 -12 213 -12 Q133 -12 87.5 27 Q42 66 32 116 L98 418 Q128 470 185 508 Q242 546 323 546 Q401 546 446.5 507 Q492 468 502 418 Z " />
<glyph glyph-name="uni0442" unicode="&#x442;" horiz-adv-x="459" d="M268 508 L77 508 L83 534 L492 534 L486 508 L296 508 L186 0 L158 0 L268 508 Z " />
<glyph glyph-name="uni0443" unicode="&#x443;" horiz-adv-x="488" d="M486 534 L510 534 L504 509 L161 -99 Q126 -140 83 -156 Q40 -172 -10 -172 Q-32 -172 -47 -169 L-41 -142 Q-26 -144 -5 -144 Q41 -144 74 -129 Q107 -114 134 -86 L177 -9 L102 506 L108 534 L127 534 L198 30 L201 30 L486 534 Z " />
<glyph glyph-name="uni0444" unicode="&#x444;" horiz-adv-x="701" d="M677 461 L595 73 Q564 38 524.5 13 Q485 -12 419 -12 Q355 -12 312 22 L272 -166 L244 -166 L284 22 Q233 -12 168 -12 Q60 -12 24 73 L106 461 Q137 496 176.5 521 Q216 546 282 546 Q350 546 389 511 L430 700 L458 700 L418 512 Q469 546 533 546 Q641 546 677 461 Z M291 53 L383 483 Q348 518 280 518 Q227 518 191 496.5 Q155 475 132 448 L52 80 Q63 54 91 35 Q119 16 172 16 Q234 16 291 53 Z M649 454 Q638 480 610 499 Q582 518 529 518 Q465 518 411 481 L318 50 Q334 35 360 25.5 Q386 16 421 16 Q474 16 510 37.5 Q546 59 569 86 L649 454 Z " />
<glyph glyph-name="uni0445" unicode="&#x445;" horiz-adv-x="452" d="M245 271 L355 26 L349 0 L338 0 L226 251 L224 251 L4 0 L-13 0 L-7 26 L210 274 L105 508 L111 534 L123 534 L229 295 L231 295 L439 534 L457 534 L451 508 L245 271 Z " />
<glyph glyph-name="uni0446" unicode="&#x446;" horiz-adv-x="569" d="M482 26 L450 -126 L422 -126 L448 0 L22 0 L138 534 L166 534 L56 26 L380 26 L490 534 L518 534 L408 26 L482 26 Z " />
<glyph glyph-name="uni0447" unicode="&#x447;" horiz-adv-x="509" d="M487 534 L371 0 L343 0 L396 246 Q333 203 239 203 Q168 203 128.5 226 Q89 249 72 276 L128 534 L156 534 L102 287 Q115 265 147.5 247 Q180 229 240 229 Q292 229 334 243.5 Q376 258 404 281 L459 534 L487 534 Z " />
<glyph glyph-name="uni0448" unicode="&#x448;" horiz-adv-x="746" d="M22 0 L138 534 L166 534 L56 26 L307 26 L417 534 L445 534 L335 26 L586 26 L696 534 L724 534 L608 0 L22 0 Z " />
<glyph glyph-name="uni0449" unicode="&#x449;" horiz-adv-x="775" d="M688 26 L656 -126 L628 -126 L654 0 L22 0 L138 534 L166 534 L56 26 L307 26 L417 534 L445 534 L335 26 L586 26 L696 534 L724 534 L614 26 L688 26 Z " />
<glyph glyph-name="uni044A" unicode="&#x44a;" horiz-adv-x="558" d="M504 224 L475 89 Q446 49 401.5 24.5 Q357 0 309 0 L103 0 L213 508 L77 508 L83 534 L247 534 L198 313 L365 313 Q415 313 453 287.5 Q491 262 504 224 Z M475 218 Q464 246 432.5 266.5 Q401 287 358 287 L193 287 L137 26 L310 26 Q345 26 384.5 47.5 Q424 69 450 101 L475 218 Z " />
<glyph glyph-name="uni044B" unicode="&#x44b;" horiz-adv-x="636" d="M117 313 L274 313 Q324 313 362 287.5 Q400 262 413 224 L384 89 Q355 49 310.5 24.5 Q266 0 218 0 L22 0 L138 534 L166 534 L117 313 Z M498 0 L470 0 L586 534 L614 534 L498 0 Z M112 287 L56 26 L219 26 Q256 26 294.5 46.5 Q333 67 359 101 L384 218 Q373 246 341.5 266.5 Q310 287 267 287 L112 287 Z " />
<glyph glyph-name="uni044C" unicode="&#x44c;" horiz-adv-x="477" d="M117 313 L284 313 Q334 313 372 287.5 Q410 262 423 224 L394 89 Q365 49 320.5 24.5 Q276 0 228 0 L22 0 L138 534 L166 534 L117 313 Z M112 287 L56 26 L229 26 Q264 26 303.5 47.5 Q343 69 369 101 L394 218 Q383 246 351.5 266.5 Q320 287 277 287 L112 287 Z " />
<glyph glyph-name="uni044D" unicode="&#x44d;" horiz-adv-x="514" d="M482 418 L416 116 Q386 64 329 26 Q272 -12 191 -12 Q113 -12 67.5 27 Q22 66 12 116 L17 136 L37 136 Q48 83 86.5 49.5 Q125 16 193 16 Q259 16 311.5 48.5 Q364 81 392 129 L421 263 L180 263 L185 289 L426 289 L452 411 Q443 457 404.5 487.5 Q366 518 300 518 Q233 518 181 484.5 Q129 451 98 398 L73 398 L78 418 Q106 469 164 507.5 Q222 546 301 546 Q381 546 426.5 507 Q472 468 482 418 Z " />
<glyph glyph-name="uni044E" unicode="&#x44e;" horiz-adv-x="737" d="M705 418 L639 116 Q608 63 551 25.5 Q494 -12 415 -12 Q336 -12 290.5 27 Q245 66 235 116 L267 264 L107 264 L50 0 L22 0 L138 534 L166 534 L112 289 L273 289 L301 418 Q332 471 388.5 508.5 Q445 546 524 546 Q604 546 649.5 507 Q695 468 705 418 Z M675 411 Q666 458 628 488 Q590 518 524 518 Q458 518 406 485 Q354 452 325 404 L265 123 Q274 76 312 46 Q350 16 416 16 Q482 16 534.5 48.5 Q587 81 615 130 L675 411 Z " />
<glyph glyph-name="Idot" unicode="&#x130;" horiz-adv-x="210" d="M62 0 L32 0 L183 700 L213 700 L62 0 Z M252 840 L244 806 Q235 797 218 797 Q210 797 204 800 Q198 803 196 806 L204 840 Q213 849 230 849 Q238 849 244 846 Q250 843 252 840 Z " />
<glyph glyph-name="uni0162" unicode="&#x162;" horiz-adv-x="520" d="M588 700 L582 671 L362 671 L217 0 L215 0 L178 -63 L199 -63 Q227 -63 246 -76 Q265 -89 271 -106 L257 -171 Q244 -189 222.5 -201.5 Q201 -214 172 -214 Q124 -214 88 -187 L100 -165 Q116 -178 132.5 -184.5 Q149 -191 173 -191 Q193 -191 209.5 -182 Q226 -173 235 -162 L245 -111 Q242 -101 229.5 -93 Q217 -85 197 -85 L141 -85 L189 0 L187 0 L332 671 L112 671 L118 700 L588 700 Z " />
<glyph glyph-name="dslash" unicode="&#x111;" horiz-adv-x="566" d="M602 620 L530 620 L396 0 L368 0 L381 56 Q350 26 304.5 7 Q259 -12 200 -12 Q124 -12 82 20 Q40 52 26 87 L104 447 Q133 484 182 515 Q231 546 307 546 Q366 546 407.5 526 Q449 506 471 475 L502 620 L301 620 L306 644 L507 644 L519 700 L547 700 L535 644 L607 644 L602 620 Z M389 98 L463 442 Q444 475 404 496.5 Q364 518 306 518 Q244 518 199.5 492 Q155 466 128 434 L56 94 Q69 64 104.5 40 Q140 16 202 16 Q262 16 310 39 Q358 62 389 98 Z " />
<glyph glyph-name="uni0237" unicode="&#x237;" horiz-adv-x="188" d="M40 -50 Q11 -102 -48 -140 Q-107 -178 -186 -178 L-180 -150 Q-116 -150 -65.5 -117.5 Q-15 -85 15 -37 L138 534 L166 534 L40 -50 Z " />
<glyph glyph-name="uni0163" unicode="&#x163;" horiz-adv-x="341" d="M185 508 L95 91 Q103 65 130.5 43 Q158 21 218 21 Q249 21 274 26 L269 0 Q244 -7 212 -7 Q192 -7 174 -4 L140 -63 L160 -63 Q188 -63 207 -76 Q226 -89 232 -106 L218 -171 Q205 -189 183.5 -201.5 Q162 -214 133 -214 Q85 -214 49 -187 L61 -165 Q77 -178 93.5 -184.5 Q110 -191 134 -191 Q154 -191 170.5 -182 Q187 -173 196 -162 L206 -111 Q203 -101 190.5 -93 Q178 -85 158 -85 L102 -85 L151 1 Q85 21 65 82 L157 508 L75 508 L81 534 L162 534 L187 650 L215 650 L190 534 L364 534 L358 508 L185 508 Z " />
<glyph glyph-name="f_f" unicode="&#xfb00;" horiz-adv-x="621" d="M497 612 L481 534 L654 534 L648 508 L475 508 L365 0 L337 0 L447 508 L185 508 L75 0 L47 0 L157 508 L75 508 L81 534 L163 534 L182 624 Q201 657 243 685 Q285 713 357 713 Q397 713 421 707 L415 682 Q387 686 357 686 Q297 686 260.5 663 Q224 640 207 612 L191 534 L453 534 L472 624 Q491 657 533 685 Q575 713 647 713 Q687 713 711 707 L705 682 Q677 686 647 686 Q587 686 550.5 663 Q514 640 497 612 Z " />
<glyph glyph-name="uni04D8" unicode="&#x4d8;" horiz-adv-x="616" d="M605 562 L513 139 Q480 79 413.5 33.5 Q347 -12 254 -12 Q190 -12 143.5 10.5 Q97 33 71 67.5 Q45 102 37 139 L82 347 L529 347 L573 555 Q562 610 515.5 647 Q469 684 392 684 Q311 684 249.5 644 Q188 604 150 538 L123 538 L129 562 Q165 624 230.5 668.5 Q296 713 389 713 Q453 713 499 690.5 Q545 668 571 633.5 Q597 599 605 562 Z M522 318 L106 318 L69 146 Q82 89 130.5 53 Q179 17 252 17 Q333 17 392.5 56 Q452 95 487 152 L522 318 Z " />
<glyph glyph-name="uni04D9" unicode="&#x4d9;" horiz-adv-x="529" d="M27 116 L57 252 L433 252 L467 411 Q458 457 419.5 487.5 Q381 518 315 518 Q249 518 197.5 485 Q146 452 114 398 L88 398 L93 418 Q123 470 179.5 508 Q236 546 316 546 Q396 546 441.5 507 Q487 468 497 418 L431 116 Q402 65 345 26.5 Q288 -12 209 -12 Q155 -12 115.5 7 Q76 26 54.5 55.5 Q33 85 27 116 Z M407 129 L427 226 L79 226 L57 123 Q63 78 103 47 Q143 16 209 16 Q275 16 326.5 48.5 Q378 81 407 129 Z " />
<glyph glyph-name="Alpha" unicode="&#x391;" horiz-adv-x="589" d="M496 0 L477 0 L445 233 L132 233 L0 0 L-23 0 L-17 28 L365 700 L409 700 L502 28 L496 0 Z M384 673 L381 673 L148 262 L441 262 L384 673 Z " />
<glyph glyph-name="Beta" unicode="&#x392;" horiz-adv-x="574" d="M571 583 L543 455 Q524 425 488.5 400 Q453 375 414 359 Q449 346 477.5 321.5 Q506 297 518 264 L487 118 Q454 64 399.5 32 Q345 0 270 0 L32 0 L183 700 L396 700 Q464 700 508.5 667 Q553 634 571 583 Z M539 576 Q525 621 486.5 646 Q448 671 391 671 L207 671 L143 374 L342 374 Q384 374 435 400.5 Q486 427 516 468 L539 576 Z M334 345 L136 345 L69 29 L255 29 Q331 29 377.5 55.5 Q424 82 460 131 L487 257 Q473 296 430.5 320.5 Q388 345 334 345 Z " />
<glyph glyph-name="Gamma" unicode="&#x393;" horiz-adv-x="450" d="M512 671 L207 671 L62 0 L32 0 L183 700 L518 700 L512 671 Z " />
<glyph glyph-name="Epsilon" unicode="&#x395;" horiz-adv-x="545" d="M207 671 L143 377 L478 377 L472 348 L137 348 L69 29 L439 29 L432 0 L32 0 L183 700 L573 700 L567 671 L207 671 Z " />
<glyph glyph-name="Zeta" unicode="&#x396;" horiz-adv-x="568" d="M45 29 L462 29 L455 0 L-3 0 L2 24 L560 671 L152 671 L158 700 L606 700 L601 676 L45 29 Z " />
<glyph glyph-name="Eta" unicode="&#x397;" horiz-adv-x="636" d="M458 0 L533 346 L137 346 L62 0 L32 0 L183 700 L213 700 L143 375 L539 375 L609 700 L639 700 L488 0 L458 0 Z " />
<glyph glyph-name="Theta" unicode="&#x398;" horiz-adv-x="626" d="M615 562 L524 138 Q484 75 420 31.5 Q356 -12 263 -12 Q199 -12 153 10.5 Q107 33 81 67.5 Q55 102 47 139 L139 563 Q179 626 242 669.5 Q305 713 398 713 Q462 713 508.5 690.5 Q555 668 581 633.5 Q607 599 615 562 Z M165 549 L79 146 Q90 91 137 54 Q184 17 261 17 Q339 17 399 55.5 Q459 94 497 152 L583 555 Q573 609 525 646.5 Q477 684 400 684 Q322 684 262.5 645.5 Q203 607 165 549 Z M469 375 L463 346 L197 346 L203 375 L469 375 Z " />
<glyph glyph-name="Iota" unicode="&#x399;" horiz-adv-x="210" d="M62 0 L32 0 L183 700 L213 700 L62 0 Z " />
<glyph glyph-name="Kappa" unicode="&#x39a;" horiz-adv-x="567" d="M474 0 L461 0 L264 398 L122 278 L62 0 L32 0 L183 700 L213 700 L131 321 L578 700 L595 700 L589 672 L287 417 L480 28 L474 0 Z " />
<glyph glyph-name="Lambda" unicode="&#x39b;" horiz-adv-x="589" d="M365 700 L409 700 L502 28 L496 0 L476 0 L384 671 L381 671 L0 0 L-23 0 L-17 28 L365 700 Z " />
<glyph glyph-name="Mu" unicode="&#x39c;" horiz-adv-x="785" d="M607 0 L752 671 L749 671 L397 200 L356 200 L210 671 L207 671 L62 0 L32 0 L183 700 L232 700 L379 229 L382 229 L733 700 L788 700 L637 0 L607 0 Z " />
<glyph glyph-name="Nu" unicode="&#x39d;" horiz-adv-x="653" d="M458 0 L210 671 L207 671 L62 0 L32 0 L183 700 L230 700 L479 29 L482 29 L626 700 L656 700 L505 0 L458 0 Z " />
<glyph glyph-name="Xi" unicode="&#x39e;" horiz-adv-x="566" d="M588 671 L385 671 L321 375 L489 375 L483 346 L315 346 L247 29 L455 29 L448 0 L2 0 L9 29 L217 29 L285 346 L117 346 L123 375 L291 375 L355 671 L152 671 L158 700 L594 700 L588 671 Z " />
<glyph glyph-name="Omicron" unicode="&#x39f;" horiz-adv-x="626" d="M615 562 L524 138 Q484 75 420 31.5 Q356 -12 263 -12 Q199 -12 153 10.5 Q107 33 81 67.5 Q55 102 47 139 L139 563 Q179 626 242 669.5 Q305 713 398 713 Q462 713 508.5 690.5 Q555 668 581 633.5 Q607 599 615 562 Z M165 549 L79 146 Q90 91 137 54 Q184 17 261 17 Q339 17 399 55.5 Q459 94 497 152 L583 555 Q573 609 525 646.5 Q477 684 400 684 Q322 684 262.5 645.5 Q203 607 165 549 Z " />
<glyph glyph-name="Pi" unicode="&#x3a0;" horiz-adv-x="631" d="M483 0 L453 0 L598 671 L207 671 L62 0 L32 0 L183 700 L634 700 L483 0 Z " />
<glyph glyph-name="Rho" unicode="&#x3a1;" horiz-adv-x="551" d="M564 583 L526 407 Q489 352 432 321 Q375 290 311 290 L125 290 L62 0 L32 0 L183 700 L384 700 Q452 700 498.5 668.5 Q545 637 564 583 Z M532 576 Q515 625 475.5 648 Q436 671 380 671 L207 671 L131 319 L312 319 Q364 319 414 345.5 Q464 372 499 420 L532 576 Z " />
<glyph glyph-name="Sigma" unicode="&#x3a3;" horiz-adv-x="568" d="M590 671 L186 671 L344 357 L47 29 L462 29 L455 0 L-3 0 L3 25 L309 361 L152 673 L158 700 L596 700 L590 671 Z " />
<glyph glyph-name="Tau" unicode="&#x3a4;" horiz-adv-x="520" d="M582 671 L362 671 L217 0 L187 0 L332 671 L112 671 L118 700 L588 700 L582 671 Z " />
<glyph glyph-name="Upsilon" unicode="&#x3a5;" horiz-adv-x="534" d="M293 321 L224 0 L194 0 L264 322 L128 672 L134 700 L148 700 L282 353 L284 353 L566 700 L586 700 L580 672 L293 321 Z " />
<glyph glyph-name="Phi" unicode="&#x3a6;" horiz-adv-x="707" d="M685 515 L615 185 Q574 128 504.5 90 Q435 52 369 52 L321 52 L305 -20 L275 -20 L291 52 L254 52 Q189 52 133.5 91 Q78 130 58 185 L128 515 Q171 571 241 612.5 Q311 654 375 654 L421 654 L435 720 L465 720 L451 654 L487 654 Q530 654 571.5 634 Q613 614 643 581.5 Q673 549 685 515 Z M297 81 L414 625 L380 625 Q327 625 261 589 Q195 553 156 505 L90 195 Q106 146 155.5 113.5 Q205 81 260 81 L297 81 Z M653 505 Q638 554 587 589.5 Q536 625 480 625 L444 625 L327 81 L365 81 Q420 81 484.5 113.5 Q549 146 587 195 L653 505 Z " />
<glyph glyph-name="Chi" unicode="&#x3a7;" horiz-adv-x="568" d="M324 355 L463 28 L457 0 L444 0 L301 336 L298 336 L14 0 L-6 0 L0 28 L282 361 L146 672 L152 700 L165 700 L305 380 L308 380 L584 700 L603 700 L597 672 L324 355 Z " />
<glyph glyph-name="Psi" unicode="&#x3a8;" horiz-adv-x="682" d="M700 700 L610 278 Q573 225 512 186.5 Q451 148 360 148 L330 148 L298 0 L268 0 L300 148 L286 148 Q196 148 146.5 188 Q97 228 78 278 L168 700 L198 700 L109 288 Q122 245 166.5 211 Q211 177 287 177 L306 177 L419 700 L449 700 L336 177 L361 177 Q437 177 492 210.5 Q547 244 581 288 L670 700 L700 700 Z " />
<glyph glyph-name="Alphatonos" unicode="&#x386;" horiz-adv-x="589" d="M496 0 L477 0 L445 233 L132 233 L0 0 L-23 0 L-17 28 L365 700 L409 700 L502 28 L496 0 Z M384 673 L381 673 L148 262 L441 262 L384 673 Z M215 700 L211 680 L100 546 L79 546 L83 562 L190 700 L215 700 Z " />
<glyph glyph-name="Epsilontonos" unicode="&#x388;" horiz-adv-x="545" d="M207 671 L143 377 L478 377 L472 348 L137 348 L69 29 L439 29 L432 0 L32 0 L183 700 L573 700 L567 671 L207 671 Z M95 700 L91 680 L-20 546 L-41 546 L-37 562 L70 700 L95 700 Z " />
<glyph glyph-name="Etatonos" unicode="&#x389;" horiz-adv-x="636" d="M458 0 L533 346 L137 346 L62 0 L32 0 L183 700 L213 700 L143 375 L539 375 L609 700 L639 700 L488 0 L458 0 Z M95 700 L91 680 L-20 546 L-41 546 L-37 562 L70 700 L95 700 Z " />
<glyph glyph-name="Iotatonos" unicode="&#x38a;" horiz-adv-x="210" d="M62 0 L32 0 L183 700 L213 700 L62 0 Z M95 700 L91 680 L-20 546 L-41 546 L-37 562 L70 700 L95 700 Z " />
<glyph glyph-name="Omicrontonos" unicode="&#x38c;" horiz-adv-x="626" d="M615 562 L524 138 Q484 75 420 31.5 Q356 -12 263 -12 Q199 -12 153 10.5 Q107 33 81 67.5 Q55 102 47 139 L139 563 Q179 626 242 669.5 Q305 713 398 713 Q462 713 508.5 690.5 Q555 668 581 633.5 Q607 599 615 562 Z M165 549 L79 146 Q90 91 137 54 Q184 17 261 17 Q339 17 399 55.5 Q459 94 497 152 L583 555 Q573 609 525 646.5 Q477 684 400 684 Q322 684 262.5 645.5 Q203 607 165 549 Z M115 700 L111 680 L0 546 L-21 546 L-17 562 L90 700 L115 700 Z " />
<glyph glyph-name="Upsilontonos" unicode="&#x38e;" horiz-adv-x="534" d="M293 321 L224 0 L194 0 L264 322 L128 672 L134 700 L148 700 L282 353 L284 353 L566 700 L586 700 L580 672 L293 321 Z M85 700 L81 680 L-30 546 L-51 546 L-47 562 L60 700 L85 700 Z " />
<glyph glyph-name="Omegatonos" unicode="&#x38f;" horiz-adv-x="626" d="M351 29 L500 29 L493 0 L299 0 L310 46 Q374 56 424 95 Q474 134 503 181 L583 555 Q573 609 526 646.5 Q479 684 402 684 Q326 684 263 644.5 Q200 605 165 549 L85 175 Q95 130 128 93.5 Q161 57 223 46 L212 0 L17 0 L24 29 L180 29 Q128 47 95 85 Q62 123 53 167 L139 562 Q178 624 244 668.5 Q310 713 403 713 Q496 713 548.5 667 Q601 621 615 562 L529 167 Q505 122 458 84.5 Q411 47 351 29 Z M115 700 L111 680 L0 546 L-21 546 L-17 562 L90 700 L115 700 Z " />
<glyph glyph-name="Iotadieresis" unicode="&#x3aa;" horiz-adv-x="210" d="M62 0 L32 0 L183 700 L213 700 L62 0 Z M161 831 L154 795 Q151 792 142.5 789 Q134 786 126 786 Q118 786 112 789 Q106 792 104 795 L111 831 Q114 834 122 837 Q130 840 138 840 Q146 840 152.5 837 Q159 834 161 831 Z M340 831 L333 795 Q330 792 321.5 789 Q313 786 305 786 Q297 786 291 789 Q285 792 283 795 L290 831 Q293 834 301 837 Q309 840 317 840 Q325 840 331.5 837 Q338 834 340 831 Z " />
<glyph glyph-name="Upsilondieresis" unicode="&#x3ab;" horiz-adv-x="534" d="M293 321 L224 0 L194 0 L264 322 L128 672 L134 700 L148 700 L282 353 L284 353 L566 700 L586 700 L580 672 L293 321 Z M323 831 L316 795 Q313 792 304.5 789 Q296 786 288 786 Q280 786 274 789 Q268 792 266 795 L273 831 Q276 834 284 837 Q292 840 300 840 Q308 840 314.5 837 Q321 834 323 831 Z M502 831 L495 795 Q492 792 483.5 789 Q475 786 467 786 Q459 786 453 789 Q447 792 445 795 L452 831 Q455 834 463 837 Q471 840 479 840 Q487 840 493.5 837 Q500 834 502 831 Z " />
<glyph glyph-name="alpha" unicode="&#x3b1;" horiz-adv-x="534" d="M512 534 L396 0 L368 0 L380 55 Q349 26 303.5 7 Q258 -12 200 -12 Q124 -12 82 20 Q40 52 26 87 L104 447 Q133 484 182 515 Q231 546 307 546 Q366 546 407.5 525.5 Q449 505 471 474 L484 534 L512 534 Z M390 99 L463 442 Q443 475 403.5 496.5 Q364 518 306 518 Q244 518 199.5 492 Q155 466 128 434 L56 94 Q69 64 104.5 40 Q140 16 202 16 Q262 16 310.5 39.5 Q359 63 390 99 Z " />
<glyph glyph-name="beta" unicode="&#x3b2;" horiz-adv-x="544" d="M374 386 Q422 371 449.5 339.5 Q477 308 485 273 L451 116 Q418 62 363 25 Q308 -12 229 -12 Q169 -12 126.5 11 Q84 34 65 68 L15 -166 L-13 -166 L153 606 Q185 652 239 682.5 Q293 713 360 713 Q422 713 466.5 684.5 Q511 656 529 615 L496 464 Q476 437 444 417 Q412 397 374 386 Z M471 476 L499 606 Q485 641 449 663 Q413 685 359 685 Q302 685 255 659 Q208 633 178 593 L73 104 Q89 68 130 42 Q171 16 229 16 Q294 16 344 47.5 Q394 79 427 129 L456 266 Q445 317 401 345 Q357 373 302 373 L265 373 L271 398 L302 398 Q350 398 394.5 419.5 Q439 441 471 476 Z " />
<glyph glyph-name="gamma" unicode="&#x3b3;" horiz-adv-x="490" d="M508 534 L502 508 L203 3 L166 -166 L138 -166 L174 0 L173 0 L92 508 L98 534 L116 534 L195 46 L198 46 L485 534 L508 534 Z " />
<glyph glyph-name="delta" unicode="&#x3b4;" horiz-adv-x="534" d="M520 646 L516 626 L498 626 Q476 653 442 669 Q408 685 366 685 Q321 685 280.5 669.5 Q240 654 215 629 L199 553 Q211 531 233.5 513.5 Q256 496 306 488 L348 482 Q408 472 444.5 436.5 Q481 401 489 358 L436 116 Q405 63 348.5 25.5 Q292 -12 213 -12 Q133 -12 87.5 27 Q42 66 32 116 L85 358 Q107 398 149 431 Q191 464 250 476 Q216 487 196.5 507 Q177 527 170 546 L191 646 Q215 672 261 692.5 Q307 713 366 713 Q422 713 460 693 Q498 673 520 646 Z M109 345 L62 123 Q71 76 109 46 Q147 16 213 16 Q279 16 331 48.5 Q383 81 412 129 L459 351 Q452 395 412.5 426.5 Q373 458 308 458 Q242 458 190 425 Q138 392 109 345 Z " />
</font>
</svg>
