<?xml version="1.0" encoding="UTF-8"?>
<svg xmlns="http://www.w3.org/2000/svg" xmlns:xlink="http://www.w3.org/1999/xlink" version="1.2" >
<font id="Cadillac Serif Web Bold">
<font-face  font-family="Cadillac Serif Web" units-per-em="1000" ascent="700" descent="-300" font-style="normal" font-weight="700" font-stretch="normal" cap-height="625" x-height="444" underline-position="-75" underline-thickness="50" />
<missing-glyph  horiz-adv-x="535" d="M20 693 L515 693 L515 0 L20 0 L20 693 Z M436 644 L99 644 L268 391 L436 644 Z M466 94 L466 599 L297 347 L466 94 Z M436 50 L268 302 L99 50 L436 50 Z M70 94 L238 347 L70 599 L70 94 Z " />
<glyph glyph-name="null" d="" />
<glyph glyph-name="nonmarkingreturn" unicode="&#xd;" horiz-adv-x="164" d="" />
<glyph glyph-name="nbspace" unicode="&#xa0;" horiz-adv-x="164" d="" />
<glyph glyph-name="space" unicode="&#x20;" horiz-adv-x="164" d="" />
<glyph glyph-name="A" unicode="A" horiz-adv-x="676" d="M384 183 L185 183 L152 89 Q149 81 147.5 75.5 Q146 70 146 65 Q146 54 157.5 47 Q169 40 201 35 L201 0 Q178 1 150 2 Q122 3 101 3 Q91 3 77.5 2.5 Q64 2 50.5 1.5 Q37 1 24 0.5 Q11 0 2 0 L2 35 L62 54 L274 625 L382 625 L583 112 Q590 94 597 81.5 Q604 69 613.5 60.5 Q623 52 637.5 46 Q652 40 673 35 L673 0 Q660 0 640.5 0.5 Q621 1 600 1.5 Q579 2 559 2.5 Q539 3 525 3 Q509 3 489 2.5 Q469 2 448.5 1.5 Q428 1 408 0.5 Q388 0 372 0 L372 35 L433 54 L384 183 Z M206 240 L363 240 L282 453 L206 240 Z " />
<glyph glyph-name="B" unicode="B" horiz-adv-x="613" d="M260 365 L287 365 Q334 365 356 390 Q381 418 381 472 Q381 520 358 545 Q333 571 272 571 L260 571 L260 365 Z M260 91 Q260 72 272.5 63.5 Q285 55 317 55 Q358 55 384 83 Q410 111 410 181 Q410 251 375 282 Q358 297 334 303.5 Q310 310 276 310 L260 310 L260 91 Z M317 625 Q429 625 486 591.5 Q543 558 543 485 Q543 439 511 402.5 Q479 366 421 348 Q500 332 540.5 288.5 Q581 245 581 179 Q581 100 530 54 Q500 27 457.5 13.5 Q415 0 353 0 L34 0 L34 35 L95 54 L95 520 Q95 535 93.5 545.5 Q92 556 85.5 564 Q79 572 66 578 Q53 584 31 590 L31 625 L317 625 Z " />
<glyph glyph-name="C" unicode="C" horiz-adv-x="590" d="M562 116 Q523 53 461.5 18.5 Q400 -16 319 -16 Q251 -16 197.5 6.5 Q144 29 107.5 71 Q71 113 51.5 172.5 Q32 232 32 307 Q32 382 54.5 443.5 Q77 505 119 548.5 Q161 592 221.5 616 Q282 640 358 640 Q381 640 406 637.5 Q431 635 454.5 632 Q478 629 499.5 626 Q521 623 537 622 Q537 603 538 580 Q539 557 540 532.5 Q541 508 542.5 483.5 Q544 459 545 438 L495 438 Q488 500 459.5 538.5 Q431 577 368 577 Q330 577 300 558.5 Q270 540 249.5 506 Q229 472 218 423.5 Q207 375 207 315 Q207 255 218 207.5 Q229 160 252 128 Q292 69 368 69 Q414 69 452 89 Q490 109 522 147 L562 116 Z " />
<glyph glyph-name="D" unicode="D" horiz-adv-x="688" d="M34 35 L95 54 L95 520 Q95 535 93.5 545.5 Q92 556 85.5 564 Q79 572 66 578 Q53 584 31 590 L31 625 L270 625 Q372 625 445.5 606 Q519 587 568 544 Q612 506 635 448.5 Q658 391 658 312 Q658 239 636.5 180.5 Q615 122 573 80 Q534 42 475.5 21 Q417 0 336 0 L34 0 L34 35 Z M260 567 L260 96 Q260 76 271.5 66 Q283 56 317 56 L319 56 Q398 56 441 120.5 Q484 185 484 311 Q484 387 470 439 Q456 491 425 521 Q400 545 363 556 Q326 567 272 567 L260 567 Z " />
<glyph glyph-name="E" unicode="E" horiz-adv-x="574" d="M34 35 L95 54 L95 520 Q95 535 93.5 545.5 Q92 556 85.5 564 Q79 572 66 578 Q53 584 31 590 L31 625 L509 625 Q509 610 510.5 587 Q512 564 514 540 Q516 516 517.5 495 Q519 474 521 462 L471 462 Q467 492 460 513 Q453 534 438.5 546.5 Q424 559 400 565 Q376 571 340 571 Q315 571 294 570.5 Q273 570 260 569 L260 347 L292 347 Q313 347 335 348 Q357 349 377.5 350.5 Q398 352 414.5 354 Q431 356 442 358 L435 282 Q418 284 377.5 287 Q337 290 292 290 L260 290 L260 108 Q260 79 279 66.5 Q298 54 352 54 Q389 54 414 60 Q439 66 454.5 79 Q470 92 478.5 112 Q487 132 492 160 L538 160 Q537 148 536 126 Q535 104 534 80 Q533 56 532.5 34 Q532 12 532 0 L34 0 L34 35 Z " />
<glyph glyph-name="F" unicode="F" horiz-adv-x="543" d="M260 106 Q260 91 262.5 80.5 Q265 70 273 62 Q281 54 296.5 48 Q312 42 338 35 L338 0 Q326 0 305.5 0.5 Q285 1 262.5 1.5 Q240 2 219 2.5 Q198 3 183 3 Q166 3 145 2.5 Q124 2 102.5 1.5 Q81 1 62.5 0.5 Q44 0 34 0 L34 35 L95 54 L95 520 Q95 535 93.5 545.5 Q92 556 85.5 564 Q79 572 66 578 Q53 584 31 590 L31 625 L509 625 Q509 610 510.5 587 Q512 564 514 540 Q516 516 517.5 495 Q519 474 521 462 L471 462 Q467 492 460 513 Q453 534 438.5 546.5 Q424 559 400 565 Q376 571 340 571 Q315 571 294 570.5 Q273 570 260 569 L260 347 L292 347 Q313 347 335 348 Q357 349 377.5 350.5 Q398 352 414.5 354 Q431 356 442 358 L435 282 Q418 284 377.5 287 Q337 290 292 290 L260 290 L260 106 Z " />
<glyph glyph-name="G" unicode="G" horiz-adv-x="686" d="M598 52 Q551 22 484 3 Q417 -16 343 -16 Q193 -16 112.5 67.5 Q32 151 32 306 Q32 385 56.5 447.5 Q81 510 126.5 552.5 Q172 595 235.5 617.5 Q299 640 377 640 Q425 640 475.5 633 Q526 626 571 621 Q573 577 575 529 Q577 481 579 435 L529 435 Q521 498 487.5 537.5 Q454 577 388 577 Q299 577 253 506.5 Q207 436 207 309 Q207 253 215.5 205.5 Q224 158 242 123.5 Q260 89 288 69 Q316 49 355 49 Q396 49 417 70 Q428 81 433.5 99 Q439 117 439 147 L439 255 L368 275 L368 310 Q378 310 397.5 309.5 Q417 309 439.5 308.5 Q462 308 484 307.5 Q506 307 523 307 Q538 307 556.5 307.5 Q575 308 594.5 308.5 Q614 309 632 309.5 Q650 310 662 310 L662 275 Q640 269 627 263 Q614 257 607.5 249 Q601 241 599.5 230.5 Q598 220 598 205 L598 52 Z " />
<glyph glyph-name="H" unicode="H" horiz-adv-x="740" d="M645 105 Q645 90 646.5 79.5 Q648 69 654.5 61 Q661 53 674 47 Q687 41 709 35 L709 0 Q697 0 679 0.5 Q661 1 641.5 1.5 Q622 2 603.5 2.5 Q585 3 570 3 Q553 3 531.5 2.5 Q510 2 488.5 1.5 Q467 1 448 0.5 Q429 0 419 0 L419 35 L480 54 L480 292 L260 292 L260 105 Q260 90 261.5 79.5 Q263 69 269.5 61 Q276 53 289 47 Q302 41 324 35 L324 0 Q312 0 293.5 0.5 Q275 1 255.5 1.5 Q236 2 217 2.5 Q198 3 183 3 Q166 3 145 2.5 Q124 2 102.5 1.5 Q81 1 62.5 0.5 Q44 0 34 0 L34 35 L95 54 L95 520 Q95 535 93.5 545.5 Q92 556 85.5 564 Q79 572 66 578 Q53 584 31 590 L31 625 Q43 625 61 624.5 Q79 624 98.5 623.5 Q118 623 137 622.5 Q156 622 171 622 Q187 622 209 622.5 Q231 623 252 623.5 Q273 624 291.5 624.5 Q310 625 321 625 L321 590 L260 571 L260 356 L480 356 L480 520 Q480 535 478.5 545.5 Q477 556 470.5 564 Q464 572 451 578 Q438 584 416 590 L416 625 Q428 625 446 624.5 Q464 624 483.5 623.5 Q503 623 522 622.5 Q541 622 556 622 Q572 622 594 622.5 Q616 623 637 623.5 Q658 624 676.5 624.5 Q695 625 706 625 L706 590 L645 571 L645 105 Z " />
<glyph glyph-name="I" unicode="I" horiz-adv-x="357" d="M261 105 Q261 90 262.5 79.5 Q264 69 270.5 61 Q277 53 290 47 Q303 41 325 35 L325 0 Q313 0 295 0.5 Q277 1 257.5 1.5 Q238 2 219 2.5 Q200 3 185 3 Q168 3 146.5 2.5 Q125 2 104 1.5 Q83 1 64 0.5 Q45 0 35 0 L35 35 L96 54 L96 520 Q96 535 94.5 545.5 Q93 556 86.5 564 Q80 572 67 578 Q54 584 32 590 L32 625 Q44 625 62 624.5 Q80 624 99.5 623.5 Q119 623 138 622.5 Q157 622 172 622 Q188 622 210 622.5 Q232 623 253 623.5 Q274 624 292.5 624.5 Q311 625 322 625 L322 590 L261 571 L261 105 Z " />
<glyph glyph-name="J" unicode="J" horiz-adv-x="344" d="M91 520 Q91 535 89.5 545.5 Q88 556 81.5 564 Q75 572 62 578 Q49 584 27 590 L27 625 Q39 625 57 624.5 Q75 624 94.5 623.5 Q114 623 133 622.5 Q152 622 167 622 Q183 622 205 622.5 Q227 623 248 623.5 Q269 624 287.5 624.5 Q306 625 317 625 L317 590 L256 571 L256 90 Q256 40 246 -10 Q236 -60 208 -102 Q180 -144 130 -175.5 Q80 -207 0 -221 L-15 -176 Q16 -163 36.5 -142.5 Q57 -122 69 -91 Q81 -60 86 -18 Q91 24 91 81 L91 520 Z " />
<glyph glyph-name="K" unicode="K" horiz-adv-x="677" d="M260 324 L474 573 L416 590 L416 625 Q428 625 444 624 Q460 623 477 622.5 Q494 622 510.5 621.5 Q527 621 540 621 Q566 621 597 622.5 Q628 624 646 625 L646 589 Q622 586 604.5 581.5 Q587 577 572.5 569.5 Q558 562 544 550 Q530 538 514 519 L419 410 L580 116 Q591 96 600 82.5 Q609 69 619.5 59.5 Q630 50 644 44.5 Q658 39 679 35 L679 0 L449 0 Q449 10 447 20 Q445 30 441 41.5 Q437 53 430.5 67 Q424 81 414 100 L312 288 L260 229 L260 105 Q260 90 261.5 79.5 Q263 69 269.5 61 Q276 53 289 47 Q302 41 324 35 L324 0 Q312 0 294 0.5 Q276 1 256.5 1.5 Q237 2 218 2.5 Q199 3 184 3 Q167 3 145.5 2.5 Q124 2 103 1.5 Q82 1 63 0.5 Q44 0 34 0 L34 35 L95 54 L95 520 Q95 535 93.5 545.5 Q92 556 85.5 564 Q79 572 66 578 Q53 584 31 590 L31 625 Q43 625 61 624.5 Q79 624 98.5 623.5 Q118 623 137 622.5 Q156 622 171 622 Q187 622 209 622.5 Q231 623 252 623.5 Q273 624 291.5 624.5 Q310 625 321 625 L321 590 L260 571 L260 324 Z " />
<glyph glyph-name="L" unicode="L" horiz-adv-x="544" d="M260 108 Q260 79 277.5 66.5 Q295 54 346 54 Q382 54 406 60 Q430 66 444.5 79 Q459 92 467 112 Q475 132 480 160 L526 160 Q525 148 524 126 Q523 104 522 80 Q521 56 520.5 34 Q520 12 520 0 L34 0 L34 35 L95 54 L95 520 Q95 535 93.5 545.5 Q92 556 85.5 564 Q79 572 66 578 Q53 584 31 590 L31 625 Q43 625 61 624.5 Q79 624 98.5 623.5 Q118 623 137 622.5 Q156 622 171 622 Q187 622 209 622.5 Q231 623 252 623.5 Q273 624 291.5 624.5 Q310 625 321 625 L321 590 L260 571 L260 108 Z " />
<glyph glyph-name="M" unicode="M" horiz-adv-x="879" d="M784 105 Q784 90 785.5 79.5 Q787 69 793.5 61 Q800 53 813 47 Q826 41 848 35 L848 0 Q836 0 817.5 0.5 Q799 1 779.5 1.5 Q760 2 741 2.5 Q722 3 707 3 Q690 3 669 2.5 Q648 2 627 1.5 Q606 1 587.5 0.5 Q569 0 559 0 L559 35 L620 54 L620 441 L430 -4 L356 -4 L169 438 L169 105 Q169 90 170.5 79.5 Q172 69 178.5 61 Q185 53 198 47 Q211 41 233 35 L233 0 Q208 1 183.5 2 Q159 3 137 3 Q114 3 84.5 2 Q55 1 34 0 L34 35 L95 54 L95 520 Q95 535 93.5 545.5 Q92 556 85.5 564 Q79 572 66 578 Q53 584 31 590 L31 625 L256 625 L439 191 L621 625 L845 625 L845 590 L784 571 L784 105 Z " />
<glyph glyph-name="N" unicode="N" horiz-adv-x="706" d="M543 520 Q543 535 541.5 545.5 Q540 556 533.5 564 Q527 572 514 578 Q501 584 479 590 L479 625 Q504 624 528.5 623 Q553 622 575 622 Q598 622 627.5 623 Q657 624 678 625 L678 590 L617 571 L617 -1 L498 -1 L169 445 L169 105 Q169 90 170.5 79.5 Q172 69 178.5 61 Q185 53 198 47 Q211 41 233 35 L233 0 Q208 1 183.5 2 Q159 3 137 3 Q114 3 84.5 2 Q55 1 34 0 L34 35 L95 54 L95 520 Q95 535 93 545.5 Q91 556 84.5 564 Q78 572 65 578 Q52 584 30 590 L30 625 L236 625 L543 209 L543 520 Z " />
<glyph glyph-name="O" unicode="O" horiz-adv-x="672" d="M640 312 Q640 240 619.5 179.5 Q599 119 560 75.5 Q521 32 464.5 8 Q408 -16 336 -16 Q264 -16 207.5 8 Q151 32 112 75.5 Q73 119 52.5 179.5 Q32 240 32 312 Q32 384 52.5 444.5 Q73 505 112 548.5 Q151 592 207.5 616 Q264 640 336 640 Q408 640 464.5 616 Q521 592 560 548.5 Q599 505 619.5 444.5 Q640 384 640 312 Z M465 312 Q465 372 457.5 420.5 Q450 469 434 503.5 Q418 538 393.5 556.5 Q369 575 336 575 Q303 575 278.5 556.5 Q254 538 238 503.5 Q222 469 214.5 420.5 Q207 372 207 312 Q207 252 214.5 203.5 Q222 155 238 120.5 Q254 86 278.5 67.5 Q303 49 336 49 Q369 49 393.5 67.5 Q418 86 434 120.5 Q450 155 457.5 203.5 Q465 252 465 312 Z " />
<glyph glyph-name="P" unicode="P" horiz-adv-x="589" d="M260 106 Q260 91 262.5 80.5 Q265 70 273 62 Q281 54 296.5 48 Q312 42 338 35 L338 0 Q326 0 305.5 0.5 Q285 1 263 1.5 Q241 2 220 2.5 Q199 3 184 3 Q167 3 145.5 2.5 Q124 2 103 1.5 Q82 1 63 0.5 Q44 0 34 0 L34 35 L95 54 L95 520 Q95 535 93.5 545.5 Q92 556 85.5 564 Q79 572 66 578 Q53 584 31 590 L31 625 L295 625 Q374 625 431.5 611.5 Q489 598 523 566 Q569 523 569 443 Q569 355 503 302.5 Q437 250 298 250 L260 250 L260 106 Z M260 305 L280 305 Q398 305 398 443 Q398 504 369 536.5 Q340 569 273 569 L260 569 L260 305 Z " />
<glyph glyph-name="Q" unicode="Q" horiz-adv-x="672" d="M640 312 Q640 205 597 126.5 Q554 48 473 11 Q480 -31 506.5 -62 Q533 -93 575 -114 Q617 -135 672.5 -146.5 Q728 -158 793 -161 L793 -204 Q778 -205 763 -205.5 Q748 -206 734 -206 Q614 -206 535.5 -189.5 Q457 -173 408 -146 Q359 -119 334 -84.5 Q309 -50 298 -14 Q234 -8 184.5 18.5 Q135 45 101 87.5 Q67 130 49.5 187 Q32 244 32 312 Q32 384 52.5 444.5 Q73 505 112 548.5 Q151 592 207.5 616 Q264 640 336 640 Q408 640 464.5 616 Q521 592 560 548.5 Q599 505 619.5 444.5 Q640 384 640 312 Z M465 312 Q465 372 457.5 420.5 Q450 469 434 503.5 Q418 538 393.5 556.5 Q369 575 336 575 Q303 575 278.5 556.5 Q254 538 238 503.5 Q222 469 214.5 420.5 Q207 372 207 312 Q207 252 214.5 203.5 Q222 155 238 120.5 Q254 86 278.5 67.5 Q303 49 336 49 Q369 49 393.5 67.5 Q418 86 434 120.5 Q450 155 457.5 203.5 Q465 252 465 312 Z " />
<glyph glyph-name="R" unicode="R" horiz-adv-x="651" d="M288 625 Q369 625 427.5 613 Q486 601 522 571 Q570 531 570 458 Q570 398 534.5 357.5 Q499 317 436 302 Q454 297 468 289.5 Q482 282 493 271 Q504 260 513 244 Q522 228 530 206 L562 113 Q569 93 575.5 79.5 Q582 66 591.5 57.5 Q601 49 614 43.5 Q627 38 647 35 L647 0 L415 0 Q415 25 411.5 47 Q408 69 396 105 L369 186 Q361 210 353 225.5 Q345 241 334.5 250 Q324 259 309 262.5 Q294 266 272 266 L260 266 L260 105 Q260 90 261.5 79.5 Q263 69 269.5 61 Q276 53 289 47 Q302 41 324 35 L324 0 Q312 0 294 0.5 Q276 1 256.5 1.5 Q237 2 218 2.5 Q199 3 184 3 Q167 3 145.5 2.5 Q124 2 103 1.5 Q82 1 63 0.5 Q44 0 34 0 L34 35 L95 54 L95 520 Q95 535 93.5 545.5 Q92 556 85.5 564 Q79 572 66 578 Q53 584 31 590 L31 625 L288 625 Z M260 318 L279 318 Q335 318 367 351 Q399 384 399 447 Q399 513 365.5 541 Q332 569 269 569 L260 569 L260 318 Z " />
<glyph glyph-name="S" unicode="S" horiz-adv-x="533" d="M115 182 Q124 116 157.5 79 Q191 42 250 42 Q298 42 324.5 68 Q351 94 351 131 Q351 162 329 182.5 Q307 203 274.5 220.5 Q242 238 203.5 256 Q165 274 132.5 299 Q100 324 78 360 Q56 396 56 450 Q56 496 74.5 531 Q93 566 125 590 Q157 614 199.5 626 Q242 638 290 638 Q332 638 371.5 631 Q411 624 454 620 Q454 607 454.5 585.5 Q455 564 456 540.5 Q457 517 458 494 Q459 471 460 456 L411 456 Q404 514 376 546 Q348 578 293 578 Q249 578 222.5 555 Q196 532 196 495 Q196 463 218 441.5 Q240 420 272.5 402.5 Q305 385 343.5 367.5 Q382 350 414.5 325 Q447 300 469 265 Q491 230 491 177 Q491 131 472.5 94.5 Q454 58 422 33 Q390 8 346.5 -5 Q303 -18 254 -18 Q206 -18 154.5 -8.5 Q103 1 65 18 L65 182 L115 182 Z " />
<glyph glyph-name="T" unicode="T" horiz-adv-x="619" d="M554 448 Q548 485 539.5 508 Q531 531 517.5 544.5 Q504 558 484 563 Q464 568 434 568 L392 568 L392 105 Q392 90 393.5 79.5 Q395 69 401.5 61 Q408 53 421 47 Q434 41 456 35 L456 0 Q444 0 426 0.5 Q408 1 388.5 1.5 Q369 2 350 2.5 Q331 3 316 3 Q299 3 277.5 2.5 Q256 2 235 1.5 Q214 1 195 0.5 Q176 0 166 0 L166 35 L227 54 L227 568 L185 568 Q155 568 135 563 Q115 558 101.5 544.5 Q88 531 79.5 508 Q71 485 65 448 L18 448 Q19 461 20 485 Q21 509 22 535 Q23 561 23.5 585.5 Q24 610 24 625 L595 625 Q595 610 595.5 585.5 Q596 561 597 535 Q598 509 599 485 Q600 461 601 448 L554 448 Z " />
<glyph glyph-name="U" unicode="U" horiz-adv-x="674" d="M250 226 Q250 178 259.5 147 Q269 116 287 96 Q321 59 382 59 Q449 59 483 103 Q498 123 506.5 152 Q515 181 515 226 L515 520 Q515 535 513.5 545.5 Q512 556 505.5 564 Q499 572 486 578 Q473 584 451 590 L451 625 Q476 624 500.5 623 Q525 622 547 622 Q570 622 599.5 623 Q629 624 650 625 L650 590 L589 571 L589 221 Q589 164 575 122 Q561 80 533 50 Q470 -16 344 -16 Q286 -16 235.5 0 Q185 16 152 45 Q119 75 102 120 Q85 165 85 231 L85 520 Q85 535 83.5 545.5 Q82 556 75.5 564 Q69 572 56 578 Q43 584 21 590 L21 625 Q33 625 51 624.5 Q69 624 88.5 623.5 Q108 623 127 622.5 Q146 622 161 622 Q177 622 199 622.5 Q221 623 242 623.5 Q263 624 281.5 624.5 Q300 625 311 625 L311 590 L250 571 L250 226 Z " />
<glyph glyph-name="V" unicode="V" horiz-adv-x="639" d="M647 590 Q626 587 612 582.5 Q598 578 588 570 Q578 562 570.5 549.5 Q563 537 556 517 L373 -1 L278 -1 L83 505 Q74 528 66 542.5 Q58 557 48 566 Q38 575 24 580 Q10 585 -10 590 L-10 625 Q-3 625 15 624.5 Q33 624 55 623.5 Q77 623 101 622.5 Q125 622 144 622 Q161 622 183 622.5 Q205 623 226.5 623.5 Q248 624 265.5 624.5 Q283 625 291 625 L291 590 L231 572 L368 192 L498 572 L440 590 L440 625 Q447 625 460 624.5 Q473 624 488.5 623.5 Q504 623 521 622.5 Q538 622 554 622 Q579 622 604.5 623 Q630 624 647 625 L647 590 L647 590 Z " />
<glyph glyph-name="W" unicode="W" horiz-adv-x="973" d="M714 -1 L616 -1 L495 353 L369 -1 L271 -1 L83 505 Q74 529 66 543.5 Q58 558 48 567 Q38 576 24 580.5 Q10 585 -10 590 L-10 625 Q0 625 18 624.5 Q36 624 57.5 623.5 Q79 623 101 622.5 Q123 622 140 622 Q157 622 179.5 622.5 Q202 623 223 623.5 Q244 624 262 624.5 Q280 625 288 625 L288 590 L227 572 L365 191 L458 458 L448 490 Q439 518 431 535 Q423 552 414 562.5 Q405 573 393 579 Q381 585 363 590 L363 625 Q371 625 389.5 624.5 Q408 624 429.5 623.5 Q451 623 473.5 622.5 Q496 622 511 622 Q527 622 547.5 622.5 Q568 623 587.5 623.5 Q607 624 623.5 624.5 Q640 625 648 625 L648 590 L583 572 L708 193 L832 572 L774 590 L774 625 Q781 625 794 624.5 Q807 624 822.5 623.5 Q838 623 855 622.5 Q872 622 888 622 Q913 622 938.5 623 Q964 624 981 625 L981 590 Q959 587 944.5 582.5 Q930 578 920.5 570 Q911 562 904 549.5 Q897 537 890 517 L714 -1 Z " />
<glyph glyph-name="X" unicode="X" horiz-adv-x="639" d="M352 400 L462 573 L405 590 L405 625 Q412 625 426.5 624.5 Q441 624 458.5 623.5 Q476 623 492.5 622.5 Q509 622 521 622 Q545 622 574.5 623 Q604 624 620 625 L620 590 Q598 588 583.5 584.5 Q569 581 558.5 575.5 Q548 570 539.5 561 Q531 552 522 538 L391 340 L553 96 Q563 81 572.5 70.5 Q582 60 592.5 53 Q603 46 616.5 42 Q630 38 648 35 L648 0 Q635 0 616.5 0.5 Q598 1 577 1.5 Q556 2 534 2.5 Q512 3 492 3 Q475 3 451.5 2.5 Q428 2 405.5 1.5 Q383 1 364.5 0.5 Q346 0 339 0 L339 35 L399 53 L280 232 L166 52 L223 35 L223 0 Q216 0 201.5 0.5 Q187 1 169.5 1.5 Q152 2 135.5 2.5 Q119 3 107 3 Q95 3 79.5 2.5 Q64 2 49 1.5 Q34 1 21 0.5 Q8 0 0 0 L0 35 Q43 40 65.5 50 Q88 60 106 87 L241 292 L85 529 Q74 545 65 555.5 Q56 566 45.5 572.5 Q35 579 21.5 583 Q8 587 -10 590 L-10 625 Q3 625 21.5 624.5 Q40 624 61 623.5 Q82 623 104 622.5 Q126 622 146 622 Q163 622 186.5 622.5 Q210 623 232.5 623.5 Q255 624 273 624.5 Q291 625 299 625 L299 590 L239 572 L352 400 Z " />
<glyph glyph-name="Y" unicode="Y" horiz-adv-x="604" d="M391 248 L391 105 Q391 90 392.5 79.5 Q394 69 400.5 61 Q407 53 420 47 Q433 41 455 35 L455 0 Q443 0 425 0.5 Q407 1 387.5 1.5 Q368 2 349 2.5 Q330 3 315 3 Q298 3 276.5 2.5 Q255 2 234 1.5 Q213 1 194 0.5 Q175 0 165 0 L165 35 L226 54 L226 241 L78 521 Q69 538 61 549.5 Q53 561 43 569 Q33 577 19.5 581.5 Q6 586 -13 590 L-13 625 Q13 624 53 623 Q93 622 134 622 Q151 622 175 622.5 Q199 623 222 623.5 Q245 624 263.5 624.5 Q282 625 290 625 L290 590 L228 572 L355 331 L468 572 L411 590 L411 625 Q426 624 457 623 Q488 622 520 622 Q545 622 570.5 623 Q596 624 613 625 L613 590 Q592 588 578.5 584 Q565 580 555 571.5 Q545 563 537 550 Q529 537 519 517 L391 248 Z " />
<glyph glyph-name="Z" unicode="Z" horiz-adv-x="579" d="M537 171 Q535 154 534 131 Q533 108 532 84 Q531 60 530.5 37.5 Q530 15 530 0 L46 0 L46 38 L346 568 L148 568 L105 458 L59 458 Q60 471 61 492.5 Q62 514 63 538.5 Q64 563 64 586 Q64 609 64 625 L537 625 L537 587 L236 56 L371 56 Q400 56 419.5 61.5 Q439 67 452.5 80 Q466 93 475 115 Q484 137 490 171 L537 171 L537 171 Z " />
<glyph glyph-name="a" unicode="a" horiz-adv-x="502" d="M492 25 Q467 7 439.5 -3 Q412 -13 380 -13 Q308 -13 288 33 Q269 13 239 -1.5 Q209 -16 171 -16 Q141 -16 115 -6.5 Q89 3 70 21 Q51 39 40 64.5 Q29 90 29 122 Q29 167 48 196.5 Q67 226 100 243.5 Q133 261 178.5 268.5 Q224 276 277 276 L277 305 Q277 346 259.5 365 Q242 384 213 384 Q178 384 152.5 362.5 Q127 341 111 306 L61 327 Q79 384 127.5 422 Q176 460 255 460 Q298 460 332.5 449 Q367 438 390 415 Q433 374 433 287 L433 92 Q433 75 437.5 65 Q442 55 458 55 Q466 55 475 57.5 Q484 60 492 64 L492 25 Z M277 231 Q228 231 203.5 203 Q179 175 179 130 Q179 95 193 75.5 Q207 56 231 56 Q245 56 256.5 62 Q268 68 277 77 L277 231 Z " />
<glyph glyph-name="b" unicode="b" horiz-adv-x="541" d="M60 579 Q60 591 58 599 Q56 607 51 613 Q46 619 36 623.5 Q26 628 11 633 L11 665 Q50 665 80 665.5 Q110 666 134 667.5 Q158 669 178 671 Q198 673 216 676 L216 413 Q235 432 265 446 Q295 460 331 460 Q376 460 410 442.5 Q444 425 467 394 Q490 363 502 319.5 Q514 276 514 225 Q514 107 447.5 45.5 Q381 -16 265 -16 Q212 -16 157 -3 Q102 10 60 33 L60 579 Z M354 225 Q354 260 350.5 289.5 Q347 319 339 340 Q331 361 317.5 373 Q304 385 284 385 Q265 385 247 376 Q229 367 216 353 L216 68 Q226 58 240.5 51 Q255 44 272 44 Q317 44 335.5 91.5 Q354 139 354 225 Z " />
<glyph glyph-name="c" unicode="c" horiz-adv-x="447" d="M427 107 Q403 52 355.5 18 Q308 -16 241 -16 Q193 -16 153 -0.5 Q113 15 84.5 45 Q56 75 40 118.5 Q24 162 24 218 Q24 278 42 323 Q60 368 92 398.5 Q124 429 167.5 444.5 Q211 460 263 460 Q301 460 335 454.5 Q369 449 408 444 Q408 428 408.5 407.5 Q409 387 409.5 365.5 Q410 344 410.5 323 Q411 302 412 286 L368 286 Q360 349 338 374 Q316 399 281 399 Q233 399 208.5 357 Q184 315 184 234 Q184 148 212.5 107.5 Q241 67 286 67 Q313 67 338.5 81.5 Q364 96 387 133 L427 107 Z " />
<glyph glyph-name="d" unicode="d" horiz-adv-x="556" d="M483 94 Q483 55 511 55 Q527 55 543 63 L543 23 Q493 -13 432 -13 Q400 -13 376.5 -1.5 Q353 10 340 34 Q318 11 286.5 -2.5 Q255 -16 218 -16 Q167 -16 130.5 4 Q94 24 71 57 Q48 90 37.5 132 Q27 174 27 217 Q27 272 42.5 317 Q58 362 85.5 393.5 Q113 425 151.5 442.5 Q190 460 236 460 Q262 460 286 453 Q310 446 327 435 L327 579 Q327 591 325 599 Q323 607 318 613 Q313 619 303 623.5 Q293 628 278 633 L278 665 Q317 665 347 665.5 Q377 666 401 667.5 Q425 669 445 671 Q465 673 483 676 L483 94 Z M271 62 Q288 62 302 68 Q316 74 327 83 L327 378 Q317 384 304 388.5 Q291 393 277 393 Q234 393 210.5 351 Q187 309 187 227 Q187 142 209.5 102 Q232 62 271 62 Z " />
<glyph glyph-name="e" unicode="e" horiz-adv-x="475" d="M437 110 Q415 52 363 18 Q311 -16 242 -16 Q189 -16 148 2 Q107 20 79.5 52 Q52 84 38 127.5 Q24 171 24 223 Q24 276 39.5 320 Q55 364 84.5 395 Q114 426 155 443 Q196 460 247 460 Q340 460 390.5 407 Q441 354 442 253 Q442 246 442 236 Q442 226 440 218 L183 218 Q184 186 190 159 Q196 132 208.5 112 Q221 92 241 81 Q261 70 289 70 Q327 70 353 88 Q379 106 397 135 L437 110 Z M311 272 Q311 341 293.5 370.5 Q276 400 249 400 Q218 400 202 365.5 Q186 331 184 272 L311 272 Z " />
<glyph glyph-name="f" unicode="f" horiz-adv-x="356" d="M161 3 Q147 3 129 2.5 Q111 2 93 1.5 Q75 1 59 0.5 Q43 0 34 0 L34 32 L82 51 L82 390 L16 390 L16 444 L82 444 L82 455 Q82 505 96 546.5 Q110 588 136.5 617.5 Q163 647 202 663.5 Q241 680 292 680 Q320 680 347.5 674.5 Q375 669 396.5 658.5 Q418 648 431 633.5 Q444 619 444 600 Q444 585 438 570.5 Q432 556 422.5 545 Q413 534 401 527 Q389 520 377 520 Q359 520 347 536 Q335 552 324.5 571 Q314 590 302.5 606 Q291 622 276 622 Q253 622 245.5 588.5 Q238 555 238 478 L238 444 L352 444 L341 390 L238 390 L238 86 Q238 63 252 52.5 Q266 42 301 32 L301 0 Q289 0 271 0.5 Q253 1 233 1.5 Q213 2 193.5 2.5 Q174 3 161 3 Z " />
<glyph glyph-name="g" unicode="g" horiz-adv-x="504" d="M451 295 Q451 215 395.5 172.5 Q340 130 247 130 Q205 130 171 139 Q168 133 168 125 Q168 105 191.5 98 Q215 91 250.5 87.5 Q286 84 327.5 80 Q369 76 404.5 62.5 Q440 49 463.5 22 Q487 -5 487 -54 Q487 -97 465.5 -130.5 Q444 -164 408 -187.5 Q372 -211 325.5 -223 Q279 -235 229 -235 Q185 -235 147.5 -226.5 Q110 -218 82 -202.5 Q54 -187 38 -164.5 Q22 -142 22 -115 Q22 -80 48.5 -56.5 Q75 -33 118 -22 Q92 -9 75 12 Q58 33 58 67 Q58 94 73.5 118.5 Q89 143 116 161 Q81 181 62 215 Q43 249 43 295 Q43 375 98.5 417.5 Q154 460 247 460 Q315 460 367 435 Q380 436 397.5 438.5 Q415 441 433.5 444 Q452 447 470 451 Q488 455 503 458 L503 382 L484 382 Q467 382 450 383 Q433 384 424 386 Q451 351 451 295 Z M380 -96 Q380 -78 360.5 -69 Q341 -60 310.5 -55 Q280 -50 244 -47.5 Q208 -45 175 -40 Q165 -52 159.5 -65.5 Q154 -79 154 -96 Q154 -130 182 -149.5 Q210 -169 256 -169 Q281 -169 303.5 -163 Q326 -157 343 -147.5 Q360 -138 370 -124.5 Q380 -111 380 -96 Z M307 295 Q307 345 291.5 373.5 Q276 402 247 402 Q218 402 202.5 373.5 Q187 345 187 295 Q187 245 202.5 216.5 Q218 188 247 188 Q276 188 291.5 216.5 Q307 245 307 295 Z " />
<glyph glyph-name="h" unicode="h" horiz-adv-x="574" d="M23 665 Q62 665 92 665.5 Q122 666 146 667.5 Q170 669 190 671 Q210 673 228 676 L228 392 Q251 418 289 439 Q327 460 375 460 Q408 460 432.5 449.5 Q457 439 474 419 Q509 378 509 298 L509 86 Q509 63 517.5 53 Q526 43 555 32 L555 0 Q543 0 527.5 0.5 Q512 1 495.5 1.5 Q479 2 462 2.5 Q445 3 432 3 Q418 3 400 2.5 Q382 2 364 1.5 Q346 1 330 0.5 Q314 0 305 0 L305 32 L353 51 L353 301 Q353 321 350 336.5 Q347 352 338 361 Q326 373 307 373 Q286 373 264 359.5 Q242 346 228 328 L228 86 Q228 63 236.5 53 Q245 43 274 32 L274 0 Q262 0 246.5 0.5 Q231 1 214.5 1.5 Q198 2 181 2.5 Q164 3 151 3 Q137 3 119 2.5 Q101 2 83 1.5 Q65 1 49 0.5 Q33 0 24 0 L24 32 L72 51 L72 579 Q72 591 70 599 Q68 607 63 613 Q58 619 48 623.5 Q38 628 23 633 L23 665 Z " />
<glyph glyph-name="i" unicode="i" horiz-adv-x="307" d="M235 86 Q235 63 244 53 Q253 43 282 32 L282 0 Q270 0 254.5 0.5 Q239 1 222 1.5 Q205 2 188 2.5 Q171 3 158 3 Q144 3 126 2.5 Q108 2 90 1.5 Q72 1 56 0.5 Q40 0 31 0 L31 32 L79 51 L79 358 Q79 370 77 378 Q75 386 70 392 Q65 398 55 402.5 Q45 407 30 412 L30 444 Q69 444 99 444.5 Q129 445 153 446.5 Q177 448 197 450 Q217 452 235 455 L235 86 Z M72 582 Q72 615 95 638.5 Q118 662 151 662 Q184 662 207.5 638.5 Q231 615 231 582 Q231 549 207.5 526 Q184 503 151 503 Q118 503 95 526 Q72 549 72 582 Z " />
<glyph glyph-name="j" unicode="j" horiz-adv-x="289" d="M228 3 Q228 -113 166.5 -170.5 Q105 -228 -6 -234 L-13 -191 Q31 -177 51.5 -142 Q72 -107 72 -33 L72 358 Q72 370 70 378 Q68 386 63 392 Q58 398 48 402.5 Q38 407 23 412 L23 444 Q62 444 92 444.5 Q122 445 146 446.5 Q170 448 190 450 Q210 452 228 455 L228 3 Z M65 582 Q65 615 88 638.5 Q111 662 144 662 Q177 662 200.5 638.5 Q224 615 224 582 Q224 549 200.5 526 Q177 503 144 503 Q111 503 88 526 Q65 549 65 582 Z " />
<glyph glyph-name="k" unicode="k" horiz-adv-x="556" d="M228 269 L382 397 L335 412 L335 444 Q343 444 356.5 443.5 Q370 443 386 442.5 Q402 442 417.5 442 Q433 442 444 442 Q455 442 469 442 Q483 442 497 442.5 Q511 443 524 443.5 Q537 444 546 444 L546 412 Q511 409 486.5 398.5 Q462 388 428 361 L366 312 L474 106 Q491 72 508.5 56.5 Q526 41 560 32 L560 0 L441 0 Q394 0 369 17.5 Q344 35 323 76 L250 219 L228 201 L228 86 Q228 63 237 53 Q246 43 275 32 L275 0 Q263 0 247.5 0.5 Q232 1 215 1.5 Q198 2 181 2.5 Q164 3 151 3 Q137 3 119 2.5 Q101 2 83 1.5 Q65 1 49 0.5 Q33 0 24 0 L24 32 L72 51 L72 579 Q72 591 70 599 Q68 607 63 613 Q58 619 48 623.5 Q38 628 23 633 L23 665 Q62 665 92 665.5 Q122 666 146 667.5 Q170 669 190 671 Q210 673 228 676 L228 269 Z " />
<glyph glyph-name="l" unicode="l" horiz-adv-x="299" d="M228 86 Q228 63 237 53 Q246 43 275 32 L275 0 Q263 0 247.5 0.5 Q232 1 215 1.5 Q198 2 181 2.5 Q164 3 151 3 Q137 3 119 2.5 Q101 2 83 1.5 Q65 1 49 0.5 Q33 0 24 0 L24 32 L72 51 L72 579 Q72 591 70 599 Q68 607 63 613 Q58 619 48 623.5 Q38 628 23 633 L23 665 Q62 665 92 665.5 Q122 666 146 667.5 Q170 669 190 671 Q210 673 228 676 L228 86 Z " />
<glyph glyph-name="m" unicode="m" horiz-adv-x="850" d="M29 444 Q68 444 98 444.5 Q128 445 152 446.5 Q176 448 196 450 Q216 452 234 455 L234 392 Q259 421 296 440.5 Q333 460 377 460 Q461 460 496 383 Q524 417 565.5 438.5 Q607 460 652 460 Q684 460 708.5 449.5 Q733 439 750 419 Q785 378 785 298 L785 86 Q785 63 793.5 53 Q802 43 831 32 L831 0 Q819 0 803.5 0.5 Q788 1 771.5 1.5 Q755 2 738 2.5 Q721 3 708 3 Q694 3 676.5 2.5 Q659 2 641.5 1.5 Q624 1 608.5 0.5 Q593 0 584 0 L584 32 L629 51 L629 301 Q629 321 626 336.5 Q623 352 614 361 Q602 373 583 373 Q563 373 542.5 360.5 Q522 348 508 331 Q509 324 509.5 313.5 Q510 303 510 293 L510 86 Q510 63 518.5 53 Q527 43 556 32 L556 0 Q544 0 528.5 0.5 Q513 1 496.5 1.5 Q480 2 463 2.5 Q446 3 433 3 Q419 3 401.5 2.5 Q384 2 366.5 1.5 Q349 1 333.5 0.5 Q318 0 309 0 L309 32 L354 51 L354 301 Q354 321 351 336.5 Q348 352 339 361 Q327 373 308 373 Q286 373 266.5 359 Q247 345 234 328 L234 86 Q234 63 242.5 53 Q251 43 280 32 L280 0 Q268 0 252.5 0.5 Q237 1 220.5 1.5 Q204 2 187 2.5 Q170 3 157 3 Q143 3 125 2.5 Q107 2 89 1.5 Q71 1 55 0.5 Q39 0 30 0 L30 32 L78 51 L78 358 Q78 370 76 378 Q74 386 69 392 Q64 398 54 402.5 Q44 407 29 412 L29 444 Z " />
<glyph glyph-name="n" unicode="n" horiz-adv-x="580" d="M29 444 Q68 444 98 444.5 Q128 445 152 446.5 Q176 448 196 450 Q216 452 234 455 L234 392 Q257 418 295 439 Q333 460 381 460 Q414 460 438.5 449.5 Q463 439 480 419 Q515 378 515 298 L515 86 Q515 63 523.5 53 Q532 43 561 32 L561 0 Q549 0 533.5 0.5 Q518 1 501.5 1.5 Q485 2 468 2.5 Q451 3 438 3 Q424 3 406 2.5 Q388 2 370 1.5 Q352 1 336 0.5 Q320 0 311 0 L311 32 L359 51 L359 301 Q359 321 356 336.5 Q353 352 344 361 Q332 373 313 373 Q292 373 270 359.5 Q248 346 234 328 L234 86 Q234 63 242.5 53 Q251 43 280 32 L280 0 Q268 0 252.5 0.5 Q237 1 220.5 1.5 Q204 2 187 2.5 Q170 3 157 3 Q143 3 125 2.5 Q107 2 89 1.5 Q71 1 55 0.5 Q39 0 30 0 L30 32 L78 51 L78 358 Q78 370 76 378 Q74 386 69 392 Q64 398 54 402.5 Q44 407 29 412 L29 444 Z " />
<glyph glyph-name="o" unicode="o" horiz-adv-x="514" d="M490 222 Q490 164 472.5 119.5 Q455 75 424 45 Q393 15 350.5 -0.5 Q308 -16 257 -16 Q206 -16 163.5 -0.5 Q121 15 90 45 Q59 75 41.5 119.5 Q24 164 24 222 Q24 280 41.5 324.5 Q59 369 90 399 Q121 429 163.5 444.5 Q206 460 257 460 Q308 460 350.5 444.5 Q393 429 424 399 Q455 369 472.5 324.5 Q490 280 490 222 Z M330 222 Q330 314 314.5 357.5 Q299 401 257 401 Q215 401 199.5 357.5 Q184 314 184 222 Q184 130 199.5 86.5 Q215 43 257 43 Q299 43 314.5 86.5 Q330 130 330 222 Z " />
<glyph glyph-name="p" unicode="p" horiz-adv-x="553" d="M293 380 Q275 380 257.5 370 Q240 360 227 346 L227 63 Q237 57 249.5 53 Q262 49 276 49 Q319 49 342.5 93 Q366 137 366 222 Q366 297 347 338.5 Q328 380 293 380 Z M150 -218 Q136 -218 118 -218.5 Q100 -219 82 -219.5 Q64 -220 48 -220.5 Q32 -221 23 -221 L23 -189 L71 -170 L71 358 Q71 370 69 378 Q67 386 62 392 Q57 398 47 402.5 Q37 407 22 412 L22 444 Q61 444 91 444.5 Q121 445 145 446.5 Q169 448 189 450 Q209 452 227 455 L227 404 Q249 426 280 443 Q311 460 353 460 Q390 460 421.5 444 Q453 428 476.5 397.5 Q500 367 513 324 Q526 281 526 227 Q526 171 510.5 126.5 Q495 82 467.5 50 Q440 18 401.5 1 Q363 -16 317 -16 Q291 -16 266.5 -9.5 Q242 -3 227 7 L227 -135 Q227 -158 241 -168.5 Q255 -179 290 -189 L290 -221 Q278 -221 260 -220.5 Q242 -220 222 -219.5 Q202 -219 182.5 -218.5 Q163 -218 150 -218 Z " />
<glyph glyph-name="q" unicode="q" horiz-adv-x="539" d="M281 460 Q332 460 385.5 447 Q439 434 481 413 L481 -135 Q481 -159 491.5 -169 Q502 -179 534 -189 L534 -221 Q495 -221 464.5 -221.5 Q434 -222 409 -223.5 Q384 -225 363.5 -227 Q343 -229 325 -232 L325 31 Q306 12 276 -2 Q246 -16 210 -16 Q165 -16 131 1 Q97 18 74 49 Q51 80 39 123 Q27 166 27 217 Q27 275 45 320.5 Q63 366 96.5 397 Q130 428 177 444 Q224 460 281 460 Z M187 219 Q187 184 190.5 154.5 Q194 125 202 104 Q210 83 223.5 71 Q237 59 257 59 Q276 59 294 68 Q312 77 325 91 L325 382 Q315 390 301.5 395 Q288 400 273 400 Q229 400 208 353 Q187 306 187 219 Z " />
<glyph glyph-name="r" unicode="r" horiz-adv-x="431" d="M234 375 Q260 415 288.5 437.5 Q317 460 352 460 Q386 460 406.5 442 Q427 424 427 398 Q427 384 422 371 Q417 358 408.5 348 Q400 338 389.5 332 Q379 326 367 326 Q356 326 348.5 331.5 Q341 337 333.5 343 Q326 349 318 354.5 Q310 360 300 360 Q285 360 269.5 350 Q254 340 234 320 L234 86 Q234 63 248 52.5 Q262 42 297 32 L297 0 Q285 0 268.5 0.5 Q252 1 233.5 1.5 Q215 2 197 2.5 Q179 3 166 3 Q152 3 132.5 2.5 Q113 2 93.5 1.5 Q74 1 56.5 0.5 Q39 0 30 0 L30 32 L78 51 L78 358 Q78 370 76 378 Q74 386 69 392 Q64 398 54 402.5 Q44 407 29 412 L29 444 Q68 444 98 444.5 Q128 445 152 446.5 Q176 448 196 450 Q216 452 234 455 L234 375 Z " />
<glyph glyph-name="s" unicode="s" horiz-adv-x="424" d="M96 143 Q104 98 128.5 68 Q153 38 195 38 Q222 38 239.5 52 Q257 66 257 89 Q257 111 241 125 Q225 139 201 150.5 Q177 162 149.5 173.5 Q122 185 98 203 Q74 221 58 247.5 Q42 274 42 316 Q42 350 57 376.5 Q72 403 97.5 421.5 Q123 440 157 450 Q191 460 229 460 Q267 460 299.5 453.5 Q332 447 364 443 Q364 411 364 372.5 Q364 334 366 305 L323 305 Q310 406 240 406 Q214 406 196.5 393.5 Q179 381 179 358 Q179 337 195 322.5 Q211 308 235 296 Q259 284 286.5 272 Q314 260 338 242 Q362 224 378 197.5 Q394 171 394 132 Q394 63 343.5 23.5 Q293 -16 205 -16 Q171 -16 131 -10 Q91 -4 54 11 L54 143 L96 143 Z " />
<glyph glyph-name="t" unicode="t" horiz-adv-x="370" d="M8 390 L8 444 L74 444 L74 536 L230 571 L230 444 L344 444 L333 390 L230 390 L230 116 Q230 96 237.5 82 Q245 68 265 68 Q280 68 296 76 Q312 84 331 104 L364 71 Q341 34 302 9 Q263 -16 209 -16 Q173 -16 147.5 -5 Q122 6 106 26 Q89 47 81.5 75 Q74 103 74 142 L74 390 L8 390 Z " />
<glyph glyph-name="u" unicode="u" horiz-adv-x="573" d="M349 57 Q323 27 285.5 5.5 Q248 -16 200 -16 Q136 -16 101 25 Q66 66 66 146 L66 358 Q66 370 64 378 Q62 386 57 392 Q52 398 42 402.5 Q32 407 17 412 L17 444 Q56 444 86 444.5 Q116 445 140 446.5 Q164 448 184 450 Q204 452 222 455 L222 143 Q222 123 225 107.5 Q228 92 237 83 Q249 71 268 71 Q289 71 309.5 84.5 Q330 98 344 116 L344 358 Q344 370 342 378 Q340 386 335 392 Q330 398 320 402.5 Q310 407 295 412 L295 444 Q334 444 364 444.5 Q394 445 418 446.5 Q442 448 462 450 Q482 452 500 455 L500 94 Q500 55 528 55 Q544 55 560 63 L560 23 Q510 -13 449 -13 Q411 -13 384 4.5 Q357 22 349 57 Z " />
<glyph glyph-name="v" unicode="v" horiz-adv-x="480" d="M496 412 Q479 409 467.5 405 Q456 401 448 394 Q440 387 434 375.5 Q428 364 421 346 L291 -1 L204 -1 L63 347 Q56 364 50 374.5 Q44 385 35.5 391.5 Q27 398 15.5 402.5 Q4 407 -14 412 L-14 444 Q-10 444 5.5 443.5 Q21 443 41 442.5 Q61 442 82 441.5 Q103 441 117 441 Q130 441 149 441.5 Q168 442 186.5 442.5 Q205 443 220.5 443.5 Q236 444 243 444 L243 412 L201 396 L238 301 Q253 262 266.5 226.5 Q280 191 290 160 Q300 194 312.5 228 Q325 262 339 300 L375 396 L337 412 L337 444 Q350 443 375 442.5 Q400 442 421 442 Q441 442 458.5 442.5 Q476 443 496 444 L496 412 Z " />
<glyph glyph-name="w" unicode="w" horiz-adv-x="744" d="M560 -1 L478 -1 L424 154 Q413 183 403.5 211.5 Q394 240 386 269 Q377 242 366.5 213 Q356 184 346 158 L285 -1 L203 -1 L63 347 Q56 364 50 374.5 Q44 385 35.5 391.5 Q27 398 15.5 402.5 Q4 407 -14 412 L-14 444 Q-10 444 5.5 443.5 Q21 443 41 442.5 Q61 442 82 441.5 Q103 441 117 441 Q130 441 148.5 441.5 Q167 442 185 442.5 Q203 443 218 443.5 Q233 444 240 444 L240 412 L198 396 L236 298 Q263 227 287 157 Q298 190 310.5 224 Q323 258 336 291 L357 346 Q345 379 331 393 Q317 407 291 412 L291 444 Q295 444 309 443.5 Q323 443 341 442.5 Q359 442 378 441.5 Q397 441 410 441 Q420 441 437.5 441.5 Q455 442 473 442.5 Q491 443 506 443.5 Q521 444 527 444 L527 411 L482 398 L510 316 Q523 278 536 237 Q549 196 560 160 Q571 196 583 232.5 Q595 269 609 309 L639 396 L601 412 L601 444 Q614 443 639 442.5 Q664 442 685 442 Q705 442 722.5 442.5 Q740 443 760 444 L760 412 Q743 409 731.5 404.5 Q720 400 711.5 393 Q703 386 697 375 Q691 364 685 346 L560 -1 Z " />
<glyph glyph-name="x" unicode="x" horiz-adv-x="500" d="M292 293 L354 399 L320 412 L320 444 Q334 443 361 442.5 Q388 442 411 442 Q435 442 455.5 442.5 Q476 443 489 444 L489 412 Q469 409 455.5 405 Q442 401 431.5 394 Q421 387 411.5 375 Q402 363 391 345 L327 240 L426 93 Q436 77 444.5 67 Q453 57 462 50.5 Q471 44 482 40 Q493 36 509 32 L509 0 Q500 0 484 0.5 Q468 1 449.5 1.5 Q431 2 413 2.5 Q395 3 381 3 Q365 3 345 2.5 Q325 2 306 1.5 Q287 1 272 0.5 Q257 0 251 0 L251 32 L286 46 L215 152 L153 45 L187 32 L187 0 Q173 1 146.5 1.5 Q120 2 97 2 Q73 2 46 1.5 Q19 1 6 0 L6 32 Q46 39 71 52.5 Q96 66 116 99 L180 205 L82 351 Q71 367 62.5 377 Q54 387 44.5 393.5 Q35 400 24 404 Q13 408 -3 412 L-3 444 Q6 444 23.5 443.5 Q41 443 61 442.5 Q81 442 100.5 441.5 Q120 441 134 441 Q150 441 169 441.5 Q188 442 206 442.5 Q224 443 238 443.5 Q252 444 258 444 L258 412 L222 398 L292 293 Z " />
<glyph glyph-name="y" unicode="y" horiz-adv-x="489" d="M-16 444 Q-12 444 4.5 443.5 Q21 443 41.5 442.5 Q62 442 83.5 441.5 Q105 441 119 441 Q132 441 151 441.5 Q170 442 189 442.5 Q208 443 223.5 443.5 Q239 444 246 444 L246 412 L204 396 L233 328 Q252 283 268.5 240 Q285 197 298 157 Q311 195 327 238.5 Q343 282 359 323 L387 396 L349 412 L349 444 Q362 443 387 442.5 Q412 442 433 442 Q453 442 470 442.5 Q487 443 507 444 L507 412 Q490 409 478.5 405 Q467 401 459 394 Q451 387 445 375.5 Q439 364 432 346 L268 -69 Q249 -118 230 -150 Q211 -182 191.5 -201 Q172 -220 151 -227.5 Q130 -235 107 -235 Q67 -235 46.5 -214 Q26 -193 26 -168 Q26 -149 37 -136.5 Q48 -124 68 -124 Q82 -124 99.5 -128 Q117 -132 137 -132 Q163 -132 178 -114 Q193 -96 212 -47 L224 -16 L61 347 Q53 364 47 374.5 Q41 385 32.5 391.5 Q24 398 13 402.5 Q2 407 -16 412 L-16 444 Z " />
<glyph glyph-name="z" unicode="z" horiz-adv-x="469" d="M219 54 L319 54 Q337 54 348.5 56.5 Q360 59 368 68.5 Q376 78 382 95.5 Q388 113 395 143 L433 143 Q433 128 432.5 107.5 Q432 87 431.5 67 Q431 47 431 28.5 Q431 10 431 0 L42 0 L42 48 L255 390 L119 390 L88 304 L50 304 Q51 338 51 377.5 Q51 417 51 444 L431 444 L431 395 L219 54 Z " />
<glyph glyph-name="ampersand" unicode="&#x26;" horiz-adv-x="729" d="M711 26 Q680 8 647 -3.5 Q614 -15 582 -15 Q540 -15 510 0.5 Q480 16 453 44 Q418 15 368.5 -0.5 Q319 -16 265 -16 Q214 -16 170 -2.5 Q126 11 94 36 Q62 61 43.5 95 Q25 129 25 170 Q25 233 66.5 275.5 Q108 318 176 342 Q149 374 132.5 407.5 Q116 441 116 476 Q116 515 132 545.5 Q148 576 174 597 Q200 618 233.5 629 Q267 640 302 640 Q336 640 365.5 629 Q395 618 416.5 600 Q438 582 450 558 Q462 534 462 508 Q462 464 434.5 428 Q407 392 347 358 L500 193 Q510 216 517.5 245 Q525 274 530 302 L467 328 L467 363 Q484 361 514.5 360 Q545 359 568 359 Q590 359 616 360 Q642 361 660 363 L660 328 Q638 324 624.5 319.5 Q611 315 602 307 Q593 299 587.5 286.5 Q582 274 577 255 Q569 226 560.5 201 Q552 176 540 149 L583 105 Q597 90 608 81 Q619 72 628 67 Q637 62 645.5 60 Q654 58 665 58 Q676 58 687.5 60.5 Q699 63 711 68 L711 26 Z M222 295 Q200 278 189 253.5 Q178 229 178 199 Q178 173 187.5 149 Q197 125 215 107 Q233 89 258 78 Q283 67 313 67 Q363 67 406 93 L222 295 Z M304 403 Q368 452 368 508 Q368 539 351.5 560 Q335 581 305 581 Q279 581 260.5 563 Q242 545 242 515 Q242 502 245.5 490 Q249 478 256.5 465 Q264 452 275.5 437 Q287 422 304 403 Z " />
<glyph glyph-name="at" unicode="&#x40;" horiz-adv-x="802" d="M545 254 Q540 234 540 224 Q540 199 564 199 Q581 199 597.5 215 Q614 231 627.5 258 Q641 285 649 319 Q657 353 657 389 Q657 432 643.5 468 Q630 504 604 530 Q578 556 540 570.5 Q502 585 453 585 Q391 585 337.5 559.5 Q284 534 245 489.5 Q206 445 183.5 386.5 Q161 328 161 262 Q161 156 222.5 97 Q284 38 395 38 Q460 38 525.5 59.5 Q591 81 648 117 L668 86 Q610 41 535 12.5 Q460 -16 375 -16 Q295 -16 232 5 Q169 26 126 63.5 Q83 101 60.5 152.5 Q38 204 38 266 Q38 337 68.5 404 Q99 471 154 523.5 Q209 576 286 608 Q363 640 456 640 Q525 640 580.5 620.5 Q636 601 675 566.5 Q714 532 735 485 Q756 438 756 384 Q756 338 740 295 Q724 252 695 219 Q666 186 625.5 166 Q585 146 537 146 Q496 146 471 161.5 Q446 177 438 200 Q421 175 393.5 159.5 Q366 144 332 144 Q287 144 257 173.5 Q227 203 227 259 Q227 303 243.5 342 Q260 381 288 410 Q316 439 353 456 Q390 473 432 473 Q469 473 496 457 L519 474 L591 465 L598 455 L545 254 Z M467 416 Q458 425 443 425 Q422 425 404 409 Q386 393 373 368 Q360 343 352.5 313.5 Q345 284 345 257 Q345 237 352.5 224 Q360 211 374 211 Q395 211 411 236.5 Q427 262 441 317 L467 416 Z " />
<glyph glyph-name="exclam" unicode="&#x21;" horiz-adv-x="284" d="M63 62 Q63 94 85.5 117 Q108 140 141 140 Q173 140 196 117 Q219 94 219 62 Q219 29 196 6.5 Q173 -16 141 -16 Q108 -16 85.5 6.5 Q63 29 63 62 Z M224 543 Q224 508 216.5 468 Q209 428 199.5 385 Q190 342 180.5 295.5 Q171 249 167 201 L117 201 Q113 249 103.5 295.5 Q94 342 84.5 385 Q75 428 67.5 468 Q60 508 60 543 Q60 588 81.5 614 Q103 640 142 640 Q181 640 202.5 614 Q224 588 224 543 Z " />
<glyph glyph-name="exclamdown" unicode="&#xa1;" horiz-adv-x="284" d="M63 382 Q63 415 85.5 437.5 Q108 460 141 460 Q173 460 196 437.5 Q219 415 219 382 Q219 350 196 327 Q173 304 141 304 Q108 304 85.5 327 Q63 350 63 382 Z M224 -99 Q224 -144 202.5 -170 Q181 -196 142 -196 Q103 -196 81.5 -170 Q60 -144 60 -99 Q60 -64 67.5 -24 Q75 16 84.5 59 Q94 102 103.5 148.5 Q113 195 117 243 L167 243 Q171 195 180.5 148.5 Q190 102 199.5 59 Q209 16 216.5 -24 Q224 -64 224 -99 Z " />
<glyph glyph-name="question" unicode="&#x3f;" horiz-adv-x="449" d="M172 197 Q172 240 185 272.5 Q198 305 213.5 334 Q229 363 242 393 Q255 423 255 460 Q255 502 232.5 529 Q210 556 168 556 Q133 556 105.5 538.5 Q78 521 59 491 L14 518 Q42 575 94 607.5 Q146 640 223 640 Q266 640 302.5 628.5 Q339 617 364.5 595.5 Q390 574 404.5 543.5 Q419 513 419 475 Q419 439 406 413.5 Q393 388 373.5 367 Q354 346 330 328 Q306 310 284.5 291 Q263 272 247 249.5 Q231 227 226 197 L172 197 Z M124 62 Q124 94 146.5 117 Q169 140 202 140 Q234 140 257 117 Q280 94 280 62 Q280 29 257 6.5 Q234 -16 202 -16 Q169 -16 146.5 6.5 Q124 29 124 62 Z " />
<glyph glyph-name="questiondown" unicode="&#xbf;" horiz-adv-x="449" d="M277 247 Q277 204 264 171.5 Q251 139 235.5 110 Q220 81 207 51 Q194 21 194 -16 Q194 -58 216.5 -85 Q239 -112 281 -112 Q316 -112 343.5 -94.5 Q371 -77 390 -47 L435 -74 Q407 -131 355 -163.5 Q303 -196 226 -196 Q182 -196 146 -184.5 Q110 -173 84.5 -151.5 Q59 -130 44.5 -99.5 Q30 -69 30 -31 Q30 4 43 30 Q56 56 75.5 77 Q95 98 119 116 Q143 134 164.5 153 Q186 172 202 194.5 Q218 217 223 247 L277 247 Z M325 382 Q325 350 302.5 327 Q280 304 247 304 Q215 304 192 327 Q169 350 169 382 Q169 415 192 437.5 Q215 460 247 460 Q280 460 302.5 437.5 Q325 415 325 382 Z " />
<glyph glyph-name="asterisk" unicode="&#x2a;" horiz-adv-x="404" d="M213 436 Q218 400 228.5 367 Q239 334 239 311 Q239 270 202 270 Q165 270 165 311 Q165 334 175.5 367 Q186 400 191 436 Q175 424 161.5 410 Q148 396 135 383 Q114 362 101.5 352.5 Q89 343 74 343 Q57 343 46.5 355 Q36 367 36 381 Q36 401 59 415 Q81 428 113.5 434.5 Q146 441 180 455 Q146 469 113.5 475.5 Q81 482 59 495 Q36 509 36 529 Q36 543 46.5 555 Q57 567 74 567 Q89 567 101.5 557.5 Q114 548 135 527 Q148 514 161.5 500 Q175 486 191 474 Q186 510 175.5 543 Q165 576 165 599 Q165 640 202 640 Q239 640 239 599 Q239 576 228.5 543 Q218 510 213 474 Q229 486 242.5 500 Q256 514 269 527 Q290 548 302.5 557.5 Q315 567 330 567 Q347 567 357.5 555 Q368 543 368 529 Q368 509 345 495 Q323 482 290.5 475.5 Q258 469 224 455 Q258 441 290.5 434.5 Q323 428 345 415 Q368 401 368 381 Q368 367 357.5 355 Q347 343 330 343 Q315 343 302.5 352.5 Q290 362 269 383 Q256 396 242.5 410 Q229 424 213 436 Z " />
<glyph glyph-name="period" unicode="&#x2e;" horiz-adv-x="243" d="M42 63 Q42 96 65 119.5 Q88 143 121 143 Q154 143 177.5 119.5 Q201 96 201 63 Q201 30 177.5 7 Q154 -16 121 -16 Q88 -16 65 7 Q42 30 42 63 Z " />
<glyph glyph-name="comma" unicode="&#x2c;" horiz-adv-x="243" d="M197 42 Q197 16 188.5 -11 Q180 -38 163 -65 Q146 -92 121.5 -116.5 Q97 -141 64 -160 L43 -130 Q73 -103 93 -73 Q113 -43 113 -21 Q113 -5 101.5 5 Q90 15 76.5 25 Q63 35 51.5 48 Q40 61 40 82 Q40 106 58.5 124.5 Q77 143 110 143 Q149 143 173 115 Q197 87 197 42 Z " />
<glyph glyph-name="colon" unicode="&#x3a;" horiz-adv-x="243" d="M42 63 Q42 96 65 119.5 Q88 143 121 143 Q154 143 177.5 119.5 Q201 96 201 63 Q201 30 177.5 7 Q154 -16 121 -16 Q88 -16 65 7 Q42 30 42 63 Z M42 355 Q42 388 65 411.5 Q88 435 121 435 Q154 435 177.5 411.5 Q201 388 201 355 Q201 322 177.5 299 Q154 276 121 276 Q88 276 65 299 Q42 322 42 355 Z " />
<glyph glyph-name="semicolon" unicode="&#x3b;" horiz-adv-x="246" d="M42 355 Q42 388 65 411.5 Q88 435 121 435 Q154 435 177.5 411.5 Q201 388 201 355 Q201 322 177.5 299 Q154 276 121 276 Q88 276 65 299 Q42 322 42 355 Z M200 42 Q200 16 191.5 -11 Q183 -38 166 -65 Q149 -92 124.5 -116.5 Q100 -141 67 -160 L46 -130 Q76 -103 96 -73 Q116 -43 116 -21 Q116 -5 104.5 5 Q93 15 79.5 25 Q66 35 54.5 48 Q43 61 43 82 Q43 106 61.5 124.5 Q80 143 113 143 Q152 143 176 115 Q200 87 200 42 Z " />
<glyph glyph-name="ellipsis" unicode="&#x2026;" horiz-adv-x="729" d="M42 63 Q42 96 65 119.5 Q88 143 121 143 Q154 143 177.5 119.5 Q201 96 201 63 Q201 30 177.5 7 Q154 -16 121 -16 Q88 -16 65 7 Q42 30 42 63 Z M285 63 Q285 96 308 119.5 Q331 143 364 143 Q397 143 420.5 119.5 Q444 96 444 63 Q444 30 420.5 7 Q397 -16 364 -16 Q331 -16 308 7 Q285 30 285 63 Z M528 63 Q528 96 551 119.5 Q574 143 607 143 Q640 143 663.5 119.5 Q687 96 687 63 Q687 30 663.5 7 Q640 -16 607 -16 Q574 -16 551 7 Q528 30 528 63 Z " />
<glyph glyph-name="periodcentered" unicode="&#xb7;" horiz-adv-x="243" d="M42 221 Q42 254 65 277.5 Q88 301 121 301 Q154 301 177.5 277.5 Q201 254 201 221 Q201 188 177.5 165 Q154 142 121 142 Q88 142 65 165 Q42 188 42 221 Z " />
<glyph glyph-name="uni22C5" unicode="&#x22c5;" horiz-adv-x="243" d="M42 221 Q42 254 65 277.5 Q88 301 121 301 Q154 301 177.5 277.5 Q201 254 201 221 Q201 188 177.5 165 Q154 142 121 142 Q88 142 65 165 Q42 188 42 221 Z " />
<glyph glyph-name="bullet" unicode="&#x2022;" horiz-adv-x="336" d="M50 220 Q50 244 59.5 265.5 Q69 287 85 303 Q101 319 122.5 328.5 Q144 338 168 338 Q192 338 213.5 328.5 Q235 319 251 303 Q267 287 276.5 265.5 Q286 244 286 220 Q286 196 276.5 174.5 Q267 153 251 137 Q235 121 213.5 111.5 Q192 102 168 102 Q144 102 122.5 111.5 Q101 121 85 137 Q69 153 59.5 174.5 Q50 196 50 220 Z " />
<glyph glyph-name="slash" unicode="&#x2f;" horiz-adv-x="344" d="M104 -16 L37 -16 L239 640 L307 640 L104 -16 Z " />
<glyph glyph-name="parenleft" unicode="&#x28;" horiz-adv-x="363" d="M226 313 Q226 249 235 184 Q244 119 262.5 59 Q281 -1 309 -52 Q337 -103 374 -140 L294 -140 Q245 -107 203.5 -61.5 Q162 -16 132 41.5 Q102 99 85 167 Q68 235 68 313 Q68 391 85 459 Q102 527 132 584.5 Q162 642 203.5 687.5 Q245 733 294 766 L374 766 Q337 729 309 678 Q281 627 262.5 567 Q244 507 235 442 Q226 377 226 313 Z " />
<glyph glyph-name="brokenbar" unicode="&#xa6;" horiz-adv-x="258" d="M96 336 L96 710 L162 710 L162 336 L96 336 Z M96 -265 L96 109 L162 109 L162 -265 L96 -265 Z " />
<glyph glyph-name="parenright" unicode="&#x29;" horiz-adv-x="363" d="M137 313 Q137 377 128 442 Q119 507 100.5 567 Q82 627 54 678 Q26 729 -11 766 L69 766 Q118 733 159.5 687.5 Q201 642 231 584.5 Q261 527 278 459 Q295 391 295 313 Q295 235 278 167 Q261 99 231 41.5 Q201 -16 159.5 -61.5 Q118 -107 69 -140 L-11 -140 Q26 -103 54 -52 Q82 -1 100.5 59 Q119 119 128 184 Q137 249 137 313 Z " />
<glyph glyph-name="bracketleft" unicode="&#x5b;" horiz-adv-x="369" d="M106 -142 L106 767 L371 767 L371 712 L252 712 L252 -87 L371 -87 L371 -142 L106 -142 Z " />
<glyph glyph-name="backslash" unicode="&#x5c;" horiz-adv-x="344" d="M37 640 L104 640 L307 -16 L241 -16 L37 640 Z " />
<glyph glyph-name="bracketright" unicode="&#x5d;" horiz-adv-x="369" d="M-2 -142 L-2 -87 L117 -87 L117 712 L-2 712 L-2 767 L263 767 L263 -142 L-2 -142 Z " />
<glyph glyph-name="braceleft" unicode="&#x7b;" horiz-adv-x="344" d="M58 334 Q84 342 104 358.5 Q124 375 124 406 Q124 427 119.5 452 Q115 477 109 504 Q103 531 98.5 558 Q94 585 94 610 Q94 686 159 726 Q224 766 340 766 L340 730 Q286 725 264 705 Q242 685 242 646 Q242 626 246 602.5 Q250 579 255.5 554 Q261 529 265 503.5 Q269 478 269 455 Q269 411 238.5 371.5 Q208 332 136 312 Q208 292 238.5 252.5 Q269 213 269 169 Q269 146 265 120.5 Q261 95 255.5 70 Q250 45 246 21.5 Q242 -2 242 -22 Q242 -61 264 -81 Q286 -101 340 -106 L340 -142 Q224 -142 159 -102 Q94 -62 94 14 Q94 39 98.5 66 Q103 93 109 120 Q115 147 119.5 172 Q124 197 124 218 Q124 249 104 265.5 Q84 282 58 290 L58 334 Z " />
<glyph glyph-name="bar" unicode="&#x7c;" horiz-adv-x="258" d="M96 -265 L96 710 L162 710 L162 -265 L96 -265 Z " />
<glyph glyph-name="braceright" unicode="&#x7d;" horiz-adv-x="344" d="M286 290 Q260 282 240 265.5 Q220 249 220 218 Q220 197 224.5 172 Q229 147 235 120 Q241 93 245.5 66 Q250 39 250 14 Q250 -62 185 -102 Q120 -142 4 -142 L4 -106 Q58 -101 80 -81 Q102 -61 102 -22 Q102 -2 98 21.5 Q94 45 88.5 70 Q83 95 79 120.5 Q75 146 75 169 Q75 213 105.5 252.5 Q136 292 208 312 Q136 332 105.5 371.5 Q75 411 75 455 Q75 478 79 503.5 Q83 529 88.5 554 Q94 579 98 602.5 Q102 626 102 646 Q102 685 80 705 Q58 725 4 730 L4 766 Q120 766 185 726 Q250 686 250 610 Q250 585 245.5 558 Q241 531 235 504 Q229 477 224.5 452 Q220 427 220 406 Q220 375 240 358.5 Q260 342 286 334 L286 290 Z " />
<glyph glyph-name="hyphen" unicode="&#x2d;" horiz-adv-x="330" d="M35 187 L35 261 L295 261 L295 187 L35 187 Z " />
<glyph glyph-name="uni00AD" unicode="&#xad;" horiz-adv-x="330" d="M35 187 L35 261 L295 261 L295 187 L35 187 Z " />
<glyph glyph-name="endash" unicode="&#x2013;" horiz-adv-x="500" d="M0 187 L0 261 L500 261 L500 187 L0 187 Z " />
<glyph glyph-name="emdash" unicode="&#x2014;" horiz-adv-x="1000" d="M0 187 L0 261 L1000 261 L1000 187 L0 187 Z " />
<glyph glyph-name="underscore" unicode="&#x5f;" horiz-adv-x="500" d="M25 -174 L25 -119 L475 -119 L475 -174 L25 -174 Z " />
<glyph glyph-name="dagger" unicode="&#x2020;" horiz-adv-x="482" d="M217 -107 Q217 -3 209.5 85.5 Q202 174 188 240 Q190 250 195 267 Q200 284 205 302 Q210 320 214.5 338 Q219 356 221 369 Q207 369 190.5 364 Q174 359 156.5 353.5 Q139 348 121 343.5 Q103 339 87 339 Q57 339 39.5 353 Q22 367 22 390 Q22 413 39.5 427 Q57 441 87 441 Q103 441 121 436.5 Q139 432 156.5 426.5 Q174 421 190.5 416 Q207 411 221 411 Q221 428 214.5 446.5 Q208 465 199.5 484.5 Q191 504 184.5 524 Q178 544 178 564 Q178 598 193.5 619 Q209 640 241 640 Q273 640 288.5 619 Q304 598 304 564 Q304 544 297.5 524 Q291 504 282.5 484.5 Q274 465 267.5 446.5 Q261 428 261 411 Q275 411 291.5 416 Q308 421 325.5 426.5 Q343 432 360.5 436.5 Q378 441 395 441 Q425 441 442.5 427 Q460 413 460 390 Q460 367 442.5 353 Q425 339 395 339 Q378 339 360.5 343.5 Q343 348 325.5 353.5 Q308 359 291.5 364 Q275 369 261 369 Q263 356 267.5 338 Q272 320 277 302 Q282 284 287 267 Q292 250 294 240 Q280 174 272.5 85.5 Q265 -3 265 -107 L217 -107 Z " />
<glyph glyph-name="daggerdbl" unicode="&#x2021;" horiz-adv-x="402" d="M184 262 Q182 285 177 304.5 Q172 324 167 341 Q176 384 181 430 Q157 428 134.5 418.5 Q112 409 88 409 Q66 409 51 419 Q36 429 36 449 Q36 469 51 479 Q66 489 88 489 Q112 489 134.5 479.5 Q157 470 181 468 Q177 497 165 525 Q153 553 153 582 Q153 604 163.5 622 Q174 640 201 640 Q228 640 238.5 622 Q249 604 249 582 Q249 553 237 525 Q225 497 221 468 Q245 470 267.5 479.5 Q290 489 314 489 Q336 489 351 479 Q366 469 366 449 Q366 429 351 419 Q336 409 314 409 Q290 409 267.5 418.5 Q245 428 221 430 Q226 384 235 341 Q230 324 225 304.5 Q220 285 218 262 L184 262 Z M218 227 Q220 204 225 184.5 Q230 165 235 148 Q226 105 221 59 Q245 61 267.5 70.5 Q290 80 314 80 Q336 80 351 70 Q366 60 366 40 Q366 20 351 10 Q336 0 314 0 Q290 0 267.5 9.5 Q245 19 221 21 Q225 -8 237 -36 Q249 -64 249 -93 Q249 -115 238.5 -133 Q228 -151 201 -151 Q174 -151 163.5 -133 Q153 -115 153 -93 Q153 -64 165 -36 Q177 -8 181 21 Q157 19 134.5 9.5 Q112 0 88 0 Q66 0 51 10 Q36 20 36 40 Q36 60 51 70 Q66 80 88 80 Q112 80 134.5 70.5 Q157 61 181 59 Q176 105 167 148 Q172 165 177 184.5 Q182 204 184 227 L218 227 Z " />
<glyph glyph-name="section" unicode="&#xa7;" horiz-adv-x="462" d="M300 178 Q351 152 375.5 119.5 Q400 87 400 41 Q400 11 388.5 -15.5 Q377 -42 354.5 -61.5 Q332 -81 298.5 -92 Q265 -103 220 -103 Q178 -103 148.5 -95.5 Q119 -88 88 -83 Q88 -53 87.5 -17 Q87 19 85 47 L127 47 Q134 -7 155.5 -30 Q177 -53 211 -53 Q237 -53 254 -38 Q271 -23 271 1 Q271 24 255.5 39 Q240 54 217.5 66.5 Q195 79 168 91.5 Q141 104 118.5 121.5 Q96 139 80.5 163 Q65 187 65 224 Q65 274 90.5 308 Q116 342 162 359 Q111 385 86.5 417.5 Q62 450 62 496 Q62 526 73.5 552 Q85 578 107.5 597.5 Q130 617 163.5 628.5 Q197 640 242 640 Q263 640 280.5 638 Q298 636 313.5 633 Q329 630 343.5 626.5 Q358 623 374 620 Q374 590 374.5 554 Q375 518 377 490 L335 490 Q328 544 306.5 567 Q285 590 251 590 Q225 590 208 575 Q191 560 191 536 Q191 513 206.5 498 Q222 483 244.5 470.5 Q267 458 294 445.5 Q321 433 343.5 415.5 Q366 398 381.5 373.5 Q397 349 397 313 Q397 263 371.5 229 Q346 195 300 178 Z M282 266 Q282 293 265 307.5 Q248 322 228 322 Q207 322 193 307.5 Q179 293 179 270 Q179 243 196 229 Q213 215 233 215 Q255 215 268.5 229.5 Q282 244 282 266 Z " />
<glyph glyph-name="paragraph" unicode="&#xb6;" horiz-adv-x="534" d="M502 590 L438 569 L438 -106 L348 -106 L348 566 L300 566 L300 -106 L210 -106 L210 289 Q165 289 130.5 301.5 Q96 314 72.5 336.5 Q49 359 36.5 389.5 Q24 420 24 456 Q24 500 40 532 Q56 564 83.5 584.5 Q111 605 148.5 615 Q186 625 228 625 L502 625 L502 590 Z " />
<glyph glyph-name="registered" unicode="&#xae;" horiz-adv-x="706" d="M231 421 Q231 438 225.5 445.5 Q220 453 199 461 L199 476 L352 476 Q391 476 416 470 Q441 464 458 448 Q479 427 479 392 Q479 361 460 340.5 Q441 320 408 313 Q430 306 441.5 295 Q453 284 460 264 L475 222 Q483 199 493.5 188.5 Q504 178 522 173 L522 158 L398 158 Q398 170 396 182 Q394 194 388 211 L370 263 Q364 280 355.5 286.5 Q347 293 328 293 L319 293 L319 213 Q319 196 324.5 188.5 Q330 181 351 173 L351 158 Q345 158 334.5 158 Q324 158 313 158.5 Q302 159 291.5 159 Q281 159 275 159 Q255 159 231.5 158.5 Q208 158 200 158 L200 173 L231 184 L231 421 Z M319 319 L328 319 Q357 319 373 337 Q389 355 389 386 Q389 420 373 434.5 Q357 449 328 449 L319 449 L319 319 Z M353 41 Q408 41 454.5 62 Q501 83 535 119.5 Q569 156 588 205.5 Q607 255 607 312 Q607 369 588 418.5 Q569 468 535 504.5 Q501 541 454.5 562 Q408 583 353 583 Q298 583 251.5 562 Q205 541 171 504.5 Q137 468 118 418.5 Q99 369 99 312 Q99 255 118 205.5 Q137 156 171 119.5 Q205 83 251.5 62 Q298 41 353 41 Z M353 -16 Q286 -16 227 9 Q168 34 123.5 78 Q79 122 53.5 182 Q28 242 28 312 Q28 382 53.5 442 Q79 502 123.5 546 Q168 590 227 615 Q286 640 353 640 Q420 640 479 615 Q538 590 582.5 546 Q627 502 652.5 442 Q678 382 678 312 Q678 242 652.5 182 Q627 122 582.5 78 Q538 34 479 9 Q420 -16 353 -16 Z " />
<glyph glyph-name="copyright" unicode="&#xa9;" horiz-adv-x="706" d="M475 214 Q455 185 423.5 167 Q392 149 351 149 Q278 149 240 194.5 Q202 240 202 313 Q202 389 245 435 Q288 481 368 481 Q396 481 420 477 Q444 473 465 471 Q465 461 465 448 Q465 435 465.5 421.5 Q466 408 466.5 396 Q467 384 467 377 L443 377 Q438 410 422 429.5 Q406 449 377 449 Q341 449 319.5 416.5 Q298 384 298 315 Q298 261 316 227.5 Q334 194 375 194 Q397 194 416.5 204 Q436 214 454 232 L475 214 Z M353 41 Q408 41 454.5 62 Q501 83 535 119.5 Q569 156 588 205.5 Q607 255 607 312 Q607 369 588 418.5 Q569 468 535 504.5 Q501 541 454.5 562 Q408 583 353 583 Q298 583 251.5 562 Q205 541 171 504.5 Q137 468 118 418.5 Q99 369 99 312 Q99 255 118 205.5 Q137 156 171 119.5 Q205 83 251.5 62 Q298 41 353 41 Z M353 -16 Q286 -16 227 9 Q168 34 123.5 78 Q79 122 53.5 182 Q28 242 28 312 Q28 382 53.5 442 Q79 502 123.5 546 Q168 590 227 615 Q286 640 353 640 Q420 640 479 615 Q538 590 582.5 546 Q627 502 652.5 442 Q678 382 678 312 Q678 242 652.5 182 Q627 122 582.5 78 Q538 34 479 9 Q420 -16 353 -16 Z " />
<glyph glyph-name="trademark" unicode="&#x2122;" horiz-adv-x="750" d="M688 410 Q688 392 695.5 385 Q703 378 732 372 L732 344 Q727 344 715 344 Q703 344 690.5 344.5 Q678 345 666 345 Q654 345 649 345 Q643 345 630.5 345 Q618 345 604.5 344.5 Q591 344 578.5 344 Q566 344 562 344 L562 372 L605 380 L605 535 L522 341 L478 341 L396 527 L396 410 Q396 392 405 384.5 Q414 377 440 372 L440 344 Q435 344 426 344 Q417 344 408 344.5 Q399 345 390.5 345 Q382 345 378 345 Q373 345 363.5 345 Q354 345 344 344.5 Q334 344 324.5 344 Q315 344 311 344 L311 372 L354 380 L354 559 Q354 577 345 584.5 Q336 592 310 597 L310 625 L442 625 L521 440 L599 625 L731 625 L731 597 L688 589 L688 410 Z M195 596 L195 410 Q195 392 204.5 385 Q214 378 240 372 L240 344 Q235 344 223 344 Q211 344 197.5 344.5 Q184 345 172 345 Q160 345 155 345 Q149 345 136.5 345 Q124 345 110.5 344.5 Q97 344 84.5 344 Q72 344 68 344 L68 372 L111 380 L111 596 L102 596 Q74 596 63 582.5 Q52 569 44 532 L12 532 Q12 538 12.5 550.5 Q13 563 13.5 577.5 Q14 592 14 605 Q14 618 14 625 L292 625 Q292 618 292 605 Q292 592 292.5 577.5 Q293 563 293.5 550.5 Q294 538 294 532 L262 532 Q254 569 243 582.5 Q232 596 204 596 L195 596 Z " />
<glyph glyph-name="quotedblleft" unicode="&#x201c;" horiz-adv-x="409" d="M218 438 Q218 463 226.5 490.5 Q235 518 252 545 Q269 572 293.5 596 Q318 620 351 640 L372 610 Q342 583 322 553 Q302 523 302 501 Q302 485 313.5 475 Q325 465 338.5 455 Q352 445 363.5 432 Q375 419 375 398 Q375 374 356.5 355.5 Q338 337 305 337 Q266 337 242 365 Q218 393 218 438 Z M28 438 Q28 463 36.5 490.5 Q45 518 62 545 Q79 572 103.5 596 Q128 620 161 640 L182 610 Q152 583 132 553 Q112 523 112 501 Q112 485 123.5 475 Q135 465 148.5 455 Q162 445 173.5 432 Q185 419 185 398 Q185 374 166.5 355.5 Q148 337 115 337 Q76 337 52 365 Q28 393 28 438 Z " />
<glyph glyph-name="quotedblright" unicode="&#x201d;" horiz-adv-x="409" d="M191 539 Q191 513 182.5 486 Q174 459 157 432 Q140 405 115.5 380.5 Q91 356 58 337 L37 367 Q67 394 87 424 Q107 454 107 476 Q107 492 95.5 502 Q84 512 70.5 522 Q57 532 45.5 545 Q34 558 34 579 Q34 603 52.5 621.5 Q71 640 104 640 Q143 640 167 612 Q191 584 191 539 Z M381 539 Q381 513 372.5 486 Q364 459 347 432 Q330 405 305.5 380.5 Q281 356 248 337 L227 367 Q257 394 277 424 Q297 454 297 476 Q297 492 285.5 502 Q274 512 260.5 522 Q247 532 235.5 545 Q224 558 224 579 Q224 603 242.5 621.5 Q261 640 294 640 Q333 640 357 612 Q381 584 381 539 Z " />
<glyph glyph-name="quoteleft" unicode="&#x2018;" horiz-adv-x="219" d="M28 438 Q28 463 36.5 490.5 Q45 518 62 545 Q79 572 103.5 596 Q128 620 161 640 L182 610 Q152 583 132 553 Q112 523 112 501 Q112 485 123.5 475 Q135 465 148.5 455 Q162 445 173.5 432 Q185 419 185 398 Q185 374 166.5 355.5 Q148 337 115 337 Q76 337 52 365 Q28 393 28 438 Z " />
<glyph glyph-name="quoteright" unicode="&#x2019;" horiz-adv-x="219" d="M191 539 Q191 513 182.5 486 Q174 459 157 432 Q140 405 115.5 380.5 Q91 356 58 337 L37 367 Q67 394 87 424 Q107 454 107 476 Q107 492 95.5 502 Q84 512 70.5 522 Q57 532 45.5 545 Q34 558 34 579 Q34 603 52.5 621.5 Q71 640 104 640 Q143 640 167 612 Q191 584 191 539 Z " />
<glyph glyph-name="guillemotleft" unicode="&#xab;" horiz-adv-x="477" d="M231 66 L193 33 L42 220 L193 407 L231 374 L170 220 L231 66 Z M419 66 L381 33 L230 220 L381 407 L419 374 L358 220 L419 66 Z " />
<glyph glyph-name="guillemotright" unicode="&#xbb;" horiz-adv-x="477" d="M119 220 L58 374 L96 407 L247 220 L96 33 L58 66 L119 220 Z M307 220 L246 374 L284 407 L435 220 L284 33 L246 66 L307 220 Z " />
<glyph glyph-name="guilsinglleft" unicode="&#x2039;" horiz-adv-x="289" d="M231 66 L193 33 L42 220 L193 407 L231 374 L170 220 L231 66 Z " />
<glyph glyph-name="guilsinglright" unicode="&#x203a;" horiz-adv-x="289" d="M119 220 L58 374 L96 407 L247 220 L96 33 L58 66 L119 220 Z " />
<glyph glyph-name="quotesinglbase" unicode="&#x201a;" horiz-adv-x="219" d="M191 -2 Q191 -28 182.5 -55 Q174 -82 157 -109 Q140 -136 115.5 -160.5 Q91 -185 58 -204 L37 -174 Q67 -147 87 -117 Q107 -87 107 -65 Q107 -49 95.5 -39 Q84 -29 70.5 -19 Q57 -9 45.5 4 Q34 17 34 38 Q34 62 52.5 80.5 Q71 99 104 99 Q143 99 167 71 Q191 43 191 -2 Z " />
<glyph glyph-name="quotedblbase" unicode="&#x201e;" horiz-adv-x="409" d="M191 -2 Q191 -28 182.5 -55 Q174 -82 157 -109 Q140 -136 115.5 -160.5 Q91 -185 58 -204 L37 -174 Q67 -147 87 -117 Q107 -87 107 -65 Q107 -49 95.5 -39 Q84 -29 70.5 -19 Q57 -9 45.5 4 Q34 17 34 38 Q34 62 52.5 80.5 Q71 99 104 99 Q143 99 167 71 Q191 43 191 -2 Z M381 -2 Q381 -28 372.5 -55 Q364 -82 347 -109 Q330 -136 305.5 -160.5 Q281 -185 248 -204 L227 -174 Q257 -147 277 -117 Q297 -87 297 -65 Q297 -49 285.5 -39 Q274 -29 260.5 -19 Q247 -9 235.5 4 Q224 17 224 38 Q224 62 242.5 80.5 Q261 99 294 99 Q333 99 357 71 Q381 43 381 -2 Z " />
<glyph glyph-name="fi" unicode="&#xfb01;" horiz-adv-x="642" d="M408 444 Q465 444 501.5 447 Q538 450 570 455 L570 86 Q570 63 579 53 Q588 43 617 32 L617 0 Q605 0 589.5 0.5 Q574 1 557 1.5 Q540 2 523 2.5 Q506 3 493 3 Q479 3 461 2.5 Q443 2 425 1.5 Q407 1 391 0.5 Q375 0 366 0 L366 32 L414 51 L414 375 Q414 383 411 386.5 Q408 390 398 390 L238 390 L238 86 Q238 63 251 52.5 Q264 42 296 32 L296 0 Q284 0 266.5 0.5 Q249 1 230 1.5 Q211 2 192.5 2.5 Q174 3 161 3 Q147 3 129 2.5 Q111 2 93 1.5 Q75 1 59 0.5 Q43 0 34 0 L34 32 L82 51 L82 390 L16 390 L16 444 L82 444 L82 458 Q82 510 99.5 551.5 Q117 593 149 621.5 Q181 650 225.5 665 Q270 680 324 680 Q359 680 394.5 673.5 Q430 667 458.5 655 Q487 643 505 625.5 Q523 608 523 586 Q523 572 517 558.5 Q511 545 501 534 Q491 523 478.5 516 Q466 509 453 509 Q433 509 418 526.5 Q403 544 387 565.5 Q371 587 353 604.5 Q335 622 310 622 Q289 622 275.5 612 Q262 602 253.5 584 Q245 566 241.5 541 Q238 516 238 485 L238 444 L408 444 Z " />
<glyph glyph-name="fl" unicode="&#xfb02;" horiz-adv-x="636" d="M238 444 L342 444 L331 390 L238 390 L238 86 Q238 63 251 52.5 Q264 42 296 32 L296 0 Q284 0 266.5 0.5 Q249 1 230 1.5 Q211 2 192.5 2.5 Q174 3 161 3 Q147 3 129 2.5 Q111 2 93 1.5 Q75 1 59 0.5 Q43 0 34 0 L34 32 L82 51 L82 390 L16 390 L16 444 L82 444 Q82 498 95.5 542 Q109 586 137.5 616.5 Q166 647 210 663.5 Q254 680 316 680 Q346 680 374.5 676 Q403 672 430.5 667.5 Q458 663 485 659.5 Q512 656 538 656 Q545 656 552.5 656.5 Q560 657 565 658 L565 86 Q565 63 574 53 Q583 43 612 32 L612 0 Q600 0 584.5 0.5 Q569 1 552 1.5 Q535 2 518 2.5 Q501 3 488 3 Q474 3 456 2.5 Q438 2 420 1.5 Q402 1 386 0.5 Q370 0 361 0 L361 32 L409 51 L409 593 Q392 604 372.5 611 Q353 618 330 618 Q308 618 289.5 610 Q271 602 260 586 Q249 570 243.5 548 Q238 526 238 485 L238 444 Z " />
<glyph glyph-name="f_f" unicode="&#xfb00;" horiz-adv-x="684" d="M238 86 Q238 63 251 52.5 Q264 42 296 32 L296 0 Q284 0 266.5 0.5 Q249 1 230 1.5 Q211 2 192.5 2.5 Q174 3 161 3 Q147 3 129 2.5 Q111 2 93 1.5 Q75 1 59 0.5 Q43 0 34 0 L34 32 L82 51 L82 390 L16 390 L16 444 L82 444 Q83 546 143 606.5 Q203 667 309 667 Q358 667 399 653 Q440 639 465 618 Q491 647 530 663.5 Q569 680 620 680 Q648 680 675.5 674.5 Q703 669 724.5 658.5 Q746 648 759 633.5 Q772 619 772 600 Q772 585 766 570.5 Q760 556 750.5 545 Q741 534 729 527 Q717 520 705 520 Q687 520 675 536 Q663 552 652.5 571 Q642 590 630.5 606 Q619 622 604 622 Q581 622 573.5 588.5 Q566 555 566 478 L566 444 L670 444 L659 390 L566 390 L566 86 Q566 63 579 52.5 Q592 42 624 32 L624 0 Q612 0 594.5 0.5 Q577 1 558 1.5 Q539 2 520.5 2.5 Q502 3 489 3 Q475 3 457 2.5 Q439 2 421 1.5 Q403 1 387 0.5 Q371 0 362 0 L362 32 L410 51 L410 390 L238 390 L238 86 Z M238 444 L410 444 L410 455 Q410 472 411.5 487.5 Q413 503 415 515 Q404 527 392 543.5 Q380 560 365.5 574.5 Q351 589 335 599 Q319 609 301 609 Q264 609 251 573.5 Q238 538 238 472 L238 444 Z " />
<glyph glyph-name="f_f_i" unicode="&#xfb03;" horiz-adv-x="971" d="M238 444 L410 444 L410 455 Q410 472 411.5 487.5 Q413 503 415 515 Q404 527 392 543.5 Q380 560 365.5 574.5 Q351 589 335 599 Q319 609 301 609 Q264 609 251 573.5 Q238 538 238 472 L238 444 Z M567 444 L737 444 Q794 444 830.5 447 Q867 450 899 455 L899 86 Q899 63 908 53 Q917 43 946 32 L946 0 Q934 0 918.5 0.5 Q903 1 886 1.5 Q869 2 852 2.5 Q835 3 822 3 Q808 3 790 2.5 Q772 2 754 1.5 Q736 1 720 0.5 Q704 0 695 0 L695 32 L743 51 L743 375 Q743 383 740 386.5 Q737 390 727 390 L567 390 L567 86 Q567 63 580 52.5 Q593 42 625 32 L625 0 Q613 0 595.5 0.5 Q578 1 559 1.5 Q540 2 521.5 2.5 Q503 3 490 3 Q476 3 458 2.5 Q440 2 422 1.5 Q404 1 388 0.5 Q372 0 363 0 L363 32 L411 51 L411 390 L238 390 L238 86 Q238 63 251 52.5 Q264 42 296 32 L296 0 Q284 0 266.5 0.5 Q249 1 230 1.5 Q211 2 192.5 2.5 Q174 3 161 3 Q147 3 129 2.5 Q111 2 93 1.5 Q75 1 59 0.5 Q43 0 34 0 L34 32 L82 51 L82 390 L16 390 L16 444 L82 444 Q82 495 98 536 Q114 577 143.5 606.5 Q173 636 215 651.5 Q257 667 310 667 Q358 667 397.5 653.5 Q437 640 469 616 Q531 680 653 680 Q688 680 723.5 673.5 Q759 667 787.5 655 Q816 643 834 625.5 Q852 608 852 586 Q852 572 846 558.5 Q840 545 830 534 Q820 523 807.5 516 Q795 509 782 509 Q762 509 747 526.5 Q732 544 716 565.5 Q700 587 682 604.5 Q664 622 639 622 Q618 622 604.5 612 Q591 602 582.5 584 Q574 566 570.5 541 Q567 516 567 485 L567 444 Z " />
<glyph glyph-name="f_f_l" unicode="&#xfb04;" horiz-adv-x="964" d="M309 667 Q357 667 398 653.5 Q439 640 466 617 Q495 647 539 663.5 Q583 680 644 680 Q674 680 702.5 676 Q731 672 758.5 667.5 Q786 663 813 659.5 Q840 656 866 656 Q873 656 880.5 656.5 Q888 657 893 658 L893 86 Q893 63 902 53 Q911 43 940 32 L940 0 Q928 0 912.5 0.5 Q897 1 880 1.5 Q863 2 846 2.5 Q829 3 816 3 Q802 3 784 2.5 Q766 2 748 1.5 Q730 1 714 0.5 Q698 0 689 0 L689 32 L737 51 L737 593 Q720 604 700.5 611 Q681 618 658 618 Q636 618 617.5 610 Q599 602 588 586 Q577 570 571.5 548 Q566 526 566 485 L566 444 L670 444 L659 390 L566 390 L566 86 Q566 63 579 52.5 Q592 42 624 32 L624 0 Q612 0 594.5 0.5 Q577 1 558 1.5 Q539 2 520.5 2.5 Q502 3 489 3 Q475 3 457 2.5 Q439 2 421 1.5 Q403 1 387 0.5 Q371 0 362 0 L362 32 L410 51 L410 390 L238 390 L238 86 Q238 63 251 52.5 Q264 42 296 32 L296 0 Q284 0 266.5 0.5 Q249 1 230 1.5 Q211 2 192.5 2.5 Q174 3 161 3 Q147 3 129 2.5 Q111 2 93 1.5 Q75 1 59 0.5 Q43 0 34 0 L34 32 L82 51 L82 390 L16 390 L16 444 L82 444 Q83 546 143 606.5 Q203 667 309 667 Z M238 444 L410 444 L410 455 Q410 472 411.5 487.5 Q413 503 415 515 Q404 527 392 543.5 Q380 560 365.5 574.5 Q351 589 335 599 Q319 609 301 609 Q264 609 251 573.5 Q238 538 238 472 L238 444 Z " />
<glyph glyph-name="grave" unicode="&#x60;" horiz-adv-x="306" d="M34 599 L63 638 Q71 648 78 653.5 Q85 659 95 659 Q109 659 130 641 L272 512 L255 488 L36 584 L34 599 Z " />
<glyph glyph-name="acute" unicode="&#xb4;" horiz-adv-x="306" d="M270 584 L51 488 L34 512 L176 641 Q197 659 211 659 Q221 659 228 653.5 Q235 648 243 638 L272 599 L270 584 Z " />
<glyph glyph-name="dieresis" unicode="&#xa8;" horiz-adv-x="306" d="M0 574 Q0 600 18 618 Q36 636 62 636 Q88 636 106 618 Q124 600 124 574 Q124 548 106 530 Q88 512 62 512 Q36 512 18 530 Q0 548 0 574 Z M183 574 Q183 600 201 618 Q219 636 245 636 Q271 636 289 618 Q307 600 307 574 Q307 548 289 530 Q271 512 245 512 Q219 512 201 530 Q183 548 183 574 Z " />
<glyph glyph-name="circumflex" unicode="&#x2c6;" horiz-adv-x="306" d="M193 658 L297 507 L264 493 L153 585 L42 493 L9 507 L113 658 L193 658 Z " />
<glyph glyph-name="tilde" unicode="&#x2dc;" horiz-adv-x="306" d="M304 622 Q297 565 270.5 538.5 Q244 512 209 512 Q190 512 173 518 Q156 524 140.5 531.5 Q125 539 110.5 545 Q96 551 82 551 Q50 551 38 514 L2 521 Q9 578 35.5 604.5 Q62 631 97 631 Q116 631 133 625 Q150 619 165.5 611.5 Q181 604 195.5 598 Q210 592 224 592 Q256 592 268 629 L304 622 Z " />
<glyph glyph-name="macron" unicode="&#xaf;" horiz-adv-x="306" d="M22 525 L22 591 L284 591 L284 525 L22 525 Z " />
<glyph glyph-name="breve" unicode="&#x2d8;" horiz-adv-x="306" d="M153 508 Q94 508 61.5 544 Q29 580 29 635 L70 635 Q77 608 99 595 Q121 582 153 582 Q185 582 207 595 Q229 608 236 635 L277 635 Q277 580 244.5 544 Q212 508 153 508 Z " />
<glyph glyph-name="dotaccent" unicode="&#x2d9;" horiz-adv-x="306" d="M82 574 Q82 603 102.5 624 Q123 645 152 645 Q181 645 202 624 Q223 603 223 574 Q223 545 202 524.5 Q181 504 152 504 Q123 504 102.5 524.5 Q82 545 82 574 Z " />
<glyph glyph-name="ring" unicode="&#x2da;" horiz-adv-x="306" d="M248 599 Q248 558 220.5 532 Q193 506 153 506 Q113 506 85.5 532 Q58 558 58 599 Q58 640 85.5 666 Q113 692 153 692 Q193 692 220.5 666 Q248 640 248 599 Z M197 599 Q197 622 184 635 Q171 648 153 648 Q135 648 122 635 Q109 622 109 599 Q109 576 122 563 Q135 550 153 550 Q171 550 184 563 Q197 576 197 599 Z " />
<glyph glyph-name="cedilla" unicode="&#xb8;" horiz-adv-x="306" d="M249 -123 Q249 -155 232.5 -177.5 Q216 -200 189.5 -214.5 Q163 -229 129.5 -235 Q96 -241 61 -239 L56 -200 Q104 -194 132.5 -175 Q161 -156 161 -127 Q161 -109 150 -98 Q139 -87 110 -81 Q99 -79 94.5 -74.5 Q90 -70 95 -58 L120 16 L177 16 L160 -36 Q197 -43 223 -64 Q249 -85 249 -123 Z " />
<glyph glyph-name="hungarumlaut" unicode="&#x2dd;" horiz-adv-x="306" d="M161 607 L-14 497 L-32 517 L76 655 Q91 675 108 675 Q116 675 123 670.5 Q130 666 138 655 L163 621 L161 607 Z M337 607 L162 497 L144 517 L252 655 Q267 675 284 675 Q292 675 299 670.5 Q306 666 314 655 L339 621 L337 607 Z " />
<glyph glyph-name="ogonek" unicode="&#x2db;" horiz-adv-x="306" d="M256 -208 Q239 -220 211.5 -228.5 Q184 -237 155 -237 Q105 -237 77 -212.5 Q49 -188 49 -143 Q49 -115 61 -88.5 Q73 -62 94 -39.5 Q115 -17 143.5 0.5 Q172 18 205 27 L226 7 Q184 -18 162 -52.5 Q140 -87 140 -126 Q140 -152 153 -166.5 Q166 -181 190 -181 Q202 -181 216.5 -178 Q231 -175 242 -170 L256 -208 Z " />
<glyph glyph-name="caron" unicode="&#x2c7;" horiz-adv-x="306" d="M113 496 L9 647 L42 661 L153 569 L264 661 L297 647 L193 496 L113 496 Z " />
<glyph glyph-name="commaaccent" unicode="&#xf6c3;" horiz-adv-x="306" d="M222 -139 Q222 -184 192.5 -233 Q163 -282 105 -317 L87 -291 Q113 -266 130.5 -240 Q148 -214 148 -195 Q148 -181 138 -172 Q128 -163 116 -154 Q104 -145 94 -134 Q84 -123 84 -104 Q84 -82 100 -66 Q116 -50 146 -50 Q181 -50 201.5 -74.5 Q222 -99 222 -139 Z " />
<glyph glyph-name="zero" unicode="0" horiz-adv-x="550" d="M518 312 Q518 250 505 191.5 Q492 133 463.5 86.5 Q435 40 388.5 12 Q342 -16 275 -16 Q208 -16 161.5 12 Q115 40 86.5 86.5 Q58 133 45 191.5 Q32 250 32 312 Q32 373 45 432 Q58 491 86.5 537.5 Q115 584 161.5 612 Q208 640 275 640 Q342 640 388.5 612 Q435 584 463.5 537.5 Q492 491 505 432 Q518 373 518 312 Z M350 312 Q350 375 346.5 425 Q343 475 334 510 Q325 545 310.5 564 Q296 583 275 583 Q254 583 239.5 564 Q225 545 216 510 Q207 475 203.5 425 Q200 375 200 312 Q200 249 203.5 199 Q207 149 216 114 Q225 79 239.5 60 Q254 41 275 41 Q296 41 310.5 60 Q325 79 334 114 Q343 149 346.5 199 Q350 249 350 312 Z " />
<glyph glyph-name="one" unicode="1" horiz-adv-x="550" d="M362 104 Q362 88 365 77 Q368 66 376.5 58.5 Q385 51 400.5 45 Q416 39 441 34 L441 0 Q429 0 408.5 0.5 Q388 1 365.5 1.5 Q343 2 322 2.5 Q301 3 286 3 Q269 3 246.5 2.5 Q224 2 201 1.5 Q178 1 158 0.5 Q138 0 128 0 L128 34 L205 53 L205 478 Q205 496 202 507.5 Q199 519 189.5 527 Q180 535 163.5 541 Q147 547 120 553 L120 587 Q241 592 299 632 L362 632 L362 104 Z " />
<glyph glyph-name="two" unicode="2" horiz-adv-x="550" d="M470 192 Q468 176 465.5 151 Q463 126 461.5 99 Q460 72 458.5 45.5 Q457 19 456 0 L62 0 L59 44 Q125 115 170.5 171 Q216 227 244 273.5 Q272 320 284.5 361 Q297 402 297 444 Q297 496 275 526.5 Q253 557 212 557 Q174 557 147.5 536 Q121 515 104 484 L55 507 Q67 535 86 559.5 Q105 584 131.5 602 Q158 620 191 630 Q224 640 264 640 Q309 640 346 627 Q383 614 409.5 590 Q436 566 450.5 532.5 Q465 499 465 458 Q465 402 440.5 356.5 Q416 311 377.5 271 Q339 231 293 193.5 Q247 156 205 117 L345 117 Q366 117 380.5 121 Q395 125 404.5 134 Q414 143 420 158 Q426 173 431 196 L470 192 Z " />
<glyph glyph-name="three" unicode="3" horiz-adv-x="550" d="M157 360 Q188 361 215.5 370.5 Q243 380 263.5 395.5 Q284 411 295.5 432.5 Q307 454 307 480 Q307 519 286.5 540.5 Q266 562 228 562 Q194 562 168.5 545 Q143 528 123 501 L77 527 Q87 549 105.5 569.5 Q124 590 149 605.5 Q174 621 206 630.5 Q238 640 276 640 Q319 640 353.5 628.5 Q388 617 412 597 Q436 577 449 550 Q462 523 462 492 Q462 435 422 398 Q382 361 310 341 Q353 336 384.5 321 Q416 306 437 283.5 Q458 261 468 232 Q478 203 478 171 Q478 132 461 97.5 Q444 63 411.5 38 Q379 13 333.5 -1.5 Q288 -16 231 -16 Q194 -16 162.5 -9 Q131 -2 108.5 10 Q86 22 73 38.5 Q60 55 60 75 Q60 101 76 121.5 Q92 142 118 142 Q137 142 148 125.5 Q159 109 169.5 88.5 Q180 68 194 51.5 Q208 35 234 35 Q253 35 267 45 Q281 55 290.5 73 Q300 91 304.5 115 Q309 139 309 166 Q309 241 271.5 274.5 Q234 308 157 312 L157 360 Z " />
<glyph glyph-name="four" unicode="4" horiz-adv-x="550" d="M434 104 Q434 88 436 77 Q438 66 445 58.5 Q452 51 466 45 Q480 39 504 34 L504 0 Q492 0 473 0.5 Q454 1 433.5 1.5 Q413 2 393.5 2.5 Q374 3 359 3 Q342 3 321 2.5 Q300 2 279 1.5 Q258 1 239.5 0.5 Q221 0 211 0 L211 34 L278 53 L278 137 L36 137 L30 174 L328 627 L434 627 L434 221 L511 221 L511 137 L434 137 L434 104 Z M278 448 L129 221 L278 221 L278 448 Z " />
<glyph glyph-name="five" unicode="5" horiz-adv-x="550" d="M112 625 L447 625 L425 508 L168 508 L163 381 Q202 403 261 403 Q305 403 344 389.5 Q383 376 412 350.5 Q441 325 458 287 Q475 249 475 201 Q475 151 458 111 Q441 71 409.5 43 Q378 15 333 -0.5 Q288 -16 232 -16 Q198 -16 167.5 -9.5 Q137 -3 113.5 9 Q90 21 76 38.5 Q62 56 62 79 Q62 104 78.5 123 Q95 142 118 142 Q139 142 150.5 125.5 Q162 109 172 88.5 Q182 68 195 51.5 Q208 35 234 35 Q267 35 287.5 77 Q308 119 308 196 Q308 266 285.5 304 Q263 342 219 342 Q178 342 146 316 L101 330 L112 625 Z " />
<glyph glyph-name="six" unicode="6" horiz-adv-x="550" d="M416 599 Q345 551 301.5 495.5 Q258 440 236 369 Q255 381 279.5 389 Q304 397 334 397 Q373 397 406.5 383 Q440 369 464.5 342.5 Q489 316 502.5 279 Q516 242 516 196 Q516 146 498.5 106.5 Q481 67 450 40 Q419 13 375.5 -1.5 Q332 -16 281 -16 Q164 -16 105 47.5 Q46 111 46 218 Q46 286 70 350.5 Q94 415 138.5 470.5 Q183 526 247.5 570 Q312 614 393 641 L416 599 Z M287 329 Q254 329 222 305 Q213 251 213 189 Q213 120 229.5 79.5 Q246 39 281 39 Q317 39 335 80.5 Q353 122 353 186 Q353 258 337.5 293.5 Q322 329 287 329 Z " />
<glyph glyph-name="seven" unicode="7" horiz-adv-x="550" d="M317 0 L156 0 L406 509 L212 509 Q187 509 169.5 505.5 Q152 502 140 493 Q128 484 119 468.5 Q110 453 102 429 L64 434 Q68 452 71.5 476 Q75 500 78 526 Q81 552 83 578 Q85 604 85 625 L491 625 L506 593 L317 0 Z " />
<glyph glyph-name="eight" unicode="8" horiz-adv-x="550" d="M465 496 Q465 456 437 421 Q409 386 363 365 Q390 349 416 331 Q442 313 462 290.5 Q482 268 494 240.5 Q506 213 506 177 Q506 135 487.5 99.5 Q469 64 437 38.5 Q405 13 361.5 -1.5 Q318 -16 268 -16 Q222 -16 181 -5 Q140 6 109.5 27.5 Q79 49 61 81 Q43 113 43 154 Q43 205 77.5 243.5 Q112 282 168 305 Q128 333 99.5 372.5 Q71 412 71 469 Q71 507 86.5 538.5 Q102 570 130 592.5 Q158 615 195.5 627.5 Q233 640 277 640 Q320 640 354.5 629 Q389 618 413.5 598.5 Q438 579 451.5 553 Q465 527 465 496 Z M361 130 Q361 153 351 171.5 Q341 190 324 206 Q307 222 283 237 Q259 252 231 267 Q208 244 194 213 Q180 182 180 144 Q180 99 204.5 69 Q229 39 271 39 Q309 39 335 65 Q361 91 361 130 Z M208 514 Q208 475 236 448 Q264 421 303 399 Q350 443 350 507 Q350 542 330 563.5 Q310 585 279 585 Q244 585 226 563.5 Q208 542 208 514 Z " />
<glyph glyph-name="nine" unicode="9" horiz-adv-x="550" d="M134 25 Q205 73 248.5 128.5 Q292 184 314 255 Q295 243 270.5 235 Q246 227 216 227 Q177 227 143.5 241 Q110 255 85.5 281.5 Q61 308 47.5 345 Q34 382 34 428 Q34 478 51.5 517.5 Q69 557 100 584 Q131 611 174.5 625.5 Q218 640 269 640 Q386 640 445 576.5 Q504 513 504 406 Q504 338 480 273.5 Q456 209 411.5 153.5 Q367 98 302.5 54 Q238 10 157 -17 L134 25 Z M263 295 Q296 295 328 319 Q337 373 337 435 Q337 504 320.5 544.5 Q304 585 269 585 Q233 585 215 543.5 Q197 502 197 438 Q197 366 212.5 330.5 Q228 295 263 295 Z " />
<glyph glyph-name="dollar" unicode="&#x24;" horiz-adv-x="550" d="M69 449 Q69 486 82.5 519.5 Q96 553 122 578.5 Q148 604 186 620 Q224 636 273 639 L273 734 L317 734 L317 637 Q386 630 428 589 Q470 548 476 481 L421 471 Q413 520 385.5 545.5 Q358 571 317 576 L317 388 Q347 373 377 356.5 Q407 340 432 316.5 Q457 293 472.5 261 Q488 229 488 184 Q488 152 477.5 119 Q467 86 443 57.5 Q419 29 380.5 9.5 Q342 -10 287 -15 L287 -121 L243 -121 L243 -15 Q213 -14 183.5 -3.5 Q154 7 130 26.5 Q106 46 89 76 Q72 106 67 148 L122 159 Q131 110 164 79.5 Q197 49 243 49 L243 245 Q213 260 182 276.5 Q151 293 126 316.5 Q101 340 85 372 Q69 404 69 449 Z M273 574 Q242 567 224 546.5 Q206 526 206 497 Q206 467 225 447 Q244 427 273 410 L273 574 Z M351 136 Q351 165 333 185 Q315 205 287 222 L287 54 Q317 62 334 83 Q351 104 351 136 Z " />
<glyph glyph-name="cent" unicode="&#xa2;" horiz-adv-x="550" d="M58 221 Q58 273 75 316.5 Q92 360 123.5 391.5 Q155 423 199.5 440 Q244 457 299 457 L299 523 L343 523 L343 451 Q393 440 426 410.5 Q459 381 480 337 L438 311 Q418 335 394.5 350.5 Q371 366 343 371 L343 70 Q371 75 395 91 Q419 107 439 132 L480 105 Q459 61 426 31.5 Q393 2 343 -9 L343 -81 L299 -81 L299 -15 Q244 -15 199.5 2 Q155 19 123.5 50 Q92 81 75 124.5 Q58 168 58 221 Z M210 221 Q210 161 231 119.5 Q252 78 299 70 L299 371 Q252 363 231 321.5 Q210 280 210 221 Z " />
<glyph glyph-name="Euro" unicode="&#x20ac;" horiz-adv-x="550" d="M253 288 L405 288 L396 236 L257 236 Q275 67 373 67 Q408 67 434.5 84.5 Q461 102 487 131 L526 101 Q495 47 446.5 15.5 Q398 -16 329 -16 Q225 -16 164 49.5 Q103 115 89 236 L28 236 L37 288 L85 288 Q85 305 85 319 Q85 333 86 341 L28 341 L37 392 L91 392 Q109 510 175 575 Q241 640 340 640 Q400 640 448 613.5 Q496 587 531 527 Q520 518 511 512 Q507 509 503.5 506 Q500 503 497 501 Q493 498 491 497 Q441 558 378 558 Q322 558 293 514 Q264 470 256 392 L405 392 L396 341 L253 341 L253 288 Z " />
<glyph glyph-name="florin" unicode="&#x192;" horiz-adv-x="550" d="M551 564 Q551 533 531.5 510.5 Q512 488 489 488 Q471 488 461.5 504 Q452 520 444.5 538.5 Q437 557 428 573 Q419 589 403 589 Q391 589 381 579 Q371 569 361.5 546 Q352 523 343 485 Q334 447 325 392 L437 392 L417 343 L317 343 L267 54 Q255 -17 236 -66.5 Q217 -116 191 -147 Q165 -178 131 -192.5 Q97 -207 54 -207 Q3 -207 -37 -184.5 Q-77 -162 -108 -120 L-73 -89 Q-51 -113 -31.5 -125 Q-12 -137 11 -137 Q55 -137 78 -94.5 Q101 -52 117 36 L172 343 L92 343 L111 392 L181 392 Q203 506 261 573 Q319 640 415 640 Q476 640 513.5 618 Q551 596 551 564 Z " />
<glyph glyph-name="sterling" unicode="&#xa3;" horiz-adv-x="550" d="M532 130 Q512 55 475 19.5 Q438 -16 385 -16 Q347 -16 306.5 1.5 Q266 19 228 45 Q210 17 183 0.5 Q156 -16 113 -16 Q65 -16 39.5 9.5 Q14 35 14 73 Q14 106 37 128.5 Q60 151 102 151 Q107 151 112 150.5 Q117 150 122 149 Q123 166 123 187.5 Q123 209 123 235 L123 311 L48 311 L48 362 L123 362 L123 410 Q123 522 178 581 Q204 609 243 624.5 Q282 640 336 640 Q369 640 398.5 633.5 Q428 627 450.5 615.5 Q473 604 486 589 Q499 574 499 556 Q499 544 494.5 531.5 Q490 519 482.5 509 Q475 499 465 493 Q455 487 445 487 Q427 487 413.5 503 Q400 519 387.5 538.5 Q375 558 361.5 574.5 Q348 591 329 591 Q299 591 286 558 Q273 525 273 462 L273 362 L397 362 L386 311 L273 311 Q273 259 270 210.5 Q267 162 259 123 Q291 112 327 105 Q363 98 392 98 Q460 98 505 147 L532 130 Z M120 102 Q108 107 97 107 Q82 107 74 99 Q66 91 66 77 Q66 63 72.5 55 Q79 47 91 47 Q108 47 113.5 61.5 Q119 76 120 102 Z " />
<glyph glyph-name="yen" unicode="&#xa5;" horiz-adv-x="550" d="M205 182 L205 243 L80 243 L90 295 L197 295 L87 521 Q78 539 70 550.5 Q62 562 52.5 569.5 Q43 577 30 581.5 Q17 586 -2 590 L-2 625 Q21 624 63.5 623 Q106 622 144 622 Q165 622 187.5 622.5 Q210 623 230.5 623.5 Q251 624 267 624.5 Q283 625 291 625 L291 590 L229 572 L329 359 L419 572 L362 590 L362 625 Q377 624 407.5 623 Q438 622 463 622 Q486 622 510.5 622.5 Q535 623 552 625 L552 590 Q531 588 517.5 584 Q504 580 494.5 572 Q485 564 478 551 Q471 538 462 517 L365 295 L489 295 L479 243 L364 243 L364 182 L489 182 L479 130 L364 130 L364 105 Q364 90 365.5 79.5 Q367 69 373.5 61 Q380 53 393 47 Q406 41 428 35 L428 0 Q416 0 399 0.5 Q382 1 363.5 1.5 Q345 2 327 2.5 Q309 3 294 3 Q277 3 255.5 2.5 Q234 2 213 1.5 Q192 1 173 0.5 Q154 0 144 0 L144 35 L205 54 L205 130 L80 130 L90 182 L205 182 Z " />
<glyph glyph-name="numbersign" unicode="&#x23;" horiz-adv-x="550" d="M309 262 L331 365 L241 365 L219 262 L309 262 Z M201 180 L159 -16 L69 -16 L112 180 L21 180 L39 262 L129 262 L152 365 L61 365 L78 446 L169 446 L211 640 L301 640 L259 446 L349 446 L391 640 L481 640 L438 446 L529 446 L511 364 L421 364 L398 261 L489 261 L472 180 L381 180 L339 -16 L249 -16 L291 180 L201 180 Z " />
<glyph glyph-name="percent" unicode="&#x25;" horiz-adv-x="800" d="M760 182 Q760 95 717.5 44 Q675 -7 606 -7 Q537 -7 494.5 44 Q452 95 452 182 Q452 269 494.5 320 Q537 371 606 371 Q675 371 717.5 320 Q760 269 760 182 Z M645 182 Q645 260 636 294 Q627 328 606 328 Q585 328 576 294 Q567 260 567 182 Q567 104 576 70 Q585 36 606 36 Q627 36 636 70 Q645 104 645 182 Z M348 441 Q348 354 305.5 303 Q263 252 194 252 Q125 252 82.5 303 Q40 354 40 441 Q40 528 82.5 579 Q125 630 194 630 Q263 630 305.5 579 Q348 528 348 441 Z M233 441 Q233 519 224 553 Q215 587 194 587 Q173 587 164 553 Q155 519 155 441 Q155 363 164 329 Q173 295 194 295 Q215 295 224 329 Q233 363 233 441 Z M236 -16 L174 -16 L559 630 L621 630 L236 -16 Z " />
<glyph glyph-name="perthousand" unicode="&#x2030;" horiz-adv-x="1148" d="M760 182 Q760 95 717.5 44 Q675 -7 606 -7 Q537 -7 494.5 44 Q452 95 452 182 Q452 269 494.5 320 Q537 371 606 371 Q675 371 717.5 320 Q760 269 760 182 Z M645 182 Q645 260 636 294 Q627 328 606 328 Q585 328 576 294 Q567 260 567 182 Q567 104 576 70 Q585 36 606 36 Q627 36 636 70 Q645 104 645 182 Z M348 441 Q348 354 305.5 303 Q263 252 194 252 Q125 252 82.5 303 Q40 354 40 441 Q40 528 82.5 579 Q125 630 194 630 Q263 630 305.5 579 Q348 528 348 441 Z M233 441 Q233 519 224 553 Q215 587 194 587 Q173 587 164 553 Q155 519 155 441 Q155 363 164 329 Q173 295 194 295 Q215 295 224 329 Q233 363 233 441 Z M1108 182 Q1108 95 1065.5 44 Q1023 -7 954 -7 Q885 -7 842.5 44 Q800 95 800 182 Q800 269 842.5 320 Q885 371 954 371 Q1023 371 1065.5 320 Q1108 269 1108 182 Z M993 182 Q993 260 984 294 Q975 328 954 328 Q933 328 924 294 Q915 260 915 182 Q915 104 924 70 Q933 36 954 36 Q975 36 984 70 Q993 104 993 182 Z M236 -16 L174 -16 L559 630 L621 630 L236 -16 Z " />
<glyph glyph-name="plus" unicode="&#x2b;" horiz-adv-x="456" d="M273 178 L273 51 L183 51 L183 178 L56 178 L56 268 L183 268 L183 395 L273 395 L273 268 L400 268 L400 178 L273 178 Z " />
<glyph glyph-name="minus" unicode="&#x2212;" horiz-adv-x="456" d="M400 268 L400 178 L56 178 L56 268 L400 268 Z " />
<glyph glyph-name="multiply" unicode="&#xd7;" horiz-adv-x="456" d="M292 223 L381 133 L318 70 L228 159 L138 70 L75 133 L164 223 L75 313 L138 376 L228 287 L318 376 L381 313 L292 223 Z " />
<glyph glyph-name="less" unicode="&#x3c;" horiz-adv-x="456" d="M56 265 L400 432 L400 334 L179 224 L400 114 L400 16 L56 183 L56 265 Z " />
<glyph glyph-name="divide" unicode="&#xf7;" horiz-adv-x="456" d="M292 388 Q292 364 274.5 346 Q257 328 232 328 Q207 328 189 346 Q171 364 171 388 Q171 414 189 431 Q207 448 232 448 Q257 448 274.5 431 Q292 414 292 388 Z M56 178 L56 268 L400 268 L400 178 L56 178 Z M292 59 Q292 34 274.5 16.5 Q257 -1 232 -1 Q207 -1 189 16.5 Q171 34 171 59 Q171 84 189 101 Q207 118 232 118 Q257 118 274.5 101 Q292 84 292 59 Z " />
<glyph glyph-name="equal" unicode="&#x3d;" horiz-adv-x="456" d="M56 255 L56 345 L400 345 L400 255 L56 255 Z M56 100 L56 190 L400 190 L400 100 L56 100 Z " />
<glyph glyph-name="logicalnot" unicode="&#xac;" horiz-adv-x="456" d="M310 100 L310 255 L56 255 L56 345 L400 345 L400 100 L310 100 Z " />
<glyph glyph-name="greater" unicode="&#x3e;" horiz-adv-x="456" d="M400 183 L56 16 L56 114 L277 224 L56 334 L56 432 L400 265 L400 183 Z " />
<glyph glyph-name="notequal" unicode="&#x2260;" horiz-adv-x="456" d="M206 100 L175 33 L104 33 L136 100 L56 100 L56 190 L177 190 L208 255 L56 255 L56 345 L249 345 L282 413 L353 413 L320 345 L400 345 L400 255 L279 255 L248 190 L400 190 L400 100 L206 100 Z " />
<glyph glyph-name="approxequal" unicode="&#x2248;" horiz-adv-x="456" d="M393 361 Q388 304 364 272 Q340 240 292 240 Q270 240 251.5 247 Q233 254 216 262.5 Q199 271 184 278 Q169 285 155 285 Q135 285 124.5 273.5 Q114 262 107 240 L63 240 Q68 297 92 329 Q116 361 164 361 Q186 361 204.5 354 Q223 347 240 338.5 Q257 330 272 323 Q287 316 301 316 Q321 316 331.5 327.5 Q342 339 349 361 L393 361 Z M393 205 Q388 148 364 116 Q340 84 292 84 Q270 84 251.5 91 Q233 98 216 106.5 Q199 115 184 122 Q169 129 155 129 Q135 129 124.5 117.5 Q114 106 107 84 L63 84 Q68 141 92 173 Q116 205 164 205 Q186 205 204.5 198 Q223 191 240 182.5 Q257 174 272 167 Q287 160 301 160 Q321 160 331.5 171.5 Q342 183 349 205 L393 205 Z " />
<glyph glyph-name="plusminus" unicode="&#xb1;" horiz-adv-x="456" d="M273 275 L273 148 L183 148 L183 275 L56 275 L56 365 L183 365 L183 492 L273 492 L273 365 L400 365 L400 275 L273 275 Z M400 90 L400 0 L56 0 L56 90 L400 90 Z " />
<glyph glyph-name="lessequal" unicode="&#x2264;" horiz-adv-x="456" d="M400 90 L400 0 L56 0 L56 90 L400 90 Z M56 362 L400 529 L400 431 L179 321 L400 211 L400 113 L56 280 L56 362 Z " />
<glyph glyph-name="greaterequal" unicode="&#x2265;" horiz-adv-x="456" d="M400 280 L56 113 L56 211 L277 321 L56 431 L56 529 L400 362 L400 280 Z M400 90 L400 0 L56 0 L56 90 L400 90 Z " />
<glyph glyph-name="asciicircum" unicode="&#x5e;" horiz-adv-x="456" d="M265 625 L433 340 L326 340 L228 515 L130 340 L23 340 L191 625 L265 625 Z " />
<glyph glyph-name="asciitilde" unicode="&#x7e;" horiz-adv-x="456" d="M429 388 Q424 317 392.5 278 Q361 239 304 239 Q279 239 257.5 247.5 Q236 256 216.5 266.5 Q197 277 179 286 Q161 295 143 295 Q117 295 104 279.5 Q91 264 83 239 L27 239 Q32 310 63.5 349 Q95 388 152 388 Q177 388 198.5 379 Q220 370 239.5 359.5 Q259 349 277 340.5 Q295 332 313 332 Q339 332 352 347.5 Q365 363 373 388 L429 388 Z " />
<glyph glyph-name="lozenge" unicode="&#x25ca;" horiz-adv-x="541" d="M239 0 L39 316 L239 625 L302 625 L502 316 L302 0 L239 0 Z M270 533 L130 316 L270 92 L411 316 L270 533 Z " />
<glyph glyph-name="degree" unicode="&#xb0;" horiz-adv-x="330" d="M305 504 Q305 445 266.5 406.5 Q228 368 165 368 Q102 368 63.5 406.5 Q25 445 25 504 Q25 563 63.5 601.5 Q102 640 165 640 Q228 640 266.5 601.5 Q305 563 305 504 Z M231 504 Q231 538 213 558 Q195 578 165 578 Q135 578 117 558 Q99 538 99 504 Q99 470 117 450 Q135 430 165 430 Q195 430 213 450 Q231 470 231 504 Z " />
<glyph glyph-name="quotesingle" unicode="&#x27;" horiz-adv-x="194" d="M74 375 Q71 397 64.5 423 Q58 449 51.5 474.5 Q45 500 39.5 524 Q34 548 34 566 Q34 600 49 620 Q64 640 97 640 Q130 640 145 620 Q160 600 160 566 Q160 548 154.5 524 Q149 500 142.5 474.5 Q136 449 129.5 423 Q123 397 120 375 L74 375 Z " />
<glyph glyph-name="quotedbl" unicode="&#x22;" horiz-adv-x="365" d="M74 375 Q71 397 64.5 423 Q58 449 51.5 474.5 Q45 500 39.5 524 Q34 548 34 566 Q34 600 49 620 Q64 640 97 640 Q130 640 145 620 Q160 600 160 566 Q160 548 154.5 524 Q149 500 142.5 474.5 Q136 449 129.5 423 Q123 397 120 375 L74 375 Z M245 375 Q242 397 235.5 423 Q229 449 222.5 474.5 Q216 500 210.5 524 Q205 548 205 566 Q205 600 220 620 Q235 640 268 640 Q301 640 316 620 Q331 600 331 566 Q331 548 325.5 524 Q320 500 313.5 474.5 Q307 449 300.5 423 Q294 397 291 375 L245 375 Z " />
<glyph glyph-name="radical" unicode="&#x221a;" horiz-adv-x="637" d="M160 444 Q184 444 201.5 441.5 Q219 439 231.5 432 Q244 425 253 412 Q262 399 270 378 L356 146 L496 550 Q512 597 537.5 611 Q563 625 607 625 L651 625 L651 572 L620 572 Q595 572 583.5 564 Q572 556 562 527 L379 -2 L280 -2 L141 353 Q133 375 123.5 383 Q114 391 86 391 L40 391 L40 444 L160 444 Z " />
<glyph glyph-name="currency" unicode="&#xa4;" horiz-adv-x="550" d="M484 312 Q484 265 467 226.5 Q450 188 418 161 L484 62 L413 62 L369 131 Q328 113 275 113 Q221 113 181 131 L137 62 L66 62 L132 161 Q100 188 83 226.5 Q66 265 66 312 Q66 359 83 397.5 Q100 436 132 463 L66 562 L137 562 L181 493 Q221 511 275 511 Q328 511 369 493 L413 562 L484 562 L418 463 Q450 436 467 397.5 Q484 359 484 312 Z M332 312 Q332 381 319.5 418 Q307 455 275 455 Q243 455 230.5 418 Q218 381 218 312 Q218 243 230.5 206 Q243 169 275 169 Q307 169 319.5 206 Q332 243 332 312 Z " />
<glyph glyph-name="infinity" unicode="&#x221e;" horiz-adv-x="699" d="M180 368 Q147 368 128.5 349.5 Q110 331 110 302 Q110 273 129.5 255.5 Q149 238 183 238 Q213 238 242 250 Q271 262 289 283 Q267 321 240 344.5 Q213 368 180 368 Z M519 257 Q552 257 570.5 275.5 Q589 294 589 323 Q589 352 569.5 369.5 Q550 387 516 387 Q486 387 457 375 Q428 363 410 342 Q432 304 459 280.5 Q486 257 519 257 Z M328 223 Q305 178 269.5 154.5 Q234 131 193 131 Q166 131 141.5 143 Q117 155 99 177.5 Q81 200 70.5 232.5 Q60 265 60 305 Q60 347 71.5 381.5 Q83 416 104 440.5 Q125 465 154 479 Q183 493 218 493 Q266 493 302.5 470 Q339 447 371 402 Q394 447 429.5 470.5 Q465 494 506 494 Q533 494 557.5 482 Q582 470 600 447.5 Q618 425 628.5 392.5 Q639 360 639 320 Q639 278 627.5 243.5 Q616 209 595 184.5 Q574 160 545 146 Q516 132 481 132 Q433 132 396.5 155 Q360 178 328 223 Z " />
<glyph glyph-name="uni00B5" unicode="&#xb5;" horiz-adv-x="573" d="M349 57 Q323 27 285.5 5.5 Q248 -16 200 -16 Q159 -16 130 1 Q138 -35 145 -64 Q152 -93 152 -119 Q152 -154 138 -177 Q124 -200 89 -200 Q54 -200 40 -177 Q26 -154 26 -119 Q26 -96 32 -69.5 Q38 -43 45.5 -11 Q53 21 59.5 59.5 Q66 98 66 146 L66 358 Q66 370 64 378 Q62 386 57 392 Q52 398 42 402.5 Q32 407 17 412 L17 444 Q56 444 86 444.5 Q116 445 140 446.5 Q164 448 184 450 Q204 452 222 455 L222 143 Q222 123 225 107.5 Q228 92 237 83 Q249 71 268 71 Q289 71 309.5 84.5 Q330 98 344 116 L344 358 Q344 370 342 378 Q340 386 335 392 Q330 398 320 402.5 Q310 407 295 412 L295 444 Q334 444 364 444.5 Q394 445 418 446.5 Q442 448 462 450 Q482 452 500 455 L500 94 Q500 55 528 55 Q544 55 560 63 L560 23 Q510 -13 449 -13 Q411 -13 384 4.5 Q357 22 349 57 Z " />
<glyph glyph-name="partialdiff" unicode="&#x2202;" horiz-adv-x="535" d="M306 373 Q287 448 243.5 505.5 Q200 563 138 600 L158 641 Q229 619 290 578.5 Q351 538 395.5 483 Q440 428 465.5 360.5 Q491 293 491 218 Q491 166 476.5 123 Q462 80 433.5 49 Q405 18 362 1 Q319 -16 262 -16 Q210 -16 169.5 -0.5 Q129 15 101 42.5 Q73 70 58.5 108.5 Q44 147 44 192 Q44 286 93 340 Q142 394 223 394 Q245 394 266.5 388 Q288 382 306 373 Z M320 311 Q309 319 296 323.5 Q283 328 269 328 Q234 328 215 292 Q196 256 196 188 Q196 119 214.5 79.5 Q233 40 265 40 Q297 40 313.5 78 Q330 116 330 185 Q330 215 328.5 248.5 Q327 282 320 311 Z " />
<glyph glyph-name="summation" unicode="&#x2211;" horiz-adv-x="540" d="M15 -74 L5 -59 L256 283 L20 685 L31 700 L488 700 Q488 685 488.5 663 Q489 641 489.5 618.5 Q490 596 491 575.5 Q492 555 493 544 L458 544 L404 645 L205 645 L372 357 Q381 342 372 329 L166 45 L361 45 Q386 45 402.5 49 Q419 53 429.5 62 Q440 71 446.5 85.5 Q453 100 459 122 L498 122 Q496 104 494.5 76.5 Q493 49 491.5 20.5 Q490 -8 489 -34 Q488 -60 488 -74 L15 -74 Z " />
<glyph glyph-name="product" unicode="&#x220f;" horiz-adv-x="726" d="M85 595 Q85 610 83.5 620.5 Q82 631 75.5 639 Q69 647 56 653 Q43 659 21 665 L21 700 L705 700 L705 665 Q683 659 670 653 Q657 647 650.5 639 Q644 631 642.5 620.5 Q641 610 641 595 L641 31 Q641 16 642.5 5.5 Q644 -5 650.5 -13 Q657 -21 670 -27 Q683 -33 705 -39 L705 -74 Q693 -74 675 -73.5 Q657 -73 637.5 -72.5 Q618 -72 599 -71.5 Q580 -71 565 -71 Q548 -71 526.5 -71.5 Q505 -72 484 -72.5 Q463 -73 444 -73.5 Q425 -74 415 -74 L415 -39 L476 -20 L476 643 L250 643 L250 31 Q250 16 251.5 5.5 Q253 -5 259.5 -13 Q266 -21 279 -27 Q292 -33 314 -39 L314 -74 Q302 -74 284 -73.5 Q266 -73 246.5 -72.5 Q227 -72 208 -71.5 Q189 -71 174 -71 Q157 -71 135.5 -71.5 Q114 -72 93 -72.5 Q72 -73 53 -73.5 Q34 -74 24 -74 L24 -39 L85 -20 L85 595 Z " />
<glyph glyph-name="integral" unicode="&#x222b;" horiz-adv-x="389" d="M273 295 Q273 128 226 45 Q179 -38 99 -38 Q53 -38 27.5 -20 Q2 -2 2 24 Q2 47 16.5 66 Q31 85 49 85 Q63 85 70.5 73.5 Q78 62 84.5 48.5 Q91 35 99.5 23.5 Q108 12 125 12 Q144 12 153.5 33.5 Q163 55 163 86 Q163 112 155.5 142.5 Q148 173 139.5 207 Q131 241 123.5 277 Q116 313 116 351 Q116 517 163 600.5 Q210 684 290 684 Q336 684 361.5 666 Q387 648 387 622 Q387 599 372.5 580 Q358 561 340 561 Q326 561 318.5 572.5 Q311 584 304.5 597.5 Q298 611 289.5 622.5 Q281 634 264 634 Q245 634 235.5 612.5 Q226 591 226 560 Q226 534 233.5 503.5 Q241 473 249.5 439 Q258 405 265.5 368.5 Q273 332 273 295 Z " />
<glyph glyph-name="Ohm" unicode="&#x2126;" horiz-adv-x="728" d="M364 577 Q328 577 302 559.5 Q276 542 259.5 512 Q243 482 235 442.5 Q227 403 227 359 Q227 315 233 274.5 Q239 234 252.5 196 Q266 158 287 120.5 Q308 83 338 44 L329 0 L50 0 Q50 14 49 35 Q48 56 46.5 78.5 Q45 101 43 123.5 Q41 146 40 164 L81 164 Q86 145 91.5 133.5 Q97 122 107 115.5 Q117 109 132 106.5 Q147 104 171 104 L231 104 Q150 144 100 211 Q50 278 50 361 Q50 417 71.5 467.5 Q93 518 133.5 556.5 Q174 595 232 617.5 Q290 640 364 640 Q438 640 496 617.5 Q554 595 594.5 556.5 Q635 518 656.5 467.5 Q678 417 678 361 Q678 320 665 281.5 Q652 243 628 209.5 Q604 176 570.5 148.5 Q537 121 497 101 L557 104 Q581 104 596 106.5 Q611 109 620.5 115.5 Q630 122 636 133.5 Q642 145 647 164 L688 164 Q686 146 684.5 123.5 Q683 101 681.5 78.5 Q680 56 679 35 Q678 14 678 0 L399 0 L390 44 Q420 83 441 120.5 Q462 158 475.5 196 Q489 234 495 274.5 Q501 315 501 359 Q501 403 493 442.5 Q485 482 468.5 512 Q452 542 426 559.5 Q400 577 364 577 Z " />
<glyph glyph-name="Delta" unicode="&#x2206;" horiz-adv-x="629" d="M26 28 L257 625 L361 625 L603 28 L589 0 L38 0 L26 28 Z M268 453 L118 65 L424 65 L268 453 Z " />
<glyph glyph-name="litre" unicode="&#x2113;" horiz-adv-x="524" d="M281 166 Q281 132 286 111.5 Q291 91 302 77 Q321 53 366 53 Q386 53 407.5 57 Q429 61 449 68 L449 27 Q416 7 377 -4.5 Q338 -16 298 -16 Q144 -16 127 136 Q110 129 91 122.5 Q72 116 55 110 L40 151 Q63 160 83.5 169.5 Q104 179 124 189 L124 401 Q124 464 138 508.5 Q152 553 181 585 Q204 611 237 625.5 Q270 640 312 640 Q387 640 425.5 598.5 Q464 557 464 492 Q464 418 418 346 Q372 274 281 214 L281 166 Z M281 310 Q312 352 326 398 Q340 444 340 495 Q340 541 334 563.5 Q328 586 313 586 Q293 586 287 546 Q281 506 281 418 L281 310 Z " />
<glyph glyph-name="estimated" unicode="&#x212e;" horiz-adv-x="788" d="M169 305 Q164 305 164 301 L164 122 Q164 111 173 102 Q215 56 272.5 30 Q330 4 394 4 Q466 4 526 33 Q586 62 630 113 L683 113 Q633 55 557.5 20 Q482 -15 393 -15 Q318 -15 252 11 Q186 37 136.5 81 Q87 125 58.5 184.5 Q30 244 30 312 Q30 380 58.5 439.5 Q87 499 136.5 543.5 Q186 588 252 614 Q318 640 393 640 Q469 640 535.5 614 Q602 588 651.5 543.5 Q701 499 729.5 439.5 Q758 380 758 312 L758 305 L169 305 Z M626 506 Q626 517 616 527 Q573 571 516.5 596 Q460 621 394 621 Q330 621 273 595 Q216 569 174 524 Q164 516 164 502 L164 326 Q164 321 169 321 L621 321 Q626 321 626 326 L626 506 Z " />
<glyph glyph-name="numero" unicode="&#x2116;" horiz-adv-x="1029" d="M792 425 Q792 312 840 312 Q888 312 888 425 Q888 538 840 538 Q792 538 792 425 Z M705 176 L705 229 L975 229 L975 176 L705 176 Z M999 425 Q999 355 957 311 Q915 267 840 267 Q765 267 723 311 Q681 355 681 425 Q681 495 723 539 Q765 583 840 583 Q915 583 957 539 Q999 495 999 425 Z M543 520 Q543 535 541.5 545.5 Q540 556 533.5 564 Q527 572 514 578 Q501 584 479 590 L479 625 Q504 624 528.5 623 Q553 622 575 622 Q598 622 627.5 623 Q657 624 678 625 L678 590 L617 571 L617 -1 L498 -1 L169 445 L169 105 Q169 90 170.5 79.5 Q172 69 178.5 61 Q185 53 198 47 Q211 41 233 35 L233 0 Q208 1 183.5 2 Q159 3 137 3 Q114 3 84.5 2 Q55 1 34 0 L34 35 L95 54 L95 520 Q95 535 93 545.5 Q91 556 84.5 564 Q78 572 65 578 Q52 584 30 590 L30 625 L236 625 L543 209 L543 520 Z " />
<glyph glyph-name="ordfeminine" unicode="&#xaa;" horiz-adv-x="336" d="M323 281 Q310 269 291 261.5 Q272 254 252 254 Q206 254 193 285 Q179 271 158 261.5 Q137 252 110 252 Q68 252 42 276 Q16 300 16 338 Q16 389 60.5 410.5 Q105 432 182 432 L182 445 Q182 468 170 480.5 Q158 493 138 493 Q98 493 77 454 L40 468 Q54 503 85 523.5 Q116 544 165 544 Q224 544 255 516 Q288 487 288 420 L288 324 Q288 316 291 309.5 Q294 303 304 303 Q313 303 323 307 L323 281 Z M182 400 Q155 400 138 387.5 Q121 375 121 346 Q121 303 153 303 Q162 303 169.5 307 Q177 311 182 316 L182 400 Z " />
<glyph glyph-name="ordmasculine" unicode="&#xba;" horiz-adv-x="348" d="M330 398 Q330 327 288 289.5 Q246 252 174 252 Q102 252 60 289.5 Q18 327 18 398 Q18 469 60 506.5 Q102 544 174 544 Q246 544 288 506.5 Q330 469 330 398 Z M217 398 Q217 501 174 501 Q131 501 131 398 Q131 295 174 295 Q217 295 217 398 Z " />
<glyph glyph-name="onesuperior" unicode="&#xb9;" horiz-adv-x="354" d="M285 369 Q271 369 241 370 Q211 371 186 371 Q173 371 157.5 370.5 Q142 370 127 370 Q112 370 99 369.5 Q86 369 79 369 L79 396 L129 409 L129 649 Q129 663 125 668.5 Q121 674 103 679 L74 687 L74 714 Q154 714 189 737 L237 737 L237 438 Q237 420 243.5 412 Q250 404 272 399 L285 396 L285 369 Z " />
<glyph glyph-name="twosuperior" unicode="&#xb2;" horiz-adv-x="354" d="M300 492 Q298 481 296.5 465 Q295 449 293.5 432 Q292 415 291 398 Q290 381 290 369 L45 369 L43 401 Q79 438 104 468.5 Q129 499 145 525.5 Q161 552 168 574.5 Q175 597 175 619 Q175 648 163 662.5 Q151 677 131 677 Q111 677 96.5 667 Q82 657 71 640 L38 660 Q57 696 90.5 718 Q124 740 172 740 Q196 740 217.5 732.5 Q239 725 255 711.5 Q271 698 280.5 677.5 Q290 657 290 632 Q290 599 274.5 574.5 Q259 550 236.5 529 Q214 508 188.5 489.5 Q163 471 144 450 L206 450 Q222 450 233 451 Q244 452 251 456.5 Q258 461 262.5 469.5 Q267 478 271 493 L300 492 Z " />
<glyph glyph-name="threesuperior" unicode="&#xb3;" horiz-adv-x="354" d="M98 576 Q140 578 162 594 Q184 610 184 636 Q184 658 171.5 668.5 Q159 679 141 679 Q120 679 105 668.5 Q90 658 79 644 L47 664 Q64 699 97 719.5 Q130 740 178 740 Q229 740 260 717 Q291 694 291 654 Q291 621 270 599.5 Q249 578 212 567 Q257 559 281.5 534.5 Q306 510 306 473 Q306 424 265.5 393 Q225 362 156 362 Q106 362 75 378.5 Q44 395 44 420 Q44 438 56.5 451 Q69 464 83 464 Q95 464 103 454.5 Q111 445 118 433.5 Q125 422 133 412.5 Q141 403 153 403 Q172 403 181.5 420 Q191 437 191 467 Q191 510 169 525 Q147 540 98 540 L98 576 L98 576 Z " />
<glyph glyph-name="fraction" unicode="&#x2044;" horiz-adv-x="87" d="M-121 -16 L-183 -16 L202 630 L264 630 L-121 -16 Z " />
<glyph glyph-name="onehalf" unicode="&#xbd;" horiz-adv-x="800" d="M278 259 Q264 259 234 260 Q204 261 179 261 Q166 261 150.5 260.5 Q135 260 120 260 Q105 260 92 259.5 Q79 259 72 259 L72 286 L122 299 L122 539 Q122 553 118 558.5 Q114 564 96 569 L67 577 L67 604 Q147 604 182 627 L230 627 L230 328 Q230 310 236.5 302 Q243 294 265 289 L278 286 L278 259 Z M726 123 Q724 112 722.5 96 Q721 80 719.5 63 Q718 46 717 29 Q716 12 716 0 L471 0 L469 32 Q505 69 530 99.5 Q555 130 571 156.5 Q587 183 594 205.5 Q601 228 601 250 Q601 279 589 293.5 Q577 308 557 308 Q537 308 522.5 298 Q508 288 497 271 L464 291 Q483 327 516.5 349 Q550 371 598 371 Q622 371 643.5 363.5 Q665 356 681 342.5 Q697 329 706.5 308.5 Q716 288 716 263 Q716 230 700.5 205.5 Q685 181 662.5 160 Q640 139 614.5 120.5 Q589 102 570 81 L632 81 Q648 81 659 82 Q670 83 677 87.5 Q684 92 688.5 100.5 Q693 109 697 124 L726 123 Z M235 -16 L173 -16 L558 630 L620 630 L235 -16 Z " />
<glyph glyph-name="onequarter" unicode="&#xbc;" horiz-adv-x="800" d="M288 259 Q274 259 244 260 Q214 261 189 261 Q176 261 160.5 260.5 Q145 260 130 260 Q115 260 102 259.5 Q89 259 82 259 L82 286 L132 299 L132 539 Q132 553 128 558.5 Q124 564 106 569 L77 577 L77 604 Q157 604 192 627 L240 627 L240 328 Q240 310 246.5 302 Q253 294 275 289 L288 286 L288 259 Z M675 69 Q675 51 681.5 43 Q688 35 710 30 L723 27 L723 0 Q709 0 679 1 Q649 2 624 2 Q611 2 596 1.5 Q581 1 566 1 Q551 1 538 0.5 Q525 0 518 0 L518 27 L567 40 L567 95 L425 95 L423 122 L593 366 L675 366 L675 143 L728 143 L728 95 L675 95 L675 69 Z M567 261 L483 143 L567 143 L567 261 Z M245 -16 L183 -16 L568 630 L630 630 L245 -16 Z " />
<glyph glyph-name="threequarters" unicode="&#xbe;" horiz-adv-x="800" d="M119 466 Q161 468 183 484 Q205 500 205 526 Q205 548 192.5 558.5 Q180 569 162 569 Q141 569 126 558.5 Q111 548 100 534 L68 554 Q85 589 118 609.5 Q151 630 199 630 Q250 630 281 607 Q312 584 312 544 Q312 511 291 489.5 Q270 468 233 457 Q278 449 302.5 424.5 Q327 400 327 363 Q327 314 286.5 283 Q246 252 177 252 Q127 252 96 268.5 Q65 285 65 310 Q65 328 77.5 341 Q90 354 104 354 Q116 354 124 344.5 Q132 335 139 323.5 Q146 312 154 302.5 Q162 293 174 293 Q193 293 202.5 310 Q212 327 212 357 Q212 400 190 415 Q168 430 119 430 L119 466 L119 466 Z M685 69 Q685 51 691.5 43 Q698 35 720 30 L733 27 L733 0 Q719 0 689 1 Q659 2 634 2 Q621 2 606 1.5 Q591 1 576 1 Q561 1 548 0.5 Q535 0 528 0 L528 27 L577 40 L577 95 L435 95 L433 122 L603 366 L685 366 L685 143 L738 143 L738 95 L685 95 L685 69 Z M577 261 L493 143 L577 143 L577 261 Z M255 -16 L193 -16 L578 630 L640 630 L255 -16 Z " />
<glyph glyph-name="Agrave" unicode="&#xc0;" horiz-adv-x="676" d="M384 183 L185 183 L152 89 Q149 81 147.5 75.5 Q146 70 146 65 Q146 54 157.5 47 Q169 40 201 35 L201 0 Q178 1 150 2 Q122 3 101 3 Q91 3 77.5 2.5 Q64 2 50.5 1.5 Q37 1 24 0.5 Q11 0 2 0 L2 35 L62 54 L274 625 L382 625 L583 112 Q590 94 597 81.5 Q604 69 613.5 60.5 Q623 52 637.5 46 Q652 40 673 35 L673 0 Q660 0 640.5 0.5 Q621 1 600 1.5 Q579 2 559 2.5 Q539 3 525 3 Q509 3 489 2.5 Q469 2 448.5 1.5 Q428 1 408 0.5 Q388 0 372 0 L372 35 L433 54 L384 183 Z M206 240 L363 240 L282 453 L206 240 Z M209 760 L240 801 Q246 809 252.5 814.5 Q259 820 269 820 Q282 820 304 803 L447 690 L435 666 L214 745 L209 760 Z " />
<glyph glyph-name="Aacute" unicode="&#xc1;" horiz-adv-x="676" d="M384 183 L185 183 L152 89 Q149 81 147.5 75.5 Q146 70 146 65 Q146 54 157.5 47 Q169 40 201 35 L201 0 Q178 1 150 2 Q122 3 101 3 Q91 3 77.5 2.5 Q64 2 50.5 1.5 Q37 1 24 0.5 Q11 0 2 0 L2 35 L62 54 L274 625 L382 625 L583 112 Q590 94 597 81.5 Q604 69 613.5 60.5 Q623 52 637.5 46 Q652 40 673 35 L673 0 Q660 0 640.5 0.5 Q621 1 600 1.5 Q579 2 559 2.5 Q539 3 525 3 Q509 3 489 2.5 Q469 2 448.5 1.5 Q428 1 408 0.5 Q388 0 372 0 L372 35 L433 54 L384 183 Z M206 240 L363 240 L282 453 L206 240 Z M452 745 L231 666 L219 690 L362 803 Q384 820 397 820 Q407 820 413.5 814.5 Q420 809 426 801 L457 760 L452 745 Z " />
<glyph glyph-name="Acircumflex" unicode="&#xc2;" horiz-adv-x="676" d="M384 183 L185 183 L152 89 Q149 81 147.5 75.5 Q146 70 146 65 Q146 54 157.5 47 Q169 40 201 35 L201 0 Q178 1 150 2 Q122 3 101 3 Q91 3 77.5 2.5 Q64 2 50.5 1.5 Q37 1 24 0.5 Q11 0 2 0 L2 35 L62 54 L274 625 L382 625 L583 112 Q590 94 597 81.5 Q604 69 613.5 60.5 Q623 52 637.5 46 Q652 40 673 35 L673 0 Q660 0 640.5 0.5 Q621 1 600 1.5 Q579 2 559 2.5 Q539 3 525 3 Q509 3 489 2.5 Q469 2 448.5 1.5 Q428 1 408 0.5 Q388 0 372 0 L372 35 L433 54 L384 183 Z M206 240 L363 240 L282 453 L206 240 Z M368 815 L472 687 L450 666 L328 742 L206 666 L184 687 L288 815 L368 815 Z " />
<glyph glyph-name="Atilde" unicode="&#xc3;" horiz-adv-x="676" d="M384 183 L185 183 L152 89 Q149 81 147.5 75.5 Q146 70 146 65 Q146 54 157.5 47 Q169 40 201 35 L201 0 Q178 1 150 2 Q122 3 101 3 Q91 3 77.5 2.5 Q64 2 50.5 1.5 Q37 1 24 0.5 Q11 0 2 0 L2 35 L62 54 L274 625 L382 625 L583 112 Q590 94 597 81.5 Q604 69 613.5 60.5 Q623 52 637.5 46 Q652 40 673 35 L673 0 Q660 0 640.5 0.5 Q621 1 600 1.5 Q579 2 559 2.5 Q539 3 525 3 Q509 3 489 2.5 Q469 2 448.5 1.5 Q428 1 408 0.5 Q388 0 372 0 L372 35 L433 54 L384 183 Z M206 240 L363 240 L282 453 L206 240 Z M479 792 Q472 735 445.5 708.5 Q419 682 384 682 Q365 682 348 688 Q331 694 315.5 701.5 Q300 709 285.5 715 Q271 721 257 721 Q225 721 213 684 L177 691 Q184 748 210.5 774.5 Q237 801 272 801 Q291 801 308 795 Q325 789 340.5 781.5 Q356 774 370.5 768 Q385 762 399 762 Q431 762 443 799 L479 792 Z " />
<glyph glyph-name="Adieresis" unicode="&#xc4;" horiz-adv-x="676" d="M384 183 L185 183 L152 89 Q149 81 147.5 75.5 Q146 70 146 65 Q146 54 157.5 47 Q169 40 201 35 L201 0 Q178 1 150 2 Q122 3 101 3 Q91 3 77.5 2.5 Q64 2 50.5 1.5 Q37 1 24 0.5 Q11 0 2 0 L2 35 L62 54 L274 625 L382 625 L583 112 Q590 94 597 81.5 Q604 69 613.5 60.5 Q623 52 637.5 46 Q652 40 673 35 L673 0 Q660 0 640.5 0.5 Q621 1 600 1.5 Q579 2 559 2.5 Q539 3 525 3 Q509 3 489 2.5 Q469 2 448.5 1.5 Q428 1 408 0.5 Q388 0 372 0 L372 35 L433 54 L384 183 Z M206 240 L363 240 L282 453 L206 240 Z M174 741 Q174 767 192 785 Q210 803 236 803 Q262 803 280 785 Q298 767 298 741 Q298 715 280 697 Q262 679 236 679 Q210 679 192 697 Q174 715 174 741 Z M357 741 Q357 767 375 785 Q393 803 419 803 Q445 803 463 785 Q481 767 481 741 Q481 715 463 697 Q445 679 419 679 Q393 679 375 697 Q357 715 357 741 Z " />
<glyph glyph-name="Amacron" unicode="&#x100;" horiz-adv-x="676" d="M384 183 L185 183 L152 89 Q149 81 147.5 75.5 Q146 70 146 65 Q146 54 157.5 47 Q169 40 201 35 L201 0 Q178 1 150 2 Q122 3 101 3 Q91 3 77.5 2.5 Q64 2 50.5 1.5 Q37 1 24 0.5 Q11 0 2 0 L2 35 L62 54 L274 625 L382 625 L583 112 Q590 94 597 81.5 Q604 69 613.5 60.5 Q623 52 637.5 46 Q652 40 673 35 L673 0 Q660 0 640.5 0.5 Q621 1 600 1.5 Q579 2 559 2.5 Q539 3 525 3 Q509 3 489 2.5 Q469 2 448.5 1.5 Q428 1 408 0.5 Q388 0 372 0 L372 35 L433 54 L384 183 Z M206 240 L363 240 L282 453 L206 240 Z M197 691 L197 757 L459 757 L459 691 L197 691 Z " />
<glyph glyph-name="Abreve" unicode="&#x102;" horiz-adv-x="676" d="M384 183 L185 183 L152 89 Q149 81 147.5 75.5 Q146 70 146 65 Q146 54 157.5 47 Q169 40 201 35 L201 0 Q178 1 150 2 Q122 3 101 3 Q91 3 77.5 2.5 Q64 2 50.5 1.5 Q37 1 24 0.5 Q11 0 2 0 L2 35 L62 54 L274 625 L382 625 L583 112 Q590 94 597 81.5 Q604 69 613.5 60.5 Q623 52 637.5 46 Q652 40 673 35 L673 0 Q660 0 640.5 0.5 Q621 1 600 1.5 Q579 2 559 2.5 Q539 3 525 3 Q509 3 489 2.5 Q469 2 448.5 1.5 Q428 1 408 0.5 Q388 0 372 0 L372 35 L433 54 L384 183 Z M206 240 L363 240 L282 453 L206 240 Z M328 675 Q269 675 236.5 711 Q204 747 204 802 L245 802 Q252 775 274 762 Q296 749 328 749 Q360 749 382 762 Q404 775 411 802 L452 802 Q452 747 419.5 711 Q387 675 328 675 Z " />
<glyph glyph-name="Acaron" unicode="&#x1cd;" horiz-adv-x="676" d="M384 183 L185 183 L152 89 Q149 81 147.5 75.5 Q146 70 146 65 Q146 54 157.5 47 Q169 40 201 35 L201 0 Q178 1 150 2 Q122 3 101 3 Q91 3 77.5 2.5 Q64 2 50.5 1.5 Q37 1 24 0.5 Q11 0 2 0 L2 35 L62 54 L274 625 L382 625 L583 112 Q590 94 597 81.5 Q604 69 613.5 60.5 Q623 52 637.5 46 Q652 40 673 35 L673 0 Q660 0 640.5 0.5 Q621 1 600 1.5 Q579 2 559 2.5 Q539 3 525 3 Q509 3 489 2.5 Q469 2 448.5 1.5 Q428 1 408 0.5 Q388 0 372 0 L372 35 L433 54 L384 183 Z M206 240 L363 240 L282 453 L206 240 Z M288 676 L184 804 L206 825 L328 749 L450 825 L472 804 L368 676 L288 676 Z " />
<glyph glyph-name="Aring" unicode="&#xc5;" horiz-adv-x="676" d="M384 183 L185 183 L152 89 Q149 81 147.5 75.5 Q146 70 146 65 Q146 54 157.5 47 Q169 40 201 35 L201 0 Q178 1 150 2 Q122 3 101 3 Q91 3 77.5 2.5 Q64 2 50.5 1.5 Q37 1 24 0.5 Q11 0 2 0 L2 35 L62 54 L274 625 L382 625 L583 112 Q590 94 597 81.5 Q604 69 613.5 60.5 Q623 52 637.5 46 Q652 40 673 35 L673 0 Q660 0 640.5 0.5 Q621 1 600 1.5 Q579 2 559 2.5 Q539 3 525 3 Q509 3 489 2.5 Q469 2 448.5 1.5 Q428 1 408 0.5 Q388 0 372 0 L372 35 L433 54 L384 183 Z M206 240 L363 240 L282 453 L206 240 Z M423 764 Q423 723 395.5 697 Q368 671 328 671 Q288 671 260.5 697 Q233 723 233 764 Q233 805 260.5 831 Q288 857 328 857 Q368 857 395.5 831 Q423 805 423 764 Z M372 764 Q372 787 359 800 Q346 813 328 813 Q310 813 297 800 Q284 787 284 764 Q284 741 297 728 Q310 715 328 715 Q346 715 359 728 Q372 741 372 764 Z " />
<glyph glyph-name="Aringacute" unicode="&#x1fa;" horiz-adv-x="676" d="M384 183 L185 183 L152 89 Q149 81 147.5 75.5 Q146 70 146 65 Q146 54 157.5 47 Q169 40 201 35 L201 0 Q178 1 150 2 Q122 3 101 3 Q91 3 77.5 2.5 Q64 2 50.5 1.5 Q37 1 24 0.5 Q11 0 2 0 L2 35 L62 54 L274 625 L382 625 L583 112 Q590 94 597 81.5 Q604 69 613.5 60.5 Q623 52 637.5 46 Q652 40 673 35 L673 0 Q660 0 640.5 0.5 Q621 1 600 1.5 Q579 2 559 2.5 Q539 3 525 3 Q509 3 489 2.5 Q469 2 448.5 1.5 Q428 1 408 0.5 Q388 0 372 0 L372 35 L433 54 L384 183 Z M206 240 L363 240 L282 453 L206 240 Z M441 945 L222 849 L205 873 L347 1002 Q368 1020 382 1020 Q392 1020 399 1014.5 Q406 1009 414 999 L443 960 L441 945 Z M420 758 Q420 717 392.5 691 Q365 665 325 665 Q285 665 257.5 691 Q230 717 230 758 Q230 799 257.5 825 Q285 851 325 851 Q365 851 392.5 825 Q420 799 420 758 Z M369 758 Q369 781 356 794 Q343 807 325 807 Q307 807 294 794 Q281 781 281 758 Q281 735 294 722 Q307 709 325 709 Q343 709 356 722 Q369 735 369 758 Z " />
<glyph glyph-name="Aogonek" unicode="&#x104;" horiz-adv-x="676" d="M617 -208 Q600 -220 572.5 -228.5 Q545 -237 516 -237 Q466 -237 438 -212.5 Q410 -188 410 -143 Q410 -100 437 -61 Q464 -22 509 3 L372 0 L372 35 L433 54 L384 183 L185 183 L152 89 Q149 81 147.5 75.5 Q146 70 146 65 Q146 54 157.5 47 Q169 40 201 35 L201 0 Q178 1 150 2 Q122 3 101 3 Q91 3 77.5 2.5 Q64 2 50.5 1.5 Q37 1 24 0.5 Q11 0 2 0 L2 35 L62 54 L274 625 L382 625 L583 112 Q590 94 597 81.5 Q604 69 613.5 60.5 Q623 52 637.5 46 Q652 40 673 35 L673 0 Q656 0 631 1 Q606 2 580 2 Q541 -22 521 -55 Q501 -88 501 -126 Q501 -152 514 -166.5 Q527 -181 551 -181 Q563 -181 577.5 -178 Q592 -175 603 -170 L617 -208 Z M206 240 L363 240 L282 453 L206 240 Z " />
<glyph glyph-name="AE" unicode="&#xc6;" horiz-adv-x="898" d="M419 54 L419 291 L261 291 L142 82 Q135 70 135 64 Q135 55 146.5 48.5 Q158 42 190 35 L190 0 Q181 0 169 0.5 Q157 1 143.5 1.5 Q130 2 117 2 Q104 2 94 2 Q73 2 42 1.5 Q11 1 -14 0 L-14 35 L50 53 L327 534 Q336 550 336 560 Q336 572 322 578 Q308 584 278 590 L278 625 L833 625 Q833 610 834.5 587 Q836 564 838 540 Q840 516 841.5 495 Q843 474 845 462 L795 462 Q791 492 784 513 Q777 534 762.5 546.5 Q748 559 724 565 Q700 571 664 571 Q639 571 618 570.5 Q597 570 584 569 L584 347 L616 347 Q637 347 659 348 Q681 349 701.5 350.5 Q722 352 738.5 354 Q755 356 766 358 L759 282 Q742 284 701.5 287 Q661 290 616 290 L584 290 L584 108 Q584 79 603 66.5 Q622 54 676 54 Q713 54 738 60 Q763 66 778.5 79 Q794 92 802.5 112 Q811 132 816 160 L862 160 Q861 148 860 126 Q859 104 858 80 Q857 56 856.5 34 Q856 12 856 0 L358 0 L358 35 L419 54 Z M293 346 L419 346 L419 567 L293 346 Z " />
<glyph glyph-name="AEacute" unicode="&#x1fc;" horiz-adv-x="898" d="M419 54 L419 291 L261 291 L142 82 Q135 70 135 64 Q135 55 146.5 48.5 Q158 42 190 35 L190 0 Q181 0 169 0.5 Q157 1 143.5 1.5 Q130 2 117 2 Q104 2 94 2 Q73 2 42 1.5 Q11 1 -14 0 L-14 35 L50 53 L327 534 Q336 550 336 560 Q336 572 322 578 Q308 584 278 590 L278 625 L833 625 Q833 610 834.5 587 Q836 564 838 540 Q840 516 841.5 495 Q843 474 845 462 L795 462 Q791 492 784 513 Q777 534 762.5 546.5 Q748 559 724 565 Q700 571 664 571 Q639 571 618 570.5 Q597 570 584 569 L584 347 L616 347 Q637 347 659 348 Q681 349 701.5 350.5 Q722 352 738.5 354 Q755 356 766 358 L759 282 Q742 284 701.5 287 Q661 290 616 290 L584 290 L584 108 Q584 79 603 66.5 Q622 54 676 54 Q713 54 738 60 Q763 66 778.5 79 Q794 92 802.5 112 Q811 132 816 160 L862 160 Q861 148 860 126 Q859 104 858 80 Q857 56 856.5 34 Q856 12 856 0 L358 0 L358 35 L419 54 Z M293 346 L419 346 L419 567 L293 346 Z M710 745 L489 666 L477 690 L620 803 Q642 820 655 820 Q665 820 671.5 814.5 Q678 809 684 801 L715 760 L710 745 Z " />
<glyph glyph-name="Cacute" unicode="&#x106;" horiz-adv-x="590" d="M562 116 Q523 53 461.5 18.5 Q400 -16 319 -16 Q251 -16 197.5 6.5 Q144 29 107.5 71 Q71 113 51.5 172.5 Q32 232 32 307 Q32 382 54.5 443.5 Q77 505 119 548.5 Q161 592 221.5 616 Q282 640 358 640 Q381 640 406 637.5 Q431 635 454.5 632 Q478 629 499.5 626 Q521 623 537 622 Q537 603 538 580 Q539 557 540 532.5 Q541 508 542.5 483.5 Q544 459 545 438 L495 438 Q488 500 459.5 538.5 Q431 577 368 577 Q330 577 300 558.5 Q270 540 249.5 506 Q229 472 218 423.5 Q207 375 207 315 Q207 255 218 207.5 Q229 160 252 128 Q292 69 368 69 Q414 69 452 89 Q490 109 522 147 L562 116 Z M469 745 L248 666 L236 690 L379 803 Q401 820 414 820 Q424 820 430.5 814.5 Q437 809 443 801 L474 760 L469 745 Z " />
<glyph glyph-name="Ccedilla" unicode="&#xc7;" horiz-adv-x="590" d="M438 -123 Q438 -155 421.5 -177.5 Q405 -200 378.5 -214.5 Q352 -229 318.5 -235 Q285 -241 250 -239 L245 -200 Q293 -194 321.5 -175 Q350 -156 350 -127 Q350 -109 339 -98 Q328 -87 299 -81 Q288 -79 283.5 -74.5 Q279 -70 284 -58 L298 -15 Q171 -8 101.5 77 Q32 162 32 307 Q32 382 53.5 443.5 Q75 505 116 548.5 Q157 592 217.5 616 Q278 640 355 640 Q378 640 403 637.5 Q428 635 451.5 632 Q475 629 496.5 626 Q518 623 534 622 Q534 603 535 580 Q536 557 537 532.5 Q538 508 539.5 483.5 Q541 459 542 438 L492 438 Q485 501 457 539 Q429 577 365 577 Q287 577 247.5 507 Q208 437 208 317 Q208 192 253 128 Q293 69 369 69 Q415 69 452.5 89 Q490 109 522 147 L562 116 Q527 60 475 27 Q423 -6 356 -14 L349 -36 Q386 -43 412 -64 Q438 -85 438 -123 Z " />
<glyph glyph-name="Ccircumflex" unicode="&#x108;" horiz-adv-x="590" d="M562 116 Q523 53 461.5 18.5 Q400 -16 319 -16 Q251 -16 197.5 6.5 Q144 29 107.5 71 Q71 113 51.5 172.5 Q32 232 32 307 Q32 382 54.5 443.5 Q77 505 119 548.5 Q161 592 221.5 616 Q282 640 358 640 Q381 640 406 637.5 Q431 635 454.5 632 Q478 629 499.5 626 Q521 623 537 622 Q537 603 538 580 Q539 557 540 532.5 Q541 508 542.5 483.5 Q544 459 545 438 L495 438 Q488 500 459.5 538.5 Q431 577 368 577 Q330 577 300 558.5 Q270 540 249.5 506 Q229 472 218 423.5 Q207 375 207 315 Q207 255 218 207.5 Q229 160 252 128 Q292 69 368 69 Q414 69 452 89 Q490 109 522 147 L562 116 Z M392 815 L496 687 L474 666 L352 742 L230 666 L208 687 L312 815 L392 815 Z " />
<glyph glyph-name="Ccaron" unicode="&#x10c;" horiz-adv-x="590" d="M562 116 Q523 53 461.5 18.5 Q400 -16 319 -16 Q251 -16 197.5 6.5 Q144 29 107.5 71 Q71 113 51.5 172.5 Q32 232 32 307 Q32 382 54.5 443.5 Q77 505 119 548.5 Q161 592 221.5 616 Q282 640 358 640 Q381 640 406 637.5 Q431 635 454.5 632 Q478 629 499.5 626 Q521 623 537 622 Q537 603 538 580 Q539 557 540 532.5 Q541 508 542.5 483.5 Q544 459 545 438 L495 438 Q488 500 459.5 538.5 Q431 577 368 577 Q330 577 300 558.5 Q270 540 249.5 506 Q229 472 218 423.5 Q207 375 207 315 Q207 255 218 207.5 Q229 160 252 128 Q292 69 368 69 Q414 69 452 89 Q490 109 522 147 L562 116 Z M317 676 L213 804 L235 825 L357 749 L479 825 L501 804 L397 676 L317 676 Z " />
<glyph glyph-name="Cdotaccent" unicode="&#x10a;" horiz-adv-x="590" d="M562 116 Q523 53 461.5 18.5 Q400 -16 319 -16 Q251 -16 197.5 6.5 Q144 29 107.5 71 Q71 113 51.5 172.5 Q32 232 32 307 Q32 382 54.5 443.5 Q77 505 119 548.5 Q161 592 221.5 616 Q282 640 358 640 Q381 640 406 637.5 Q431 635 454.5 632 Q478 629 499.5 626 Q521 623 537 622 Q537 603 538 580 Q539 557 540 532.5 Q541 508 542.5 483.5 Q544 459 545 438 L495 438 Q488 500 459.5 538.5 Q431 577 368 577 Q330 577 300 558.5 Q270 540 249.5 506 Q229 472 218 423.5 Q207 375 207 315 Q207 255 218 207.5 Q229 160 252 128 Q292 69 368 69 Q414 69 452 89 Q490 109 522 147 L562 116 Z M286 749 Q286 778 306.5 799 Q327 820 356 820 Q385 820 406 799 Q427 778 427 749 Q427 720 406 699.5 Q385 679 356 679 Q327 679 306.5 699.5 Q286 720 286 749 Z " />
<glyph glyph-name="Dcaron" unicode="&#x10e;" horiz-adv-x="691" d="M36 35 L97 54 L97 520 Q97 535 95.5 545.5 Q94 556 87.5 564 Q81 572 68 578 Q55 584 33 590 L33 625 L272 625 Q374 625 447.5 606 Q521 587 570 544 Q614 506 637 448.5 Q660 391 660 312 Q660 239 638.5 180.5 Q617 122 575 80 Q536 42 477.5 21 Q419 0 338 0 L36 0 L36 35 Z M262 567 L262 96 Q262 76 273.5 66 Q285 56 319 56 L321 56 Q400 56 443 120.5 Q486 185 486 311 Q486 387 472 439 Q458 491 427 521 Q402 545 365 556 Q328 567 274 567 L262 567 Z M312 676 L208 804 L230 825 L352 749 L474 825 L496 804 L392 676 L312 676 Z " />
<glyph glyph-name="Dcroat" unicode="&#x110;" horiz-adv-x="693" d="M36 35 L97 54 L97 294 L26 294 L26 354 L97 354 L97 520 Q97 535 95.5 545.5 Q94 556 87.5 564 Q81 572 68 578 Q55 584 33 590 L33 625 L273 625 Q375 625 448.5 606 Q522 587 571 544 Q615 506 638 448.5 Q661 391 661 312 Q661 239 639.5 180.5 Q618 122 576 80 Q537 42 478.5 21 Q420 0 339 0 L36 0 L36 35 Z M262 567 L262 354 L353 354 L353 294 L262 294 L262 96 Q262 76 273.5 66 Q285 56 319 56 L321 56 Q400 56 443 120.5 Q486 185 486 311 Q486 387 472 439 Q458 491 427 521 Q402 545 365 556 Q328 567 274 567 L262 567 Z " />
<glyph glyph-name="Eth" unicode="&#xd0;" horiz-adv-x="693" d="M36 35 L97 54 L97 294 L26 294 L26 354 L97 354 L97 520 Q97 535 95.5 545.5 Q94 556 87.5 564 Q81 572 68 578 Q55 584 33 590 L33 625 L273 625 Q375 625 448.5 606 Q522 587 571 544 Q615 506 638 448.5 Q661 391 661 312 Q661 239 639.5 180.5 Q618 122 576 80 Q537 42 478.5 21 Q420 0 339 0 L36 0 L36 35 Z M262 567 L262 354 L353 354 L353 294 L262 294 L262 96 Q262 76 273.5 66 Q285 56 319 56 L321 56 Q400 56 443 120.5 Q486 185 486 311 Q486 387 472 439 Q458 491 427 521 Q402 545 365 556 Q328 567 274 567 L262 567 Z " />
<glyph glyph-name="Egrave" unicode="&#xc8;" horiz-adv-x="574" d="M34 35 L95 54 L95 520 Q95 535 93.5 545.5 Q92 556 85.5 564 Q79 572 66 578 Q53 584 31 590 L31 625 L509 625 Q509 610 510.5 587 Q512 564 514 540 Q516 516 517.5 495 Q519 474 521 462 L471 462 Q467 492 460 513 Q453 534 438.5 546.5 Q424 559 400 565 Q376 571 340 571 Q315 571 294 570.5 Q273 570 260 569 L260 347 L292 347 Q313 347 335 348 Q357 349 377.5 350.5 Q398 352 414.5 354 Q431 356 442 358 L435 282 Q418 284 377.5 287 Q337 290 292 290 L260 290 L260 108 Q260 79 279 66.5 Q298 54 352 54 Q389 54 414 60 Q439 66 454.5 79 Q470 92 478.5 112 Q487 132 492 160 L538 160 Q537 148 536 126 Q535 104 534 80 Q533 56 532.5 34 Q532 12 532 0 L34 0 L34 35 Z M164 760 L195 801 Q201 809 207.5 814.5 Q214 820 224 820 Q237 820 259 803 L402 690 L390 666 L169 745 L164 760 Z " />
<glyph glyph-name="Eacute" unicode="&#xc9;" horiz-adv-x="574" d="M34 35 L95 54 L95 520 Q95 535 93.5 545.5 Q92 556 85.5 564 Q79 572 66 578 Q53 584 31 590 L31 625 L509 625 Q509 610 510.5 587 Q512 564 514 540 Q516 516 517.5 495 Q519 474 521 462 L471 462 Q467 492 460 513 Q453 534 438.5 546.5 Q424 559 400 565 Q376 571 340 571 Q315 571 294 570.5 Q273 570 260 569 L260 347 L292 347 Q313 347 335 348 Q357 349 377.5 350.5 Q398 352 414.5 354 Q431 356 442 358 L435 282 Q418 284 377.5 287 Q337 290 292 290 L260 290 L260 108 Q260 79 279 66.5 Q298 54 352 54 Q389 54 414 60 Q439 66 454.5 79 Q470 92 478.5 112 Q487 132 492 160 L538 160 Q537 148 536 126 Q535 104 534 80 Q533 56 532.5 34 Q532 12 532 0 L34 0 L34 35 Z M409 745 L188 666 L176 690 L319 803 Q341 820 354 820 Q364 820 370.5 814.5 Q377 809 383 801 L414 760 L409 745 Z " />
<glyph glyph-name="Ecircumflex" unicode="&#xca;" horiz-adv-x="574" d="M34 35 L95 54 L95 520 Q95 535 93.5 545.5 Q92 556 85.5 564 Q79 572 66 578 Q53 584 31 590 L31 625 L509 625 Q509 610 510.5 587 Q512 564 514 540 Q516 516 517.5 495 Q519 474 521 462 L471 462 Q467 492 460 513 Q453 534 438.5 546.5 Q424 559 400 565 Q376 571 340 571 Q315 571 294 570.5 Q273 570 260 569 L260 347 L292 347 Q313 347 335 348 Q357 349 377.5 350.5 Q398 352 414.5 354 Q431 356 442 358 L435 282 Q418 284 377.5 287 Q337 290 292 290 L260 290 L260 108 Q260 79 279 66.5 Q298 54 352 54 Q389 54 414 60 Q439 66 454.5 79 Q470 92 478.5 112 Q487 132 492 160 L538 160 Q537 148 536 126 Q535 104 534 80 Q533 56 532.5 34 Q532 12 532 0 L34 0 L34 35 Z M333 815 L437 687 L415 666 L293 742 L171 666 L149 687 L253 815 L333 815 Z " />
<glyph glyph-name="Ecaron" unicode="&#x11a;" horiz-adv-x="574" d="M34 35 L95 54 L95 520 Q95 535 93.5 545.5 Q92 556 85.5 564 Q79 572 66 578 Q53 584 31 590 L31 625 L509 625 Q509 610 510.5 587 Q512 564 514 540 Q516 516 517.5 495 Q519 474 521 462 L471 462 Q467 492 460 513 Q453 534 438.5 546.5 Q424 559 400 565 Q376 571 340 571 Q315 571 294 570.5 Q273 570 260 569 L260 347 L292 347 Q313 347 335 348 Q357 349 377.5 350.5 Q398 352 414.5 354 Q431 356 442 358 L435 282 Q418 284 377.5 287 Q337 290 292 290 L260 290 L260 108 Q260 79 279 66.5 Q298 54 352 54 Q389 54 414 60 Q439 66 454.5 79 Q470 92 478.5 112 Q487 132 492 160 L538 160 Q537 148 536 126 Q535 104 534 80 Q533 56 532.5 34 Q532 12 532 0 L34 0 L34 35 Z M255 676 L151 804 L173 825 L295 749 L417 825 L439 804 L335 676 L255 676 Z " />
<glyph glyph-name="Edieresis" unicode="&#xcb;" horiz-adv-x="574" d="M34 35 L95 54 L95 520 Q95 535 93.5 545.5 Q92 556 85.5 564 Q79 572 66 578 Q53 584 31 590 L31 625 L509 625 Q509 610 510.5 587 Q512 564 514 540 Q516 516 517.5 495 Q519 474 521 462 L471 462 Q467 492 460 513 Q453 534 438.5 546.5 Q424 559 400 565 Q376 571 340 571 Q315 571 294 570.5 Q273 570 260 569 L260 347 L292 347 Q313 347 335 348 Q357 349 377.5 350.5 Q398 352 414.5 354 Q431 356 442 358 L435 282 Q418 284 377.5 287 Q337 290 292 290 L260 290 L260 108 Q260 79 279 66.5 Q298 54 352 54 Q389 54 414 60 Q439 66 454.5 79 Q470 92 478.5 112 Q487 132 492 160 L538 160 Q537 148 536 126 Q535 104 534 80 Q533 56 532.5 34 Q532 12 532 0 L34 0 L34 35 Z M141 741 Q141 767 159 785 Q177 803 203 803 Q229 803 247 785 Q265 767 265 741 Q265 715 247 697 Q229 679 203 679 Q177 679 159 697 Q141 715 141 741 Z M324 741 Q324 767 342 785 Q360 803 386 803 Q412 803 430 785 Q448 767 448 741 Q448 715 430 697 Q412 679 386 679 Q360 679 342 697 Q324 715 324 741 Z " />
<glyph glyph-name="Emacron" unicode="&#x112;" horiz-adv-x="574" d="M34 35 L95 54 L95 520 Q95 535 93.5 545.5 Q92 556 85.5 564 Q79 572 66 578 Q53 584 31 590 L31 625 L509 625 Q509 610 510.5 587 Q512 564 514 540 Q516 516 517.5 495 Q519 474 521 462 L471 462 Q467 492 460 513 Q453 534 438.5 546.5 Q424 559 400 565 Q376 571 340 571 Q315 571 294 570.5 Q273 570 260 569 L260 347 L292 347 Q313 347 335 348 Q357 349 377.5 350.5 Q398 352 414.5 354 Q431 356 442 358 L435 282 Q418 284 377.5 287 Q337 290 292 290 L260 290 L260 108 Q260 79 279 66.5 Q298 54 352 54 Q389 54 414 60 Q439 66 454.5 79 Q470 92 478.5 112 Q487 132 492 160 L538 160 Q537 148 536 126 Q535 104 534 80 Q533 56 532.5 34 Q532 12 532 0 L34 0 L34 35 Z M158 691 L158 757 L420 757 L420 691 L158 691 Z " />
<glyph glyph-name="Ebreve" unicode="&#x114;" horiz-adv-x="574" d="M34 35 L95 54 L95 520 Q95 535 93.5 545.5 Q92 556 85.5 564 Q79 572 66 578 Q53 584 31 590 L31 625 L509 625 Q509 610 510.5 587 Q512 564 514 540 Q516 516 517.5 495 Q519 474 521 462 L471 462 Q467 492 460 513 Q453 534 438.5 546.5 Q424 559 400 565 Q376 571 340 571 Q315 571 294 570.5 Q273 570 260 569 L260 347 L292 347 Q313 347 335 348 Q357 349 377.5 350.5 Q398 352 414.5 354 Q431 356 442 358 L435 282 Q418 284 377.5 287 Q337 290 292 290 L260 290 L260 108 Q260 79 279 66.5 Q298 54 352 54 Q389 54 414 60 Q439 66 454.5 79 Q470 92 478.5 112 Q487 132 492 160 L538 160 Q537 148 536 126 Q535 104 534 80 Q533 56 532.5 34 Q532 12 532 0 L34 0 L34 35 Z M291 675 Q232 675 199.5 711 Q167 747 167 802 L208 802 Q215 775 237 762 Q259 749 291 749 Q323 749 345 762 Q367 775 374 802 L415 802 Q415 747 382.5 711 Q350 675 291 675 Z " />
<glyph glyph-name="Edotaccent" unicode="&#x116;" horiz-adv-x="574" d="M34 35 L95 54 L95 520 Q95 535 93.5 545.5 Q92 556 85.5 564 Q79 572 66 578 Q53 584 31 590 L31 625 L509 625 Q509 610 510.5 587 Q512 564 514 540 Q516 516 517.5 495 Q519 474 521 462 L471 462 Q467 492 460 513 Q453 534 438.5 546.5 Q424 559 400 565 Q376 571 340 571 Q315 571 294 570.5 Q273 570 260 569 L260 347 L292 347 Q313 347 335 348 Q357 349 377.5 350.5 Q398 352 414.5 354 Q431 356 442 358 L435 282 Q418 284 377.5 287 Q337 290 292 290 L260 290 L260 108 Q260 79 279 66.5 Q298 54 352 54 Q389 54 414 60 Q439 66 454.5 79 Q470 92 478.5 112 Q487 132 492 160 L538 160 Q537 148 536 126 Q535 104 534 80 Q533 56 532.5 34 Q532 12 532 0 L34 0 L34 35 Z M220 749 Q220 778 240.5 799 Q261 820 290 820 Q319 820 340 799 Q361 778 361 749 Q361 720 340 699.5 Q319 679 290 679 Q261 679 240.5 699.5 Q220 720 220 749 Z " />
<glyph glyph-name="Eogonek" unicode="&#x118;" horiz-adv-x="574" d="M34 35 L95 54 L95 520 Q95 535 93.5 545.5 Q92 556 85.5 564 Q79 572 66 578 Q53 584 31 590 L31 625 L509 625 Q509 610 510.5 587 Q512 564 514 540 Q516 516 517.5 495 Q519 474 521 462 L471 462 Q467 492 460 513 Q453 534 438.5 546.5 Q424 559 400 565 Q376 571 340 571 Q315 571 294 570.5 Q273 570 260 569 L260 347 L292 347 Q313 347 335 348 Q357 349 377.5 350.5 Q398 352 414.5 354 Q431 356 442 358 L435 282 Q418 284 377.5 287 Q337 290 292 290 L260 290 L260 108 Q260 79 279 66.5 Q298 54 352 54 Q389 54 414 60 Q439 66 454.5 79 Q470 92 478.5 112 Q487 132 492 160 L538 160 Q537 148 536 126 Q535 104 534 80 Q533 56 532.5 34 Q532 12 532 0 L466 0 Q429 -24 410 -56.5 Q391 -89 391 -126 Q391 -152 404 -166.5 Q417 -181 441 -181 Q453 -181 467.5 -178 Q482 -175 493 -170 L507 -208 Q490 -220 462.5 -228.5 Q435 -237 406 -237 Q356 -237 328 -212.5 Q300 -188 300 -143 Q300 -101 325.5 -63.5 Q351 -26 393 0 L34 0 L34 35 Z " />
<glyph glyph-name="Gcircumflex" unicode="&#x11c;" horiz-adv-x="686" d="M598 52 Q551 22 484 3 Q417 -16 343 -16 Q193 -16 112.5 67.5 Q32 151 32 306 Q32 385 56.5 447.5 Q81 510 126.5 552.5 Q172 595 235.5 617.5 Q299 640 377 640 Q425 640 475.5 633 Q526 626 571 621 Q573 577 575 529 Q577 481 579 435 L529 435 Q521 498 487.5 537.5 Q454 577 388 577 Q299 577 253 506.5 Q207 436 207 309 Q207 253 215.5 205.5 Q224 158 242 123.5 Q260 89 288 69 Q316 49 355 49 Q396 49 417 70 Q428 81 433.5 99 Q439 117 439 147 L439 255 L368 275 L368 310 Q378 310 397.5 309.5 Q417 309 439.5 308.5 Q462 308 484 307.5 Q506 307 523 307 Q538 307 556.5 307.5 Q575 308 594.5 308.5 Q614 309 632 309.5 Q650 310 662 310 L662 275 Q640 269 627 263 Q614 257 607.5 249 Q601 241 599.5 230.5 Q598 220 598 205 L598 52 Z M410 815 L514 687 L492 666 L370 742 L248 666 L226 687 L330 815 L410 815 Z " />
<glyph glyph-name="Gbreve" unicode="&#x11e;" horiz-adv-x="686" d="M598 52 Q551 22 484 3 Q417 -16 343 -16 Q193 -16 112.5 67.5 Q32 151 32 306 Q32 385 56.5 447.5 Q81 510 126.5 552.5 Q172 595 235.5 617.5 Q299 640 377 640 Q425 640 475.5 633 Q526 626 571 621 Q573 577 575 529 Q577 481 579 435 L529 435 Q521 498 487.5 537.5 Q454 577 388 577 Q299 577 253 506.5 Q207 436 207 309 Q207 253 215.5 205.5 Q224 158 242 123.5 Q260 89 288 69 Q316 49 355 49 Q396 49 417 70 Q428 81 433.5 99 Q439 117 439 147 L439 255 L368 275 L368 310 Q378 310 397.5 309.5 Q417 309 439.5 308.5 Q462 308 484 307.5 Q506 307 523 307 Q538 307 556.5 307.5 Q575 308 594.5 308.5 Q614 309 632 309.5 Q650 310 662 310 L662 275 Q640 269 627 263 Q614 257 607.5 249 Q601 241 599.5 230.5 Q598 220 598 205 L598 52 Z M373 675 Q314 675 281.5 711 Q249 747 249 802 L290 802 Q297 775 319 762 Q341 749 373 749 Q405 749 427 762 Q449 775 456 802 L497 802 Q497 747 464.5 711 Q432 675 373 675 Z " />
<glyph glyph-name="Gdotaccent" unicode="&#x120;" horiz-adv-x="686" d="M598 52 Q551 22 484 3 Q417 -16 343 -16 Q193 -16 112.5 67.5 Q32 151 32 306 Q32 385 56.5 447.5 Q81 510 126.5 552.5 Q172 595 235.5 617.5 Q299 640 377 640 Q425 640 475.5 633 Q526 626 571 621 Q573 577 575 529 Q577 481 579 435 L529 435 Q521 498 487.5 537.5 Q454 577 388 577 Q299 577 253 506.5 Q207 436 207 309 Q207 253 215.5 205.5 Q224 158 242 123.5 Q260 89 288 69 Q316 49 355 49 Q396 49 417 70 Q428 81 433.5 99 Q439 117 439 147 L439 255 L368 275 L368 310 Q378 310 397.5 309.5 Q417 309 439.5 308.5 Q462 308 484 307.5 Q506 307 523 307 Q538 307 556.5 307.5 Q575 308 594.5 308.5 Q614 309 632 309.5 Q650 310 662 310 L662 275 Q640 269 627 263 Q614 257 607.5 249 Q601 241 599.5 230.5 Q598 220 598 205 L598 52 Z M301 749 Q301 778 321.5 799 Q342 820 371 820 Q400 820 421 799 Q442 778 442 749 Q442 720 421 699.5 Q400 679 371 679 Q342 679 321.5 699.5 Q301 720 301 749 Z " />
<glyph glyph-name="Gcommaaccent" unicode="&#x122;" horiz-adv-x="686" d="M598 52 Q551 22 484 3 Q417 -16 343 -16 Q193 -16 112.5 67.5 Q32 151 32 306 Q32 385 56.5 447.5 Q81 510 126.5 552.5 Q172 595 235.5 617.5 Q299 640 377 640 Q425 640 475.5 633 Q526 626 571 621 Q573 577 575 529 Q577 481 579 435 L529 435 Q521 498 487.5 537.5 Q454 577 388 577 Q299 577 253 506.5 Q207 436 207 309 Q207 253 215.5 205.5 Q224 158 242 123.5 Q260 89 288 69 Q316 49 355 49 Q396 49 417 70 Q428 81 433.5 99 Q439 117 439 147 L439 255 L368 275 L368 310 Q378 310 397.5 309.5 Q417 309 439.5 308.5 Q462 308 484 307.5 Q506 307 523 307 Q538 307 556.5 307.5 Q575 308 594.5 308.5 Q614 309 632 309.5 Q650 310 662 310 L662 275 Q640 269 627 263 Q614 257 607.5 249 Q601 241 599.5 230.5 Q598 220 598 205 L598 52 Z M427 -139 Q427 -184 397.5 -233 Q368 -282 310 -317 L292 -291 Q318 -266 335.5 -240 Q353 -214 353 -195 Q353 -181 343 -172 Q333 -163 321 -154 Q309 -145 299 -134 Q289 -123 289 -104 Q289 -82 305 -66 Q321 -50 351 -50 Q386 -50 406.5 -74.5 Q427 -99 427 -139 Z " />
<glyph glyph-name="Hcircumflex" unicode="&#x124;" horiz-adv-x="740" d="M645 105 Q645 90 646.5 79.5 Q648 69 654.5 61 Q661 53 674 47 Q687 41 709 35 L709 0 Q697 0 679 0.5 Q661 1 641.5 1.5 Q622 2 603.5 2.5 Q585 3 570 3 Q553 3 531.5 2.5 Q510 2 488.5 1.5 Q467 1 448 0.5 Q429 0 419 0 L419 35 L480 54 L480 292 L260 292 L260 105 Q260 90 261.5 79.5 Q263 69 269.5 61 Q276 53 289 47 Q302 41 324 35 L324 0 Q312 0 293.5 0.5 Q275 1 255.5 1.5 Q236 2 217 2.5 Q198 3 183 3 Q166 3 145 2.5 Q124 2 102.5 1.5 Q81 1 62.5 0.5 Q44 0 34 0 L34 35 L95 54 L95 520 Q95 535 93.5 545.5 Q92 556 85.5 564 Q79 572 66 578 Q53 584 31 590 L31 625 Q43 625 61 624.5 Q79 624 98.5 623.5 Q118 623 137 622.5 Q156 622 171 622 Q187 622 209 622.5 Q231 623 252 623.5 Q273 624 291.5 624.5 Q310 625 321 625 L321 590 L260 571 L260 356 L480 356 L480 520 Q480 535 478.5 545.5 Q477 556 470.5 564 Q464 572 451 578 Q438 584 416 590 L416 625 Q428 625 446 624.5 Q464 624 483.5 623.5 Q503 623 522 622.5 Q541 622 556 622 Q572 622 594 622.5 Q616 623 637 623.5 Q658 624 676.5 624.5 Q695 625 706 625 L706 590 L645 571 L645 105 Z M410 815 L514 687 L492 666 L370 742 L248 666 L226 687 L330 815 L410 815 Z " />
<glyph glyph-name="Hbar" unicode="&#x126;" horiz-adv-x="744" d="M647 450 L647 105 Q647 90 648.5 79.5 Q650 69 656.5 61 Q663 53 676 47 Q689 41 711 35 L711 0 Q699 0 681 0.5 Q663 1 643.5 1.5 Q624 2 605.5 2.5 Q587 3 572 3 Q555 3 533.5 2.5 Q512 2 490.5 1.5 Q469 1 450 0.5 Q431 0 421 0 L421 35 L482 54 L482 292 L262 292 L262 105 Q262 90 263.5 79.5 Q265 69 271.5 61 Q278 53 291 47 Q304 41 326 35 L326 0 Q314 0 295.5 0.5 Q277 1 257.5 1.5 Q238 2 219 2.5 Q200 3 185 3 Q168 3 147 2.5 Q126 2 104.5 1.5 Q83 1 64.5 0.5 Q46 0 36 0 L36 35 L97 54 L97 450 L21 450 L21 508 L97 508 L97 520 Q97 535 95.5 545.5 Q94 556 87.5 564 Q81 572 68 578 Q55 584 33 590 L33 625 Q45 625 63 624.5 Q81 624 100.5 623.5 Q120 623 139 622.5 Q158 622 173 622 Q189 622 211 622.5 Q233 623 254 623.5 Q275 624 293.5 624.5 Q312 625 323 625 L323 590 L262 571 L262 508 L482 508 L482 520 Q482 535 480.5 545.5 Q479 556 472.5 564 Q466 572 453 578 Q440 584 418 590 L418 625 Q430 625 448 624.5 Q466 624 485.5 623.5 Q505 623 524 622.5 Q543 622 558 622 Q574 622 596 622.5 Q618 623 639 623.5 Q660 624 678.5 624.5 Q697 625 708 625 L708 590 L647 571 L647 508 L723 508 L723 450 L647 450 Z M482 356 L482 450 L262 450 L262 356 L482 356 Z " />
<glyph glyph-name="Igrave" unicode="&#xcc;" horiz-adv-x="357" d="M261 105 Q261 90 262.5 79.5 Q264 69 270.5 61 Q277 53 290 47 Q303 41 325 35 L325 0 Q313 0 295 0.5 Q277 1 257.5 1.5 Q238 2 219 2.5 Q200 3 185 3 Q168 3 146.5 2.5 Q125 2 104 1.5 Q83 1 64 0.5 Q45 0 35 0 L35 35 L96 54 L96 520 Q96 535 94.5 545.5 Q93 556 86.5 564 Q80 572 67 578 Q54 584 32 590 L32 625 Q44 625 62 624.5 Q80 624 99.5 623.5 Q119 623 138 622.5 Q157 622 172 622 Q188 622 210 622.5 Q232 623 253 623.5 Q274 624 292.5 624.5 Q311 625 322 625 L322 590 L261 571 L261 105 Z M59 760 L90 801 Q96 809 102.5 814.5 Q109 820 119 820 Q132 820 154 803 L297 690 L285 666 L64 745 L59 760 Z " />
<glyph glyph-name="Iacute" unicode="&#xcd;" horiz-adv-x="357" d="M261 105 Q261 90 262.5 79.5 Q264 69 270.5 61 Q277 53 290 47 Q303 41 325 35 L325 0 Q313 0 295 0.5 Q277 1 257.5 1.5 Q238 2 219 2.5 Q200 3 185 3 Q168 3 146.5 2.5 Q125 2 104 1.5 Q83 1 64 0.5 Q45 0 35 0 L35 35 L96 54 L96 520 Q96 535 94.5 545.5 Q93 556 86.5 564 Q80 572 67 578 Q54 584 32 590 L32 625 Q44 625 62 624.5 Q80 624 99.5 623.5 Q119 623 138 622.5 Q157 622 172 622 Q188 622 210 622.5 Q232 623 253 623.5 Q274 624 292.5 624.5 Q311 625 322 625 L322 590 L261 571 L261 105 Z M292 745 L71 666 L59 690 L202 803 Q224 820 237 820 Q247 820 253.5 814.5 Q260 809 266 801 L297 760 L292 745 Z " />
<glyph glyph-name="Icircumflex" unicode="&#xce;" horiz-adv-x="357" d="M261 105 Q261 90 262.5 79.5 Q264 69 270.5 61 Q277 53 290 47 Q303 41 325 35 L325 0 Q313 0 295 0.5 Q277 1 257.5 1.5 Q238 2 219 2.5 Q200 3 185 3 Q168 3 146.5 2.5 Q125 2 104 1.5 Q83 1 64 0.5 Q45 0 35 0 L35 35 L96 54 L96 520 Q96 535 94.5 545.5 Q93 556 86.5 564 Q80 572 67 578 Q54 584 32 590 L32 625 Q44 625 62 624.5 Q80 624 99.5 623.5 Q119 623 138 622.5 Q157 622 172 622 Q188 622 210 622.5 Q232 623 253 623.5 Q274 624 292.5 624.5 Q311 625 322 625 L322 590 L261 571 L261 105 Z M218 815 L322 687 L300 666 L178 742 L56 666 L34 687 L138 815 L218 815 Z " />
<glyph glyph-name="Itilde" unicode="&#x128;" horiz-adv-x="357" d="M261 105 Q261 90 262.5 79.5 Q264 69 270.5 61 Q277 53 290 47 Q303 41 325 35 L325 0 Q313 0 295 0.5 Q277 1 257.5 1.5 Q238 2 219 2.5 Q200 3 185 3 Q168 3 146.5 2.5 Q125 2 104 1.5 Q83 1 64 0.5 Q45 0 35 0 L35 35 L96 54 L96 520 Q96 535 94.5 545.5 Q93 556 86.5 564 Q80 572 67 578 Q54 584 32 590 L32 625 Q44 625 62 624.5 Q80 624 99.5 623.5 Q119 623 138 622.5 Q157 622 172 622 Q188 622 210 622.5 Q232 623 253 623.5 Q274 624 292.5 624.5 Q311 625 322 625 L322 590 L261 571 L261 105 Z M329 792 Q322 735 295.5 708.5 Q269 682 234 682 Q215 682 198 688 Q181 694 165.5 701.5 Q150 709 135.5 715 Q121 721 107 721 Q75 721 63 684 L27 691 Q34 748 60.5 774.5 Q87 801 122 801 Q141 801 158 795 Q175 789 190.5 781.5 Q206 774 220.5 768 Q235 762 249 762 Q281 762 293 799 L329 792 Z " />
<glyph glyph-name="Idieresis" unicode="&#xcf;" horiz-adv-x="357" d="M261 105 Q261 90 262.5 79.5 Q264 69 270.5 61 Q277 53 290 47 Q303 41 325 35 L325 0 Q313 0 295 0.5 Q277 1 257.5 1.5 Q238 2 219 2.5 Q200 3 185 3 Q168 3 146.5 2.5 Q125 2 104 1.5 Q83 1 64 0.5 Q45 0 35 0 L35 35 L96 54 L96 520 Q96 535 94.5 545.5 Q93 556 86.5 564 Q80 572 67 578 Q54 584 32 590 L32 625 Q44 625 62 624.5 Q80 624 99.5 623.5 Q119 623 138 622.5 Q157 622 172 622 Q188 622 210 622.5 Q232 623 253 623.5 Q274 624 292.5 624.5 Q311 625 322 625 L322 590 L261 571 L261 105 Z M25 741 Q25 767 43 785 Q61 803 87 803 Q113 803 131 785 Q149 767 149 741 Q149 715 131 697 Q113 679 87 679 Q61 679 43 697 Q25 715 25 741 Z M208 741 Q208 767 226 785 Q244 803 270 803 Q296 803 314 785 Q332 767 332 741 Q332 715 314 697 Q296 679 270 679 Q244 679 226 697 Q208 715 208 741 Z " />
<glyph glyph-name="Imacron" unicode="&#x12a;" horiz-adv-x="357" d="M261 105 Q261 90 262.5 79.5 Q264 69 270.5 61 Q277 53 290 47 Q303 41 325 35 L325 0 Q313 0 295 0.5 Q277 1 257.5 1.5 Q238 2 219 2.5 Q200 3 185 3 Q168 3 146.5 2.5 Q125 2 104 1.5 Q83 1 64 0.5 Q45 0 35 0 L35 35 L96 54 L96 520 Q96 535 94.5 545.5 Q93 556 86.5 564 Q80 572 67 578 Q54 584 32 590 L32 625 Q44 625 62 624.5 Q80 624 99.5 623.5 Q119 623 138 622.5 Q157 622 172 622 Q188 622 210 622.5 Q232 623 253 623.5 Q274 624 292.5 624.5 Q311 625 322 625 L322 590 L261 571 L261 105 Z M47 691 L47 757 L309 757 L309 691 L47 691 Z " />
<glyph glyph-name="Ibreve" unicode="&#x12c;" horiz-adv-x="357" d="M261 105 Q261 90 262.5 79.5 Q264 69 270.5 61 Q277 53 290 47 Q303 41 325 35 L325 0 Q313 0 295 0.5 Q277 1 257.5 1.5 Q238 2 219 2.5 Q200 3 185 3 Q168 3 146.5 2.5 Q125 2 104 1.5 Q83 1 64 0.5 Q45 0 35 0 L35 35 L96 54 L96 520 Q96 535 94.5 545.5 Q93 556 86.5 564 Q80 572 67 578 Q54 584 32 590 L32 625 Q44 625 62 624.5 Q80 624 99.5 623.5 Q119 623 138 622.5 Q157 622 172 622 Q188 622 210 622.5 Q232 623 253 623.5 Q274 624 292.5 624.5 Q311 625 322 625 L322 590 L261 571 L261 105 Z M178 675 Q119 675 86.5 711 Q54 747 54 802 L95 802 Q102 775 124 762 Q146 749 178 749 Q210 749 232 762 Q254 775 261 802 L302 802 Q302 747 269.5 711 Q237 675 178 675 Z " />
<glyph glyph-name="Idotaccent" unicode="&#x130;" horiz-adv-x="357" d="M261 105 Q261 90 262.5 79.5 Q264 69 270.5 61 Q277 53 290 47 Q303 41 325 35 L325 0 Q313 0 295 0.5 Q277 1 257.5 1.5 Q238 2 219 2.5 Q200 3 185 3 Q168 3 146.5 2.5 Q125 2 104 1.5 Q83 1 64 0.5 Q45 0 35 0 L35 35 L96 54 L96 520 Q96 535 94.5 545.5 Q93 556 86.5 564 Q80 572 67 578 Q54 584 32 590 L32 625 Q44 625 62 624.5 Q80 624 99.5 623.5 Q119 623 138 622.5 Q157 622 172 622 Q188 622 210 622.5 Q232 623 253 623.5 Q274 624 292.5 624.5 Q311 625 322 625 L322 590 L261 571 L261 105 Z M108 749 Q108 778 128.5 799 Q149 820 178 820 Q207 820 228 799 Q249 778 249 749 Q249 720 228 699.5 Q207 679 178 679 Q149 679 128.5 699.5 Q108 720 108 749 Z " />
<glyph glyph-name="Iogonek" unicode="&#x12e;" horiz-adv-x="357" d="M277 -208 Q260 -221 233 -229 Q206 -237 176 -237 Q126 -237 97 -210 Q68 -183 68 -138 Q68 -95 92 -58 Q116 -21 158 3 L35 0 L35 35 L96 54 L96 520 Q96 535 94.5 545.5 Q93 556 86.5 564 Q80 572 67 578 Q54 584 32 590 L32 625 Q44 625 62 624.5 Q80 624 99.5 623.5 Q119 623 138 622.5 Q157 622 172 622 Q188 622 210 622.5 Q232 623 253 623.5 Q274 624 292.5 624.5 Q311 625 322 625 L322 590 L261 571 L261 105 Q261 90 262.5 79.5 Q264 69 270.5 61 Q277 53 290 47 Q303 41 325 35 L325 0 Q308 0 281 1 Q254 2 228 2 Q193 -22 176 -54 Q159 -86 159 -121 Q159 -149 173 -165 Q187 -181 211 -181 Q224 -181 238 -178 Q252 -175 263 -170 L277 -208 Z " />
<glyph glyph-name="IJ" unicode="&#x132;" horiz-adv-x="701" d="M261 105 Q261 90 262.5 79.5 Q264 69 270.5 61 Q277 53 290 47 Q303 41 325 35 L325 0 Q313 0 295 0.5 Q277 1 257.5 1.5 Q238 2 219 2.5 Q200 3 185 3 Q168 3 146.5 2.5 Q125 2 104 1.5 Q83 1 64 0.5 Q45 0 35 0 L35 35 L96 54 L96 520 Q96 535 94.5 545.5 Q93 556 86.5 564 Q80 572 67 578 Q54 584 32 590 L32 625 Q44 625 62 624.5 Q80 624 99.5 623.5 Q119 623 138 622.5 Q157 622 172 622 Q188 622 210 622.5 Q232 623 253 623.5 Q274 624 292.5 624.5 Q311 625 322 625 L322 590 L261 571 L261 105 Z M448 520 Q448 535 446.5 545.5 Q445 556 438.5 564 Q432 572 419 578 Q406 584 384 590 L384 625 Q396 625 414 624.5 Q432 624 451.5 623.5 Q471 623 490 622.5 Q509 622 524 622 Q540 622 562 622.5 Q584 623 605 623.5 Q626 624 644.5 624.5 Q663 625 674 625 L674 590 L613 571 L613 90 Q613 40 603 -10 Q593 -60 565 -102 Q537 -144 487 -175.5 Q437 -207 357 -221 L342 -176 Q373 -163 393.5 -142.5 Q414 -122 426 -91 Q438 -60 443 -18 Q448 24 448 81 L448 520 Z " />
<glyph glyph-name="Jcircumflex" unicode="&#x134;" horiz-adv-x="344" d="M91 520 Q91 535 89.5 545.5 Q88 556 81.5 564 Q75 572 62 578 Q49 584 27 590 L27 625 Q39 625 57 624.5 Q75 624 94.5 623.5 Q114 623 133 622.5 Q152 622 167 622 Q183 622 205 622.5 Q227 623 248 623.5 Q269 624 287.5 624.5 Q306 625 317 625 L317 590 L256 571 L256 90 Q256 40 246 -10 Q236 -60 208 -102 Q180 -144 130 -175.5 Q80 -207 0 -221 L-15 -176 Q16 -163 36.5 -142.5 Q57 -122 69 -91 Q81 -60 86 -18 Q91 24 91 81 L91 520 Z M212 815 L316 687 L294 666 L172 742 L50 666 L28 687 L132 815 L212 815 Z " />
<glyph glyph-name="Kcommaaccent" unicode="&#x136;" horiz-adv-x="677" d="M260 324 L474 573 L416 590 L416 625 Q428 625 444 624 Q460 623 477 622.5 Q494 622 510.5 621.5 Q527 621 540 621 Q566 621 597 622.5 Q628 624 646 625 L646 589 Q622 586 604.5 581.5 Q587 577 572.5 569.5 Q558 562 544 550 Q530 538 514 519 L419 410 L580 116 Q591 96 600 82.5 Q609 69 619.5 59.5 Q630 50 644 44.5 Q658 39 679 35 L679 0 L449 0 Q449 10 447 20 Q445 30 441 41.5 Q437 53 430.5 67 Q424 81 414 100 L312 288 L260 229 L260 105 Q260 90 261.5 79.5 Q263 69 269.5 61 Q276 53 289 47 Q302 41 324 35 L324 0 Q312 0 294 0.5 Q276 1 256.5 1.5 Q237 2 218 2.5 Q199 3 184 3 Q167 3 145.5 2.5 Q124 2 103 1.5 Q82 1 63 0.5 Q44 0 34 0 L34 35 L95 54 L95 520 Q95 535 93.5 545.5 Q92 556 85.5 564 Q79 572 66 578 Q53 584 31 590 L31 625 Q43 625 61 624.5 Q79 624 98.5 623.5 Q118 623 137 622.5 Q156 622 171 622 Q187 622 209 622.5 Q231 623 252 623.5 Q273 624 291.5 624.5 Q310 625 321 625 L321 590 L260 571 L260 324 Z M429 -139 Q429 -184 399.5 -233 Q370 -282 312 -317 L294 -291 Q320 -266 337.5 -240 Q355 -214 355 -195 Q355 -181 345 -172 Q335 -163 323 -154 Q311 -145 301 -134 Q291 -123 291 -104 Q291 -82 307 -66 Q323 -50 353 -50 Q388 -50 408.5 -74.5 Q429 -99 429 -139 Z " />
<glyph glyph-name="Lacute" unicode="&#x139;" horiz-adv-x="544" d="M260 108 Q260 79 277.5 66.5 Q295 54 346 54 Q382 54 406 60 Q430 66 444.5 79 Q459 92 467 112 Q475 132 480 160 L526 160 Q525 148 524 126 Q523 104 522 80 Q521 56 520.5 34 Q520 12 520 0 L34 0 L34 35 L95 54 L95 520 Q95 535 93.5 545.5 Q92 556 85.5 564 Q79 572 66 578 Q53 584 31 590 L31 625 Q43 625 61 624.5 Q79 624 98.5 623.5 Q118 623 137 622.5 Q156 622 171 622 Q187 622 209 622.5 Q231 623 252 623.5 Q273 624 291.5 624.5 Q310 625 321 625 L321 590 L260 571 L260 108 Z M292 745 L71 666 L59 690 L202 803 Q224 820 237 820 Q247 820 253.5 814.5 Q260 809 266 801 L297 760 L292 745 Z " />
<glyph glyph-name="Lcaron" unicode="&#x13d;" horiz-adv-x="544" d="M260 108 Q260 79 277.5 66.5 Q295 54 346 54 Q382 54 406 60 Q430 66 444.5 79 Q459 92 467 112 Q475 132 480 160 L526 160 Q525 148 524 126 Q523 104 522 80 Q521 56 520.5 34 Q520 12 520 0 L34 0 L34 35 L95 54 L95 520 Q95 535 93.5 545.5 Q92 556 85.5 564 Q79 572 66 578 Q53 584 31 590 L31 625 Q43 625 61 624.5 Q79 624 98.5 623.5 Q118 623 137 622.5 Q156 622 171 622 Q187 622 209 622.5 Q231 623 252 623.5 Q273 624 291.5 624.5 Q310 625 321 625 L321 590 L260 571 L260 108 Z M506 552 Q506 507 476.5 458 Q447 409 389 374 L371 400 Q397 425 414.5 451 Q432 477 432 496 Q432 510 422 519 Q412 528 400 537 Q388 546 378 557 Q368 568 368 587 Q368 609 384 625 Q400 641 430 641 Q465 641 485.5 616.5 Q506 592 506 552 Z " />
<glyph glyph-name="Lcommaaccent" unicode="&#x13b;" horiz-adv-x="544" d="M260 108 Q260 79 277.5 66.5 Q295 54 346 54 Q382 54 406 60 Q430 66 444.5 79 Q459 92 467 112 Q475 132 480 160 L526 160 Q525 148 524 126 Q523 104 522 80 Q521 56 520.5 34 Q520 12 520 0 L34 0 L34 35 L95 54 L95 520 Q95 535 93.5 545.5 Q92 556 85.5 564 Q79 572 66 578 Q53 584 31 590 L31 625 Q43 625 61 624.5 Q79 624 98.5 623.5 Q118 623 137 622.5 Q156 622 171 622 Q187 622 209 622.5 Q231 623 252 623.5 Q273 624 291.5 624.5 Q310 625 321 625 L321 590 L260 571 L260 108 Z M384 -139 Q384 -184 354.5 -233 Q325 -282 267 -317 L249 -291 Q275 -266 292.5 -240 Q310 -214 310 -195 Q310 -181 300 -172 Q290 -163 278 -154 Q266 -145 256 -134 Q246 -123 246 -104 Q246 -82 262 -66 Q278 -50 308 -50 Q343 -50 363.5 -74.5 Q384 -99 384 -139 Z " />
<glyph glyph-name="Lslash" unicode="&#x141;" horiz-adv-x="544" d="M260 386 L360 448 L394 394 L260 312 L260 108 Q260 79 277.5 66.5 Q295 54 346 54 Q382 54 406 60 Q430 66 444.5 79 Q459 92 467 112 Q475 132 480 160 L526 160 Q525 148 524 126 Q523 104 522 80 Q521 56 520.5 34 Q520 12 520 0 L34 0 L34 35 L95 54 L95 211 L48 182 L15 236 L95 285 L95 520 Q95 535 93.5 545.5 Q92 556 85.5 564 Q79 572 66 578 Q53 584 31 590 L31 625 Q43 625 61 624.5 Q79 624 98.5 623.5 Q118 623 137 622.5 Q156 622 171 622 Q187 622 209 622.5 Q231 623 252 623.5 Q273 624 291.5 624.5 Q310 625 321 625 L321 590 L260 571 L260 386 Z " />
<glyph glyph-name="Ldot" unicode="&#x13f;" horiz-adv-x="544" d="M260 108 Q260 79 277.5 66.5 Q295 54 346 54 Q382 54 406 60 Q430 66 444.5 79 Q459 92 467 112 Q475 132 480 160 L526 160 Q525 148 524 126 Q523 104 522 80 Q521 56 520.5 34 Q520 12 520 0 L34 0 L34 35 L95 54 L95 520 Q95 535 93.5 545.5 Q92 556 85.5 564 Q79 572 66 578 Q53 584 31 590 L31 625 Q43 625 61 624.5 Q79 624 98.5 623.5 Q118 623 137 622.5 Q156 622 171 622 Q187 622 209 622.5 Q231 623 252 623.5 Q273 624 291.5 624.5 Q310 625 321 625 L321 590 L260 571 L260 108 Z M379 334 Q379 363 399.5 384 Q420 405 449 405 Q478 405 499 384 Q520 363 520 334 Q520 305 499 284.5 Q478 264 449 264 Q420 264 399.5 284.5 Q379 305 379 334 Z " />
<glyph glyph-name="Nacute" unicode="&#x143;" horiz-adv-x="706" d="M543 520 Q543 535 541.5 545.5 Q540 556 533.5 564 Q527 572 514 578 Q501 584 479 590 L479 625 Q504 624 528.5 623 Q553 622 575 622 Q598 622 627.5 623 Q657 624 678 625 L678 590 L617 571 L617 -1 L498 -1 L169 445 L169 105 Q169 90 170.5 79.5 Q172 69 178.5 61 Q185 53 198 47 Q211 41 233 35 L233 0 Q208 1 183.5 2 Q159 3 137 3 Q114 3 84.5 2 Q55 1 34 0 L34 35 L95 54 L95 520 Q95 535 93 545.5 Q91 556 84.5 564 Q78 572 65 578 Q52 584 30 590 L30 625 L236 625 L543 209 L543 520 Z M488 745 L267 666 L255 690 L398 803 Q420 820 433 820 Q443 820 449.5 814.5 Q456 809 462 801 L493 760 L488 745 Z " />
<glyph glyph-name="Ncaron" unicode="&#x147;" horiz-adv-x="706" d="M543 520 Q543 535 541.5 545.5 Q540 556 533.5 564 Q527 572 514 578 Q501 584 479 590 L479 625 Q504 624 528.5 623 Q553 622 575 622 Q598 622 627.5 623 Q657 624 678 625 L678 590 L617 571 L617 -1 L498 -1 L169 445 L169 105 Q169 90 170.5 79.5 Q172 69 178.5 61 Q185 53 198 47 Q211 41 233 35 L233 0 Q208 1 183.5 2 Q159 3 137 3 Q114 3 84.5 2 Q55 1 34 0 L34 35 L95 54 L95 520 Q95 535 93 545.5 Q91 556 84.5 564 Q78 572 65 578 Q52 584 30 590 L30 625 L236 625 L543 209 L543 520 Z M323 676 L219 804 L241 825 L363 749 L485 825 L507 804 L403 676 L323 676 Z " />
<glyph glyph-name="Ntilde" unicode="&#xd1;" horiz-adv-x="706" d="M543 520 Q543 535 541.5 545.5 Q540 556 533.5 564 Q527 572 514 578 Q501 584 479 590 L479 625 Q504 624 528.5 623 Q553 622 575 622 Q598 622 627.5 623 Q657 624 678 625 L678 590 L617 571 L617 -1 L498 -1 L169 445 L169 105 Q169 90 170.5 79.5 Q172 69 178.5 61 Q185 53 198 47 Q211 41 233 35 L233 0 Q208 1 183.5 2 Q159 3 137 3 Q114 3 84.5 2 Q55 1 34 0 L34 35 L95 54 L95 520 Q95 535 93 545.5 Q91 556 84.5 564 Q78 572 65 578 Q52 584 30 590 L30 625 L236 625 L543 209 L543 520 Z M512 792 Q505 735 478.5 708.5 Q452 682 417 682 Q398 682 381 688 Q364 694 348.5 701.5 Q333 709 318.5 715 Q304 721 290 721 Q258 721 246 684 L210 691 Q217 748 243.5 774.5 Q270 801 305 801 Q324 801 341 795 Q358 789 373.5 781.5 Q389 774 403.5 768 Q418 762 432 762 Q464 762 476 799 L512 792 Z " />
<glyph glyph-name="Ncommaaccent" unicode="&#x145;" horiz-adv-x="706" d="M543 520 Q543 535 541.5 545.5 Q540 556 533.5 564 Q527 572 514 578 Q501 584 479 590 L479 625 Q504 624 528.5 623 Q553 622 575 622 Q598 622 627.5 623 Q657 624 678 625 L678 590 L617 571 L617 -1 L498 -1 L169 445 L169 105 Q169 90 170.5 79.5 Q172 69 178.5 61 Q185 53 198 47 Q211 41 233 35 L233 0 Q208 1 183.5 2 Q159 3 137 3 Q114 3 84.5 2 Q55 1 34 0 L34 35 L95 54 L95 520 Q95 535 93 545.5 Q91 556 84.5 564 Q78 572 65 578 Q52 584 30 590 L30 625 L236 625 L543 209 L543 520 Z M437 -139 Q437 -184 407.5 -233 Q378 -282 320 -317 L302 -291 Q328 -266 345.5 -240 Q363 -214 363 -195 Q363 -181 353 -172 Q343 -163 331 -154 Q319 -145 309 -134 Q299 -123 299 -104 Q299 -82 315 -66 Q331 -50 361 -50 Q396 -50 416.5 -74.5 Q437 -99 437 -139 Z " />
<glyph glyph-name="Eng" unicode="&#x14a;" horiz-adv-x="709" d="M457 -76 Q519 -76 538 -23 L169 445 L169 105 Q169 90 170.5 79.5 Q172 69 178.5 61 Q185 53 198 47 Q211 41 233 35 L233 0 Q208 1 183.5 2 Q159 3 137 3 Q114 3 84.5 2 Q55 1 34 0 L34 35 L95 54 L95 520 Q95 535 93 545.5 Q91 556 84.5 564 Q78 572 65 578 Q52 584 30 590 L30 625 L236 625 L546 233 L546 520 Q546 535 544.5 545.5 Q543 556 536.5 564 Q530 572 517 578 Q504 584 482 590 L482 625 Q507 624 531.5 623 Q556 622 578 622 Q601 622 630.5 623 Q660 624 681 625 L681 590 L620 571 L620 42 Q620 -11 610.5 -54 Q601 -97 580.5 -128.5 Q560 -160 528 -177 Q496 -194 451 -194 Q419 -194 392.5 -186.5 Q366 -179 345 -168 Q337 -163 334.5 -158.5 Q332 -154 333 -146 L344 -53 L361 -47 Q387 -62 409 -69 Q431 -76 457 -76 Z " />
<glyph glyph-name="Ograve" unicode="&#xd2;" horiz-adv-x="672" d="M640 312 Q640 240 619.5 179.5 Q599 119 560 75.5 Q521 32 464.5 8 Q408 -16 336 -16 Q264 -16 207.5 8 Q151 32 112 75.5 Q73 119 52.5 179.5 Q32 240 32 312 Q32 384 52.5 444.5 Q73 505 112 548.5 Q151 592 207.5 616 Q264 640 336 640 Q408 640 464.5 616 Q521 592 560 548.5 Q599 505 619.5 444.5 Q640 384 640 312 Z M465 312 Q465 372 457.5 420.5 Q450 469 434 503.5 Q418 538 393.5 556.5 Q369 575 336 575 Q303 575 278.5 556.5 Q254 538 238 503.5 Q222 469 214.5 420.5 Q207 372 207 312 Q207 252 214.5 203.5 Q222 155 238 120.5 Q254 86 278.5 67.5 Q303 49 336 49 Q369 49 393.5 67.5 Q418 86 434 120.5 Q450 155 457.5 203.5 Q465 252 465 312 Z M225 760 L256 801 Q262 809 268.5 814.5 Q275 820 285 820 Q298 820 320 803 L463 690 L451 666 L230 745 L225 760 Z " />
<glyph glyph-name="Oacute" unicode="&#xd3;" horiz-adv-x="672" d="M640 312 Q640 240 619.5 179.5 Q599 119 560 75.5 Q521 32 464.5 8 Q408 -16 336 -16 Q264 -16 207.5 8 Q151 32 112 75.5 Q73 119 52.5 179.5 Q32 240 32 312 Q32 384 52.5 444.5 Q73 505 112 548.5 Q151 592 207.5 616 Q264 640 336 640 Q408 640 464.5 616 Q521 592 560 548.5 Q599 505 619.5 444.5 Q640 384 640 312 Z M465 312 Q465 372 457.5 420.5 Q450 469 434 503.5 Q418 538 393.5 556.5 Q369 575 336 575 Q303 575 278.5 556.5 Q254 538 238 503.5 Q222 469 214.5 420.5 Q207 372 207 312 Q207 252 214.5 203.5 Q222 155 238 120.5 Q254 86 278.5 67.5 Q303 49 336 49 Q369 49 393.5 67.5 Q418 86 434 120.5 Q450 155 457.5 203.5 Q465 252 465 312 Z M451 745 L230 666 L218 690 L361 803 Q383 820 396 820 Q406 820 412.5 814.5 Q419 809 425 801 L456 760 L451 745 Z " />
<glyph glyph-name="Ocircumflex" unicode="&#xd4;" horiz-adv-x="672" d="M640 312 Q640 240 619.5 179.5 Q599 119 560 75.5 Q521 32 464.5 8 Q408 -16 336 -16 Q264 -16 207.5 8 Q151 32 112 75.5 Q73 119 52.5 179.5 Q32 240 32 312 Q32 384 52.5 444.5 Q73 505 112 548.5 Q151 592 207.5 616 Q264 640 336 640 Q408 640 464.5 616 Q521 592 560 548.5 Q599 505 619.5 444.5 Q640 384 640 312 Z M465 312 Q465 372 457.5 420.5 Q450 469 434 503.5 Q418 538 393.5 556.5 Q369 575 336 575 Q303 575 278.5 556.5 Q254 538 238 503.5 Q222 469 214.5 420.5 Q207 372 207 312 Q207 252 214.5 203.5 Q222 155 238 120.5 Q254 86 278.5 67.5 Q303 49 336 49 Q369 49 393.5 67.5 Q418 86 434 120.5 Q450 155 457.5 203.5 Q465 252 465 312 Z M376 815 L480 687 L458 666 L336 742 L214 666 L192 687 L296 815 L376 815 Z " />
<glyph glyph-name="Otilde" unicode="&#xd5;" horiz-adv-x="672" d="M640 312 Q640 240 619.5 179.5 Q599 119 560 75.5 Q521 32 464.5 8 Q408 -16 336 -16 Q264 -16 207.5 8 Q151 32 112 75.5 Q73 119 52.5 179.5 Q32 240 32 312 Q32 384 52.5 444.5 Q73 505 112 548.5 Q151 592 207.5 616 Q264 640 336 640 Q408 640 464.5 616 Q521 592 560 548.5 Q599 505 619.5 444.5 Q640 384 640 312 Z M465 312 Q465 372 457.5 420.5 Q450 469 434 503.5 Q418 538 393.5 556.5 Q369 575 336 575 Q303 575 278.5 556.5 Q254 538 238 503.5 Q222 469 214.5 420.5 Q207 372 207 312 Q207 252 214.5 203.5 Q222 155 238 120.5 Q254 86 278.5 67.5 Q303 49 336 49 Q369 49 393.5 67.5 Q418 86 434 120.5 Q450 155 457.5 203.5 Q465 252 465 312 Z M487 792 Q480 735 453.5 708.5 Q427 682 392 682 Q373 682 356 688 Q339 694 323.5 701.5 Q308 709 293.5 715 Q279 721 265 721 Q233 721 221 684 L185 691 Q192 748 218.5 774.5 Q245 801 280 801 Q299 801 316 795 Q333 789 348.5 781.5 Q364 774 378.5 768 Q393 762 407 762 Q439 762 451 799 L487 792 Z " />
<glyph glyph-name="Odieresis" unicode="&#xd6;" horiz-adv-x="672" d="M640 312 Q640 240 619.5 179.5 Q599 119 560 75.5 Q521 32 464.5 8 Q408 -16 336 -16 Q264 -16 207.5 8 Q151 32 112 75.5 Q73 119 52.5 179.5 Q32 240 32 312 Q32 384 52.5 444.5 Q73 505 112 548.5 Q151 592 207.5 616 Q264 640 336 640 Q408 640 464.5 616 Q521 592 560 548.5 Q599 505 619.5 444.5 Q640 384 640 312 Z M465 312 Q465 372 457.5 420.5 Q450 469 434 503.5 Q418 538 393.5 556.5 Q369 575 336 575 Q303 575 278.5 556.5 Q254 538 238 503.5 Q222 469 214.5 420.5 Q207 372 207 312 Q207 252 214.5 203.5 Q222 155 238 120.5 Q254 86 278.5 67.5 Q303 49 336 49 Q369 49 393.5 67.5 Q418 86 434 120.5 Q450 155 457.5 203.5 Q465 252 465 312 Z M182 741 Q182 767 200 785 Q218 803 244 803 Q270 803 288 785 Q306 767 306 741 Q306 715 288 697 Q270 679 244 679 Q218 679 200 697 Q182 715 182 741 Z M365 741 Q365 767 383 785 Q401 803 427 803 Q453 803 471 785 Q489 767 489 741 Q489 715 471 697 Q453 679 427 679 Q401 679 383 697 Q365 715 365 741 Z " />
<glyph glyph-name="Omacron" unicode="&#x14c;" horiz-adv-x="672" d="M640 312 Q640 240 619.5 179.5 Q599 119 560 75.5 Q521 32 464.5 8 Q408 -16 336 -16 Q264 -16 207.5 8 Q151 32 112 75.5 Q73 119 52.5 179.5 Q32 240 32 312 Q32 384 52.5 444.5 Q73 505 112 548.5 Q151 592 207.5 616 Q264 640 336 640 Q408 640 464.5 616 Q521 592 560 548.5 Q599 505 619.5 444.5 Q640 384 640 312 Z M465 312 Q465 372 457.5 420.5 Q450 469 434 503.5 Q418 538 393.5 556.5 Q369 575 336 575 Q303 575 278.5 556.5 Q254 538 238 503.5 Q222 469 214.5 420.5 Q207 372 207 312 Q207 252 214.5 203.5 Q222 155 238 120.5 Q254 86 278.5 67.5 Q303 49 336 49 Q369 49 393.5 67.5 Q418 86 434 120.5 Q450 155 457.5 203.5 Q465 252 465 312 Z M205 691 L205 757 L467 757 L467 691 L205 691 Z " />
<glyph glyph-name="Obreve" unicode="&#x14e;" horiz-adv-x="672" d="M640 312 Q640 240 619.5 179.5 Q599 119 560 75.5 Q521 32 464.5 8 Q408 -16 336 -16 Q264 -16 207.5 8 Q151 32 112 75.5 Q73 119 52.5 179.5 Q32 240 32 312 Q32 384 52.5 444.5 Q73 505 112 548.5 Q151 592 207.5 616 Q264 640 336 640 Q408 640 464.5 616 Q521 592 560 548.5 Q599 505 619.5 444.5 Q640 384 640 312 Z M465 312 Q465 372 457.5 420.5 Q450 469 434 503.5 Q418 538 393.5 556.5 Q369 575 336 575 Q303 575 278.5 556.5 Q254 538 238 503.5 Q222 469 214.5 420.5 Q207 372 207 312 Q207 252 214.5 203.5 Q222 155 238 120.5 Q254 86 278.5 67.5 Q303 49 336 49 Q369 49 393.5 67.5 Q418 86 434 120.5 Q450 155 457.5 203.5 Q465 252 465 312 Z M336 675 Q277 675 244.5 711 Q212 747 212 802 L253 802 Q260 775 282 762 Q304 749 336 749 Q368 749 390 762 Q412 775 419 802 L460 802 Q460 747 427.5 711 Q395 675 336 675 Z " />
<glyph glyph-name="Ohungarumlaut" unicode="&#x150;" horiz-adv-x="672" d="M640 312 Q640 240 619.5 179.5 Q599 119 560 75.5 Q521 32 464.5 8 Q408 -16 336 -16 Q264 -16 207.5 8 Q151 32 112 75.5 Q73 119 52.5 179.5 Q32 240 32 312 Q32 384 52.5 444.5 Q73 505 112 548.5 Q151 592 207.5 616 Q264 640 336 640 Q408 640 464.5 616 Q521 592 560 548.5 Q599 505 619.5 444.5 Q640 384 640 312 Z M465 312 Q465 372 457.5 420.5 Q450 469 434 503.5 Q418 538 393.5 556.5 Q369 575 336 575 Q303 575 278.5 556.5 Q254 538 238 503.5 Q222 469 214.5 420.5 Q207 372 207 312 Q207 252 214.5 203.5 Q222 155 238 120.5 Q254 86 278.5 67.5 Q303 49 336 49 Q369 49 393.5 67.5 Q418 86 434 120.5 Q450 155 457.5 203.5 Q465 252 465 312 Z M352 748 L164 665 L152 685 L269 797 Q279 806 287 811 Q295 816 303 816 Q316 816 327 800 L355 762 L352 748 Z M537 748 L349 665 L337 685 L454 797 Q464 806 472 811 Q480 816 488 816 Q501 816 512 800 L540 762 L537 748 Z " />
<glyph glyph-name="Oslash" unicode="&#xd8;" horiz-adv-x="672" d="M640 312 Q640 240 619.5 179.5 Q599 119 560 75.5 Q521 32 464.5 8 Q408 -16 336 -16 Q268 -16 210 6 L185 -45 L120 -45 L159 34 Q96 76 64 147.5 Q32 219 32 312 Q32 384 52.5 444.5 Q73 505 112 548.5 Q151 592 207.5 616 Q264 640 336 640 Q398 640 449 622 L473 670 L538 670 L502 597 Q569 555 604.5 482 Q640 409 640 312 Z M465 312 Q465 362 459.5 404 Q454 446 443 478 L253 94 Q286 49 336 49 Q369 49 393.5 67.5 Q418 86 434 120.5 Q450 155 457.5 203.5 Q465 252 465 312 Z M207 312 Q207 268 211 231 Q215 194 223 164 L409 541 Q380 575 336 575 Q303 575 278.5 556.5 Q254 538 238 503.5 Q222 469 214.5 420.5 Q207 372 207 312 Z " />
<glyph glyph-name="Oslashacute" unicode="&#x1fe;" horiz-adv-x="672" d="M640 312 Q640 240 619.5 179.5 Q599 119 560 75.5 Q521 32 464.5 8 Q408 -16 336 -16 Q268 -16 210 6 L185 -45 L120 -45 L159 34 Q96 76 64 147.5 Q32 219 32 312 Q32 384 52.5 444.5 Q73 505 112 548.5 Q151 592 207.5 616 Q264 640 336 640 Q398 640 449 622 L473 670 L538 670 L502 597 Q569 555 604.5 482 Q640 409 640 312 Z M465 312 Q465 362 459.5 404 Q454 446 443 478 L253 94 Q286 49 336 49 Q369 49 393.5 67.5 Q418 86 434 120.5 Q450 155 457.5 203.5 Q465 252 465 312 Z M207 312 Q207 268 211 231 Q215 194 223 164 L409 541 Q380 575 336 575 Q303 575 278.5 556.5 Q254 538 238 503.5 Q222 469 214.5 420.5 Q207 372 207 312 Z M453 745 L232 666 L220 690 L363 803 Q385 820 398 820 Q408 820 414.5 814.5 Q421 809 427 801 L458 760 L453 745 Z " />
<glyph glyph-name="OE" unicode="&#x152;" horiz-adv-x="913" d="M587 0 Q546 0 513 -2 Q480 -4 452 -7 Q424 -10 398 -12 Q372 -14 344 -14 Q190 -14 111 71 Q73 113 52.5 173 Q32 233 32 313 Q32 393 52.5 453 Q73 513 111 555 Q190 640 344 640 Q372 640 398 637.5 Q424 635 452 632.5 Q480 630 513 627.5 Q546 625 587 625 L848 625 Q848 610 849.5 587 Q851 564 853 540 Q855 516 856.5 495 Q858 474 860 462 L810 462 Q806 492 799 513 Q792 534 777.5 546.5 Q763 559 739 565 Q715 571 679 571 Q654 571 633 570.5 Q612 570 599 569 L599 347 L631 347 Q652 347 674 348 Q696 349 716.5 350.5 Q737 352 753.5 354 Q770 356 781 358 L774 282 Q757 284 716.5 287 Q676 290 631 290 L599 290 L599 108 Q599 79 618 66.5 Q637 54 691 54 Q728 54 753 60 Q778 66 793.5 79 Q809 92 817.5 112 Q826 132 831 160 L877 160 Q876 148 875 126 Q874 104 873 80 Q872 56 871.5 34 Q871 12 871 0 L587 0 Z M434 502 Q434 525 429.5 537 Q425 549 416 558 Q405 568 387.5 573 Q370 578 350 578 Q310 578 283.5 559 Q257 540 240 505 Q223 470 215.5 421.5 Q208 373 208 313 Q208 253 215.5 204.5 Q223 156 240 121 Q257 86 283.5 67 Q310 48 350 48 Q370 48 387.5 53 Q405 58 416 68 Q425 77 429.5 89 Q434 101 434 124 L434 502 Z " />
<glyph glyph-name="Thorn" unicode="&#xde;" horiz-adv-x="598" d="M260 508 L294 508 Q373 508 430.5 494.5 Q488 481 522 449 Q568 406 568 326 Q568 238 502 185.5 Q436 133 297 133 L260 133 L260 105 Q260 90 261.5 79.5 Q263 69 269.5 61 Q276 53 289 47 Q302 41 324 35 L324 0 Q312 0 294 0.5 Q276 1 256.5 1.5 Q237 2 218 2.5 Q199 3 184 3 Q167 3 145.5 2.5 Q124 2 103 1.5 Q82 1 63 0.5 Q44 0 34 0 L34 35 L95 54 L95 520 Q95 535 93.5 545.5 Q92 556 85.5 564 Q79 572 66 578 Q53 584 31 590 L31 625 Q43 625 61 624.5 Q79 624 98.5 623.5 Q118 623 137 622.5 Q156 622 171 622 Q187 622 209 622.5 Q231 623 252 623.5 Q273 624 291.5 624.5 Q310 625 321 625 L321 590 L260 571 L260 508 Z M260 452 L260 188 L279 188 Q397 188 397 326 Q397 387 368 419.5 Q339 452 272 452 L260 452 Z " />
<glyph glyph-name="Racute" unicode="&#x154;" horiz-adv-x="651" d="M288 625 Q369 625 427.5 613 Q486 601 522 571 Q570 531 570 458 Q570 398 534.5 357.5 Q499 317 436 302 Q454 297 468 289.5 Q482 282 493 271 Q504 260 513 244 Q522 228 530 206 L562 113 Q569 93 575.5 79.5 Q582 66 591.5 57.5 Q601 49 614 43.5 Q627 38 647 35 L647 0 L415 0 Q415 25 411.5 47 Q408 69 396 105 L369 186 Q361 210 353 225.5 Q345 241 334.5 250 Q324 259 309 262.5 Q294 266 272 266 L260 266 L260 105 Q260 90 261.5 79.5 Q263 69 269.5 61 Q276 53 289 47 Q302 41 324 35 L324 0 Q312 0 294 0.5 Q276 1 256.5 1.5 Q237 2 218 2.5 Q199 3 184 3 Q167 3 145.5 2.5 Q124 2 103 1.5 Q82 1 63 0.5 Q44 0 34 0 L34 35 L95 54 L95 520 Q95 535 93.5 545.5 Q92 556 85.5 564 Q79 572 66 578 Q53 584 31 590 L31 625 L288 625 Z M260 318 L279 318 Q335 318 367 351 Q399 384 399 447 Q399 513 365.5 541 Q332 569 269 569 L260 569 L260 318 Z M441 745 L220 666 L208 690 L351 803 Q373 820 386 820 Q396 820 402.5 814.5 Q409 809 415 801 L446 760 L441 745 Z " />
<glyph glyph-name="Rcaron" unicode="&#x158;" horiz-adv-x="651" d="M288 625 Q369 625 427.5 613 Q486 601 522 571 Q570 531 570 458 Q570 398 534.5 357.5 Q499 317 436 302 Q454 297 468 289.5 Q482 282 493 271 Q504 260 513 244 Q522 228 530 206 L562 113 Q569 93 575.5 79.5 Q582 66 591.5 57.5 Q601 49 614 43.5 Q627 38 647 35 L647 0 L415 0 Q415 25 411.5 47 Q408 69 396 105 L369 186 Q361 210 353 225.5 Q345 241 334.5 250 Q324 259 309 262.5 Q294 266 272 266 L260 266 L260 105 Q260 90 261.5 79.5 Q263 69 269.5 61 Q276 53 289 47 Q302 41 324 35 L324 0 Q312 0 294 0.5 Q276 1 256.5 1.5 Q237 2 218 2.5 Q199 3 184 3 Q167 3 145.5 2.5 Q124 2 103 1.5 Q82 1 63 0.5 Q44 0 34 0 L34 35 L95 54 L95 520 Q95 535 93.5 545.5 Q92 556 85.5 564 Q79 572 66 578 Q53 584 31 590 L31 625 L288 625 Z M260 318 L279 318 Q335 318 367 351 Q399 384 399 447 Q399 513 365.5 541 Q332 569 269 569 L260 569 L260 318 Z M287 676 L183 804 L205 825 L327 749 L449 825 L471 804 L367 676 L287 676 Z " />
<glyph glyph-name="Rcommaaccent" unicode="&#x156;" horiz-adv-x="651" d="M288 625 Q369 625 427.5 613 Q486 601 522 571 Q570 531 570 458 Q570 398 534.5 357.5 Q499 317 436 302 Q454 297 468 289.5 Q482 282 493 271 Q504 260 513 244 Q522 228 530 206 L562 113 Q569 93 575.5 79.5 Q582 66 591.5 57.5 Q601 49 614 43.5 Q627 38 647 35 L647 0 L415 0 Q415 25 411.5 47 Q408 69 396 105 L369 186 Q361 210 353 225.5 Q345 241 334.5 250 Q324 259 309 262.5 Q294 266 272 266 L260 266 L260 105 Q260 90 261.5 79.5 Q263 69 269.5 61 Q276 53 289 47 Q302 41 324 35 L324 0 Q312 0 294 0.5 Q276 1 256.5 1.5 Q237 2 218 2.5 Q199 3 184 3 Q167 3 145.5 2.5 Q124 2 103 1.5 Q82 1 63 0.5 Q44 0 34 0 L34 35 L95 54 L95 520 Q95 535 93.5 545.5 Q92 556 85.5 564 Q79 572 66 578 Q53 584 31 590 L31 625 L288 625 Z M260 318 L279 318 Q335 318 367 351 Q399 384 399 447 Q399 513 365.5 541 Q332 569 269 569 L260 569 L260 318 Z M408 -139 Q408 -184 378.5 -233 Q349 -282 291 -317 L273 -291 Q299 -266 316.5 -240 Q334 -214 334 -195 Q334 -181 324 -172 Q314 -163 302 -154 Q290 -145 280 -134 Q270 -123 270 -104 Q270 -82 286 -66 Q302 -50 332 -50 Q367 -50 387.5 -74.5 Q408 -99 408 -139 Z " />
<glyph glyph-name="Sacute" unicode="&#x15a;" horiz-adv-x="533" d="M115 182 Q124 116 157.5 79 Q191 42 250 42 Q298 42 324.5 68 Q351 94 351 131 Q351 162 329 182.5 Q307 203 274.5 220.5 Q242 238 203.5 256 Q165 274 132.5 299 Q100 324 78 360 Q56 396 56 450 Q56 496 74.5 531 Q93 566 125 590 Q157 614 199.5 626 Q242 638 290 638 Q332 638 371.5 631 Q411 624 454 620 Q454 607 454.5 585.5 Q455 564 456 540.5 Q457 517 458 494 Q459 471 460 456 L411 456 Q404 514 376 546 Q348 578 293 578 Q249 578 222.5 555 Q196 532 196 495 Q196 463 218 441.5 Q240 420 272.5 402.5 Q305 385 343.5 367.5 Q382 350 414.5 325 Q447 300 469 265 Q491 230 491 177 Q491 131 472.5 94.5 Q454 58 422 33 Q390 8 346.5 -5 Q303 -18 254 -18 Q206 -18 154.5 -8.5 Q103 1 65 18 L65 182 L115 182 Z M390 745 L169 666 L157 690 L300 803 Q322 820 335 820 Q345 820 351.5 814.5 Q358 809 364 801 L395 760 L390 745 Z " />
<glyph glyph-name="Scircumflex" unicode="&#x15c;" horiz-adv-x="533" d="M115 182 Q124 116 157.5 79 Q191 42 250 42 Q298 42 324.5 68 Q351 94 351 131 Q351 162 329 182.5 Q307 203 274.5 220.5 Q242 238 203.5 256 Q165 274 132.5 299 Q100 324 78 360 Q56 396 56 450 Q56 496 74.5 531 Q93 566 125 590 Q157 614 199.5 626 Q242 638 290 638 Q332 638 371.5 631 Q411 624 454 620 Q454 607 454.5 585.5 Q455 564 456 540.5 Q457 517 458 494 Q459 471 460 456 L411 456 Q404 514 376 546 Q348 578 293 578 Q249 578 222.5 555 Q196 532 196 495 Q196 463 218 441.5 Q240 420 272.5 402.5 Q305 385 343.5 367.5 Q382 350 414.5 325 Q447 300 469 265 Q491 230 491 177 Q491 131 472.5 94.5 Q454 58 422 33 Q390 8 346.5 -5 Q303 -18 254 -18 Q206 -18 154.5 -8.5 Q103 1 65 18 L65 182 L115 182 Z M317 815 L421 687 L399 666 L277 742 L155 666 L133 687 L237 815 L317 815 Z " />
<glyph glyph-name="Scaron" unicode="&#x160;" horiz-adv-x="533" d="M115 182 Q124 116 157.5 79 Q191 42 250 42 Q298 42 324.5 68 Q351 94 351 131 Q351 162 329 182.5 Q307 203 274.5 220.5 Q242 238 203.5 256 Q165 274 132.5 299 Q100 324 78 360 Q56 396 56 450 Q56 496 74.5 531 Q93 566 125 590 Q157 614 199.5 626 Q242 638 290 638 Q332 638 371.5 631 Q411 624 454 620 Q454 607 454.5 585.5 Q455 564 456 540.5 Q457 517 458 494 Q459 471 460 456 L411 456 Q404 514 376 546 Q348 578 293 578 Q249 578 222.5 555 Q196 532 196 495 Q196 463 218 441.5 Q240 420 272.5 402.5 Q305 385 343.5 367.5 Q382 350 414.5 325 Q447 300 469 265 Q491 230 491 177 Q491 131 472.5 94.5 Q454 58 422 33 Q390 8 346.5 -5 Q303 -18 254 -18 Q206 -18 154.5 -8.5 Q103 1 65 18 L65 182 L115 182 Z M238 676 L134 804 L156 825 L278 749 L400 825 L422 804 L318 676 L238 676 Z " />
<glyph glyph-name="Scedilla" unicode="&#x15e;" horiz-adv-x="533" d="M365 -123 Q365 -155 348.5 -177.5 Q332 -200 305.5 -214.5 Q279 -229 245.5 -235 Q212 -241 177 -239 L172 -200 Q220 -194 248.5 -175 Q277 -156 277 -127 Q277 -109 266 -98 Q255 -87 226 -81 Q215 -79 210.5 -74.5 Q206 -70 211 -58 L225 -17 Q182 -14 139.5 -4.5 Q97 5 65 18 L65 182 L115 182 Q124 116 157.5 79 Q191 42 250 42 Q298 42 324.5 68 Q351 94 351 131 Q351 163 329 183.5 Q307 204 274.5 221.5 Q242 239 203.5 257 Q165 275 132.5 300 Q100 325 78 360.5 Q56 396 56 450 Q56 496 74.5 531 Q93 566 124.5 590 Q156 614 198.5 626 Q241 638 290 638 Q332 638 371.5 631 Q411 624 454 620 Q454 607 454.5 585.5 Q455 564 456 540.5 Q457 517 458 494 Q459 471 460 456 L411 456 Q404 514 376 546 Q348 578 293 578 Q249 578 222.5 555 Q196 532 196 495 Q196 462 218 440.5 Q240 419 272.5 401 Q305 383 343.5 365.5 Q382 348 414.5 323.5 Q447 299 469 264 Q491 229 491 177 Q491 134 475 100 Q459 66 431 41 Q403 16 364.5 1.5 Q326 -13 282 -17 L276 -36 Q313 -43 339 -64 Q365 -85 365 -123 Z " />
<glyph glyph-name="Scommaaccent" unicode="&#x218;" horiz-adv-x="533" d="M115 182 Q124 116 157.5 79 Q191 42 250 42 Q298 42 324.5 68 Q351 94 351 131 Q351 162 329 182.5 Q307 203 274.5 220.5 Q242 238 203.5 256 Q165 274 132.5 299 Q100 324 78 360 Q56 396 56 450 Q56 496 74.5 531 Q93 566 125 590 Q157 614 199.5 626 Q242 638 290 638 Q332 638 371.5 631 Q411 624 454 620 Q454 607 454.5 585.5 Q455 564 456 540.5 Q457 517 458 494 Q459 471 460 456 L411 456 Q404 514 376 546 Q348 578 293 578 Q249 578 222.5 555 Q196 532 196 495 Q196 463 218 441.5 Q240 420 272.5 402.5 Q305 385 343.5 367.5 Q382 350 414.5 325 Q447 300 469 265 Q491 230 491 177 Q491 131 472.5 94.5 Q454 58 422 33 Q390 8 346.5 -5 Q303 -18 254 -18 Q206 -18 154.5 -8.5 Q103 1 65 18 L65 182 L115 182 Z M336 -139 Q336 -184 306.5 -233 Q277 -282 219 -317 L201 -291 Q227 -266 244.5 -240 Q262 -214 262 -195 Q262 -181 252 -172 Q242 -163 230 -154 Q218 -145 208 -134 Q198 -123 198 -104 Q198 -82 214 -66 Q230 -50 260 -50 Q295 -50 315.5 -74.5 Q336 -99 336 -139 Z " />
<glyph glyph-name="Tcaron" unicode="&#x164;" horiz-adv-x="619" d="M554 448 Q548 485 539.5 508 Q531 531 517.5 544.5 Q504 558 484 563 Q464 568 434 568 L392 568 L392 105 Q392 90 393.5 79.5 Q395 69 401.5 61 Q408 53 421 47 Q434 41 456 35 L456 0 Q444 0 426 0.5 Q408 1 388.5 1.5 Q369 2 350 2.5 Q331 3 316 3 Q299 3 277.5 2.5 Q256 2 235 1.5 Q214 1 195 0.5 Q176 0 166 0 L166 35 L227 54 L227 568 L185 568 Q155 568 135 563 Q115 558 101.5 544.5 Q88 531 79.5 508 Q71 485 65 448 L18 448 Q19 461 20 485 Q21 509 22 535 Q23 561 23.5 585.5 Q24 610 24 625 L595 625 Q595 610 595.5 585.5 Q596 561 597 535 Q598 509 599 485 Q600 461 601 448 L554 448 Z M269 676 L165 804 L187 825 L309 749 L431 825 L453 804 L349 676 L269 676 Z " />
<glyph glyph-name="Tcommaaccent" unicode="&#x162;" horiz-adv-x="619" d="M554 448 Q548 485 539.5 508 Q531 531 517.5 544.5 Q504 558 484 563 Q464 568 434 568 L392 568 L392 105 Q392 90 393.5 79.5 Q395 69 401.5 61 Q408 53 421 47 Q434 41 456 35 L456 0 Q444 0 426 0.5 Q408 1 388.5 1.5 Q369 2 350 2.5 Q331 3 316 3 Q299 3 277.5 2.5 Q256 2 235 1.5 Q214 1 195 0.5 Q176 0 166 0 L166 35 L227 54 L227 568 L185 568 Q155 568 135 563 Q115 558 101.5 544.5 Q88 531 79.5 508 Q71 485 65 448 L18 448 Q19 461 20 485 Q21 509 22 535 Q23 561 23.5 585.5 Q24 610 24 625 L595 625 Q595 610 595.5 585.5 Q596 561 597 535 Q598 509 599 485 Q600 461 601 448 L554 448 Z M387 -139 Q387 -184 357.5 -233 Q328 -282 270 -317 L252 -291 Q278 -266 295.5 -240 Q313 -214 313 -195 Q313 -181 303 -172 Q293 -163 281 -154 Q269 -145 259 -134 Q249 -123 249 -104 Q249 -82 265 -66 Q281 -50 311 -50 Q346 -50 366.5 -74.5 Q387 -99 387 -139 Z " />
<glyph glyph-name="uni021A" unicode="&#x21a;" horiz-adv-x="619" d="M554 448 Q548 485 539.5 508 Q531 531 517.5 544.5 Q504 558 484 563 Q464 568 434 568 L392 568 L392 105 Q392 90 393.5 79.5 Q395 69 401.5 61 Q408 53 421 47 Q434 41 456 35 L456 0 Q444 0 426 0.5 Q408 1 388.5 1.5 Q369 2 350 2.5 Q331 3 316 3 Q299 3 277.5 2.5 Q256 2 235 1.5 Q214 1 195 0.5 Q176 0 166 0 L166 35 L227 54 L227 568 L185 568 Q155 568 135 563 Q115 558 101.5 544.5 Q88 531 79.5 508 Q71 485 65 448 L18 448 Q19 461 20 485 Q21 509 22 535 Q23 561 23.5 585.5 Q24 610 24 625 L595 625 Q595 610 595.5 585.5 Q596 561 597 535 Q598 509 599 485 Q600 461 601 448 L554 448 Z M387 -139 Q387 -184 357.5 -233 Q328 -282 270 -317 L252 -291 Q278 -266 295.5 -240 Q313 -214 313 -195 Q313 -181 303 -172 Q293 -163 281 -154 Q269 -145 259 -134 Q249 -123 249 -104 Q249 -82 265 -66 Q281 -50 311 -50 Q346 -50 366.5 -74.5 Q387 -99 387 -139 Z " />
<glyph glyph-name="Tbar" unicode="&#x166;" horiz-adv-x="619" d="M554 448 Q548 485 539.5 508 Q531 531 517.5 544.5 Q504 558 484 563 Q464 568 434 568 L392 568 L392 352 L505 352 L505 292 L392 292 L392 105 Q392 90 393.5 79.5 Q395 69 401.5 61 Q408 53 421 47 Q434 41 456 35 L456 0 Q444 0 426 0.5 Q408 1 388.5 1.5 Q369 2 350 2.5 Q331 3 316 3 Q299 3 277.5 2.5 Q256 2 235 1.5 Q214 1 195 0.5 Q176 0 166 0 L166 35 L227 54 L227 292 L114 292 L114 352 L227 352 L227 568 L185 568 Q155 568 135 563 Q115 558 101 544.5 Q87 531 78.5 508 Q70 485 64 448 L18 448 Q19 461 20 485 Q21 509 22 535 Q23 561 23.5 585.5 Q24 610 24 625 L595 625 Q595 610 595.5 585.5 Q596 561 597 535 Q598 509 599 485 Q600 461 601 448 L554 448 Z " />
<glyph glyph-name="Ugrave" unicode="&#xd9;" horiz-adv-x="674" d="M250 226 Q250 178 259.5 147 Q269 116 287 96 Q321 59 382 59 Q449 59 483 103 Q498 123 506.5 152 Q515 181 515 226 L515 520 Q515 535 513.5 545.5 Q512 556 505.5 564 Q499 572 486 578 Q473 584 451 590 L451 625 Q476 624 500.5 623 Q525 622 547 622 Q570 622 599.5 623 Q629 624 650 625 L650 590 L589 571 L589 221 Q589 164 575 122 Q561 80 533 50 Q470 -16 344 -16 Q286 -16 235.5 0 Q185 16 152 45 Q119 75 102 120 Q85 165 85 231 L85 520 Q85 535 83.5 545.5 Q82 556 75.5 564 Q69 572 56 578 Q43 584 21 590 L21 625 Q33 625 51 624.5 Q69 624 88.5 623.5 Q108 623 127 622.5 Q146 622 161 622 Q177 622 199 622.5 Q221 623 242 623.5 Q263 624 281.5 624.5 Q300 625 311 625 L311 590 L250 571 L250 226 Z M246 760 L277 801 Q283 809 289.5 814.5 Q296 820 306 820 Q319 820 341 803 L484 690 L472 666 L251 745 L246 760 Z " />
<glyph glyph-name="Uacute" unicode="&#xda;" horiz-adv-x="674" d="M250 226 Q250 178 259.5 147 Q269 116 287 96 Q321 59 382 59 Q449 59 483 103 Q498 123 506.5 152 Q515 181 515 226 L515 520 Q515 535 513.5 545.5 Q512 556 505.5 564 Q499 572 486 578 Q473 584 451 590 L451 625 Q476 624 500.5 623 Q525 622 547 622 Q570 622 599.5 623 Q629 624 650 625 L650 590 L589 571 L589 221 Q589 164 575 122 Q561 80 533 50 Q470 -16 344 -16 Q286 -16 235.5 0 Q185 16 152 45 Q119 75 102 120 Q85 165 85 231 L85 520 Q85 535 83.5 545.5 Q82 556 75.5 564 Q69 572 56 578 Q43 584 21 590 L21 625 Q33 625 51 624.5 Q69 624 88.5 623.5 Q108 623 127 622.5 Q146 622 161 622 Q177 622 199 622.5 Q221 623 242 623.5 Q263 624 281.5 624.5 Q300 625 311 625 L311 590 L250 571 L250 226 Z M489 745 L268 666 L256 690 L399 803 Q421 820 434 820 Q444 820 450.5 814.5 Q457 809 463 801 L494 760 L489 745 Z " />
<glyph glyph-name="Ucircumflex" unicode="&#xdb;" horiz-adv-x="674" d="M250 226 Q250 178 259.5 147 Q269 116 287 96 Q321 59 382 59 Q449 59 483 103 Q498 123 506.5 152 Q515 181 515 226 L515 520 Q515 535 513.5 545.5 Q512 556 505.5 564 Q499 572 486 578 Q473 584 451 590 L451 625 Q476 624 500.5 623 Q525 622 547 622 Q570 622 599.5 623 Q629 624 650 625 L650 590 L589 571 L589 221 Q589 164 575 122 Q561 80 533 50 Q470 -16 344 -16 Q286 -16 235.5 0 Q185 16 152 45 Q119 75 102 120 Q85 165 85 231 L85 520 Q85 535 83.5 545.5 Q82 556 75.5 564 Q69 572 56 578 Q43 584 21 590 L21 625 Q33 625 51 624.5 Q69 624 88.5 623.5 Q108 623 127 622.5 Q146 622 161 622 Q177 622 199 622.5 Q221 623 242 623.5 Q263 624 281.5 624.5 Q300 625 311 625 L311 590 L250 571 L250 226 Z M419 815 L523 687 L501 666 L379 742 L257 666 L235 687 L339 815 L419 815 Z " />
<glyph glyph-name="Utilde" unicode="&#x168;" horiz-adv-x="674" d="M250 226 Q250 178 259.5 147 Q269 116 287 96 Q321 59 382 59 Q449 59 483 103 Q498 123 506.5 152 Q515 181 515 226 L515 520 Q515 535 513.5 545.5 Q512 556 505.5 564 Q499 572 486 578 Q473 584 451 590 L451 625 Q476 624 500.5 623 Q525 622 547 622 Q570 622 599.5 623 Q629 624 650 625 L650 590 L589 571 L589 221 Q589 164 575 122 Q561 80 533 50 Q470 -16 344 -16 Q286 -16 235.5 0 Q185 16 152 45 Q119 75 102 120 Q85 165 85 231 L85 520 Q85 535 83.5 545.5 Q82 556 75.5 564 Q69 572 56 578 Q43 584 21 590 L21 625 Q33 625 51 624.5 Q69 624 88.5 623.5 Q108 623 127 622.5 Q146 622 161 622 Q177 622 199 622.5 Q221 623 242 623.5 Q263 624 281.5 624.5 Q300 625 311 625 L311 590 L250 571 L250 226 Z M522 792 Q515 735 488.5 708.5 Q462 682 427 682 Q408 682 391 688 Q374 694 358.5 701.5 Q343 709 328.5 715 Q314 721 300 721 Q268 721 256 684 L220 691 Q227 748 253.5 774.5 Q280 801 315 801 Q334 801 351 795 Q368 789 383.5 781.5 Q399 774 413.5 768 Q428 762 442 762 Q474 762 486 799 L522 792 Z " />
<glyph glyph-name="Udieresis" unicode="&#xdc;" horiz-adv-x="674" d="M250 226 Q250 178 259.5 147 Q269 116 287 96 Q321 59 382 59 Q449 59 483 103 Q498 123 506.5 152 Q515 181 515 226 L515 520 Q515 535 513.5 545.5 Q512 556 505.5 564 Q499 572 486 578 Q473 584 451 590 L451 625 Q476 624 500.5 623 Q525 622 547 622 Q570 622 599.5 623 Q629 624 650 625 L650 590 L589 571 L589 221 Q589 164 575 122 Q561 80 533 50 Q470 -16 344 -16 Q286 -16 235.5 0 Q185 16 152 45 Q119 75 102 120 Q85 165 85 231 L85 520 Q85 535 83.5 545.5 Q82 556 75.5 564 Q69 572 56 578 Q43 584 21 590 L21 625 Q33 625 51 624.5 Q69 624 88.5 623.5 Q108 623 127 622.5 Q146 622 161 622 Q177 622 199 622.5 Q221 623 242 623.5 Q263 624 281.5 624.5 Q300 625 311 625 L311 590 L250 571 L250 226 Z M225 741 Q225 767 243 785 Q261 803 287 803 Q313 803 331 785 Q349 767 349 741 Q349 715 331 697 Q313 679 287 679 Q261 679 243 697 Q225 715 225 741 Z M408 741 Q408 767 426 785 Q444 803 470 803 Q496 803 514 785 Q532 767 532 741 Q532 715 514 697 Q496 679 470 679 Q444 679 426 697 Q408 715 408 741 Z " />
<glyph glyph-name="Umacron" unicode="&#x16a;" horiz-adv-x="674" d="M250 226 Q250 178 259.5 147 Q269 116 287 96 Q321 59 382 59 Q449 59 483 103 Q498 123 506.5 152 Q515 181 515 226 L515 520 Q515 535 513.5 545.5 Q512 556 505.5 564 Q499 572 486 578 Q473 584 451 590 L451 625 Q476 624 500.5 623 Q525 622 547 622 Q570 622 599.5 623 Q629 624 650 625 L650 590 L589 571 L589 221 Q589 164 575 122 Q561 80 533 50 Q470 -16 344 -16 Q286 -16 235.5 0 Q185 16 152 45 Q119 75 102 120 Q85 165 85 231 L85 520 Q85 535 83.5 545.5 Q82 556 75.5 564 Q69 572 56 578 Q43 584 21 590 L21 625 Q33 625 51 624.5 Q69 624 88.5 623.5 Q108 623 127 622.5 Q146 622 161 622 Q177 622 199 622.5 Q221 623 242 623.5 Q263 624 281.5 624.5 Q300 625 311 625 L311 590 L250 571 L250 226 Z M245 691 L245 757 L507 757 L507 691 L245 691 Z " />
<glyph glyph-name="Ubreve" unicode="&#x16c;" horiz-adv-x="674" d="M250 226 Q250 178 259.5 147 Q269 116 287 96 Q321 59 382 59 Q449 59 483 103 Q498 123 506.5 152 Q515 181 515 226 L515 520 Q515 535 513.5 545.5 Q512 556 505.5 564 Q499 572 486 578 Q473 584 451 590 L451 625 Q476 624 500.5 623 Q525 622 547 622 Q570 622 599.5 623 Q629 624 650 625 L650 590 L589 571 L589 221 Q589 164 575 122 Q561 80 533 50 Q470 -16 344 -16 Q286 -16 235.5 0 Q185 16 152 45 Q119 75 102 120 Q85 165 85 231 L85 520 Q85 535 83.5 545.5 Q82 556 75.5 564 Q69 572 56 578 Q43 584 21 590 L21 625 Q33 625 51 624.5 Q69 624 88.5 623.5 Q108 623 127 622.5 Q146 622 161 622 Q177 622 199 622.5 Q221 623 242 623.5 Q263 624 281.5 624.5 Q300 625 311 625 L311 590 L250 571 L250 226 Z M376 675 Q317 675 284.5 711 Q252 747 252 802 L293 802 Q300 775 322 762 Q344 749 376 749 Q408 749 430 762 Q452 775 459 802 L500 802 Q500 747 467.5 711 Q435 675 376 675 Z " />
<glyph glyph-name="Uring" unicode="&#x16e;" horiz-adv-x="674" d="M250 226 Q250 178 259.5 147 Q269 116 287 96 Q321 59 382 59 Q449 59 483 103 Q498 123 506.5 152 Q515 181 515 226 L515 520 Q515 535 513.5 545.5 Q512 556 505.5 564 Q499 572 486 578 Q473 584 451 590 L451 625 Q476 624 500.5 623 Q525 622 547 622 Q570 622 599.5 623 Q629 624 650 625 L650 590 L589 571 L589 221 Q589 164 575 122 Q561 80 533 50 Q470 -16 344 -16 Q286 -16 235.5 0 Q185 16 152 45 Q119 75 102 120 Q85 165 85 231 L85 520 Q85 535 83.5 545.5 Q82 556 75.5 564 Q69 572 56 578 Q43 584 21 590 L21 625 Q33 625 51 624.5 Q69 624 88.5 623.5 Q108 623 127 622.5 Q146 622 161 622 Q177 622 199 622.5 Q221 623 242 623.5 Q263 624 281.5 624.5 Q300 625 311 625 L311 590 L250 571 L250 226 Z M474 764 Q474 723 446.5 697 Q419 671 379 671 Q339 671 311.5 697 Q284 723 284 764 Q284 805 311.5 831 Q339 857 379 857 Q419 857 446.5 831 Q474 805 474 764 Z M423 764 Q423 787 410 800 Q397 813 379 813 Q361 813 348 800 Q335 787 335 764 Q335 741 348 728 Q361 715 379 715 Q397 715 410 728 Q423 741 423 764 Z " />
<glyph glyph-name="Uhungarumlaut" unicode="&#x170;" horiz-adv-x="674" d="M250 226 Q250 178 259.5 147 Q269 116 287 96 Q321 59 382 59 Q449 59 483 103 Q498 123 506.5 152 Q515 181 515 226 L515 520 Q515 535 513.5 545.5 Q512 556 505.5 564 Q499 572 486 578 Q473 584 451 590 L451 625 Q476 624 500.5 623 Q525 622 547 622 Q570 622 599.5 623 Q629 624 650 625 L650 590 L589 571 L589 221 Q589 164 575 122 Q561 80 533 50 Q470 -16 344 -16 Q286 -16 235.5 0 Q185 16 152 45 Q119 75 102 120 Q85 165 85 231 L85 520 Q85 535 83.5 545.5 Q82 556 75.5 564 Q69 572 56 578 Q43 584 21 590 L21 625 Q33 625 51 624.5 Q69 624 88.5 623.5 Q108 623 127 622.5 Q146 622 161 622 Q177 622 199 622.5 Q221 623 242 623.5 Q263 624 281.5 624.5 Q300 625 311 625 L311 590 L250 571 L250 226 Z M387 748 L199 665 L187 685 L304 797 Q314 806 322 811 Q330 816 338 816 Q351 816 362 800 L390 762 L387 748 Z M572 748 L384 665 L372 685 L489 797 Q499 806 507 811 Q515 816 523 816 Q536 816 547 800 L575 762 L572 748 Z " />
<glyph glyph-name="Uogonek" unicode="&#x172;" horiz-adv-x="674" d="M498 -208 Q481 -220 454 -228.5 Q427 -237 398 -237 Q348 -237 319.5 -212.5 Q291 -188 291 -143 Q291 -107 312 -73.5 Q333 -40 367 -16 Q295 -16 240 0 Q185 16 152 45 Q119 75 102 120 Q85 165 85 231 L85 520 Q85 535 83.5 545.5 Q82 556 75.5 564 Q69 572 56 578 Q43 584 21 590 L21 625 Q33 625 51 624.5 Q69 624 88.5 623.5 Q108 623 127 622.5 Q146 622 161 622 Q177 622 199 622.5 Q221 623 242 623.5 Q263 624 281.5 624.5 Q300 625 311 625 L311 590 L250 571 L250 226 Q250 178 259.5 147 Q269 116 287 96 Q321 59 382 59 Q449 59 483 103 Q498 123 506.5 152 Q515 181 515 226 L515 520 Q515 535 513.5 545.5 Q512 556 505.5 564 Q499 572 486 578 Q473 584 451 590 L451 625 Q476 624 500.5 623 Q525 622 547 622 Q570 622 599.5 623 Q629 624 650 625 L650 590 L589 571 L589 221 Q589 164 575.5 122.5 Q562 81 533 50 Q507 22 476.5 -1 Q446 -24 424 -45 Q405 -63 393.5 -82 Q382 -101 382 -125 Q382 -151 395 -166 Q408 -181 434 -181 Q445 -181 459 -178 Q473 -175 484 -170 L498 -208 Z " />
<glyph glyph-name="Wgrave" unicode="&#x1e80;" horiz-adv-x="973" d="M714 -1 L616 -1 L495 353 L369 -1 L271 -1 L83 505 Q74 529 66 543.5 Q58 558 48 567 Q38 576 24 580.5 Q10 585 -10 590 L-10 625 Q0 625 18 624.5 Q36 624 57.5 623.5 Q79 623 101 622.5 Q123 622 140 622 Q157 622 179.5 622.5 Q202 623 223 623.5 Q244 624 262 624.5 Q280 625 288 625 L288 590 L227 572 L365 191 L458 458 L448 490 Q439 518 431 535 Q423 552 414 562.5 Q405 573 393 579 Q381 585 363 590 L363 625 Q371 625 389.5 624.5 Q408 624 429.5 623.5 Q451 623 473.5 622.5 Q496 622 511 622 Q527 622 547.5 622.5 Q568 623 587.5 623.5 Q607 624 623.5 624.5 Q640 625 648 625 L648 590 L583 572 L708 193 L832 572 L774 590 L774 625 Q781 625 794 624.5 Q807 624 822.5 623.5 Q838 623 855 622.5 Q872 622 888 622 Q913 622 938.5 623 Q964 624 981 625 L981 590 Q959 587 944.5 582.5 Q930 578 920.5 570 Q911 562 904 549.5 Q897 537 890 517 L714 -1 Z M391 760 L422 801 Q428 809 434.5 814.5 Q441 820 451 820 Q464 820 486 803 L629 690 L617 666 L396 745 L391 760 Z " />
<glyph glyph-name="Wacute" unicode="&#x1e82;" horiz-adv-x="973" d="M714 -1 L616 -1 L495 353 L369 -1 L271 -1 L83 505 Q74 529 66 543.5 Q58 558 48 567 Q38 576 24 580.5 Q10 585 -10 590 L-10 625 Q0 625 18 624.5 Q36 624 57.5 623.5 Q79 623 101 622.5 Q123 622 140 622 Q157 622 179.5 622.5 Q202 623 223 623.5 Q244 624 262 624.5 Q280 625 288 625 L288 590 L227 572 L365 191 L458 458 L448 490 Q439 518 431 535 Q423 552 414 562.5 Q405 573 393 579 Q381 585 363 590 L363 625 Q371 625 389.5 624.5 Q408 624 429.5 623.5 Q451 623 473.5 622.5 Q496 622 511 622 Q527 622 547.5 622.5 Q568 623 587.5 623.5 Q607 624 623.5 624.5 Q640 625 648 625 L648 590 L583 572 L708 193 L832 572 L774 590 L774 625 Q781 625 794 624.5 Q807 624 822.5 623.5 Q838 623 855 622.5 Q872 622 888 622 Q913 622 938.5 623 Q964 624 981 625 L981 590 Q959 587 944.5 582.5 Q930 578 920.5 570 Q911 562 904 549.5 Q897 537 890 517 L714 -1 Z M617 745 L396 666 L384 690 L527 803 Q549 820 562 820 Q572 820 578.5 814.5 Q585 809 591 801 L622 760 L617 745 Z " />
<glyph glyph-name="Wcircumflex" unicode="&#x174;" horiz-adv-x="973" d="M714 -1 L616 -1 L495 353 L369 -1 L271 -1 L83 505 Q74 529 66 543.5 Q58 558 48 567 Q38 576 24 580.5 Q10 585 -10 590 L-10 625 Q0 625 18 624.5 Q36 624 57.5 623.5 Q79 623 101 622.5 Q123 622 140 622 Q157 622 179.5 622.5 Q202 623 223 623.5 Q244 624 262 624.5 Q280 625 288 625 L288 590 L227 572 L365 191 L458 458 L448 490 Q439 518 431 535 Q423 552 414 562.5 Q405 573 393 579 Q381 585 363 590 L363 625 Q371 625 389.5 624.5 Q408 624 429.5 623.5 Q451 623 473.5 622.5 Q496 622 511 622 Q527 622 547.5 622.5 Q568 623 587.5 623.5 Q607 624 623.5 624.5 Q640 625 648 625 L648 590 L583 572 L708 193 L832 572 L774 590 L774 625 Q781 625 794 624.5 Q807 624 822.5 623.5 Q838 623 855 622.5 Q872 622 888 622 Q913 622 938.5 623 Q964 624 981 625 L981 590 Q959 587 944.5 582.5 Q930 578 920.5 570 Q911 562 904 549.5 Q897 537 890 517 L714 -1 Z M545 815 L649 687 L627 666 L505 742 L383 666 L361 687 L465 815 L545 815 Z " />
<glyph glyph-name="Wdieresis" unicode="&#x1e84;" horiz-adv-x="973" d="M714 -1 L616 -1 L495 353 L369 -1 L271 -1 L83 505 Q74 529 66 543.5 Q58 558 48 567 Q38 576 24 580.5 Q10 585 -10 590 L-10 625 Q0 625 18 624.5 Q36 624 57.5 623.5 Q79 623 101 622.5 Q123 622 140 622 Q157 622 179.5 622.5 Q202 623 223 623.5 Q244 624 262 624.5 Q280 625 288 625 L288 590 L227 572 L365 191 L458 458 L448 490 Q439 518 431 535 Q423 552 414 562.5 Q405 573 393 579 Q381 585 363 590 L363 625 Q371 625 389.5 624.5 Q408 624 429.5 623.5 Q451 623 473.5 622.5 Q496 622 511 622 Q527 622 547.5 622.5 Q568 623 587.5 623.5 Q607 624 623.5 624.5 Q640 625 648 625 L648 590 L583 572 L708 193 L832 572 L774 590 L774 625 Q781 625 794 624.5 Q807 624 822.5 623.5 Q838 623 855 622.5 Q872 622 888 622 Q913 622 938.5 623 Q964 624 981 625 L981 590 Q959 587 944.5 582.5 Q930 578 920.5 570 Q911 562 904 549.5 Q897 537 890 517 L714 -1 Z M356 741 Q356 767 374 785 Q392 803 418 803 Q444 803 462 785 Q480 767 480 741 Q480 715 462 697 Q444 679 418 679 Q392 679 374 697 Q356 715 356 741 Z M539 741 Q539 767 557 785 Q575 803 601 803 Q627 803 645 785 Q663 767 663 741 Q663 715 645 697 Q627 679 601 679 Q575 679 557 697 Q539 715 539 741 Z " />
<glyph glyph-name="Ygrave" unicode="&#x1ef2;" horiz-adv-x="604" d="M391 248 L391 105 Q391 90 392.5 79.5 Q394 69 400.5 61 Q407 53 420 47 Q433 41 455 35 L455 0 Q443 0 425 0.5 Q407 1 387.5 1.5 Q368 2 349 2.5 Q330 3 315 3 Q298 3 276.5 2.5 Q255 2 234 1.5 Q213 1 194 0.5 Q175 0 165 0 L165 35 L226 54 L226 241 L78 521 Q69 538 61 549.5 Q53 561 43 569 Q33 577 19.5 581.5 Q6 586 -13 590 L-13 625 Q13 624 53 623 Q93 622 134 622 Q151 622 175 622.5 Q199 623 222 623.5 Q245 624 263.5 624.5 Q282 625 290 625 L290 590 L228 572 L355 331 L468 572 L411 590 L411 625 Q426 624 457 623 Q488 622 520 622 Q545 622 570.5 623 Q596 624 613 625 L613 590 Q592 588 578.5 584 Q565 580 555 571.5 Q545 563 537 550 Q529 537 519 517 L391 248 Z M219 760 L250 801 Q256 809 262.5 814.5 Q269 820 279 820 Q292 820 314 803 L457 690 L445 666 L224 745 L219 760 Z " />
<glyph glyph-name="Yacute" unicode="&#xdd;" horiz-adv-x="604" d="M391 248 L391 105 Q391 90 392.5 79.5 Q394 69 400.5 61 Q407 53 420 47 Q433 41 455 35 L455 0 Q443 0 425 0.5 Q407 1 387.5 1.5 Q368 2 349 2.5 Q330 3 315 3 Q298 3 276.5 2.5 Q255 2 234 1.5 Q213 1 194 0.5 Q175 0 165 0 L165 35 L226 54 L226 241 L78 521 Q69 538 61 549.5 Q53 561 43 569 Q33 577 19.5 581.5 Q6 586 -13 590 L-13 625 Q13 624 53 623 Q93 622 134 622 Q151 622 175 622.5 Q199 623 222 623.5 Q245 624 263.5 624.5 Q282 625 290 625 L290 590 L228 572 L355 331 L468 572 L411 590 L411 625 Q426 624 457 623 Q488 622 520 622 Q545 622 570.5 623 Q596 624 613 625 L613 590 Q592 588 578.5 584 Q565 580 555 571.5 Q545 563 537 550 Q529 537 519 517 L391 248 Z M458 745 L237 666 L225 690 L368 803 Q390 820 403 820 Q413 820 419.5 814.5 Q426 809 432 801 L463 760 L458 745 Z " />
<glyph glyph-name="Ycircumflex" unicode="&#x176;" horiz-adv-x="604" d="M391 248 L391 105 Q391 90 392.5 79.5 Q394 69 400.5 61 Q407 53 420 47 Q433 41 455 35 L455 0 Q443 0 425 0.5 Q407 1 387.5 1.5 Q368 2 349 2.5 Q330 3 315 3 Q298 3 276.5 2.5 Q255 2 234 1.5 Q213 1 194 0.5 Q175 0 165 0 L165 35 L226 54 L226 241 L78 521 Q69 538 61 549.5 Q53 561 43 569 Q33 577 19.5 581.5 Q6 586 -13 590 L-13 625 Q13 624 53 623 Q93 622 134 622 Q151 622 175 622.5 Q199 623 222 623.5 Q245 624 263.5 624.5 Q282 625 290 625 L290 590 L228 572 L355 331 L468 572 L411 590 L411 625 Q426 624 457 623 Q488 622 520 622 Q545 622 570.5 623 Q596 624 613 625 L613 590 Q592 588 578.5 584 Q565 580 555 571.5 Q545 563 537 550 Q529 537 519 517 L391 248 Z M387 815 L491 687 L469 666 L347 742 L225 666 L203 687 L307 815 L387 815 Z " />
<glyph glyph-name="Ydieresis" unicode="&#x178;" horiz-adv-x="604" d="M391 248 L391 105 Q391 90 392.5 79.5 Q394 69 400.5 61 Q407 53 420 47 Q433 41 455 35 L455 0 Q443 0 425 0.5 Q407 1 387.5 1.5 Q368 2 349 2.5 Q330 3 315 3 Q298 3 276.5 2.5 Q255 2 234 1.5 Q213 1 194 0.5 Q175 0 165 0 L165 35 L226 54 L226 241 L78 521 Q69 538 61 549.5 Q53 561 43 569 Q33 577 19.5 581.5 Q6 586 -13 590 L-13 625 Q13 624 53 623 Q93 622 134 622 Q151 622 175 622.5 Q199 623 222 623.5 Q245 624 263.5 624.5 Q282 625 290 625 L290 590 L228 572 L355 331 L468 572 L411 590 L411 625 Q426 624 457 623 Q488 622 520 622 Q545 622 570.5 623 Q596 624 613 625 L613 590 Q592 588 578.5 584 Q565 580 555 571.5 Q545 563 537 550 Q529 537 519 517 L391 248 Z M192 741 Q192 767 210 785 Q228 803 254 803 Q280 803 298 785 Q316 767 316 741 Q316 715 298 697 Q280 679 254 679 Q228 679 210 697 Q192 715 192 741 Z M375 741 Q375 767 393 785 Q411 803 437 803 Q463 803 481 785 Q499 767 499 741 Q499 715 481 697 Q463 679 437 679 Q411 679 393 697 Q375 715 375 741 Z " />
<glyph glyph-name="Zacute" unicode="&#x179;" horiz-adv-x="579" d="M537 171 Q535 154 534 131 Q533 108 532 84 Q531 60 530.5 37.5 Q530 15 530 0 L46 0 L46 38 L346 568 L148 568 L105 458 L59 458 Q60 471 61 492.5 Q62 514 63 538.5 Q64 563 64 586 Q64 609 64 625 L537 625 L537 587 L236 56 L371 56 Q400 56 419.5 61.5 Q439 67 452.5 80 Q466 93 475 115 Q484 137 490 171 L537 171 L537 171 Z M426 745 L205 666 L193 690 L336 803 Q358 820 371 820 Q381 820 387.5 814.5 Q394 809 400 801 L431 760 L426 745 Z " />
<glyph glyph-name="Zcaron" unicode="&#x17d;" horiz-adv-x="579" d="M537 171 Q535 154 534 131 Q533 108 532 84 Q531 60 530.5 37.5 Q530 15 530 0 L46 0 L46 38 L346 568 L148 568 L105 458 L59 458 Q60 471 61 492.5 Q62 514 63 538.5 Q64 563 64 586 Q64 609 64 625 L537 625 L537 587 L236 56 L371 56 Q400 56 419.5 61.5 Q439 67 452.5 80 Q466 93 475 115 Q484 137 490 171 L537 171 L537 171 Z M275 676 L171 804 L193 825 L315 749 L437 825 L459 804 L355 676 L275 676 Z " />
<glyph glyph-name="Zdotaccent" unicode="&#x17b;" horiz-adv-x="579" d="M537 171 Q535 154 534 131 Q533 108 532 84 Q531 60 530.5 37.5 Q530 15 530 0 L46 0 L46 38 L346 568 L148 568 L105 458 L59 458 Q60 471 61 492.5 Q62 514 63 538.5 Q64 563 64 586 Q64 609 64 625 L537 625 L537 587 L236 56 L371 56 Q400 56 419.5 61.5 Q439 67 452.5 80 Q466 93 475 115 Q484 137 490 171 L537 171 L537 171 Z M234 749 Q234 778 254.5 799 Q275 820 304 820 Q333 820 354 799 Q375 778 375 749 Q375 720 354 699.5 Q333 679 304 679 Q275 679 254.5 699.5 Q234 720 234 749 Z " />
<glyph glyph-name="agrave" unicode="&#xe0;" horiz-adv-x="502" d="M492 25 Q467 7 439.5 -3 Q412 -13 380 -13 Q308 -13 288 33 Q269 13 239 -1.5 Q209 -16 171 -16 Q141 -16 115 -6.5 Q89 3 70 21 Q51 39 40 64.5 Q29 90 29 122 Q29 167 48 196.5 Q67 226 100 243.5 Q133 261 178.5 268.5 Q224 276 277 276 L277 305 Q277 346 259.5 365 Q242 384 213 384 Q178 384 152.5 362.5 Q127 341 111 306 L61 327 Q79 384 127.5 422 Q176 460 255 460 Q298 460 332.5 449 Q367 438 390 415 Q433 374 433 287 L433 92 Q433 75 437.5 65 Q442 55 458 55 Q466 55 475 57.5 Q484 60 492 64 L492 25 Z M277 231 Q228 231 203.5 203 Q179 175 179 130 Q179 95 193 75.5 Q207 56 231 56 Q245 56 256.5 62 Q268 68 277 77 L277 231 Z M131 599 L160 638 Q168 648 175 653.5 Q182 659 192 659 Q206 659 227 641 L369 512 L352 488 L133 584 L131 599 Z " />
<glyph glyph-name="aacute" unicode="&#xe1;" horiz-adv-x="502" d="M492 25 Q467 7 439.5 -3 Q412 -13 380 -13 Q308 -13 288 33 Q269 13 239 -1.5 Q209 -16 171 -16 Q141 -16 115 -6.5 Q89 3 70 21 Q51 39 40 64.5 Q29 90 29 122 Q29 167 48 196.5 Q67 226 100 243.5 Q133 261 178.5 268.5 Q224 276 277 276 L277 305 Q277 346 259.5 365 Q242 384 213 384 Q178 384 152.5 362.5 Q127 341 111 306 L61 327 Q79 384 127.5 422 Q176 460 255 460 Q298 460 332.5 449 Q367 438 390 415 Q433 374 433 287 L433 92 Q433 75 437.5 65 Q442 55 458 55 Q466 55 475 57.5 Q484 60 492 64 L492 25 Z M277 231 Q228 231 203.5 203 Q179 175 179 130 Q179 95 193 75.5 Q207 56 231 56 Q245 56 256.5 62 Q268 68 277 77 L277 231 Z M367 584 L148 488 L131 512 L273 641 Q294 659 308 659 Q318 659 325 653.5 Q332 648 340 638 L369 599 L367 584 Z " />
<glyph glyph-name="acircumflex" unicode="&#xe2;" horiz-adv-x="502" d="M492 25 Q467 7 439.5 -3 Q412 -13 380 -13 Q308 -13 288 33 Q269 13 239 -1.5 Q209 -16 171 -16 Q141 -16 115 -6.5 Q89 3 70 21 Q51 39 40 64.5 Q29 90 29 122 Q29 167 48 196.5 Q67 226 100 243.5 Q133 261 178.5 268.5 Q224 276 277 276 L277 305 Q277 346 259.5 365 Q242 384 213 384 Q178 384 152.5 362.5 Q127 341 111 306 L61 327 Q79 384 127.5 422 Q176 460 255 460 Q298 460 332.5 449 Q367 438 390 415 Q433 374 433 287 L433 92 Q433 75 437.5 65 Q442 55 458 55 Q466 55 475 57.5 Q484 60 492 64 L492 25 Z M277 231 Q228 231 203.5 203 Q179 175 179 130 Q179 95 193 75.5 Q207 56 231 56 Q245 56 256.5 62 Q268 68 277 77 L277 231 Z M290 658 L394 507 L361 493 L250 585 L139 493 L106 507 L210 658 L290 658 Z " />
<glyph glyph-name="atilde" unicode="&#xe3;" horiz-adv-x="502" d="M492 25 Q467 7 439.5 -3 Q412 -13 380 -13 Q308 -13 288 33 Q269 13 239 -1.5 Q209 -16 171 -16 Q141 -16 115 -6.5 Q89 3 70 21 Q51 39 40 64.5 Q29 90 29 122 Q29 167 48 196.5 Q67 226 100 243.5 Q133 261 178.5 268.5 Q224 276 277 276 L277 305 Q277 346 259.5 365 Q242 384 213 384 Q178 384 152.5 362.5 Q127 341 111 306 L61 327 Q79 384 127.5 422 Q176 460 255 460 Q298 460 332.5 449 Q367 438 390 415 Q433 374 433 287 L433 92 Q433 75 437.5 65 Q442 55 458 55 Q466 55 475 57.5 Q484 60 492 64 L492 25 Z M277 231 Q228 231 203.5 203 Q179 175 179 130 Q179 95 193 75.5 Q207 56 231 56 Q245 56 256.5 62 Q268 68 277 77 L277 231 Z M401 622 Q394 565 367.5 538.5 Q341 512 306 512 Q287 512 270 518 Q253 524 237.5 531.5 Q222 539 207.5 545 Q193 551 179 551 Q147 551 135 514 L99 521 Q106 578 132.5 604.5 Q159 631 194 631 Q213 631 230 625 Q247 619 262.5 611.5 Q278 604 292.5 598 Q307 592 321 592 Q353 592 365 629 L401 622 Z " />
<glyph glyph-name="adieresis" unicode="&#xe4;" horiz-adv-x="502" d="M492 25 Q467 7 439.5 -3 Q412 -13 380 -13 Q308 -13 288 33 Q269 13 239 -1.5 Q209 -16 171 -16 Q141 -16 115 -6.5 Q89 3 70 21 Q51 39 40 64.5 Q29 90 29 122 Q29 167 48 196.5 Q67 226 100 243.5 Q133 261 178.5 268.5 Q224 276 277 276 L277 305 Q277 346 259.5 365 Q242 384 213 384 Q178 384 152.5 362.5 Q127 341 111 306 L61 327 Q79 384 127.5 422 Q176 460 255 460 Q298 460 332.5 449 Q367 438 390 415 Q433 374 433 287 L433 92 Q433 75 437.5 65 Q442 55 458 55 Q466 55 475 57.5 Q484 60 492 64 L492 25 Z M277 231 Q228 231 203.5 203 Q179 175 179 130 Q179 95 193 75.5 Q207 56 231 56 Q245 56 256.5 62 Q268 68 277 77 L277 231 Z M96 574 Q96 600 114 618 Q132 636 158 636 Q184 636 202 618 Q220 600 220 574 Q220 548 202 530 Q184 512 158 512 Q132 512 114 530 Q96 548 96 574 Z M279 574 Q279 600 297 618 Q315 636 341 636 Q367 636 385 618 Q403 600 403 574 Q403 548 385 530 Q367 512 341 512 Q315 512 297 530 Q279 548 279 574 Z " />
<glyph glyph-name="amacron" unicode="&#x101;" horiz-adv-x="502" d="M492 25 Q467 7 439.5 -3 Q412 -13 380 -13 Q308 -13 288 33 Q269 13 239 -1.5 Q209 -16 171 -16 Q141 -16 115 -6.5 Q89 3 70 21 Q51 39 40 64.5 Q29 90 29 122 Q29 167 48 196.5 Q67 226 100 243.5 Q133 261 178.5 268.5 Q224 276 277 276 L277 305 Q277 346 259.5 365 Q242 384 213 384 Q178 384 152.5 362.5 Q127 341 111 306 L61 327 Q79 384 127.5 422 Q176 460 255 460 Q298 460 332.5 449 Q367 438 390 415 Q433 374 433 287 L433 92 Q433 75 437.5 65 Q442 55 458 55 Q466 55 475 57.5 Q484 60 492 64 L492 25 Z M277 231 Q228 231 203.5 203 Q179 175 179 130 Q179 95 193 75.5 Q207 56 231 56 Q245 56 256.5 62 Q268 68 277 77 L277 231 Z M119 525 L119 591 L381 591 L381 525 L119 525 Z " />
<glyph glyph-name="abreve" unicode="&#x103;" horiz-adv-x="502" d="M492 25 Q467 7 439.5 -3 Q412 -13 380 -13 Q308 -13 288 33 Q269 13 239 -1.5 Q209 -16 171 -16 Q141 -16 115 -6.5 Q89 3 70 21 Q51 39 40 64.5 Q29 90 29 122 Q29 167 48 196.5 Q67 226 100 243.5 Q133 261 178.5 268.5 Q224 276 277 276 L277 305 Q277 346 259.5 365 Q242 384 213 384 Q178 384 152.5 362.5 Q127 341 111 306 L61 327 Q79 384 127.5 422 Q176 460 255 460 Q298 460 332.5 449 Q367 438 390 415 Q433 374 433 287 L433 92 Q433 75 437.5 65 Q442 55 458 55 Q466 55 475 57.5 Q484 60 492 64 L492 25 Z M277 231 Q228 231 203.5 203 Q179 175 179 130 Q179 95 193 75.5 Q207 56 231 56 Q245 56 256.5 62 Q268 68 277 77 L277 231 Z M250 508 Q191 508 158.5 544 Q126 580 126 635 L167 635 Q174 608 196 595 Q218 582 250 582 Q282 582 304 595 Q326 608 333 635 L374 635 Q374 580 341.5 544 Q309 508 250 508 Z " />
<glyph glyph-name="acaron" unicode="&#x1ce;" horiz-adv-x="502" d="M492 25 Q467 7 439.5 -3 Q412 -13 380 -13 Q308 -13 288 33 Q269 13 239 -1.5 Q209 -16 171 -16 Q141 -16 115 -6.5 Q89 3 70 21 Q51 39 40 64.5 Q29 90 29 122 Q29 167 48 196.5 Q67 226 100 243.5 Q133 261 178.5 268.5 Q224 276 277 276 L277 305 Q277 346 259.5 365 Q242 384 213 384 Q178 384 152.5 362.5 Q127 341 111 306 L61 327 Q79 384 127.5 422 Q176 460 255 460 Q298 460 332.5 449 Q367 438 390 415 Q433 374 433 287 L433 92 Q433 75 437.5 65 Q442 55 458 55 Q466 55 475 57.5 Q484 60 492 64 L492 25 Z M277 231 Q228 231 203.5 203 Q179 175 179 130 Q179 95 193 75.5 Q207 56 231 56 Q245 56 256.5 62 Q268 68 277 77 L277 231 Z M213 496 L109 647 L142 661 L253 569 L364 661 L397 647 L293 496 L213 496 Z " />
<glyph glyph-name="aring" unicode="&#xe5;" horiz-adv-x="502" d="M492 25 Q467 7 439.5 -3 Q412 -13 380 -13 Q308 -13 288 33 Q269 13 239 -1.5 Q209 -16 171 -16 Q141 -16 115 -6.5 Q89 3 70 21 Q51 39 40 64.5 Q29 90 29 122 Q29 167 48 196.5 Q67 226 100 243.5 Q133 261 178.5 268.5 Q224 276 277 276 L277 305 Q277 346 259.5 365 Q242 384 213 384 Q178 384 152.5 362.5 Q127 341 111 306 L61 327 Q79 384 127.5 422 Q176 460 255 460 Q298 460 332.5 449 Q367 438 390 415 Q433 374 433 287 L433 92 Q433 75 437.5 65 Q442 55 458 55 Q466 55 475 57.5 Q484 60 492 64 L492 25 Z M277 231 Q228 231 203.5 203 Q179 175 179 130 Q179 95 193 75.5 Q207 56 231 56 Q245 56 256.5 62 Q268 68 277 77 L277 231 Z M345 599 Q345 558 317.5 532 Q290 506 250 506 Q210 506 182.5 532 Q155 558 155 599 Q155 640 182.5 666 Q210 692 250 692 Q290 692 317.5 666 Q345 640 345 599 Z M294 599 Q294 622 281 635 Q268 648 250 648 Q232 648 219 635 Q206 622 206 599 Q206 576 219 563 Q232 550 250 550 Q268 550 281 563 Q294 576 294 599 Z " />
<glyph glyph-name="aringacute" unicode="&#x1fb;" horiz-adv-x="502" d="M492 25 Q467 7 439.5 -3 Q412 -13 380 -13 Q308 -13 288 33 Q269 13 239 -1.5 Q209 -16 171 -16 Q141 -16 115 -6.5 Q89 3 70 21 Q51 39 40 64.5 Q29 90 29 122 Q29 167 48 196.5 Q67 226 100 243.5 Q133 261 178.5 268.5 Q224 276 277 276 L277 305 Q277 346 259.5 365 Q242 384 213 384 Q178 384 152.5 362.5 Q127 341 111 306 L61 327 Q79 384 127.5 422 Q176 460 255 460 Q298 460 332.5 449 Q367 438 390 415 Q433 374 433 287 L433 92 Q433 75 437.5 65 Q442 55 458 55 Q466 55 475 57.5 Q484 60 492 64 L492 25 Z M277 231 Q228 231 203.5 203 Q179 175 179 130 Q179 95 193 75.5 Q207 56 231 56 Q245 56 256.5 62 Q268 68 277 77 L277 231 Z M345 590 Q345 549 317.5 523 Q290 497 250 497 Q210 497 182.5 523 Q155 549 155 590 Q155 631 182.5 657 Q210 683 250 683 Q290 683 317.5 657 Q345 631 345 590 Z M294 590 Q294 613 281 626 Q268 639 250 639 Q232 639 219 626 Q206 613 206 590 Q206 567 219 554 Q232 541 250 541 Q268 541 281 554 Q294 567 294 590 Z M367 779 L148 683 L131 707 L273 836 Q294 854 308 854 Q318 854 325 848.5 Q332 843 340 833 L369 794 L367 779 Z " />
<glyph glyph-name="aogonek" unicode="&#x105;" horiz-adv-x="502" d="M493 -208 Q476 -220 448.5 -228.5 Q421 -237 392 -237 Q342 -237 314 -212 Q286 -187 286 -142 Q286 -104 307 -71 Q328 -38 362 -12 Q305 -7 288 33 Q269 13 239 -1.5 Q209 -16 171 -16 Q141 -16 115 -6.5 Q89 3 70 21 Q51 39 40 64.5 Q29 90 29 122 Q29 167 48 196.5 Q67 226 100 243.5 Q133 261 178.5 268.5 Q224 276 277 276 L277 305 Q277 346 259.5 365 Q242 384 213 384 Q178 384 152.5 362.5 Q127 341 111 306 L61 327 Q79 384 127.5 422 Q176 460 255 460 Q298 460 332.5 449 Q367 438 390 415 Q433 374 433 287 L433 92 Q433 75 437.5 65 Q442 55 458 55 Q466 55 475 57.5 Q484 60 492 64 L492 25 Q440 -3 408.5 -40 Q377 -77 377 -126 Q377 -152 390 -166.5 Q403 -181 427 -181 Q439 -181 453.5 -178 Q468 -175 479 -170 L493 -208 Z M277 231 Q228 231 203.5 203 Q179 175 179 130 Q179 95 193 75.5 Q207 56 231 56 Q245 56 256.5 62 Q268 68 277 77 L277 231 Z " />
<glyph glyph-name="ae" unicode="&#xe6;" horiz-adv-x="726" d="M688 110 Q666 52 614 18 Q562 -16 493 -16 Q440 -16 400.5 1 Q361 18 333 49 Q307 19 270 1.5 Q233 -16 186 -16 Q152 -16 123 -7 Q94 2 73 19.5 Q52 37 40.5 62.5 Q29 88 29 121 Q29 166 49 195.5 Q69 225 102.5 242 Q136 259 180.5 266 Q225 273 275 273 L275 305 Q275 346 257.5 365 Q240 384 211 384 Q176 384 150.5 362.5 Q125 341 109 306 L59 327 Q77 384 125.5 422 Q174 460 253 460 Q290 460 320.5 452 Q351 444 374 427 Q427 460 498 460 Q591 460 641.5 407 Q692 354 693 253 Q693 246 693 236 Q693 226 691 218 L434 218 Q435 186 441 159 Q447 132 459.5 112 Q472 92 492 81 Q512 70 540 70 Q578 70 604 88 Q630 106 648 135 L688 110 Z M242 57 Q262 57 278.5 65.5 Q295 74 305 88 Q275 143 275 225 Q230 224 204.5 201.5 Q179 179 179 131 Q179 96 196.5 76.5 Q214 57 242 57 Z M562 272 Q562 341 544.5 370.5 Q527 400 500 400 Q469 400 453 365.5 Q437 331 435 272 L562 272 Z " />
<glyph glyph-name="aeacute" unicode="&#x1fd;" horiz-adv-x="726" d="M688 110 Q666 52 614 18 Q562 -16 493 -16 Q440 -16 400.5 1 Q361 18 333 49 Q307 19 270 1.5 Q233 -16 186 -16 Q152 -16 123 -7 Q94 2 73 19.5 Q52 37 40.5 62.5 Q29 88 29 121 Q29 166 49 195.5 Q69 225 102.5 242 Q136 259 180.5 266 Q225 273 275 273 L275 305 Q275 346 257.5 365 Q240 384 211 384 Q176 384 150.5 362.5 Q125 341 109 306 L59 327 Q77 384 125.5 422 Q174 460 253 460 Q290 460 320.5 452 Q351 444 374 427 Q427 460 498 460 Q591 460 641.5 407 Q692 354 693 253 Q693 246 693 236 Q693 226 691 218 L434 218 Q435 186 441 159 Q447 132 459.5 112 Q472 92 492 81 Q512 70 540 70 Q578 70 604 88 Q630 106 648 135 L688 110 Z M242 57 Q262 57 278.5 65.5 Q295 74 305 88 Q275 143 275 225 Q230 224 204.5 201.5 Q179 179 179 131 Q179 96 196.5 76.5 Q214 57 242 57 Z M562 272 Q562 341 544.5 370.5 Q527 400 500 400 Q469 400 453 365.5 Q437 331 435 272 L562 272 Z M510 584 L291 488 L274 512 L416 641 Q437 659 451 659 Q461 659 468 653.5 Q475 648 483 638 L512 599 L510 584 Z " />
<glyph glyph-name="cacute" unicode="&#x107;" horiz-adv-x="447" d="M427 107 Q403 52 355.5 18 Q308 -16 241 -16 Q193 -16 153 -0.5 Q113 15 84.5 45 Q56 75 40 118.5 Q24 162 24 218 Q24 278 42 323 Q60 368 92 398.5 Q124 429 167.5 444.5 Q211 460 263 460 Q301 460 335 454.5 Q369 449 408 444 Q408 428 408.5 407.5 Q409 387 409.5 365.5 Q410 344 410.5 323 Q411 302 412 286 L368 286 Q360 349 338 374 Q316 399 281 399 Q233 399 208.5 357 Q184 315 184 234 Q184 148 212.5 107.5 Q241 67 286 67 Q313 67 338.5 81.5 Q364 96 387 133 L427 107 Z M378 584 L159 488 L142 512 L284 641 Q305 659 319 659 Q329 659 336 653.5 Q343 648 351 638 L380 599 L378 584 Z " />
<glyph glyph-name="ccedilla" unicode="&#xe7;" horiz-adv-x="447" d="M354 -123 Q354 -155 337.5 -177.5 Q321 -200 294.5 -214.5 Q268 -229 234.5 -235 Q201 -241 166 -239 L161 -200 Q209 -194 237.5 -175 Q266 -156 266 -127 Q266 -109 255 -98 Q244 -87 215 -81 Q204 -79 200 -74.5 Q196 -70 200 -58 L214 -14 Q128 -6 76 53.5 Q24 113 24 218 Q24 278 42 323 Q60 368 92 398.5 Q124 429 167.5 444.5 Q211 460 263 460 Q301 460 335 454.5 Q369 449 408 444 Q408 428 408.5 407.5 Q409 387 409.5 365.5 Q410 344 410.5 323 Q411 302 412 286 L368 286 Q360 349 338 374 Q316 399 281 399 Q233 399 208.5 357 Q184 315 184 234 Q184 148 212.5 107.5 Q241 67 286 67 Q313 67 338.5 81.5 Q364 96 387 133 L427 107 Q406 59 366.5 27 Q327 -5 272 -13 L265 -36 Q302 -43 328 -64 Q354 -85 354 -123 Z " />
<glyph glyph-name="ccircumflex" unicode="&#x109;" horiz-adv-x="447" d="M427 107 Q403 52 355.5 18 Q308 -16 241 -16 Q193 -16 153 -0.5 Q113 15 84.5 45 Q56 75 40 118.5 Q24 162 24 218 Q24 278 42 323 Q60 368 92 398.5 Q124 429 167.5 444.5 Q211 460 263 460 Q301 460 335 454.5 Q369 449 408 444 Q408 428 408.5 407.5 Q409 387 409.5 365.5 Q410 344 410.5 323 Q411 302 412 286 L368 286 Q360 349 338 374 Q316 399 281 399 Q233 399 208.5 357 Q184 315 184 234 Q184 148 212.5 107.5 Q241 67 286 67 Q313 67 338.5 81.5 Q364 96 387 133 L427 107 Z M301 658 L405 507 L372 493 L261 585 L150 493 L117 507 L221 658 L301 658 Z " />
<glyph glyph-name="ccaron" unicode="&#x10d;" horiz-adv-x="447" d="M427 107 Q403 52 355.5 18 Q308 -16 241 -16 Q193 -16 153 -0.5 Q113 15 84.5 45 Q56 75 40 118.5 Q24 162 24 218 Q24 278 42 323 Q60 368 92 398.5 Q124 429 167.5 444.5 Q211 460 263 460 Q301 460 335 454.5 Q369 449 408 444 Q408 428 408.5 407.5 Q409 387 409.5 365.5 Q410 344 410.5 323 Q411 302 412 286 L368 286 Q360 349 338 374 Q316 399 281 399 Q233 399 208.5 357 Q184 315 184 234 Q184 148 212.5 107.5 Q241 67 286 67 Q313 67 338.5 81.5 Q364 96 387 133 L427 107 Z M224 496 L120 647 L153 661 L264 569 L375 661 L408 647 L304 496 L224 496 Z " />
<glyph glyph-name="cdotaccent" unicode="&#x10b;" horiz-adv-x="447" d="M427 107 Q403 52 355.5 18 Q308 -16 241 -16 Q193 -16 153 -0.5 Q113 15 84.5 45 Q56 75 40 118.5 Q24 162 24 218 Q24 278 42 323 Q60 368 92 398.5 Q124 429 167.5 444.5 Q211 460 263 460 Q301 460 335 454.5 Q369 449 408 444 Q408 428 408.5 407.5 Q409 387 409.5 365.5 Q410 344 410.5 323 Q411 302 412 286 L368 286 Q360 349 338 374 Q316 399 281 399 Q233 399 208.5 357 Q184 315 184 234 Q184 148 212.5 107.5 Q241 67 286 67 Q313 67 338.5 81.5 Q364 96 387 133 L427 107 Z M194 574 Q194 603 214.5 624 Q235 645 264 645 Q293 645 314 624 Q335 603 335 574 Q335 545 314 524.5 Q293 504 264 504 Q235 504 214.5 524.5 Q194 545 194 574 Z " />
<glyph glyph-name="dcaron" unicode="&#x10f;" horiz-adv-x="634" d="M483 94 Q483 55 511 55 Q527 55 543 63 L543 23 Q493 -13 432 -13 Q400 -13 376.5 -1.5 Q353 10 340 34 Q318 11 286.5 -2.5 Q255 -16 218 -16 Q167 -16 130.5 4 Q94 24 71 57 Q48 90 37.5 132 Q27 174 27 217 Q27 272 42.5 317 Q58 362 85.5 393.5 Q113 425 151.5 442.5 Q190 460 236 460 Q262 460 286 453 Q310 446 327 435 L327 579 Q327 591 325 599 Q323 607 318 613 Q313 619 303 623.5 Q293 628 278 633 L278 665 Q317 665 347 665.5 Q377 666 401 667.5 Q425 669 445 671 Q465 673 483 676 L483 94 Z M271 62 Q288 62 302 68 Q316 74 327 83 L327 378 Q317 384 304 388.5 Q291 393 277 393 Q234 393 210.5 351 Q187 309 187 227 Q187 142 209.5 102 Q232 62 271 62 Z M662 551 Q662 506 632.5 457 Q603 408 545 373 L527 399 Q553 424 570.5 450 Q588 476 588 495 Q588 509 578 518 Q568 527 556 536 Q544 545 534 556 Q524 567 524 586 Q524 608 540 624 Q556 640 586 640 Q621 640 641.5 615.5 Q662 591 662 551 Z " />
<glyph glyph-name="dcroat" unicode="&#x111;" horiz-adv-x="556" d="M483 564 L555 564 L555 514 L483 514 L483 94 Q483 55 511 55 Q527 55 543 63 L543 23 Q493 -13 432 -13 Q400 -13 376.5 -1.5 Q353 10 340 34 Q318 11 286.5 -2.5 Q255 -16 218 -16 Q167 -16 130.5 4 Q94 24 71 57 Q48 90 37.5 132 Q27 174 27 217 Q27 272 42.5 317 Q58 362 85.5 393.5 Q113 425 151.5 442.5 Q190 460 236 460 Q262 460 286 453 Q310 446 327 435 L327 514 L204 514 L204 564 L327 564 L327 579 Q327 591 325 599 Q323 607 318 613 Q313 619 303 623.5 Q293 628 278 633 L278 665 Q317 665 347 665.5 Q377 666 401 667.5 Q425 669 445 671 Q465 673 483 676 L483 564 Z M271 62 Q288 62 302 68 Q316 74 327 83 L327 378 Q317 384 304 388.5 Q291 393 277 393 Q234 393 210.5 351 Q187 309 187 227 Q187 142 209.5 102 Q232 62 271 62 Z " />
<glyph glyph-name="eth" unicode="&#xf0;" horiz-adv-x="521" d="M418 619 L431 572 L358 551 Q421 488 456.5 405 Q492 322 492 232 Q492 175 476.5 129 Q461 83 431 51 Q401 19 357 1.5 Q313 -16 256 -16 Q205 -16 162.5 -0.5 Q120 15 89.5 45 Q59 75 42 118.5 Q25 162 25 218 Q25 271 39.5 314.5 Q54 358 82.5 388.5 Q111 419 151.5 435.5 Q192 452 245 452 Q256 452 265.5 451 Q275 450 282 448 Q274 466 264 485 Q254 504 244 520 L139 492 L126 539 L212 562 Q195 582 172 601.5 Q149 621 126 636 L145 681 Q240 649 314 590 L418 619 Z M277 391 Q250 391 232.5 377.5 Q215 364 204 340 Q193 316 188.5 283 Q184 250 184 211 Q184 129 203 86 Q222 43 259 43 Q292 43 312.5 81.5 Q333 120 333 197 Q333 219 331 245 Q329 271 324.5 296.5 Q320 322 314 346 Q308 370 299 389 Q294 390 288.5 390.5 Q283 391 277 391 Z " />
<glyph glyph-name="egrave" unicode="&#xe8;" horiz-adv-x="475" d="M437 110 Q415 52 363 18 Q311 -16 242 -16 Q189 -16 148 2 Q107 20 79.5 52 Q52 84 38 127.5 Q24 171 24 223 Q24 276 39.5 320 Q55 364 84.5 395 Q114 426 155 443 Q196 460 247 460 Q340 460 390.5 407 Q441 354 442 253 Q442 246 442 236 Q442 226 440 218 L183 218 Q184 186 190 159 Q196 132 208.5 112 Q221 92 241 81 Q261 70 289 70 Q327 70 353 88 Q379 106 397 135 L437 110 Z M311 272 Q311 341 293.5 370.5 Q276 400 249 400 Q218 400 202 365.5 Q186 331 184 272 L311 272 Z M128 599 L157 638 Q165 648 172 653.5 Q179 659 189 659 Q203 659 224 641 L366 512 L349 488 L130 584 L128 599 Z " />
</font>
</svg>
