<?xml version="1.0" encoding="UTF-8"?>
<svg xmlns="http://www.w3.org/2000/svg" xmlns:xlink="http://www.w3.org/1999/xlink" version="1.2" >
<font id="Cadillac Serif Web Bold Italic">
<font-face  font-family="Cadillac Serif Web" units-per-em="1000" ascent="700" descent="-300" font-style="italic" font-weight="700" font-stretch="normal" slope="-15" cap-height="625" x-height="444" underline-position="-75" underline-thickness="50" />
<missing-glyph  horiz-adv-x="535" d="M20 693 L515 693 L515 0 L20 0 L20 693 Z M436 644 L99 644 L268 391 L436 644 Z M466 94 L466 599 L297 347 L466 94 Z M436 50 L268 302 L99 50 L436 50 Z M70 94 L238 347 L70 599 L70 94 Z " />
<glyph glyph-name="null" d="" />
<glyph glyph-name="nonmarkingreturn" unicode="&#xd;" horiz-adv-x="166" d="" />
<glyph glyph-name="nbspace" unicode="&#xa0;" horiz-adv-x="166" d="" />
<glyph glyph-name="space" unicode="&#x20;" horiz-adv-x="166" d="" />
<glyph glyph-name="A" unicode="A" horiz-adv-x="637" d="M391 182 L202 182 L157 106 Q149 92 144 82.5 Q139 73 139 65 Q139 53 151 47 Q163 41 191 35 L182 0 Q161 1 131.5 2 Q102 3 79 3 Q68 3 53.5 2.5 Q39 2 24 1.5 Q9 1 -4.5 0.5 Q-18 0 -27 0 L-17 35 L46 53 L390 625 L499 625 L556 121 Q558 101 562 88 Q566 75 573.5 65 Q581 55 594 48 Q607 41 627 35 L618 0 Q610 0 593.5 0.5 Q577 1 557.5 1.5 Q538 2 519 2.5 Q500 3 487 3 Q475 3 454.5 2.5 Q434 2 412 1.5 Q390 1 369 0.5 Q348 0 334 0 L343 35 L405 52 L391 182 Z M235 239 L385 239 L362 453 L235 239 Z " />
<glyph glyph-name="B" unicode="B" horiz-adv-x="607" d="M19 34 L82 53 L198 515 Q203 535 203 546 Q203 562 191 571 Q179 580 147 589 L156 624 L418 624 Q471 624 514.5 615.5 Q558 607 586 586 Q605 572 616 551 Q627 530 627 502 Q627 473 615 448 Q603 423 582 402.5 Q561 382 533.5 367 Q506 352 475 343 Q525 329 559 296.5 Q593 264 593 210 Q593 172 576 134.5 Q559 97 523 66 Q488 37 434.5 18 Q381 -1 300 -1 L10 -1 L19 34 Z M304 309 L257 122 Q254 110 252 100.5 Q250 91 250 83 Q250 70 259.5 62 Q269 54 294 54 Q323 54 347.5 67 Q372 80 390 101 Q410 125 422.5 157 Q435 189 435 221 Q435 266 409 287 Q394 299 371.5 304 Q349 309 317 309 L304 309 Z M339 364 Q372 364 398 376.5 Q424 389 442.5 408 Q461 427 470.5 450.5 Q480 474 480 497 Q480 529 463 546 Q451 559 431 564 Q411 569 385 569 L369 569 L317 364 L339 364 Z " />
<glyph glyph-name="C" unicode="C" horiz-adv-x="580" d="M544 109 Q499 54 434.5 19 Q370 -16 297 -16 Q198 -16 139.5 44.5 Q81 105 81 214 Q81 298 110.5 375 Q140 452 192.5 511 Q245 570 316.5 605 Q388 640 472 640 Q493 640 516 637.5 Q539 635 561.5 632 Q584 629 605 626 Q626 623 642 622 Q631 580 619.5 532 Q608 484 599 443 L549 443 Q550 449 550 455 Q550 461 550 467 Q550 518 530 546.5 Q510 575 467 575 Q420 575 379 540 Q338 505 307 451 Q276 397 258 332.5 Q240 268 240 210 Q240 146 268 113 Q296 80 347 80 Q385 80 428 98 Q471 116 508 148 L544 109 Z " />
<glyph glyph-name="D" unicode="D" horiz-adv-x="672" d="M19 35 L82 54 L198 516 Q203 536 203 547 Q203 563 191 572 Q179 581 147 590 L156 625 L387 625 Q473 625 536.5 606.5 Q600 588 638 548 Q664 522 677.5 485.5 Q691 449 691 402 Q691 322 658.5 246 Q626 170 566 112 Q513 61 444 30.5 Q375 0 283 0 L10 0 L19 35 Z M255 117 Q253 107 251.5 100.5 Q250 94 250 88 Q250 58 292 58 Q340 58 383.5 90 Q427 122 460 173.5 Q493 225 513 290 Q533 355 533 420 Q533 492 497 528 Q459 566 373 566 L368 566 L255 117 Z " />
<glyph glyph-name="E" unicode="E" horiz-adv-x="568" d="M620 625 Q616 610 611.5 587.5 Q607 565 602.5 541.5 Q598 518 594 497 Q590 476 588 463 L540 463 Q540 494 537 514.5 Q534 535 523 548 Q512 561 491 566.5 Q470 572 434 572 Q420 572 402 571.5 Q384 571 369 570 L313 347 L347 347 Q393 347 427 349.5 Q461 352 490 357 L465 282 Q450 285 415 288 Q380 291 333 291 L299 291 L256 121 Q254 111 252.5 104 Q251 97 251 91 Q251 54 326 54 Q356 54 378.5 58 Q401 62 419 73.5 Q437 85 451.5 105 Q466 125 479 158 L528 158 Q524 146 518 124.5 Q512 103 505.5 79.5 Q499 56 493.5 34 Q488 12 485 0 L10 0 L19 35 L82 54 L198 516 Q203 536 203 547 Q203 563 191 572 Q179 581 147 590 L156 625 L620 625 Z " />
<glyph glyph-name="F" unicode="F" horiz-adv-x="526" d="M253 109 Q248 89 248 78 Q248 71 251 65 Q254 59 261.5 54 Q269 49 282.5 44.5 Q296 40 318 35 L309 0 Q294 0 273.5 0.5 Q253 1 231.5 1.5 Q210 2 191 2.5 Q172 3 160 3 Q145 3 125 2.5 Q105 2 85 1.5 Q65 1 45 0.5 Q25 0 10 0 L19 35 L82 54 L198 516 Q203 536 203 547 Q203 563 191 572 Q179 581 147 590 L156 625 L616 625 Q612 610 607.5 587.5 Q603 565 598.5 541.5 Q594 518 590 497 Q586 476 584 463 L536 463 Q536 493 533 514 Q530 535 519.5 548 Q509 561 488.5 566.5 Q468 572 432 572 Q418 572 401 571.5 Q384 571 369 570 L313 347 L343 347 Q389 347 423 349.5 Q457 352 486 357 L461 282 Q446 285 411 288 Q376 291 329 291 L299 291 L253 109 Z " />
<glyph glyph-name="G" unicode="G" horiz-adv-x="666" d="M560 51 Q538 38 510 26 Q482 14 450 4.5 Q418 -5 384.5 -10.5 Q351 -16 319 -16 Q268 -16 224.5 -1.5 Q181 13 149 42 Q117 71 99 115 Q81 159 81 218 Q81 302 109.5 378 Q138 454 191 512.5 Q244 571 319 605.5 Q394 640 487 640 Q506 640 529.5 637.5 Q553 635 577 632 Q601 629 624.5 625.5 Q648 622 667 621 Q656 580 644.5 533 Q633 486 624 444 L574 444 Q575 450 575 456 Q575 462 575 468 Q575 490 570.5 509.5 Q566 529 555.5 543.5 Q545 558 527 566.5 Q509 575 482 575 Q445 575 412.5 558 Q380 541 353 511.5 Q326 482 305 444 Q284 406 269.5 364 Q255 322 247.5 279 Q240 236 240 198 Q240 131 262.5 91 Q285 51 333 51 Q374 51 397 83 Q420 115 434 168 L454 247 L388 266 L397 301 Q406 301 422 300.5 Q438 300 457 299.5 Q476 299 497 298.5 Q518 298 536 298 Q552 298 574 298.5 Q596 299 617.5 299.5 Q639 300 656.5 300.5 Q674 301 682 301 L673 266 Q653 261 640.5 256 Q628 251 619.5 243 Q611 235 605.5 223.5 Q600 212 596 194 L560 51 Z " />
<glyph glyph-name="H" unicode="H" horiz-adv-x="716" d="M616 109 Q611 89 611 78 Q611 62 623 53 Q635 44 667 35 L658 0 Q643 0 624.5 0.5 Q606 1 587.5 1.5 Q569 2 552 2.5 Q535 3 523 3 Q508 3 488 2.5 Q468 2 448 1.5 Q428 1 408 0.5 Q388 0 373 0 L382 35 L445 54 L505 293 L299 293 L253 109 Q248 89 248 78 Q248 62 260 53 Q272 44 304 35 L295 0 Q280 0 261.5 0.5 Q243 1 224.5 1.5 Q206 2 189 2.5 Q172 3 160 3 Q145 3 125 2.5 Q105 2 85 1.5 Q65 1 45 0.5 Q25 0 10 0 L19 35 L82 54 L198 516 Q203 536 203 547 Q203 563 191 572 Q179 581 147 590 L156 625 Q171 625 189.5 624.5 Q208 624 226.5 623.5 Q245 623 262 622.5 Q279 622 291 622 Q306 622 326 622.5 Q346 623 366 623.5 Q386 624 406 624.5 Q426 625 441 625 L432 590 L369 571 L314 355 L520 355 L561 516 Q566 536 566 547 Q566 563 554 572 Q542 581 510 590 L519 625 Q534 625 552.5 624.5 Q571 624 589.5 623.5 Q608 623 625 622.5 Q642 622 654 622 Q669 622 689 622.5 Q709 623 729 623.5 Q749 624 769 624.5 Q789 625 804 625 L795 590 L732 571 L616 109 Z " />
<glyph glyph-name="I" unicode="I" horiz-adv-x="357" d="M255 109 Q250 89 250 78 Q250 62 262 53 Q274 44 306 35 L297 0 Q282 0 263.5 0.5 Q245 1 226.5 1.5 Q208 2 191 2.5 Q174 3 162 3 Q147 3 127 2.5 Q107 2 87 1.5 Q67 1 47 0.5 Q27 0 12 0 L21 35 L84 54 L200 516 Q205 536 205 547 Q205 563 193 572 Q181 581 149 590 L158 625 Q173 625 191.5 624.5 Q210 624 228.5 623.5 Q247 623 264 622.5 Q281 622 293 622 Q308 622 328 622.5 Q348 623 368 623.5 Q388 624 408 624.5 Q428 625 443 625 L434 590 L371 571 L255 109 Z " />
<glyph glyph-name="J" unicode="J" horiz-adv-x="341" d="M193 516 Q198 536 198 547 Q198 563 186 572 Q174 581 142 590 L151 625 Q166 625 184.5 624.5 Q203 624 221.5 623.5 Q240 623 257 622.5 Q274 622 286 622 Q301 622 321 622.5 Q341 623 361 623.5 Q381 624 401 624.5 Q421 625 436 625 L427 590 L364 571 L243 94 Q225 22 199.5 -31 Q174 -84 136.5 -121.5 Q99 -159 46.5 -182.5 Q-6 -206 -78 -220 L-93 -173 Q-57 -157 -30.5 -136.5 Q-4 -116 16.5 -87 Q37 -58 53 -17 Q69 24 83 81 L193 516 Z " />
<glyph glyph-name="K" unicode="K" horiz-adv-x="659" d="M311 342 L556 574 L512 590 L521 625 Q543 623 575.5 622.5 Q608 622 630 622 Q641 622 655 622 Q669 622 683.5 622.5 Q698 623 710.5 623.5 Q723 624 731 625 L722 590 Q702 588 687.5 584.5 Q673 581 659.5 574 Q646 567 631 555.5 Q616 544 597 526 L470 409 L564 102 Q569 85 576 77 Q583 69 597 69 Q605 69 616.5 71.5 Q628 74 639 78 L627 29 Q600 12 568 0.5 Q536 -11 508 -11 Q468 -11 445 12 Q433 24 424 43 Q415 62 406 92 L346 293 L285 236 L253 109 Q248 89 248 78 Q248 62 260 53 Q272 44 304 35 L295 0 Q280 0 261.5 0.5 Q243 1 224.5 1.5 Q206 2 189 2.5 Q172 3 160 3 Q145 3 125 2.5 Q105 2 85 1.5 Q65 1 45 0.5 Q25 0 10 0 L19 35 L82 54 L198 516 Q203 536 203 547 Q203 563 191 572 Q179 581 147 590 L156 625 Q171 625 189.5 624.5 Q208 624 226.5 623.5 Q245 623 262 622.5 Q279 622 291 622 Q306 622 326 622.5 Q346 623 366 623.5 Q386 624 406 624.5 Q426 625 441 625 L432 590 L369 571 L311 342 Z " />
<glyph glyph-name="L" unicode="L" horiz-adv-x="533" d="M256 121 Q254 111 252.5 104 Q251 97 251 91 Q251 54 323 54 Q352 54 373.5 58.5 Q395 63 412 75 Q429 87 443 107 Q457 127 470 158 L519 158 Q515 146 509 124.5 Q503 103 496.5 79.5 Q490 56 484.5 34 Q479 12 476 0 L10 0 L19 35 L82 54 L198 516 Q203 536 203 547 Q203 563 191 572 Q179 581 147 590 L156 625 Q171 625 189.5 624.5 Q208 624 226.5 623.5 Q245 623 262 622.5 Q279 622 291 622 Q306 622 326 622.5 Q346 623 366 623.5 Q386 624 406 624.5 Q426 625 441 625 L432 590 L369 571 L256 121 Z " />
<glyph glyph-name="M" unicode="M" horiz-adv-x="861" d="M940 590 L877 571 L761 109 Q756 89 756 78 Q756 62 768 53 Q780 44 812 35 L803 0 Q788 0 770 0.5 Q752 1 733 1.5 Q714 2 697.5 2.5 Q681 3 669 3 Q654 3 634 2.5 Q614 2 594 1.5 Q574 1 554 0.5 Q534 0 519 0 L528 35 L591 54 L696 471 Q676 434 651.5 392.5 Q627 351 606 318 L403 -3 L325 -3 L287 230 Q276 301 267.5 357 Q259 413 258 462 L170 109 Q165 89 165 78 Q165 62 177 53 Q189 44 221 35 L212 0 Q195 1 167 1.5 Q139 2 117 2 Q90 2 60 1.5 Q30 1 10 0 L19 35 L82 54 L198 516 Q203 536 203 547 Q203 563 191 572 Q179 581 147 590 L156 625 L374 625 L415 378 Q427 307 433.5 261.5 Q440 216 443 177 Q451 191 462 210.5 Q473 230 486.5 252.5 Q500 275 514.5 298.5 Q529 322 544 345 L723 625 L949 625 L940 590 Z " />
<glyph glyph-name="N" unicode="N" horiz-adv-x="700" d="M349 625 L554 199 L633 516 Q638 536 638 547 Q638 563 626 572 Q614 581 582 590 L591 625 Q608 624 636 623.5 Q664 623 686 623 Q713 623 743 623.5 Q773 624 793 625 L784 590 L721 571 L578 -1 L478 -1 L257 457 L170 109 Q165 89 165 78 Q165 62 177 53 Q189 44 221 35 L212 0 Q195 1 167 1.5 Q139 2 117 2 Q90 2 60 1.5 Q30 1 10 0 L19 35 L82 54 L198 516 Q203 536 203 547 Q203 563 191 572 Q179 581 147 590 L156 625 L349 625 Z " />
<glyph glyph-name="O" unicode="O" horiz-adv-x="650" d="M315 50 Q354 50 389.5 88.5 Q425 127 451.5 186 Q478 245 493.5 315 Q509 385 509 447 Q509 502 491 538 Q473 574 434 574 Q395 574 359.5 535.5 Q324 497 297.5 438 Q271 379 255.5 309 Q240 239 240 177 Q240 122 258 86 Q276 50 315 50 Z M310 -16 Q263 -16 221.5 -1.5 Q180 13 149 43 Q118 73 99.5 119.5 Q81 166 81 231 Q81 277 92.5 325.5 Q104 374 125.5 419.5 Q147 465 178.5 505 Q210 545 249.5 575 Q289 605 336.5 622.5 Q384 640 439 640 Q485 640 527 625.5 Q569 611 600 581 Q631 551 649.5 504 Q668 457 668 393 Q668 323 642.5 250.5 Q617 178 570.5 118.5 Q524 59 458 21.5 Q392 -16 310 -16 Z " />
<glyph glyph-name="P" unicode="P" horiz-adv-x="596" d="M160 3 Q145 3 125 2.5 Q105 2 85 1.5 Q65 1 45 0.5 Q25 0 10 0 L19 35 L82 54 L198 516 Q203 536 203 547 Q203 563 191 572 Q179 581 147 590 L156 625 L402 625 Q469 625 520.5 612 Q572 599 602 570 Q640 532 640 473 Q640 426 621 388 Q602 350 567 321 Q525 286 462.5 267 Q400 248 321 248 L288 248 L253 109 Q248 89 248 78 Q248 71 251 65 Q254 59 261.5 54 Q269 49 282.5 44.5 Q296 40 318 35 L309 0 Q294 0 273.5 0.5 Q253 1 231.5 1.5 Q210 2 191 2.5 Q172 3 160 3 Z M302 303 L310 303 Q348 303 378.5 316 Q409 329 431 351 Q456 376 470 410 Q484 444 484 480 Q484 518 462 542 Q436 569 381 569 L369 569 L302 303 Z " />
<glyph glyph-name="Q" unicode="Q" horiz-adv-x="650" d="M668 393 Q668 335 650 274 Q632 213 599 159.5 Q566 106 518.5 64 Q471 22 411 1 Q416 -73 483.5 -114.5 Q551 -156 678 -161 L670 -202 Q653 -203 634.5 -203.5 Q616 -204 597 -204 Q507 -204 443.5 -191 Q380 -178 338 -152.5 Q296 -127 273.5 -91 Q251 -55 245 -8 Q210 0 180 18.5 Q150 37 128 66.5 Q106 96 93.5 137 Q81 178 81 231 Q81 277 92.5 325.5 Q104 374 125.5 419.5 Q147 465 178.5 505 Q210 545 249.5 575 Q289 605 336.5 622.5 Q384 640 439 640 Q485 640 527 625.5 Q569 611 600 581 Q631 551 649.5 504 Q668 457 668 393 Z M315 50 Q354 50 389.5 88.5 Q425 127 451.5 186 Q478 245 493.5 315 Q509 385 509 447 Q509 502 491 538 Q473 574 434 574 Q395 574 359.5 535.5 Q324 497 297.5 438 Q271 379 255.5 309 Q240 239 240 177 Q240 122 258 86 Q276 50 315 50 Z " />
<glyph glyph-name="R" unicode="R" horiz-adv-x="646" d="M291 263 L253 109 Q248 89 248 78 Q248 62 260 53 Q272 44 304 35 L295 0 Q280 0 261.5 0.5 Q243 1 224.5 1.5 Q206 2 189 2.5 Q172 3 160 3 Q145 3 125 2.5 Q105 2 85 1.5 Q65 1 45 0.5 Q25 0 10 0 L19 35 L82 54 L198 516 Q203 536 203 547 Q203 563 191 572 Q179 581 147 590 L156 625 L408 625 Q540 625 598 579 Q644 544 644 481 Q644 448 630 417.5 Q616 387 592 362 Q568 337 535 318 Q502 299 464 289 Q494 278 508.5 253.5 Q523 229 534 184 L552 105 Q557 85 563.5 77 Q570 69 584 69 Q592 69 603.5 71.5 Q615 74 626 78 L615 30 Q583 10 551.5 -0.5 Q520 -11 495 -11 Q453 -11 432 13.5 Q411 38 399 93 L376 195 Q368 233 354 248 Q340 263 305 263 L291 263 Z M305 318 L315 318 Q352 318 384 332.5 Q416 347 439 370.5 Q462 394 475 424 Q488 454 488 486 Q488 525 465 546 Q450 560 427.5 565 Q405 570 375 570 L369 570 L305 318 Z " />
<glyph glyph-name="S" unicode="S" horiz-adv-x="529" d="M485 455 Q489 515 464 546.5 Q439 578 387 578 Q345 578 315.5 552.5 Q286 527 286 488 Q286 456 310.5 430 Q335 404 385 370 Q406 355 427 338 Q448 321 464 300 Q480 279 490 253.5 Q500 228 500 196 Q500 151 480 112.5 Q460 74 424.5 45.5 Q389 17 339 0.5 Q289 -16 229 -16 Q181 -16 131 -5 Q81 6 47 23 Q57 61 67 102.5 Q77 144 85 180 L137 180 Q136 174 136 168.5 Q136 163 136 158 Q136 107 163 76 Q190 45 240 45 Q262 45 282.5 52.5 Q303 60 318.5 73.5 Q334 87 343 105.5 Q352 124 352 147 Q352 181 325.5 206.5 Q299 232 264 256 Q235 276 211.5 295 Q188 314 171.5 335 Q155 356 146.5 379.5 Q138 403 138 433 Q138 478 158 516 Q178 554 212.5 581.5 Q247 609 294.5 624.5 Q342 640 398 640 Q447 640 487.5 632 Q528 624 570 619 Q565 604 559.5 581.5 Q554 559 549 535.5 Q544 512 539.5 490.5 Q535 469 533 455 L485 455 L485 455 Z " />
<glyph glyph-name="T" unicode="T" horiz-adv-x="610" d="M494 571 L378 109 Q373 89 373 78 Q373 62 385 53 Q397 44 429 35 L420 0 Q405 0 386.5 0.5 Q368 1 349.5 1.5 Q331 2 314 2.5 Q297 3 285 3 Q270 3 250 2.5 Q230 2 209 1.5 Q188 1 168 0.5 Q148 0 133 0 L142 35 L207 54 L336 571 L315 571 Q284 571 261.5 566 Q239 561 221 548 Q203 535 187 512 Q171 489 154 452 L103 452 Q107 466 114 488.5 Q121 511 128 536 Q135 561 141.5 584.5 Q148 608 152 625 L703 625 Q699 608 694 586 Q689 564 684.5 540.5 Q680 517 676 494 Q672 471 669 452 L621 452 Q621 489 617.5 512 Q614 535 603.5 548 Q593 561 573.5 566 Q554 571 521 571 L494 571 Z " />
<glyph glyph-name="U" unicode="U" horiz-adv-x="677" d="M361 571 L285 267 Q276 231 271.5 207.5 Q267 184 267 163 Q267 109 296 85 Q325 61 370 61 Q399 61 426.5 72.5 Q454 84 474 105 Q500 132 517 174 Q534 216 550 277 L611 516 Q616 536 616 547 Q616 563 604 572 Q592 581 560 590 L569 625 Q586 624 614 623.5 Q642 623 664 623 Q691 623 721 623.5 Q751 624 771 625 L762 590 L699 571 L620 253 Q602 181 577.5 132 Q553 83 520 51 Q449 -16 332 -16 Q231 -16 171.5 31.5 Q112 79 112 164 Q112 189 117 218 Q122 247 133 290 L190 516 Q195 536 195 547 Q195 563 183 572 Q171 581 139 590 L148 625 Q163 625 181.5 624.5 Q200 624 218.5 623.5 Q237 623 254 622.5 Q271 622 283 622 Q298 622 318 622.5 Q338 623 358 623.5 Q378 624 398 624.5 Q418 625 433 625 L424 590 L361 571 Z " />
<glyph glyph-name="V" unicode="V" horiz-adv-x="602" d="M727 590 Q709 588 695.5 584.5 Q682 581 671.5 574.5 Q661 568 652.5 557 Q644 546 634 529 L329 -2 L234 -2 L171 515 Q169 534 166 546 Q163 558 155.5 566 Q148 574 135 579 Q122 584 99 590 L108 625 Q115 625 131 624.5 Q147 624 166.5 623.5 Q186 623 206 622.5 Q226 622 241 622 Q260 622 283 622.5 Q306 623 326.5 623.5 Q347 624 363.5 624.5 Q380 625 388 625 L379 590 L320 575 L363 189 L582 574 L530 590 L539 625 Q546 625 559 624.5 Q572 624 587 623.5 Q602 623 616.5 622.5 Q631 622 640 622 Q662 622 688 622.5 Q714 623 736 625 L727 590 L727 590 Z " />
<glyph glyph-name="W" unicode="W" horiz-adv-x="915" d="M1030 590 Q1012 588 998.5 584.5 Q985 581 975 574 Q965 567 956.5 556 Q948 545 939 529 L645 -1 L554 -1 L528 348 L321 -1 L229 -1 L169 517 Q167 534 163.5 545.5 Q160 557 152.5 565.5 Q145 574 132.5 579.5 Q120 585 100 590 L109 625 Q116 625 132.5 624.5 Q149 624 168.5 623.5 Q188 623 207.5 622.5 Q227 622 239 622 Q251 622 270.5 622.5 Q290 623 311.5 623.5 Q333 624 352.5 624.5 Q372 625 383 625 L374 590 L317 571 L358 191 L519 464 L514 528 Q512 559 500.5 570.5 Q489 582 457 590 L466 625 Q473 625 488.5 624.5 Q504 624 523 623.5 Q542 623 561 622.5 Q580 622 595 622 Q606 622 624.5 622.5 Q643 623 662.5 623.5 Q682 624 699 624.5 Q716 625 724 625 L715 590 L658 571 L685 209 L884 570 L828 590 L837 625 Q844 625 856.5 624.5 Q869 624 883.5 623.5 Q898 623 912 622.5 Q926 622 937 622 Q960 622 989.5 622.5 Q1019 623 1039 625 L1030 590 L1030 590 Z " />
<glyph glyph-name="X" unicode="X" horiz-adv-x="628" d="M410 411 L561 574 L516 590 L525 625 Q534 625 548 624.5 Q562 624 577 623.5 Q592 623 606.5 622.5 Q621 622 630 622 Q639 622 652.5 622.5 Q666 623 679.5 623.5 Q693 624 706 624.5 Q719 625 728 625 L719 590 Q702 588 688.5 585 Q675 582 663 576 Q651 570 639 560 Q627 550 613 535 L435 345 L525 104 Q531 87 538.5 75.5 Q546 64 555.5 56.5 Q565 49 578.5 44 Q592 39 610 35 L601 0 Q595 0 579 0.5 Q563 1 543 1.5 Q523 2 500.5 2.5 Q478 3 459 3 Q442 3 419.5 2.5 Q397 2 376 1.5 Q355 1 338 0.5 Q321 0 314 0 L323 35 L381 52 L314 230 L148 51 L193 35 L184 0 Q175 0 161 0.5 Q147 1 132 1.5 Q117 2 102.5 2.5 Q88 3 79 3 Q70 3 56 2.5 Q42 2 28 1.5 Q14 1 0.5 0.5 Q-13 0 -22 0 L-13 35 Q6 38 21 42 Q36 46 48 52 Q60 58 71 67 Q82 76 95 90 L289 297 L206 521 Q200 538 192.5 549.5 Q185 561 175.5 568.5 Q166 576 152.5 581 Q139 586 121 590 L130 625 Q136 625 152 624.5 Q168 624 188.5 623.5 Q209 623 231 622.5 Q253 622 273 622 Q290 622 312.5 622.5 Q335 623 356 623.5 Q377 624 394 624.5 Q411 625 418 625 L409 590 L350 573 L410 411 Z " />
<glyph glyph-name="Y" unicode="Y" horiz-adv-x="579" d="M372 109 Q367 89 367 78 Q367 62 379 53 Q391 44 423 35 L414 0 Q399 0 380.5 0.5 Q362 1 343.5 1.5 Q325 2 308 2.5 Q291 3 279 3 Q264 3 244 2.5 Q224 2 204 1.5 Q184 1 164 0.5 Q144 0 129 0 L138 35 L201 54 L249 246 L179 518 Q170 552 154 567 Q138 582 102 590 L111 625 Q118 624 133.5 623.5 Q149 623 167.5 622.5 Q186 622 206 622 Q226 622 243 622 Q258 622 279 622.5 Q300 623 321 623.5 Q342 624 359 624.5 Q376 625 384 625 L375 590 L321 571 L384 319 L558 572 L511 590 L520 625 Q535 624 564 623 Q593 622 614 622 Q623 622 637.5 622.5 Q652 623 666.5 623.5 Q681 624 693.5 624.5 Q706 625 711 625 L703 590 Q667 587 647.5 573.5 Q628 560 609 532 L405 239 L372 109 Z " />
<glyph glyph-name="Z" unicode="Z" horiz-adv-x="562" d="M264 569 L183 460 L136 460 Q141 475 148 498 Q155 521 161.5 545.5 Q168 570 174 591.5 Q180 613 183 625 L618 625 L635 588 Q594 529 542.5 461.5 Q491 394 435.5 324.5 Q380 255 323 186 Q266 117 214 56 L318 56 Q361 56 387.5 64 Q414 72 436 91 Q451 105 464 123.5 Q477 142 489 169 L539 169 Q534 152 527.5 129 Q521 106 514.5 82.5 Q508 59 502 37 Q496 15 492 0 L46 0 L29 37 Q70 95 121.5 163 Q173 231 228.5 300.5 Q284 370 341 439 Q398 508 450 569 L264 569 Z " />
<glyph glyph-name="a" unicode="a" horiz-adv-x="536" d="M379 -10 Q346 -10 327.5 6.5 Q309 23 305 52 Q282 23 247.5 3.5 Q213 -16 177 -16 Q120 -16 82 26.5 Q44 69 44 144 Q44 199 66.5 255.5 Q89 312 127.5 357.5 Q166 403 217.5 431.5 Q269 460 328 460 Q356 460 380 452.5 Q404 445 424 433 L453 458 L530 452 L541 442 L458 127 Q454 112 452 103 Q450 94 450 87 Q450 65 472 65 Q480 65 488.5 67.5 Q497 70 505 74 L494 28 Q471 13 439.5 1.5 Q408 -10 379 -10 Z M376 379 Q371 387 362 392 Q353 397 341 397 Q315 397 289 371 Q263 345 242.5 306.5 Q222 268 209 222.5 Q196 177 196 138 Q196 109 206 91 Q216 73 236 73 Q268 73 294 118 Q307 141 318 173 Q329 205 340 244 L376 379 Z " />
<glyph glyph-name="b" unicode="b" horiz-adv-x="528" d="M194 65 Q199 57 208 52 Q217 47 229 47 Q256 47 282.5 75 Q309 103 329.5 144 Q350 185 363 231 Q376 277 376 312 Q376 338 368 354.5 Q360 371 341 371 Q307 371 276 316 Q261 290 249 257 Q237 224 224 177 L194 65 Z M261 373 Q287 410 323 435 Q359 460 399 460 Q430 460 454 447.5 Q478 435 494.5 414 Q511 393 519.5 364.5 Q528 336 528 304 Q528 246 505.5 188.5 Q483 131 444 85.5 Q405 40 353 12 Q301 -16 242 -16 Q214 -16 190 -8.5 Q166 -1 146 11 L117 -14 L42 -8 L31 1 L177 572 Q181 588 181 596 Q181 611 170.5 618.5 Q160 626 137 633 L145 665 Q169 665 196.5 665.5 Q224 666 250 667 Q276 668 298.5 669.5 Q321 671 337 673 L348 663 L319 549 Q308 504 292 459.5 Q276 415 259 374 L261 373 Z " />
<glyph glyph-name="c" unicode="c" horiz-adv-x="456" d="M344 460 Q379 460 416.5 453 Q454 446 490 441 Q485 425 479.5 405.5 Q474 386 468.5 366 Q463 346 459 327.5 Q455 309 452 296 L403 296 Q403 397 343 397 Q318 397 294.5 380.5 Q271 364 252 337 Q227 301 211.5 253.5 Q196 206 196 161 Q196 124 213 100 Q230 76 266 76 Q295 76 328 91.5 Q361 107 390 134 L423 99 Q405 74 380.5 53 Q356 32 327.5 16.5 Q299 1 268.5 -7.5 Q238 -16 207 -16 Q133 -16 88.5 28 Q44 72 44 155 Q44 218 70 276.5 Q96 335 142 380 Q180 417 231.5 438.5 Q283 460 344 460 Z " />
<glyph glyph-name="d" unicode="d" horiz-adv-x="537" d="M459 127 Q455 112 453 103 Q451 94 451 87 Q451 65 473 65 Q481 65 489.5 67.5 Q498 70 506 74 L495 28 Q472 13 440.5 1.5 Q409 -10 380 -10 Q347 -10 328.5 6.5 Q310 23 306 52 Q283 23 248 3.5 Q213 -16 177 -16 Q120 -16 82 26.5 Q44 69 44 144 Q44 199 66.5 255.5 Q89 312 127.5 357.5 Q166 403 218 431.5 Q270 460 329 460 Q363 460 394 447 L427 572 Q431 588 431 596 Q431 611 420.5 618.5 Q410 626 387 633 L395 665 Q419 665 446.5 665.5 Q474 666 500 667 Q526 668 548.5 669.5 Q571 671 587 673 L598 663 L459 127 Z M377 379 Q372 387 363 392 Q354 397 342 397 Q316 397 290 371 Q264 345 243 306.5 Q222 268 209 222.5 Q196 177 196 138 Q196 109 206 91 Q216 73 236 73 Q269 73 295 118 Q308 141 319.5 173.5 Q331 206 342 246 L377 379 Z " />
<glyph glyph-name="e" unicode="e" horiz-adv-x="471" d="M441 101 Q420 74 392.5 52.5 Q365 31 335 16 Q305 1 274 -7.5 Q243 -16 215 -16 Q137 -16 90.5 28 Q44 72 44 150 Q44 209 68 265 Q92 321 133.5 364.5 Q175 408 229.5 434 Q284 460 345 460 Q413 460 451 430.5 Q489 401 489 356 Q489 315 465.5 283 Q442 251 402 227.5 Q362 204 309 190 Q256 176 197 173 Q196 168 196 165 Q196 162 196 158 Q196 124 212.5 100.5 Q229 77 267 77 Q299 77 335.5 94 Q372 111 408 136 L441 101 Z M205 234 Q234 240 261 253 Q288 266 308.5 283.5 Q329 301 341 321.5 Q353 342 353 362 Q353 396 323 396 Q304 396 286.5 382 Q269 368 253.5 345.5 Q238 323 225.5 294 Q213 265 205 234 Z " />
<glyph glyph-name="f" unicode="f" horiz-adv-x="348" d="M150 444 Q165 494 187.5 535.5 Q210 577 240 608 Q273 642 314.5 661 Q356 680 407 680 Q432 680 456.5 675.5 Q481 671 500.5 662 Q520 653 532 639.5 Q544 626 544 609 Q544 596 537.5 582.5 Q531 569 521 558 Q511 547 498 540 Q485 533 473 533 Q455 533 444 547 Q433 561 423.5 578 Q414 595 404 609 Q394 623 380 623 Q369 623 360 614.5 Q351 606 341.5 585.5 Q332 565 321.5 530.5 Q311 496 298 444 L415 444 L392 390 L284 390 L128 -220 L-20 -220 L136 390 L71 390 L85 444 L150 444 Z " />
<glyph glyph-name="g" unicode="g" horiz-adv-x="512" d="M505 319 Q505 275 485 239 Q465 203 432 177.5 Q399 152 356 137.5 Q313 123 266 123 Q225 123 192 132 Q188 127 188 119 Q188 107 204 99.5 Q220 92 260 81 Q311 68 346.5 54.5 Q382 41 404.5 25.5 Q427 10 437.5 -9.5 Q448 -29 448 -55 Q448 -91 426.5 -123 Q405 -155 367.5 -180 Q330 -205 279.5 -219.5 Q229 -234 172 -234 Q125 -234 85 -225.5 Q45 -217 15.5 -201.5 Q-14 -186 -31 -164.5 Q-48 -143 -48 -117 Q-48 -95 -36.5 -77 Q-25 -59 -6.5 -44.5 Q12 -30 35 -19.5 Q58 -9 81 -1 Q59 20 59 51 Q59 83 83 109 Q107 135 142 155 Q85 194 85 264 Q85 307 105 343.5 Q125 380 158 405.5 Q191 431 234 445.5 Q277 460 324 460 Q357 460 384 454 Q404 499 432 526 Q460 553 495 553 Q519 553 534.5 539.5 Q550 526 550 501 Q550 484 544 466 Q538 448 530 433 Q510 451 486 451 Q473 451 460.5 446 Q448 441 438 433 Q470 415 487.5 385.5 Q505 356 505 319 Z M360 340 Q360 366 350.5 382.5 Q341 399 319 399 Q299 399 282.5 383 Q266 367 254.5 343.5 Q243 320 236.5 292.5 Q230 265 230 243 Q230 217 239.5 200.5 Q249 184 271 184 Q291 184 307.5 200 Q324 216 335.5 239.5 Q347 263 353.5 290 Q360 317 360 340 Z M202 -53 Q181 -47 163 -41.5 Q145 -36 131 -30 Q114 -44 105 -62.5 Q96 -81 96 -99 Q96 -130 122 -148 Q148 -166 194 -166 Q214 -166 235 -161.5 Q256 -157 273 -149.5 Q290 -142 301 -131 Q312 -120 312 -108 Q312 -101 307.5 -94.5 Q303 -88 290.5 -82 Q278 -76 256.5 -69 Q235 -62 202 -53 Z " />
<glyph glyph-name="h" unicode="h" horiz-adv-x="547" d="M510 28 Q487 13 456 1.5 Q425 -10 396 -10 Q358 -10 336.5 10.5 Q315 31 315 69 Q315 98 324.5 136 Q334 174 347 212 Q364 263 370.5 288.5 Q377 314 377 328 Q377 358 348 358 Q328 358 309 342.5 Q290 327 274 300 Q255 268 240 223 Q225 178 211 126 L179 0 L31 0 L177 572 Q181 588 181 596 Q181 611 170.5 618.5 Q160 626 137 633 L145 665 Q169 665 196.5 665.5 Q224 666 250 667 Q276 668 298.5 669.5 Q321 671 337 673 L348 663 L314 529 Q308 507 301 483 Q294 459 286.5 436 Q279 413 272 393 Q265 373 259 360 L262 359 Q288 401 329 430.5 Q370 460 421 460 Q469 460 498.5 430 Q528 400 528 346 Q528 315 517 273 Q506 231 493 191 Q480 152 473 127 Q466 102 466 88 Q466 65 488 65 Q496 65 504.5 67.5 Q513 70 521 74 L510 28 Z " />
<glyph glyph-name="i" unicode="i" horiz-adv-x="292" d="M124 351 Q128 367 128 375 Q128 390 117.5 397.5 Q107 405 84 412 L92 444 Q116 444 143.5 444.5 Q171 445 197.5 446 Q224 447 247 448.5 Q270 450 286 452 L297 442 L214 127 Q210 112 208 103 Q206 94 206 87 Q206 65 228 65 Q236 65 244.5 67.5 Q253 70 261 74 L250 28 Q227 13 195.5 1.5 Q164 -10 135 -10 Q97 -10 77 10.5 Q57 31 57 69 Q57 86 61 106.5 Q65 127 73 156 L124 351 Z M236 500 Q207 500 190 517 Q173 534 173 560 Q173 579 180.5 597.5 Q188 616 201 630 Q214 644 231.5 652.5 Q249 661 269 661 Q298 661 315 644 Q332 627 332 601 Q332 581 324.5 563 Q317 545 304 531 Q291 517 273.5 508.5 Q256 500 236 500 Z " />
<glyph glyph-name="j" unicode="j" horiz-adv-x="281" d="M189 28 Q172 -35 151 -75 Q130 -115 100 -146 Q64 -183 15 -201.5 Q-34 -220 -95 -227 L-104 -188 Q-76 -176 -55 -162 Q-34 -148 -19 -129 Q-4 -110 7 -85 Q18 -60 27 -27 L124 351 Q128 367 128 375 Q128 390 117.5 397.5 Q107 405 84 412 L92 444 Q116 444 143.5 444.5 Q171 445 197.5 446 Q224 447 247 448.5 Q270 450 286 452 L297 442 L189 28 Z M236 500 Q207 500 190 517 Q173 534 173 560 Q173 579 180.5 597.5 Q188 616 201 630 Q214 644 231.5 652.5 Q249 661 269 661 Q298 661 315 644 Q332 627 332 601 Q332 581 324.5 563 Q317 545 304 531 Q291 517 273.5 508.5 Q256 500 236 500 Z " />
<glyph glyph-name="k" unicode="k" horiz-adv-x="523" d="M247 266 L303 308 Q393 376 413 440 L563 444 L563 430 Q548 418 527.5 403.5 Q507 389 484 373 Q461 357 436.5 340 Q412 323 388 307 L432 102 Q436 84 442.5 75 Q449 66 464 66 Q472 66 482.5 68 Q493 70 504 74 L493 29 Q470 14 439.5 2 Q409 -10 382 -10 Q338 -10 318.5 17.5 Q299 45 289 93 L262 221 L230 199 L179 0 L31 0 L177 572 Q181 588 181 596 Q181 611 170.5 618.5 Q160 626 137 633 L145 665 Q169 665 196.5 665.5 Q224 666 250 667 Q276 668 298.5 669.5 Q321 671 337 673 L348 663 L247 266 Z " />
<glyph glyph-name="l" unicode="l" horiz-adv-x="289" d="M178 572 Q182 588 182 596 Q182 611 171.5 618.5 Q161 626 138 633 L146 665 Q170 665 197.5 665.5 Q225 666 251 667 Q277 668 299.5 669.5 Q322 671 338 673 L349 663 L212 127 Q209 116 206.5 105 Q204 94 204 86 Q204 65 226 65 Q234 65 242.5 67.5 Q251 70 259 74 L248 28 Q225 13 193.5 1.5 Q162 -10 133 -10 Q95 -10 75 10.5 Q55 31 55 69 Q55 85 59 105 Q63 125 71 156 L178 572 Z " />
<glyph glyph-name="m" unicode="m" horiz-adv-x="798" d="M280 442 L262 360 L265 359 Q291 401 331 430.5 Q371 460 420 460 Q462 460 491 437.5 Q520 415 528 373 Q554 409 590.5 434.5 Q627 460 672 460 Q720 460 749.5 429.5 Q779 399 779 345 Q779 314 768 272.5 Q757 231 744 192 Q731 153 724 127.5 Q717 102 717 88 Q717 65 739 65 Q747 65 755.5 67.5 Q764 70 772 74 L761 28 Q738 13 706 1.5 Q674 -10 646 -10 Q608 -10 587 10.5 Q566 31 566 69 Q566 98 575.5 136 Q585 174 598 212 Q614 262 621 288 Q628 314 628 328 Q628 358 602 358 Q549 358 498 225 Q489 201 480 173 Q471 145 464 115.5 Q457 86 452 56.5 Q447 27 446 0 L305 0 Q305 43 316 95.5 Q327 148 348 212 Q364 262 370.5 288 Q377 314 377 328 Q377 358 349 358 Q332 358 312.5 343 Q293 328 277 301 Q258 269 243 223.5 Q228 178 214 126 L182 0 L34 0 L124 351 Q128 367 128 375 Q128 390 117.5 397.5 Q107 405 84 412 L92 444 Q141 444 189 445.5 Q237 447 269 452 L280 442 Z " />
<glyph glyph-name="n" unicode="n" horiz-adv-x="550" d="M513 28 Q490 13 459 1.5 Q428 -10 399 -10 Q361 -10 339.5 10.5 Q318 31 318 69 Q318 98 327.5 136 Q337 174 350 212 Q367 263 373.5 288.5 Q380 314 380 328 Q380 358 351 358 Q331 358 312 342.5 Q293 327 277 300 Q258 268 243 223 Q228 178 214 126 L182 0 L34 0 L124 351 Q128 367 128 375 Q128 390 117.5 397.5 Q107 405 84 412 L92 444 Q141 444 189 445.5 Q237 447 269 452 L280 442 L262 360 L265 359 Q291 401 332 430.5 Q373 460 424 460 Q472 460 501.5 430 Q531 400 531 346 Q531 315 520 273 Q509 231 496 191 Q483 152 476 127 Q469 102 469 88 Q469 65 491 65 Q499 65 507.5 67.5 Q516 70 524 74 L513 28 Z " />
<glyph glyph-name="o" unicode="o" horiz-adv-x="508" d="M322 460 Q408 460 458 411.5 Q508 363 508 278 Q508 219 486.5 165.5 Q465 112 427.5 71.5 Q390 31 339 7.5 Q288 -16 230 -16 Q144 -16 94 32.5 Q44 81 44 166 Q44 225 65.5 278.5 Q87 332 124.5 372.5 Q162 413 212.5 436.5 Q263 460 322 460 Z M320 398 Q294 398 271.5 367 Q249 336 232.5 291.5 Q216 247 206 198 Q196 149 196 114 Q196 85 204.5 65.5 Q213 46 232 46 Q257 46 280 77 Q303 108 319.5 152.5 Q336 197 346 246 Q356 295 356 330 Q356 359 347.5 378.5 Q339 398 320 398 Z " />
<glyph glyph-name="p" unicode="p" horiz-adv-x="532" d="M246 -16 Q228 -16 211.5 -12.5 Q195 -9 180 -4 L125 -220 L-23 -220 L124 351 Q128 367 128 375 Q128 390 117.5 397.5 Q107 405 84 412 L92 444 Q141 444 188.5 445.5 Q236 447 268 452 L279 442 L264 374 L265 373 Q291 410 327 435 Q363 460 403 460 Q434 460 458 447.5 Q482 435 498.5 414 Q515 393 523.5 364.5 Q532 336 532 304 Q532 246 509.5 188.5 Q487 131 448 85.5 Q409 40 357 12 Q305 -16 246 -16 Z M198 65 Q203 57 212 52 Q221 47 233 47 Q260 47 286.5 75 Q313 103 333.5 144 Q354 185 367 231 Q380 277 380 312 Q380 338 372 354.5 Q364 371 345 371 Q311 371 280 316 Q265 290 253 257 Q241 224 228 177 L198 65 Z " />
<glyph glyph-name="q" unicode="q" horiz-adv-x="524" d="M220 -218 L286 34 Q263 11 234.5 -2.5 Q206 -16 177 -16 Q120 -16 82 26.5 Q44 69 44 144 Q44 199 66.5 255.5 Q89 312 127.5 357.5 Q166 403 217.5 431.5 Q269 460 328 460 Q356 460 380 452.5 Q404 445 424 433 L453 458 L530 452 L541 442 L391 -127 Q387 -143 387 -151 Q387 -166 397.5 -173.5 Q408 -181 431 -188 L423 -220 Q399 -220 371.5 -220.5 Q344 -221 318 -222 Q292 -223 269.5 -224.5 Q247 -226 231 -228 L220 -218 Z M376 379 Q371 387 362 392 Q353 397 341 397 Q315 397 289 371 Q263 345 242.5 306.5 Q222 268 209 222.5 Q196 177 196 138 Q196 109 206 91 Q216 73 236 73 Q268 73 294 118 Q307 141 318 173 Q329 205 340 244 L376 379 Z " />
<glyph glyph-name="r" unicode="r" horiz-adv-x="423" d="M264 354 Q294 398 333.5 429 Q373 460 413 460 Q439 460 452 446 Q465 432 465 409 Q465 395 459.5 380.5 Q454 366 444.5 354 Q435 342 423.5 334.5 Q412 327 400 327 Q385 327 372 336 Q359 345 340 345 Q322 345 305.5 332 Q289 319 273 289.5 Q257 260 240.5 212.5 Q224 165 206 95 L182 0 L34 0 L124 351 Q128 367 128 375 Q128 390 117.5 397.5 Q107 405 84 412 L92 444 Q141 444 189 445.5 Q237 447 269 452 L280 442 L261 355 L264 354 Z " />
<glyph glyph-name="s" unicode="s" horiz-adv-x="434" d="M452 441 Q449 430 444 411.5 Q439 393 434 373 Q429 353 424.5 334.5 Q420 316 417 304 L371 304 Q369 400 296 400 Q268 400 248 385.5 Q228 371 228 347 Q228 325 247 310.5 Q266 296 295 279 Q313 268 332.5 256.5 Q352 245 367.5 229 Q383 213 393 193 Q403 173 403 146 Q403 111 387 81 Q371 51 342.5 29.5 Q314 8 274 -4 Q234 -16 186 -16 Q149 -16 103 -7.5 Q57 1 22 13 Q26 26 31 43.5 Q36 61 41 79.5 Q46 98 50 115.5 Q54 133 57 146 L105 146 Q107 99 127 71.5 Q147 44 192 44 Q222 44 243 59 Q264 74 264 97 Q264 116 246.5 129.5 Q229 143 205 157 Q186 168 165.5 180.5 Q145 193 128 209 Q111 225 100 246 Q89 267 89 296 Q89 330 104.5 360 Q120 390 148 412.5 Q176 435 215 447.5 Q254 460 301 460 Q338 460 378.5 452 Q419 444 452 441 Z " />
<glyph glyph-name="t" unicode="t" horiz-adv-x="366" d="M281 390 L217 136 Q211 112 211 100 Q211 86 218.5 77 Q226 68 243 68 Q260 68 281.5 76.5 Q303 85 327 99 L350 62 Q314 27 266.5 5.5 Q219 -16 172 -16 Q121 -16 92.5 12 Q64 40 64 88 Q64 107 67.5 127.5 Q71 148 79 179 L133 390 L68 390 L82 444 L147 444 L166 519 L313 568 L324 558 L295 444 L412 444 L389 390 L281 390 Z " />
<glyph glyph-name="u" unicode="u" horiz-adv-x="552" d="M408 444 L556 444 L475 127 Q471 112 469 103 Q467 94 467 87 Q467 65 489 65 Q497 65 505.5 67.5 Q514 70 522 74 L511 28 Q488 13 456.5 1.5 Q425 -10 396 -10 Q358 -10 338 10.5 Q318 31 318 74 Q292 36 254 10 Q216 -16 169 -16 Q119 -16 91.5 13.5 Q64 43 64 92 Q64 112 68 133.5 Q72 155 80 183 L125 351 Q129 367 129 375 Q129 390 118.5 397.5 Q108 405 85 412 L93 444 Q117 444 144.5 444.5 Q172 445 198 446 Q224 447 247 448.5 Q270 450 286 452 L297 442 L224 171 Q219 150 216.5 138 Q214 126 214 117 Q214 103 221 94.5 Q228 86 242 86 Q260 86 279 101.5 Q298 117 314 144 Q331 173 346 216.5 Q361 260 377 323 L408 444 Z " />
<glyph glyph-name="v" unicode="v" horiz-adv-x="486" d="M519 443 Q519 406 504 365 Q489 324 464 282 Q439 240 405.5 199 Q372 158 334.5 120.5 Q297 83 257.5 51.5 Q218 20 181 -3 L107 -3 L106 348 Q106 364 104.5 374 Q103 384 97.5 391 Q92 398 81.5 402.5 Q71 407 53 412 L61 444 Q111 444 160 445.5 Q209 447 240 452 L251 442 L251 117 Q314 180 345 264 Q376 348 378 448 L519 443 Z " />
<glyph glyph-name="w" unicode="w" horiz-adv-x="729" d="M365 185 Q351 159 331 132.5 Q311 106 287.5 81 Q264 56 238 34.5 Q212 13 185 -3 L111 -3 L105 348 Q105 364 103 374.5 Q101 385 96 392 Q91 399 81 403 Q71 407 53 412 L61 444 Q111 444 159.5 445.5 Q208 447 239 452 L250 442 L254 120 Q305 176 336 257 Q367 338 367 446 L504 444 L509 115 Q569 181 594.5 266.5 Q620 352 622 448 L762 444 Q762 390 734 326.5 Q706 263 661 202 Q616 141 558 87 Q500 33 440 -3 L368 -3 L365 185 Z " />
<glyph glyph-name="x" unicode="x" horiz-adv-x="505" d="M87 444 Q137 444 181.5 446 Q226 448 257 452 L270 444 L321 311 Q363 382 407 421 Q451 460 499 460 Q516 460 533 454 Q524 421 515 385.5 Q506 350 499 323 Q490 328 479.5 331 Q469 334 457 334 Q428 334 400.5 314.5 Q373 295 341 261 L405 96 Q411 81 419 73.5 Q427 66 441 66 Q449 66 457 68 Q465 70 473 72 L462 27 Q442 13 412 1.5 Q382 -10 356 -10 Q315 -10 293 15 Q271 40 252 90 L232 141 Q196 77 146.5 35 Q97 -7 38 -14 Q35 5 29.5 37.5 Q24 70 19 99 Q84 107 128.5 129.5 Q173 152 212 194 L153 347 Q147 363 141 374 Q135 385 127 392 Q119 399 108 403.5 Q97 408 79 412 L87 444 Z " />
<glyph glyph-name="y" unicode="y" horiz-adv-x="541" d="M556 444 L458 58 Q423 -79 331.5 -147 Q240 -215 83 -226 L75 -184 Q126 -170 164 -151.5 Q202 -133 229 -107.5 Q256 -82 274 -48 Q292 -14 304 33 L311 63 Q285 31 248 7.5 Q211 -16 169 -16 Q119 -16 91.5 13.5 Q64 43 64 92 Q64 112 68 133.5 Q72 155 80 183 L125 351 Q129 367 129 375 Q129 390 118.5 397.5 Q108 405 85 412 L93 444 Q117 444 144.5 444.5 Q172 445 198 446 Q224 447 247 448.5 Q270 450 286 452 L297 442 L224 171 Q219 150 216.5 138 Q214 126 214 117 Q214 103 221 94.5 Q228 86 242 86 Q260 86 279 101.5 Q298 117 314 144 Q331 173 346 216.5 Q361 260 377 323 L408 444 L556 444 Z " />
<glyph glyph-name="z" unicode="z" horiz-adv-x="537" d="M343 391 Q311 391 290.5 388.5 Q270 386 255.5 378 Q241 370 229.5 354.5 Q218 339 205 313 L164 313 Q172 343 181.5 378.5 Q191 414 199 444 L564 444 L575 428 Q549 380 470 283 Q391 186 267 53 L325 53 Q353 53 373.5 57 Q394 61 410 70 Q426 79 438.5 94.5 Q451 110 464 133 L504 133 Q499 118 494 100 Q489 82 484 63.5 Q479 45 475 28 Q471 11 468 0 L92 0 L81 16 Q107 64 186 161 Q265 258 389 391 L343 391 Z " />
<glyph glyph-name="ampersand" unicode="&#x26;" horiz-adv-x="678" d="M363 86 Q400 86 433.5 100 Q467 114 493 140.5 Q519 167 534.5 204 Q550 241 552 287 Q513 283 499 271.5 Q485 260 482 232 L443 236 Q441 247 440 260.5 Q439 274 439 284 Q439 313 445.5 333 Q452 353 467.5 366.5 Q483 380 508.5 388 Q534 396 572 401 Q598 404 615 407.5 Q632 411 642.5 417 Q653 423 659 432 Q665 441 669 455 L708 451 L705 411 Q700 355 679 328 Q658 301 614 295 Q614 230 590.5 173.5 Q567 117 526.5 75 Q486 33 430 8.5 Q374 -16 310 -16 Q263 -16 221 -2 Q179 12 146.5 37.5 Q114 63 95 100 Q76 137 76 183 Q76 260 124.5 311.5 Q173 363 251 384 Q225 398 210 423 Q195 448 195 479 Q195 516 213 546 Q231 576 262.5 597 Q294 618 336 629 Q378 640 427 640 Q469 640 513 632 Q557 624 589 611 Q586 601 580.5 582 Q575 563 569 542.5 Q563 522 557.5 502.5 Q552 483 549 472 L505 472 Q506 478 506 483.5 Q506 489 506 494 Q506 529 486.5 553 Q467 577 427 577 Q406 577 387.5 569 Q369 561 355 546.5 Q341 532 333 513.5 Q325 495 325 474 Q325 436 348 417.5 Q371 399 415 397 L391 345 Q361 344 332.5 335 Q304 326 282 308 Q260 290 247 264.5 Q234 239 234 205 Q234 152 269.5 119 Q305 86 363 86 Z " />
<glyph glyph-name="at" unicode="&#x40;" horiz-adv-x="796" d="M579 254 Q574 234 574 224 Q574 199 598 199 Q615 199 631.5 215 Q648 231 661.5 258 Q675 285 683 319 Q691 353 691 389 Q691 432 677.5 468 Q664 504 638 530 Q612 556 574 570.5 Q536 585 487 585 Q425 585 371.5 559.5 Q318 534 279 489.5 Q240 445 217.5 386.5 Q195 328 195 262 Q195 156 256.5 97 Q318 38 429 38 Q494 38 559.5 59.5 Q625 81 682 117 L702 86 Q644 41 569 12.5 Q494 -16 409 -16 Q329 -16 266 5 Q203 26 160 63.5 Q117 101 94.5 152.5 Q72 204 72 266 Q72 337 102.5 404 Q133 471 188 523.5 Q243 576 320 608 Q397 640 490 640 Q559 640 614.5 620.5 Q670 601 709 566.5 Q748 532 769 485 Q790 438 790 384 Q790 338 774 295 Q758 252 729 219 Q700 186 659.5 166 Q619 146 571 146 Q530 146 505 161.5 Q480 177 472 200 Q455 175 427.5 159.5 Q400 144 366 144 Q321 144 291 173.5 Q261 203 261 259 Q261 303 277.5 342 Q294 381 322 410 Q350 439 387 456 Q424 473 466 473 Q503 473 530 457 L553 474 L625 465 L632 455 L579 254 Z M501 416 Q492 425 477 425 Q456 425 438 409 Q420 393 407 368 Q394 343 386.5 313.5 Q379 284 379 257 Q379 237 386.5 224 Q394 211 408 211 Q429 211 445 236.5 Q461 262 475 317 L501 416 Z " />
<glyph glyph-name="exclam" unicode="&#x21;" horiz-adv-x="287" d="M273 640 Q304 640 319.5 622 Q335 604 335 578 Q335 560 332 542.5 Q329 525 321.5 504.5 Q314 484 302.5 459 Q291 434 274 400 Q257 366 244.5 339 Q232 312 221.5 288.5 Q211 265 202.5 243.5 Q194 222 187 201 L140 201 Q146 238 148 278 Q150 318 150 356 Q150 394 151 424.5 Q152 455 155.5 480.5 Q159 506 165 528.5 Q171 551 182 573 Q197 603 220 621.5 Q243 640 273 640 Z M111 -16 Q83 -16 66.5 1 Q50 18 50 42 Q50 61 58 78 Q66 95 79.5 107.5 Q93 120 110.5 127.5 Q128 135 146 135 Q174 135 190.5 118 Q207 101 207 77 Q207 58 199 41 Q191 24 177.5 11.5 Q164 -1 146.5 -8.5 Q129 -16 111 -16 Z " />
<glyph glyph-name="exclamdown" unicode="&#xa1;" horiz-adv-x="287" d="M68.0333 -193.922 Q37.0371 -193.922 21.539 -175.924 Q6.04089 -157.926 6.04089 -131.929 Q6.04089 -113.932 9.04053 -96.4338 Q12.0402 -78.9359 19.5392 -58.4384 Q27.0383 -37.9409 38.5369 -12.944 Q50.0355 12.053 67.0334 46.0488 Q84.0314 80.0447 96.5298 107.041 Q109.028 134.038 119.527 157.535 Q130.026 181.032 138.525 202.53 Q147.024 224.027 154.023 245.025 L201.017 245.025 Q195.018 208.029 193.018 168.034 Q191.018 128.039 191.018 90.0435 Q191.018 52.0481 190.018 21.5518 Q189.019 -8.94446 185.519 -34.4413 Q182.019 -59.9382 176.02 -82.4355 Q170.021 -104.933 159.022 -126.93 Q144.024 -156.926 121.027 -175.424 Q98.0297 -193.922 68.0333 -193.922 Z M230.014 461.998 Q258.01 461.998 274.508 445 Q291.006 428.002 291.006 404.005 Q291.006 385.007 283.007 368.01 Q275.008 351.012 261.51 338.513 Q248.011 326.015 230.513 318.516 Q213.016 311.016 195.018 311.016 Q167.021 311.016 150.523 328.014 Q134.025 345.012 134.025 369.009 Q134.025 388.007 142.024 405.005 Q150.023 422.003 163.522 434.501 Q177.02 447 194.518 454.499 Q212.016 461.998 230.014 461.998 Z " />
<glyph glyph-name="question" unicode="&#x3f;" horiz-adv-x="453" d="M199 201 Q210 247 235 283 Q260 319 285.5 351 Q311 383 330.5 415 Q350 447 350 484 Q350 516 332 533 Q314 550 282 550 Q249 550 216.5 533 Q184 516 154 484 L116 521 Q160 577 218.5 608.5 Q277 640 349 640 Q386 640 416 629.5 Q446 619 467 600.5 Q488 582 499.5 557 Q511 532 511 503 Q511 466 497 438 Q483 410 460.5 386.5 Q438 363 410 343 Q382 323 353.5 301.5 Q325 280 299 256 Q273 232 256 201 L199 201 Z M175 -16 Q147 -16 130.5 1 Q114 18 114 42 Q114 61 122 78 Q130 95 143.5 107.5 Q157 120 174.5 127.5 Q192 135 210 135 Q238 135 254.5 118 Q271 101 271 77 Q271 58 263 41 Q255 24 241.5 11.5 Q228 -1 210.5 -8.5 Q193 -16 175 -16 Z " />
<glyph glyph-name="questiondown" unicode="&#xbf;" horiz-adv-x="453" d="M320.024 245.025 Q309.026 199.03 284.029 163.035 Q259.032 127.039 233.535 95.0428 Q208.038 63.0468 188.54 31.0507 Q169.043 -0.945435 169.043 -37.9409 Q169.043 -69.937 187.041 -86.9349 Q205.038 -103.933 237.034 -103.933 Q270.03 -103.933 302.526 -86.9349 Q335.022 -69.937 365.019 -37.9409 L403.014 -74.9364 Q359.02 -130.93 300.527 -162.426 Q242.034 -193.922 170.043 -193.922 Q133.047 -193.922 103.051 -183.423 Q73.0544 -172.924 52.057 -154.427 Q31.0596 -135.929 19.561 -110.932 Q8.06238 -85.9351 8.06238 -56.9386 Q8.06238 -19.9431 22.0607 8.05347 Q36.059 36.05 58.5562 59.5472 Q81.0535 83.0443 109.05 103.042 Q137.047 123.039 165.543 144.537 Q194.04 166.034 220.036 190.031 Q246.033 214.028 263.031 245.025 L320.024 245.025 Z M344.021 461.998 Q372.018 461.998 388.516 445 Q405.014 428.002 405.014 404.005 Q405.014 385.007 397.015 368.01 Q389.016 351.012 375.518 338.513 Q362.019 326.015 344.521 318.516 Q327.023 311.016 309.026 311.016 Q281.029 311.016 264.531 328.014 Q248.033 345.012 248.033 369.009 Q248.033 388.007 256.032 405.005 Q264.031 422.003 277.529 434.501 Q291.028 447 308.526 454.499 Q326.024 461.998 344.021 461.998 Z " />
<glyph glyph-name="asterisk" unicode="&#x2a;" horiz-adv-x="402" d="M198 386 Q168 364 152.5 356 Q137 348 126 348 Q112 348 103.5 358.5 Q95 369 95 382 Q95 399 110.5 409 Q126 419 163 430 Q198 440 222 447.5 Q246 455 252 458 Q229 468 207.5 474.5 Q186 481 169.5 487.5 Q153 494 143.5 501.5 Q134 509 134 523 Q134 541 148 554.5 Q162 568 178 568 Q189 568 198.5 562 Q208 556 218.5 544.5 Q229 533 242 517.5 Q255 502 274 484 L274 495 Q274 517 273 534 Q272 551 272 571 Q272 607 286 623.5 Q300 640 320 640 Q338 640 345 630 Q352 620 352 608 Q352 597 346.5 583 Q341 569 332.5 553 Q324 537 314.5 519.5 Q305 502 297 484 L359 529 Q389 551 404.5 559 Q420 567 431 567 Q445 567 453.5 556.5 Q462 546 462 533 Q462 516 446.5 506 Q431 496 394 485 Q359 475 335 467.5 Q311 460 305 457 Q328 446 349.5 440 Q371 434 387.5 427.5 Q404 421 413.5 413 Q423 405 423 392 Q423 374 409 360.5 Q395 347 379 347 Q368 347 358.5 353 Q349 359 338.5 370.5 Q328 382 315 397.5 Q302 413 283 431 L283 420 Q283 398 284 381 Q285 364 285 344 Q285 308 271 291.5 Q257 275 237 275 Q219 275 212 285 Q205 295 205 307 Q205 317 210.5 331.5 Q216 346 224.5 362 Q233 378 242.5 395.5 Q252 413 260 431 L198 386 Z " />
<glyph glyph-name="period" unicode="&#x2e;" horiz-adv-x="232" d="M88 -16 Q60 -16 43.5 1 Q27 18 27 42 Q27 61 35 78 Q43 95 56.5 107.5 Q70 120 87.5 127.5 Q105 135 123 135 Q151 135 167.5 118 Q184 101 184 77 Q184 58 176 41 Q168 24 154.5 11.5 Q141 -1 123.5 -8.5 Q106 -16 88 -16 Z " />
<glyph glyph-name="comma" unicode="&#x2c;" horiz-adv-x="232" d="M176 67 Q176 33 161.5 0.5 Q147 -32 122 -60.5 Q97 -89 65 -113.5 Q33 -138 -1 -157 L-22 -125 Q24 -90 47.5 -60.5 Q71 -31 71 -13 Q71 -1 64.5 7.5 Q58 16 50.5 24 Q43 32 36.5 41 Q30 50 30 63 Q30 78 36.5 91 Q43 104 54 113.5 Q65 123 80.5 129 Q96 135 113 135 Q146 135 161 115 Q176 95 176 67 Z " />
<glyph glyph-name="colon" unicode="&#x3a;" horiz-adv-x="232" d="M88 -16 Q60 -16 43.5 1 Q27 18 27 42 Q27 61 35 78 Q43 95 56.5 107.5 Q70 120 87.5 127.5 Q105 135 123 135 Q151 135 167.5 118 Q184 101 184 77 Q184 58 176 41 Q168 24 154.5 11.5 Q141 -1 123.5 -8.5 Q106 -16 88 -16 Z M165 283 Q137 283 120.5 300 Q104 317 104 341 Q104 360 112 377 Q120 394 133.5 406.5 Q147 419 164.5 426.5 Q182 434 200 434 Q228 434 244.5 417 Q261 400 261 376 Q261 357 253 340 Q245 323 231.5 310.5 Q218 298 200.5 290.5 Q183 283 165 283 Z " />
<glyph glyph-name="semicolon" unicode="&#x3b;" horiz-adv-x="232" d="M165 283 Q137 283 120.5 300 Q104 317 104 341 Q104 360 112 377 Q120 394 133.5 406.5 Q147 419 164.5 426.5 Q182 434 200 434 Q228 434 244.5 417 Q261 400 261 376 Q261 357 253 340 Q245 323 231.5 310.5 Q218 298 200.5 290.5 Q183 283 165 283 Z M176 67 Q176 33 161.5 0.5 Q147 -32 122 -60.5 Q97 -89 65 -113.5 Q33 -138 -1 -157 L-22 -125 Q24 -90 47.5 -60.5 Q71 -31 71 -13 Q71 -1 64.5 7.5 Q58 16 50.5 24 Q43 32 36.5 41 Q30 50 30 63 Q30 78 36.5 91 Q43 104 54 113.5 Q65 123 80.5 129 Q96 135 113 135 Q146 135 161 115 Q176 95 176 67 Z " />
<glyph glyph-name="ellipsis" unicode="&#x2026;" horiz-adv-x="696" d="M88 -16 Q60 -16 43.5 1 Q27 18 27 42 Q27 61 35 78 Q43 95 56.5 107.5 Q70 120 87.5 127.5 Q105 135 123 135 Q151 135 167.5 118 Q184 101 184 77 Q184 58 176 41 Q168 24 154.5 11.5 Q141 -1 123.5 -8.5 Q106 -16 88 -16 Z M320 -16 Q292 -16 275.5 1 Q259 18 259 42 Q259 61 267 78 Q275 95 288.5 107.5 Q302 120 319.5 127.5 Q337 135 355 135 Q383 135 399.5 118 Q416 101 416 77 Q416 58 408 41 Q400 24 386.5 11.5 Q373 -1 355.5 -8.5 Q338 -16 320 -16 Z M552 -16 Q524 -16 507.5 1 Q491 18 491 42 Q491 61 499 78 Q507 95 520.5 107.5 Q534 120 551.5 127.5 Q569 135 587 135 Q615 135 631.5 118 Q648 101 648 77 Q648 58 640 41 Q632 24 618.5 11.5 Q605 -1 587.5 -8.5 Q570 -16 552 -16 Z " />
<glyph glyph-name="periodcentered" unicode="&#xb7;" horiz-adv-x="232" d="M129 150 Q101 150 84.5 167 Q68 184 68 208 Q68 227 76 244 Q84 261 97.5 273.5 Q111 286 128.5 293.5 Q146 301 164 301 Q192 301 208.5 284 Q225 267 225 243 Q225 224 217 207 Q209 190 195.5 177.5 Q182 165 164.5 157.5 Q147 150 129 150 Z " />
<glyph glyph-name="uni22C5" unicode="&#x22c5;" horiz-adv-x="232" d="M129 150 Q101 150 84.5 167 Q68 184 68 208 Q68 227 76 244 Q84 261 97.5 273.5 Q111 286 128.5 293.5 Q146 301 164 301 Q192 301 208.5 284 Q225 267 225 243 Q225 224 217 207 Q209 190 195.5 177.5 Q182 165 164.5 157.5 Q147 150 129 150 Z " />
<glyph glyph-name="bullet" unicode="&#x2022;" horiz-adv-x="335" d="M164 100 Q120 100 94.5 126 Q69 152 69 195 Q69 226 82 252 Q95 278 116 297 Q137 316 163.5 327 Q190 338 217 338 Q261 338 286.5 312 Q312 286 312 243 Q312 212 299 186 Q286 160 265 141 Q244 122 217.5 111 Q191 100 164 100 Z " />
<glyph glyph-name="slash" unicode="&#x2f;" horiz-adv-x="358" d="M81 -16 L14 -16 L377 640 L445 640 L81 -16 Z " />
<glyph glyph-name="parenleft" unicode="&#x28;" horiz-adv-x="348" d="M228 -142 Q168 -92 129 -13 Q90 66 90 166 Q90 252 117.5 338 Q145 424 193 503 Q241 582 307 649.5 Q373 717 451 766 L490 736 Q432 681 385.5 606.5 Q339 532 306 448 Q273 364 255 275 Q237 186 237 103 Q237 39 246.5 -16.5 Q256 -72 276 -108 L228 -142 L228 -142 Z " />
<glyph glyph-name="brokenbar" unicode="&#xa6;" horiz-adv-x="259" d="M153 336 L246 710 L310 710 L218 336 L153 336 Z M4 -265 L96 109 L161 109 L68 -265 L4 -265 Z " />
<glyph glyph-name="parenright" unicode="&#x29;" horiz-adv-x="348" d="M218 766 Q278 716 317 637 Q356 558 356 458 Q356 372 328.5 286 Q301 200 253 121 Q205 42 139 -25.5 Q73 -93 -5 -142 L-44 -112 Q14 -57 60.5 17.5 Q107 92 140 176 Q173 260 191 349 Q209 438 209 521 Q209 585 199.5 640.5 Q190 696 170 732 L218 766 Z " />
<glyph glyph-name="bracketleft" unicode="&#x5b;" horiz-adv-x="376" d="M32 -142 L257 766 L511 766 L498 711 L390 711 L190 -87 L298 -87 L285 -142 L32 -142 Z " />
<glyph glyph-name="backslash" unicode="&#x5c;" horiz-adv-x="341" d="M207 -16 L146 640 L207 640 L267 -16 L207 -16 Z " />
<glyph glyph-name="bracketright" unicode="&#x5d;" horiz-adv-x="376" d="M438 766 L213 -142 L-41 -142 L-28 -87 L80 -87 L280 711 L172 711 L185 766 L438 766 Z " />
<glyph glyph-name="braceleft" unicode="&#x7b;" horiz-adv-x="343" d="M103 334 Q153 345 173 382 Q193 419 195 492 Q197 561 213 611.5 Q229 662 263.5 696 Q298 730 354 747 Q410 764 492 766 L483 730 Q445 724 421 712 Q397 700 383 681 Q369 662 363.5 635.5 Q358 609 357 573 Q355 519 346.5 478 Q338 437 318 406 Q298 375 263.5 352 Q229 329 176 312 Q233 293 256.5 264 Q280 235 279 196 Q278 164 265 130.5 Q252 97 236.5 66 Q221 35 208 7 Q195 -21 195 -42 Q195 -66 215 -83 Q235 -100 275 -106 L266 -142 Q165 -142 111 -109 Q57 -76 57 -15 Q57 18 70.5 51 Q84 84 100 116.5 Q116 149 129.5 179.5 Q143 210 143 237 Q143 278 92 289 L103 334 Z " />
<glyph glyph-name="bar" unicode="&#x7c;" horiz-adv-x="259" d="M4 -265 L245 710 L310 710 L68 -265 L4 -265 Z " />
<glyph glyph-name="braceright" unicode="&#x7d;" horiz-adv-x="343" d="M338 290 Q288 279 268 242 Q248 205 246 132 Q244 63 228 12.5 Q212 -38 177.5 -72 Q143 -106 87 -123.5 Q31 -141 -51 -142 L-42 -106 Q-4 -100 20 -88 Q44 -76 58 -57 Q72 -38 77.5 -11.5 Q83 15 84 51 Q85 105 93.5 146 Q102 187 122.5 218 Q143 249 177.5 272 Q212 295 265 312 Q208 331 184.5 360 Q161 389 162 428 Q163 460 176 493.5 Q189 527 204.5 558 Q220 589 233 617 Q246 645 246 666 Q246 690 226 707 Q206 724 166 730 L175 766 Q276 766 330 733 Q384 700 384 639 Q384 606 370.5 573 Q357 540 341 507.5 Q325 475 311.5 444.5 Q298 414 298 387 Q298 345 349 335 L338 290 Z " />
<glyph glyph-name="hyphen" unicode="&#x2d;" horiz-adv-x="302" d="M52 261 L309 261 L292 187 L34 187 L52 261 Z " />
<glyph glyph-name="uni00AD" unicode="&#xad;" horiz-adv-x="302" d="M52 261 L309 261 L292 187 L34 187 L52 261 Z " />
<glyph glyph-name="endash" unicode="&#x2013;" horiz-adv-x="500" d="M35 261 L529 261 L511 187 L18 187 L35 261 Z " />
<glyph glyph-name="emdash" unicode="&#x2014;" horiz-adv-x="1000" d="M35 261 L1029 261 L1011 187 L18 187 L35 261 Z " />
<glyph glyph-name="underscore" unicode="&#x5f;" horiz-adv-x="500" d="M-30 -174 L-17 -119 L433 -119 L420 -174 L-30 -174 Z " />
<glyph glyph-name="dagger" unicode="&#x2020;" horiz-adv-x="476" d="M312 369 Q309 349 309 318 Q309 297 309.5 275.5 Q310 254 310 239 Q293 201 261.5 116 Q230 31 195 -106 L150 -106 Q183 28 195 115 Q207 202 208 240 Q215 250 224 265.5 Q233 281 242 299 Q251 317 259 335.5 Q267 354 272 369 Q258 369 240 364 Q222 359 203 354 Q184 349 165.5 344.5 Q147 340 132 340 Q109 340 94.5 351 Q80 362 80 381 Q80 410 102 425.5 Q124 441 156 441 Q172 441 188.5 436.5 Q205 432 221.5 426.5 Q238 421 253 416 Q268 411 282 411 Q284 416 284 422 Q284 428 284 434 Q284 457 279.5 483 Q275 509 275 533 Q275 577 297 608.5 Q319 640 357 640 Q382 640 393.5 626 Q405 612 405 593 Q405 570 395 548.5 Q385 527 371 505 Q357 483 343 460 Q329 437 322 411 Q336 411 354 416 Q372 421 391 426 Q410 431 428.5 435.5 Q447 440 462 440 Q485 440 499.5 429 Q514 418 514 399 Q514 370 492 354.5 Q470 339 438 339 Q422 339 405.5 343.5 Q389 348 372.5 353.5 Q356 359 340.5 364 Q325 369 312 369 Z " />
<glyph glyph-name="daggerdbl" unicode="&#x2021;" horiz-adv-x="428" d="M318 470 Q330 470 343.5 473.5 Q357 477 371.5 481.5 Q386 486 399.5 489.5 Q413 493 425 493 Q440 493 449.5 484.5 Q459 476 459 460 Q459 440 444 428.5 Q429 417 409 417 Q384 417 358 427.5 Q332 438 311 439 Q307 422 306.5 395.5 Q306 369 304 346 Q293 324 286.5 306 Q280 288 273 270 L228 270 Q231 293 233 312 Q235 331 235 347 Q238 356 243.5 367.5 Q249 379 255 392 Q261 405 266.5 417 Q272 429 275 439 Q263 439 249.5 435.5 Q236 432 221.5 427.5 Q207 423 193.5 419.5 Q180 416 168 416 Q153 416 143.5 424.5 Q134 433 134 449 Q134 469 149 480.5 Q164 492 184 492 Q209 492 235 481.5 Q261 471 282 470 Q285 482 285 495 Q285 511 282.5 527.5 Q280 544 280 561 Q280 594 298 617 Q316 640 342 640 Q360 640 370 630 Q380 620 380 606 Q380 589 372.5 573 Q365 557 355 540.5 Q345 524 334.5 506.5 Q324 489 318 470 Z M171 19 Q159 19 145.5 15.5 Q132 12 117.5 7.5 Q103 3 89.5 -0.5 Q76 -4 64 -4 Q49 -4 39.5 4.5 Q30 13 30 29 Q30 49 45 60.5 Q60 72 80 72 Q105 72 131 61.5 Q157 51 178 50 Q182 67 182.5 93.5 Q183 120 185 143 Q196 165 202.5 183 Q209 201 216 219 L261 219 Q258 196 256 177 Q254 158 254 142 Q251 133 245.5 121.5 Q240 110 234 97 Q228 84 222.5 72 Q217 60 214 50 Q226 50 239.5 53.5 Q253 57 267.5 61.5 Q282 66 295.5 69.5 Q309 73 321 73 Q336 73 345.5 64.5 Q355 56 355 40 Q355 20 340 8.5 Q325 -3 305 -3 Q280 -3 254 7.5 Q228 18 207 19 Q204 7 204 -6 Q204 -22 206.5 -38.5 Q209 -55 209 -72 Q209 -105 191 -128 Q173 -151 147 -151 Q129 -151 119 -141 Q109 -131 109 -117 Q109 -101 116.5 -84.5 Q124 -68 134 -51.5 Q144 -35 154.5 -17.5 Q165 0 171 19 Z " />
<glyph glyph-name="section" unicode="&#xa7;" horiz-adv-x="448" d="M504 621 Q501 610 496 591.5 Q491 573 486 553 Q481 533 476.5 514.5 Q472 496 469 484 L423 484 Q421 580 348 580 Q320 580 300 565.5 Q280 551 280 527 Q280 505 299 490.5 Q318 476 347 459 Q365 448 384.5 436.5 Q404 425 419.5 409 Q435 393 445 373 Q455 353 455 326 Q455 269 415 227.5 Q375 186 307 171 Q337 152 361 125.5 Q385 99 385 56 Q385 21 369 -9 Q353 -39 324.5 -60.5 Q296 -82 256 -94 Q216 -106 168 -106 Q131 -106 85 -97.5 Q39 -89 4 -77 Q8 -64 13 -46.5 Q18 -29 23 -10.5 Q28 8 32 25.5 Q36 43 39 56 L87 56 Q89 9 109 -18.5 Q129 -46 174 -46 Q204 -46 225 -31 Q246 -16 246 7 Q246 26 228.5 39.5 Q211 53 187 67 Q168 78 147.5 90.5 Q127 103 110 119 Q93 135 82 156 Q71 177 71 206 Q71 262 109.5 304 Q148 346 214 362 Q185 381 163 407.5 Q141 434 141 476 Q141 510 156.5 540 Q172 570 200 592.5 Q228 615 267 627.5 Q306 640 353 640 Q390 640 430.5 632 Q471 624 504 621 Z M254 220 Q282 220 300 236 Q318 252 318 274 Q318 292 305 302.5 Q292 313 272 313 Q244 313 226 297 Q208 281 208 259 Q208 241 221 230.5 Q234 220 254 220 Z " />
<glyph glyph-name="paragraph" unicode="&#xb6;" horiz-adv-x="522" d="M375 -106 L286 -106 L454 566 L404 566 L236 -106 L147 -106 L246 289 Q215 293 188 303.5 Q161 314 141 331.5 Q121 349 109.5 373.5 Q98 398 98 431 Q98 467 113 500.5 Q128 534 154 558 Q189 591 243 608 Q297 625 368 625 L616 625 L607 590 L544 571 L375 -106 Z " />
<glyph glyph-name="registered" unicode="&#xae;" horiz-adv-x="721" d="M288 421 Q288 438 282.5 445.5 Q277 453 256 461 L256 476 L409 476 Q448 476 473 470 Q498 464 515 448 Q536 427 536 392 Q536 361 517 340.5 Q498 320 465 313 Q487 306 498.5 295 Q510 284 517 264 L532 222 Q540 199 550.5 188.5 Q561 178 579 173 L579 158 L455 158 Q455 170 453 182 Q451 194 445 211 L427 263 Q421 280 412.5 286.5 Q404 293 385 293 L376 293 L376 213 Q376 196 381.5 188.5 Q387 181 408 173 L408 158 Q402 158 391.5 158 Q381 158 370 158.5 Q359 159 348.5 159 Q338 159 332 159 Q312 159 288.5 158.5 Q265 158 257 158 L257 173 L288 184 L288 421 Z M376 319 L385 319 Q414 319 430 337 Q446 355 446 386 Q446 420 430 434.5 Q414 449 385 449 L376 449 L376 319 Z M410 41 Q465 41 511.5 62 Q558 83 592 119.5 Q626 156 645 205.5 Q664 255 664 312 Q664 369 645 418.5 Q626 468 592 504.5 Q558 541 511.5 562 Q465 583 410 583 Q355 583 308.5 562 Q262 541 228 504.5 Q194 468 175 418.5 Q156 369 156 312 Q156 255 175 205.5 Q194 156 228 119.5 Q262 83 308.5 62 Q355 41 410 41 Z M410 -16 Q343 -16 284 9 Q225 34 180.5 78 Q136 122 110.5 182 Q85 242 85 312 Q85 382 110.5 442 Q136 502 180.5 546 Q225 590 284 615 Q343 640 410 640 Q477 640 536 615 Q595 590 639.5 546 Q684 502 709.5 442 Q735 382 735 312 Q735 242 709.5 182 Q684 122 639.5 78 Q595 34 536 9 Q477 -16 410 -16 Z " />
<glyph glyph-name="copyright" unicode="&#xa9;" horiz-adv-x="721" d="M532 214 Q512 185 480.5 167 Q449 149 408 149 Q335 149 297 194.5 Q259 240 259 313 Q259 389 302 435 Q345 481 425 481 Q453 481 477 477 Q501 473 522 471 Q522 461 522 448 Q522 435 522.5 421.5 Q523 408 523.5 396 Q524 384 524 377 L500 377 Q495 410 479 429.5 Q463 449 434 449 Q398 449 376.5 416.5 Q355 384 355 315 Q355 261 373 227.5 Q391 194 432 194 Q454 194 473.5 204 Q493 214 511 232 L532 214 Z M410 41 Q465 41 511.5 62 Q558 83 592 119.5 Q626 156 645 205.5 Q664 255 664 312 Q664 369 645 418.5 Q626 468 592 504.5 Q558 541 511.5 562 Q465 583 410 583 Q355 583 308.5 562 Q262 541 228 504.5 Q194 468 175 418.5 Q156 369 156 312 Q156 255 175 205.5 Q194 156 228 119.5 Q262 83 308.5 62 Q355 41 410 41 Z M410 -16 Q343 -16 284 9 Q225 34 180.5 78 Q136 122 110.5 182 Q85 242 85 312 Q85 382 110.5 442 Q136 502 180.5 546 Q225 590 284 615 Q343 640 410 640 Q477 640 536 615 Q595 590 639.5 546 Q684 502 709.5 442 Q735 382 735 312 Q735 242 709.5 182 Q684 122 639.5 78 Q595 34 536 9 Q477 -16 410 -16 Z " />
<glyph glyph-name="trademark" unicode="&#x2122;" horiz-adv-x="761" d="M275 418 Q271 403 271 396 Q271 379 302 372 L295 344 Q290 344 279 344 Q268 344 255.5 344.5 Q243 345 232 345 Q221 345 216 345 Q210 345 198.5 345 Q187 345 174 344.5 Q161 344 149.5 344 Q138 344 134 344 L141 372 L174 380 L229 593 L218 593 Q204 593 194.5 590.5 Q185 588 178 582 Q171 576 164.5 566 Q158 556 150 540 L116 540 L141 625 L424 625 Q422 618 419 606 Q416 594 413 581.5 Q410 569 407.5 557.5 Q405 546 404 540 L370 540 Q371 545 371 549.5 Q371 554 371 558 Q371 581 360.5 587 Q350 593 327 593 L319 593 L275 418 Z M465 551 Q469 566 469 573 Q469 590 438 597 L445 625 L579 625 L610 450 L727 625 L860 625 L853 597 L820 589 L776 418 Q772 403 772 396 Q772 379 803 372 L796 344 Q791 344 779 344 Q767 344 754.5 344.5 Q742 345 730 345 Q718 345 713 345 Q707 345 696.5 345 Q686 345 674 344.5 Q662 344 651.5 344 Q641 344 637 344 L644 372 L677 380 L717 536 L586 343 L542 343 L505 527 L478 418 Q474 403 474 396 Q474 379 505 372 L498 344 Q487 344 472 344.5 Q457 345 446 345 Q440 345 431 345 Q422 345 412.5 344.5 Q403 344 394 344 Q385 344 381 344 L388 372 L421 380 L465 551 Z " />
<glyph glyph-name="quotedblleft" unicode="&#x201c;" horiz-adv-x="398" d="M288 416 Q288 450 302.5 482.5 Q317 515 342 543.5 Q367 572 398.5 596.5 Q430 621 465 640 L486 608 Q440 573 416.5 543.5 Q393 514 393 496 Q393 484 399.5 475.5 Q406 467 413.5 459 Q421 451 427.5 442 Q434 433 434 420 Q434 405 427.5 392 Q421 379 409.5 369.5 Q398 360 383 354 Q368 348 351 348 Q318 348 303 368 Q288 388 288 416 Z M106 416 Q106 450 120.5 482.5 Q135 515 160 543.5 Q185 572 216.5 596.5 Q248 621 283 640 L304 608 Q258 573 234.5 543.5 Q211 514 211 496 Q211 484 217.5 475.5 Q224 467 231.5 459 Q239 451 245.5 442 Q252 433 252 420 Q252 405 245.5 392 Q239 379 227.5 369.5 Q216 360 201 354 Q186 348 169 348 Q136 348 121 368 Q106 388 106 416 Z " />
<glyph glyph-name="quotedblright" unicode="&#x201d;" horiz-adv-x="398" d="M290 572 Q290 538 275.5 505.5 Q261 473 236 444.5 Q211 416 179 391.5 Q147 367 113 348 L92 380 Q138 415 161.5 444.5 Q185 474 185 492 Q185 504 178.5 512.5 Q172 521 164.5 529 Q157 537 150.5 546 Q144 555 144 568 Q144 583 150.5 596 Q157 609 168 618.5 Q179 628 194.5 634 Q210 640 227 640 Q260 640 275 620 Q290 600 290 572 Z M472 572 Q472 538 457.5 505.5 Q443 473 418 444.5 Q393 416 361 391.5 Q329 367 295 348 L274 380 Q320 415 343.5 444.5 Q367 474 367 492 Q367 504 360.5 512.5 Q354 521 346.5 529 Q339 537 332.5 546 Q326 555 326 568 Q326 583 332.5 596 Q339 609 350 618.5 Q361 628 376.5 634 Q392 640 409 640 Q442 640 457 620 Q472 600 472 572 Z " />
<glyph glyph-name="quoteleft" unicode="&#x2018;" horiz-adv-x="216" d="M106 416 Q106 450 120.5 482.5 Q135 515 160 543.5 Q185 572 216.5 596.5 Q248 621 283 640 L304 608 Q258 573 234.5 543.5 Q211 514 211 496 Q211 484 217.5 475.5 Q224 467 231.5 459 Q239 451 245.5 442 Q252 433 252 420 Q252 405 245.5 392 Q239 379 227.5 369.5 Q216 360 201 354 Q186 348 169 348 Q136 348 121 368 Q106 388 106 416 Z " />
<glyph glyph-name="quoteright" unicode="&#x2019;" horiz-adv-x="216" d="M290 572 Q290 538 275.5 505.5 Q261 473 236 444.5 Q211 416 179 391.5 Q147 367 113 348 L92 380 Q138 415 161.5 444.5 Q185 474 185 492 Q185 504 178.5 512.5 Q172 521 164.5 529 Q157 537 150.5 546 Q144 555 144 568 Q144 583 150.5 596 Q157 609 168 618.5 Q179 628 194.5 634 Q210 640 227 640 Q260 640 275 620 Q290 600 290 572 Z " />
<glyph glyph-name="guillemotleft" unicode="&#xab;" horiz-adv-x="474" d="M350 33 L242 220 L439 403 L467 373 L366 220 L399 66 L350 33 Z M158 33 L50 220 L247 403 L275 373 L174 220 L207 66 L158 33 Z " />
<glyph glyph-name="guillemotright" unicode="&#xbb;" horiz-adv-x="474" d="M169 403 L277 216 L80 33 L52 63 L153 216 L120 370 L169 403 Z M361 403 L469 216 L272 33 L244 63 L345 216 L312 370 L361 403 Z " />
<glyph glyph-name="guilsinglleft" unicode="&#x2039;" horiz-adv-x="282" d="M158 33 L50 220 L247 403 L275 373 L174 220 L207 66 L158 33 Z " />
<glyph glyph-name="guilsinglright" unicode="&#x203a;" horiz-adv-x="282" d="M168 403 L276 216 L79 33 L51 63 L152 216 L119 370 L168 403 Z " />
<glyph glyph-name="quotesinglbase" unicode="&#x201a;" horiz-adv-x="216" d="M166 54 Q166 20 151.5 -12.5 Q137 -45 112 -73.5 Q87 -102 55 -126.5 Q23 -151 -11 -170 L-32 -138 Q14 -103 37.5 -73.5 Q61 -44 61 -26 Q61 -14 54.5 -5.5 Q48 3 40.5 11 Q33 19 26.5 28 Q20 37 20 50 Q20 65 26.5 78 Q33 91 44 100.5 Q55 110 70.5 116 Q86 122 103 122 Q136 122 151 102 Q166 82 166 54 Z " />
<glyph glyph-name="quotedblbase" unicode="&#x201e;" horiz-adv-x="398" d="M166 54 Q166 20 151.5 -12.5 Q137 -45 112 -73.5 Q87 -102 55 -126.5 Q23 -151 -11 -170 L-32 -138 Q14 -103 37.5 -73.5 Q61 -44 61 -26 Q61 -14 54.5 -5.5 Q48 3 40.5 11 Q33 19 26.5 28 Q20 37 20 50 Q20 65 26.5 78 Q33 91 44 100.5 Q55 110 70.5 116 Q86 122 103 122 Q136 122 151 102 Q166 82 166 54 Z M348 54 Q348 20 333.5 -12.5 Q319 -45 294 -73.5 Q269 -102 237 -126.5 Q205 -151 171 -170 L150 -138 Q196 -103 219.5 -73.5 Q243 -44 243 -26 Q243 -14 236.5 -5.5 Q230 3 222.5 11 Q215 19 208.5 28 Q202 37 202 50 Q202 65 208.5 78 Q215 91 226 100.5 Q237 110 252.5 116 Q268 122 285 122 Q318 122 333 102 Q348 82 348 54 Z " />
<glyph glyph-name="fi" unicode="&#xfb01;" horiz-adv-x="590" d="M71 390 L85 444 L150 444 Q164 495 188 536 Q212 577 244 607 Q281 642 330.5 661 Q380 680 440 680 Q474 680 502.5 673.5 Q531 667 551.5 656 Q572 645 583.5 630.5 Q595 616 595 600 Q595 586 588.5 572.5 Q582 559 571.5 548 Q561 537 548 530.5 Q535 524 522 524 Q503 524 489 539.5 Q475 555 462.5 573 Q450 591 436 606.5 Q422 622 402 622 Q368 622 343.5 576 Q319 530 298 444 L390 444 Q414 444 441.5 444.5 Q469 445 495.5 446 Q522 447 545 448.5 Q568 450 584 452 L595 442 L512 127 Q508 112 506 103 Q504 94 504 87 Q504 64 526 66 Q534 66 542.5 68.5 Q551 71 559 75 L548 29 Q525 13 493.5 1.5 Q462 -10 433 -10 Q395 -10 375 10.5 Q355 31 355 69 Q355 86 359 106.5 Q363 127 371 156 L419 341 Q421 350 422.5 356 Q424 362 424 367 Q424 381 414.5 385.5 Q405 390 385 390 L284 390 L128 -220 L-20 -220 L136 390 L71 390 Z " />
<glyph glyph-name="fl" unicode="&#xfb02;" horiz-adv-x="596" d="M656 663 L519 127 Q516 116 513.5 105 Q511 94 511 86 Q511 65 533 65 Q541 65 549.5 67.5 Q558 70 566 74 L555 28 Q532 13 500.5 1.5 Q469 -10 440 -10 Q402 -10 382 10.5 Q362 31 362 69 Q362 85 366 105 Q370 125 378 156 L495 611 Q468 622 443 622 Q386 622 353.5 578 Q321 534 298 444 L402 444 L379 390 L284 390 L128 -220 L-20 -220 L136 390 L71 390 L85 444 L150 444 Q165 505 193 549 Q221 593 258 622 Q295 651 339.5 665 Q384 679 434 679 Q480 679 516.5 673 Q553 667 591 667 Q623 667 645 672 L656 663 Z " />
<glyph glyph-name="f_f" unicode="&#xfb00;" horiz-adv-x="656" d="M150 444 Q165 492 191 533 Q217 574 253 604 Q289 634 334 650.5 Q379 667 432 667 Q478 667 514.5 657.5 Q551 648 574 632 Q604 655 639 667.5 Q674 680 715 680 Q740 680 764.5 675.5 Q789 671 808.5 662 Q828 653 840 639.5 Q852 626 852 609 Q852 596 845.5 582.5 Q839 569 829 558 Q819 547 806 540 Q793 533 781 533 Q763 533 752 547 Q741 561 731.5 578 Q722 595 712 609 Q702 623 688 623 Q677 623 668 614.5 Q659 606 649.5 585.5 Q640 565 629.5 530.5 Q619 496 606 444 L723 444 L700 390 L592 390 L440 -205 L292 -205 L444 390 L284 390 L128 -220 L-20 -220 L136 390 L71 390 L85 444 L150 444 Z M458 444 Q472 493 496 537 Q489 550 481 563.5 Q473 577 464 587.5 Q455 598 443.5 605 Q432 612 419 612 Q381 612 349.5 567.5 Q318 523 298 444 L458 444 Z " />
<glyph glyph-name="f_f_i" unicode="&#xfb03;" horiz-adv-x="898" d="M440 -205 L292 -205 L444 390 L284 390 L128 -220 L-20 -220 L136 390 L71 390 L85 444 L150 444 Q165 492 191 533 Q217 574 253 604 Q289 634 334 650.5 Q379 667 432 667 Q480 667 518 656 Q556 645 578 628 Q613 653 655.5 666.5 Q698 680 748 680 Q782 680 810.5 673.5 Q839 667 859.5 656 Q880 645 891.5 630.5 Q903 616 903 600 Q903 586 896.5 572.5 Q890 559 879.5 548 Q869 537 856 530.5 Q843 524 830 524 Q811 524 797 539.5 Q783 555 770.5 573 Q758 591 744 606.5 Q730 622 710 622 Q676 622 651.5 576 Q627 530 606 444 L698 444 Q722 444 749.5 444.5 Q777 445 803.5 446 Q830 447 853 448.5 Q876 450 892 452 L903 442 L820 127 Q816 112 814 103 Q812 94 812 87 Q812 64 834 66 Q842 66 850.5 68.5 Q859 71 867 75 L856 29 Q833 13 801.5 1.5 Q770 -10 741 -10 Q703 -10 683 10.5 Q663 31 663 69 Q663 86 667 106.5 Q671 127 679 156 L727 341 Q729 350 730.5 356 Q732 362 732 367 Q732 381 722.5 385.5 Q713 390 693 390 L592 390 L440 -205 Z M458 444 Q471 494 496 536 Q489 549 481 563 Q473 577 464 587.5 Q455 598 443.5 605 Q432 612 419 612 Q381 612 349.5 567.5 Q318 523 298 444 L458 444 Z " />
<glyph glyph-name="f_f_l" unicode="&#xfb04;" horiz-adv-x="904" d="M742 679 Q788 679 824.5 673 Q861 667 899 667 Q931 667 953 672 L964 663 L827 127 Q824 116 821.5 105 Q819 94 819 86 Q819 65 841 65 Q849 65 857.5 67.5 Q866 70 874 74 L863 28 Q840 13 808.5 1.5 Q777 -10 748 -10 Q710 -10 690 10.5 Q670 31 670 69 Q670 85 674 105 Q678 125 686 156 L803 611 Q776 622 751 622 Q694 622 661.5 578 Q629 534 606 444 L710 444 L687 390 L592 390 L440 -205 L292 -205 L444 390 L284 390 L128 -220 L-20 -220 L136 390 L71 390 L85 444 L150 444 Q165 492 191 533 Q217 574 253 604 Q289 634 334 650.5 Q379 667 432 667 Q480 667 517 657 Q554 647 577 630 Q612 655 654 667 Q696 679 742 679 Z M458 444 Q472 500 495 540 Q488 553 480 565.5 Q472 578 463 588.5 Q454 599 443 605.5 Q432 612 419 612 Q381 612 349.5 567.5 Q318 523 298 444 L458 444 Z " />
<glyph glyph-name="grave" unicode="&#x60;" horiz-adv-x="300" d="M163 607 L194 648 Q201 657 207.5 662.5 Q214 668 224 668 Q233 668 240.5 663 Q248 658 258 648 L378 519 L361 496 L165 592 L163 607 Z " />
<glyph glyph-name="acute" unicode="&#xb4;" horiz-adv-x="300" d="M372 592 L135 496 L122 520 L287 649 Q301 660 309.5 664.5 Q318 669 326 669 Q335 669 341 663.5 Q347 658 353 648 L377 606 L372 592 Z " />
<glyph glyph-name="dieresis" unicode="&#xa8;" horiz-adv-x="300" d="M158 504 Q136 504 122 516.5 Q108 529 108 549 Q108 564 114.5 578 Q121 592 131.5 602.5 Q142 613 156.5 619.5 Q171 626 186 626 Q209 626 222.5 613 Q236 600 236 581 Q236 550 212.5 527 Q189 504 158 504 Z M332 504 Q310 504 296 516.5 Q282 529 282 549 Q282 564 288.5 578 Q295 592 305.5 602.5 Q316 613 330.5 619.5 Q345 626 360 626 Q383 626 396.5 613 Q410 600 410 581 Q410 550 386.5 527 Q363 504 332 504 Z " />
<glyph glyph-name="circumflex" unicode="&#x2c6;" horiz-adv-x="300" d="M366 500 L265 581 L135 498 L109 514 L245 657 L324 657 L392 509 L366 500 Z " />
<glyph glyph-name="tilde" unicode="&#x2dc;" horiz-adv-x="300" d="M412 619 Q392 569 365.5 539.5 Q339 510 300 510 Q282 510 266.5 515.5 Q251 521 236.5 527 Q222 533 207.5 538.5 Q193 544 177 544 Q157 544 144.5 534.5 Q132 525 123 509 L93 518 Q113 568 139.5 597.5 Q166 627 205 627 Q223 627 238.5 621.5 Q254 616 268.5 610 Q283 604 297.5 598.5 Q312 593 328 593 Q348 593 360.5 602.5 Q373 612 382 628 L412 619 Z " />
<glyph glyph-name="macron" unicode="&#xaf;" horiz-adv-x="300" d="M136 525 L152 591 L381 591 L365 525 L136 525 Z " />
<glyph glyph-name="breve" unicode="&#x2d8;" horiz-adv-x="300" d="M395 636 Q382 582 343.5 545.5 Q305 509 246 509 Q200 509 174 535 Q148 561 148 601 Q148 620 152 636 L192 636 Q193 608 211 593.5 Q229 579 261 579 Q293 579 318 594.5 Q343 610 356 636 L395 636 L395 636 Z " />
<glyph glyph-name="dotaccent" unicode="&#x2d9;" horiz-adv-x="300" d="M239 504 Q213 504 198 520 Q183 536 183 560 Q183 576 190.5 591.5 Q198 607 210.5 619 Q223 631 239 638 Q255 645 272 645 Q298 645 313 629 Q328 613 328 589 Q328 572 320.5 557 Q313 542 300.5 530 Q288 518 272 511 Q256 504 239 504 Z " />
<glyph glyph-name="ring" unicode="&#x2da;" horiz-adv-x="300" d="M255 545 Q280 545 295.5 564 Q311 583 311 606 Q311 623 301 633 Q291 643 276 643 Q251 643 235.5 624 Q220 605 220 582 Q220 565 230 555 Q240 545 255 545 Z M250 500 Q216 500 192.5 521.5 Q169 543 169 578 Q169 600 177.5 620 Q186 640 201 655 Q216 670 236.5 679 Q257 688 281 688 Q315 688 338.5 666.5 Q362 645 362 610 Q362 587 353.5 567 Q345 547 330 532 Q315 517 294.5 508.5 Q274 500 250 500 Z " />
<glyph glyph-name="cedilla" unicode="&#xb8;" horiz-adv-x="300" d="M165 16 L135 -37 Q172 -43 189 -62 Q206 -81 206 -108 Q206 -138 189.5 -162.5 Q173 -187 145.5 -204 Q118 -221 81.5 -230 Q45 -239 6 -239 L2 -203 Q50 -194 84 -172 Q118 -150 118 -120 Q118 -106 110 -99.5 Q102 -93 84 -86 Q61 -77 57 -70.5 Q53 -64 60 -52 L100 16 L165 16 Z " />
<glyph glyph-name="hungarumlaut" unicode="&#x2dd;" horiz-adv-x="300" d="M255 599 L62 489 L48 509 L178 646 Q188 656 196 662 Q204 668 214 668 Q228 668 239 649 L260 612 L255 599 Z M431 599 L238 489 L224 509 L354 646 Q364 656 372 662 Q380 668 390 668 Q404 668 415 649 L436 612 L431 599 Z " />
<glyph glyph-name="ogonek" unicode="&#x2db;" horiz-adv-x="300" d="M200 -210 Q182 -221 155 -229.5 Q128 -238 100 -238 Q51 -238 24.5 -212.5 Q-2 -187 -2 -146 Q-2 -116 12.5 -88 Q27 -60 53.5 -36 Q80 -12 116 6.5 Q152 25 196 36 L206 12 Q183 2 162 -14 Q141 -30 125 -50 Q109 -70 99.5 -92.5 Q90 -115 90 -138 Q90 -185 133 -185 Q147 -185 160 -181.5 Q173 -178 186 -173 L200 -210 Z " />
<glyph glyph-name="caron" unicode="&#x2c7;" horiz-adv-x="300" d="M159 659 L260 578 L390 661 L416 645 L280 502 L201 502 L133 650 L159 659 Z " />
<glyph glyph-name="commaaccent" unicode="&#xf6c3;" horiz-adv-x="300" d="M177 -104 Q177 -133 165 -161 Q153 -189 132 -214 Q111 -239 83 -261 Q55 -283 23 -301 L6 -274 Q44 -245 64 -220.5 Q84 -196 84 -176 Q84 -166 78.5 -158.5 Q73 -151 67 -144 Q61 -137 55.5 -129 Q50 -121 50 -109 Q50 -84 71 -64.5 Q92 -45 122 -45 Q151 -45 164 -63 Q177 -81 177 -104 Z " />
<glyph glyph-name="zero" unicode="0" horiz-adv-x="558" d="M589 419 Q589 378 580.5 333.5 Q572 289 555.5 245.5 Q539 202 515.5 161 Q492 120 462 87 Q421 41 369.5 12.5 Q318 -16 257 -16 Q172 -16 121 42.5 Q70 101 70 205 Q70 246 78.5 290.5 Q87 335 103.5 378.5 Q120 422 143.5 463 Q167 504 197 537 Q238 583 289.5 611.5 Q341 640 402 640 Q487 640 538 581.5 Q589 523 589 419 Z M435 487 Q435 529 424.5 552.5 Q414 576 392 576 Q374 576 356 560 Q338 544 321.5 516.5 Q305 489 290.5 452 Q276 415 264 373 Q247 311 235.5 248 Q224 185 224 137 Q224 95 234.5 71.5 Q245 48 267 48 Q285 48 303 64 Q321 80 337.5 107.5 Q354 135 368.5 172 Q383 209 395 251 Q412 313 423.5 376 Q435 439 435 487 Z " />
<glyph glyph-name="one" unicode="1" horiz-adv-x="558" d="M413 0 Q402 0 383.5 0.5 Q365 1 344 1.5 Q323 2 302.5 2.5 Q282 3 267 3 Q249 3 225 2.5 Q201 2 177.5 1.5 Q154 1 135.5 0.5 Q117 0 109 0 L117 34 L197 55 L301 467 Q303 476 304.5 483 Q306 490 306 496 Q306 513 289.5 525 Q273 537 226 553 L234 587 Q264 588 293.5 591 Q323 594 349.5 600 Q376 606 397.5 614 Q419 622 434 632 L490 632 L359 103 Q355 87 355 79 Q355 65 369 54.5 Q383 44 421 34 L413 0 Z " />
<glyph glyph-name="two" unicode="2" horiz-adv-x="558" d="M491 185 Q485 169 478 145 Q471 121 464.5 95.5 Q458 70 451.5 44.5 Q445 19 440 0 L67 0 L50 37 Q144 120 211 183 Q278 246 320.5 296.5 Q363 347 382.5 388.5 Q402 430 402 471 Q402 506 382.5 528.5 Q363 551 328 551 Q295 551 264 533.5 Q233 516 207 484 L164 515 Q200 571 256 605.5 Q312 640 384 640 Q421 640 453 629.5 Q485 619 507.5 599 Q530 579 543 550.5 Q556 522 556 485 Q556 424 523.5 375.5 Q491 327 441.5 284.5 Q392 242 334.5 202 Q277 162 227 119 L343 119 Q363 119 378.5 121.5 Q394 124 406.5 131.5 Q419 139 429.5 152.5 Q440 166 449 189 L491 185 L491 185 Z " />
<glyph glyph-name="three" unicode="3" horiz-adv-x="558" d="M250 358 Q325 363 370 397 Q415 431 415 481 Q415 514 395 533.5 Q375 553 341 553 Q306 553 272.5 534 Q239 515 210 481 L167 512 Q209 574 268.5 607 Q328 640 395 640 Q429 640 458.5 631 Q488 622 510 605 Q532 588 545 562.5 Q558 537 558 504 Q558 446 517 404.5 Q476 363 410 345 Q459 325 485 290.5 Q511 256 511 208 Q511 161 489.5 120.5 Q468 80 431.5 49.5 Q395 19 346 1.5 Q297 -16 243 -16 Q207 -16 174 -9.5 Q141 -3 116 9.5 Q91 22 76.5 39.5 Q62 57 62 78 Q62 104 82 124.5 Q102 145 127 145 Q146 145 155.5 129.5 Q165 114 174 95.5 Q183 77 197 61.5 Q211 46 238 46 Q265 46 286.5 61.5 Q308 77 323 101.5 Q338 126 346.5 155.5 Q355 185 355 212 Q355 257 328.5 283 Q302 309 239 311 L250 358 Z " />
<glyph glyph-name="four" unicode="4" horiz-adv-x="558" d="M440 103 Q436 87 436 79 Q436 65 448.5 54.5 Q461 44 497 34 L489 0 Q478 0 460.5 0.5 Q443 1 423.5 1.5 Q404 2 384.5 2.5 Q365 3 350 3 Q332 3 309 2.5 Q286 2 264 1.5 Q242 1 224.5 0.5 Q207 0 199 0 L207 34 L280 55 L301 137 L68 137 L54 176 L456 625 L570 625 L469 221 L542 221 L520 137 L448 137 L440 103 Z M171 221 L322 221 L381 455 L171 221 Z " />
<glyph glyph-name="five" unicode="5" horiz-adv-x="558" d="M237 625 L569 625 L535 506 L270 506 L237 378 Q257 392 287 400.5 Q317 409 349 409 Q387 409 417.5 396.5 Q448 384 469 362 Q490 340 501 310 Q512 280 512 246 Q512 196 492.5 149 Q473 102 436.5 65 Q400 28 349 6 Q298 -16 235 -16 Q200 -16 168.5 -9 Q137 -2 114 10.5 Q91 23 77.5 40 Q64 57 64 78 Q64 107 85 126.5 Q106 146 130 146 Q148 146 156.5 130.5 Q165 115 173 96 Q181 77 194.5 61.5 Q208 46 235 46 Q264 46 287 68 Q310 90 325.5 123 Q341 156 349 193.5 Q357 231 357 261 Q357 301 341.5 322 Q326 343 298 343 Q270 343 243.5 329 Q217 315 199 298 L157 314 L237 625 Z " />
<glyph glyph-name="six" unicode="6" horiz-adv-x="558" d="M552 600 Q466 554 404 494 Q342 434 302 368 Q323 379 349.5 386.5 Q376 394 404 394 Q432 394 457.5 384.5 Q483 375 502 355.5 Q521 336 532.5 307 Q544 278 544 240 Q544 192 525 146 Q506 100 470.5 64 Q435 28 385 6 Q335 -16 273 -16 Q232 -16 197 -4.5 Q162 7 136 30.5 Q110 54 95 88.5 Q80 123 80 170 Q80 242 115 312 Q150 382 211 443.5 Q272 505 355 555.5 Q438 606 533 640 L552 600 Z M336 323 Q319 323 301 316.5 Q283 310 266 299 Q232 218 232 139 Q232 48 284 48 Q309 48 329 68.5 Q349 89 363 119.5 Q377 150 385 184.5 Q393 219 393 248 Q393 283 379 303 Q365 323 336 323 Z " />
<glyph glyph-name="seven" unicode="7" horiz-adv-x="558" d="M618 596 L292 0 L126 0 L492 506 L302 506 Q279 506 262.5 502.5 Q246 499 234 491.5 Q222 484 212.5 471 Q203 458 194 440 L153 444 Q159 459 166.5 482.5 Q174 506 181.5 531.5 Q189 557 196 581.5 Q203 606 208 625 L600 625 L618 596 Z " />
<glyph glyph-name="eight" unicode="8" horiz-adv-x="558" d="M408 640 Q445 640 476.5 631 Q508 622 531 605 Q554 588 567 564 Q580 540 580 509 Q580 456 538.5 415.5 Q497 375 427 345 Q478 300 502.5 263.5 Q527 227 527 182 Q527 140 508 104 Q489 68 455.5 41.5 Q422 15 375 -0.5 Q328 -16 271 -16 Q226 -16 188 -5.5 Q150 5 122.5 25 Q95 45 79.5 73.5 Q64 102 64 138 Q64 198 111 246 Q158 294 238 324 Q209 356 194.5 388 Q180 420 180 456 Q180 497 198.5 531 Q217 565 248.5 589 Q280 613 321.5 626.5 Q363 640 408 640 Z M281 279 Q246 256 221.5 218.5 Q197 181 197 134 Q197 95 220 70 Q243 45 282 45 Q303 45 321 52.5 Q339 60 352 73 Q365 86 372 102.5 Q379 119 379 137 Q379 168 356.5 201.5 Q334 235 281 279 Z M382 386 Q415 408 439.5 440.5 Q464 473 464 515 Q464 544 448.5 562.5 Q433 581 404 581 Q371 581 348.5 556.5 Q326 532 326 495 Q326 468 339.5 441.5 Q353 415 382 386 Z " />
<glyph glyph-name="nine" unicode="9" horiz-adv-x="558" d="M107 24 Q193 70 255 130 Q317 190 357 256 Q336 245 309.5 237.5 Q283 230 255 230 Q227 230 201.5 239.5 Q176 249 157 268.5 Q138 288 126.5 317 Q115 346 115 384 Q115 432 134 478 Q153 524 188.5 560 Q224 596 274 618 Q324 640 386 640 Q426 640 461.5 628.5 Q497 617 523 593.5 Q549 570 564 535 Q579 500 579 454 Q579 382 544 312 Q509 242 448 180.5 Q387 119 304 68.5 Q221 18 126 -16 L107 24 Z M323 301 Q340 301 358 307.5 Q376 314 393 325 Q427 406 427 485 Q427 576 375 576 Q350 576 330 555.5 Q310 535 295.5 504.5 Q281 474 273.5 439 Q266 404 266 376 Q266 341 280 321 Q294 301 323 301 Z " />
<glyph glyph-name="dollar" unicode="&#x24;" horiz-adv-x="558" d="M518 196 Q518 150 497.5 112.5 Q477 75 442 47.5 Q407 20 361.5 4 Q316 -12 267 -13 L243 -112 L192 -122 L219 -12 Q158 -2 123 36 Q88 74 88 131 L143 140 Q147 102 168.5 75 Q190 48 233 42 L285 250 Q220 293 188.5 334.5 Q157 376 157 435 Q157 480 177 517 Q197 554 231 581 Q265 608 311 623.5 Q357 639 408 640 L430 728 L482 738 L455 634 Q512 623 542 586.5 Q572 550 572 490 L516 484 Q516 526 496.5 550 Q477 574 442 581 L390 376 Q448 335 483 293.5 Q518 252 518 196 Z M301 485 Q301 462 313.5 443 Q326 424 349 405 L392 581 Q350 575 325.5 547.5 Q301 520 301 485 Z M374 145 Q374 170 361 187 Q348 204 326 221 L282 44 Q320 52 347 78.5 Q374 105 374 145 Z " />
<glyph glyph-name="cent" unicode="&#xa2;" horiz-adv-x="558" d="M311 -67 L262 -76 L277 -15 Q240 -14 207.5 -3 Q175 8 151 30 Q127 52 113.5 84.5 Q100 117 100 161 Q100 216 121.5 269 Q143 322 182 364.5 Q221 407 274.5 433 Q328 459 392 460 L406 513 L455 522 L439 455 Q487 443 511 406.5 Q535 370 543 323 L489 313 Q481 348 465.5 368.5 Q450 389 424 394 L346 76 Q372 81 397 95.5 Q422 110 445 130 L477 98 Q449 61 409.5 32.5 Q370 4 326 -7 L311 -67 Z M251 160 Q251 122 264.5 102 Q278 82 298 77 L377 392 Q354 388 331.5 365 Q309 342 291 309 Q273 276 262 236.5 Q251 197 251 160 Z " />
<glyph glyph-name="Euro" unicode="&#x20ac;" horiz-adv-x="558" d="M540 75 Q503 35 449.5 9.5 Q396 -16 341 -16 Q294 -16 258.5 1 Q223 18 198.5 49 Q174 80 161.5 121.5 Q149 163 149 213 Q149 219 149 226 Q149 233 150 240 L58 240 L81 291 L156 291 Q159 305 162.5 320.5 Q166 336 171 351 L96 351 L119 402 L189 402 Q208 448 235.5 491 Q263 534 299 567 Q335 600 379 620 Q423 640 475 640 Q531 640 574 613.5 Q617 587 642 544 L601 514 Q579 539 555 551.5 Q531 564 502 564 Q475 564 451 551 Q427 538 406 516 Q385 494 367.5 464.5 Q350 435 337 402 L512 402 L489 351 L320 351 Q315 336 311.5 321 Q308 306 306 291 L474 291 L451 240 L300 240 Q299 232 299 224.5 Q299 217 299 209 Q299 147 321.5 107 Q344 67 395 67 Q452 67 509 112 L540 75 Z " />
<glyph glyph-name="florin" unicode="&#x192;" horiz-adv-x="558" d="M-134 -91 Q-91 -137 -44 -137 Q-26 -137 -10.5 -129.5 Q5 -122 21.5 -102.5 Q38 -83 55.5 -49.5 Q73 -16 96 36 L227 342 L131 342 L157 392 L248 392 Q308 520 377.5 580 Q447 640 531 640 Q560 640 585 634 Q610 628 628.5 617.5 Q647 607 657.5 594 Q668 581 668 567 Q668 554 661.5 541.5 Q655 529 645 519 Q635 509 622 503 Q609 497 597 497 Q580 497 571 511 Q562 525 555 542.5 Q548 560 539.5 574 Q531 588 516 588 Q502 588 489.5 577 Q477 566 463 542.5 Q449 519 431.5 482 Q414 445 391 392 L505 392 L479 342 L368 342 L256 78 Q224 4 195 -49.5 Q166 -103 134.5 -138 Q103 -173 67.5 -190 Q32 -207 -11 -207 Q-68 -207 -107 -183 Q-146 -159 -169 -124 L-134 -91 Z " />
<glyph glyph-name="sterling" unicode="&#xa3;" horiz-adv-x="558" d="M334 318 Q317 245 301.5 197 Q286 149 268 114 Q297 106 325 100.5 Q353 95 384 95 Q424 95 455 109 Q486 123 516 150 L550 127 Q508 52 464.5 18 Q421 -16 367 -16 Q321 -16 284 -0.5 Q247 15 217 38 Q197 15 168 -0.5 Q139 -16 104 -16 Q66 -16 41 5 Q16 26 16 61 Q16 96 42.5 120 Q69 144 114 144 Q122 144 129 143.5 Q136 143 143 142 L187 318 L104 318 L117 365 L198 365 Q207 401 216.5 428.5 Q226 456 236.5 478 Q247 500 258 517.5 Q269 535 283 551 Q358 640 477 640 Q505 640 531 634.5 Q557 629 577 619 Q597 609 609 595.5 Q621 582 621 567 Q621 555 614.5 542 Q608 529 597 519 Q586 509 572.5 502.5 Q559 496 546 496 Q528 496 518 511 Q508 526 500 543.5 Q492 561 482.5 576 Q473 591 456 591 Q427 591 404 547 Q381 503 361 422 L346 365 L479 365 L454 318 L334 318 Z M129 95 Q114 100 104 100 Q87 100 76 90.5 Q65 81 65 67 Q65 59 70.5 52.5 Q76 46 86 46 Q110 46 129 95 Z " />
<glyph glyph-name="yen" unicode="&#xa5;" horiz-adv-x="558" d="M363 130 L358 109 Q353 89 353 78 Q353 62 365 52.5 Q377 43 409 34 L400 0 Q385 0 367 0.5 Q349 1 330.5 1.5 Q312 2 295.5 2.5 Q279 3 267 3 Q236 3 194.5 2 Q153 1 122 0 L131 34 L194 54 L213 130 L88 130 L113 181 L225 181 L238 233 L114 233 L139 284 L234 284 L183 518 Q179 536 173.5 547.5 Q168 559 159.5 567.5 Q151 576 138 581 Q125 586 106 591 L115 625 Q122 624 136 623.5 Q150 623 167.5 622.5 Q185 622 203.5 622 Q222 622 239 622 Q254 622 275 622.5 Q296 623 316.5 623.5 Q337 624 354 624.5 Q371 625 379 625 L370 591 L316 571 L369 311 L538 572 L491 591 L500 625 Q515 624 542 623 Q569 622 590 622 Q599 622 613.5 622.5 Q628 623 642.5 623.5 Q657 624 669.5 624.5 Q682 625 687 625 L679 591 Q660 589 647 585.5 Q634 582 623.5 575.5 Q613 569 604 558.5 Q595 548 585 532 L421 284 L526 284 L501 233 L389 233 L376 181 L500 181 L475 130 L363 130 Z " />
<glyph glyph-name="numbersign" unicode="&#x23;" horiz-adv-x="558" d="M368 262 L390 365 L300 365 L278 262 L368 262 Z M260 180 L218 -16 L128 -16 L171 180 L80 180 L98 262 L188 262 L211 365 L120 365 L137 446 L228 446 L270 640 L360 640 L318 446 L408 446 L450 640 L540 640 L497 446 L588 446 L570 364 L480 364 L457 261 L548 261 L531 180 L440 180 L398 -16 L308 -16 L350 180 L260 180 Z " />
<glyph glyph-name="percent" unicode="&#x25;" horiz-adv-x="832" d="M440 499 Q440 453 425 408.5 Q410 364 383 329 Q356 294 318.5 272.5 Q281 251 237 251 Q175 251 141 287 Q107 323 107 382 Q107 428 122 472.5 Q137 517 164 552 Q191 587 228.5 608.5 Q266 630 310 630 Q372 630 406 594 Q440 558 440 499 Z M331 535 Q331 559 325.5 573 Q320 587 308 587 Q290 587 273 559 Q256 531 243.5 492.5 Q231 454 223.5 413 Q216 372 216 346 Q216 322 221.5 308 Q227 294 239 294 Q257 294 274 322 Q291 350 303.5 388.5 Q316 427 323.5 468 Q331 509 331 535 Z M828 241 Q828 195 813 150.5 Q798 106 771 71 Q744 36 706.5 14.5 Q669 -7 625 -7 Q563 -7 529 29 Q495 65 495 124 Q495 170 510 214.5 Q525 259 552 294 Q579 329 616.5 350.5 Q654 372 698 372 Q760 372 794 336 Q828 300 828 241 Z M719 277 Q719 301 713.5 315 Q708 329 696 329 Q678 329 661 301 Q644 273 631.5 234.5 Q619 196 611.5 155 Q604 114 604 88 Q604 64 609.5 50 Q615 36 627 36 Q645 36 662 64 Q679 92 691.5 130.5 Q704 169 711.5 210 Q719 251 719 277 Z M223 -15 L155 -15 L714 640 L782 640 L223 -15 Z " />
<glyph glyph-name="perthousand" unicode="&#x2030;" horiz-adv-x="1192" d="M440 499 Q440 453 425 408.5 Q410 364 383 329 Q356 294 318.5 272.5 Q281 251 237 251 Q175 251 141 287 Q107 323 107 382 Q107 428 122 472.5 Q137 517 164 552 Q191 587 228.5 608.5 Q266 630 310 630 Q372 630 406 594 Q440 558 440 499 Z M331 535 Q331 559 325.5 573 Q320 587 308 587 Q290 587 273 559 Q256 531 243.5 492.5 Q231 454 223.5 413 Q216 372 216 346 Q216 322 221.5 308 Q227 294 239 294 Q257 294 274 322 Q291 350 303.5 388.5 Q316 427 323.5 468 Q331 509 331 535 Z M828 241 Q828 195 813 150.5 Q798 106 771 71 Q744 36 706.5 14.5 Q669 -7 625 -7 Q563 -7 529 29 Q495 65 495 124 Q495 170 510 214.5 Q525 259 552 294 Q579 329 616.5 350.5 Q654 372 698 372 Q760 372 794 336 Q828 300 828 241 Z M719 277 Q719 301 713.5 315 Q708 329 696 329 Q678 329 661 301 Q644 273 631.5 234.5 Q619 196 611.5 155 Q604 114 604 88 Q604 64 609.5 50 Q615 36 627 36 Q645 36 662 64 Q679 92 691.5 130.5 Q704 169 711.5 210 Q719 251 719 277 Z M1188 241 Q1188 195 1173 150.5 Q1158 106 1131 71 Q1104 36 1066.5 14.5 Q1029 -7 985 -7 Q923 -7 889 29 Q855 65 855 124 Q855 170 870 214.5 Q885 259 912 294 Q939 329 976.5 350.5 Q1014 372 1058 372 Q1120 372 1154 336 Q1188 300 1188 241 Z M1079 277 Q1079 301 1073.5 315 Q1068 329 1056 329 Q1038 329 1021 301 Q1004 273 991.5 234.5 Q979 196 971.5 155 Q964 114 964 88 Q964 64 969.5 50 Q975 36 987 36 Q1005 36 1022 64 Q1039 92 1051.5 130.5 Q1064 169 1071.5 210 Q1079 251 1079 277 Z M223 -15 L155 -15 L714 640 L782 640 L223 -15 Z " />
<glyph glyph-name="plus" unicode="&#x2b;" horiz-adv-x="456" d="M287 178 L255 51 L163 51 L195 178 L72 178 L94 268 L217 268 L249 395 L342 395 L310 268 L434 268 L412 178 L287 178 Z " />
<glyph glyph-name="minus" unicode="&#x2212;" horiz-adv-x="456" d="M72 178 L94 268 L434 268 L412 178 L72 178 Z " />
<glyph glyph-name="multiply" unicode="&#xd7;" horiz-adv-x="456" d="M309 65 L242 156 L131 65 L83 130 L195 219 L128 309 L208 373 L273 283 L385 373 L432 309 L322 219 L388 130 L309 65 Z " />
<glyph glyph-name="less" unicode="&#x3c;" horiz-adv-x="456" d="M74 183 L94 264 L476 431 L452 332 L210 223 L397 115 L374 17 L74 183 Z " />
<glyph glyph-name="divide" unicode="&#xf7;" horiz-adv-x="456" d="M72 178 L94 268 L434 268 L412 178 L72 178 Z M198 -3 Q176 -3 163 10.5 Q150 24 150 43 Q150 58 156.5 72 Q163 86 173.5 96 Q184 106 197.5 112 Q211 118 226 118 Q249 118 262 104.5 Q275 91 275 71 Q275 56 268.5 42.5 Q262 29 251 19 Q240 9 226.5 3 Q213 -3 198 -3 Z M281 328 Q259 328 246 341.5 Q233 355 233 374 Q233 389 239.5 403 Q246 417 256.5 427 Q267 437 280.5 443 Q294 449 309 449 Q332 449 345 435.5 Q358 422 358 402 Q358 387 351.5 373.5 Q345 360 334 350 Q323 340 309.5 334 Q296 328 281 328 Z " />
<glyph glyph-name="equal" unicode="&#x3d;" horiz-adv-x="456" d="M92 255 L114 345 L454 345 L432 255 L92 255 Z M54 100 L76 190 L416 190 L394 100 L54 100 Z " />
<glyph glyph-name="logicalnot" unicode="&#xac;" horiz-adv-x="456" d="M92 255 L114 345 L454 345 L394 100 L302 100 L340 255 L92 255 Z " />
<glyph glyph-name="greater" unicode="&#x3e;" horiz-adv-x="456" d="M434 265 L414 184 L32 17 L56 116 L298 225 L111 333 L134 431 L434 265 Z " />
<glyph glyph-name="notequal" unicode="&#x2260;" horiz-adv-x="456" d="M205 100 L158 33 L88 33 L135 100 L54 100 L76 190 L198 190 L243 255 L92 255 L114 345 L306 345 L354 413 L425 413 L377 345 L454 345 L432 255 L314 255 L268 190 L416 190 L394 100 L205 100 Z " />
<glyph glyph-name="approxequal" unicode="&#x2248;" horiz-adv-x="456" d="M96 237 Q114 294 147.5 327 Q181 360 226 360 Q247 360 263 353 Q279 346 292.5 337 Q306 328 319 321 Q332 314 347 314 Q382 314 407 360 L452 360 Q434 303 400.5 270 Q367 237 322 237 Q301 237 285 244 Q269 251 255.5 260 Q242 269 229 276 Q216 283 201 283 Q166 283 141 237 L96 237 Z M58 67 Q76 124 109.5 157 Q143 190 188 190 Q209 190 225 183 Q241 176 254.5 167 Q268 158 281 151 Q294 144 309 144 Q344 144 369 190 L414 190 Q396 133 362.5 100 Q329 67 284 67 Q263 67 247 74 Q231 81 217.5 90 Q204 99 191 106 Q178 113 163 113 Q128 113 103 67 L58 67 Z " />
<glyph glyph-name="plusminus" unicode="&#xb1;" horiz-adv-x="456" d="M311 275 L279 148 L187 148 L219 275 L96 275 L118 365 L241 365 L273 492 L366 492 L334 365 L458 365 L436 275 L311 275 Z M28 0 L50 90 L390 90 L368 0 L28 0 Z " />
<glyph glyph-name="lessequal" unicode="&#x2264;" horiz-adv-x="456" d="M28 0 L50 90 L390 90 L368 0 L28 0 Z M97 279 L117 360 L499 527 L475 428 L233 319 L420 211 L397 113 L97 279 Z " />
<glyph glyph-name="greaterequal" unicode="&#x2265;" horiz-adv-x="456" d="M457 361 L437 280 L55 113 L79 212 L321 321 L134 429 L157 527 L457 361 Z M28 0 L50 90 L390 90 L368 0 L28 0 Z " />
<glyph glyph-name="asciicircum" unicode="&#x5e;" horiz-adv-x="456" d="M368 340 L326 513 L198 340 L92 340 L312 625 L393 625 L474 340 L368 340 Z " />
<glyph glyph-name="asciitilde" unicode="&#x7e;" horiz-adv-x="456" d="M483 390 Q457 313 422.5 278.5 Q388 244 343 244 Q320 244 299.5 252 Q279 260 259.5 269.5 Q240 279 221.5 287 Q203 295 186 295 Q145 295 120 239 L71 239 Q97 316 131.5 350.5 Q166 385 211 385 Q233 385 254 377 Q275 369 294.5 359.5 Q314 350 332.5 342 Q351 334 368 334 Q409 334 434 390 L483 390 Z " />
<glyph glyph-name="lozenge" unicode="&#x25ca;" horiz-adv-x="540" d="M209 0 L88 316 L365 625 L428 625 L551 316 L272 0 L209 0 Z M260 91 L462 318 L376 535 L177 314 L260 91 Z " />
<glyph glyph-name="degree" unicode="&#xb0;" horiz-adv-x="331" d="M272 640 Q323 640 357.5 609.5 Q392 579 392 528 Q392 497 380.5 468 Q369 439 347.5 417 Q326 395 295.5 381.5 Q265 368 228 368 Q177 368 142.5 398.5 Q108 429 108 480 Q108 511 119.5 540 Q131 569 152.5 591 Q174 613 204.5 626.5 Q235 640 272 640 Z M266 581 Q247 581 231.5 572 Q216 563 205 549 Q194 535 188 518 Q182 501 182 484 Q182 462 195 444.5 Q208 427 234 427 Q253 427 268.5 436 Q284 445 295 459 Q306 473 312 490 Q318 507 318 524 Q318 546 305 563.5 Q292 581 266 581 Z " />
<glyph glyph-name="quotesingle" unicode="&#x27;" horiz-adv-x="196" d="M124 375 Q125 395 125 415.5 Q125 436 125 458 Q125 495 128.5 528 Q132 561 141 586 Q150 611 166.5 625.5 Q183 640 210 640 Q236 640 248 624.5 Q260 609 260 586 Q260 564 249.5 539 Q239 514 225 487.5 Q211 461 196 432.5 Q181 404 171 375 L124 375 Z " />
<glyph glyph-name="quotedbl" unicode="&#x22;" horiz-adv-x="368" d="M124 375 Q125 395 125 415.5 Q125 436 125 458 Q125 495 128.5 528 Q132 561 141 586 Q150 611 166.5 625.5 Q183 640 210 640 Q236 640 248 624.5 Q260 609 260 586 Q260 564 249.5 539 Q239 514 225 487.5 Q211 461 196 432.5 Q181 404 171 375 L124 375 Z M296 375 Q297 395 297 415.5 Q297 436 297 458 Q297 495 300.5 528 Q304 561 313 586 Q322 611 338.5 625.5 Q355 640 382 640 Q408 640 420 624.5 Q432 609 432 586 Q432 564 421.5 539 Q411 514 397 487.5 Q383 461 368 432.5 Q353 404 343 375 L296 375 Z " />
<glyph glyph-name="radical" unicode="&#x221a;" horiz-adv-x="637" d="M238 444 Q290 444 308.5 429 Q327 414 331 378 L359 145 L602 551 Q615 573 628 587.5 Q641 602 656 610 Q671 618 689 621.5 Q707 625 730 625 L773 625 L760 572 L733 572 Q719 572 709 570.5 Q699 569 691.5 564 Q684 559 677.5 550 Q671 541 662 527 L345 -2 L246 -2 L197 353 Q193 378 185 384.5 Q177 391 153 391 L104 391 L118 444 L238 444 Z " />
<glyph glyph-name="currency" unicode="&#xa4;" horiz-adv-x="550" d="M291 171 Q315 171 334 195.5 Q353 220 366.5 255 Q380 290 387 328 Q394 366 394 392 Q394 418 385 434.5 Q376 451 357 451 Q333 451 314 426.5 Q295 402 281.5 367 Q268 332 261 294 Q254 256 254 230 Q254 204 263 187.5 Q272 171 291 171 Z M281 111 Q255 111 233.5 116 Q212 121 193 130 L132 63 L59 63 L150 161 Q130 181 119.5 208 Q109 235 109 265 Q109 327 138.5 380.5 Q168 434 219 467 L178 559 L248 559 L275 495 Q296 503 318.5 507 Q341 511 367 511 Q393 511 414.5 506 Q436 501 455 492 L516 559 L589 559 L498 461 Q518 441 528.5 414 Q539 387 539 357 Q539 295 509.5 241.5 Q480 188 429 155 L470 63 L400 63 L373 127 Q352 119 329.5 115 Q307 111 281 111 Z " />
<glyph glyph-name="infinity" unicode="&#x221e;" horiz-adv-x="700" d="M563 256 Q577 256 591 261 Q605 266 616.5 275.5 Q628 285 635.5 298.5 Q643 312 643 330 Q643 357 624.5 371.5 Q606 386 575 386 Q545 386 516.5 373 Q488 360 465 341 Q481 303 505 279.5 Q529 256 563 256 Z M361 222 Q327 177 289.5 153.5 Q252 130 214 130 Q166 130 134 165.5 Q102 201 102 275 Q102 322 119.5 361.5 Q137 401 165 430 Q193 459 228.5 475.5 Q264 492 299 492 Q351 492 384 466.5 Q417 441 439 401 Q473 446 510.5 469.5 Q548 493 586 493 Q634 493 666 457.5 Q698 422 698 348 Q698 301 680.5 261.5 Q663 222 635 193 Q607 164 571.5 147.5 Q536 131 501 131 Q449 131 416 156.5 Q383 182 361 222 Z M237 367 Q223 367 209 362 Q195 357 183.5 347.5 Q172 338 164.5 324.5 Q157 311 157 293 Q157 266 175.5 251.5 Q194 237 225 237 Q255 237 283.5 250 Q312 263 335 282 Q319 320 295 343.5 Q271 367 237 367 Z " />
<glyph glyph-name="uni00B5" unicode="&#xb5;" horiz-adv-x="552" d="M80 -135 Q71 -164 54.5 -182 Q38 -200 9 -200 Q-14 -200 -27 -185.5 Q-40 -171 -40 -148 Q-40 -122 -28.5 -94 Q-17 -66 0 -31.5 Q17 3 36.5 47.5 Q56 92 72 152 L125 350 Q129 366 129 374 Q129 390 118.5 397.5 Q108 405 85 412 L93 444 Q117 444 144.5 444.5 Q172 445 198 446 Q224 447 247 448.5 Q270 450 286 452 L297 442 L224 171 Q219 150 216.5 138 Q214 126 214 117 Q214 103 221 94.5 Q228 86 242 86 Q260 86 279 101.5 Q298 117 314 144 Q331 173 346 216.5 Q361 260 377 323 L408 444 L556 444 L475 127 Q471 112 469 103 Q467 94 467 87 Q467 65 489 65 Q497 65 505.5 67.5 Q514 70 522 74 L511 28 Q488 13 456 1.5 Q424 -10 395 -10 Q318 -10 318 74 Q292 36 254 10 Q216 -16 169 -16 Q123 -16 94 11 Q92 -20 91.5 -60 Q91 -100 80 -135 Z " />
<glyph glyph-name="partialdiff" unicode="&#x2202;" horiz-adv-x="550" d="M294 640 Q348 620 392 588 Q436 556 467 514.5 Q498 473 515 423 Q532 373 532 316 Q532 251 513 191.5 Q494 132 458 85.5 Q422 39 369 11.5 Q316 -16 249 -16 Q163 -16 117.5 31 Q72 78 72 154 Q72 195 87.5 238 Q103 281 132.5 315.5 Q162 350 204.5 372 Q247 394 301 394 Q345 394 374 376 Q374 446 347 503.5 Q320 561 266 599 L294 640 Z M216 113 Q216 79 228 60 Q240 41 263 41 Q288 41 309 65.5 Q330 90 344.5 129.5 Q359 169 367 218 Q375 267 375 315 Q367 320 356 323 Q345 326 334 326 Q307 326 285 305 Q263 284 247.5 252.5 Q232 221 224 183.5 Q216 146 216 113 Z " />
<glyph glyph-name="summation" unicode="&#x2211;" horiz-adv-x="550" d="M-25 -73 L-31 -58 L315 297 L161 685 L175 700 L640 700 Q637 685 632 663 Q627 641 621.5 618.5 Q616 596 612 575.5 Q608 555 606 544 L569 544 L540 646 L331 646 L443 362 Q449 347 437 335 L151 42 L333 42 Q358 42 377 46 Q396 50 411.5 59 Q427 68 439.5 83.5 Q452 99 464 122 L507 122 Q501 104 492 77 Q483 50 474 21.5 Q465 -7 457.5 -33 Q450 -59 446 -73 L-25 -73 Z " />
<glyph glyph-name="product" unicode="&#x220f;" horiz-adv-x="713" d="M423 -19 L590 646 L382 646 L229 36 Q224 16 224 5 Q224 -11 236 -20 Q248 -29 280 -38 L271 -73 Q256 -73 237.5 -72.5 Q219 -72 200.5 -71.5 Q182 -71 165 -70.5 Q148 -70 136 -70 Q121 -70 101 -70.5 Q81 -71 61 -71.5 Q41 -72 21 -72.5 Q1 -73 -14 -73 L-5 -38 L58 -19 L211 591 Q216 611 216 622 Q216 638 204 647 Q192 656 160 665 L169 700 L819 700 L810 665 L747 646 L594 36 Q589 16 589 5 Q589 -11 601 -20 Q613 -29 645 -38 L636 -73 Q621 -73 602.5 -72.5 Q584 -72 565.5 -71.5 Q547 -71 530 -70.5 Q513 -70 501 -70 Q486 -70 466 -70.5 Q446 -71 426 -71.5 Q406 -72 386 -72.5 Q366 -73 351 -73 L360 -38 L423 -19 Z " />
<glyph glyph-name="integral" unicode="&#x222b;" horiz-adv-x="381" d="M386 632 Q372 632 361.5 619.5 Q351 607 344.5 584.5 Q338 562 335 531 Q332 500 332 463 Q332 392 322.5 319.5 Q313 247 290 181 Q276 140 255 100.5 Q234 61 206 30 Q178 -1 143.5 -19.5 Q109 -38 67 -38 Q27 -38 1.5 -22.5 Q-24 -7 -24 15 Q-24 35 -8 53.5 Q8 72 29 72 Q41 72 50.5 63 Q60 54 69 43 Q78 32 88 23 Q98 14 110 14 Q124 14 134.5 26.5 Q145 39 151.5 61.5 Q158 84 161 115 Q164 146 164 183 Q164 254 173.5 326.5 Q183 399 206 465 Q220 506 241 545.5 Q262 585 289.5 615.5 Q317 646 352 665 Q387 684 429 684 Q469 684 494.5 668.5 Q520 653 520 631 Q520 611 504 592.5 Q488 574 467 574 Q455 574 445 583 Q435 592 426 603 Q417 614 407.5 623 Q398 632 386 632 Z " />
<glyph glyph-name="Ohm" unicode="&#x2126;" horiz-adv-x="728" d="M28 0 Q31 14 35 34.5 Q39 55 43 77.5 Q47 100 51 122 Q55 144 58 162 L97 162 Q97 144 98.5 132 Q100 120 107 113 Q114 106 128.5 103.5 Q143 101 169 101 L233 101 Q175 133 142.5 188 Q110 243 110 306 Q110 372 140 432.5 Q170 493 221.5 539 Q273 585 343 612.5 Q413 640 494 640 Q557 640 605 623.5 Q653 607 685.5 578.5 Q718 550 734.5 512 Q751 474 751 430 Q751 374 730 324.5 Q709 275 674 233 Q639 191 593 158 Q547 125 497 101 L560 101 Q586 101 602 103.5 Q618 106 628.5 113 Q639 120 647 132 Q655 144 664 162 L703 162 Q697 144 689.5 122 Q682 100 675 77.5 Q668 55 662 34.5 Q656 14 652 0 L375 0 L377 45 Q417 85 454 133 Q491 181 519.5 233.5 Q548 286 564.5 343 Q581 400 581 460 Q581 515 556.5 547.5 Q532 580 484 580 Q447 580 417.5 563 Q388 546 365 518 Q342 490 325 453.5 Q308 417 297.5 379 Q287 341 281.5 303.5 Q276 266 276 236 Q276 188 287.5 140 Q299 92 324 44 L305 0 L28 0 L28 0 Z " />
<glyph glyph-name="Delta" unicode="&#x2206;" horiz-adv-x="607" d="M6 28 L382 625 L481 625 L562 28 L542 0 L12 0 L6 28 Z M349 453 L104 64 L402 64 L349 453 Z " />
<glyph glyph-name="litre" unicode="&#x2113;" horiz-adv-x="530" d="M311 211 Q301 177 296.5 150 Q292 123 292 107 Q292 56 347 56 Q364 56 385.5 60 Q407 64 429 70 L419 26 Q408 19 391 12 Q374 5 354.5 -1 Q335 -7 313.5 -10.5 Q292 -14 273 -14 Q215 -14 178 15.5 Q141 45 141 98 Q141 114 144 134.5 Q147 155 151 172 Q132 165 112.5 158.5 Q93 152 74 146 L62 188 Q87 197 113.5 207 Q140 217 163 227 L195 362 Q211 430 234.5 481.5 Q258 533 287 566 Q319 602 358 621 Q397 640 446 640 Q503 640 537.5 609 Q572 578 572 529 Q572 489 552 447 Q532 405 497 363.5 Q462 322 414 283 Q366 244 311 211 Z M334 307 Q356 331 377.5 363.5 Q399 396 416 430 Q433 464 443 496 Q453 528 453 552 Q453 572 447 579 Q441 586 433 586 Q414 586 398 548 Q382 510 360 416 L334 307 Z " />
<glyph glyph-name="estimated" unicode="&#x212e;" horiz-adv-x="788" d="M216 305 Q211 305 211 301 L211 122 Q211 111 220 102 Q262 56 319.5 30 Q377 4 441 4 Q513 4 573 33 Q633 62 677 113 L730 113 Q680 55 604.5 20 Q529 -15 440 -15 Q365 -15 299 11 Q233 37 183.5 81 Q134 125 105.5 184.5 Q77 244 77 312 Q77 380 105.5 439.5 Q134 499 183.5 543.5 Q233 588 299 614 Q365 640 440 640 Q516 640 582.5 614 Q649 588 698.5 543.5 Q748 499 776.5 439.5 Q805 380 805 312 L805 305 L216 305 Z M673 506 Q673 517 663 527 Q620 571 563.5 596 Q507 621 441 621 Q377 621 320 595 Q263 569 221 524 Q211 516 211 502 L211 326 Q211 321 216 321 L668 321 Q673 321 673 326 L673 506 Z " />
<glyph glyph-name="numero" unicode="&#x2116;" horiz-adv-x="1030" d="M706 176 L720 229 L989 229 L975 176 L706 176 Z M847 358 Q847 337 853 323.5 Q859 310 873 310 Q891 310 905.5 330.5 Q920 351 930.5 380 Q941 409 946.5 439.5 Q952 470 952 490 Q952 511 946 524.5 Q940 538 926 538 Q908 538 893.5 517.5 Q879 497 868.5 468 Q858 439 852.5 408.5 Q847 378 847 358 Z M1059 460 Q1059 424 1045.5 389 Q1032 354 1007 326.5 Q982 299 947.5 282 Q913 265 871 265 Q813 265 776.5 299 Q740 333 740 388 Q740 424 753.5 459 Q767 494 792 521.5 Q817 549 851.5 566 Q886 583 928 583 Q985 583 1022 549 Q1059 515 1059 460 Z M349 625 L554 199 L633 516 Q638 536 638 547 Q638 563 626 572 Q614 581 582 590 L591 625 Q608 624 636 623.5 Q664 623 686 623 Q713 623 743 623.5 Q773 624 793 625 L784 590 L721 571 L578 -1 L478 -1 L257 457 L170 109 Q165 89 165 78 Q165 62 177 53 Q189 44 221 35 L212 0 Q195 1 167 1.5 Q139 2 117 2 Q90 2 60 1.5 Q30 1 10 0 L19 35 L82 54 L198 516 Q203 536 203 547 Q203 563 191 572 Q179 581 147 590 L156 625 L349 625 Z " />
<glyph glyph-name="ordfeminine" unicode="&#xaa;" horiz-adv-x="365" d="M318 251 Q295 251 282 260.5 Q269 270 264 287 Q248 270 227 260.5 Q206 251 184 251 Q142 251 117 279 Q92 307 92 355 Q92 391 106 425 Q120 459 144.5 485.5 Q169 512 203 528 Q237 544 277 544 Q312 544 336 528 L353 541 L418 537 L424 530 L376 341 Q372 325 372 318 Q372 305 386 305 Q391 305 397.5 306 Q404 307 409 309 L402 279 Q386 269 363 260 Q340 251 318 251 Z M254 327 Q271 349 288 414 L309 494 Q304 496 298.5 498 Q293 500 286 500 Q269 500 253.5 486 Q238 472 226 450.5 Q214 429 207 403 Q200 377 200 354 Q200 334 206 322 Q212 310 226 310 Q242 310 254 327 Z " />
<glyph glyph-name="ordmasculine" unicode="&#xba;" horiz-adv-x="349" d="M226 294 Q242 294 256 311.5 Q270 329 280 354.5 Q290 380 296 408 Q302 436 302 458 Q302 476 296 488.5 Q290 501 276 501 Q260 501 246 483.5 Q232 466 222 440.5 Q212 415 206 387 Q200 359 200 337 Q200 319 206 306.5 Q212 294 226 294 Z M225 251 Q168 251 130 283 Q92 315 92 373 Q92 409 106.5 440 Q121 471 146 494.5 Q171 518 204.5 531 Q238 544 277 544 Q334 544 372 512 Q410 480 410 422 Q410 386 395.5 355 Q381 324 356 300.5 Q331 277 297.5 264 Q264 251 225 251 Z " />
<glyph glyph-name="onesuperior" unicode="&#xb9;" horiz-adv-x="365" d="M364 369 Q358 369 344.5 369.5 Q331 370 315 370.5 Q299 371 283 371 Q267 371 255 371 Q241 371 224 371 Q207 371 191 370.5 Q175 370 161 369.5 Q147 369 140 369 L147 396 L205 409 L262 633 Q264 639 265 645 Q266 651 266 655 Q266 666 254.5 673 Q243 680 214 687 L221 714 Q269 714 297 720 Q325 726 351 737 L397 737 L323 445 Q320 433 320 428 Q320 417 331 410 Q342 403 371 396 L364 369 Z " />
<glyph glyph-name="twosuperior" unicode="&#xb2;" horiz-adv-x="365" d="M409 493 Q405 482 399.5 466 Q394 450 388.5 432.5 Q383 415 377.5 398 Q372 381 369 369 L120 369 L112 394 Q158 433 195.5 467 Q233 501 260 531 Q287 561 301.5 587.5 Q316 614 316 637 Q316 657 305 668.5 Q294 680 275 680 Q251 680 231.5 666.5 Q212 653 198 634 L168 653 Q189 688 227.5 714 Q266 740 318 740 Q367 740 398.5 714 Q430 688 430 646 Q430 611 409.5 583.5 Q389 556 359 533 Q329 510 295.5 490 Q262 470 236 450 L321 450 Q342 450 354 459.5 Q366 469 378 493 L409 493 Z " />
<glyph glyph-name="threesuperior" unicode="&#xb3;" horiz-adv-x="365" d="M332 740 Q378 740 407 716.5 Q436 693 436 656 Q436 621 410.5 597.5 Q385 574 340 566 Q373 558 391 538 Q409 518 409 489 Q409 462 395 438.5 Q381 415 357 397.5 Q333 380 301 370.5 Q269 361 233 361 Q184 361 152 379 Q120 397 120 424 Q120 441 135 455 Q150 469 167 469 Q180 469 186.5 458.5 Q193 448 199 436 Q205 424 212 413.5 Q219 403 233 403 Q245 403 256 411 Q267 419 275.5 432 Q284 445 289.5 461 Q295 477 295 492 Q295 519 276.5 530.5 Q258 542 215 542 L224 577 Q271 577 299 595 Q327 613 327 642 Q327 660 316 670 Q305 680 287 680 Q267 680 248 668.5 Q229 657 214 638 L182 657 Q205 695 244.5 717.5 Q284 740 332 740 Z " />
<glyph glyph-name="fraction" unicode="&#x2044;" horiz-adv-x="113" d="M-129 -15 L-197 -15 L362 640 L430 640 L-129 -15 Z " />
<glyph glyph-name="onehalf" unicode="&#xbd;" horiz-adv-x="832" d="M326 259 Q320 259 306.5 259.5 Q293 260 277 260.5 Q261 261 245 261 Q229 261 217 261 Q203 261 186 261 Q169 261 153 260.5 Q137 260 123 259.5 Q109 259 102 259 L109 286 L167 299 L224 523 Q226 529 227 535 Q228 541 228 545 Q228 556 216.5 563 Q205 570 176 577 L183 604 Q231 604 259 610 Q287 616 313 627 L359 627 L285 335 Q282 323 282 318 Q282 307 293 300 Q304 293 333 286 L326 259 Z M785 125 Q781 114 775.5 98 Q770 82 764.5 64.5 Q759 47 753.5 30 Q748 13 745 1 L496 1 L488 26 Q534 65 571.5 99 Q609 133 636 163 Q663 193 677.5 219.5 Q692 246 692 269 Q692 289 681 300.5 Q670 312 651 312 Q627 312 607.5 298.5 Q588 285 574 266 L544 285 Q565 320 603.5 346 Q642 372 694 372 Q743 372 774.5 346 Q806 320 806 278 Q806 243 785.5 215.5 Q765 188 735 165 Q705 142 671.5 122 Q638 102 612 82 L697 82 Q718 82 730 91.5 Q742 101 754 125 L785 125 Z M227 -15 L159 -15 L718 640 L786 640 L227 -15 Z " />
<glyph glyph-name="onequarter" unicode="&#xbc;" horiz-adv-x="832" d="M330 259 Q324 259 310.5 259.5 Q297 260 281 260.5 Q265 261 249 261 Q233 261 221 261 Q207 261 190 261 Q173 261 157 260.5 Q141 260 127 259.5 Q113 259 106 259 L113 286 L171 299 L228 523 Q230 529 231 535 Q232 541 232 545 Q232 556 220.5 563 Q209 570 180 577 L187 604 Q235 604 263 610 Q291 616 317 627 L363 627 L289 335 Q286 323 286 318 Q286 307 297 300 Q308 293 337 286 L330 259 Z M722 77 Q719 65 719 60 Q719 49 728 42 Q737 35 765 28 L758 1 Q752 1 739.5 1.5 Q727 2 712 2.5 Q697 3 682 3 Q667 3 655 3 Q641 3 625 3 Q609 3 593.5 2.5 Q578 2 565 1.5 Q552 1 545 1 L552 28 L605 41 L619 96 L481 96 L470 120 L700 367 L796 367 L739 144 L790 144 L778 96 L727 96 L722 77 Z M665 277 L542 144 L631 144 L665 277 Z M231 -15 L163 -15 L722 640 L790 640 L231 -15 Z " />
<glyph glyph-name="threequarters" unicode="&#xbe;" horiz-adv-x="832" d="M310 630 Q356 630 385 606.5 Q414 583 414 546 Q414 511 388.5 487.5 Q363 464 318 456 Q351 448 369 428 Q387 408 387 379 Q387 352 373 328.5 Q359 305 335 287.5 Q311 270 279 260.5 Q247 251 211 251 Q162 251 130 269 Q98 287 98 314 Q98 331 113 345 Q128 359 145 359 Q158 359 164.5 348.5 Q171 338 177 326 Q183 314 190 303.5 Q197 293 211 293 Q223 293 234 301 Q245 309 253.5 322 Q262 335 267.5 351 Q273 367 273 382 Q273 409 254.5 420.5 Q236 432 193 432 L202 467 Q249 467 277 485 Q305 503 305 532 Q305 550 294 560 Q283 570 265 570 Q245 570 226 558.5 Q207 547 192 528 L160 547 Q183 585 222.5 607.5 Q262 630 310 630 Z M735 77 Q732 65 732 60 Q732 49 741 42 Q750 35 778 28 L771 1 Q765 1 752.5 1.5 Q740 2 725 2.5 Q710 3 695 3 Q680 3 668 3 Q654 3 638 3 Q622 3 606.5 2.5 Q591 2 578 1.5 Q565 1 558 1 L565 28 L618 41 L632 96 L494 96 L483 120 L713 367 L809 367 L752 144 L803 144 L791 96 L740 96 L735 77 Z M678 277 L555 144 L644 144 L678 277 Z M244 -15 L176 -15 L735 640 L803 640 L244 -15 Z " />
<glyph glyph-name="Agrave" unicode="&#xc0;" horiz-adv-x="637" d="M391 182 L202 182 L157 106 Q149 92 144 82.5 Q139 73 139 65 Q139 53 151 47 Q163 41 191 35 L182 0 Q161 1 131.5 2 Q102 3 79 3 Q68 3 53.5 2.5 Q39 2 24 1.5 Q9 1 -4.5 0.5 Q-18 0 -27 0 L-17 35 L46 53 L390 625 L499 625 L556 121 Q558 101 562 88 Q566 75 573.5 65 Q581 55 594 48 Q607 41 627 35 L618 0 Q610 0 593.5 0.5 Q577 1 557.5 1.5 Q538 2 519 2.5 Q500 3 487 3 Q475 3 454.5 2.5 Q434 2 412 1.5 Q390 1 369 0.5 Q348 0 334 0 L343 35 L405 52 L391 182 Z M235 239 L385 239 L362 453 L235 239 Z M348 759 L376 799 Q390 819 408 819 Q419 819 427.5 813.5 Q436 808 447 799 L569 690 L552 665 L350 745 L348 759 Z " />
<glyph glyph-name="Aacute" unicode="&#xc1;" horiz-adv-x="637" d="M391 182 L202 182 L157 106 Q149 92 144 82.5 Q139 73 139 65 Q139 53 151 47 Q163 41 191 35 L182 0 Q161 1 131.5 2 Q102 3 79 3 Q68 3 53.5 2.5 Q39 2 24 1.5 Q9 1 -4.5 0.5 Q-18 0 -27 0 L-17 35 L46 53 L390 625 L499 625 L556 121 Q558 101 562 88 Q566 75 573.5 65 Q581 55 594 48 Q607 41 627 35 L618 0 Q610 0 593.5 0.5 Q577 1 557.5 1.5 Q538 2 519 2.5 Q500 3 487 3 Q475 3 454.5 2.5 Q434 2 412 1.5 Q390 1 369 0.5 Q348 0 334 0 L343 35 L405 52 L391 182 Z M235 239 L385 239 L362 453 L235 239 Z M584 745 L350 668 L338 691 L504 802 Q515 810 524.5 814 Q534 818 543 818 Q553 818 559 812.5 Q565 807 570 796 L588 759 L584 745 Z " />
<glyph glyph-name="Acircumflex" unicode="&#xc2;" horiz-adv-x="637" d="M391 182 L202 182 L157 106 Q149 92 144 82.5 Q139 73 139 65 Q139 53 151 47 Q163 41 191 35 L182 0 Q161 1 131.5 2 Q102 3 79 3 Q68 3 53.5 2.5 Q39 2 24 1.5 Q9 1 -4.5 0.5 Q-18 0 -27 0 L-17 35 L46 53 L390 625 L499 625 L556 121 Q558 101 562 88 Q566 75 573.5 65 Q581 55 594 48 Q607 41 627 35 L618 0 Q610 0 593.5 0.5 Q577 1 557.5 1.5 Q538 2 519 2.5 Q500 3 487 3 Q475 3 454.5 2.5 Q434 2 412 1.5 Q390 1 369 0.5 Q348 0 334 0 L343 35 L405 52 L391 182 Z M235 239 L385 239 L362 453 L235 239 Z M571 669 L469 746 L334 669 L314 688 L446 816 L525 816 L595 685 L571 669 Z " />
<glyph glyph-name="Atilde" unicode="&#xc3;" horiz-adv-x="637" d="M391 182 L202 182 L157 106 Q149 92 144 82.5 Q139 73 139 65 Q139 53 151 47 Q163 41 191 35 L182 0 Q161 1 131.5 2 Q102 3 79 3 Q68 3 53.5 2.5 Q39 2 24 1.5 Q9 1 -4.5 0.5 Q-18 0 -27 0 L-17 35 L46 53 L390 625 L499 625 L556 121 Q558 101 562 88 Q566 75 573.5 65 Q581 55 594 48 Q607 41 627 35 L618 0 Q610 0 593.5 0.5 Q577 1 557.5 1.5 Q538 2 519 2.5 Q500 3 487 3 Q475 3 454.5 2.5 Q434 2 412 1.5 Q390 1 369 0.5 Q348 0 334 0 L343 35 L405 52 L391 182 Z M235 239 L385 239 L362 453 L235 239 Z M624 791 Q604 741 577.5 711.5 Q551 682 512 682 Q494 682 478.5 687.5 Q463 693 448.5 699 Q434 705 419.5 710.5 Q405 716 389 716 Q369 716 356.5 706.5 Q344 697 335 681 L305 690 Q325 740 351.5 769.5 Q378 799 417 799 Q435 799 450.5 793.5 Q466 788 480.5 782 Q495 776 509.5 770.5 Q524 765 540 765 Q560 765 572.5 774.5 Q585 784 594 800 L624 791 Z " />
<glyph glyph-name="Adieresis" unicode="&#xc4;" horiz-adv-x="637" d="M391 182 L202 182 L157 106 Q149 92 144 82.5 Q139 73 139 65 Q139 53 151 47 Q163 41 191 35 L182 0 Q161 1 131.5 2 Q102 3 79 3 Q68 3 53.5 2.5 Q39 2 24 1.5 Q9 1 -4.5 0.5 Q-18 0 -27 0 L-17 35 L46 53 L390 625 L499 625 L556 121 Q558 101 562 88 Q566 75 573.5 65 Q581 55 594 48 Q607 41 627 35 L618 0 Q610 0 593.5 0.5 Q577 1 557.5 1.5 Q538 2 519 2.5 Q500 3 487 3 Q475 3 454.5 2.5 Q434 2 412 1.5 Q390 1 369 0.5 Q348 0 334 0 L343 35 L405 52 L391 182 Z M235 239 L385 239 L362 453 L235 239 Z M371 679 Q349 679 335 691.5 Q321 704 321 724 Q321 739 327.5 753 Q334 767 344.5 777.5 Q355 788 369.5 794.5 Q384 801 399 801 Q422 801 435.5 788 Q449 775 449 756 Q449 725 425.5 702 Q402 679 371 679 Z M545 679 Q523 679 509 691.5 Q495 704 495 724 Q495 739 501.5 753 Q508 767 518.5 777.5 Q529 788 543.5 794.5 Q558 801 573 801 Q596 801 609.5 788 Q623 775 623 756 Q623 725 599.5 702 Q576 679 545 679 Z " />
<glyph glyph-name="Amacron" unicode="&#x100;" horiz-adv-x="637" d="M391 182 L202 182 L157 106 Q149 92 144 82.5 Q139 73 139 65 Q139 53 151 47 Q163 41 191 35 L182 0 Q161 1 131.5 2 Q102 3 79 3 Q68 3 53.5 2.5 Q39 2 24 1.5 Q9 1 -4.5 0.5 Q-18 0 -27 0 L-17 35 L46 53 L390 625 L499 625 L556 121 Q558 101 562 88 Q566 75 573.5 65 Q581 55 594 48 Q607 41 627 35 L618 0 Q610 0 593.5 0.5 Q577 1 557.5 1.5 Q538 2 519 2.5 Q500 3 487 3 Q475 3 454.5 2.5 Q434 2 412 1.5 Q390 1 369 0.5 Q348 0 334 0 L343 35 L405 52 L391 182 Z M235 239 L385 239 L362 453 L235 239 Z M342 690 L358 756 L587 756 L571 690 L342 690 Z " />
<glyph glyph-name="Abreve" unicode="&#x102;" horiz-adv-x="637" d="M391 182 L202 182 L157 106 Q149 92 144 82.5 Q139 73 139 65 Q139 53 151 47 Q163 41 191 35 L182 0 Q161 1 131.5 2 Q102 3 79 3 Q68 3 53.5 2.5 Q39 2 24 1.5 Q9 1 -4.5 0.5 Q-18 0 -27 0 L-17 35 L46 53 L390 625 L499 625 L556 121 Q558 101 562 88 Q566 75 573.5 65 Q581 55 594 48 Q607 41 627 35 L618 0 Q610 0 593.5 0.5 Q577 1 557.5 1.5 Q538 2 519 2.5 Q500 3 487 3 Q475 3 454.5 2.5 Q434 2 412 1.5 Q390 1 369 0.5 Q348 0 334 0 L343 35 L405 52 L391 182 Z M235 239 L385 239 L362 453 L235 239 Z M603 801 Q590 747 551.5 710.5 Q513 674 454 674 Q408 674 382 700 Q356 726 356 766 Q356 785 360 801 L400 801 Q401 773 419 758.5 Q437 744 469 744 Q501 744 526 759.5 Q551 775 564 801 L603 801 L603 801 Z " />
<glyph glyph-name="Acaron" unicode="&#x1cd;" horiz-adv-x="637" d="M391 182 L202 182 L157 106 Q149 92 144 82.5 Q139 73 139 65 Q139 53 151 47 Q163 41 191 35 L182 0 Q161 1 131.5 2 Q102 3 79 3 Q68 3 53.5 2.5 Q39 2 24 1.5 Q9 1 -4.5 0.5 Q-18 0 -27 0 L-17 35 L46 53 L390 625 L499 625 L556 121 Q558 101 562 88 Q566 75 573.5 65 Q581 55 594 48 Q607 41 627 35 L618 0 Q610 0 593.5 0.5 Q577 1 557.5 1.5 Q538 2 519 2.5 Q500 3 487 3 Q475 3 454.5 2.5 Q434 2 412 1.5 Q390 1 369 0.5 Q348 0 334 0 L343 35 L405 52 L391 182 Z M235 239 L385 239 L362 453 L235 239 Z M365 821 L467 744 L602 821 L622 802 L490 674 L411 674 L341 805 L365 821 Z " />
<glyph glyph-name="Aring" unicode="&#xc5;" horiz-adv-x="637" d="M391 182 L202 182 L157 106 Q149 92 144 82.5 Q139 73 139 65 Q139 53 151 47 Q163 41 191 35 L182 0 Q161 1 131.5 2 Q102 3 79 3 Q68 3 53.5 2.5 Q39 2 24 1.5 Q9 1 -4.5 0.5 Q-18 0 -27 0 L-17 35 L46 53 L390 625 L499 625 L556 121 Q558 101 562 88 Q566 75 573.5 65 Q581 55 594 48 Q607 41 627 35 L618 0 Q610 0 593.5 0.5 Q577 1 557.5 1.5 Q538 2 519 2.5 Q500 3 487 3 Q475 3 454.5 2.5 Q434 2 412 1.5 Q390 1 369 0.5 Q348 0 334 0 L343 35 L405 52 L391 182 Z M235 239 L385 239 L362 453 L235 239 Z M467 715 Q492 715 507.5 734 Q523 753 523 776 Q523 793 513 803 Q503 813 488 813 Q463 813 447.5 794 Q432 775 432 752 Q432 735 442 725 Q452 715 467 715 Z M462 670 Q428 670 404.5 691.5 Q381 713 381 748 Q381 770 389.5 790 Q398 810 413 825 Q428 840 448.5 849 Q469 858 493 858 Q527 858 550.5 836.5 Q574 815 574 780 Q574 757 565.5 737 Q557 717 542 702 Q527 687 506.5 678.5 Q486 670 462 670 Z " />
<glyph glyph-name="Aringacute" unicode="&#x1fa;" horiz-adv-x="637" d="M391 182 L202 182 L157 106 Q149 92 144 82.5 Q139 73 139 65 Q139 53 151 47 Q163 41 191 35 L182 0 Q161 1 131.5 2 Q102 3 79 3 Q68 3 53.5 2.5 Q39 2 24 1.5 Q9 1 -4.5 0.5 Q-18 0 -27 0 L-17 35 L46 53 L390 625 L499 625 L556 121 Q558 101 562 88 Q566 75 573.5 65 Q581 55 594 48 Q607 41 627 35 L618 0 Q610 0 593.5 0.5 Q577 1 557.5 1.5 Q538 2 519 2.5 Q500 3 487 3 Q475 3 454.5 2.5 Q434 2 412 1.5 Q390 1 369 0.5 Q348 0 334 0 L343 35 L405 52 L391 182 Z M235 239 L385 239 L362 453 L235 239 Z M632 945 L395 849 L382 873 L547 1002 Q561 1013 569.5 1017.5 Q578 1022 586 1022 Q595 1022 601 1016.5 Q607 1011 613 1001 L637 959 L632 945 Z M464 699 Q489 699 504.5 718 Q520 737 520 760 Q520 777 510 787 Q500 797 485 797 Q460 797 444.5 778 Q429 759 429 736 Q429 719 439 709 Q449 699 464 699 Z M459 654 Q425 654 401.5 675.5 Q378 697 378 732 Q378 754 386.5 774 Q395 794 410 809 Q425 824 445.5 833 Q466 842 490 842 Q524 842 547.5 820.5 Q571 799 571 764 Q571 741 562.5 721 Q554 701 539 686 Q524 671 503.5 662.5 Q483 654 459 654 Z " />
<glyph glyph-name="Aogonek" unicode="&#x104;" horiz-adv-x="637" d="M554 -210 Q536 -221 509 -229.5 Q482 -238 454 -238 Q405 -238 378.5 -212.5 Q352 -187 352 -146 Q352 -104 380.5 -65 Q409 -26 458 3 L334 0 L343 35 L405 52 L391 182 L202 182 L157 106 Q149 92 144 82.5 Q139 73 139 65 Q139 53 151 47 Q163 41 191 35 L182 0 Q161 1 131.5 2 Q102 3 79 3 Q68 3 53.5 2.5 Q39 2 24 1.5 Q9 1 -4.5 0.5 Q-18 0 -27 0 L-17 35 L46 53 L390 625 L499 625 L556 121 Q558 101 562 88 Q566 75 573.5 65 Q581 55 594 48 Q607 41 627 35 L618 0 Q608 0 584 1 Q560 2 534 2 Q496 -23 470 -60.5 Q444 -98 444 -138 Q444 -185 487 -185 Q501 -185 514 -181.5 Q527 -178 540 -173 L554 -210 Z M235 239 L385 239 L362 453 L235 239 Z " />
<glyph glyph-name="AE" unicode="&#xc6;" horiz-adv-x="916" d="M430 54 L489 292 L329 292 L153 83 Q148 78 145 73 Q142 68 142 62 Q142 52 154.5 46 Q167 40 199 35 L190 0 Q167 1 137 1.5 Q107 2 81 2 Q70 2 55.5 2 Q41 2 26 2 Q11 2 -3 1.5 Q-17 1 -26 1 L-17 36 L43 53 L452 533 Q457 540 463 548 Q469 556 469 564 Q469 572 460.5 578 Q452 584 429 590 L438 625 L968 625 Q964 610 959.5 587.5 Q955 565 950.5 541.5 Q946 518 942 497 Q938 476 936 463 L888 463 Q888 494 885 514.5 Q882 535 871 548 Q860 561 839 566.5 Q818 572 782 572 Q768 572 750 571.5 Q732 571 717 570 L661 347 L695 347 Q741 347 775 349.5 Q809 352 838 357 L813 282 Q798 285 763 288 Q728 291 681 291 L647 291 L604 121 Q602 111 600.5 104 Q599 97 599 91 Q599 54 674 54 Q704 54 726.5 58 Q749 62 767 73.5 Q785 85 799.5 105 Q814 125 827 158 L876 158 Q872 146 866 124.5 Q860 103 853.5 79.5 Q847 56 841.5 34 Q836 12 833 0 L358 0 L367 35 L430 54 Z M503 346 L557 561 L375 346 L503 346 Z " />
<glyph glyph-name="AEacute" unicode="&#x1fc;" horiz-adv-x="916" d="M430 54 L489 292 L329 292 L153 83 Q148 78 145 73 Q142 68 142 62 Q142 52 154.5 46 Q167 40 199 35 L190 0 Q167 1 137 1.5 Q107 2 81 2 Q70 2 55.5 2 Q41 2 26 2 Q11 2 -3 1.5 Q-17 1 -26 1 L-17 36 L43 53 L452 533 Q457 540 463 548 Q469 556 469 564 Q469 572 460.5 578 Q452 584 429 590 L438 625 L968 625 Q964 610 959.5 587.5 Q955 565 950.5 541.5 Q946 518 942 497 Q938 476 936 463 L888 463 Q888 494 885 514.5 Q882 535 871 548 Q860 561 839 566.5 Q818 572 782 572 Q768 572 750 571.5 Q732 571 717 570 L661 347 L695 347 Q741 347 775 349.5 Q809 352 838 357 L813 282 Q798 285 763 288 Q728 291 681 291 L647 291 L604 121 Q602 111 600.5 104 Q599 97 599 91 Q599 54 674 54 Q704 54 726.5 58 Q749 62 767 73.5 Q785 85 799.5 105 Q814 125 827 158 L876 158 Q872 146 866 124.5 Q860 103 853.5 79.5 Q847 56 841.5 34 Q836 12 833 0 L358 0 L367 35 L430 54 Z M503 346 L557 561 L375 346 L503 346 Z M867 745 L633 668 L621 691 L787 802 Q798 810 807.5 814 Q817 818 826 818 Q836 818 842 812.5 Q848 807 853 796 L871 759 L867 745 Z " />
<glyph glyph-name="Cacute" unicode="&#x106;" horiz-adv-x="580" d="M544 109 Q499 54 434.5 19 Q370 -16 297 -16 Q198 -16 139.5 44.5 Q81 105 81 214 Q81 298 110.5 375 Q140 452 192.5 511 Q245 570 316.5 605 Q388 640 472 640 Q493 640 516 637.5 Q539 635 561.5 632 Q584 629 605 626 Q626 623 642 622 Q631 580 619.5 532 Q608 484 599 443 L549 443 Q550 449 550 455 Q550 461 550 467 Q550 518 530 546.5 Q510 575 467 575 Q420 575 379 540 Q338 505 307 451 Q276 397 258 332.5 Q240 268 240 210 Q240 146 268 113 Q296 80 347 80 Q385 80 428 98 Q471 116 508 148 L544 109 Z M615 745 L381 668 L369 691 L535 802 Q546 810 555.5 814 Q565 818 574 818 Q584 818 590 812.5 Q596 807 601 796 L619 759 L615 745 Z " />
<glyph glyph-name="Ccedilla" unicode="&#xc7;" horiz-adv-x="580" d="M544 109 Q502 58 443 24 Q384 -10 317 -15 L305 -37 Q342 -43 359 -62 Q376 -81 376 -108 Q376 -138 359.5 -162.5 Q343 -187 315.5 -204 Q288 -221 251.5 -230 Q215 -239 176 -239 L172 -203 Q220 -194 254 -172 Q288 -150 288 -120 Q288 -106 280 -99.5 Q272 -93 254 -86 Q231 -77 227 -70.5 Q223 -64 230 -52 L253 -12 Q173 1 127 59.5 Q81 118 81 214 Q81 298 110.5 375 Q140 452 192.5 511 Q245 570 316.5 605 Q388 640 472 640 Q493 640 516 637.5 Q539 635 561.5 632 Q584 629 605 626 Q626 623 642 622 Q631 580 619.5 532 Q608 484 599 443 L549 443 Q550 449 550 455 Q550 461 550 467 Q550 518 530 546.5 Q510 575 467 575 Q420 575 379 540 Q338 505 307 451 Q276 397 258 332.5 Q240 268 240 210 Q240 146 268 113 Q296 80 347 80 Q385 80 428 98 Q471 116 508 148 L544 109 Z " />
<glyph glyph-name="Ccircumflex" unicode="&#x108;" horiz-adv-x="580" d="M544 109 Q499 54 434.5 19 Q370 -16 297 -16 Q198 -16 139.5 44.5 Q81 105 81 214 Q81 298 110.5 375 Q140 452 192.5 511 Q245 570 316.5 605 Q388 640 472 640 Q493 640 516 637.5 Q539 635 561.5 632 Q584 629 605 626 Q626 623 642 622 Q631 580 619.5 532 Q608 484 599 443 L549 443 Q550 449 550 455 Q550 461 550 467 Q550 518 530 546.5 Q510 575 467 575 Q420 575 379 540 Q338 505 307 451 Q276 397 258 332.5 Q240 268 240 210 Q240 146 268 113 Q296 80 347 80 Q385 80 428 98 Q471 116 508 148 L544 109 Z M599 669 L497 746 L362 669 L342 688 L474 816 L553 816 L623 685 L599 669 Z " />
<glyph glyph-name="Ccaron" unicode="&#x10c;" horiz-adv-x="580" d="M544 109 Q499 54 434.5 19 Q370 -16 297 -16 Q198 -16 139.5 44.5 Q81 105 81 214 Q81 298 110.5 375 Q140 452 192.5 511 Q245 570 316.5 605 Q388 640 472 640 Q493 640 516 637.5 Q539 635 561.5 632 Q584 629 605 626 Q626 623 642 622 Q631 580 619.5 532 Q608 484 599 443 L549 443 Q550 449 550 455 Q550 461 550 467 Q550 518 530 546.5 Q510 575 467 575 Q420 575 379 540 Q338 505 307 451 Q276 397 258 332.5 Q240 268 240 210 Q240 146 268 113 Q296 80 347 80 Q385 80 428 98 Q471 116 508 148 L544 109 Z M399 827 L501 750 L636 827 L656 808 L524 680 L445 680 L375 811 L399 827 Z " />
<glyph glyph-name="Cdotaccent" unicode="&#x10a;" horiz-adv-x="580" d="M544 109 Q499 54 434.5 19 Q370 -16 297 -16 Q198 -16 139.5 44.5 Q81 105 81 214 Q81 298 110.5 375 Q140 452 192.5 511 Q245 570 316.5 605 Q388 640 472 640 Q493 640 516 637.5 Q539 635 561.5 632 Q584 629 605 626 Q626 623 642 622 Q631 580 619.5 532 Q608 484 599 443 L549 443 Q550 449 550 455 Q550 461 550 467 Q550 518 530 546.5 Q510 575 467 575 Q420 575 379 540 Q338 505 307 451 Q276 397 258 332.5 Q240 268 240 210 Q240 146 268 113 Q296 80 347 80 Q385 80 428 98 Q471 116 508 148 L544 109 Z M485 677 Q459 677 444 693 Q429 709 429 733 Q429 749 436.5 764.5 Q444 780 456.5 792 Q469 804 485 811 Q501 818 518 818 Q544 818 559 802 Q574 786 574 762 Q574 745 566.5 730 Q559 715 546.5 703 Q534 691 518 684 Q502 677 485 677 Z " />
<glyph glyph-name="Dcaron" unicode="&#x10e;" horiz-adv-x="672" d="M19 35 L82 54 L198 516 Q203 536 203 547 Q203 563 191 572 Q179 581 147 590 L156 625 L387 625 Q473 625 536.5 606.5 Q600 588 638 548 Q664 522 677.5 485.5 Q691 449 691 402 Q691 322 658.5 246 Q626 170 566 112 Q513 61 444 30.5 Q375 0 283 0 L10 0 L19 35 Z M255 117 Q253 107 251.5 100.5 Q250 94 250 88 Q250 58 292 58 Q340 58 383.5 90 Q427 122 460 173.5 Q493 225 513 290 Q533 355 533 420 Q533 492 497 528 Q459 566 373 566 L368 566 L255 117 Z M371 821 L473 744 L608 821 L628 802 L496 674 L417 674 L347 805 L371 821 Z " />
<glyph glyph-name="Dcroat" unicode="&#x110;" horiz-adv-x="682" d="M29 35 L92 54 L152 295 L69 295 L84 353 L167 353 L208 516 Q213 536 213 547 Q213 563 201 572 Q189 581 157 590 L166 625 L397 625 Q483 625 546.5 606.5 Q610 588 648 548 Q674 522 687.5 485.5 Q701 449 701 402 Q701 322 668.5 246 Q636 170 576 112 Q523 61 454 30.5 Q385 0 293 0 L20 0 L29 35 Z M324 353 L420 353 L405 295 L310 295 L265 117 Q263 107 261.5 100.5 Q260 94 260 88 Q260 58 302 58 Q350 58 393.5 90 Q437 122 470 173.5 Q503 225 523 290 Q543 355 543 420 Q543 492 507 528 Q469 566 383 566 L378 566 L324 353 Z " />
<glyph glyph-name="Eth" unicode="&#xd0;" horiz-adv-x="682" d="M29 35 L92 54 L152 295 L69 295 L84 353 L167 353 L208 516 Q213 536 213 547 Q213 563 201 572 Q189 581 157 590 L166 625 L397 625 Q483 625 546.5 606.5 Q610 588 648 548 Q674 522 687.5 485.5 Q701 449 701 402 Q701 322 668.5 246 Q636 170 576 112 Q523 61 454 30.5 Q385 0 293 0 L20 0 L29 35 Z M324 353 L420 353 L405 295 L310 295 L265 117 Q263 107 261.5 100.5 Q260 94 260 88 Q260 58 302 58 Q350 58 393.5 90 Q437 122 470 173.5 Q503 225 523 290 Q543 355 543 420 Q543 492 507 528 Q469 566 383 566 L378 566 L324 353 Z " />
<glyph glyph-name="Egrave" unicode="&#xc8;" horiz-adv-x="568" d="M620 625 Q616 610 611.5 587.5 Q607 565 602.5 541.5 Q598 518 594 497 Q590 476 588 463 L540 463 Q540 494 537 514.5 Q534 535 523 548 Q512 561 491 566.5 Q470 572 434 572 Q420 572 402 571.5 Q384 571 369 570 L313 347 L347 347 Q393 347 427 349.5 Q461 352 490 357 L465 282 Q450 285 415 288 Q380 291 333 291 L299 291 L256 121 Q254 111 252.5 104 Q251 97 251 91 Q251 54 326 54 Q356 54 378.5 58 Q401 62 419 73.5 Q437 85 451.5 105 Q466 125 479 158 L528 158 Q524 146 518 124.5 Q512 103 505.5 79.5 Q499 56 493.5 34 Q488 12 485 0 L10 0 L19 35 L82 54 L198 516 Q203 536 203 547 Q203 563 191 572 Q179 581 147 590 L156 625 L620 625 Z M311 759 L339 799 Q353 819 371 819 Q382 819 390.5 813.5 Q399 808 410 799 L532 690 L515 665 L313 745 L311 759 Z " />
<glyph glyph-name="Eacute" unicode="&#xc9;" horiz-adv-x="568" d="M620 625 Q616 610 611.5 587.5 Q607 565 602.5 541.5 Q598 518 594 497 Q590 476 588 463 L540 463 Q540 494 537 514.5 Q534 535 523 548 Q512 561 491 566.5 Q470 572 434 572 Q420 572 402 571.5 Q384 571 369 570 L313 347 L347 347 Q393 347 427 349.5 Q461 352 490 357 L465 282 Q450 285 415 288 Q380 291 333 291 L299 291 L256 121 Q254 111 252.5 104 Q251 97 251 91 Q251 54 326 54 Q356 54 378.5 58 Q401 62 419 73.5 Q437 85 451.5 105 Q466 125 479 158 L528 158 Q524 146 518 124.5 Q512 103 505.5 79.5 Q499 56 493.5 34 Q488 12 485 0 L10 0 L19 35 L82 54 L198 516 Q203 536 203 547 Q203 563 191 572 Q179 581 147 590 L156 625 L620 625 Z M558 745 L324 668 L312 691 L478 802 Q489 810 498.5 814 Q508 818 517 818 Q527 818 533 812.5 Q539 807 544 796 L562 759 L558 745 Z " />
<glyph glyph-name="Ecircumflex" unicode="&#xca;" horiz-adv-x="568" d="M620 625 Q616 610 611.5 587.5 Q607 565 602.5 541.5 Q598 518 594 497 Q590 476 588 463 L540 463 Q540 494 537 514.5 Q534 535 523 548 Q512 561 491 566.5 Q470 572 434 572 Q420 572 402 571.5 Q384 571 369 570 L313 347 L347 347 Q393 347 427 349.5 Q461 352 490 357 L465 282 Q450 285 415 288 Q380 291 333 291 L299 291 L256 121 Q254 111 252.5 104 Q251 97 251 91 Q251 54 326 54 Q356 54 378.5 58 Q401 62 419 73.5 Q437 85 451.5 105 Q466 125 479 158 L528 158 Q524 146 518 124.5 Q512 103 505.5 79.5 Q499 56 493.5 34 Q488 12 485 0 L10 0 L19 35 L82 54 L198 516 Q203 536 203 547 Q203 563 191 572 Q179 581 147 590 L156 625 L620 625 Z M538 669 L436 746 L301 669 L281 688 L413 816 L492 816 L562 685 L538 669 Z " />
<glyph glyph-name="Ecaron" unicode="&#x11a;" horiz-adv-x="568" d="M620 625 Q616 610 611.5 587.5 Q607 565 602.5 541.5 Q598 518 594 497 Q590 476 588 463 L540 463 Q540 494 537 514.5 Q534 535 523 548 Q512 561 491 566.5 Q470 572 434 572 Q420 572 402 571.5 Q384 571 369 570 L313 347 L347 347 Q393 347 427 349.5 Q461 352 490 357 L465 282 Q450 285 415 288 Q380 291 333 291 L299 291 L256 121 Q254 111 252.5 104 Q251 97 251 91 Q251 54 326 54 Q356 54 378.5 58 Q401 62 419 73.5 Q437 85 451.5 105 Q466 125 479 158 L528 158 Q524 146 518 124.5 Q512 103 505.5 79.5 Q499 56 493.5 34 Q488 12 485 0 L10 0 L19 35 L82 54 L198 516 Q203 536 203 547 Q203 563 191 572 Q179 581 147 590 L156 625 L620 625 Z M325 821 L427 744 L562 821 L582 802 L450 674 L371 674 L301 805 L325 821 Z " />
<glyph glyph-name="Edieresis" unicode="&#xcb;" horiz-adv-x="568" d="M620 625 Q616 610 611.5 587.5 Q607 565 602.5 541.5 Q598 518 594 497 Q590 476 588 463 L540 463 Q540 494 537 514.5 Q534 535 523 548 Q512 561 491 566.5 Q470 572 434 572 Q420 572 402 571.5 Q384 571 369 570 L313 347 L347 347 Q393 347 427 349.5 Q461 352 490 357 L465 282 Q450 285 415 288 Q380 291 333 291 L299 291 L256 121 Q254 111 252.5 104 Q251 97 251 91 Q251 54 326 54 Q356 54 378.5 58 Q401 62 419 73.5 Q437 85 451.5 105 Q466 125 479 158 L528 158 Q524 146 518 124.5 Q512 103 505.5 79.5 Q499 56 493.5 34 Q488 12 485 0 L10 0 L19 35 L82 54 L198 516 Q203 536 203 547 Q203 563 191 572 Q179 581 147 590 L156 625 L620 625 Z M324 679 Q302 679 288 691.5 Q274 704 274 724 Q274 739 280.5 753 Q287 767 297.5 777.5 Q308 788 322.5 794.5 Q337 801 352 801 Q375 801 388.5 788 Q402 775 402 756 Q402 725 378.5 702 Q355 679 324 679 Z M498 679 Q476 679 462 691.5 Q448 704 448 724 Q448 739 454.5 753 Q461 767 471.5 777.5 Q482 788 496.5 794.5 Q511 801 526 801 Q549 801 562.5 788 Q576 775 576 756 Q576 725 552.5 702 Q529 679 498 679 Z " />
<glyph glyph-name="Emacron" unicode="&#x112;" horiz-adv-x="568" d="M620 625 Q616 610 611.5 587.5 Q607 565 602.5 541.5 Q598 518 594 497 Q590 476 588 463 L540 463 Q540 494 537 514.5 Q534 535 523 548 Q512 561 491 566.5 Q470 572 434 572 Q420 572 402 571.5 Q384 571 369 570 L313 347 L347 347 Q393 347 427 349.5 Q461 352 490 357 L465 282 Q450 285 415 288 Q380 291 333 291 L299 291 L256 121 Q254 111 252.5 104 Q251 97 251 91 Q251 54 326 54 Q356 54 378.5 58 Q401 62 419 73.5 Q437 85 451.5 105 Q466 125 479 158 L528 158 Q524 146 518 124.5 Q512 103 505.5 79.5 Q499 56 493.5 34 Q488 12 485 0 L10 0 L19 35 L82 54 L198 516 Q203 536 203 547 Q203 563 191 572 Q179 581 147 590 L156 625 L620 625 Z M293 690 L309 756 L538 756 L522 690 L293 690 Z " />
<glyph glyph-name="Ebreve" unicode="&#x114;" horiz-adv-x="568" d="M620 625 Q616 610 611.5 587.5 Q607 565 602.5 541.5 Q598 518 594 497 Q590 476 588 463 L540 463 Q540 494 537 514.5 Q534 535 523 548 Q512 561 491 566.5 Q470 572 434 572 Q420 572 402 571.5 Q384 571 369 570 L313 347 L347 347 Q393 347 427 349.5 Q461 352 490 357 L465 282 Q450 285 415 288 Q380 291 333 291 L299 291 L256 121 Q254 111 252.5 104 Q251 97 251 91 Q251 54 326 54 Q356 54 378.5 58 Q401 62 419 73.5 Q437 85 451.5 105 Q466 125 479 158 L528 158 Q524 146 518 124.5 Q512 103 505.5 79.5 Q499 56 493.5 34 Q488 12 485 0 L10 0 L19 35 L82 54 L198 516 Q203 536 203 547 Q203 563 191 572 Q179 581 147 590 L156 625 L620 625 Z M564 801 Q551 747 512.5 710.5 Q474 674 415 674 Q369 674 343 700 Q317 726 317 766 Q317 785 321 801 L361 801 Q362 773 380 758.5 Q398 744 430 744 Q462 744 487 759.5 Q512 775 525 801 L564 801 L564 801 Z " />
<glyph glyph-name="Edotaccent" unicode="&#x116;" horiz-adv-x="568" d="M620 625 Q616 610 611.5 587.5 Q607 565 602.5 541.5 Q598 518 594 497 Q590 476 588 463 L540 463 Q540 494 537 514.5 Q534 535 523 548 Q512 561 491 566.5 Q470 572 434 572 Q420 572 402 571.5 Q384 571 369 570 L313 347 L347 347 Q393 347 427 349.5 Q461 352 490 357 L465 282 Q450 285 415 288 Q380 291 333 291 L299 291 L256 121 Q254 111 252.5 104 Q251 97 251 91 Q251 54 326 54 Q356 54 378.5 58 Q401 62 419 73.5 Q437 85 451.5 105 Q466 125 479 158 L528 158 Q524 146 518 124.5 Q512 103 505.5 79.5 Q499 56 493.5 34 Q488 12 485 0 L10 0 L19 35 L82 54 L198 516 Q203 536 203 547 Q203 563 191 572 Q179 581 147 590 L156 625 L620 625 Z M419 676 Q393 676 378 692 Q363 708 363 732 Q363 748 370.5 763.5 Q378 779 390.5 791 Q403 803 419 810 Q435 817 452 817 Q478 817 493 801 Q508 785 508 761 Q508 744 500.5 729 Q493 714 480.5 702 Q468 690 452 683 Q436 676 419 676 Z " />
<glyph glyph-name="Eogonek" unicode="&#x118;" horiz-adv-x="568" d="M620 625 Q616 610 611.5 587.5 Q607 565 602.5 541.5 Q598 518 594 497 Q590 476 588 463 L540 463 Q540 494 537 514.5 Q534 535 523 548 Q512 561 491 566.5 Q470 572 434 572 Q420 572 402 571.5 Q384 571 369 570 L313 347 L347 347 Q393 347 427 349.5 Q461 352 490 357 L465 282 Q450 285 415 288 Q380 291 333 291 L299 291 L256 121 Q254 111 252.5 104 Q251 97 251 91 Q251 54 326 54 Q356 54 378.5 58 Q401 62 419 73.5 Q437 85 451.5 105 Q466 125 479 158 L528 158 Q524 146 518 124.5 Q512 103 505.5 79.5 Q499 56 493.5 34 Q488 12 485 0 L428 0 Q391 -25 366 -62 Q341 -99 341 -138 Q341 -185 384 -185 Q398 -185 411 -181.5 Q424 -178 437 -173 L451 -210 Q433 -221 406 -229.5 Q379 -238 351 -238 Q302 -238 275.5 -212.5 Q249 -187 249 -146 Q249 -104 276 -66.5 Q303 -29 350 0 L10 0 L19 35 L82 54 L198 516 Q203 536 203 547 Q203 563 191 572 Q179 581 147 590 L156 625 L620 625 Z " />
<glyph glyph-name="Gcircumflex" unicode="&#x11c;" horiz-adv-x="666" d="M560 51 Q538 38 510 26 Q482 14 450 4.5 Q418 -5 384.5 -10.5 Q351 -16 319 -16 Q268 -16 224.5 -1.5 Q181 13 149 42 Q117 71 99 115 Q81 159 81 218 Q81 302 109.5 378 Q138 454 191 512.5 Q244 571 319 605.5 Q394 640 487 640 Q506 640 529.5 637.5 Q553 635 577 632 Q601 629 624.5 625.5 Q648 622 667 621 Q656 580 644.5 533 Q633 486 624 444 L574 444 Q575 450 575 456 Q575 462 575 468 Q575 490 570.5 509.5 Q566 529 555.5 543.5 Q545 558 527 566.5 Q509 575 482 575 Q445 575 412.5 558 Q380 541 353 511.5 Q326 482 305 444 Q284 406 269.5 364 Q255 322 247.5 279 Q240 236 240 198 Q240 131 262.5 91 Q285 51 333 51 Q374 51 397 83 Q420 115 434 168 L454 247 L388 266 L397 301 Q406 301 422 300.5 Q438 300 457 299.5 Q476 299 497 298.5 Q518 298 536 298 Q552 298 574 298.5 Q596 299 617.5 299.5 Q639 300 656.5 300.5 Q674 301 682 301 L673 266 Q653 261 640.5 256 Q628 251 619.5 243 Q611 235 605.5 223.5 Q600 212 596 194 L560 51 Z M614 669 L512 746 L377 669 L357 688 L489 816 L568 816 L638 685 L614 669 Z " />
<glyph glyph-name="Gbreve" unicode="&#x11e;" horiz-adv-x="666" d="M560 51 Q538 38 510 26 Q482 14 450 4.5 Q418 -5 384.5 -10.5 Q351 -16 319 -16 Q268 -16 224.5 -1.5 Q181 13 149 42 Q117 71 99 115 Q81 159 81 218 Q81 302 109.5 378 Q138 454 191 512.5 Q244 571 319 605.5 Q394 640 487 640 Q506 640 529.5 637.5 Q553 635 577 632 Q601 629 624.5 625.5 Q648 622 667 621 Q656 580 644.5 533 Q633 486 624 444 L574 444 Q575 450 575 456 Q575 462 575 468 Q575 490 570.5 509.5 Q566 529 555.5 543.5 Q545 558 527 566.5 Q509 575 482 575 Q445 575 412.5 558 Q380 541 353 511.5 Q326 482 305 444 Q284 406 269.5 364 Q255 322 247.5 279 Q240 236 240 198 Q240 131 262.5 91 Q285 51 333 51 Q374 51 397 83 Q420 115 434 168 L454 247 L388 266 L397 301 Q406 301 422 300.5 Q438 300 457 299.5 Q476 299 497 298.5 Q518 298 536 298 Q552 298 574 298.5 Q596 299 617.5 299.5 Q639 300 656.5 300.5 Q674 301 682 301 L673 266 Q653 261 640.5 256 Q628 251 619.5 243 Q611 235 605.5 223.5 Q600 212 596 194 L560 51 Z M646 801 Q633 747 594.5 710.5 Q556 674 497 674 Q451 674 425 700 Q399 726 399 766 Q399 785 403 801 L443 801 Q444 773 462 758.5 Q480 744 512 744 Q544 744 569 759.5 Q594 775 607 801 L646 801 L646 801 Z " />
<glyph glyph-name="Gdotaccent" unicode="&#x120;" horiz-adv-x="666" d="M560 51 Q538 38 510 26 Q482 14 450 4.5 Q418 -5 384.5 -10.5 Q351 -16 319 -16 Q268 -16 224.5 -1.5 Q181 13 149 42 Q117 71 99 115 Q81 159 81 218 Q81 302 109.5 378 Q138 454 191 512.5 Q244 571 319 605.5 Q394 640 487 640 Q506 640 529.5 637.5 Q553 635 577 632 Q601 629 624.5 625.5 Q648 622 667 621 Q656 580 644.5 533 Q633 486 624 444 L574 444 Q575 450 575 456 Q575 462 575 468 Q575 490 570.5 509.5 Q566 529 555.5 543.5 Q545 558 527 566.5 Q509 575 482 575 Q445 575 412.5 558 Q380 541 353 511.5 Q326 482 305 444 Q284 406 269.5 364 Q255 322 247.5 279 Q240 236 240 198 Q240 131 262.5 91 Q285 51 333 51 Q374 51 397 83 Q420 115 434 168 L454 247 L388 266 L397 301 Q406 301 422 300.5 Q438 300 457 299.5 Q476 299 497 298.5 Q518 298 536 298 Q552 298 574 298.5 Q596 299 617.5 299.5 Q639 300 656.5 300.5 Q674 301 682 301 L673 266 Q653 261 640.5 256 Q628 251 619.5 243 Q611 235 605.5 223.5 Q600 212 596 194 L560 51 Z M497 676 Q471 676 456 692 Q441 708 441 732 Q441 748 448.5 763.5 Q456 779 468.5 791 Q481 803 497 810 Q513 817 530 817 Q556 817 571 801 Q586 785 586 761 Q586 744 578.5 729 Q571 714 558.5 702 Q546 690 530 683 Q514 676 497 676 Z " />
<glyph glyph-name="Gcommaaccent" unicode="&#x122;" horiz-adv-x="666" d="M560 51 Q538 38 510 26 Q482 14 450 4.5 Q418 -5 384.5 -10.5 Q351 -16 319 -16 Q268 -16 224.5 -1.5 Q181 13 149 42 Q117 71 99 115 Q81 159 81 218 Q81 302 109.5 378 Q138 454 191 512.5 Q244 571 319 605.5 Q394 640 487 640 Q506 640 529.5 637.5 Q553 635 577 632 Q601 629 624.5 625.5 Q648 622 667 621 Q656 580 644.5 533 Q633 486 624 444 L574 444 Q575 450 575 456 Q575 462 575 468 Q575 490 570.5 509.5 Q566 529 555.5 543.5 Q545 558 527 566.5 Q509 575 482 575 Q445 575 412.5 558 Q380 541 353 511.5 Q326 482 305 444 Q284 406 269.5 364 Q255 322 247.5 279 Q240 236 240 198 Q240 131 262.5 91 Q285 51 333 51 Q374 51 397 83 Q420 115 434 168 L454 247 L388 266 L397 301 Q406 301 422 300.5 Q438 300 457 299.5 Q476 299 497 298.5 Q518 298 536 298 Q552 298 574 298.5 Q596 299 617.5 299.5 Q639 300 656.5 300.5 Q674 301 682 301 L673 266 Q653 261 640.5 256 Q628 251 619.5 243 Q611 235 605.5 223.5 Q600 212 596 194 L560 51 Z M364 -104 Q364 -133 352 -161 Q340 -189 319 -214 Q298 -239 270 -261 Q242 -283 210 -301 L193 -274 Q231 -245 251 -220.5 Q271 -196 271 -176 Q271 -166 265.5 -158.5 Q260 -151 254 -144 Q248 -137 242.5 -129 Q237 -121 237 -109 Q237 -84 258 -64.5 Q279 -45 309 -45 Q338 -45 351 -63 Q364 -81 364 -104 Z " />
<glyph glyph-name="Hcircumflex" unicode="&#x124;" horiz-adv-x="716" d="M672 109 Q667 89 667 78 Q667 62 679 53 Q691 44 723 35 L714 0 Q699 0 680.5 0.5 Q662 1 643.5 1.5 Q625 2 608 2.5 Q591 3 579 3 Q564 3 544 2.5 Q524 2 504 1.5 Q484 1 464 0.5 Q444 0 429 0 L438 35 L501 54 L561 293 L355 293 L309 109 Q304 89 304 78 Q304 62 316 53 Q328 44 360 35 L351 0 Q336 0 317.5 0.5 Q299 1 280.5 1.5 Q262 2 245 2.5 Q228 3 216 3 Q201 3 181 2.5 Q161 2 141 1.5 Q121 1 101 0.5 Q81 0 66 0 L75 35 L138 54 L254 516 Q259 536 259 547 Q259 563 247 572 Q235 581 203 590 L212 625 Q227 625 245.5 624.5 Q264 624 282.5 623.5 Q301 623 318 622.5 Q335 622 347 622 Q362 622 382 622.5 Q402 623 422 623.5 Q442 624 462 624.5 Q482 625 497 625 L488 590 L425 571 L370 355 L576 355 L617 516 Q622 536 622 547 Q622 563 610 572 Q598 581 566 590 L575 625 Q590 625 608.5 624.5 Q627 624 645.5 623.5 Q664 623 681 622.5 Q698 622 710 622 Q725 622 745 622.5 Q765 623 785 623.5 Q805 624 825 624.5 Q845 625 860 625 L851 590 L788 571 L672 109 Z M610 669 L508 746 L373 669 L353 688 L485 816 L564 816 L634 685 L610 669 Z " />
<glyph glyph-name="Hbar" unicode="&#x126;" horiz-adv-x="733" d="M724 504 L815 504 L800 446 L709 446 L625 109 Q620 89 620 78 Q620 62 632 53 Q644 44 676 35 L667 0 Q652 0 633.5 0.5 Q615 1 596.5 1.5 Q578 2 561 2.5 Q544 3 532 3 Q517 3 497 2.5 Q477 2 457 1.5 Q437 1 417 0.5 Q397 0 382 0 L391 35 L454 54 L514 293 L308 293 L262 109 Q257 89 257 78 Q257 62 269 53 Q281 44 313 35 L304 0 Q289 0 270.5 0.5 Q252 1 233.5 1.5 Q215 2 198 2.5 Q181 3 169 3 Q154 3 134 2.5 Q114 2 94 1.5 Q74 1 54 0.5 Q34 0 19 0 L28 35 L91 54 L189 446 L100 446 L115 504 L204 504 L207 516 Q212 536 212 547 Q212 563 200 572 Q188 581 156 590 L165 625 Q180 625 198.5 624.5 Q217 624 235.5 623.5 Q254 623 271 622.5 Q288 622 300 622 Q315 622 335 622.5 Q355 623 375 623.5 Q395 624 415 624.5 Q435 625 450 625 L441 590 L378 571 L361 504 L567 504 L570 516 Q575 536 575 547 Q575 563 563 572 Q551 581 519 590 L528 625 Q543 625 561.5 624.5 Q580 624 598.5 623.5 Q617 623 634 622.5 Q651 622 663 622 Q678 622 698 622.5 Q718 623 738 623.5 Q758 624 778 624.5 Q798 625 813 625 L804 590 L741 571 L724 504 Z M529 355 L552 446 L346 446 L323 355 L529 355 Z " />
<glyph glyph-name="Igrave" unicode="&#xcc;" horiz-adv-x="357" d="M255 109 Q250 89 250 78 Q250 62 262 53 Q274 44 306 35 L297 0 Q282 0 263.5 0.5 Q245 1 226.5 1.5 Q208 2 191 2.5 Q174 3 162 3 Q147 3 127 2.5 Q107 2 87 1.5 Q67 1 47 0.5 Q27 0 12 0 L21 35 L84 54 L200 516 Q205 536 205 547 Q205 563 193 572 Q181 581 149 590 L158 625 Q173 625 191.5 624.5 Q210 624 228.5 623.5 Q247 623 264 622.5 Q281 622 293 622 Q308 622 328 622.5 Q348 623 368 623.5 Q388 624 408 624.5 Q428 625 443 625 L434 590 L371 571 L255 109 Z M205 759 L233 799 Q247 819 265 819 Q276 819 284.5 813.5 Q293 808 304 799 L426 690 L409 665 L207 745 L205 759 Z " />
<glyph glyph-name="Iacute" unicode="&#xcd;" horiz-adv-x="357" d="M255 109 Q250 89 250 78 Q250 62 262 53 Q274 44 306 35 L297 0 Q282 0 263.5 0.5 Q245 1 226.5 1.5 Q208 2 191 2.5 Q174 3 162 3 Q147 3 127 2.5 Q107 2 87 1.5 Q67 1 47 0.5 Q27 0 12 0 L21 35 L84 54 L200 516 Q205 536 205 547 Q205 563 193 572 Q181 581 149 590 L158 625 Q173 625 191.5 624.5 Q210 624 228.5 623.5 Q247 623 264 622.5 Q281 622 293 622 Q308 622 328 622.5 Q348 623 368 623.5 Q388 624 408 624.5 Q428 625 443 625 L434 590 L371 571 L255 109 Z M442 745 L208 668 L196 691 L362 802 Q373 810 382.5 814 Q392 818 401 818 Q411 818 417 812.5 Q423 807 428 796 L446 759 L442 745 Z " />
<glyph glyph-name="Icircumflex" unicode="&#xce;" horiz-adv-x="357" d="M255 109 Q250 89 250 78 Q250 62 262 53 Q274 44 306 35 L297 0 Q282 0 263.5 0.5 Q245 1 226.5 1.5 Q208 2 191 2.5 Q174 3 162 3 Q147 3 127 2.5 Q107 2 87 1.5 Q67 1 47 0.5 Q27 0 12 0 L21 35 L84 54 L200 516 Q205 536 205 547 Q205 563 193 572 Q181 581 149 590 L158 625 Q173 625 191.5 624.5 Q210 624 228.5 623.5 Q247 623 264 622.5 Q281 622 293 622 Q308 622 328 622.5 Q348 623 368 623.5 Q388 624 408 624.5 Q428 625 443 625 L434 590 L371 571 L255 109 Z M428 669 L326 746 L191 669 L171 688 L303 816 L382 816 L452 685 L428 669 Z " />
<glyph glyph-name="Itilde" unicode="&#x128;" horiz-adv-x="357" d="M255 109 Q250 89 250 78 Q250 62 262 53 Q274 44 306 35 L297 0 Q282 0 263.5 0.5 Q245 1 226.5 1.5 Q208 2 191 2.5 Q174 3 162 3 Q147 3 127 2.5 Q107 2 87 1.5 Q67 1 47 0.5 Q27 0 12 0 L21 35 L84 54 L200 516 Q205 536 205 547 Q205 563 193 572 Q181 581 149 590 L158 625 Q173 625 191.5 624.5 Q210 624 228.5 623.5 Q247 623 264 622.5 Q281 622 293 622 Q308 622 328 622.5 Q348 623 368 623.5 Q388 624 408 624.5 Q428 625 443 625 L434 590 L371 571 L255 109 Z M482 791 Q462 741 435.5 711.5 Q409 682 370 682 Q352 682 336.5 687.5 Q321 693 306.5 699 Q292 705 277.5 710.5 Q263 716 247 716 Q227 716 214.5 706.5 Q202 697 193 681 L163 690 Q183 740 209.5 769.5 Q236 799 275 799 Q293 799 308.5 793.5 Q324 788 338.5 782 Q353 776 367.5 770.5 Q382 765 398 765 Q418 765 430.5 774.5 Q443 784 452 800 L482 791 Z " />
<glyph glyph-name="Idieresis" unicode="&#xcf;" horiz-adv-x="357" d="M255 109 Q250 89 250 78 Q250 62 262 53 Q274 44 306 35 L297 0 Q282 0 263.5 0.5 Q245 1 226.5 1.5 Q208 2 191 2.5 Q174 3 162 3 Q147 3 127 2.5 Q107 2 87 1.5 Q67 1 47 0.5 Q27 0 12 0 L21 35 L84 54 L200 516 Q205 536 205 547 Q205 563 193 572 Q181 581 149 590 L158 625 Q173 625 191.5 624.5 Q210 624 228.5 623.5 Q247 623 264 622.5 Q281 622 293 622 Q308 622 328 622.5 Q348 623 368 623.5 Q388 624 408 624.5 Q428 625 443 625 L434 590 L371 571 L255 109 Z M222 679 Q200 679 186 691.5 Q172 704 172 724 Q172 739 178.5 753 Q185 767 195.5 777.5 Q206 788 220.5 794.5 Q235 801 250 801 Q273 801 286.5 788 Q300 775 300 756 Q300 725 276.5 702 Q253 679 222 679 Z M396 679 Q374 679 360 691.5 Q346 704 346 724 Q346 739 352.5 753 Q359 767 369.5 777.5 Q380 788 394.5 794.5 Q409 801 424 801 Q447 801 460.5 788 Q474 775 474 756 Q474 725 450.5 702 Q427 679 396 679 Z " />
<glyph glyph-name="Imacron" unicode="&#x12a;" horiz-adv-x="357" d="M255 109 Q250 89 250 78 Q250 62 262 53 Q274 44 306 35 L297 0 Q282 0 263.5 0.5 Q245 1 226.5 1.5 Q208 2 191 2.5 Q174 3 162 3 Q147 3 127 2.5 Q107 2 87 1.5 Q67 1 47 0.5 Q27 0 12 0 L21 35 L84 54 L200 516 Q205 536 205 547 Q205 563 193 572 Q181 581 149 590 L158 625 Q173 625 191.5 624.5 Q210 624 228.5 623.5 Q247 623 264 622.5 Q281 622 293 622 Q308 622 328 622.5 Q348 623 368 623.5 Q388 624 408 624.5 Q428 625 443 625 L434 590 L371 571 L255 109 Z M193 690 L209 756 L438 756 L422 690 L193 690 Z " />
<glyph glyph-name="Ibreve" unicode="&#x12c;" horiz-adv-x="357" d="M255 109 Q250 89 250 78 Q250 62 262 53 Q274 44 306 35 L297 0 Q282 0 263.5 0.5 Q245 1 226.5 1.5 Q208 2 191 2.5 Q174 3 162 3 Q147 3 127 2.5 Q107 2 87 1.5 Q67 1 47 0.5 Q27 0 12 0 L21 35 L84 54 L200 516 Q205 536 205 547 Q205 563 193 572 Q181 581 149 590 L158 625 Q173 625 191.5 624.5 Q210 624 228.5 623.5 Q247 623 264 622.5 Q281 622 293 622 Q308 622 328 622.5 Q348 623 368 623.5 Q388 624 408 624.5 Q428 625 443 625 L434 590 L371 571 L255 109 Z M459 801 Q446 747 407.5 710.5 Q369 674 310 674 Q264 674 238 700 Q212 726 212 766 Q212 785 216 801 L256 801 Q257 773 275 758.5 Q293 744 325 744 Q357 744 382 759.5 Q407 775 420 801 L459 801 L459 801 Z " />
<glyph glyph-name="Idotaccent" unicode="&#x130;" horiz-adv-x="357" d="M255 109 Q250 89 250 78 Q250 62 262 53 Q274 44 306 35 L297 0 Q282 0 263.5 0.5 Q245 1 226.5 1.5 Q208 2 191 2.5 Q174 3 162 3 Q147 3 127 2.5 Q107 2 87 1.5 Q67 1 47 0.5 Q27 0 12 0 L21 35 L84 54 L200 516 Q205 536 205 547 Q205 563 193 572 Q181 581 149 590 L158 625 Q173 625 191.5 624.5 Q210 624 228.5 623.5 Q247 623 264 622.5 Q281 622 293 622 Q308 622 328 622.5 Q348 623 368 623.5 Q388 624 408 624.5 Q428 625 443 625 L434 590 L371 571 L255 109 Z M311 676 Q285 676 270 692 Q255 708 255 732 Q255 748 262.5 763.5 Q270 779 282.5 791 Q295 803 311 810 Q327 817 344 817 Q370 817 385 801 Q400 785 400 761 Q400 744 392.5 729 Q385 714 372.5 702 Q360 690 344 683 Q328 676 311 676 Z " />
<glyph glyph-name="Iogonek" unicode="&#x12e;" horiz-adv-x="357" d="M255 109 Q250 89 250 78 Q250 62 262 53 Q274 44 306 35 L297 0 Q276 0 252 1 Q228 2 204 2 Q169 -23 145.5 -61.5 Q122 -100 122 -138 Q122 -185 165 -185 Q179 -185 192 -181.5 Q205 -178 218 -173 L232 -210 Q214 -221 187 -229.5 Q160 -238 132 -238 Q83 -238 56.5 -212.5 Q30 -187 30 -146 Q30 -106 55.5 -66 Q81 -26 126 2 Q98 2 65.5 1 Q33 0 12 0 L21 35 L84 54 L200 516 Q205 536 205 547 Q205 563 193 572 Q181 581 149 590 L158 625 Q173 625 191.5 624.5 Q210 624 228.5 623.5 Q247 623 264 622.5 Q281 622 293 622 Q308 622 328 622.5 Q348 623 368 623.5 Q388 624 408 624.5 Q428 625 443 625 L434 590 L371 571 L255 109 Z " />
<glyph glyph-name="IJ" unicode="&#x132;" horiz-adv-x="698" d="M255 109 Q250 89 250 78 Q250 62 262 53 Q274 44 306 35 L297 0 Q282 0 263.5 0.5 Q245 1 226.5 1.5 Q208 2 191 2.5 Q174 3 162 3 Q147 3 127 2.5 Q107 2 87 1.5 Q67 1 47 0.5 Q27 0 12 0 L21 35 L84 54 L200 516 Q205 536 205 547 Q205 563 193 572 Q181 581 149 590 L158 625 Q173 625 191.5 624.5 Q210 624 228.5 623.5 Q247 623 264 622.5 Q281 622 293 622 Q308 622 328 622.5 Q348 623 368 623.5 Q388 624 408 624.5 Q428 625 443 625 L434 590 L371 571 L255 109 Z M550 516 Q555 536 555 547 Q555 563 543 572 Q531 581 499 590 L508 625 Q523 625 541.5 624.5 Q560 624 578.5 623.5 Q597 623 614 622.5 Q631 622 643 622 Q658 622 678 622.5 Q698 623 718 623.5 Q738 624 758 624.5 Q778 625 793 625 L784 590 L721 571 L600 94 Q582 22 556.5 -31 Q531 -84 493.5 -121.5 Q456 -159 403.5 -182.5 Q351 -206 279 -220 L264 -173 Q300 -157 326.5 -136.5 Q353 -116 373.5 -87 Q394 -58 410 -17 Q426 24 440 81 L550 516 Z " />
<glyph glyph-name="Jcircumflex" unicode="&#x134;" horiz-adv-x="341" d="M193 516 Q198 536 198 547 Q198 563 186 572 Q174 581 142 590 L151 625 Q166 625 184.5 624.5 Q203 624 221.5 623.5 Q240 623 257 622.5 Q274 622 286 622 Q301 622 321 622.5 Q341 623 361 623.5 Q381 624 401 624.5 Q421 625 436 625 L427 590 L364 571 L243 94 Q225 22 199.5 -31 Q174 -84 136.5 -121.5 Q99 -159 46.5 -182.5 Q-6 -206 -78 -220 L-93 -173 Q-57 -157 -30.5 -136.5 Q-4 -116 16.5 -87 Q37 -58 53 -17 Q69 24 83 81 L193 516 Z M423 669 L321 746 L186 669 L166 688 L298 816 L377 816 L447 685 L423 669 Z " />
<glyph glyph-name="Kcommaaccent" unicode="&#x136;" horiz-adv-x="659" d="M311 342 L556 574 L512 590 L521 625 Q543 623 575.5 622.5 Q608 622 630 622 Q641 622 655 622 Q669 622 683.5 622.5 Q698 623 710.5 623.5 Q723 624 731 625 L722 590 Q702 588 687.5 584.5 Q673 581 659.5 574 Q646 567 631 555.5 Q616 544 597 526 L470 409 L564 102 Q569 85 576 77 Q583 69 597 69 Q605 69 616.5 71.5 Q628 74 639 78 L627 29 Q600 12 568 0.5 Q536 -11 508 -11 Q468 -11 445 12 Q433 24 424 43 Q415 62 406 92 L346 293 L285 236 L253 109 Q248 89 248 78 Q248 62 260 53 Q272 44 304 35 L295 0 Q280 0 261.5 0.5 Q243 1 224.5 1.5 Q206 2 189 2.5 Q172 3 160 3 Q145 3 125 2.5 Q105 2 85 1.5 Q65 1 45 0.5 Q25 0 10 0 L19 35 L82 54 L198 516 Q203 536 203 547 Q203 563 191 572 Q179 581 147 590 L156 625 Q171 625 189.5 624.5 Q208 624 226.5 623.5 Q245 623 262 622.5 Q279 622 291 622 Q306 622 326 622.5 Q346 623 366 623.5 Q386 624 406 624.5 Q426 625 441 625 L432 590 L369 571 L311 342 Z M388 -104 Q388 -133 376 -161 Q364 -189 343 -214 Q322 -239 294 -261 Q266 -283 234 -301 L217 -274 Q255 -245 275 -220.5 Q295 -196 295 -176 Q295 -166 289.5 -158.5 Q284 -151 278 -144 Q272 -137 266.5 -129 Q261 -121 261 -109 Q261 -84 282 -64.5 Q303 -45 333 -45 Q362 -45 375 -63 Q388 -81 388 -104 Z " />
<glyph glyph-name="Lacute" unicode="&#x139;" horiz-adv-x="533" d="M256 121 Q254 111 252.5 104 Q251 97 251 91 Q251 54 323 54 Q352 54 373.5 58.5 Q395 63 412 75 Q429 87 443 107 Q457 127 470 158 L519 158 Q515 146 509 124.5 Q503 103 496.5 79.5 Q490 56 484.5 34 Q479 12 476 0 L10 0 L19 35 L82 54 L198 516 Q203 536 203 547 Q203 563 191 572 Q179 581 147 590 L156 625 Q171 625 189.5 624.5 Q208 624 226.5 623.5 Q245 623 262 622.5 Q279 622 291 622 Q306 622 326 622.5 Q346 623 366 623.5 Q386 624 406 624.5 Q426 625 441 625 L432 590 L369 571 L256 121 Z M436 745 L202 668 L190 691 L356 802 Q367 810 376.5 814 Q386 818 395 818 Q405 818 411 812.5 Q417 807 422 796 L440 759 L436 745 Z " />
<glyph glyph-name="Lcaron" unicode="&#x13d;" horiz-adv-x="533" d="M256 121 Q254 111 252.5 104 Q251 97 251 91 Q251 54 323 54 Q352 54 373.5 58.5 Q395 63 412 75 Q429 87 443 107 Q457 127 470 158 L519 158 Q515 146 509 124.5 Q503 103 496.5 79.5 Q490 56 484.5 34 Q479 12 476 0 L10 0 L19 35 L82 54 L198 516 Q203 536 203 547 Q203 563 191 572 Q179 581 147 590 L156 625 Q171 625 189.5 624.5 Q208 624 226.5 623.5 Q245 623 262 622.5 Q279 622 291 622 Q306 622 326 622.5 Q346 623 366 623.5 Q386 624 406 624.5 Q426 625 441 625 L432 590 L369 571 L256 121 Z M609 581 Q609 552 597 524 Q585 496 564 471 Q543 446 515 424 Q487 402 455 384 L438 411 Q476 440 496 464.5 Q516 489 516 509 Q516 519 510.5 526.5 Q505 534 499 541 Q493 548 487.5 556 Q482 564 482 576 Q482 601 503 620.5 Q524 640 554 640 Q583 640 596 622 Q609 604 609 581 Z " />
<glyph glyph-name="Lcommaaccent" unicode="&#x13b;" horiz-adv-x="533" d="M256 121 Q254 111 252.5 104 Q251 97 251 91 Q251 54 323 54 Q352 54 373.5 58.5 Q395 63 412 75 Q429 87 443 107 Q457 127 470 158 L519 158 Q515 146 509 124.5 Q503 103 496.5 79.5 Q490 56 484.5 34 Q479 12 476 0 L10 0 L19 35 L82 54 L198 516 Q203 536 203 547 Q203 563 191 572 Q179 581 147 590 L156 625 Q171 625 189.5 624.5 Q208 624 226.5 623.5 Q245 623 262 622.5 Q279 622 291 622 Q306 622 326 622.5 Q346 623 366 623.5 Q386 624 406 624.5 Q426 625 441 625 L432 590 L369 571 L256 121 Z M324 -104 Q324 -133 312 -161 Q300 -189 279 -214 Q258 -239 230 -261 Q202 -283 170 -301 L153 -274 Q191 -245 211 -220.5 Q231 -196 231 -176 Q231 -166 225.5 -158.5 Q220 -151 214 -144 Q208 -137 202.5 -129 Q197 -121 197 -109 Q197 -84 218 -64.5 Q239 -45 269 -45 Q298 -45 311 -63 Q324 -81 324 -104 Z " />
<glyph glyph-name="Lslash" unicode="&#x141;" horiz-adv-x="533" d="M321 380 L437 437 L462 385 L302 307 L256 121 Q254 111 252.5 104 Q251 97 251 91 Q251 54 323 54 Q352 54 373.5 58.5 Q395 63 412 75 Q429 87 443 107 Q457 127 470 158 L519 158 Q515 146 509 124.5 Q503 103 496.5 79.5 Q490 56 484.5 34 Q479 12 476 0 L10 0 L19 35 L82 54 L123 219 L50 183 L25 235 L142 292 L198 516 Q203 536 203 547 Q203 563 191 572 Q179 581 147 590 L156 625 Q171 625 189.5 624.5 Q208 624 226.5 623.5 Q245 623 262 622.5 Q279 622 291 622 Q306 622 326 622.5 Q346 623 366 623.5 Q386 624 406 624.5 Q426 625 441 625 L432 590 L369 571 L321 380 Z " />
<glyph glyph-name="Ldot" unicode="&#x13f;" horiz-adv-x="533" d="M256 121 Q254 111 252.5 104 Q251 97 251 91 Q251 54 323 54 Q352 54 373.5 58.5 Q395 63 412 75 Q429 87 443 107 Q457 127 470 158 L519 158 Q515 146 509 124.5 Q503 103 496.5 79.5 Q490 56 484.5 34 Q479 12 476 0 L10 0 L19 35 L82 54 L198 516 Q203 536 203 547 Q203 563 191 572 Q179 581 147 590 L156 625 Q171 625 189.5 624.5 Q208 624 226.5 623.5 Q245 623 262 622.5 Q279 622 291 622 Q306 622 326 622.5 Q346 623 366 623.5 Q386 624 406 624.5 Q426 625 441 625 L432 590 L369 571 L256 121 Z M476 264 Q450 264 435 280 Q420 296 420 320 Q420 336 427.5 351.5 Q435 367 447.5 379 Q460 391 476 398 Q492 405 509 405 Q535 405 550 389 Q565 373 565 349 Q565 332 557.5 317 Q550 302 537.5 290 Q525 278 509 271 Q493 264 476 264 Z " />
<glyph glyph-name="Nacute" unicode="&#x143;" horiz-adv-x="700" d="M349 625 L554 199 L633 516 Q638 536 638 547 Q638 563 626 572 Q614 581 582 590 L591 625 Q608 624 636 623.5 Q664 623 686 623 Q713 623 743 623.5 Q773 624 793 625 L784 590 L721 571 L578 -1 L478 -1 L257 457 L170 109 Q165 89 165 78 Q165 62 177 53 Q189 44 221 35 L212 0 Q195 1 167 1.5 Q139 2 117 2 Q90 2 60 1.5 Q30 1 10 0 L19 35 L82 54 L198 516 Q203 536 203 547 Q203 563 191 572 Q179 581 147 590 L156 625 L349 625 Z M635 745 L401 668 L389 691 L555 802 Q566 810 575.5 814 Q585 818 594 818 Q604 818 610 812.5 Q616 807 621 796 L639 759 L635 745 Z " />
<glyph glyph-name="Ncaron" unicode="&#x147;" horiz-adv-x="700" d="M349 625 L554 199 L633 516 Q638 536 638 547 Q638 563 626 572 Q614 581 582 590 L591 625 Q608 624 636 623.5 Q664 623 686 623 Q713 623 743 623.5 Q773 624 793 625 L784 590 L721 571 L578 -1 L478 -1 L257 457 L170 109 Q165 89 165 78 Q165 62 177 53 Q189 44 221 35 L212 0 Q195 1 167 1.5 Q139 2 117 2 Q90 2 60 1.5 Q30 1 10 0 L19 35 L82 54 L198 516 Q203 536 203 547 Q203 563 191 572 Q179 581 147 590 L156 625 L349 625 Z M398 821 L500 744 L635 821 L655 802 L523 674 L444 674 L374 805 L398 821 Z " />
<glyph glyph-name="Ntilde" unicode="&#xd1;" horiz-adv-x="700" d="M349 625 L554 199 L633 516 Q638 536 638 547 Q638 563 626 572 Q614 581 582 590 L591 625 Q608 624 636 623.5 Q664 623 686 623 Q713 623 743 623.5 Q773 624 793 625 L784 590 L721 571 L578 -1 L478 -1 L257 457 L170 109 Q165 89 165 78 Q165 62 177 53 Q189 44 221 35 L212 0 Q195 1 167 1.5 Q139 2 117 2 Q90 2 60 1.5 Q30 1 10 0 L19 35 L82 54 L198 516 Q203 536 203 547 Q203 563 191 572 Q179 581 147 590 L156 625 L349 625 Z M666 791 Q646 741 619.5 711.5 Q593 682 554 682 Q536 682 520.5 687.5 Q505 693 490.5 699 Q476 705 461.5 710.5 Q447 716 431 716 Q411 716 398.5 706.5 Q386 697 377 681 L347 690 Q367 740 393.5 769.5 Q420 799 459 799 Q477 799 492.5 793.5 Q508 788 522.5 782 Q537 776 551.5 770.5 Q566 765 582 765 Q602 765 614.5 774.5 Q627 784 636 800 L666 791 Z " />
<glyph glyph-name="Ncommaaccent" unicode="&#x145;" horiz-adv-x="700" d="M349 625 L554 199 L633 516 Q638 536 638 547 Q638 563 626 572 Q614 581 582 590 L591 625 Q608 624 636 623.5 Q664 623 686 623 Q713 623 743 623.5 Q773 624 793 625 L784 590 L721 571 L578 -1 L478 -1 L257 457 L170 109 Q165 89 165 78 Q165 62 177 53 Q189 44 221 35 L212 0 Q195 1 167 1.5 Q139 2 117 2 Q90 2 60 1.5 Q30 1 10 0 L19 35 L82 54 L198 516 Q203 536 203 547 Q203 563 191 572 Q179 581 147 590 L156 625 L349 625 Z M375 -104 Q375 -133 363 -161 Q351 -189 330 -214 Q309 -239 281 -261 Q253 -283 221 -301 L204 -274 Q242 -245 262 -220.5 Q282 -196 282 -176 Q282 -166 276.5 -158.5 Q271 -151 265 -144 Q259 -137 253.5 -129 Q248 -121 248 -109 Q248 -84 269 -64.5 Q290 -45 320 -45 Q349 -45 362 -63 Q375 -81 375 -104 Z " />
<glyph glyph-name="Eng" unicode="&#x14a;" horiz-adv-x="701" d="M257 457 L170 109 Q165 89 165 78 Q165 62 177 53 Q189 44 221 35 L212 0 Q195 1 167 1.5 Q139 2 117 2 Q90 2 60 1.5 Q30 1 10 0 L19 35 L82 54 L198 516 Q203 536 203 547 Q203 563 191 572 Q179 581 147 590 L156 625 L349 625 L554 199 L633 516 Q638 536 638 547 Q638 563 626 572 Q614 581 582 590 L591 625 Q608 624 636 623.5 Q664 623 686 623 Q713 623 743 623.5 Q773 624 793 625 L784 590 L721 571 L598 78 Q583 16 563 -34.5 Q543 -85 516 -121 Q489 -157 453 -176.5 Q417 -196 368 -196 Q339 -196 311.5 -189.5 Q284 -183 267 -173 Q251 -164 258 -143 L291 -51 L307 -45 Q327 -59 352 -68 Q377 -77 399 -77 Q459 -77 490 -18 L257 457 Z " />
<glyph glyph-name="Ograve" unicode="&#xd2;" horiz-adv-x="650" d="M315 50 Q354 50 389.5 88.5 Q425 127 451.5 186 Q478 245 493.5 315 Q509 385 509 447 Q509 502 491 538 Q473 574 434 574 Q395 574 359.5 535.5 Q324 497 297.5 438 Q271 379 255.5 309 Q240 239 240 177 Q240 122 258 86 Q276 50 315 50 Z M310 -16 Q263 -16 221.5 -1.5 Q180 13 149 43 Q118 73 99.5 119.5 Q81 166 81 231 Q81 277 92.5 325.5 Q104 374 125.5 419.5 Q147 465 178.5 505 Q210 545 249.5 575 Q289 605 336.5 622.5 Q384 640 439 640 Q485 640 527 625.5 Q569 611 600 581 Q631 551 649.5 504 Q668 457 668 393 Q668 323 642.5 250.5 Q617 178 570.5 118.5 Q524 59 458 21.5 Q392 -16 310 -16 Z M360 759 L388 799 Q402 819 420 819 Q431 819 439.5 813.5 Q448 808 459 799 L581 690 L564 665 L362 745 L360 759 Z " />
<glyph glyph-name="Oacute" unicode="&#xd3;" horiz-adv-x="650" d="M315 50 Q354 50 389.5 88.5 Q425 127 451.5 186 Q478 245 493.5 315 Q509 385 509 447 Q509 502 491 538 Q473 574 434 574 Q395 574 359.5 535.5 Q324 497 297.5 438 Q271 379 255.5 309 Q240 239 240 177 Q240 122 258 86 Q276 50 315 50 Z M310 -16 Q263 -16 221.5 -1.5 Q180 13 149 43 Q118 73 99.5 119.5 Q81 166 81 231 Q81 277 92.5 325.5 Q104 374 125.5 419.5 Q147 465 178.5 505 Q210 545 249.5 575 Q289 605 336.5 622.5 Q384 640 439 640 Q485 640 527 625.5 Q569 611 600 581 Q631 551 649.5 504 Q668 457 668 393 Q668 323 642.5 250.5 Q617 178 570.5 118.5 Q524 59 458 21.5 Q392 -16 310 -16 Z M586 745 L352 668 L340 691 L506 802 Q517 810 526.5 814 Q536 818 545 818 Q555 818 561 812.5 Q567 807 572 796 L590 759 L586 745 Z " />
<glyph glyph-name="Ocircumflex" unicode="&#xd4;" horiz-adv-x="650" d="M315 50 Q354 50 389.5 88.5 Q425 127 451.5 186 Q478 245 493.5 315 Q509 385 509 447 Q509 502 491 538 Q473 574 434 574 Q395 574 359.5 535.5 Q324 497 297.5 438 Q271 379 255.5 309 Q240 239 240 177 Q240 122 258 86 Q276 50 315 50 Z M310 -16 Q263 -16 221.5 -1.5 Q180 13 149 43 Q118 73 99.5 119.5 Q81 166 81 231 Q81 277 92.5 325.5 Q104 374 125.5 419.5 Q147 465 178.5 505 Q210 545 249.5 575 Q289 605 336.5 622.5 Q384 640 439 640 Q485 640 527 625.5 Q569 611 600 581 Q631 551 649.5 504 Q668 457 668 393 Q668 323 642.5 250.5 Q617 178 570.5 118.5 Q524 59 458 21.5 Q392 -16 310 -16 Z M573 669 L471 746 L336 669 L316 688 L448 816 L527 816 L597 685 L573 669 Z " />
<glyph glyph-name="Otilde" unicode="&#xd5;" horiz-adv-x="650" d="M315 50 Q354 50 389.5 88.5 Q425 127 451.5 186 Q478 245 493.5 315 Q509 385 509 447 Q509 502 491 538 Q473 574 434 574 Q395 574 359.5 535.5 Q324 497 297.5 438 Q271 379 255.5 309 Q240 239 240 177 Q240 122 258 86 Q276 50 315 50 Z M310 -16 Q263 -16 221.5 -1.5 Q180 13 149 43 Q118 73 99.5 119.5 Q81 166 81 231 Q81 277 92.5 325.5 Q104 374 125.5 419.5 Q147 465 178.5 505 Q210 545 249.5 575 Q289 605 336.5 622.5 Q384 640 439 640 Q485 640 527 625.5 Q569 611 600 581 Q631 551 649.5 504 Q668 457 668 393 Q668 323 642.5 250.5 Q617 178 570.5 118.5 Q524 59 458 21.5 Q392 -16 310 -16 Z M626 791 Q606 741 579.5 711.5 Q553 682 514 682 Q496 682 480.5 687.5 Q465 693 450.5 699 Q436 705 421.5 710.5 Q407 716 391 716 Q371 716 358.5 706.5 Q346 697 337 681 L307 690 Q327 740 353.5 769.5 Q380 799 419 799 Q437 799 452.5 793.5 Q468 788 482.5 782 Q497 776 511.5 770.5 Q526 765 542 765 Q562 765 574.5 774.5 Q587 784 596 800 L626 791 Z " />
<glyph glyph-name="Odieresis" unicode="&#xd6;" horiz-adv-x="650" d="M315 50 Q354 50 389.5 88.5 Q425 127 451.5 186 Q478 245 493.5 315 Q509 385 509 447 Q509 502 491 538 Q473 574 434 574 Q395 574 359.5 535.5 Q324 497 297.5 438 Q271 379 255.5 309 Q240 239 240 177 Q240 122 258 86 Q276 50 315 50 Z M310 -16 Q263 -16 221.5 -1.5 Q180 13 149 43 Q118 73 99.5 119.5 Q81 166 81 231 Q81 277 92.5 325.5 Q104 374 125.5 419.5 Q147 465 178.5 505 Q210 545 249.5 575 Q289 605 336.5 622.5 Q384 640 439 640 Q485 640 527 625.5 Q569 611 600 581 Q631 551 649.5 504 Q668 457 668 393 Q668 323 642.5 250.5 Q617 178 570.5 118.5 Q524 59 458 21.5 Q392 -16 310 -16 Z M365 679 Q343 679 329 691.5 Q315 704 315 724 Q315 739 321.5 753 Q328 767 338.5 777.5 Q349 788 363.5 794.5 Q378 801 393 801 Q416 801 429.5 788 Q443 775 443 756 Q443 725 419.5 702 Q396 679 365 679 Z M539 679 Q517 679 503 691.5 Q489 704 489 724 Q489 739 495.5 753 Q502 767 512.5 777.5 Q523 788 537.5 794.5 Q552 801 567 801 Q590 801 603.5 788 Q617 775 617 756 Q617 725 593.5 702 Q570 679 539 679 Z " />
<glyph glyph-name="Omacron" unicode="&#x14c;" horiz-adv-x="650" d="M315 50 Q354 50 389.5 88.5 Q425 127 451.5 186 Q478 245 493.5 315 Q509 385 509 447 Q509 502 491 538 Q473 574 434 574 Q395 574 359.5 535.5 Q324 497 297.5 438 Q271 379 255.5 309 Q240 239 240 177 Q240 122 258 86 Q276 50 315 50 Z M310 -16 Q263 -16 221.5 -1.5 Q180 13 149 43 Q118 73 99.5 119.5 Q81 166 81 231 Q81 277 92.5 325.5 Q104 374 125.5 419.5 Q147 465 178.5 505 Q210 545 249.5 575 Q289 605 336.5 622.5 Q384 640 439 640 Q485 640 527 625.5 Q569 611 600 581 Q631 551 649.5 504 Q668 457 668 393 Q668 323 642.5 250.5 Q617 178 570.5 118.5 Q524 59 458 21.5 Q392 -16 310 -16 Z M339 690 L355 756 L584 756 L568 690 L339 690 Z " />
<glyph glyph-name="Obreve" unicode="&#x14e;" horiz-adv-x="650" d="M315 50 Q354 50 389.5 88.5 Q425 127 451.5 186 Q478 245 493.5 315 Q509 385 509 447 Q509 502 491 538 Q473 574 434 574 Q395 574 359.5 535.5 Q324 497 297.5 438 Q271 379 255.5 309 Q240 239 240 177 Q240 122 258 86 Q276 50 315 50 Z M310 -16 Q263 -16 221.5 -1.5 Q180 13 149 43 Q118 73 99.5 119.5 Q81 166 81 231 Q81 277 92.5 325.5 Q104 374 125.5 419.5 Q147 465 178.5 505 Q210 545 249.5 575 Q289 605 336.5 622.5 Q384 640 439 640 Q485 640 527 625.5 Q569 611 600 581 Q631 551 649.5 504 Q668 457 668 393 Q668 323 642.5 250.5 Q617 178 570.5 118.5 Q524 59 458 21.5 Q392 -16 310 -16 Z M602 801 Q589 747 550.5 710.5 Q512 674 453 674 Q407 674 381 700 Q355 726 355 766 Q355 785 359 801 L399 801 Q400 773 418 758.5 Q436 744 468 744 Q500 744 525 759.5 Q550 775 563 801 L602 801 L602 801 Z " />
<glyph glyph-name="Ohungarumlaut" unicode="&#x150;" horiz-adv-x="650" d="M315 50 Q354 50 389.5 88.5 Q425 127 451.5 186 Q478 245 493.5 315 Q509 385 509 447 Q509 502 491 538 Q473 574 434 574 Q395 574 359.5 535.5 Q324 497 297.5 438 Q271 379 255.5 309 Q240 239 240 177 Q240 122 258 86 Q276 50 315 50 Z M310 -16 Q263 -16 221.5 -1.5 Q180 13 149 43 Q118 73 99.5 119.5 Q81 166 81 231 Q81 277 92.5 325.5 Q104 374 125.5 419.5 Q147 465 178.5 505 Q210 545 249.5 575 Q289 605 336.5 622.5 Q384 640 439 640 Q485 640 527 625.5 Q569 611 600 581 Q631 551 649.5 504 Q668 457 668 393 Q668 323 642.5 250.5 Q617 178 570.5 118.5 Q524 59 458 21.5 Q392 -16 310 -16 Z M487 753 L285 669 L274 689 L414 799 Q425 807 434 812 Q443 817 451 817 Q467 817 477 795 L491 765 L487 753 Z M666 753 L464 669 L453 689 L593 799 Q604 807 613 812 Q622 817 630 817 Q646 817 656 795 L670 765 L666 753 Z " />
<glyph glyph-name="Oslash" unicode="&#xd8;" horiz-adv-x="650" d="M310 -16 Q264 -16 224 -2 L180 -79 L117 -79 L175 22 Q133 51 107 102 Q81 153 81 231 Q81 277 92.5 325.5 Q104 374 125.5 419.5 Q147 465 178.5 505 Q210 545 249.5 575 Q289 605 336.5 622.5 Q384 640 439 640 Q484 640 524 626 L569 704 L631 704 L572 602 Q615 573 641.5 522 Q668 471 668 393 Q668 323 642.5 250.5 Q617 178 570.5 118.5 Q524 59 458 21.5 Q392 -16 310 -16 Z M315 50 Q354 50 389.5 88.5 Q425 127 451.5 186 Q478 245 493.5 315 Q509 385 509 447 Q509 469 506 487 L267 72 Q286 50 315 50 Z M240 177 Q240 166 240.5 156.5 Q241 147 242 138 L481 552 Q462 574 434 574 Q395 574 359.5 535.5 Q324 497 297.5 438 Q271 379 255.5 309 Q240 239 240 177 Z " />
<glyph glyph-name="Oslashacute" unicode="&#x1fe;" horiz-adv-x="650" d="M310 -16 Q264 -16 224 -2 L180 -79 L117 -79 L175 22 Q133 51 107 102 Q81 153 81 231 Q81 277 92.5 325.5 Q104 374 125.5 419.5 Q147 465 178.5 505 Q210 545 249.5 575 Q289 605 336.5 622.5 Q384 640 439 640 Q484 640 524 626 L569 704 L631 704 L572 602 Q615 573 641.5 522 Q668 471 668 393 Q668 323 642.5 250.5 Q617 178 570.5 118.5 Q524 59 458 21.5 Q392 -16 310 -16 Z M315 50 Q354 50 389.5 88.5 Q425 127 451.5 186 Q478 245 493.5 315 Q509 385 509 447 Q509 469 506 487 L267 72 Q286 50 315 50 Z M240 177 Q240 166 240.5 156.5 Q241 147 242 138 L481 552 Q462 574 434 574 Q395 574 359.5 535.5 Q324 497 297.5 438 Q271 379 255.5 309 Q240 239 240 177 Z M586 752 L352 675 L340 698 L506 809 Q517 817 526.5 821 Q536 825 545 825 Q555 825 561 819.5 Q567 814 572 803 L590 766 L586 752 Z " />
<glyph glyph-name="OE" unicode="&#x152;" horiz-adv-x="893" d="M510 462 Q513 475 517 491.5 Q521 508 521 522 Q521 546 505.5 561 Q490 576 459 576 Q414 576 373.5 537.5 Q333 499 302.5 439 Q272 379 254 307.5 Q236 236 236 170 Q236 107 259.5 77.5 Q283 48 323 48 Q363 48 389 76 Q406 94 417.5 121 Q429 148 440 191 L510 462 Z M542 0 Q501 0 469.5 -2.5 Q438 -5 410.5 -8 Q383 -11 357 -13.5 Q331 -16 302 -16 Q195 -16 136 43 Q77 102 77 208 Q77 248 85.5 291 Q94 334 111 377 Q128 420 153 460 Q178 500 211 534 Q257 582 319 611 Q381 640 463 640 Q492 640 519.5 637.5 Q547 635 575.5 632.5 Q604 630 635.5 627.5 Q667 625 705 625 L945 625 Q941 610 936.5 587.5 Q932 565 927.5 541.5 Q923 518 919 497 Q915 476 913 463 L865 463 Q865 494 862 514.5 Q859 535 848 548 Q837 561 816 566.5 Q795 572 759 572 Q745 572 727 571.5 Q709 571 694 570 L638 347 L672 347 Q718 347 752 349.5 Q786 352 815 357 L790 282 Q775 285 740 288 Q705 291 658 291 L624 291 L581 121 Q579 111 577.5 104 Q576 97 576 91 Q576 54 651 54 Q681 54 703.5 58 Q726 62 744 73.5 Q762 85 776.5 105 Q791 125 804 158 L853 158 Q849 146 843 124.5 Q837 103 830.5 79.5 Q824 56 818.5 34 Q813 12 810 0 L542 0 Z " />
<glyph glyph-name="Thorn" unicode="&#xde;" horiz-adv-x="615" d="M352 505 L387 505 Q454 505 505.5 492 Q557 479 587 450 Q625 412 625 353 Q625 306 606 268 Q587 230 552 201 Q510 166 447.5 147 Q385 128 306 128 L258 128 L253 109 Q248 89 248 78 Q248 62 260 53 Q272 44 304 35 L295 0 Q280 0 261.5 0.5 Q243 1 224.5 1.5 Q206 2 189 2.5 Q172 3 160 3 Q145 3 125 2.5 Q105 2 85 1.5 Q65 1 45 0.5 Q25 0 10 0 L19 35 L82 54 L198 516 Q203 536 203 547 Q203 563 191 572 Q179 581 147 590 L156 625 Q171 625 189.5 624.5 Q208 624 226.5 623.5 Q245 623 262 622.5 Q279 622 291 622 Q306 622 326 622.5 Q346 623 366 623.5 Q386 624 406 624.5 Q426 625 441 625 L432 590 L369 571 L352 505 Z M338 449 L272 183 L295 183 Q333 183 363.5 196 Q394 209 416 231 Q441 256 455 290.5 Q469 325 469 360 Q469 398 447 422 Q421 449 362 449 L338 449 Z " />
<glyph glyph-name="Racute" unicode="&#x154;" horiz-adv-x="646" d="M291 263 L253 109 Q248 89 248 78 Q248 62 260 53 Q272 44 304 35 L295 0 Q280 0 261.5 0.5 Q243 1 224.5 1.5 Q206 2 189 2.5 Q172 3 160 3 Q145 3 125 2.5 Q105 2 85 1.5 Q65 1 45 0.5 Q25 0 10 0 L19 35 L82 54 L198 516 Q203 536 203 547 Q203 563 191 572 Q179 581 147 590 L156 625 L408 625 Q540 625 598 579 Q644 544 644 481 Q644 448 630 417.5 Q616 387 592 362 Q568 337 535 318 Q502 299 464 289 Q494 278 508.5 253.5 Q523 229 534 184 L552 105 Q557 85 563.5 77 Q570 69 584 69 Q592 69 603.5 71.5 Q615 74 626 78 L615 30 Q583 10 551.5 -0.5 Q520 -11 495 -11 Q453 -11 432 13.5 Q411 38 399 93 L376 195 Q368 233 354 248 Q340 263 305 263 L291 263 Z M305 318 L315 318 Q352 318 384 332.5 Q416 347 439 370.5 Q462 394 475 424 Q488 454 488 486 Q488 525 465 546 Q450 560 427.5 565 Q405 570 375 570 L369 570 L305 318 Z M584 745 L350 668 L338 691 L504 802 Q515 810 524.5 814 Q534 818 543 818 Q553 818 559 812.5 Q565 807 570 796 L588 759 L584 745 Z " />
<glyph glyph-name="Rcaron" unicode="&#x158;" horiz-adv-x="646" d="M291 263 L253 109 Q248 89 248 78 Q248 62 260 53 Q272 44 304 35 L295 0 Q280 0 261.5 0.5 Q243 1 224.5 1.5 Q206 2 189 2.5 Q172 3 160 3 Q145 3 125 2.5 Q105 2 85 1.5 Q65 1 45 0.5 Q25 0 10 0 L19 35 L82 54 L198 516 Q203 536 203 547 Q203 563 191 572 Q179 581 147 590 L156 625 L408 625 Q540 625 598 579 Q644 544 644 481 Q644 448 630 417.5 Q616 387 592 362 Q568 337 535 318 Q502 299 464 289 Q494 278 508.5 253.5 Q523 229 534 184 L552 105 Q557 85 563.5 77 Q570 69 584 69 Q592 69 603.5 71.5 Q615 74 626 78 L615 30 Q583 10 551.5 -0.5 Q520 -11 495 -11 Q453 -11 432 13.5 Q411 38 399 93 L376 195 Q368 233 354 248 Q340 263 305 263 L291 263 Z M305 318 L315 318 Q352 318 384 332.5 Q416 347 439 370.5 Q462 394 475 424 Q488 454 488 486 Q488 525 465 546 Q450 560 427.5 565 Q405 570 375 570 L369 570 L305 318 Z M346 821 L448 744 L583 821 L603 802 L471 674 L392 674 L322 805 L346 821 Z " />
<glyph glyph-name="Rcommaaccent" unicode="&#x156;" horiz-adv-x="646" d="M291 263 L253 109 Q248 89 248 78 Q248 62 260 53 Q272 44 304 35 L295 0 Q280 0 261.5 0.5 Q243 1 224.5 1.5 Q206 2 189 2.5 Q172 3 160 3 Q145 3 125 2.5 Q105 2 85 1.5 Q65 1 45 0.5 Q25 0 10 0 L19 35 L82 54 L198 516 Q203 536 203 547 Q203 563 191 572 Q179 581 147 590 L156 625 L408 625 Q540 625 598 579 Q644 544 644 481 Q644 448 630 417.5 Q616 387 592 362 Q568 337 535 318 Q502 299 464 289 Q494 278 508.5 253.5 Q523 229 534 184 L552 105 Q557 85 563.5 77 Q570 69 584 69 Q592 69 603.5 71.5 Q615 74 626 78 L615 30 Q583 10 551.5 -0.5 Q520 -11 495 -11 Q453 -11 432 13.5 Q411 38 399 93 L376 195 Q368 233 354 248 Q340 263 305 263 L291 263 Z M305 318 L315 318 Q352 318 384 332.5 Q416 347 439 370.5 Q462 394 475 424 Q488 454 488 486 Q488 525 465 546 Q450 560 427.5 565 Q405 570 375 570 L369 570 L305 318 Z M374 -104 Q374 -133 362 -161 Q350 -189 329 -214 Q308 -239 280 -261 Q252 -283 220 -301 L203 -274 Q241 -245 261 -220.5 Q281 -196 281 -176 Q281 -166 275.5 -158.5 Q270 -151 264 -144 Q258 -137 252.5 -129 Q247 -121 247 -109 Q247 -84 268 -64.5 Q289 -45 319 -45 Q348 -45 361 -63 Q374 -81 374 -104 Z " />
<glyph glyph-name="Sacute" unicode="&#x15a;" horiz-adv-x="529" d="M485 455 Q489 515 464 546.5 Q439 578 387 578 Q345 578 315.5 552.5 Q286 527 286 488 Q286 456 310.5 430 Q335 404 385 370 Q406 355 427 338 Q448 321 464 300 Q480 279 490 253.5 Q500 228 500 196 Q500 151 480 112.5 Q460 74 424.5 45.5 Q389 17 339 0.5 Q289 -16 229 -16 Q181 -16 131 -5 Q81 6 47 23 Q57 61 67 102.5 Q77 144 85 180 L137 180 Q136 174 136 168.5 Q136 163 136 158 Q136 107 163 76 Q190 45 240 45 Q262 45 282.5 52.5 Q303 60 318.5 73.5 Q334 87 343 105.5 Q352 124 352 147 Q352 181 325.5 206.5 Q299 232 264 256 Q235 276 211.5 295 Q188 314 171.5 335 Q155 356 146.5 379.5 Q138 403 138 433 Q138 478 158 516 Q178 554 212.5 581.5 Q247 609 294.5 624.5 Q342 640 398 640 Q447 640 487.5 632 Q528 624 570 619 Q565 604 559.5 581.5 Q554 559 549 535.5 Q544 512 539.5 490.5 Q535 469 533 455 L485 455 L485 455 Z M547 745 L313 668 L301 691 L467 802 Q478 810 487.5 814 Q497 818 506 818 Q516 818 522 812.5 Q528 807 533 796 L551 759 L547 745 Z " />
<glyph glyph-name="Scircumflex" unicode="&#x15c;" horiz-adv-x="529" d="M485 455 Q489 515 464 546.5 Q439 578 387 578 Q345 578 315.5 552.5 Q286 527 286 488 Q286 456 310.5 430 Q335 404 385 370 Q406 355 427 338 Q448 321 464 300 Q480 279 490 253.5 Q500 228 500 196 Q500 151 480 112.5 Q460 74 424.5 45.5 Q389 17 339 0.5 Q289 -16 229 -16 Q181 -16 131 -5 Q81 6 47 23 Q57 61 67 102.5 Q77 144 85 180 L137 180 Q136 174 136 168.5 Q136 163 136 158 Q136 107 163 76 Q190 45 240 45 Q262 45 282.5 52.5 Q303 60 318.5 73.5 Q334 87 343 105.5 Q352 124 352 147 Q352 181 325.5 206.5 Q299 232 264 256 Q235 276 211.5 295 Q188 314 171.5 335 Q155 356 146.5 379.5 Q138 403 138 433 Q138 478 158 516 Q178 554 212.5 581.5 Q247 609 294.5 624.5 Q342 640 398 640 Q447 640 487.5 632 Q528 624 570 619 Q565 604 559.5 581.5 Q554 559 549 535.5 Q544 512 539.5 490.5 Q535 469 533 455 L485 455 L485 455 Z M537 669 L435 746 L300 669 L280 688 L412 816 L491 816 L561 685 L537 669 Z " />
<glyph glyph-name="Scaron" unicode="&#x160;" horiz-adv-x="529" d="M485 455 Q489 515 464 546.5 Q439 578 387 578 Q345 578 315.5 552.5 Q286 527 286 488 Q286 456 310.5 430 Q335 404 385 370 Q406 355 427 338 Q448 321 464 300 Q480 279 490 253.5 Q500 228 500 196 Q500 151 480 112.5 Q460 74 424.5 45.5 Q389 17 339 0.5 Q289 -16 229 -16 Q181 -16 131 -5 Q81 6 47 23 Q57 61 67 102.5 Q77 144 85 180 L137 180 Q136 174 136 168.5 Q136 163 136 158 Q136 107 163 76 Q190 45 240 45 Q262 45 282.5 52.5 Q303 60 318.5 73.5 Q334 87 343 105.5 Q352 124 352 147 Q352 181 325.5 206.5 Q299 232 264 256 Q235 276 211.5 295 Q188 314 171.5 335 Q155 356 146.5 379.5 Q138 403 138 433 Q138 478 158 516 Q178 554 212.5 581.5 Q247 609 294.5 624.5 Q342 640 398 640 Q447 640 487.5 632 Q528 624 570 619 Q565 604 559.5 581.5 Q554 559 549 535.5 Q544 512 539.5 490.5 Q535 469 533 455 L485 455 L485 455 Z M320 829 L422 752 L557 829 L577 810 L445 682 L366 682 L296 813 L320 829 Z " />
<glyph glyph-name="Scedilla" unicode="&#x15e;" horiz-adv-x="529" d="M264 256 Q235 276 211.5 295 Q188 314 171.5 335 Q155 356 146.5 379.5 Q138 403 138 433 Q138 478 158 516 Q178 554 212.5 581.5 Q247 609 294.5 624.5 Q342 640 398 640 Q447 640 487.5 632 Q528 624 570 619 Q566 608 561 588 Q556 568 551 545 Q546 522 541 498 Q536 474 533 455 L485 455 Q485 512 464 545 Q443 578 387 578 Q345 578 315.5 552.5 Q286 527 286 488 Q286 456 310.5 430 Q335 404 385 370 Q406 355 427 338 Q448 321 464 300 Q480 279 490 253.5 Q500 228 500 196 Q500 155 483 118.5 Q466 82 435.5 54.5 Q405 27 361.5 9 Q318 -9 266 -14 L253 -37 Q290 -43 307 -62 Q324 -81 324 -108 Q324 -138 307.5 -162.5 Q291 -187 263.5 -204 Q236 -221 199.5 -230 Q163 -239 124 -239 L120 -203 Q168 -194 202 -172 Q236 -150 236 -120 Q236 -106 228 -99.5 Q220 -93 202 -86 Q173 -75 173 -65 Q173 -61 178 -52 L200 -15 Q158 -12 117 -2 Q76 8 47 23 Q57 61 67 102.5 Q77 144 85 180 L137 180 Q136 174 136 168.5 Q136 163 136 158 Q136 107 163 76 Q190 45 240 45 Q262 45 282.5 52.5 Q303 60 318.5 73.5 Q334 87 343 105.5 Q352 124 352 147 Q352 181 325.5 206.5 Q299 232 264 256 Z " />
<glyph glyph-name="Scommaaccent" unicode="&#x218;" horiz-adv-x="529" d="M485 455 Q489 515 464 546.5 Q439 578 387 578 Q345 578 315.5 552.5 Q286 527 286 488 Q286 456 310.5 430 Q335 404 385 370 Q406 355 427 338 Q448 321 464 300 Q480 279 490 253.5 Q500 228 500 196 Q500 151 480 112.5 Q460 74 424.5 45.5 Q389 17 339 0.5 Q289 -16 229 -16 Q181 -16 131 -5 Q81 6 47 23 Q57 61 67 102.5 Q77 144 85 180 L137 180 Q136 174 136 168.5 Q136 163 136 158 Q136 107 163 76 Q190 45 240 45 Q262 45 282.5 52.5 Q303 60 318.5 73.5 Q334 87 343 105.5 Q352 124 352 147 Q352 181 325.5 206.5 Q299 232 264 256 Q235 276 211.5 295 Q188 314 171.5 335 Q155 356 146.5 379.5 Q138 403 138 433 Q138 478 158 516 Q178 554 212.5 581.5 Q247 609 294.5 624.5 Q342 640 398 640 Q447 640 487.5 632 Q528 624 570 619 Q565 604 559.5 581.5 Q554 559 549 535.5 Q544 512 539.5 490.5 Q535 469 533 455 L485 455 L485 455 Z M284 -104 Q284 -133 272 -161 Q260 -189 239 -214 Q218 -239 190 -261 Q162 -283 130 -301 L113 -274 Q151 -245 171 -220.5 Q191 -196 191 -176 Q191 -166 185.5 -158.5 Q180 -151 174 -144 Q168 -137 162.5 -129 Q157 -121 157 -109 Q157 -84 178 -64.5 Q199 -45 229 -45 Q258 -45 271 -63 Q284 -81 284 -104 Z " />
<glyph glyph-name="Tcaron" unicode="&#x164;" horiz-adv-x="610" d="M494 571 L378 109 Q373 89 373 78 Q373 62 385 53 Q397 44 429 35 L420 0 Q405 0 386.5 0.5 Q368 1 349.5 1.5 Q331 2 314 2.5 Q297 3 285 3 Q270 3 250 2.5 Q230 2 209 1.5 Q188 1 168 0.5 Q148 0 133 0 L142 35 L207 54 L336 571 L315 571 Q284 571 261.5 566 Q239 561 221 548 Q203 535 187 512 Q171 489 154 452 L103 452 Q107 466 114 488.5 Q121 511 128 536 Q135 561 141.5 584.5 Q148 608 152 625 L703 625 Q699 608 694 586 Q689 564 684.5 540.5 Q680 517 676 494 Q672 471 669 452 L621 452 Q621 489 617.5 512 Q614 535 603.5 548 Q593 561 573.5 566 Q554 571 521 571 L494 571 Z M345 821 L447 744 L582 821 L602 802 L470 674 L391 674 L321 805 L345 821 Z " />
<glyph glyph-name="Tcommaaccent" unicode="&#x162;" horiz-adv-x="610" d="M494 571 L378 109 Q373 89 373 78 Q373 62 385 53 Q397 44 429 35 L420 0 Q405 0 386.5 0.5 Q368 1 349.5 1.5 Q331 2 314 2.5 Q297 3 285 3 Q270 3 250 2.5 Q230 2 209 1.5 Q188 1 168 0.5 Q148 0 133 0 L142 35 L207 54 L336 571 L315 571 Q284 571 261.5 566 Q239 561 221 548 Q203 535 187 512 Q171 489 154 452 L103 452 Q107 466 114 488.5 Q121 511 128 536 Q135 561 141.5 584.5 Q148 608 152 625 L703 625 Q699 608 694 586 Q689 564 684.5 540.5 Q680 517 676 494 Q672 471 669 452 L621 452 Q621 489 617.5 512 Q614 535 603.5 548 Q593 561 573.5 566 Q554 571 521 571 L494 571 Z M323 -104 Q323 -133 311 -161 Q299 -189 278 -214 Q257 -239 229 -261 Q201 -283 169 -301 L152 -274 Q190 -245 210 -220.5 Q230 -196 230 -176 Q230 -166 224.5 -158.5 Q219 -151 213 -144 Q207 -137 201.5 -129 Q196 -121 196 -109 Q196 -84 217 -64.5 Q238 -45 268 -45 Q297 -45 310 -63 Q323 -81 323 -104 Z " />
<glyph glyph-name="uni021A" unicode="&#x21a;" horiz-adv-x="610" d="M494 571 L378 109 Q373 89 373 78 Q373 62 385 53 Q397 44 429 35 L420 0 Q405 0 386.5 0.5 Q368 1 349.5 1.5 Q331 2 314 2.5 Q297 3 285 3 Q270 3 250 2.5 Q230 2 209 1.5 Q188 1 168 0.5 Q148 0 133 0 L142 35 L207 54 L336 571 L315 571 Q284 571 261.5 566 Q239 561 221 548 Q203 535 187 512 Q171 489 154 452 L103 452 Q107 466 114 488.5 Q121 511 128 536 Q135 561 141.5 584.5 Q148 608 152 625 L703 625 Q699 608 694 586 Q689 564 684.5 540.5 Q680 517 676 494 Q672 471 669 452 L621 452 Q621 489 617.5 512 Q614 535 603.5 548 Q593 561 573.5 566 Q554 571 521 571 L494 571 Z M323 -104 Q323 -133 311 -161 Q299 -189 278 -214 Q257 -239 229 -261 Q201 -283 169 -301 L152 -274 Q190 -245 210 -220.5 Q230 -196 230 -176 Q230 -166 224.5 -158.5 Q219 -151 213 -144 Q207 -137 201.5 -129 Q196 -121 196 -109 Q196 -84 217 -64.5 Q238 -45 268 -45 Q297 -45 310 -63 Q323 -81 323 -104 Z " />
<glyph glyph-name="Tbar" unicode="&#x166;" horiz-adv-x="610" d="M494 571 L433 328 L550 328 L535 270 L418 270 L378 109 Q373 89 373 78 Q373 62 385 53 Q397 44 429 35 L420 0 Q405 0 386.5 0.5 Q368 1 349.5 1.5 Q331 2 314 2.5 Q297 3 285 3 Q270 3 250 2.5 Q230 2 209 1.5 Q188 1 168 0.5 Q148 0 133 0 L142 35 L207 54 L261 270 L143 270 L158 328 L275 328 L336 571 L315 571 Q284 571 261.5 566 Q239 561 221 548 Q203 535 187 512 Q171 489 154 452 L103 452 Q107 466 114 488.5 Q121 511 128 536 Q135 561 141.5 584.5 Q148 608 152 625 L703 625 Q699 608 694 586 Q689 564 684.5 540.5 Q680 517 676 494 Q672 471 669 452 L621 452 Q621 489 617.5 512 Q614 535 603.5 548 Q593 561 573.5 566 Q554 571 521 571 L494 571 Z " />
<glyph glyph-name="Ugrave" unicode="&#xd9;" horiz-adv-x="677" d="M361 571 L285 267 Q276 231 271.5 207.5 Q267 184 267 163 Q267 109 296 85 Q325 61 370 61 Q399 61 426.5 72.5 Q454 84 474 105 Q500 132 517 174 Q534 216 550 277 L611 516 Q616 536 616 547 Q616 563 604 572 Q592 581 560 590 L569 625 Q586 624 614 623.5 Q642 623 664 623 Q691 623 721 623.5 Q751 624 771 625 L762 590 L699 571 L620 253 Q602 181 577.5 132 Q553 83 520 51 Q449 -16 332 -16 Q231 -16 171.5 31.5 Q112 79 112 164 Q112 189 117 218 Q122 247 133 290 L190 516 Q195 536 195 547 Q195 563 183 572 Q171 581 139 590 L148 625 Q163 625 181.5 624.5 Q200 624 218.5 623.5 Q237 623 254 622.5 Q271 622 283 622 Q298 622 318 622.5 Q338 623 358 623.5 Q378 624 398 624.5 Q418 625 433 625 L424 590 L361 571 Z M376 759 L404 799 Q418 819 436 819 Q447 819 455.5 813.5 Q464 808 475 799 L597 690 L580 665 L378 745 L376 759 Z " />
<glyph glyph-name="Uacute" unicode="&#xda;" horiz-adv-x="677" d="M361 571 L285 267 Q276 231 271.5 207.5 Q267 184 267 163 Q267 109 296 85 Q325 61 370 61 Q399 61 426.5 72.5 Q454 84 474 105 Q500 132 517 174 Q534 216 550 277 L611 516 Q616 536 616 547 Q616 563 604 572 Q592 581 560 590 L569 625 Q586 624 614 623.5 Q642 623 664 623 Q691 623 721 623.5 Q751 624 771 625 L762 590 L699 571 L620 253 Q602 181 577.5 132 Q553 83 520 51 Q449 -16 332 -16 Q231 -16 171.5 31.5 Q112 79 112 164 Q112 189 117 218 Q122 247 133 290 L190 516 Q195 536 195 547 Q195 563 183 572 Q171 581 139 590 L148 625 Q163 625 181.5 624.5 Q200 624 218.5 623.5 Q237 623 254 622.5 Q271 622 283 622 Q298 622 318 622.5 Q338 623 358 623.5 Q378 624 398 624.5 Q418 625 433 625 L424 590 L361 571 Z M625 745 L391 668 L379 691 L545 802 Q556 810 565.5 814 Q575 818 584 818 Q594 818 600 812.5 Q606 807 611 796 L629 759 L625 745 Z " />
<glyph glyph-name="Ucircumflex" unicode="&#xdb;" horiz-adv-x="677" d="M361 571 L285 267 Q276 231 271.5 207.5 Q267 184 267 163 Q267 109 296 85 Q325 61 370 61 Q399 61 426.5 72.5 Q454 84 474 105 Q500 132 517 174 Q534 216 550 277 L611 516 Q616 536 616 547 Q616 563 604 572 Q592 581 560 590 L569 625 Q586 624 614 623.5 Q642 623 664 623 Q691 623 721 623.5 Q751 624 771 625 L762 590 L699 571 L620 253 Q602 181 577.5 132 Q553 83 520 51 Q449 -16 332 -16 Q231 -16 171.5 31.5 Q112 79 112 164 Q112 189 117 218 Q122 247 133 290 L190 516 Q195 536 195 547 Q195 563 183 572 Q171 581 139 590 L148 625 Q163 625 181.5 624.5 Q200 624 218.5 623.5 Q237 623 254 622.5 Q271 622 283 622 Q298 622 318 622.5 Q338 623 358 623.5 Q378 624 398 624.5 Q418 625 433 625 L424 590 L361 571 Z M622 669 L520 746 L385 669 L365 688 L497 816 L576 816 L646 685 L622 669 Z " />
<glyph glyph-name="Utilde" unicode="&#x168;" horiz-adv-x="677" d="M361 571 L285 267 Q276 231 271.5 207.5 Q267 184 267 163 Q267 109 296 85 Q325 61 370 61 Q399 61 426.5 72.5 Q454 84 474 105 Q500 132 517 174 Q534 216 550 277 L611 516 Q616 536 616 547 Q616 563 604 572 Q592 581 560 590 L569 625 Q586 624 614 623.5 Q642 623 664 623 Q691 623 721 623.5 Q751 624 771 625 L762 590 L699 571 L620 253 Q602 181 577.5 132 Q553 83 520 51 Q449 -16 332 -16 Q231 -16 171.5 31.5 Q112 79 112 164 Q112 189 117 218 Q122 247 133 290 L190 516 Q195 536 195 547 Q195 563 183 572 Q171 581 139 590 L148 625 Q163 625 181.5 624.5 Q200 624 218.5 623.5 Q237 623 254 622.5 Q271 622 283 622 Q298 622 318 622.5 Q338 623 358 623.5 Q378 624 398 624.5 Q418 625 433 625 L424 590 L361 571 Z M677 791 Q657 741 630.5 711.5 Q604 682 565 682 Q547 682 531.5 687.5 Q516 693 501.5 699 Q487 705 472.5 710.5 Q458 716 442 716 Q422 716 409.5 706.5 Q397 697 388 681 L358 690 Q378 740 404.5 769.5 Q431 799 470 799 Q488 799 503.5 793.5 Q519 788 533.5 782 Q548 776 562.5 770.5 Q577 765 593 765 Q613 765 625.5 774.5 Q638 784 647 800 L677 791 Z " />
<glyph glyph-name="Udieresis" unicode="&#xdc;" horiz-adv-x="677" d="M361 571 L285 267 Q276 231 271.5 207.5 Q267 184 267 163 Q267 109 296 85 Q325 61 370 61 Q399 61 426.5 72.5 Q454 84 474 105 Q500 132 517 174 Q534 216 550 277 L611 516 Q616 536 616 547 Q616 563 604 572 Q592 581 560 590 L569 625 Q586 624 614 623.5 Q642 623 664 623 Q691 623 721 623.5 Q751 624 771 625 L762 590 L699 571 L620 253 Q602 181 577.5 132 Q553 83 520 51 Q449 -16 332 -16 Q231 -16 171.5 31.5 Q112 79 112 164 Q112 189 117 218 Q122 247 133 290 L190 516 Q195 536 195 547 Q195 563 183 572 Q171 581 139 590 L148 625 Q163 625 181.5 624.5 Q200 624 218.5 623.5 Q237 623 254 622.5 Q271 622 283 622 Q298 622 318 622.5 Q338 623 358 623.5 Q378 624 398 624.5 Q418 625 433 625 L424 590 L361 571 Z M421 679 Q399 679 385 691.5 Q371 704 371 724 Q371 739 377.5 753 Q384 767 394.5 777.5 Q405 788 419.5 794.5 Q434 801 449 801 Q472 801 485.5 788 Q499 775 499 756 Q499 725 475.5 702 Q452 679 421 679 Z M595 679 Q573 679 559 691.5 Q545 704 545 724 Q545 739 551.5 753 Q558 767 568.5 777.5 Q579 788 593.5 794.5 Q608 801 623 801 Q646 801 659.5 788 Q673 775 673 756 Q673 725 649.5 702 Q626 679 595 679 Z " />
<glyph glyph-name="Umacron" unicode="&#x16a;" horiz-adv-x="677" d="M361 571 L285 267 Q276 231 271.5 207.5 Q267 184 267 163 Q267 109 296 85 Q325 61 370 61 Q399 61 426.5 72.5 Q454 84 474 105 Q500 132 517 174 Q534 216 550 277 L611 516 Q616 536 616 547 Q616 563 604 572 Q592 581 560 590 L569 625 Q586 624 614 623.5 Q642 623 664 623 Q691 623 721 623.5 Q751 624 771 625 L762 590 L699 571 L620 253 Q602 181 577.5 132 Q553 83 520 51 Q449 -16 332 -16 Q231 -16 171.5 31.5 Q112 79 112 164 Q112 189 117 218 Q122 247 133 290 L190 516 Q195 536 195 547 Q195 563 183 572 Q171 581 139 590 L148 625 Q163 625 181.5 624.5 Q200 624 218.5 623.5 Q237 623 254 622.5 Q271 622 283 622 Q298 622 318 622.5 Q338 623 358 623.5 Q378 624 398 624.5 Q418 625 433 625 L424 590 L361 571 Z M393 690 L409 756 L638 756 L622 690 L393 690 Z " />
<glyph glyph-name="Ubreve" unicode="&#x16c;" horiz-adv-x="677" d="M361 571 L285 267 Q276 231 271.5 207.5 Q267 184 267 163 Q267 109 296 85 Q325 61 370 61 Q399 61 426.5 72.5 Q454 84 474 105 Q500 132 517 174 Q534 216 550 277 L611 516 Q616 536 616 547 Q616 563 604 572 Q592 581 560 590 L569 625 Q586 624 614 623.5 Q642 623 664 623 Q691 623 721 623.5 Q751 624 771 625 L762 590 L699 571 L620 253 Q602 181 577.5 132 Q553 83 520 51 Q449 -16 332 -16 Q231 -16 171.5 31.5 Q112 79 112 164 Q112 189 117 218 Q122 247 133 290 L190 516 Q195 536 195 547 Q195 563 183 572 Q171 581 139 590 L148 625 Q163 625 181.5 624.5 Q200 624 218.5 623.5 Q237 623 254 622.5 Q271 622 283 622 Q298 622 318 622.5 Q338 623 358 623.5 Q378 624 398 624.5 Q418 625 433 625 L424 590 L361 571 Z M659 801 Q646 747 607.5 710.5 Q569 674 510 674 Q464 674 438 700 Q412 726 412 766 Q412 785 416 801 L456 801 Q457 773 475 758.5 Q493 744 525 744 Q557 744 582 759.5 Q607 775 620 801 L659 801 L659 801 Z " />
<glyph glyph-name="Uring" unicode="&#x16e;" horiz-adv-x="677" d="M361 571 L285 267 Q276 231 271.5 207.5 Q267 184 267 163 Q267 109 296 85 Q325 61 370 61 Q399 61 426.5 72.5 Q454 84 474 105 Q500 132 517 174 Q534 216 550 277 L611 516 Q616 536 616 547 Q616 563 604 572 Q592 581 560 590 L569 625 Q586 624 614 623.5 Q642 623 664 623 Q691 623 721 623.5 Q751 624 771 625 L762 590 L699 571 L620 253 Q602 181 577.5 132 Q553 83 520 51 Q449 -16 332 -16 Q231 -16 171.5 31.5 Q112 79 112 164 Q112 189 117 218 Q122 247 133 290 L190 516 Q195 536 195 547 Q195 563 183 572 Q171 581 139 590 L148 625 Q163 625 181.5 624.5 Q200 624 218.5 623.5 Q237 623 254 622.5 Q271 622 283 622 Q298 622 318 622.5 Q338 623 358 623.5 Q378 624 398 624.5 Q418 625 433 625 L424 590 L361 571 Z M519 715 Q544 715 559.5 734 Q575 753 575 776 Q575 793 565 803 Q555 813 540 813 Q515 813 499.5 794 Q484 775 484 752 Q484 735 494 725 Q504 715 519 715 Z M514 670 Q480 670 456.5 691.5 Q433 713 433 748 Q433 770 441.5 790 Q450 810 465 825 Q480 840 500.5 849 Q521 858 545 858 Q579 858 602.5 836.5 Q626 815 626 780 Q626 757 617.5 737 Q609 717 594 702 Q579 687 558.5 678.5 Q538 670 514 670 Z " />
<glyph glyph-name="Uhungarumlaut" unicode="&#x170;" horiz-adv-x="677" d="M361 571 L285 267 Q276 231 271.5 207.5 Q267 184 267 163 Q267 109 296 85 Q325 61 370 61 Q399 61 426.5 72.5 Q454 84 474 105 Q500 132 517 174 Q534 216 550 277 L611 516 Q616 536 616 547 Q616 563 604 572 Q592 581 560 590 L569 625 Q586 624 614 623.5 Q642 623 664 623 Q691 623 721 623.5 Q751 624 771 625 L762 590 L699 571 L620 253 Q602 181 577.5 132 Q553 83 520 51 Q449 -16 332 -16 Q231 -16 171.5 31.5 Q112 79 112 164 Q112 189 117 218 Q122 247 133 290 L190 516 Q195 536 195 547 Q195 563 183 572 Q171 581 139 590 L148 625 Q163 625 181.5 624.5 Q200 624 218.5 623.5 Q237 623 254 622.5 Q271 622 283 622 Q298 622 318 622.5 Q338 623 358 623.5 Q378 624 398 624.5 Q418 625 433 625 L424 590 L361 571 Z M541 753 L339 669 L328 689 L468 799 Q479 807 488 812 Q497 817 505 817 Q521 817 531 795 L545 765 L541 753 Z M720 753 L518 669 L507 689 L647 799 Q658 807 667 812 Q676 817 684 817 Q700 817 710 795 L724 765 L720 753 Z " />
<glyph glyph-name="Uogonek" unicode="&#x172;" horiz-adv-x="677" d="M465 -210 Q447 -221 419 -229.5 Q391 -238 363 -238 Q313 -238 283.5 -211.5 Q254 -185 254 -143 Q254 -107 278.5 -74 Q303 -41 345 -16 Q236 -16 174 31.5 Q112 79 112 164 Q112 189 117 218 Q122 247 133 290 L190 516 Q195 536 195 547 Q195 563 183 572 Q171 581 139 590 L148 625 Q163 625 181.5 624.5 Q200 624 218.5 623.5 Q237 623 254 622.5 Q271 622 283 622 Q298 622 318 622.5 Q338 623 358 623.5 Q378 624 398 624.5 Q418 625 433 625 L424 590 L361 571 L285 267 Q276 231 271.5 207.5 Q267 184 267 163 Q267 109 296 85 Q325 61 370 61 Q399 61 426.5 72.5 Q454 84 474 105 Q500 132 517 174 Q534 216 550 277 L611 516 Q616 536 616 547 Q616 563 604 572 Q592 581 560 590 L569 625 Q586 624 614 623.5 Q642 623 664 623 Q691 623 721 623.5 Q751 624 771 625 L762 590 L699 571 L620 253 Q601 178 577 130.5 Q553 83 520 51 Q493 25 462.5 3 Q432 -19 406.5 -40.5 Q381 -62 364.5 -84.5 Q348 -107 348 -134 Q348 -158 360.5 -171.5 Q373 -185 394 -185 Q407 -185 422 -180.5 Q437 -176 450 -171 L465 -210 Z " />
<glyph glyph-name="Wgrave" unicode="&#x1e80;" horiz-adv-x="915" d="M1030 590 Q1012 588 998.5 584.5 Q985 581 975 574 Q965 567 956.5 556 Q948 545 939 529 L645 -1 L554 -1 L528 348 L321 -1 L229 -1 L169 517 Q167 534 163.5 545.5 Q160 557 152.5 565.5 Q145 574 132.5 579.5 Q120 585 100 590 L109 625 Q116 625 132.5 624.5 Q149 624 168.5 623.5 Q188 623 207.5 622.5 Q227 622 239 622 Q251 622 270.5 622.5 Q290 623 311.5 623.5 Q333 624 352.5 624.5 Q372 625 383 625 L374 590 L317 571 L358 191 L519 464 L514 528 Q512 559 500.5 570.5 Q489 582 457 590 L466 625 Q473 625 488.5 624.5 Q504 624 523 623.5 Q542 623 561 622.5 Q580 622 595 622 Q606 622 624.5 622.5 Q643 623 662.5 623.5 Q682 624 699 624.5 Q716 625 724 625 L715 590 L658 571 L685 209 L884 570 L828 590 L837 625 Q844 625 856.5 624.5 Q869 624 883.5 623.5 Q898 623 912 622.5 Q926 622 937 622 Q960 622 989.5 622.5 Q1019 623 1039 625 L1030 590 L1030 590 Z M494 759 L522 799 Q536 819 554 819 Q565 819 573.5 813.5 Q582 808 593 799 L715 690 L698 665 L496 745 L494 759 Z " />
<glyph glyph-name="Wacute" unicode="&#x1e82;" horiz-adv-x="915" d="M1030 590 Q1012 588 998.5 584.5 Q985 581 975 574 Q965 567 956.5 556 Q948 545 939 529 L645 -1 L554 -1 L528 348 L321 -1 L229 -1 L169 517 Q167 534 163.5 545.5 Q160 557 152.5 565.5 Q145 574 132.5 579.5 Q120 585 100 590 L109 625 Q116 625 132.5 624.5 Q149 624 168.5 623.5 Q188 623 207.5 622.5 Q227 622 239 622 Q251 622 270.5 622.5 Q290 623 311.5 623.5 Q333 624 352.5 624.5 Q372 625 383 625 L374 590 L317 571 L358 191 L519 464 L514 528 Q512 559 500.5 570.5 Q489 582 457 590 L466 625 Q473 625 488.5 624.5 Q504 624 523 623.5 Q542 623 561 622.5 Q580 622 595 622 Q606 622 624.5 622.5 Q643 623 662.5 623.5 Q682 624 699 624.5 Q716 625 724 625 L715 590 L658 571 L685 209 L884 570 L828 590 L837 625 Q844 625 856.5 624.5 Q869 624 883.5 623.5 Q898 623 912 622.5 Q926 622 937 622 Q960 622 989.5 622.5 Q1019 623 1039 625 L1030 590 L1030 590 Z M731 745 L497 668 L485 691 L651 802 Q662 810 671.5 814 Q681 818 690 818 Q700 818 706 812.5 Q712 807 717 796 L735 759 L731 745 Z " />
<glyph glyph-name="Wcircumflex" unicode="&#x174;" horiz-adv-x="915" d="M1030 590 Q1012 588 998.5 584.5 Q985 581 975 574 Q965 567 956.5 556 Q948 545 939 529 L645 -1 L554 -1 L528 348 L321 -1 L229 -1 L169 517 Q167 534 163.5 545.5 Q160 557 152.5 565.5 Q145 574 132.5 579.5 Q120 585 100 590 L109 625 Q116 625 132.5 624.5 Q149 624 168.5 623.5 Q188 623 207.5 622.5 Q227 622 239 622 Q251 622 270.5 622.5 Q290 623 311.5 623.5 Q333 624 352.5 624.5 Q372 625 383 625 L374 590 L317 571 L358 191 L519 464 L514 528 Q512 559 500.5 570.5 Q489 582 457 590 L466 625 Q473 625 488.5 624.5 Q504 624 523 623.5 Q542 623 561 622.5 Q580 622 595 622 Q606 622 624.5 622.5 Q643 623 662.5 623.5 Q682 624 699 624.5 Q716 625 724 625 L715 590 L658 571 L685 209 L884 570 L828 590 L837 625 Q844 625 856.5 624.5 Q869 624 883.5 623.5 Q898 623 912 622.5 Q926 622 937 622 Q960 622 989.5 622.5 Q1019 623 1039 625 L1030 590 L1030 590 Z M721 669 L619 746 L484 669 L464 688 L596 816 L675 816 L745 685 L721 669 Z " />
<glyph glyph-name="Wdieresis" unicode="&#x1e84;" horiz-adv-x="915" d="M1030 590 Q1012 588 998.5 584.5 Q985 581 975 574 Q965 567 956.5 556 Q948 545 939 529 L645 -1 L554 -1 L528 348 L321 -1 L229 -1 L169 517 Q167 534 163.5 545.5 Q160 557 152.5 565.5 Q145 574 132.5 579.5 Q120 585 100 590 L109 625 Q116 625 132.5 624.5 Q149 624 168.5 623.5 Q188 623 207.5 622.5 Q227 622 239 622 Q251 622 270.5 622.5 Q290 623 311.5 623.5 Q333 624 352.5 624.5 Q372 625 383 625 L374 590 L317 571 L358 191 L519 464 L514 528 Q512 559 500.5 570.5 Q489 582 457 590 L466 625 Q473 625 488.5 624.5 Q504 624 523 623.5 Q542 623 561 622.5 Q580 622 595 622 Q606 622 624.5 622.5 Q643 623 662.5 623.5 Q682 624 699 624.5 Q716 625 724 625 L715 590 L658 571 L685 209 L884 570 L828 590 L837 625 Q844 625 856.5 624.5 Q869 624 883.5 623.5 Q898 623 912 622.5 Q926 622 937 622 Q960 622 989.5 622.5 Q1019 623 1039 625 L1030 590 L1030 590 Z M523 679 Q501 679 487 691.5 Q473 704 473 724 Q473 739 479.5 753 Q486 767 496.5 777.5 Q507 788 521.5 794.5 Q536 801 551 801 Q574 801 587.5 788 Q601 775 601 756 Q601 725 577.5 702 Q554 679 523 679 Z M697 679 Q675 679 661 691.5 Q647 704 647 724 Q647 739 653.5 753 Q660 767 670.5 777.5 Q681 788 695.5 794.5 Q710 801 725 801 Q748 801 761.5 788 Q775 775 775 756 Q775 725 751.5 702 Q728 679 697 679 Z " />
<glyph glyph-name="Ygrave" unicode="&#x1ef2;" horiz-adv-x="579" d="M372 109 Q367 89 367 78 Q367 62 379 53 Q391 44 423 35 L414 0 Q399 0 380.5 0.5 Q362 1 343.5 1.5 Q325 2 308 2.5 Q291 3 279 3 Q264 3 244 2.5 Q224 2 204 1.5 Q184 1 164 0.5 Q144 0 129 0 L138 35 L201 54 L249 246 L179 518 Q170 552 154 567 Q138 582 102 590 L111 625 Q118 624 133.5 623.5 Q149 623 167.5 622.5 Q186 622 206 622 Q226 622 243 622 Q258 622 279 622.5 Q300 623 321 623.5 Q342 624 359 624.5 Q376 625 384 625 L375 590 L321 571 L384 319 L558 572 L511 590 L520 625 Q535 624 564 623 Q593 622 614 622 Q623 622 637.5 622.5 Q652 623 666.5 623.5 Q681 624 693.5 624.5 Q706 625 711 625 L703 590 Q667 587 647.5 573.5 Q628 560 609 532 L405 239 L372 109 Z M321 759 L349 799 Q363 819 381 819 Q392 819 400.5 813.5 Q409 808 420 799 L542 690 L525 665 L323 745 L321 759 Z " />
<glyph glyph-name="Yacute" unicode="&#xdd;" horiz-adv-x="579" d="M372 109 Q367 89 367 78 Q367 62 379 53 Q391 44 423 35 L414 0 Q399 0 380.5 0.5 Q362 1 343.5 1.5 Q325 2 308 2.5 Q291 3 279 3 Q264 3 244 2.5 Q224 2 204 1.5 Q184 1 164 0.5 Q144 0 129 0 L138 35 L201 54 L249 246 L179 518 Q170 552 154 567 Q138 582 102 590 L111 625 Q118 624 133.5 623.5 Q149 623 167.5 622.5 Q186 622 206 622 Q226 622 243 622 Q258 622 279 622.5 Q300 623 321 623.5 Q342 624 359 624.5 Q376 625 384 625 L375 590 L321 571 L384 319 L558 572 L511 590 L520 625 Q535 624 564 623 Q593 622 614 622 Q623 622 637.5 622.5 Q652 623 666.5 623.5 Q681 624 693.5 624.5 Q706 625 711 625 L703 590 Q667 587 647.5 573.5 Q628 560 609 532 L405 239 L372 109 Z M577 745 L343 668 L331 691 L497 802 Q508 810 517.5 814 Q527 818 536 818 Q546 818 552 812.5 Q558 807 563 796 L581 759 L577 745 Z " />
<glyph glyph-name="Ycircumflex" unicode="&#x176;" horiz-adv-x="579" d="M372 109 Q367 89 367 78 Q367 62 379 53 Q391 44 423 35 L414 0 Q399 0 380.5 0.5 Q362 1 343.5 1.5 Q325 2 308 2.5 Q291 3 279 3 Q264 3 244 2.5 Q224 2 204 1.5 Q184 1 164 0.5 Q144 0 129 0 L138 35 L201 54 L249 246 L179 518 Q170 552 154 567 Q138 582 102 590 L111 625 Q118 624 133.5 623.5 Q149 623 167.5 622.5 Q186 622 206 622 Q226 622 243 622 Q258 622 279 622.5 Q300 623 321 623.5 Q342 624 359 624.5 Q376 625 384 625 L375 590 L321 571 L384 319 L558 572 L511 590 L520 625 Q535 624 564 623 Q593 622 614 622 Q623 622 637.5 622.5 Q652 623 666.5 623.5 Q681 624 693.5 624.5 Q706 625 711 625 L703 590 Q667 587 647.5 573.5 Q628 560 609 532 L405 239 L372 109 Z M571 669 L469 746 L334 669 L314 688 L446 816 L525 816 L595 685 L571 669 Z " />
<glyph glyph-name="Ydieresis" unicode="&#x178;" horiz-adv-x="579" d="M372 109 Q367 89 367 78 Q367 62 379 53 Q391 44 423 35 L414 0 Q399 0 380.5 0.5 Q362 1 343.5 1.5 Q325 2 308 2.5 Q291 3 279 3 Q264 3 244 2.5 Q224 2 204 1.5 Q184 1 164 0.5 Q144 0 129 0 L138 35 L201 54 L249 246 L179 518 Q170 552 154 567 Q138 582 102 590 L111 625 Q118 624 133.5 623.5 Q149 623 167.5 622.5 Q186 622 206 622 Q226 622 243 622 Q258 622 279 622.5 Q300 623 321 623.5 Q342 624 359 624.5 Q376 625 384 625 L375 590 L321 571 L384 319 L558 572 L511 590 L520 625 Q535 624 564 623 Q593 622 614 622 Q623 622 637.5 622.5 Q652 623 666.5 623.5 Q681 624 693.5 624.5 Q706 625 711 625 L703 590 Q667 587 647.5 573.5 Q628 560 609 532 L405 239 L372 109 Z M369 679 Q347 679 333 691.5 Q319 704 319 724 Q319 739 325.5 753 Q332 767 342.5 777.5 Q353 788 367.5 794.5 Q382 801 397 801 Q420 801 433.5 788 Q447 775 447 756 Q447 725 423.5 702 Q400 679 369 679 Z M543 679 Q521 679 507 691.5 Q493 704 493 724 Q493 739 499.5 753 Q506 767 516.5 777.5 Q527 788 541.5 794.5 Q556 801 571 801 Q594 801 607.5 788 Q621 775 621 756 Q621 725 597.5 702 Q574 679 543 679 Z " />
<glyph glyph-name="Zacute" unicode="&#x179;" horiz-adv-x="562" d="M264 569 L183 460 L136 460 Q141 475 148 498 Q155 521 161.5 545.5 Q168 570 174 591.5 Q180 613 183 625 L618 625 L635 588 Q594 529 542.5 461.5 Q491 394 435.5 324.5 Q380 255 323 186 Q266 117 214 56 L318 56 Q361 56 387.5 64 Q414 72 436 91 Q451 105 464 123.5 Q477 142 489 169 L539 169 Q534 152 527.5 129 Q521 106 514.5 82.5 Q508 59 502 37 Q496 15 492 0 L46 0 L29 37 Q70 95 121.5 163 Q173 231 228.5 300.5 Q284 370 341 439 Q398 508 450 569 L264 569 Z M558 745 L324 668 L312 691 L478 802 Q489 810 498.5 814 Q508 818 517 818 Q527 818 533 812.5 Q539 807 544 796 L562 759 L558 745 Z " />
<glyph glyph-name="Zcaron" unicode="&#x17d;" horiz-adv-x="562" d="M264 569 L183 460 L136 460 Q141 475 148 498 Q155 521 161.5 545.5 Q168 570 174 591.5 Q180 613 183 625 L618 625 L635 588 Q594 529 542.5 461.5 Q491 394 435.5 324.5 Q380 255 323 186 Q266 117 214 56 L318 56 Q361 56 387.5 64 Q414 72 436 91 Q451 105 464 123.5 Q477 142 489 169 L539 169 Q534 152 527.5 129 Q521 106 514.5 82.5 Q508 59 502 37 Q496 15 492 0 L46 0 L29 37 Q70 95 121.5 163 Q173 231 228.5 300.5 Q284 370 341 439 Q398 508 450 569 L264 569 Z M329 821 L431 744 L566 821 L586 802 L454 674 L375 674 L305 805 L329 821 Z " />
<glyph glyph-name="Zdotaccent" unicode="&#x17b;" horiz-adv-x="562" d="M264 569 L183 460 L136 460 Q141 475 148 498 Q155 521 161.5 545.5 Q168 570 174 591.5 Q180 613 183 625 L618 625 L635 588 Q594 529 542.5 461.5 Q491 394 435.5 324.5 Q380 255 323 186 Q266 117 214 56 L318 56 Q361 56 387.5 64 Q414 72 436 91 Q451 105 464 123.5 Q477 142 489 169 L539 169 Q534 152 527.5 129 Q521 106 514.5 82.5 Q508 59 502 37 Q496 15 492 0 L46 0 L29 37 Q70 95 121.5 163 Q173 231 228.5 300.5 Q284 370 341 439 Q398 508 450 569 L264 569 Z M411 676 Q385 676 370 692 Q355 708 355 732 Q355 748 362.5 763.5 Q370 779 382.5 791 Q395 803 411 810 Q427 817 444 817 Q470 817 485 801 Q500 785 500 761 Q500 744 492.5 729 Q485 714 472.5 702 Q460 690 444 683 Q428 676 411 676 Z " />
<glyph glyph-name="agrave" unicode="&#xe0;" horiz-adv-x="536" d="M379 -10 Q346 -10 327.5 6.5 Q309 23 305 52 Q282 23 247.5 3.5 Q213 -16 177 -16 Q120 -16 82 26.5 Q44 69 44 144 Q44 199 66.5 255.5 Q89 312 127.5 357.5 Q166 403 217.5 431.5 Q269 460 328 460 Q356 460 380 452.5 Q404 445 424 433 L453 458 L530 452 L541 442 L458 127 Q454 112 452 103 Q450 94 450 87 Q450 65 472 65 Q480 65 488.5 67.5 Q497 70 505 74 L494 28 Q471 13 439.5 1.5 Q408 -10 379 -10 Z M376 379 Q371 387 362 392 Q353 397 341 397 Q315 397 289 371 Q263 345 242.5 306.5 Q222 268 209 222.5 Q196 177 196 138 Q196 109 206 91 Q216 73 236 73 Q268 73 294 118 Q307 141 318 173 Q329 205 340 244 L376 379 Z M261 607 L292 648 Q299 657 305.5 662.5 Q312 668 322 668 Q331 668 338.5 663 Q346 658 356 648 L476 519 L459 496 L263 592 L261 607 Z " />
<glyph glyph-name="aacute" unicode="&#xe1;" horiz-adv-x="536" d="M379 -10 Q346 -10 327.5 6.5 Q309 23 305 52 Q282 23 247.5 3.5 Q213 -16 177 -16 Q120 -16 82 26.5 Q44 69 44 144 Q44 199 66.5 255.5 Q89 312 127.5 357.5 Q166 403 217.5 431.5 Q269 460 328 460 Q356 460 380 452.5 Q404 445 424 433 L453 458 L530 452 L541 442 L458 127 Q454 112 452 103 Q450 94 450 87 Q450 65 472 65 Q480 65 488.5 67.5 Q497 70 505 74 L494 28 Q471 13 439.5 1.5 Q408 -10 379 -10 Z M376 379 Q371 387 362 392 Q353 397 341 397 Q315 397 289 371 Q263 345 242.5 306.5 Q222 268 209 222.5 Q196 177 196 138 Q196 109 206 91 Q216 73 236 73 Q268 73 294 118 Q307 141 318 173 Q329 205 340 244 L376 379 Z M496 592 L259 496 L246 520 L411 649 Q425 660 433.5 664.5 Q442 669 450 669 Q459 669 465 663.5 Q471 658 477 648 L501 606 L496 592 Z " />
<glyph glyph-name="acircumflex" unicode="&#xe2;" horiz-adv-x="536" d="M379 -10 Q346 -10 327.5 6.5 Q309 23 305 52 Q282 23 247.5 3.5 Q213 -16 177 -16 Q120 -16 82 26.5 Q44 69 44 144 Q44 199 66.5 255.5 Q89 312 127.5 357.5 Q166 403 217.5 431.5 Q269 460 328 460 Q356 460 380 452.5 Q404 445 424 433 L453 458 L530 452 L541 442 L458 127 Q454 112 452 103 Q450 94 450 87 Q450 65 472 65 Q480 65 488.5 67.5 Q497 70 505 74 L494 28 Q471 13 439.5 1.5 Q408 -10 379 -10 Z M376 379 Q371 387 362 392 Q353 397 341 397 Q315 397 289 371 Q263 345 242.5 306.5 Q222 268 209 222.5 Q196 177 196 138 Q196 109 206 91 Q216 73 236 73 Q268 73 294 118 Q307 141 318 173 Q329 205 340 244 L376 379 Z M477 500 L376 581 L246 498 L220 514 L356 657 L435 657 L503 509 L477 500 Z " />
<glyph glyph-name="atilde" unicode="&#xe3;" horiz-adv-x="536" d="M379 -10 Q346 -10 327.5 6.5 Q309 23 305 52 Q282 23 247.5 3.5 Q213 -16 177 -16 Q120 -16 82 26.5 Q44 69 44 144 Q44 199 66.5 255.5 Q89 312 127.5 357.5 Q166 403 217.5 431.5 Q269 460 328 460 Q356 460 380 452.5 Q404 445 424 433 L453 458 L530 452 L541 442 L458 127 Q454 112 452 103 Q450 94 450 87 Q450 65 472 65 Q480 65 488.5 67.5 Q497 70 505 74 L494 28 Q471 13 439.5 1.5 Q408 -10 379 -10 Z M376 379 Q371 387 362 392 Q353 397 341 397 Q315 397 289 371 Q263 345 242.5 306.5 Q222 268 209 222.5 Q196 177 196 138 Q196 109 206 91 Q216 73 236 73 Q268 73 294 118 Q307 141 318 173 Q329 205 340 244 L376 379 Z M526 619 Q506 569 479.5 539.5 Q453 510 414 510 Q396 510 380.5 515.5 Q365 521 350.5 527 Q336 533 321.5 538.5 Q307 544 291 544 Q271 544 258.5 534.5 Q246 525 237 509 L207 518 Q227 568 253.5 597.5 Q280 627 319 627 Q337 627 352.5 621.5 Q368 616 382.5 610 Q397 604 411.5 598.5 Q426 593 442 593 Q462 593 474.5 602.5 Q487 612 496 628 L526 619 Z " />
<glyph glyph-name="adieresis" unicode="&#xe4;" horiz-adv-x="536" d="M379 -10 Q346 -10 327.5 6.5 Q309 23 305 52 Q282 23 247.5 3.5 Q213 -16 177 -16 Q120 -16 82 26.5 Q44 69 44 144 Q44 199 66.5 255.5 Q89 312 127.5 357.5 Q166 403 217.5 431.5 Q269 460 328 460 Q356 460 380 452.5 Q404 445 424 433 L453 458 L530 452 L541 442 L458 127 Q454 112 452 103 Q450 94 450 87 Q450 65 472 65 Q480 65 488.5 67.5 Q497 70 505 74 L494 28 Q471 13 439.5 1.5 Q408 -10 379 -10 Z M376 379 Q371 387 362 392 Q353 397 341 397 Q315 397 289 371 Q263 345 242.5 306.5 Q222 268 209 222.5 Q196 177 196 138 Q196 109 206 91 Q216 73 236 73 Q268 73 294 118 Q307 141 318 173 Q329 205 340 244 L376 379 Z M260 504 Q238 504 224 516.5 Q210 529 210 549 Q210 564 216.5 578 Q223 592 233.5 602.5 Q244 613 258.5 619.5 Q273 626 288 626 Q311 626 324.5 613 Q338 600 338 581 Q338 550 314.5 527 Q291 504 260 504 Z M434 504 Q412 504 398 516.5 Q384 529 384 549 Q384 564 390.5 578 Q397 592 407.5 602.5 Q418 613 432.5 619.5 Q447 626 462 626 Q485 626 498.5 613 Q512 600 512 581 Q512 550 488.5 527 Q465 504 434 504 Z " />
<glyph glyph-name="amacron" unicode="&#x101;" horiz-adv-x="536" d="M379 -10 Q346 -10 327.5 6.5 Q309 23 305 52 Q282 23 247.5 3.5 Q213 -16 177 -16 Q120 -16 82 26.5 Q44 69 44 144 Q44 199 66.5 255.5 Q89 312 127.5 357.5 Q166 403 217.5 431.5 Q269 460 328 460 Q356 460 380 452.5 Q404 445 424 433 L453 458 L530 452 L541 442 L458 127 Q454 112 452 103 Q450 94 450 87 Q450 65 472 65 Q480 65 488.5 67.5 Q497 70 505 74 L494 28 Q471 13 439.5 1.5 Q408 -10 379 -10 Z M376 379 Q371 387 362 392 Q353 397 341 397 Q315 397 289 371 Q263 345 242.5 306.5 Q222 268 209 222.5 Q196 177 196 138 Q196 109 206 91 Q216 73 236 73 Q268 73 294 118 Q307 141 318 173 Q329 205 340 244 L376 379 Z M248 525 L264 591 L493 591 L477 525 L248 525 Z " />
<glyph glyph-name="abreve" unicode="&#x103;" horiz-adv-x="536" d="M379 -10 Q346 -10 327.5 6.5 Q309 23 305 52 Q282 23 247.5 3.5 Q213 -16 177 -16 Q120 -16 82 26.5 Q44 69 44 144 Q44 199 66.5 255.5 Q89 312 127.5 357.5 Q166 403 217.5 431.5 Q269 460 328 460 Q356 460 380 452.5 Q404 445 424 433 L453 458 L530 452 L541 442 L458 127 Q454 112 452 103 Q450 94 450 87 Q450 65 472 65 Q480 65 488.5 67.5 Q497 70 505 74 L494 28 Q471 13 439.5 1.5 Q408 -10 379 -10 Z M376 379 Q371 387 362 392 Q353 397 341 397 Q315 397 289 371 Q263 345 242.5 306.5 Q222 268 209 222.5 Q196 177 196 138 Q196 109 206 91 Q216 73 236 73 Q268 73 294 118 Q307 141 318 173 Q329 205 340 244 L376 379 Z M497 636 Q484 582 445.5 545.5 Q407 509 348 509 Q302 509 276 535 Q250 561 250 601 Q250 620 254 636 L294 636 Q295 608 313 593.5 Q331 579 363 579 Q395 579 420 594.5 Q445 610 458 636 L497 636 L497 636 Z " />
<glyph glyph-name="acaron" unicode="&#x1ce;" horiz-adv-x="536" d="M379 -10 Q346 -10 327.5 6.5 Q309 23 305 52 Q282 23 247.5 3.5 Q213 -16 177 -16 Q120 -16 82 26.5 Q44 69 44 144 Q44 199 66.5 255.5 Q89 312 127.5 357.5 Q166 403 217.5 431.5 Q269 460 328 460 Q356 460 380 452.5 Q404 445 424 433 L453 458 L530 452 L541 442 L458 127 Q454 112 452 103 Q450 94 450 87 Q450 65 472 65 Q480 65 488.5 67.5 Q497 70 505 74 L494 28 Q471 13 439.5 1.5 Q408 -10 379 -10 Z M376 379 Q371 387 362 392 Q353 397 341 397 Q315 397 289 371 Q263 345 242.5 306.5 Q222 268 209 222.5 Q196 177 196 138 Q196 109 206 91 Q216 73 236 73 Q268 73 294 118 Q307 141 318 173 Q329 205 340 244 L376 379 Z M274 659 L375 578 L505 661 L531 645 L395 502 L316 502 L248 650 L274 659 Z " />
<glyph glyph-name="aring" unicode="&#xe5;" horiz-adv-x="536" d="M379 -10 Q346 -10 327.5 6.5 Q309 23 305 52 Q282 23 247.5 3.5 Q213 -16 177 -16 Q120 -16 82 26.5 Q44 69 44 144 Q44 199 66.5 255.5 Q89 312 127.5 357.5 Q166 403 217.5 431.5 Q269 460 328 460 Q356 460 380 452.5 Q404 445 424 433 L453 458 L530 452 L541 442 L458 127 Q454 112 452 103 Q450 94 450 87 Q450 65 472 65 Q480 65 488.5 67.5 Q497 70 505 74 L494 28 Q471 13 439.5 1.5 Q408 -10 379 -10 Z M376 379 Q371 387 362 392 Q353 397 341 397 Q315 397 289 371 Q263 345 242.5 306.5 Q222 268 209 222.5 Q196 177 196 138 Q196 109 206 91 Q216 73 236 73 Q268 73 294 118 Q307 141 318 173 Q329 205 340 244 L376 379 Z M364 545 Q389 545 404.5 564 Q420 583 420 606 Q420 623 410 633 Q400 643 385 643 Q360 643 344.5 624 Q329 605 329 582 Q329 565 339 555 Q349 545 364 545 Z M359 500 Q325 500 301.5 521.5 Q278 543 278 578 Q278 600 286.5 620 Q295 640 310 655 Q325 670 345.5 679 Q366 688 390 688 Q424 688 447.5 666.5 Q471 645 471 610 Q471 587 462.5 567 Q454 547 439 532 Q424 517 403.5 508.5 Q383 500 359 500 Z " />
<glyph glyph-name="aringacute" unicode="&#x1fb;" horiz-adv-x="536" d="M379 -10 Q346 -10 327.5 6.5 Q309 23 305 52 Q282 23 247.5 3.5 Q213 -16 177 -16 Q120 -16 82 26.5 Q44 69 44 144 Q44 199 66.5 255.5 Q89 312 127.5 357.5 Q166 403 217.5 431.5 Q269 460 328 460 Q356 460 380 452.5 Q404 445 424 433 L453 458 L530 452 L541 442 L458 127 Q454 112 452 103 Q450 94 450 87 Q450 65 472 65 Q480 65 488.5 67.5 Q497 70 505 74 L494 28 Q471 13 439.5 1.5 Q408 -10 379 -10 Z M376 379 Q371 387 362 392 Q353 397 341 397 Q315 397 289 371 Q263 345 242.5 306.5 Q222 268 209 222.5 Q196 177 196 138 Q196 109 206 91 Q216 73 236 73 Q268 73 294 118 Q307 141 318 173 Q329 205 340 244 L376 379 Z M533 768 L296 672 L283 696 L448 825 Q462 836 470.5 840.5 Q479 845 487 845 Q496 845 502 839.5 Q508 834 514 824 L538 782 L533 768 Z M361 530 Q386 530 401.5 549 Q417 568 417 591 Q417 608 407 618 Q397 628 382 628 Q357 628 341.5 609 Q326 590 326 567 Q326 550 336 540 Q346 530 361 530 Z M356 485 Q322 485 298.5 506.5 Q275 528 275 563 Q275 585 283.5 605 Q292 625 307 640 Q322 655 342.5 664 Q363 673 387 673 Q421 673 444.5 651.5 Q468 630 468 595 Q468 572 459.5 552 Q451 532 436 517 Q421 502 400.5 493.5 Q380 485 356 485 Z " />
<glyph glyph-name="aogonek" unicode="&#x105;" horiz-adv-x="536" d="M460 -210 Q442 -221 415 -229.5 Q388 -238 360 -238 Q311 -238 284.5 -212.5 Q258 -187 258 -146 Q258 -106 284.5 -70 Q311 -34 354 -7 Q311 4 305 52 Q282 23 247.5 3.5 Q213 -16 177 -16 Q120 -15 82 27 Q44 69 44 144 Q44 199 66 255.5 Q88 312 126.5 357.5 Q165 403 216.5 431.5 Q268 460 327 460 Q355 460 379 452.5 Q403 445 423 433 L452 458 L529 452 L541 442 L458 127 Q454 112 452 103 Q450 94 450 87 Q450 65 472 65 Q480 65 488.5 67.5 Q497 70 505 74 L494 28 Q465 15 438.5 -3.5 Q412 -22 392.5 -44 Q373 -66 361.5 -89.5 Q350 -113 350 -136 Q350 -185 393 -185 Q407 -185 420 -181.5 Q433 -178 446 -173 L460 -210 Z M375 379 Q370 387 361 392 Q352 397 340 397 Q314 397 288.5 371 Q263 345 242.5 306.5 Q222 268 209 222.5 Q196 177 196 138 Q196 109 206 91 Q216 73 236 73 Q268 73 294 118 Q307 141 318 173 Q329 205 339 244 L375 379 Z " />
<glyph glyph-name="ae" unicode="&#xe6;" horiz-adv-x="735" d="M743 353 Q743 290 679.5 232.5 Q616 175 479 111 Q495 77 539 77 Q571 77 606 94 Q641 111 677 136 L710 101 Q689 74 662 52.5 Q635 31 606 16 Q577 1 546 -7.5 Q515 -16 487 -16 Q442 -16 405 0.5 Q368 17 348 47 Q308 19 263 1.5 Q218 -16 179 -16 Q116 -16 80 27 Q44 70 44 145 Q44 208 69.5 265 Q95 322 136.5 365.5 Q178 409 231 434.5 Q284 460 340 460 Q377 460 411 449.5 Q445 439 469 419 Q501 439 535.5 449.5 Q570 460 607 460 Q665 460 704 432 Q743 404 743 353 Z M406 369 Q385 398 351 398 Q322 398 294.5 373 Q267 348 245 309.5 Q223 271 209.5 226 Q196 181 196 141 Q196 108 207.5 90 Q219 72 242 72 Q274 72 324 103 Q318 124 318 150 Q318 211 342 269 Q366 327 406 369 Z M471 169 Q547 214 587.5 263.5 Q628 313 628 359 Q628 398 593 398 Q568 398 545.5 375.5 Q523 353 506.5 318.5 Q490 284 480.5 244 Q471 204 471 169 Z " />
</font>
</svg>
