<?xml version="1.0" encoding="UTF-8"?>
<svg xmlns="http://www.w3.org/2000/svg" xmlns:xlink="http://www.w3.org/1999/xlink" version="1.2" >
<font id="Cadillac Serif Web Heavy">
<font-face  font-family="Cadillac Serif Web" units-per-em="1000" ascent="700" descent="-300" font-style="normal" font-weight="900" font-stretch="normal" cap-height="625" x-height="444" underline-position="-75" underline-thickness="50" />
<missing-glyph  horiz-adv-x="535" d="M20 693 L515 693 L515 0 L20 0 L20 693 Z M436 644 L99 644 L268 391 L436 644 Z M466 94 L466 599 L297 347 L466 94 Z M436 50 L268 302 L99 50 L436 50 Z M70 94 L238 347 L70 599 L70 94 Z " />
<glyph glyph-name="null" d="" />
<glyph glyph-name="nonmarkingreturn" unicode="&#xd;" horiz-adv-x="162" d="" />
<glyph glyph-name="nbspace" unicode="&#xa0;" horiz-adv-x="162" d="" />
<glyph glyph-name="space" unicode="&#x20;" horiz-adv-x="162" d="" />
<glyph glyph-name="A" unicode="A" horiz-adv-x="692" d="M189 174 L157 80 Q155 74 155 69 Q155 55 183 46 L205 40 L205 0 Q155 3 104 3 Q92 3 78 2.5 Q64 2 50 1.5 Q36 1 23 0.5 Q10 0 0 0 L0 40 L64 59 L273 625 L399 625 L602 96 Q607 83 612.5 75 Q618 67 627 61 Q636 55 650 50.5 Q664 46 686 40 L686 0 Q674 1 651.5 1.5 Q629 2 605 2.5 Q581 3 558.5 3 Q536 3 524 3 Q512 3 490 2.5 Q468 2 444 1.5 Q420 1 398.5 0.5 Q377 0 367 0 L367 40 L427 59 L384 174 L189 174 Z M211 237 L360 237 L283 442 L211 237 Z " />
<glyph glyph-name="B" unicode="B" horiz-adv-x="631" d="M603 184 Q603 99 543 49.5 Q483 0 371 0 L30 0 L30 40 L91 59 L91 502 Q91 517 90.5 529.5 Q90 542 85.5 551.5 Q81 561 72 567.5 Q63 574 47 579 L25 585 L25 625 L336 625 Q456 625 511 592 Q566 559 566 484 Q566 440 536.5 403 Q507 366 451 346 Q603 306 603 184 Z M409 185 Q409 221 402.5 245 Q396 269 380 285 Q369 296 351.5 302 Q334 308 303 308 L280 308 L280 90 Q280 75 287.5 68 Q295 61 322 61 L327 61 Q369 61 389 87 Q409 113 409 185 Z M381 470 Q381 496 376.5 515 Q372 534 360 547 Q342 566 301 566 L280 566 L280 368 L306 368 Q326 368 338.5 372 Q351 376 359 385 Q372 399 376.5 421 Q381 443 381 470 Z " />
<glyph glyph-name="C" unicode="C" horiz-adv-x="597" d="M572 122 Q540 63 477 24 Q414 -15 323 -15 Q254 -15 199.5 8.5 Q145 32 107 74.5 Q69 117 49 176 Q29 235 29 305 Q29 389 53.5 452 Q78 515 121.5 556.5 Q165 598 224.5 619 Q284 640 355 640 Q407 640 453 633.5 Q499 627 548 623 L554 431 L496 431 Q475 572 375 572 Q304 572 268.5 503.5 Q233 435 233 314 Q233 206 269 142.5 Q305 79 379 79 Q419 79 458.5 98 Q498 117 527 154 L572 122 Z " />
<glyph glyph-name="D" unicode="D" horiz-adv-x="709" d="M476 314 Q476 396 465.5 448 Q455 500 429 527 Q412 546 387.5 553.5 Q363 561 325 561 L280 561 L280 94 Q280 77 290.5 70.5 Q301 64 341 64 Q411 64 443.5 126.5 Q476 189 476 314 Z M25 625 L299 625 Q393 625 464.5 609.5 Q536 594 584 557 Q632 520 656 459.5 Q680 399 680 309 Q680 259 665.5 205 Q651 151 615 105 Q579 59 518 29.5 Q457 0 364 0 L30 0 L30 40 L91 59 L91 502 Q91 517 90.5 529.5 Q90 542 85.5 551.5 Q81 561 72 567.5 Q63 574 47 579 L25 585 L25 625 Z " />
<glyph glyph-name="E" unicode="E" horiz-adv-x="580" d="M91 502 Q91 517 90.5 529.5 Q90 542 85.5 551.5 Q81 561 72 567.5 Q63 574 47 579 L25 585 L25 625 L521 625 Q521 609 522.5 586 Q524 563 526 539.5 Q528 516 529.5 495 Q531 474 533 462 L473 462 Q470 489 463.5 509 Q457 529 443.5 541.5 Q430 554 407.5 560 Q385 566 350 566 L280 566 L280 349 L300 349 Q351 349 392.5 353 Q434 357 459 363 L452 277 Q432 280 393 283 Q354 286 300 286 L280 286 L280 111 Q280 82 297.5 71 Q315 60 362 60 Q390 60 412.5 64.5 Q435 69 451.5 80.5 Q468 92 479 111.5 Q490 131 494 162 L549 162 Q548 150 547 127.5 Q546 105 545.5 81 Q545 57 544.5 34.5 Q544 12 544 0 L30 0 L30 40 L91 59 L91 502 Z " />
<glyph glyph-name="F" unicode="F" horiz-adv-x="550" d="M30 40 L91 59 L91 502 Q91 517 90.5 529.5 Q90 542 85.5 551.5 Q81 561 72 567.5 Q63 574 47 579 L25 585 L25 625 L518 625 Q518 609 519.5 586 Q521 563 523 539.5 Q525 516 526.5 495 Q528 474 530 462 L470 462 Q467 489 460.5 509 Q454 529 440.5 541.5 Q427 554 404.5 560 Q382 566 347 566 L280 566 L280 349 L297 349 Q348 349 389.5 353 Q431 357 456 363 L449 277 Q429 280 390 283 Q351 286 297 286 L280 286 L280 119 Q280 102 282 90.5 Q284 79 290 71 Q296 63 307.5 57 Q319 51 339 46 L362 40 L362 0 Q350 1 326.5 1.5 Q303 2 277.5 2.5 Q252 3 228.5 3 Q205 3 193 3 Q181 3 158 2.5 Q135 2 109.5 1.5 Q84 1 62 0.5 Q40 0 30 0 L30 40 Z " />
<glyph glyph-name="G" unicode="G" horiz-adv-x="701" d="M366 272 L366 312 Q376 312 398 311.5 Q420 311 445.5 310.5 Q471 310 494 309.5 Q517 309 529 309 Q541 309 561.5 309 Q582 309 604 309.5 Q626 310 646.5 310.5 Q667 311 679 312 L679 272 L659 266 Q645 262 636.5 257 Q628 252 623.5 244.5 Q619 237 617.5 226 Q616 215 616 198 L616 47 Q593 32 561 20.5 Q529 9 493.5 1 Q458 -7 421.5 -11 Q385 -15 354 -15 Q278 -15 217.5 6 Q157 27 115 67.5 Q73 108 51 168 Q29 228 29 305 Q29 380 52.5 441.5 Q76 503 121 547 Q166 591 233 615.5 Q300 640 387 640 Q417 640 443 637.5 Q469 635 493 632 Q517 629 540 626 Q563 623 589 622 L595 431 L537 431 Q523 510 486 541.5 Q449 573 393 573 Q318 573 275.5 506.5 Q233 440 233 312 Q233 241 243 192.5 Q253 144 271 114 Q289 84 313 71 Q337 58 365 58 Q400 58 418.5 76 Q437 94 437 133 L437 252 L366 272 Z " />
<glyph glyph-name="H" unicode="H" horiz-adv-x="752" d="M280 123 Q280 108 280.5 95.5 Q281 83 285.5 73.5 Q290 64 298.5 57 Q307 50 324 46 L346 40 L346 0 Q334 1 311.5 1.5 Q289 2 264.5 2.5 Q240 3 217.5 3 Q195 3 183 3 Q171 3 149.5 2.5 Q128 2 104.5 1.5 Q81 1 60.5 0.5 Q40 0 30 0 L30 40 L91 59 L91 502 Q91 517 90.5 529.5 Q90 542 85.5 551.5 Q81 561 72 567.5 Q63 574 47 579 L25 585 L25 625 Q37 624 59 623.5 Q81 623 105 622.5 Q129 622 151.5 622 Q174 622 186 622 Q198 622 220 622.5 Q242 623 265.5 623.5 Q289 624 310 624.5 Q331 625 341 625 L341 585 L280 566 L280 361 L472 361 L472 502 Q472 517 471.5 529.5 Q471 542 466.5 551.5 Q462 561 453 567.5 Q444 574 428 579 L406 585 L406 625 Q418 624 440.5 623.5 Q463 623 487.5 622.5 Q512 622 534.5 622 Q557 622 569 622 Q581 622 602.5 622.5 Q624 623 647.5 623.5 Q671 624 691.5 624.5 Q712 625 722 625 L722 585 L661 566 L661 123 Q661 108 661.5 95.5 Q662 83 666.5 73.5 Q671 64 679.5 57 Q688 50 705 46 L727 40 L727 0 Q715 1 692.5 1.5 Q670 2 646 2.5 Q622 3 600 3 Q578 3 566 3 Q554 3 532 2.5 Q510 2 486.5 1.5 Q463 1 442 0.5 Q421 0 411 0 L411 40 L472 59 L472 290 L280 290 L280 123 Z " />
<glyph glyph-name="I" unicode="I" horiz-adv-x="375" d="M282 123 Q282 108 282.5 95.5 Q283 83 287.5 73.5 Q292 64 300.5 57 Q309 50 326 46 L348 40 L348 0 Q336 1 313.5 1.5 Q291 2 266.5 2.5 Q242 3 219.5 3 Q197 3 185 3 Q173 3 151 2.5 Q129 2 105 1.5 Q81 1 60 0.5 Q39 0 29 0 L29 40 L93 59 L93 502 Q93 517 92.5 529.5 Q92 542 87.5 551.5 Q83 561 74 567.5 Q65 574 49 579 L27 585 L27 625 Q39 624 61 623.5 Q83 623 107 622.5 Q131 622 153.5 622 Q176 622 188 622 Q200 622 221 622.5 Q242 623 265 623.5 Q288 624 309.5 624.5 Q331 625 343 625 L343 585 L282 566 L282 123 Z " />
<glyph glyph-name="J" unicode="J" horiz-adv-x="363" d="M90 502 Q90 517 89.5 529.5 Q89 542 84.5 551.5 Q80 561 71 567.5 Q62 574 46 579 L24 585 L24 625 Q36 624 58.5 623.5 Q81 623 105 622.5 Q129 622 151.5 622 Q174 622 186 622 Q198 622 219.5 622.5 Q241 623 264.5 623.5 Q288 624 309 624.5 Q330 625 340 625 L340 585 L279 566 L279 92 Q279 43 268.5 -7.5 Q258 -58 228 -101.5 Q198 -145 143.5 -177.5 Q89 -210 1 -223 L-17 -173 Q14 -160 34.5 -139.5 Q55 -119 67.5 -89 Q80 -59 85 -17 Q90 25 90 82 L90 502 Z " />
<glyph glyph-name="K" unicode="K" horiz-adv-x="718" d="M602 116 Q612 95 621.5 81.5 Q631 68 642 60 Q653 52 666.5 47.5 Q680 43 700 39 L700 0 L448 0 Q447 13 445 24 Q443 35 439 46.5 Q435 58 429 71.5 Q423 85 414 103 L331 274 L280 212 L280 123 Q280 108 280.5 95.5 Q281 83 285.5 73.5 Q290 64 298.5 57 Q307 50 324 46 L346 40 L346 0 Q334 1 311.5 1.5 Q289 2 265 2.5 Q241 3 219 3 Q197 3 185 3 Q173 3 151 2.5 Q129 2 105.5 1.5 Q82 1 61 0.5 Q40 0 30 0 L30 40 L91 59 L91 502 Q91 517 90.5 529.5 Q90 542 85.5 551.5 Q81 561 72 567.5 Q63 574 47 579 L25 585 L25 625 Q37 624 59.5 623.5 Q82 623 106.5 622.5 Q131 622 153.5 622 Q176 622 188 622 Q200 622 221.5 622.5 Q243 623 266.5 623.5 Q290 624 311 624.5 Q332 625 342 625 L342 585 L280 566 L280 322 L479 568 L426 585 L426 625 Q451 623 486.5 622.5 Q522 622 547 622 Q559 622 576 622.5 Q593 623 611 623.5 Q629 624 645 624.5 Q661 625 671 625 L671 583 Q644 581 625.5 577.5 Q607 574 593 567.5 Q579 561 567 550.5 Q555 540 541 523 L453 418 L602 116 Z " />
<glyph glyph-name="L" unicode="L" horiz-adv-x="550" d="M536 162 Q535 146 534.5 124 Q534 102 533.5 79.5 Q533 57 532.5 35.5 Q532 14 532 0 L30 0 L30 40 L91 59 L91 502 Q91 517 90.5 529.5 Q90 542 85.5 551.5 Q81 561 72 567.5 Q63 574 47 579 L25 585 L25 625 Q37 624 59 623.5 Q81 623 105 622.5 Q129 622 151 622 Q173 622 185 622 Q197 622 220.5 622.5 Q244 623 269.5 623.5 Q295 624 317.5 624.5 Q340 625 350 625 L350 585 L280 566 L280 111 Q280 97 283 87.5 Q286 78 294 72 Q302 66 316.5 63 Q331 60 354 60 Q382 60 403.5 64.5 Q425 69 441 80.5 Q457 92 467 111.5 Q477 131 481 162 L536 162 Z " />
<glyph glyph-name="M" unicode="M" horiz-adv-x="885" d="M91 504 Q91 520 90.5 532 Q90 544 85.5 553 Q81 562 72 568 Q63 574 47 579 L25 585 L25 625 L271 625 L434 205 L607 625 L853 625 L853 585 L794 565 L794 123 Q794 108 794.5 95.5 Q795 83 799.5 73.5 Q804 64 812.5 57 Q821 50 838 46 L860 40 L860 0 Q848 1 825.5 1.5 Q803 2 779 2.5 Q755 3 732.5 3 Q710 3 698 3 Q686 3 664.5 2.5 Q643 2 619.5 1.5 Q596 1 575.5 0.5 Q555 0 545 0 L545 40 L606 59 L606 417 L432 -4 L343 -4 L172 413 L172 122 Q172 107 172.5 94.5 Q173 82 177.5 73 Q182 64 190.5 57 Q199 50 216 46 L238 40 L238 0 Q213 2 185.5 2.5 Q158 3 133 3 Q121 3 107.5 2.5 Q94 2 80 1.5 Q66 1 53 0.5 Q40 0 30 0 L30 40 L91 59 L91 504 Z " />
<glyph glyph-name="N" unicode="N" horiz-adv-x="706" d="M25 625 L248 625 L541 224 L541 502 Q541 517 540.5 529.5 Q540 542 535.5 551.5 Q531 561 522 567.5 Q513 574 497 579 L475 585 L475 625 Q501 624 530 623 Q559 622 582 622 Q603 622 631.5 623 Q660 624 683 625 L683 585 L622 566 L622 0 L485 0 L172 429 L172 118 Q172 84 179.5 69 Q187 54 216 46 L238 40 L238 0 Q188 3 139 3 Q127 3 112.5 2.5 Q98 2 83 1.5 Q68 1 54 0.5 Q40 0 30 0 L30 40 L91 59 L91 504 Q91 520 90.5 532 Q90 544 85.5 553 Q81 562 72 568 Q63 574 47 579 L25 585 L25 625 Z " />
<glyph glyph-name="O" unicode="O" horiz-adv-x="690" d="M661 313 Q661 239 641 179 Q621 119 581.5 75.5 Q542 32 482.5 8.5 Q423 -15 345 -15 Q267 -15 207.5 8.5 Q148 32 108.5 75.5 Q69 119 49 179 Q29 239 29 313 Q29 386 49 446.5 Q69 507 108.5 550 Q148 593 207.5 616.5 Q267 640 345 640 Q423 640 482.5 616.5 Q542 593 581.5 550 Q621 507 641 446.5 Q661 386 661 313 Z M457 313 Q457 441 430 505 Q403 569 345 569 Q287 569 260 505 Q233 441 233 313 Q233 185 260 120.5 Q287 56 345 56 Q403 56 430 120.5 Q457 185 457 313 Z " />
<glyph glyph-name="P" unicode="P" horiz-adv-x="606" d="M280 119 Q280 102 282 90.5 Q284 79 290 71 Q296 63 307.5 57 Q319 51 339 46 L362 40 L362 0 Q350 1 326.5 1.5 Q303 2 277.5 2.5 Q252 3 228.5 3 Q205 3 193 3 Q181 3 158 2.5 Q135 2 109.5 1.5 Q84 1 62 0.5 Q40 0 30 0 L30 40 L91 59 L91 502 Q91 517 90.5 529.5 Q90 542 85.5 551.5 Q81 561 72 567.5 Q63 574 47 579 L25 585 L25 625 L306 625 Q363 625 413 619 Q463 613 500.5 594 Q538 575 560 539 Q582 503 582 443 Q582 400 567 364 Q552 328 519 302.5 Q486 277 434 263 Q382 249 308 249 L280 249 L280 119 Z M391 440 Q391 478 384 502.5 Q377 527 365 541 Q353 555 336 560.5 Q319 566 293 566 L280 566 L280 309 L290 309 Q321 309 340.5 319 Q360 329 371 346.5 Q382 364 386.5 388 Q391 412 391 440 Z " />
<glyph glyph-name="Q" unicode="Q" horiz-adv-x="690" d="M661 313 Q661 204 618 126 Q575 48 490 12 Q494 -30 519.5 -60.5 Q545 -91 587 -111 Q629 -131 685 -142 Q741 -153 807 -156 L807 -205 Q777 -207 750 -208 Q723 -209 697 -209 Q583 -209 508 -190.5 Q433 -172 388 -143 Q343 -114 321.5 -79.5 Q300 -45 292 -12 Q227 -4 177.5 22.5 Q128 49 95 91 Q62 133 45.5 189.5 Q29 246 29 313 Q29 386 49 446.5 Q69 507 108.5 550 Q148 593 207.5 616.5 Q267 640 345 640 Q423 640 482.5 616.5 Q542 593 581.5 550 Q621 507 641 446.5 Q661 386 661 313 Z M457 313 Q457 441 430 505 Q403 569 345 569 Q287 569 260 505 Q233 441 233 313 Q233 185 260 120.5 Q287 56 345 56 Q403 56 430 120.5 Q457 185 457 313 Z " />
<glyph glyph-name="R" unicode="R" horiz-adv-x="661" d="M280 123 Q280 108 280.5 95.5 Q281 83 285.5 73.5 Q290 64 298.5 57 Q307 50 324 46 L346 40 L346 0 Q334 1 311.5 1.5 Q289 2 264.5 2.5 Q240 3 217.5 3 Q195 3 183 3 Q171 3 150.5 2.5 Q130 2 107.5 1.5 Q85 1 65.5 0.5 Q46 0 36 0 L36 40 L91 59 L91 502 Q91 517 90.5 529.5 Q90 542 85.5 551.5 Q81 561 72 567.5 Q63 574 47 579 L25 585 L25 625 L322 625 Q393 625 443 615 Q493 605 524.5 584.5 Q556 564 570 532.5 Q584 501 584 459 Q584 404 547 365.5 Q510 327 447 307 Q470 301 486 294 Q502 287 514 276.5 Q526 266 534 250.5 Q542 235 549 213 L578 116 Q584 96 590 83 Q596 70 604.5 61 Q613 52 626 47.5 Q639 43 659 40 L659 0 L414 0 Q414 23 409.5 46.5 Q405 70 396 99 L366 200 Q355 239 340.5 251.5 Q326 264 296 264 L280 264 L280 123 Z M393 446 Q393 482 386 505.5 Q379 529 367 543 Q354 557 336.5 561.5 Q319 566 296 566 L280 566 L280 321 L309 321 Q334 321 350.5 331.5 Q367 342 376.5 359 Q386 376 389.5 399 Q393 422 393 446 Z " />
<glyph glyph-name="S" unicode="S" horiz-adv-x="539" d="M504 200 Q504 157 486.5 118 Q469 79 435.5 49.5 Q402 20 353.5 2.5 Q305 -15 243 -15 Q195 -15 143 -6 Q91 3 49 23 L49 180 L108 180 Q114 144 128 119 Q142 94 160 79 Q178 64 199 57.5 Q220 51 241 51 Q283 51 313 71.5 Q343 92 343 128 Q343 156 320.5 175 Q298 194 265 210.5 Q232 227 192.5 244.5 Q153 262 120 288.5 Q87 315 64.5 353 Q42 391 42 448 Q42 486 55.5 517 Q69 548 93 572 Q126 605 178 622.5 Q230 640 288 640 Q330 640 370 632.5 Q410 625 457 623 Q457 610 457.5 588.5 Q458 567 458.5 544 Q459 521 459.5 498.5 Q460 476 461 460 L404 460 Q395 515 366.5 544.5 Q338 574 293 574 Q254 574 228.5 555 Q203 536 203 504 Q203 474 225.5 454 Q248 434 281 416.5 Q314 399 353.5 381.5 Q393 364 426 340.5 Q459 317 481.5 283 Q504 249 504 200 Z " />
<glyph glyph-name="T" unicode="T" horiz-adv-x="639" d="M414 562 L414 120 Q414 101 415.5 88.5 Q417 76 421.5 68 Q426 60 434.5 55 Q443 50 458 46 L480 40 L480 0 Q468 1 446 1.5 Q424 2 400 2.5 Q376 3 354 3 Q332 3 320 3 Q308 3 286 2.5 Q264 2 240 1.5 Q216 1 194.5 0.5 Q173 0 163 0 L163 40 L225 59 L225 562 L184 562 Q160 562 142.5 556 Q125 550 111.5 536.5 Q98 523 88.5 499.5 Q79 476 71 442 L18 442 Q19 455 19.5 480 Q20 505 21 532.5 Q22 560 22.5 585.5 Q23 611 23 625 L616 625 Q616 611 616.5 585.5 Q617 560 617.5 532.5 Q618 505 619 480 Q620 455 621 442 L568 442 Q560 476 550.5 499.5 Q541 523 527.5 536.5 Q514 550 496.5 556 Q479 562 455 562 L414 562 Z " />
<glyph glyph-name="U" unicode="U" horiz-adv-x="689" d="M275 221 Q275 176 282.5 149 Q290 122 306 105 Q322 88 345.5 79.5 Q369 71 397 71 Q426 71 449.5 79.5 Q473 88 489 103 Q509 122 517.5 151.5 Q526 181 526 226 L526 505 Q526 539 519.5 555 Q513 571 482 579 L460 585 L460 625 Q485 623 511 622.5 Q537 622 562 622 Q574 622 588.5 622.5 Q603 623 617.5 623.5 Q632 624 645.5 624.5 Q659 625 669 625 L669 585 L608 566 L608 217 Q608 159 594 119 Q580 79 551 50 Q488 -15 359 -15 Q291 -15 234.5 2.5 Q178 20 143 55 Q86 112 86 224 L86 509 Q86 528 84 540.5 Q82 553 76.5 560.5 Q71 568 62.5 572 Q54 576 42 579 L20 585 L20 625 Q32 624 54 623.5 Q76 623 100 622.5 Q124 622 146.5 622 Q169 622 181 622 Q193 622 215 622.5 Q237 623 260.5 623.5 Q284 624 305 624.5 Q326 625 336 625 L336 585 L275 566 L275 221 Z " />
<glyph glyph-name="V" unicode="V" horiz-adv-x="651" d="M384 0 L276 0 L73 520 Q66 537 60 547.5 Q54 558 45 565 Q36 572 22 576 Q8 580 -14 585 L-14 625 Q-2 624 20.5 623.5 Q43 623 67.5 622.5 Q92 622 114.5 622 Q137 622 149 622 Q161 622 184 622.5 Q207 623 232.5 623.5 Q258 624 280 624.5 Q302 625 312 625 L312 585 L252 566 L378 208 L500 566 L444 585 L444 625 Q454 625 467 624.5 Q480 624 494.5 623.5 Q509 623 523 622.5 Q537 622 549 622 Q574 622 606 622.5 Q638 623 663 625 L663 585 Q641 582 626 578.5 Q611 575 601 568.5 Q591 562 584 551 Q577 540 571 524 L384 0 Z " />
<glyph glyph-name="W" unicode="W" horiz-adv-x="972" d="M717 0 L609 0 L497 331 L379 0 L268 0 L73 520 Q67 536 61 547 Q55 558 46 564.5 Q37 571 22.5 575.5 Q8 580 -14 585 L-14 625 Q-2 624 20.5 623.5 Q43 623 67.5 622.5 Q92 622 114.5 622 Q137 622 149 622 Q161 622 182.5 622.5 Q204 623 227.5 623.5 Q251 624 271.5 624.5 Q292 625 302 625 L302 585 L242 566 L373 208 L458 455 L438 520 Q432 539 427 550 Q422 561 414 567.5 Q406 574 394.5 577.5 Q383 581 365 585 L365 625 Q377 624 399 623.5 Q421 623 444 622.5 Q467 622 489 622 Q511 622 523 622 Q535 622 555.5 622.5 Q576 623 598.5 623.5 Q621 624 641 624.5 Q661 625 671 625 L671 585 L601 566 L711 210 L829 566 L766 585 L766 625 Q776 625 790.5 624.5 Q805 624 821.5 623.5 Q838 623 853.5 622.5 Q869 622 881 622 Q906 622 935 623 Q964 624 987 625 L987 585 Q965 583 950.5 579 Q936 575 927 568.5 Q918 562 912 551 Q906 540 900 524 L717 0 Z " />
<glyph glyph-name="X" unicode="X" horiz-adv-x="648" d="M258 566 L355 419 L464 566 L414 585 L414 625 Q424 625 438.5 624.5 Q453 624 469.5 623.5 Q486 623 501.5 622.5 Q517 622 529 622 Q554 622 582 622.5 Q610 623 635 625 L635 585 Q602 582 580 571.5 Q558 561 538 534 L400 350 L564 99 Q574 83 583 73.5 Q592 64 602.5 58 Q613 52 625.5 48 Q638 44 655 40 L655 0 Q643 1 620.5 1.5 Q598 2 573 2.5 Q548 3 525.5 3 Q503 3 491 3 Q479 3 457 2.5 Q435 2 411 1.5 Q387 1 366 0.5 Q345 0 335 0 L335 40 L392 58 L287 218 L174 58 L222 40 L222 0 Q212 0 198 0.5 Q184 1 168.5 1.5 Q153 2 138 2.5 Q123 3 111 3 Q86 3 53 2.5 Q20 2 -5 0 L-5 40 Q36 44 58.5 55.5 Q81 67 98 90 L242 289 L89 522 Q77 540 67 550.5 Q57 561 46 567.5 Q35 574 22.5 578 Q10 582 -7 585 L-7 625 Q5 624 28.5 623.5 Q52 623 77.5 622.5 Q103 622 126.5 622 Q150 622 162 622 Q174 622 196 622.5 Q218 623 242 623.5 Q266 624 287 624.5 Q308 625 318 625 L318 585 L258 566 Z " />
<glyph glyph-name="Y" unicode="Y" horiz-adv-x="621" d="M250 566 L366 339 L469 566 L409 585 L409 625 Q419 625 433 624.5 Q447 624 462 623.5 Q477 623 491.5 622.5 Q506 622 518 622 Q543 622 570.5 622.5 Q598 623 623 625 L623 585 Q602 581 588 576.5 Q574 572 564.5 565.5 Q555 559 549 550.5 Q543 542 537 530 L411 255 L411 123 Q411 108 411.5 95.5 Q412 83 416.5 73.5 Q421 64 429.5 57 Q438 50 455 46 L477 40 L477 0 Q465 1 442.5 1.5 Q420 2 396 2.5 Q372 3 349.5 3 Q327 3 315 3 Q303 3 281.5 2.5 Q260 2 236.5 1.5 Q213 1 192 0.5 Q171 0 161 0 L161 40 L222 59 L222 248 L84 514 Q73 534 65 546 Q57 558 47.5 565.5 Q38 573 25 577 Q12 581 -8 585 L-8 625 Q4 624 26 623.5 Q48 623 71 622.5 Q94 622 116 622 Q138 622 150 622 Q162 622 184.5 622.5 Q207 623 231.5 623.5 Q256 624 277.5 624.5 Q299 625 309 625 L309 585 L250 566 Z " />
<glyph glyph-name="Z" unicode="Z" horiz-adv-x="587" d="M551 176 Q550 159 549 135.5 Q548 112 547 87 Q546 62 545.5 39 Q545 16 545 0 L38 0 L38 38 L331 562 L146 562 L108 457 L51 457 Q52 470 53.5 492 Q55 514 55.5 538.5 Q56 563 56.5 586 Q57 609 57 625 L546 625 L546 588 L252 63 L386 63 Q411 63 429 68.5 Q447 74 459.5 87 Q472 100 480 121.5 Q488 143 494 176 L551 176 Z " />
<glyph glyph-name="a" unicode="a" horiz-adv-x="512" d="M507 28 Q451 -12 382 -12 Q347 -12 321.5 2 Q296 16 284 39 Q263 13 231 -1 Q199 -15 170 -15 Q102 -15 64.5 21 Q27 57 27 125 Q27 165 45.5 194 Q64 223 96.5 241 Q129 259 173 267.5 Q217 276 268 276 L268 306 Q268 346 250.5 359.5 Q233 373 210 373 Q187 373 159.5 359 Q132 345 114 302 L60 325 Q78 383 127 421.5 Q176 460 259 460 Q308 460 345.5 448 Q383 436 409 407 Q448 362 448 272 L448 102 Q448 84 453 75 Q458 66 472 66 Q478 66 486 68 Q494 70 507 76 L507 28 Z M268 226 Q253 226 238.5 220.5 Q224 215 213 202 Q191 177 191 131 Q191 111 195.5 98.5 Q200 86 206.5 78.5 Q213 71 220.5 68.5 Q228 66 234 66 Q253 66 268 81 L268 226 Z " />
<glyph glyph-name="b" unicode="b" horiz-adv-x="552" d="M346 225 Q346 306 329.5 342 Q313 378 281 378 Q270 378 258.5 375.5 Q247 373 235 364 L235 69 Q240 61 250 56 Q260 51 271 51 Q296 51 310.5 66.5 Q325 82 333 107 Q341 132 343.5 163 Q346 194 346 225 Z M7 665 Q58 665 90 665.5 Q122 666 146 667 Q170 668 189.5 670 Q209 672 235 675 L235 433 Q255 446 281 453 Q307 460 332 460 Q381 460 411 448 Q441 436 462 417 Q483 397 496.5 374 Q510 351 517 326.5 Q524 302 526.5 276 Q529 250 529 225 Q529 170 512 125.5 Q495 81 464 51 Q429 16 379 0.5 Q329 -15 269 -15 Q214 -15 156 -2 Q98 11 55 37 L55 565 Q55 581 53.5 590.5 Q52 600 47.5 607 Q43 614 33 618.5 Q23 623 7 628 L7 665 Z " />
<glyph glyph-name="c" unicode="c" horiz-adv-x="454" d="M436 116 Q410 55 361.5 20 Q313 -15 244 -15 Q194 -15 153.5 0 Q113 15 83.5 44 Q54 73 38 116.5 Q22 160 22 217 Q22 278 40.5 323.5 Q59 369 92 399.5 Q125 430 169.5 445 Q214 460 267 460 Q288 460 306 458.5 Q324 457 341.5 454.5 Q359 452 377 449 Q395 446 417 443 Q417 426 417 405 Q417 384 417.5 362 Q418 340 418.5 318.5 Q419 297 420 279 L369 279 Q361 341 343.5 367 Q326 393 292 393 Q251 393 228 354.5 Q205 316 205 238 Q205 154 230 116.5 Q255 79 296 79 Q307 79 319 81 Q331 83 343.5 89.5 Q356 96 368.5 108.5 Q381 121 393 141 L436 116 Z " />
<glyph glyph-name="d" unicode="d" horiz-adv-x="565" d="M319 381 Q314 385 305.5 388 Q297 391 286 391 Q263 391 248 377 Q233 363 223.5 340.5 Q214 318 210 288 Q206 258 206 227 Q206 200 209 172.5 Q212 145 220 122.5 Q228 100 241.5 85.5 Q255 71 277 71 Q289 71 300 74 Q311 77 319 85 L319 381 Z M344 29 Q318 5 284.5 -5 Q251 -15 216 -15 Q163 -15 126.5 5 Q90 25 67 57 Q44 89 33.5 130.5 Q23 172 23 215 Q23 275 40 320.5 Q57 366 87 397 Q117 428 159 444 Q201 460 251 460 Q272 460 288.5 457.5 Q305 455 319 450 L319 568 Q319 581 317.5 589.5 Q316 598 310 603.5 Q304 609 292 613.5 Q280 618 260 624 L260 665 Q311 665 345 665.5 Q379 666 404.5 667 Q430 668 451.5 670 Q473 672 499 675 L499 102 Q499 84 504 75 Q509 66 523 66 Q529 66 538 68 Q547 70 560 76 L560 28 Q537 11 506.5 -0.5 Q476 -12 439 -12 Q406 -12 382 -1 Q358 10 344 29 Z " />
<glyph glyph-name="e" unicode="e" horiz-adv-x="478" d="M257 394 Q232 394 219.5 361 Q207 328 205 272 L308 272 Q308 340 293.5 367 Q279 394 257 394 Z M450 119 Q428 56 373.5 20.5 Q319 -15 248 -15 Q194 -15 152 2 Q110 19 81 50 Q52 81 37 125 Q22 169 22 223 Q22 275 38.5 319 Q55 363 85 394 Q115 425 158 442.5 Q201 460 254 460 Q352 460 400.5 406.5 Q449 353 450 249 Q450 242 450 231.5 Q450 221 448 213 L204 213 Q205 187 210 163.5 Q215 140 226 122 Q237 104 255.5 93 Q274 82 301 82 Q371 82 406 141 L450 119 Z " />
<glyph glyph-name="f" unicode="f" horiz-adv-x="368" d="M256 104 Q256 75 264.5 63.5 Q273 52 305 43 L326 37 L326 0 Q314 1 293 1.5 Q272 2 249 2.5 Q226 3 205 3 Q184 3 172 3 Q160 3 140 2.5 Q120 2 98.5 1.5 Q77 1 58 0.5 Q39 0 29 0 L29 37 L76 56 L76 384 L11 384 L11 444 L76 444 Q76 503 93 547 Q110 591 140 620.5 Q170 650 212.5 665 Q255 680 306 680 Q343 680 375 673.5 Q407 667 430 655.5 Q453 644 466.5 628 Q480 612 480 593 Q480 577 473.5 562 Q467 547 456.5 535.5 Q446 524 432.5 517 Q419 510 406 510 Q386 510 372.5 526.5 Q359 543 347.5 562.5 Q336 582 324 598.5 Q312 615 295 615 Q256 615 256 526 L256 444 L369 444 L358 384 L256 384 L256 104 Z " />
<glyph glyph-name="g" unicode="g" horiz-adv-x="515" d="M252 128 Q216 128 185 134 Q184 130 184 123 Q184 104 207.5 98 Q231 92 266 89 Q301 86 342.5 82 Q384 78 419 64.5 Q454 51 477.5 23.5 Q501 -4 501 -54 Q501 -94 479.5 -127.5 Q458 -161 421 -185 Q384 -209 336 -222 Q288 -235 235 -235 Q187 -235 148.5 -226.5 Q110 -218 83 -202 Q56 -186 41 -164.5 Q26 -143 26 -117 Q26 -85 51 -63.5 Q76 -42 118 -31 Q91 -19 74 2.5 Q57 24 57 59 Q57 91 74 114.5 Q91 138 122 156 Q42 199 42 294 Q42 372 98.5 416 Q155 460 253 460 Q325 460 377 434 Q391 435 409 438 Q427 441 446.5 444 Q466 447 484 451 Q502 455 516 458 L516 375 L507 375 Q485 375 466.5 376 Q448 377 437 379 Q449 363 456 341.5 Q463 320 463 294 Q463 219 406.5 174 Q350 129 252 128 Z M171 -99 Q171 -131 196.5 -147 Q222 -163 264 -163 Q315 -163 346.5 -143.5 Q378 -124 378 -98 Q378 -87 369 -80 Q360 -73 344.5 -69 Q329 -65 308 -63 Q287 -61 264 -59 Q244 -57 223 -55 Q202 -53 182 -50 Q171 -73 171 -99 Z M206 294 Q206 250 217.5 222 Q229 194 252 194 Q275 194 287 222 Q299 250 299 294 Q299 338 287.5 366 Q276 394 253 394 Q230 394 218 366 Q206 338 206 294 Z " />
<glyph glyph-name="h" unicode="h" horiz-adv-x="584" d="M247 398 Q256 408 270.5 419 Q285 430 303 439 Q321 448 342 454 Q363 460 386 460 Q466 460 499 412 Q515 389 520.5 357.5 Q526 326 526 284 L526 90 Q526 54 560 43 L578 37 L578 0 Q566 1 547 1.5 Q528 2 508 2 Q488 2 469 2 Q450 2 438 2 Q426 2 408.5 1.5 Q391 1 372 1 Q353 1 336.5 0.5 Q320 0 310 0 L310 37 L346 54 L346 294 Q346 325 338 344.5 Q330 364 304 364 Q289 364 273 354 Q257 344 247 328 L247 90 Q247 70 249.5 61 Q252 52 261 47 L283 37 L283 0 Q271 1 254.5 1.5 Q238 2 221.5 2.5 Q205 3 188.5 3 Q172 3 160 3 Q148 3 129 2.5 Q110 2 89.5 1.5 Q69 1 50.5 0.5 Q32 0 22 0 L22 37 L67 56 L67 565 Q67 581 65.5 590.5 Q64 600 59 607 Q54 614 44 618.5 Q34 623 18 628 L18 665 Q62 665 94 665.5 Q126 666 151.5 667 Q177 668 199 670 Q221 672 247 675 L247 398 Z " />
<glyph glyph-name="i" unicode="i" horiz-adv-x="320" d="M74 347 Q74 363 72.5 372.5 Q71 382 66 388 Q61 394 51 398.5 Q41 403 25 408 L25 444 Q91 444 143.5 446.5 Q196 449 254 457 L254 89 Q254 69 263.5 57.5 Q273 46 288 42 L310 36 L310 0 Q298 1 278.5 1.5 Q259 2 238 2 Q217 2 197.5 2 Q178 2 166 2 Q154 2 134 1.5 Q114 1 93 1 Q72 1 53 0.5 Q34 0 24 0 L24 36 L74 55 L74 347 Z M244 582 Q244 564 237 548.5 Q230 533 218 521 Q206 509 189.5 502 Q173 495 155 495 Q137 495 121.5 502 Q106 509 94 521 Q82 533 75 548.5 Q68 564 68 582 Q68 600 75 616.5 Q82 633 94 645 Q106 657 121.5 664 Q137 671 155 671 Q192 671 218 645 Q244 619 244 582 Z " />
<glyph glyph-name="j" unicode="j" horiz-adv-x="299" d="M68 347 Q68 363 66.5 372.5 Q65 382 60 388 Q55 394 45 398.5 Q35 403 19 408 L19 444 Q85 444 137.5 446.5 Q190 449 248 457 L248 1 Q248 -64 228.5 -108 Q209 -152 174.5 -180 Q140 -208 92.5 -220.5 Q45 -233 -10 -234 L-17 -186 Q28 -174 48 -140 Q68 -106 68 -33 L68 347 Z M238 582 Q238 564 231 548.5 Q224 533 212 521 Q200 509 183.5 502 Q167 495 149 495 Q131 495 115.5 502 Q100 509 88 521 Q76 533 69 548.5 Q62 564 62 582 Q62 600 69 616.5 Q76 633 88 645 Q100 657 115.5 664 Q131 671 149 671 Q186 671 212 645 Q238 619 238 582 Z " />
<glyph glyph-name="k" unicode="k" horiz-adv-x="580" d="M67 565 Q67 581 65.5 590.5 Q64 600 59 607 Q54 614 44 618.5 Q34 623 18 628 L18 665 Q69 665 101.5 665.5 Q134 666 158 667 Q182 668 201.5 670 Q221 672 247 675 L247 268 L378 391 L330 406 L330 444 Q339 444 355.5 443.5 Q372 443 390 442.5 Q408 442 425 442 Q442 442 451 442 Q461 442 478 442 Q495 442 512 442.5 Q529 443 544.5 443.5 Q560 444 567 444 L567 406 Q525 404 494.5 391 Q464 378 431 348 L390 311 L497 112 Q506 94 514 81.5 Q522 69 531 61 Q540 53 551.5 47.5 Q563 42 580 38 L580 0 L454 0 Q428 0 409.5 4 Q391 8 377 17 Q363 26 352 40.5 Q341 55 330 76 L247 230 L247 90 Q247 70 256.5 59 Q266 48 281 43 L297 37 L297 0 Q285 1 266.5 1.5 Q248 2 228.5 2.5 Q209 3 190.5 3 Q172 3 160 3 Q148 3 129 2.5 Q110 2 89.5 1.5 Q69 1 50.5 0.5 Q32 0 22 0 L22 37 L67 56 L67 565 Z " />
<glyph glyph-name="l" unicode="l" horiz-adv-x="312" d="M18 665 Q69 665 101.5 665.5 Q134 666 158 667 Q182 668 201.5 670 Q221 672 247 675 L247 90 Q247 68 255.5 58 Q264 48 281 43 L303 37 L303 0 Q291 1 271.5 1.5 Q252 2 231.5 2.5 Q211 3 191.5 3 Q172 3 160 3 Q148 3 129 2.5 Q110 2 89.5 1.5 Q69 1 50.5 0.5 Q32 0 22 0 L22 37 L67 56 L67 565 Q67 581 65.5 590.5 Q64 600 59 607 Q54 614 44 618.5 Q34 623 18 628 L18 665 Z " />
<glyph glyph-name="m" unicode="m" horiz-adv-x="861" d="M529 83 Q529 74 529.5 67.5 Q530 61 533.5 56 Q537 51 544 46.5 Q551 42 564 37 L564 0 Q539 2 503 2.5 Q467 3 442 3 Q431 3 415 2.5 Q399 2 382 1.5 Q365 1 348.5 0.5 Q332 0 320 0 L320 37 L349 56 L349 294 Q349 325 342 344.5 Q335 364 309 364 Q293 364 278.5 353.5 Q264 343 254 328 L254 83 Q254 64 259 55.5 Q264 47 290 37 L290 0 Q278 1 261.5 1.5 Q245 2 228.5 2.5 Q212 3 195.5 3 Q179 3 167 3 Q155 3 136 2.5 Q117 2 96.5 1.5 Q76 1 57.5 0.5 Q39 0 29 0 L29 37 L74 56 L74 346 Q74 362 72.5 371.5 Q71 381 66 387 Q61 393 51 397.5 Q41 402 25 407 L25 444 Q91 444 143.5 446.5 Q196 449 254 457 L254 398 Q263 408 277 419 Q291 430 308.5 439 Q326 448 347 454 Q368 460 391 460 Q442 460 470.5 441 Q499 422 513 387 Q539 419 579.5 439.5 Q620 460 660 460 Q700 460 730 448.5 Q760 437 777 412 Q793 389 798 357.5 Q803 326 803 284 L803 90 Q803 70 811.5 59 Q820 48 837 43 L856 37 L856 0 Q840 0 821.5 0.5 Q803 1 784.5 1.5 Q766 2 749 2.5 Q732 3 720 3 Q709 3 692.5 2.5 Q676 2 658 1.5 Q640 1 623 0.5 Q606 0 594 0 L594 37 L623 56 L623 294 Q623 325 616 344 Q609 363 584 363 Q570 363 554 353.5 Q538 344 527 326 Q528 319 528.5 304 Q529 289 529 278 L529 83 Z " />
<glyph glyph-name="n" unicode="n" horiz-adv-x="591" d="M254 83 Q254 64 259 55.5 Q264 47 290 37 L290 0 Q278 1 261.5 1.5 Q245 2 228.5 2.5 Q212 3 195.5 3 Q179 3 167 3 Q155 3 136 2.5 Q117 2 96.5 1.5 Q76 1 57.5 0.5 Q39 0 29 0 L29 37 L74 56 L74 344 Q74 360 72.5 369.5 Q71 379 66 386 Q61 393 51 397.5 Q41 402 25 407 L25 444 Q91 444 143.5 446.5 Q196 449 254 457 L254 398 Q263 408 277.5 419 Q292 430 310 439 Q328 448 349 454 Q370 460 393 460 Q473 460 506 412 Q522 389 527.5 357.5 Q533 326 533 284 L533 90 Q533 72 540 61 Q547 50 567 43 L585 37 L585 0 Q573 1 554 1.5 Q535 2 515 2 Q495 2 476 2 Q457 2 445 2 Q433 2 415.5 1.5 Q398 1 379 1 Q360 1 343.5 0.5 Q327 0 317 0 L317 37 L353 54 L353 294 Q353 325 345 344.5 Q337 364 311 364 Q296 364 280 354 Q264 344 254 328 L254 83 Z " />
<glyph glyph-name="o" unicode="o" horiz-adv-x="520" d="M498 222 Q498 170 482.5 126.5 Q467 83 437 51.5 Q407 20 362.5 2.5 Q318 -15 260 -15 Q202 -15 157.5 2.5 Q113 20 83 51.5 Q53 83 37.5 126.5 Q22 170 22 222 Q22 274 37.5 318 Q53 362 83 393.5 Q113 425 157.5 442.5 Q202 460 260 460 Q318 460 362.5 442.5 Q407 425 437 393.5 Q467 362 482.5 318 Q498 274 498 222 Z M205 222 Q205 139 215 94 Q225 49 260 49 Q295 49 305 94 Q315 139 315 222 Q315 305 305 350.5 Q295 396 260 396 Q225 396 215 350.5 Q205 305 205 222 Z " />
<glyph glyph-name="p" unicode="p" horiz-adv-x="565" d="M246 64 Q251 60 259.5 57 Q268 54 279 54 Q301 54 316.5 68 Q332 82 341.5 105 Q351 128 355 157.5 Q359 187 359 219 Q359 250 357 278 Q355 306 349 327 Q343 348 332 360 Q321 372 303 372 Q285 372 271 361.5 Q257 351 246 336 L246 64 Z M246 -116 Q246 -145 254.5 -156.5 Q263 -168 295 -177 L316 -183 L316 -220 Q304 -219 283 -218.5 Q262 -218 239 -217.5 Q216 -217 195 -217 Q174 -217 162 -217 Q150 -217 130 -217.5 Q110 -218 88.5 -218.5 Q67 -219 48 -219.5 Q29 -220 19 -220 L19 -183 L66 -164 L66 346 Q66 362 64.5 371.5 Q63 381 58 387 Q53 393 43 397.5 Q33 402 17 407 L17 444 Q83 444 135.5 446.5 Q188 449 246 457 L246 409 Q273 439 301 449.5 Q329 460 358 460 Q409 460 444 440.5 Q479 421 500.5 388.5 Q522 356 532 315 Q542 274 542 231 Q542 171 525 125.5 Q508 80 478 48.5 Q448 17 406 1 Q364 -15 313 -15 Q292 -15 276 -12.5 Q260 -10 246 -5 L246 -116 Z " />
<glyph glyph-name="q" unicode="q" horiz-adv-x="549" d="M498 -123 Q498 -136 499.5 -144 Q501 -152 507 -158 Q513 -164 524.5 -168.5 Q536 -173 556 -179 L556 -220 Q507 -220 473.5 -220.5 Q440 -221 414 -222 Q388 -223 365.5 -225 Q343 -227 318 -230 L318 12 Q298 -2 269 -8.5 Q240 -15 220 -15 Q125 -15 74 44 Q23 103 23 213 Q23 273 43 319 Q63 365 98 396.5 Q133 428 180.5 444 Q228 460 284 460 Q342 460 397 446.5 Q452 433 498 407 L498 -123 Z M206 219 Q206 138 223.5 102.5 Q241 67 273 67 Q284 67 295 69.5 Q306 72 318 81 L318 376 Q307 394 284 394 Q259 394 244 378 Q229 362 220.5 337 Q212 312 209 281 Q206 250 206 219 Z " />
<glyph glyph-name="r" unicode="r" horiz-adv-x="459" d="M254 379 Q264 393 277 407.5 Q290 422 305 433.5 Q320 445 337.5 452.5 Q355 460 375 460 Q414 460 435.5 439 Q457 418 457 392 Q457 377 451.5 362.5 Q446 348 437 336.5 Q428 325 415.5 317.5 Q403 310 390 310 Q379 310 370.5 316 Q362 322 353 329 Q344 336 334.5 342 Q325 348 312 348 Q296 348 281.5 339.5 Q267 331 254 317 L254 104 Q254 75 262.5 63.5 Q271 52 303 43 L324 37 L324 0 Q312 1 290.5 1.5 Q269 2 245.5 2.5 Q222 3 200.5 3 Q179 3 167 3 Q155 3 136 2.5 Q117 2 96.5 1.5 Q76 1 57.5 0.5 Q39 0 29 0 L29 37 L74 56 L74 347 Q74 363 72.5 372.5 Q71 382 66 388 Q61 394 51 398.5 Q41 403 25 408 L25 444 Q91 444 143.5 446.5 Q196 449 254 457 L254 379 Z " />
<glyph glyph-name="s" unicode="s" horiz-adv-x="424" d="M396 136 Q396 67 345.5 26 Q295 -15 201 -15 Q165 -15 126 -8.5 Q87 -2 46 15 L46 143 L95 143 Q104 98 128 71.5 Q152 45 187 45 Q212 45 226 57.5 Q240 70 240 89 Q240 109 225 122 Q210 135 187.5 146.5 Q165 158 138.5 170 Q112 182 89.5 200 Q67 218 52 244.5 Q37 271 37 312 Q37 346 52 373.5 Q67 401 93 420.5 Q119 440 154.5 450 Q190 460 231 460 Q273 460 304.5 452 Q336 444 370 439 Q370 407 370 370 Q370 333 372 304 L322 304 Q316 358 295 379 Q274 400 243 400 Q220 400 206 389 Q192 378 192 358 Q192 337 207 323.5 Q222 310 245 297.5 Q268 285 294 272.5 Q320 260 343 242.5 Q366 225 381 199.5 Q396 174 396 136 Z " />
<glyph glyph-name="t" unicode="t" horiz-adv-x="389" d="M379 80 Q351 35 309 10 Q267 -15 215 -15 Q144 -15 108 24 Q88 46 79.5 76 Q71 106 71 148 L71 384 L7 384 L7 444 L71 444 L71 536 L251 573 L251 444 L365 444 L354 384 L251 384 L251 121 Q251 80 283 80 Q299 80 313 87 Q327 94 344 111 L379 80 Z " />
<glyph glyph-name="u" unicode="u" horiz-adv-x="577" d="M238 151 Q238 120 245.5 99.5 Q253 79 279 79 Q294 79 307.5 87.5 Q321 96 331 107 L331 354 Q331 367 330 375.5 Q329 384 325.5 389.5 Q322 395 314.5 398.5 Q307 402 295 407 L295 444 Q325 444 351.5 444 Q378 444 403.5 445 Q429 446 455.5 449 Q482 452 511 457 L511 102 Q511 84 516 75 Q521 66 535 66 Q541 66 549 68 Q557 70 570 76 L570 28 Q514 -12 445 -12 Q410 -12 381.5 4 Q353 20 342 56 Q319 27 281 6 Q243 -15 198 -15 Q118 -15 85 33 Q69 56 63.5 87.5 Q58 119 58 161 L58 344 Q58 360 56.5 369.5 Q55 379 50 386 Q45 393 35 397.5 Q25 402 9 407 L9 444 Q75 444 127.5 446.5 Q180 449 238 457 L238 151 Z " />
<glyph glyph-name="v" unicode="v" horiz-adv-x="483" d="M503 408 Q483 404 471 400 Q459 396 451.5 390 Q444 384 439 376.5 Q434 369 430 357 L298 0 L200 0 L53 353 Q42 379 27 390 Q12 401 -16 408 L-16 444 Q-11 444 8 443.5 Q27 443 49.5 442.5 Q72 442 92 441.5 Q112 441 120 441 Q130 441 149.5 441.5 Q169 442 190.5 442.5 Q212 443 230.5 443.5 Q249 444 257 444 L257 407 L222 392 L243 335 Q250 314 258 290 Q266 266 273.5 244 Q281 222 286.5 204.5 Q292 187 294 181 L370 391 L334 407 L334 444 Q345 443 359 442 Q371 441 387.5 441 Q404 441 424 441 Q439 441 449 441.5 Q459 442 467 442.5 Q475 443 483 443.5 Q491 444 503 444 L503 408 L503 408 Z " />
<glyph glyph-name="w" unicode="w" horiz-adv-x="765" d="M785 408 Q765 404 753 399.5 Q741 395 733.5 389.5 Q726 384 721 376 Q716 368 712 357 L576 0 L481 0 L397 246 L294 0 L197 0 L55 348 Q49 363 42.5 373 Q36 383 28.5 389.5 Q21 396 10 400 Q-1 404 -16 408 L-16 444 Q-11 444 8 443.5 Q27 443 49.5 442.5 Q72 442 92 441.5 Q112 441 120 441 Q130 441 148 441.5 Q166 442 185.5 442.5 Q205 443 221.5 443.5 Q238 444 246 444 L246 407 L212 392 L233 335 Q254 277 269 230 Q284 183 290 159 L367 344 Q356 374 342.5 388.5 Q329 403 302 408 L302 444 Q307 444 322.5 443.5 Q338 443 356 442.5 Q374 442 391 441.5 Q408 441 416 441 Q426 441 445 441.5 Q464 442 484.5 442.5 Q505 443 523 443.5 Q541 444 549 444 L549 407 L505 392 L524 337 Q541 286 553.5 245.5 Q566 205 574 179 L652 391 L609 407 L609 444 Q618 443 629 442 Q639 441 653.5 441 Q668 441 688 441 Q719 441 740.5 442.5 Q762 444 785 444 L785 408 L785 408 Z " />
<glyph glyph-name="x" unicode="x" horiz-adv-x="510" d="M222 129 L165 51 L195 36 L195 0 Q172 1 149.5 2 Q127 3 104 3 Q73 3 51.5 1.5 Q30 0 7 0 L7 36 Q26 38 39.5 41 Q53 44 64.5 50 Q76 56 85.5 65.5 Q95 75 106 89 L183 191 L82 345 Q71 362 63 372.5 Q55 383 46.5 390 Q38 397 27 401 Q16 405 -2 408 L-2 444 Q3 444 21 443.5 Q39 443 60 442.5 Q81 442 100.5 441.5 Q120 441 128 441 Q138 441 158 441.5 Q178 442 199.5 442.5 Q221 443 239.5 443.5 Q258 444 266 444 L266 407 L237 394 L292 311 L351 395 L322 407 L322 444 Q341 444 365.5 442.5 Q390 441 411 441 Q437 441 460.5 442.5 Q484 444 501 444 L501 408 Q481 407 467.5 404 Q454 401 444 395 Q434 389 426 380 Q418 371 409 358 L331 250 L433 94 Q443 79 451 69.5 Q459 60 467.5 54 Q476 48 487 44 Q498 40 514 36 L514 0 Q509 0 490.5 0.5 Q472 1 450.5 1.5 Q429 2 409.5 2.5 Q390 3 382 3 Q372 3 353 2.5 Q334 2 314 1.5 Q294 1 276 0.5 Q258 0 251 0 L251 37 L276 50 L222 129 Z " />
<glyph glyph-name="y" unicode="y" horiz-adv-x="503" d="M-20 444 Q-15 444 4.5 443.5 Q24 443 47 442.5 Q70 442 91 441.5 Q112 441 120 441 Q130 441 150 441.5 Q170 442 191.5 442.5 Q213 443 232 443.5 Q251 444 259 444 L259 407 L222 392 L241 342 Q247 327 255.5 303.5 Q264 280 273 256 Q282 232 289.5 210.5 Q297 189 300 179 L386 390 L352 407 L352 444 Q366 443 381 442 Q394 441 408 441 Q422 441 436 441 Q465 441 482.5 442.5 Q500 444 517 444 L517 408 Q497 405 485 401 Q473 397 465.5 391 Q458 385 453 376 Q448 367 443 354 L270 -73 Q238 -153 200.5 -194 Q163 -235 108 -235 Q66 -235 41 -213.5 Q16 -192 16 -162 Q16 -139 29 -126 Q42 -113 65 -113 Q82 -113 99 -118 Q116 -123 134 -123 Q181 -123 206 -58 L220 -21 L49 353 Q37 379 21.5 390 Q6 401 -20 408 L-20 444 Z " />
<glyph glyph-name="z" unicode="z" horiz-adv-x="447" d="M423 391 L222 60 L316 60 Q340 60 350.5 66 Q361 72 367 90 Q371 101 375 117 Q379 133 382 144 L427 144 Q427 129 426.5 109 Q426 89 425.5 68 Q425 47 425 28.5 Q425 10 425 0 L28 0 L28 52 L230 384 L114 384 Q106 366 97.5 342 Q89 318 82 300 L37 300 Q38 336 38 377 Q38 418 38 444 L423 444 L423 391 Z " />
<glyph glyph-name="ampersand" unicode="&#x26;" horiz-adv-x="735" d="M557 158 Q584 129 601.5 111.5 Q619 94 632.5 84.5 Q646 75 657.5 72 Q669 69 682 69 Q702 69 727 79 L727 30 Q695 10 657 -2.5 Q619 -15 585 -15 Q547 -15 517 -0.5 Q487 14 458 40 Q424 14 374.5 -0.5 Q325 -15 271 -15 Q217 -15 171 -1 Q125 13 91 37.5 Q57 62 38 97 Q19 132 19 174 Q19 206 30.5 232.5 Q42 259 62.5 280 Q83 301 111 316.5 Q139 332 171 342 Q146 371 129.5 403.5 Q113 436 113 470 Q113 511 129.5 543 Q146 575 174 596.5 Q202 618 237 629 Q272 640 310 640 Q346 640 376.5 629.5 Q407 619 428.5 600.5 Q450 582 462.5 557.5 Q475 533 475 506 Q475 461 448.5 426.5 Q422 392 365 361 L512 206 Q520 226 527 250.5 Q534 275 539 296 L476 323 L476 362 Q485 362 498 361 Q511 360 525.5 359.5 Q540 359 554.5 358.5 Q569 358 580 358 Q589 358 601.5 358.5 Q614 359 627.5 359.5 Q641 360 653.5 361 Q666 362 675 362 L675 323 Q654 318 640.5 313.5 Q627 309 618 301.5 Q609 294 602.5 281.5 Q596 269 590 248 Q583 226 575.5 205 Q568 184 557 158 Z M224 288 Q209 275 200 254 Q191 233 191 208 Q191 183 201 159.5 Q211 136 229 118 Q247 100 272.5 89 Q298 78 330 78 Q352 78 369 82.5 Q386 87 404 95 L224 288 Z M372 506 Q372 533 356 554 Q340 575 312 575 Q288 575 272 559 Q256 543 256 516 Q256 492 269.5 469.5 Q283 447 315 411 Q372 457 372 506 Z " />
<glyph glyph-name="at" unicode="&#x40;" horiz-adv-x="817" d="M555 252 Q550 232 550 224 Q550 206 568 206 Q583 206 600 221 Q617 236 631.5 261 Q646 286 655 319 Q664 352 664 387 Q664 430 650 465.5 Q636 501 609.5 526.5 Q583 552 545 566 Q507 580 460 580 Q397 580 344.5 552.5 Q292 525 254 481 Q216 437 195 380 Q174 323 174 265 Q174 161 237 104 Q268 75 311 60 Q354 45 411 45 Q477 45 541.5 65 Q606 85 663 123 L686 89 Q622 40 544.5 12.5 Q467 -15 389 -15 Q294 -15 224 12 Q154 39 109 87 Q39 163 39 271 Q39 340 70 406.5 Q101 473 157 524.5 Q213 576 290.5 608 Q368 640 462 640 Q533 640 590 620 Q647 600 687.5 564.5 Q728 529 750 482 Q772 435 772 381 Q772 333 754 290.5 Q736 248 704.5 216.5 Q673 185 631.5 166.5 Q590 148 543 148 Q500 148 476.5 163 Q453 178 442 198 Q426 176 401.5 162.5 Q377 149 345 149 Q294 149 263.5 180.5 Q233 212 233 266 Q233 306 247.5 343.5 Q262 381 289 409.5 Q316 438 353 455 Q390 472 435 472 Q467 472 493 459 L518 473 L598 464 L606 452 L555 252 Z M462 415 Q455 420 446 420 Q429 420 415 408 Q401 396 390 376 Q376 351 368.5 320 Q361 289 361 261 Q361 221 383 221 Q402 221 414 244.5 Q426 268 437 313 L462 415 Z " />
<glyph glyph-name="exclam" unicode="&#x21;" horiz-adv-x="304" d="M124 214 Q121 253 110 295.5 Q99 338 87 380 Q75 422 65.5 462.5 Q56 503 56 538 Q56 583 81 611.5 Q106 640 152 640 Q198 640 223 611.5 Q248 583 248 538 Q248 503 238.5 462.5 Q229 422 217 380 Q205 338 194 295.5 Q183 253 180 214 L124 214 Z M238 68 Q238 33 213.5 9 Q189 -15 152 -15 Q116 -15 91.5 9 Q67 33 67 68 Q67 104 91.5 128.5 Q116 153 152 153 Q189 153 213.5 128.5 Q238 104 238 68 Z " />
<glyph glyph-name="exclamdown" unicode="&#xa1;" horiz-adv-x="304" d="M124 231.026 Q121 192.031 110 149.536 Q99 107.041 87 65.0464 Q75 23.0515 65.5 -17.4435 Q56 -57.9386 56 -92.9343 Q56 -137.929 81 -166.425 Q106 -194.922 152 -194.922 Q198 -194.922 223 -166.425 Q248 -137.929 248 -92.9343 Q248 -57.9386 238.5 -17.4435 Q229 23.0515 217 65.0464 Q205 107.041 194 149.536 Q183 192.031 180 231.026 L124 231.026 Z M238 377.008 Q238 412.004 213.5 436.001 Q189 459.998 152 459.998 Q116 459.998 91.5 436.001 Q67 412.004 67 377.008 Q67 341.013 91.5 316.516 Q116 292.019 152 292.019 Q189 292.019 213.5 316.516 Q238 341.013 238 377.008 Z " />
<glyph glyph-name="question" unicode="&#x3f;" horiz-adv-x="472" d="M178 214 Q178 256 190.5 283.5 Q203 311 217.5 335 Q232 359 244.5 384 Q257 409 257 447 Q257 493 236 521 Q215 549 170 549 Q135 549 107 531 Q79 513 62 482 L12 510 Q41 571 97 605.5 Q153 640 238 640 Q281 640 318 628.5 Q355 617 382 595.5 Q409 574 424.5 542.5 Q440 511 440 472 Q440 438 427 413 Q414 388 394 368 Q374 348 350.5 331.5 Q327 315 305 298 Q283 281 266 261 Q249 241 243 214 L178 214 Z M298 68 Q298 33 273.5 9 Q249 -15 212 -15 Q176 -15 151.5 9 Q127 33 127 68 Q127 104 151.5 128.5 Q176 153 212 153 Q249 153 273.5 128.5 Q298 104 298 68 Z " />
<glyph glyph-name="questiondown" unicode="&#xbf;" horiz-adv-x="472" d="M294.022 231.026 Q294.022 189.031 281.523 161.535 Q269.025 134.038 254.527 110.041 Q240.028 86.0438 227.53 61.0469 Q215.031 36.0499 215.031 -1.94543 Q215.031 -47.9398 236.029 -75.9364 Q257.026 -103.933 302.021 -103.933 Q337.016 -103.933 365.013 -85.9352 Q393.01 -67.9374 410.008 -36.9412 L460.001 -64.9377 Q431.005 -125.93 375.012 -160.426 Q319.019 -194.922 234.029 -194.922 Q191.034 -194.922 154.039 -183.423 Q117.043 -171.925 90.0466 -150.427 Q63.0499 -128.93 47.5518 -97.4338 Q32.0537 -65.9376 32.0537 -26.9424 Q32.0537 7.05347 45.0521 32.0504 Q58.0505 57.0474 78.0481 77.0449 Q98.0457 97.0425 121.543 113.54 Q145.04 130.038 167.037 147.036 Q189.035 164.034 206.032 184.032 Q223.03 204.029 229.03 231.026 L294.022 231.026 Z M174.036 377.008 Q174.036 412.004 198.533 436.001 Q223.03 459.998 260.026 459.998 Q296.021 459.998 320.518 436.001 Q345.016 412.004 345.016 377.008 Q345.016 341.013 320.518 316.516 Q296.021 292.019 260.026 292.019 Q223.03 292.019 198.533 316.516 Q174.036 341.013 174.036 377.008 Z " />
<glyph glyph-name="asterisk" unicode="&#x2a;" horiz-adv-x="411" d="M193 424 L141 380 Q116 359 103 350 Q90 341 76 341 Q61 341 49.5 353.5 Q38 366 38 381 Q38 404 56.5 414 Q75 424 110 435 L175 454 L110 473 Q75 484 56.5 494 Q38 504 38 527 Q38 542 49.5 554.5 Q61 567 76 567 Q90 567 103 558 Q116 549 141 528 L193 484 L174 547 Q165 578 165 597 Q165 617 175 628.5 Q185 640 205 640 Q225 640 235 628.5 Q245 617 245 597 Q245 578 236 547 L218 484 L268 528 Q294 551 307 559 Q320 567 334 567 Q349 567 361 554.5 Q373 542 373 527 Q373 504 354 494 Q335 484 300 473 L234 454 L300 435 Q335 424 354 414 Q373 404 373 381 Q373 366 361 353.5 Q349 341 334 341 Q320 341 307 350 Q294 359 268 380 L218 424 L236 361 Q241 345 243 333.5 Q245 322 245 311 Q245 291 235 279.5 Q225 268 205 268 Q185 268 175 279.5 Q165 291 165 311 Q165 322 167 333.5 Q169 345 174 361 L193 424 Z " />
<glyph glyph-name="period" unicode="&#x2e;" horiz-adv-x="255" d="M217 72 Q217 35 191 10 Q165 -15 127 -15 Q89 -15 63.5 10 Q38 35 38 72 Q38 110 63.5 135.5 Q89 161 127 161 Q146 161 162.5 154 Q179 147 191 135 Q203 123 210 107 Q217 91 217 72 Z " />
<glyph glyph-name="comma" unicode="&#x2c;" horiz-adv-x="238" d="M205 54 Q205 0 168.5 -53 Q132 -106 62 -150 L40 -116 Q77 -84 94.5 -57 Q112 -30 112 -10 Q112 7 100 17 Q88 27 73.5 36.5 Q59 46 47 59 Q35 72 35 94 Q35 118 56.5 140.5 Q78 163 114 163 Q153 163 179 133 Q205 103 205 54 Z " />
<glyph glyph-name="colon" unicode="&#x3a;" horiz-adv-x="255" d="M217 72 Q217 35 191 10 Q165 -15 127 -15 Q89 -15 63.5 10 Q38 35 38 72 Q38 110 63.5 135.5 Q89 161 127 161 Q146 161 162.5 154 Q179 147 191 135 Q203 123 210 107 Q217 91 217 72 Z M217 371 Q217 334 191 309 Q165 284 127 284 Q89 284 63.5 309 Q38 334 38 371 Q38 409 63.5 434.5 Q89 460 127 460 Q146 460 162.5 453 Q179 446 191 434 Q203 422 210 406 Q217 390 217 371 Z " />
<glyph glyph-name="semicolon" unicode="&#x3b;" horiz-adv-x="259" d="M217 371 Q217 334 191 309 Q165 284 127 284 Q89 284 63.5 309 Q38 334 38 371 Q38 409 63.5 434.5 Q89 460 127 460 Q146 460 162.5 453 Q179 446 191 434 Q203 422 210 406 Q217 390 217 371 Z M205 54 Q205 0 168.5 -53 Q132 -106 62 -150 L40 -116 Q77 -84 94.5 -57 Q112 -30 112 -10 Q112 7 100 17 Q88 27 73.5 36.5 Q59 46 47 59 Q35 72 35 94 Q35 118 56.5 140.5 Q78 163 114 163 Q153 163 179 133 Q205 103 205 54 Z " />
<glyph glyph-name="ellipsis" unicode="&#x2026;" horiz-adv-x="765" d="M217 72 Q217 35 191 10 Q165 -15 127 -15 Q89 -15 63.5 10 Q38 35 38 72 Q38 110 63.5 135.5 Q89 161 127 161 Q146 161 162.5 154 Q179 147 191 135 Q203 123 210 107 Q217 91 217 72 Z M472 72 Q472 35 446 10 Q420 -15 382 -15 Q344 -15 318.5 10 Q293 35 293 72 Q293 110 318.5 135.5 Q344 161 382 161 Q401 161 417.5 154 Q434 147 446 135 Q458 123 465 107 Q472 91 472 72 Z M727 72 Q727 35 701 10 Q675 -15 637 -15 Q599 -15 573.5 10 Q548 35 548 72 Q548 110 573.5 135.5 Q599 161 637 161 Q656 161 672.5 154 Q689 147 701 135 Q713 123 720 107 Q727 91 727 72 Z " />
<glyph glyph-name="periodcentered" unicode="&#xb7;" horiz-adv-x="255" d="M217 222 Q217 185 191 160 Q165 135 127 135 Q89 135 63.5 160 Q38 185 38 222 Q38 260 63.5 285.5 Q89 311 127 311 Q146 311 162.5 304 Q179 297 191 285 Q203 273 210 257 Q217 241 217 222 Z " />
<glyph glyph-name="uni22C5" unicode="&#x22c5;" horiz-adv-x="255" d="M217 222 Q217 185 191 160 Q165 135 127 135 Q89 135 63.5 160 Q38 185 38 222 Q38 260 63.5 285.5 Q89 311 127 311 Q146 311 162.5 304 Q179 297 191 285 Q203 273 210 257 Q217 241 217 222 Z " />
<glyph glyph-name="bullet" unicode="&#x2022;" horiz-adv-x="345" d="M295 222 Q295 197 285.5 174.5 Q276 152 259.5 134.5 Q243 117 220.5 107 Q198 97 173 97 Q148 97 125.5 107 Q103 117 86.5 134.5 Q70 152 60 174.5 Q50 197 50 222 Q50 247 60 269 Q70 291 86.5 307.5 Q103 324 125.5 333 Q148 342 173 342 Q198 342 220.5 333 Q243 324 259.5 307.5 Q276 291 285.5 269 Q295 247 295 222 Z " />
<glyph glyph-name="slash" unicode="&#x2f;" horiz-adv-x="350" d="M110 -15 L37 -15 L239 640 L313 640 L110 -15 Z " />
<glyph glyph-name="parenleft" unicode="&#x28;" horiz-adv-x="382" d="M382 766 Q346 736 318.5 686.5 Q291 637 272 576.5 Q253 516 243.5 448.5 Q234 381 234 314 Q234 247 243.5 178.5 Q253 110 272 49 Q291 -12 318.5 -62 Q346 -112 382 -142 L271 -142 Q227 -114 187.5 -66 Q148 -18 118 43 Q88 104 70 173.5 Q52 243 52 314 Q52 384 70 453 Q88 522 118 582 Q148 642 187.5 690 Q227 738 271 766 L382 766 Z " />
<glyph glyph-name="brokenbar" unicode="&#xa6;" horiz-adv-x="251" d="M91 332 L91 710 L160 710 L160 332 L91 332 Z M91 -265 L91 113 L160 113 L160 -265 L91 -265 Z " />
<glyph glyph-name="parenright" unicode="&#x29;" horiz-adv-x="382" d="M111 766 Q155 738 194.5 690 Q234 642 264 582 Q294 522 312 453 Q330 384 330 314 Q330 243 312 173.5 Q294 104 264 43 Q234 -18 194.5 -66 Q155 -114 111 -142 L0 -142 Q36 -112 63.5 -62 Q91 -12 110 49 Q129 110 138.5 178.5 Q148 247 148 314 Q148 381 138.5 448.5 Q129 516 110 576.5 Q91 637 63.5 686.5 Q36 736 0 766 L111 766 Z " />
<glyph glyph-name="bracketleft" unicode="&#x5b;" horiz-adv-x="405" d="M90 -142 L90 767 L387 767 L387 706 L260 706 L260 -81 L387 -81 L387 -142 L90 -142 Z " />
<glyph glyph-name="backslash" unicode="&#x5c;" horiz-adv-x="350" d="M37 640 L110 640 L312 -15 L240 -15 L37 640 Z " />
<glyph glyph-name="bracketright" unicode="&#x5d;" horiz-adv-x="405" d="M315 767 L315 -142 L18 -142 L18 -81 L145 -81 L145 706 L18 706 L18 767 L315 767 Z " />
<glyph glyph-name="braceleft" unicode="&#x7b;" horiz-adv-x="361" d="M44 338 Q76 345 93 362 Q110 379 110 409 Q110 429 105 453 Q100 477 94.5 502.5 Q89 528 84 554.5 Q79 581 79 605 Q79 640 96 670.5 Q113 701 147 723 Q181 745 231 757 Q281 769 347 766 L347 724 Q298 716 274 697 Q250 678 250 643 Q250 623 254.5 600 Q259 577 264.5 552.5 Q270 528 274.5 503 Q279 478 279 455 Q279 405 245.5 369.5 Q212 334 135 312 Q212 290 245.5 254.5 Q279 219 279 169 Q279 146 274.5 121 Q270 96 264.5 71.5 Q259 47 254.5 23.5 Q250 0 250 -19 Q250 -54 274 -73 Q298 -92 347 -100 L347 -142 Q281 -145 231 -133 Q181 -121 147 -99 Q113 -77 96 -46.5 Q79 -16 79 19 Q79 43 84 69.5 Q89 96 94.5 121.5 Q100 147 105 171 Q110 195 110 215 Q110 245 93 262 Q76 279 44 286 L44 338 Z " />
<glyph glyph-name="bar" unicode="&#x7c;" horiz-adv-x="251" d="M91 -265 L91 710 L160 710 L160 -265 L91 -265 Z " />
<glyph glyph-name="braceright" unicode="&#x7d;" horiz-adv-x="361" d="M317 286 Q285 279 268 262 Q251 245 251 215 Q251 195 256 171 Q261 147 266.5 121.5 Q272 96 277 69.5 Q282 43 282 19 Q282 -16 265 -46.5 Q248 -77 214 -99 Q180 -121 130 -133 Q80 -145 14 -142 L14 -100 Q63 -92 87 -73 Q111 -54 111 -19 Q111 0 106.5 23.5 Q102 47 96.5 71.5 Q91 96 86.5 121 Q82 146 82 169 Q82 219 115.5 254.5 Q149 290 226 312 Q149 334 115.5 369.5 Q82 405 82 455 Q82 478 86.5 503 Q91 528 96.5 552.5 Q102 577 106.5 600 Q111 623 111 643 Q111 678 87 697 Q63 716 14 724 L14 766 Q80 769 130 757 Q180 745 214 723 Q248 701 265 670.5 Q282 640 282 605 Q282 581 277 554.5 Q272 528 266.5 502.5 Q261 477 256 453 Q251 429 251 409 Q251 379 268 362 Q285 345 317 338 L317 286 Z " />
<glyph glyph-name="hyphen" unicode="&#x2d;" horiz-adv-x="334" d="M34 180 L34 264 L300 264 L300 180 L34 180 Z " />
<glyph glyph-name="uni00AD" unicode="&#xad;" horiz-adv-x="334" d="M34 180 L34 264 L300 264 L300 180 L34 180 Z " />
<glyph glyph-name="endash" unicode="&#x2013;" horiz-adv-x="500" d="M0 180 L0 264 L500 264 L500 180 L0 180 Z " />
<glyph glyph-name="emdash" unicode="&#x2014;" horiz-adv-x="1000" d="M0 180 L0 264 L1000 264 L1000 180 L0 180 Z " />
<glyph glyph-name="underscore" unicode="&#x5f;" horiz-adv-x="500" d="M25 -182 L25 -123 L475 -123 L475 -182 L25 -182 Z " />
<glyph glyph-name="dagger" unicode="&#x2020;" horiz-adv-x="499" d="M227 361 Q215 361 198 356.5 Q181 352 162 346 Q143 340 124 335.5 Q105 331 90 331 Q63 331 41.5 343 Q20 355 20 387 Q20 403 26 414 Q32 425 42 431.5 Q52 438 64.5 440.5 Q77 443 90 443 Q105 443 124 438 Q143 433 161.5 427.5 Q180 422 197.5 417 Q215 412 227 412 Q227 425 220 443.5 Q213 462 204.5 482 Q196 502 189 522 Q182 542 182 559 Q182 575 185 589.5 Q188 604 196 615 Q204 626 217.5 633 Q231 640 251 640 Q271 640 284 633 Q297 626 304.5 614.5 Q312 603 315 588.5 Q318 574 318 559 Q318 542 311 522 Q304 502 295 482 Q286 462 279 444 Q272 426 272 412 Q284 412 301 416.5 Q318 421 337 427 Q356 433 375 437.5 Q394 442 409 442 Q436 442 457.5 430 Q479 418 479 386 Q479 369 473 358.5 Q467 348 457 341.5 Q447 335 434.5 332.5 Q422 330 409 330 Q394 330 375 335 Q356 340 337.5 345.5 Q319 351 301.5 356 Q284 361 272 361 Q273 348 278.5 330 Q284 312 290 293 Q296 274 301 256.5 Q306 239 308 229 Q304 210 298.5 181 Q293 152 288 111 Q283 70 279.5 16 Q276 -38 276 -107 L223 -107 Q223 28 211 110 Q199 192 191 230 Q193 240 198 257 Q203 274 209 292.5 Q215 311 220 329.5 Q225 348 227 361 Z " />
<glyph glyph-name="daggerdbl" unicode="&#x2021;" horiz-adv-x="438" d="M199 254 Q196 276 190 298 Q184 320 177 336 Q183 355 188.5 379 Q194 403 197 426 Q172 424 150.5 414.5 Q129 405 105 405 Q85 405 66.5 414.5 Q48 424 48 450 Q48 476 66.5 485.5 Q85 495 105 495 Q129 495 150.5 485.5 Q172 476 196 473 Q191 498 179 523 Q167 548 167 576 Q167 601 178.5 620.5 Q190 640 219 640 Q248 640 259.5 620.5 Q271 601 271 576 Q271 548 259 523 Q247 498 242 473 Q266 476 287.5 485.5 Q309 495 333 495 Q353 495 371.5 485.5 Q390 476 390 450 Q390 424 371.5 414.5 Q353 405 333 405 Q309 405 287.5 414.5 Q266 424 241 426 Q244 403 249.5 379 Q255 355 261 336 Q254 320 248 298 Q242 276 239 254 L199 254 Z M239 219 Q242 197 248 175 Q254 153 261 137 Q255 118 249.5 94 Q244 70 241 47 Q266 49 287.5 58.5 Q309 68 333 68 Q353 68 371.5 58.5 Q390 49 390 23 Q390 -3 371.5 -12.5 Q353 -22 333 -22 Q309 -22 287.5 -12.5 Q266 -3 242 0 Q245 -13 249.5 -25.5 Q254 -38 259 -50.5 Q264 -63 267.5 -76 Q271 -89 271 -103 Q271 -128 259.5 -147.5 Q248 -167 219 -167 Q190 -167 178.5 -147.5 Q167 -128 167 -103 Q167 -89 170.5 -76 Q174 -63 179 -50.5 Q184 -38 188.5 -25.5 Q193 -13 196 0 Q172 -3 150.5 -12.5 Q129 -22 105 -22 Q85 -22 66.5 -12.5 Q48 -3 48 23 Q48 49 66.5 58.5 Q85 68 105 68 Q129 68 150.5 58.5 Q172 49 197 47 Q194 70 188.5 94 Q183 118 177 137 Q184 153 190 175 Q196 197 199 219 L239 219 Z " />
<glyph glyph-name="section" unicode="&#xa7;" horiz-adv-x="475" d="M413 45 Q413 -24 364.5 -65 Q316 -106 222 -106 Q186 -106 147 -99.5 Q108 -93 67 -76 L67 50 L114 50 Q124 3 149.5 -23.5 Q175 -50 210 -50 Q236 -50 250 -36 Q264 -22 264 -2 Q264 19 249 32.5 Q234 46 211.5 57.5 Q189 69 163 81 Q137 93 114.5 111 Q92 129 77 155 Q62 181 62 221 Q62 269 89 302.5 Q116 336 161 353 Q142 363 124.5 374.5 Q107 386 93 402.5 Q79 419 70.5 440.5 Q62 462 62 492 Q62 526 76.5 553.5 Q91 581 116.5 600.5 Q142 620 176.5 630 Q211 640 252 640 Q293 640 324 632 Q355 624 389 619 Q389 587 389.5 551 Q390 515 392 486 L343 486 Q337 541 315.5 563 Q294 585 264 585 Q239 585 224.5 572 Q210 559 210 538 Q210 517 225 502.5 Q240 488 262.5 475.5 Q285 463 311.5 450.5 Q338 438 360.5 420.5 Q383 403 398 378 Q413 353 413 316 Q413 266 388 230.5 Q363 195 313 178 Q332 168 350 156.5 Q368 145 382 129 Q396 113 404.5 92.5 Q413 72 413 45 Z M272 269 Q272 292 261.5 303.5 Q251 315 238 315 Q224 315 213 301 Q202 287 202 267 Q202 244 212.5 232.5 Q223 221 236 221 Q250 221 261 235 Q272 249 272 269 Z " />
<glyph glyph-name="paragraph" unicode="&#xb6;" horiz-adv-x="543" d="M507 625 L507 585 L445 566 L445 -106 L341 -106 L341 562 L298 562 L298 -106 L194 -106 L194 287 Q149 287 114.5 301 Q80 315 57 338 Q34 361 22 391 Q10 421 10 455 Q10 486 21 516.5 Q32 547 56.5 571 Q81 595 121 610 Q161 625 218 625 L507 625 Z " />
<glyph glyph-name="registered" unicode="&#xae;" horiz-adv-x="702" d="M676 314 Q676 246 650.5 186.5 Q625 127 581 82.5 Q537 38 477.5 12 Q418 -14 350 -14 Q283 -14 224 12 Q165 38 121 82.5 Q77 127 51.5 186.5 Q26 246 26 314 Q26 381 51.5 440.5 Q77 500 121 544.5 Q165 589 224 614.5 Q283 640 350 640 Q418 640 477.5 614.5 Q537 589 581 544.5 Q625 500 650.5 440.5 Q676 381 676 314 Z M600 314 Q600 368 581.5 417 Q563 466 529.5 502.5 Q496 539 450 560.5 Q404 582 350 582 Q296 582 250 560.5 Q204 539 170.5 502.5 Q137 466 118.5 417 Q100 368 100 314 Q100 259 118.5 210.5 Q137 162 170.5 125.5 Q204 89 250 68 Q296 47 350 47 Q404 47 450 68 Q496 89 529.5 125.5 Q563 162 581.5 210.5 Q600 259 600 314 Z M326 234 Q326 219 328.5 210 Q331 201 347 196 L358 193 L358 176 Q352 176 341.5 176.5 Q331 177 319.5 177 Q308 177 297.5 177 Q287 177 281 177 Q276 177 266.5 177 Q257 177 246.5 176.5 Q236 176 226.5 176 Q217 176 213 176 L213 193 L237 203 L237 417 Q237 432 234.5 441 Q232 450 216 455 L205 457 L205 475 L346 475 Q415 475 443 456 Q471 437 471 395 Q471 369 453.5 351 Q436 333 406 323 Q429 317 438.5 308 Q448 299 455 278 L468 232 Q474 213 481.5 204.5 Q489 196 508 193 L508 176 L391 176 Q391 196 382 223 L368 272 Q363 290 356.5 296 Q350 302 337 302 L326 302 L326 234 Z M381 389 Q381 424 368 437 Q362 445 353.5 447 Q345 449 334 449 L326 449 L326 327 L341 327 Q365 327 373 346.5 Q381 366 381 389 Z " />
<glyph glyph-name="copyright" unicode="&#xa9;" horiz-adv-x="702" d="M466 223 Q449 192 421.5 175 Q394 158 352 158 Q280 158 243 199.5 Q206 241 206 310 Q206 385 246.5 427.5 Q287 470 363 470 Q389 470 409.5 467 Q430 464 453 462 L456 371 L430 371 Q425 407 411 423.5 Q397 440 372 440 Q338 440 321 406 Q304 372 304 314 Q304 251 323.5 225.5 Q343 200 373 200 Q393 200 411 208.5 Q429 217 444 238 L466 223 Z M676 314 Q676 246 650.5 186.5 Q625 127 581 82.5 Q537 38 477.5 12 Q418 -14 350 -14 Q283 -14 224 12 Q165 38 121 82.5 Q77 127 51.5 186.5 Q26 246 26 314 Q26 381 51.5 440.5 Q77 500 121 544.5 Q165 589 224 614.5 Q283 640 350 640 Q418 640 477.5 614.5 Q537 589 581 544.5 Q625 500 650.5 440.5 Q676 381 676 314 Z M600 314 Q600 368 581.5 417 Q563 466 529.5 502.5 Q496 539 450 560.5 Q404 582 350 582 Q296 582 250 560.5 Q204 539 170.5 502.5 Q137 466 118.5 417 Q100 368 100 314 Q100 259 118.5 210.5 Q137 162 170.5 125.5 Q204 89 250 68 Q296 47 350 47 Q404 47 450 68 Q496 89 529.5 125.5 Q563 162 581.5 210.5 Q600 259 600 314 Z " />
<glyph glyph-name="trademark" unicode="&#x2122;" horiz-adv-x="749" d="M676 412 Q676 394 682.5 387 Q689 380 715 374 L715 344 Q710 344 698 344 Q686 344 672.5 344.5 Q659 345 647 345 Q635 345 630 345 Q625 345 613.5 345 Q602 345 589.5 344.5 Q577 344 565.5 344 Q554 344 550 344 L550 374 L589 382 L589 524 L512 342 L469 342 L393 529 L393 411 Q393 394 399.5 387 Q406 380 432 374 L432 344 Q421 344 404 344.5 Q387 345 375 345 Q370 345 361 345 Q352 345 342.5 344.5 Q333 344 324 344 Q315 344 311 344 L311 374 L348 382 L348 558 Q348 574 340 580.5 Q332 587 309 592 L309 625 L441 625 L510 445 L585 625 L712 625 L712 593 L676 585 L676 412 Z M257 538 Q252 570 242 583 Q232 596 202 596 L202 410 Q202 393 208 387 Q214 381 242 374 L242 344 Q236 344 224.5 344 Q213 344 200 344.5 Q187 345 175.5 345 Q164 345 158 345 Q152 345 140 345 Q128 345 115 344.5 Q102 344 90.5 344 Q79 344 75 344 L75 374 L114 382 L114 596 Q84 596 74 583 Q64 570 59 538 L22 538 Q22 544 22.5 555.5 Q23 567 23.5 580.5 Q24 594 24 606.5 Q24 619 24 625 L291 625 Q291 619 291 606.5 Q291 594 291.5 580.5 Q292 567 292.5 555.5 Q293 544 293 538 L257 538 Z " />
<glyph glyph-name="quotedblleft" unicode="&#x201c;" horiz-adv-x="432" d="M226 438 Q227 492 262.5 544.5 Q298 597 367 640 L389 607 Q318 545 318 502 Q318 485 330 475 Q342 465 356 455.5 Q370 446 382 433.5 Q394 421 394 399 Q394 375 372.5 353 Q351 331 316 331 Q277 331 251.5 360.5 Q226 390 226 438 Z M28 438 Q29 492 64.5 544.5 Q100 597 169 640 L191 607 Q120 545 120 502 Q120 485 132 475 Q144 465 158 455.5 Q172 446 184 433.5 Q196 421 196 399 Q196 375 174.5 353 Q153 331 118 331 Q79 331 53.5 360.5 Q28 390 28 438 Z " />
<glyph glyph-name="quotedblright" unicode="&#x201d;" horiz-adv-x="432" d="M206 533 Q205 479 169.5 426.5 Q134 374 65 331 L43 364 Q114 426 114 469 Q114 486 102 496 Q90 506 76 515.5 Q62 525 50 537.5 Q38 550 38 572 Q38 596 59.5 618 Q81 640 116 640 Q155 640 180.5 610.5 Q206 581 206 533 Z M404 533 Q403 479 367.5 426.5 Q332 374 263 331 L241 364 Q312 426 312 469 Q312 486 300 496 Q288 506 274 515.5 Q260 525 248 537.5 Q236 550 236 572 Q236 596 257.5 618 Q279 640 314 640 Q353 640 378.5 610.5 Q404 581 404 533 Z " />
<glyph glyph-name="quoteleft" unicode="&#x2018;" horiz-adv-x="234" d="M28 438 Q29 492 64.5 544.5 Q100 597 169 640 L191 607 Q120 545 120 502 Q120 485 132 475 Q144 465 158 455.5 Q172 446 184 433.5 Q196 421 196 399 Q196 375 174.5 353 Q153 331 118 331 Q79 331 53.5 360.5 Q28 390 28 438 Z " />
<glyph glyph-name="quoteright" unicode="&#x2019;" horiz-adv-x="234" d="M206 533 Q205 479 169.5 426.5 Q134 374 65 331 L43 364 Q114 426 114 469 Q114 486 102 496 Q90 506 76 515.5 Q62 525 50 537.5 Q38 550 38 572 Q38 596 59.5 618 Q81 640 116 640 Q155 640 180.5 610.5 Q206 581 206 533 Z " />
<glyph glyph-name="guillemotleft" unicode="&#xab;" horiz-adv-x="505" d="M397 30 L222 222 L400 418 L437 383 L366 221 L441 61 L397 30 Z M196 30 L20 222 L198 418 L236 383 L166 221 L239 60 L196 30 Z " />
<glyph glyph-name="guillemotright" unicode="&#xbb;" horiz-adv-x="504" d="M309 30 L266 60 L339 221 L269 383 L306 418 L484 222 L309 30 Z M107 30 L64 60 L137 221 L67 383 L105 418 L283 222 L107 30 Z " />
<glyph glyph-name="guilsinglleft" unicode="&#x2039;" horiz-adv-x="302" d="M195 30 L20 222 L198 418 L235 383 L165 221 L238 60 L195 30 Z " />
<glyph glyph-name="guilsinglright" unicode="&#x203a;" horiz-adv-x="302" d="M107 30 L64 60 L137 221 L67 383 L104 418 L282 222 L107 30 Z " />
<glyph glyph-name="quotesinglbase" unicode="&#x201a;" horiz-adv-x="234" d="M206 -3 Q205 -57 169.5 -109.5 Q134 -162 65 -205 L43 -172 Q114 -110 114 -67 Q114 -50 102 -40 Q90 -30 76 -20.5 Q62 -11 50 1.5 Q38 14 38 36 Q38 60 59.5 82 Q81 104 116 104 Q155 104 180.5 74.5 Q206 45 206 -3 Z " />
<glyph glyph-name="quotedblbase" unicode="&#x201e;" horiz-adv-x="432" d="M206 -3 Q205 -57 169.5 -109.5 Q134 -162 65 -205 L43 -172 Q114 -110 114 -67 Q114 -50 102 -40 Q90 -30 76 -20.5 Q62 -11 50 1.5 Q38 14 38 36 Q38 60 59.5 82 Q81 104 116 104 Q155 104 180.5 74.5 Q206 45 206 -3 Z M404 -3 Q403 -57 367.5 -109.5 Q332 -162 263 -205 L241 -172 Q312 -110 312 -67 Q312 -50 300 -40 Q288 -30 274 -20.5 Q260 -11 248 1.5 Q236 14 236 36 Q236 60 257.5 82 Q279 104 314 104 Q353 104 378.5 74.5 Q404 45 404 -3 Z " />
<glyph glyph-name="fi" unicode="&#xfb01;" horiz-adv-x="657" d="M338 615 Q300 615 279 586 Q267 569 261.5 545.5 Q256 522 256 487 L256 444 L409 444 Q459 444 501 447 Q543 450 591 457 L591 90 Q591 70 600.5 58.5 Q610 47 625 43 L647 37 L647 0 Q635 1 615.5 1.5 Q596 2 575 2.5 Q554 3 534.5 3 Q515 3 503 3 Q491 3 470.5 2.5 Q450 2 427.5 1.5 Q405 1 385 0.5 Q365 0 355 0 L355 37 L411 56 L411 342 Q411 368 403 376 Q395 384 378 384 L256 384 L256 120 Q256 105 256.5 92.5 Q257 80 261.5 70.5 Q266 61 274.5 54 Q283 47 300 43 L322 37 L322 0 Q310 1 289 1.5 Q268 2 245.5 2.5 Q223 3 202 3 Q181 3 169 3 Q157 3 138 2.5 Q119 2 98.5 1.5 Q78 1 59.5 0.5 Q41 0 31 0 L31 37 L76 56 L76 384 L11 384 L11 444 L76 444 Q76 495 91.5 534 Q107 573 133 602 Q171 642 227.5 661 Q284 680 350 680 Q394 680 433 673.5 Q472 667 501 654 Q530 641 546.5 623 Q563 605 563 583 Q563 567 556.5 552 Q550 537 539.5 525 Q529 513 515 506 Q501 499 485 499 Q462 499 447.5 517 Q433 535 418 557 Q403 579 385 597 Q367 615 338 615 Z " />
<glyph glyph-name="fl" unicode="&#xfb02;" horiz-adv-x="651" d="M256 120 Q256 105 256.5 92.5 Q257 80 261.5 70.5 Q266 61 274.5 54 Q283 47 300 43 L322 37 L322 0 Q310 1 289 1.5 Q268 2 245.5 2.5 Q223 3 202 3 Q181 3 169 3 Q157 3 138 2.5 Q119 2 98.5 1.5 Q78 1 59.5 0.5 Q41 0 31 0 L31 37 L76 56 L76 384 L11 384 L11 444 L76 444 Q76 496 89.5 539.5 Q103 583 132 614 Q161 645 206.5 662.5 Q252 680 317 680 Q356 680 385 676 Q414 672 443.5 667 Q473 662 506 658 Q539 654 586 654 L586 90 Q586 70 593 59 Q600 48 620 43 L642 37 L642 0 Q630 1 610.5 1.5 Q591 2 570.5 2.5 Q550 3 530.5 3 Q511 3 499 3 Q487 3 466.5 2.5 Q446 2 423.5 1.5 Q401 1 381 0.5 Q361 0 351 0 L351 37 L406 56 L406 582 Q390 596 372.5 603 Q355 610 333 610 Q297 610 276.5 585.5 Q256 561 256 507 L256 444 L359 444 L348 384 L256 384 L256 120 Z " />
<glyph glyph-name="f_f" unicode="&#xfb00;" horiz-adv-x="697" d="M405 444 L405 454 Q405 492 412 521 Q399 531 387.5 545 Q376 559 363.5 572 Q351 585 337 593.5 Q323 602 306 602 Q280 602 268 582.5 Q256 563 256 513 L256 444 L405 444 Z M624 615 Q585 615 585 526 L585 444 L688 444 L677 384 L585 384 L585 120 Q585 105 585.5 92.5 Q586 80 590.5 70.5 Q595 61 603.5 54 Q612 47 629 43 L651 37 L651 0 Q639 1 618 1.5 Q597 2 574.5 2.5 Q552 3 531 3 Q510 3 498 3 Q486 3 467 2.5 Q448 2 427.5 1.5 Q407 1 388.5 0.5 Q370 0 360 0 L360 37 L405 56 L405 384 L256 384 L256 120 Q256 105 256.5 92.5 Q257 80 261.5 70.5 Q266 61 274.5 54 Q283 47 300 43 L322 37 L322 0 Q310 1 289 1.5 Q268 2 245.5 2.5 Q223 3 202 3 Q181 3 169 3 Q157 3 138 2.5 Q119 2 98.5 1.5 Q78 1 59.5 0.5 Q41 0 31 0 L31 37 L76 56 L76 384 L11 384 L11 444 L76 444 L76 446 Q76 501 94 542.5 Q112 584 143.5 612 Q175 640 217 653.5 Q259 667 307 667 Q355 667 399.5 655.5 Q444 644 471 627 Q500 653 542 666.5 Q584 680 635 680 Q672 680 704 673.5 Q736 667 759 655.5 Q782 644 795.5 628 Q809 612 809 593 Q809 577 802.5 562 Q796 547 785.5 535.5 Q775 524 761.5 517 Q748 510 735 510 Q715 510 701.5 526.5 Q688 543 676.5 562.5 Q665 582 653 598.5 Q641 615 624 615 Z " />
<glyph glyph-name="f_f_i" unicode="&#xfb03;" horiz-adv-x="986" d="M256 444 L405 444 Q405 487 415 518 Q402 528 390 542.5 Q378 557 365 570.5 Q352 584 338 593 Q324 602 306 602 Q280 602 268 582.5 Q256 563 256 513 L256 444 Z M667 615 Q629 615 608 586 Q596 569 590.5 545.5 Q585 522 585 487 L585 444 L738 444 Q788 444 830 447 Q872 450 920 457 L920 89 Q920 69 929.5 57.5 Q939 46 954 42 L976 36 L976 -1 Q964 0 944.5 0.5 Q925 1 904 1.5 Q883 2 863.5 2 Q844 2 832 2 Q820 2 799.5 1.5 Q779 1 756.5 0.5 Q734 0 714 -0.5 Q694 -1 684 -1 L684 36 L740 55 L740 342 Q740 368 732 376 Q724 384 707 384 L585 384 L585 120 Q585 105 585.5 92.5 Q586 80 590.5 70.5 Q595 61 603.5 54 Q612 47 629 43 L651 37 L651 0 Q639 1 618 1.5 Q597 2 574.5 2.5 Q552 3 531 3 Q510 3 498 3 Q486 3 467 2.5 Q448 2 427.5 1.5 Q407 1 388.5 0.5 Q370 0 360 0 L360 37 L405 56 L405 384 L256 384 L256 120 Q256 105 256.5 92.5 Q257 80 261.5 70.5 Q266 61 274.5 54 Q283 47 300 43 L322 37 L322 0 Q310 1 289 1.5 Q268 2 245.5 2.5 Q223 3 202 3 Q181 3 169 3 Q157 3 138 2.5 Q119 2 98.5 1.5 Q78 1 59.5 0.5 Q41 0 31 0 L31 37 L76 56 L76 384 L11 384 L11 444 L76 444 L76 446 Q76 501 94 542.5 Q112 584 143.5 612 Q175 640 217 653.5 Q259 667 307 667 Q359 667 407 653.5 Q455 640 481 620 Q519 650 569.5 665 Q620 680 679 680 Q723 680 762 673.5 Q801 667 830 654 Q859 641 875.5 623 Q892 605 892 583 Q892 567 885.5 552 Q879 537 868.5 525 Q858 513 844 506 Q830 499 814 499 Q791 499 776.5 517 Q762 535 747 557 Q732 579 714 597 Q696 615 667 615 Z " />
<glyph glyph-name="f_f_l" unicode="&#xfb04;" horiz-adv-x="980" d="M472 626 Q501 652 544 666 Q587 680 646 680 Q685 680 714 676 Q743 672 772.5 667 Q802 662 835 658 Q868 654 915 654 L915 90 Q915 70 922 59 Q929 48 949 43 L971 37 L971 0 Q959 1 939.5 1.5 Q920 2 899.5 2.5 Q879 3 859.5 3 Q840 3 828 3 Q816 3 795.5 2.5 Q775 2 752.5 1.5 Q730 1 710 0.5 Q690 0 680 0 L680 37 L735 56 L735 582 Q719 596 701.5 603 Q684 610 662 610 Q626 610 605.5 585.5 Q585 561 585 507 L585 444 L688 444 L677 384 L585 384 L585 120 Q585 105 585.5 92.5 Q586 80 590.5 70.5 Q595 61 603.5 54 Q612 47 629 43 L651 37 L651 0 Q639 1 618 1.5 Q597 2 574.5 2.5 Q552 3 531 3 Q510 3 498 3 Q486 3 467 2.5 Q448 2 427.5 1.5 Q407 1 388.5 0.5 Q370 0 360 0 L360 37 L405 56 L405 384 L256 384 L256 120 Q256 105 256.5 92.5 Q257 80 261.5 70.5 Q266 61 274.5 54 Q283 47 300 43 L322 37 L322 0 Q310 1 289 1.5 Q268 2 245.5 2.5 Q223 3 202 3 Q181 3 169 3 Q157 3 138 2.5 Q119 2 98.5 1.5 Q78 1 59.5 0.5 Q41 0 31 0 L31 37 L76 56 L76 384 L11 384 L11 444 L76 444 L76 446 Q76 501 94 542.5 Q112 584 143.5 612 Q175 640 217 653.5 Q259 667 307 667 Q355 667 400 655 Q445 643 472 626 Z M405 444 L405 454 Q405 492 412 521 Q399 531 387.5 545 Q376 559 363.5 572 Q351 585 337 593.5 Q323 602 306 602 Q280 602 268 582.5 Q256 563 256 513 L256 444 L405 444 Z " />
<glyph glyph-name="grave" unicode="&#x60;" horiz-adv-x="320" d="M31 601 L61 646 Q76 668 95 668 Q114 668 136 648 L289 514 L269 486 L34 585 L31 601 Z " />
<glyph glyph-name="acute" unicode="&#xb4;" horiz-adv-x="320" d="M286 585 L51 486 L31 514 L184 648 Q206 668 225 668 Q244 668 259 646 L289 601 L286 585 Z " />
<glyph glyph-name="dieresis" unicode="&#xa8;" horiz-adv-x="320" d="M322 574 Q322 546 301.5 526 Q281 506 254 506 Q226 506 205 526 Q184 546 184 574 Q184 601 205 620.5 Q226 640 254 640 Q281 640 301.5 620.5 Q322 601 322 574 Z M136 574 Q136 546 115 526 Q94 506 66 506 Q53 506 40.5 511.5 Q28 517 18.5 526 Q9 535 3.5 547.5 Q-2 560 -2 574 Q-2 601 19 620.5 Q40 640 66 640 Q94 640 115 620.5 Q136 601 136 574 Z " />
<glyph glyph-name="circumflex" unicode="&#x2c6;" horiz-adv-x="320" d="M44 490 L5 506 L115 665 L205 665 L315 506 L276 490 L160 586 L44 490 Z " />
<glyph glyph-name="tilde" unicode="&#x2dc;" horiz-adv-x="320" d="M217 506 Q197 506 179.5 512.5 Q162 519 146.5 526.5 Q131 534 116.5 540.5 Q102 547 87 547 Q69 547 58.5 537 Q48 527 42 509 L1 518 Q9 575 38 605 Q67 635 104 635 Q124 635 141.5 628.5 Q159 622 174.5 614.5 Q190 607 204.5 600.5 Q219 594 234 594 Q252 594 262.5 603.5 Q273 613 279 631 L320 622 Q312 565 283 535.5 Q254 506 217 506 Z " />
<glyph glyph-name="macron" unicode="&#xaf;" horiz-adv-x="320" d="M31 523 L31 595 L289 595 L289 523 L31 523 Z " />
<glyph glyph-name="breve" unicode="&#x2d8;" horiz-adv-x="320" d="M289 637 Q289 581 255 543.5 Q221 506 160 506 Q99 506 65 543.5 Q31 581 31 637 L78 637 Q86 611 108 598.5 Q130 586 160 586 Q189 586 212 599 Q235 612 243 637 L289 637 L289 637 Z " />
<glyph glyph-name="dotaccent" unicode="&#x2d9;" horiz-adv-x="320" d="M236 577 Q236 562 230 548 Q224 534 213.5 523 Q203 512 189 505.5 Q175 499 160 499 Q144 499 130 505.5 Q116 512 105.5 523 Q95 534 89 548 Q83 562 83 577 Q83 609 105.5 630.5 Q128 652 160 652 Q191 652 213.5 630.5 Q236 609 236 577 Z " />
<glyph glyph-name="ring" unicode="&#x2da;" horiz-adv-x="320" d="M257 607 Q257 587 249.5 569.5 Q242 552 228.5 539 Q215 526 197.5 518.5 Q180 511 160 511 Q120 511 91.5 538.5 Q63 566 63 606 Q63 626 70.5 643.5 Q78 661 91.5 674 Q105 687 122.5 694.5 Q140 702 160 702 Q200 702 228.5 674.5 Q257 647 257 607 Z M200 607 Q200 628 188.5 639.5 Q177 651 160 651 Q143 651 131.5 639 Q120 627 120 606 Q120 585 131.5 573 Q143 561 160 561 Q177 561 188.5 573.5 Q200 586 200 607 Z " />
<glyph glyph-name="cedilla" unicode="&#xb8;" horiz-adv-x="320" d="M262 -120 Q262 -156 243.5 -180.5 Q225 -205 196.5 -219.5 Q168 -234 133.5 -239.5 Q99 -245 66 -242 L61 -198 Q108 -191 136.5 -172 Q165 -153 165 -126 Q165 -109 155 -97.5 Q145 -86 118 -81 Q103 -78 100.5 -72 Q98 -66 102 -55 L127 16 L189 16 L173 -31 Q208 -38 235 -59 Q262 -80 262 -120 Z " />
<glyph glyph-name="hungarumlaut" unicode="&#x2dd;" horiz-adv-x="320" d="M168 611 L-20 497 L-40 520 L74 663 Q85 676 94.5 681 Q104 686 113 686 Q131 686 144 666 L171 626 L168 611 Z M358 611 L170 497 L150 520 L264 663 Q275 676 284.5 681 Q294 686 303 686 Q321 686 334 666 L361 626 L358 611 Z " />
<glyph glyph-name="ogonek" unicode="&#x2db;" horiz-adv-x="320" d="M265 -208 Q247 -222 217 -231.5 Q187 -241 157 -241 Q112 -241 81.5 -217.5 Q51 -194 51 -149 Q51 -121 65.5 -93 Q80 -65 104 -41.5 Q128 -18 159 -0.5 Q190 17 222 25 L247 0 Q227 -9 209.5 -24 Q192 -39 179.5 -56.5 Q167 -74 159.5 -93.5 Q152 -113 152 -132 Q152 -153 163 -165 Q174 -177 197 -177 Q211 -177 224 -174 Q237 -171 248 -166 L265 -208 Z " />
<glyph glyph-name="caron" unicode="&#x2c7;" horiz-adv-x="320" d="M160 575 L276 671 L315 655 L205 496 L115 496 L5 655 L44 671 L160 575 Z " />
<glyph glyph-name="commaaccent" unicode="&#xf6c3;" horiz-adv-x="320" d="M235 -143 Q234 -191 203 -238 Q172 -285 109 -323 L90 -294 Q153 -237 153 -200 Q153 -185 142.5 -176 Q132 -167 119 -158.5 Q106 -150 95.5 -139 Q85 -128 85 -108 Q85 -86 104 -67 Q123 -48 154 -48 Q189 -48 212 -74 Q235 -100 235 -143 Z " />
<glyph glyph-name="zero" unicode="0" horiz-adv-x="570" d="M350 313 Q350 367 347.5 415 Q345 463 338 499.5 Q331 536 318 557.5 Q305 579 284 579 Q263 579 250.5 558 Q238 537 231.5 501 Q225 465 222.5 416.5 Q220 368 220 313 Q220 258 222.5 209.5 Q225 161 231.5 124.5 Q238 88 250.5 67 Q263 46 284 46 Q305 46 318 67.5 Q331 89 338 125.5 Q345 162 347.5 210.5 Q350 259 350 313 Z M542 313 Q542 254 529 195 Q516 136 486 89.5 Q456 43 406.5 14 Q357 -15 284 -15 Q234 -15 195 -0.5 Q156 14 127.5 38.5 Q99 63 79.5 95.5 Q60 128 48.5 164.5 Q37 201 32 239 Q27 277 27 313 Q27 367 38.5 424.5 Q50 482 79.5 530 Q109 578 158.5 609 Q208 640 284 640 Q357 640 406.5 611 Q456 582 486 535.5 Q516 489 529 430.5 Q542 372 542 313 Z " />
<glyph glyph-name="one" unicode="1" horiz-adv-x="570" d="M202 480 Q202 505 197 515.5 Q192 526 172 531 L117 545 L117 580 Q183 583 227.5 595.5 Q272 608 302 630 L382 630 L382 92 Q382 69 392.5 59 Q403 49 426 45 L463 39 L463 0 Q451 1 428 1.5 Q405 2 380 2.5 Q355 3 332 3 Q309 3 297 3 Q285 3 260 2.5 Q235 2 207 1.5 Q179 1 155 0.5 Q131 0 121 0 L121 39 L202 58 L202 480 Z " />
<glyph glyph-name="two" unicode="2" horiz-adv-x="570" d="M491 206 Q490 189 489 162.5 Q488 136 487 107 Q486 78 485.5 49.5 Q485 21 485 0 L66 0 L62 47 Q96 82 138 126.5 Q180 171 216.5 221.5 Q253 272 278 327 Q303 382 303 439 Q303 484 284.5 516 Q266 548 224 548 Q193 548 166 530 Q139 512 119 479 L67 508 Q97 571 153 605.5 Q209 640 280 640 Q323 640 362 628.5 Q401 617 430 594 Q459 571 476.5 537.5 Q494 504 494 459 Q494 408 469.5 364 Q445 320 406.5 280 Q368 240 322.5 204 Q277 168 235 133 L364 133 Q401 133 419 149.5 Q437 166 445 210 L491 206 Z " />
<glyph glyph-name="three" unicode="3" horiz-adv-x="570" d="M146 360 Q228 362 263 392 Q298 422 298 472 Q298 512 275.5 532.5 Q253 553 221 553 Q189 553 163 537.5 Q137 522 117 496 L70 529 Q99 581 153.5 610.5 Q208 640 280 640 Q323 640 358.5 630.5 Q394 621 420 602.5 Q446 584 460.5 557 Q475 530 475 496 Q475 439 437.5 397 Q400 355 312 338 L312 336 Q361 334 396 321 Q431 308 453.5 286.5 Q476 265 486 236.5 Q496 208 496 177 Q496 136 475.5 100.5 Q455 65 420 39.5 Q385 14 338.5 -0.5 Q292 -15 240 -15 Q157 -15 106.5 12.5 Q56 40 56 85 Q56 114 75.5 134.5 Q95 155 122 155 Q144 155 155.5 137.5 Q167 120 177.5 98.5 Q188 77 201.5 59.5 Q215 42 241 42 Q271 42 287.5 75.5 Q304 109 304 167 Q304 239 263.5 271.5 Q223 304 146 309 L146 360 Z " />
<glyph glyph-name="four" unicode="4" horiz-adv-x="570" d="M451 133 L451 122 Q451 86 457.5 69.5 Q464 53 495 45 L517 39 L517 0 Q503 0 480.5 0.5 Q458 1 434.5 1.5 Q411 2 389.5 2.5 Q368 3 356 3 Q344 3 322 2.5 Q300 2 276.5 1.5 Q253 1 232 0.5 Q211 0 201 0 L201 39 L272 58 L272 133 L31 133 L24 172 L323 625 L451 625 L451 226 L526 226 L526 133 L451 133 Z M135 226 L272 226 L272 432 L135 226 Z " />
<glyph glyph-name="five" unicode="5" horiz-adv-x="570" d="M120 155 Q143 155 155 137.5 Q167 120 177.5 98.5 Q188 77 201.5 59.5 Q215 42 240 42 Q262 42 274.5 60 Q287 78 294 103.5 Q301 129 303 155.5 Q305 182 305 200 Q305 274 286.5 306.5 Q268 339 226 339 Q206 339 186.5 332.5 Q167 326 153 313 L101 330 L112 625 L471 625 L446 492 L173 492 L170 384 Q210 407 270 407 Q325 407 367 391 Q409 375 438 347.5 Q467 320 482 283.5 Q497 247 497 206 Q497 159 477.5 119 Q458 79 423.5 49 Q389 19 341.5 2 Q294 -15 238 -15 Q205 -15 172 -9 Q139 -3 113.5 9.5 Q88 22 72 41.5 Q56 61 56 88 Q56 113 74.5 134 Q93 155 120 155 Z " />
<glyph glyph-name="six" unicode="6" horiz-adv-x="570" d="M529 197 Q529 149 512 110 Q495 71 463.5 43.5 Q432 16 387.5 0.5 Q343 -15 287 -15 Q225 -15 179 4 Q133 23 102.5 55 Q72 87 57 130 Q42 173 42 220 Q42 297 72 363.5 Q102 430 152 484 Q202 538 268.5 577.5 Q335 617 409 641 L429 593 Q369 558 327.5 505.5 Q286 453 271 387 Q285 392 303 394 Q321 396 340 396 Q384 396 419 381.5 Q454 367 478.5 340.5 Q503 314 516 277.5 Q529 241 529 197 Z M342 197 Q342 218 340 240 Q338 262 331.5 280 Q325 298 313.5 309.5 Q302 321 283 321 Q270 321 252 315 Q244 283 239.5 248 Q235 213 235 180 Q235 122 249 83.5 Q263 45 289 45 Q304 45 314 57 Q324 69 330.5 90 Q337 111 339.5 138.5 Q342 166 342 197 Z " />
<glyph glyph-name="seven" unicode="7" horiz-adv-x="570" d="M333 0 L157 0 L401 492 L212 492 Q192 492 177.5 489.5 Q163 487 151.5 479 Q140 471 130.5 455.5 Q121 440 113 414 L67 418 Q70 431 73 456.5 Q76 482 79 512.5 Q82 543 84 573 Q86 603 86 625 L505 625 L519 589 L333 0 Z " />
<glyph glyph-name="eight" unicode="8" horiz-adv-x="570" d="M496 496 Q496 456 467 422.5 Q438 389 396 369 Q424 354 450 336 Q476 318 496 295.5 Q516 273 528.5 244.5 Q541 216 541 180 Q541 135 520.5 99 Q500 63 465.5 37.5 Q431 12 385 -1.5 Q339 -15 288 -15 Q238 -15 195 -4 Q152 7 120 28.5 Q88 50 70 81.5 Q52 113 52 153 Q52 201 85.5 238 Q119 275 176 298 Q136 326 108 365 Q80 404 80 464 Q80 503 96.5 535 Q113 567 142 590.5 Q171 614 211 627 Q251 640 299 640 Q344 640 380.5 628.5 Q417 617 442.5 597.5 Q468 578 482 552 Q496 526 496 496 Z M374 126 Q374 147 365.5 163.5 Q357 180 341 194.5 Q325 209 302 223 Q279 237 249 253 Q227 228 217 198 Q207 168 207 138 Q207 98 230 71.5 Q253 45 291 45 Q326 45 350 68.5 Q374 92 374 126 Z M235 514 Q235 479 261.5 454.5 Q288 430 326 408 Q346 430 357.5 455 Q369 480 369 509 Q369 541 350 560.5 Q331 580 302 580 Q270 580 252.5 559.5 Q235 539 235 514 Z " />
<glyph glyph-name="nine" unicode="9" horiz-adv-x="570" d="M41 429 Q41 477 58 516 Q75 555 106.5 582.5 Q138 610 182.5 625.5 Q227 641 283 641 Q345 641 391 622 Q437 603 467.5 570.5 Q498 538 513 495.5 Q528 453 528 406 Q528 329 498 262.5 Q468 196 418 142 Q368 88 301 48.5 Q234 9 161 -15 L141 33 Q201 68 242.5 120.5 Q284 173 299 239 Q270 230 230 230 Q186 230 151 244.5 Q116 259 91.5 285 Q67 311 54 348 Q41 385 41 429 Z M228 429 Q228 408 230 386 Q232 364 238.5 346 Q245 328 256.5 316.5 Q268 305 287 305 Q300 305 318 311 Q326 343 330.5 378 Q335 413 335 446 Q335 504 321 542.5 Q307 581 281 581 Q266 581 256 569 Q246 557 239.5 536 Q233 515 230.5 487.5 Q228 460 228 429 Z " />
<glyph glyph-name="dollar" unicode="&#x24;" horiz-adv-x="570" d="M124 161 Q134 116 164.5 86.5 Q195 57 245 57 L245 236 Q215 250 184.5 265.5 Q154 281 128.5 304.5 Q103 328 87 361 Q71 394 71 442 Q71 480 85 515 Q99 550 126.5 577 Q154 604 194 621 Q234 638 285 640 L285 738 L331 738 L331 638 Q403 630 444.5 589.5 Q486 549 491 482 L434 472 Q426 521 398 544 Q370 567 331 571 L331 394 Q361 380 391.5 365 Q422 350 447.5 329 Q473 308 489 277.5 Q505 247 505 204 Q505 169 493.5 132.5 Q482 96 456.5 65 Q431 34 390.5 12.5 Q350 -9 291 -14 L291 -125 L245 -125 L245 -14 Q213 -12 183.5 -2 Q154 8 129.5 28 Q105 48 88.5 78.5 Q72 109 66 151 L124 161 Z M227 496 Q227 468 243 449.5 Q259 431 285 417 L285 568 Q257 560 242 540.5 Q227 521 227 496 Z M345 134 Q345 161 329.5 179 Q314 197 291 212 L291 63 Q345 78 345 134 Z " />
<glyph glyph-name="cent" unicode="&#xa2;" horiz-adv-x="570" d="M379 450 Q427 438 457.5 407.5 Q488 377 511 329 L464 300 Q447 326 426 339 Q405 352 379 356 L379 89 Q409 93 431.5 106.5 Q454 120 469 140 L512 116 Q491 73 460.5 41 Q430 9 379 -5 L379 -72 L333 -72 L333 -13 Q326 -13 319.5 -13.5 Q313 -14 306 -14 Q252 -14 209.5 2.5 Q167 19 138 49.5 Q109 80 93.5 123 Q78 166 78 219 Q78 272 95.5 316 Q113 360 144 391.5 Q175 423 217.5 440.5 Q260 458 309 458 Q315 458 321 457.5 Q327 457 333 457 L333 522 L379 522 L379 450 Z M249 224 Q249 173 270 135 Q291 97 333 89 L333 355 Q295 347 272 312.5 Q249 278 249 224 Z " />
<glyph glyph-name="Euro" unicode="&#x20ac;" horiz-adv-x="570" d="M279 228 Q282 197 291 169.5 Q300 142 314.5 122 Q329 102 348.5 90 Q368 78 392 78 Q424 78 451 93 Q478 108 506 141 L550 107 Q476 -15 335 -15 Q278 -15 234.5 2.5 Q191 20 160 52 Q129 84 110.5 128.5 Q92 173 85 228 L20 228 L30 282 L80 282 L80 342 L20 342 L30 396 L86 396 Q94 453 116 498 Q138 543 173 574.5 Q208 606 254 623 Q300 640 356 640 Q423 640 473 610 Q523 580 555 523 L511 489 Q479 519 451.5 533 Q424 547 392 547 Q368 547 348.5 535.5 Q329 524 314.5 503.5 Q300 483 291 455.5 Q282 428 279 396 L420 396 L410 342 L275 342 L275 282 L420 282 L410 228 L279 228 Z " />
<glyph glyph-name="florin" unicode="&#x192;" horiz-adv-x="570" d="M-70 -81 Q-53 -101 -30.5 -113.5 Q-8 -126 15 -126 Q35 -126 49.5 -117.5 Q64 -109 75.5 -89.5 Q87 -70 95.5 -39 Q104 -8 112 37 L168 345 L93 345 L112 399 L179 399 Q204 520 265 580 Q326 640 413 640 Q490 640 525 614.5 Q560 589 560 555 Q560 541 555 526 Q550 511 541 499 Q532 487 519 479 Q506 471 489 471 Q466 471 457 488.5 Q448 506 442.5 526.5 Q437 547 429.5 564.5 Q422 582 403 582 Q374 582 362 514 L341 399 L444 399 L423 345 L332 345 L280 53 Q267 -20 251.5 -66 Q236 -112 211 -144 Q163 -207 70 -207 Q23 -207 -23 -182.5 Q-69 -158 -104 -115 L-70 -81 Z " />
<glyph glyph-name="sterling" unicode="&#xa3;" horiz-adv-x="570" d="M404 -14 Q366 -14 326.5 3.5 Q287 21 250 44 Q210 -15 142 -15 Q94 -15 63 12 Q32 39 32 80 Q32 112 53 135 Q74 158 119 158 Q121 158 124 158 Q127 158 132 157 L132 313 L57 313 L57 367 L132 367 L132 411 Q132 471 146.5 513 Q161 555 188 583 Q243 640 341 640 Q381 640 412.5 632 Q444 624 466 610.5 Q488 597 499.5 579.5 Q511 562 511 544 Q511 532 505.5 520 Q500 508 491 498.5 Q482 489 469.5 482.5 Q457 476 443 476 Q423 476 412.5 493 Q402 510 394 531 Q386 552 376 569 Q366 586 347 586 Q324 586 313.5 561 Q303 536 303 481 L303 367 L408 367 L396 313 L303 313 Q303 207 285 132 Q317 126 349 121.5 Q381 117 410 117 Q448 117 471 126 Q494 135 519 159 L549 139 Q529 58 494 22 Q459 -14 404 -14 Z M111 58 Q124 58 128 70 Q132 82 132 108 Q121 111 114 111 Q101 111 94.5 103 Q88 95 88 84 Q88 73 94 65.5 Q100 58 111 58 Z " />
<glyph glyph-name="yen" unicode="&#xa5;" horiz-adv-x="570" d="M347 347 L438 569 L388 586 L388 625 Q408 625 434.5 623.5 Q461 622 484 622 Q509 622 525 622.5 Q541 623 566 625 L566 586 Q550 584 540.5 581 Q531 578 524.5 572.5 Q518 567 513 557.5 Q508 548 502 534 L401 297 L493 297 L483 243 L383 243 L383 182 L493 182 L483 128 L383 128 L383 120 Q383 105 383.5 93 Q384 81 388.5 72 Q393 63 401.5 56 Q410 49 427 45 L449 39 L449 0 Q437 1 415 1.5 Q393 2 370 2.5 Q347 3 325 3 Q303 3 291 3 Q279 3 258 2.5 Q237 2 214 1.5 Q191 1 171 0.5 Q151 0 141 0 L141 39 L202 58 L202 128 L82 128 L92 182 L202 182 L202 243 L82 243 L92 297 L191 297 L83 514 Q72 535 64 547.5 Q56 560 48 568 Q40 576 30 579.5 Q20 583 6 586 L6 625 Q18 624 37.5 623.5 Q57 623 78 622.5 Q99 622 119 622 Q139 622 151 622 Q163 622 182.5 622.5 Q202 623 223 623.5 Q244 624 263 624.5 Q282 625 292 625 L292 586 L243 569 L347 347 Z " />
<glyph glyph-name="numbersign" unicode="&#x23;" horiz-adv-x="570" d="M233 272 L318 272 L336 357 L251 357 L233 272 Z M414 272 L506 272 L487 181 L395 181 L354 -15 L257 -15 L298 181 L214 181 L173 -15 L76 -15 L117 181 L24 181 L44 272 L137 272 L155 357 L63 357 L82 448 L174 448 L216 640 L312 640 L271 448 L355 448 L397 640 L493 640 L452 448 L545 448 L525 357 L432 357 L414 272 Z " />
<glyph glyph-name="percent" unicode="&#x25;" horiz-adv-x="852" d="M202 587 Q184 587 176 555.5 Q168 524 168 442 Q168 401 170 373 Q172 345 176 328 Q180 311 186.5 304 Q193 297 202 297 Q211 297 217.5 304 Q224 311 228 328 Q232 345 234 373 Q236 401 236 442 Q236 524 228 555.5 Q220 587 202 587 Z M202 254 Q128 254 84 304.5 Q40 355 40 442 Q40 529 84 579.5 Q128 630 202 630 Q276 630 320 579.5 Q364 529 364 442 Q364 355 320 304.5 Q276 254 202 254 Z M650 318 Q632 318 624 286.5 Q616 255 616 173 Q616 132 618 104 Q620 76 624 59 Q628 42 634.5 35 Q641 28 650 28 Q659 28 665.5 35 Q672 42 676 59 Q680 76 682 104 Q684 132 684 173 Q684 255 676 286.5 Q668 318 650 318 Z M650 -15 Q576 -15 532 35.5 Q488 86 488 173 Q488 260 532 310.5 Q576 361 650 361 Q724 361 768 310.5 Q812 260 812 173 Q812 86 768 35.5 Q724 -15 650 -15 Z M265 -15 L195 -15 L598 640 L668 640 L265 -15 Z " />
<glyph glyph-name="perthousand" unicode="&#x2030;" horiz-adv-x="1213" d="M1011 318 Q993 318 985 286.5 Q977 255 977 173 Q977 132 979 104 Q981 76 985 59 Q989 42 995.5 35 Q1002 28 1011 28 Q1020 28 1026.5 35 Q1033 42 1037 59 Q1041 76 1043 104 Q1045 132 1045 173 Q1045 255 1037 286.5 Q1029 318 1011 318 Z M1011 -15 Q937 -15 893 35.5 Q849 86 849 173 Q849 260 893 310.5 Q937 361 1011 361 Q1085 361 1129 310.5 Q1173 260 1173 173 Q1173 86 1129 35.5 Q1085 -15 1011 -15 Z M650 318 Q632 318 624 286.5 Q616 255 616 173 Q616 132 618 104 Q620 76 624 59 Q628 42 634.5 35 Q641 28 650 28 Q659 28 665.5 35 Q672 42 676 59 Q680 76 682 104 Q684 132 684 173 Q684 255 676 286.5 Q668 318 650 318 Z M650 -15 Q576 -15 532 35.5 Q488 86 488 173 Q488 260 532 310.5 Q576 361 650 361 Q724 361 768 310.5 Q812 260 812 173 Q812 86 768 35.5 Q724 -15 650 -15 Z M265 -15 L195 -15 L598 640 L668 640 L265 -15 Z M202 587 Q184 587 176 555.5 Q168 524 168 442 Q168 401 170 373 Q172 345 176 328 Q180 311 186.5 304 Q193 297 202 297 Q211 297 217.5 304 Q224 311 228 328 Q232 345 234 373 Q236 401 236 442 Q236 524 228 555.5 Q220 587 202 587 Z M202 254 Q128 254 84 304.5 Q40 355 40 442 Q40 529 84 579.5 Q128 630 202 630 Q276 630 320 579.5 Q364 529 364 442 Q364 355 320 304.5 Q276 254 202 254 Z " />
<glyph glyph-name="plus" unicode="&#x2b;" horiz-adv-x="460" d="M281 172 L281 49 L178 49 L178 172 L56 172 L56 275 L178 275 L178 397 L281 397 L281 275 L404 275 L404 172 L281 172 Z " />
<glyph glyph-name="minus" unicode="&#x2212;" horiz-adv-x="460" d="M56 172 L56 275 L404 275 L404 172 L56 172 Z " />
<glyph glyph-name="multiply" unicode="&#xd7;" horiz-adv-x="460" d="M302 223 L389 136 L316 63 L229 150 L143 64 L70 137 L156 223 L70 309 L143 382 L229 296 L316 383 L389 310 L302 223 Z " />
<glyph glyph-name="less" unicode="&#x3c;" horiz-adv-x="460" d="M56 178 L56 269 L404 438 L404 325 L202 224 L404 124 L404 10 L56 178 Z " />
<glyph glyph-name="divide" unicode="&#xf7;" horiz-adv-x="460" d="M300 387 Q300 360 280.5 340.5 Q261 321 234 321 Q206 321 186.5 340.5 Q167 360 167 387 Q167 415 186.5 434 Q206 453 234 453 Q261 453 280.5 434 Q300 415 300 387 Z M56 172 L56 275 L404 275 L404 172 L56 172 Z M300 61 Q300 34 280.5 14.5 Q261 -5 234 -5 Q206 -5 186.5 14.5 Q167 34 167 61 Q167 89 186.5 108 Q206 127 234 127 Q261 127 280.5 108 Q300 89 300 61 Z " />
<glyph glyph-name="equal" unicode="&#x3d;" horiz-adv-x="460" d="M56 251 L56 354 L404 354 L404 251 L56 251 Z M56 93 L56 196 L404 196 L404 93 L56 93 Z " />
<glyph glyph-name="logicalnot" unicode="&#xac;" horiz-adv-x="460" d="M301 93 L301 251 L56 251 L56 354 L404 354 L404 93 L301 93 Z " />
<glyph glyph-name="greater" unicode="&#x3e;" horiz-adv-x="460" d="M56 10 L56 124 L258 225 L56 325 L56 438 L404 269 L404 178 L56 10 Z " />
<glyph glyph-name="notequal" unicode="&#x2260;" horiz-adv-x="460" d="M207 93 L182 37 L108 37 L133 93 L56 93 L56 196 L180 196 L205 251 L56 251 L56 354 L252 354 L278 410 L353 410 L327 354 L404 354 L404 251 L280 251 L255 196 L404 196 L404 93 L207 93 Z " />
<glyph glyph-name="approxequal" unicode="&#x2248;" horiz-adv-x="460" d="M389 364 Q386 304 359 273 Q332 242 287 242 Q266 242 248 249.5 Q230 257 213 266 Q200 273 187.5 278.5 Q175 284 162 284 Q134 284 122 242 L70 242 Q75 304 105.5 333.5 Q136 363 174 363 Q197 363 214.5 355.5 Q232 348 249 340 Q260 334 273 328.5 Q286 323 298 323 Q314 323 322.5 335 Q331 347 336 364 L389 364 Z M389 206 Q386 146 359 115 Q332 84 287 84 Q266 84 248 91.5 Q230 99 213 108 Q200 115 187.5 120.5 Q175 126 162 126 Q134 126 122 84 L70 84 Q75 146 105.5 175.5 Q136 205 174 205 Q197 205 214.5 197.5 Q232 190 249 182 Q260 176 273 170.5 Q286 165 298 165 Q314 165 322.5 177 Q331 189 336 206 L389 206 Z " />
<glyph glyph-name="plusminus" unicode="&#xb1;" horiz-adv-x="460" d="M281 279 L281 156 L178 156 L178 279 L56 279 L56 382 L178 382 L178 504 L281 504 L281 382 L404 382 L404 279 L281 279 Z M56 0 L56 103 L404 103 L404 0 L56 0 Z " />
<glyph glyph-name="lessequal" unicode="&#x2264;" horiz-adv-x="460" d="M56 285 L56 376 L404 545 L404 432 L202 331 L404 231 L404 117 L56 285 Z M56 0 L56 103 L404 103 L404 0 L56 0 Z " />
<glyph glyph-name="greaterequal" unicode="&#x2265;" horiz-adv-x="460" d="M56 117 L56 231 L258 332 L56 432 L56 545 L404 376 L404 285 L56 117 Z M56 0 L56 103 L404 103 L404 0 L56 0 Z " />
<glyph glyph-name="asciicircum" unicode="&#x5e;" horiz-adv-x="460" d="M322 338 L230 502 L138 338 L17 338 L188 625 L273 625 L443 338 L322 338 Z " />
<glyph glyph-name="asciitilde" unicode="&#x7e;" horiz-adv-x="460" d="M438 398 Q434 320 399.5 279.5 Q365 239 306 239 Q277 239 254.5 249 Q232 259 209 270 Q192 278 175.5 285.5 Q159 293 143 293 Q107 293 90 239 L22 239 Q30 320 68.5 358.5 Q107 397 157 397 Q186 397 210.5 387.5 Q235 378 256 367 Q270 359 287 351.5 Q304 344 319 344 Q340 344 351.5 359.5 Q363 375 370 398 L438 398 L438 398 Z " />
<glyph glyph-name="lozenge" unicode="&#x25ca;" horiz-adv-x="531" d="M234 0 L34 316 L234 625 L297 625 L497 316 L297 0 L234 0 Z M265 521 L133 316 L265 104 L398 316 L265 521 Z " />
<glyph glyph-name="degree" unicode="&#xb0;" horiz-adv-x="336" d="M312 501 Q312 476 303.5 451.5 Q295 427 277 407 Q259 387 232 374.5 Q205 362 168 362 Q131 362 104 374.5 Q77 387 59 407 Q41 427 32.5 451.5 Q24 476 24 501 Q24 526 32.5 550.5 Q41 575 59 595 Q77 615 104 627.5 Q131 640 168 640 Q205 640 232 627.5 Q259 615 277 595 Q295 575 303.5 550.5 Q312 526 312 501 Z M231 501 Q231 530 215 551 Q199 572 168 572 Q137 572 121 551 Q105 530 105 501 Q105 472 121 451 Q137 430 168 430 Q199 430 215 451 Q231 472 231 501 Z " />
<glyph glyph-name="quotesingle" unicode="&#x27;" horiz-adv-x="207" d="M173 561 Q173 537 167.5 513.5 Q162 490 154.5 466 Q147 442 140.5 417.5 Q134 393 131 368 L75 368 Q73 390 66 415.5 Q59 441 52 466.5 Q45 492 39.5 516.5 Q34 541 34 561 Q34 576 37.5 590.5 Q41 605 49 616 Q57 627 70 633.5 Q83 640 103 640 Q143 640 158 616 Q173 592 173 561 Z " />
<glyph glyph-name="quotedbl" unicode="&#x22;" horiz-adv-x="389" d="M173 561 Q173 537 167.5 513.5 Q162 490 154.5 466 Q147 442 140.5 417.5 Q134 393 131 368 L75 368 Q73 390 66 415.5 Q59 441 52 466.5 Q45 492 39.5 516.5 Q34 541 34 561 Q34 576 37.5 590.5 Q41 605 49 616 Q57 627 70 633.5 Q83 640 103 640 Q143 640 158 616 Q173 592 173 561 Z M355 561 Q355 537 349.5 513.5 Q344 490 336.5 466 Q329 442 322.5 417.5 Q316 393 313 368 L257 368 Q255 390 248 415.5 Q241 441 234 466.5 Q227 492 221.5 516.5 Q216 541 216 561 Q216 576 219.5 590.5 Q223 605 231 616 Q239 627 252 633.5 Q265 640 285 640 Q325 640 340 616 Q355 592 355 561 Z " />
<glyph glyph-name="radical" unicode="&#x221a;" horiz-adv-x="645" d="M164 444 Q188 444 205.5 441.5 Q223 439 235.5 432 Q248 425 257 412 Q266 399 274 378 L360 146 L502 551 Q516 592 540.5 608.5 Q565 625 613 625 L663 625 L663 566 L631 566 Q606 566 593.5 556.5 Q581 547 572 521 L391 -2 L269 -2 L130 353 Q126 362 122.5 368.5 Q119 375 113.5 378.5 Q108 382 99.5 383.5 Q91 385 78 385 L36 385 L36 444 L164 444 Z " />
<glyph glyph-name="currency" unicode="&#xa4;" horiz-adv-x="570" d="M285 110 Q229 110 186 128 L143 62 L69 62 L136 157 Q101 185 83 225 Q65 265 65 313 Q65 361 83 400.5 Q101 440 136 468 L69 567 L143 567 L188 498 Q230 516 285 516 Q335 516 376 501 L420 567 L494 567 L429 472 Q465 444 485 403 Q505 362 505 313 Q505 263 485.5 222.5 Q466 182 429 154 L494 62 L420 62 L377 125 Q336 110 285 110 Z M285 172 Q309 172 317.5 204 Q326 236 326 313 Q326 390 317.5 422 Q309 454 285 454 Q261 454 252.5 422 Q244 390 244 313 Q244 236 252.5 204 Q261 172 285 172 Z " />
<glyph glyph-name="infinity" unicode="&#x221e;" horiz-adv-x="700" d="M180 372 Q148 372 131.5 354.5 Q115 337 115 311 Q115 285 133 268 Q151 251 181 251 Q208 251 235 261.5 Q262 272 281 292 Q259 329 234 350.5 Q209 372 180 372 Z M477 134 Q430 134 394 155.5 Q358 177 326 221 Q303 181 268.5 157.5 Q234 134 193 134 Q167 134 143 146.5 Q119 159 101 182.5 Q83 206 72 239.5 Q61 273 61 315 Q61 359 73 395.5 Q85 432 106.5 458 Q128 484 158 498 Q188 512 223 512 Q270 512 306 490.5 Q342 469 374 425 Q397 465 431.5 488.5 Q466 512 507 512 Q533 512 557 499.5 Q581 487 599 463.5 Q617 440 628 406.5 Q639 373 639 331 Q639 287 627 250.5 Q615 214 593.5 188 Q572 162 542 148 Q512 134 477 134 Z M520 274 Q552 274 568.5 291.5 Q585 309 585 335 Q585 361 567 378 Q549 395 519 395 Q492 395 465 384.5 Q438 374 419 354 Q441 317 466 295.5 Q491 274 520 274 Z " />
<glyph glyph-name="uni00B5" unicode="&#xb5;" horiz-adv-x="598" d="M509 113 Q509 85 519 74 Q529 63 549 63 Q558 63 571 65 Q584 67 594 71 L594 21 Q567 7 528 -2 Q489 -11 451 -11 Q411 -11 386.5 6.5 Q362 24 353 51 Q340 25 321 5 Q302 -15 273 -15 Q241 -15 224 5 Q225 -28 226 -55.5 Q227 -83 228 -108 Q229 -133 230 -157 Q231 -181 232 -208 L51 -227 Q53 -163 53.5 -94 Q54 -25 54 53 L54 232 Q54 299 53 351.5 Q52 404 50 441 L237 460 Q235 409 234.5 352.5 Q234 296 234 236 L234 145 Q234 116 244.5 95 Q255 74 284 74 Q299 74 310 79 Q321 84 329 91 L329 232 Q329 299 328 351.5 Q327 404 325 441 L512 460 Q510 409 509.5 352.5 Q509 296 509 236 L509 113 Z " />
<glyph glyph-name="partialdiff" unicode="&#x2202;" horiz-adv-x="550" d="M38 195 Q38 240 52 277 Q66 314 91 340.5 Q116 367 151.5 381.5 Q187 396 229 396 Q247 396 259.5 394 Q272 392 286 387 Q271 453 230.5 505.5 Q190 558 130 593 L150 641 Q223 617 287.5 577.5 Q352 538 400 484 Q448 430 475.5 363.5 Q503 297 503 220 Q503 173 488 130.5 Q473 88 442.5 55.5 Q412 23 366 4 Q320 -15 258 -15 Q202 -15 160.5 0 Q119 15 92 42.5 Q65 70 51.5 109 Q38 148 38 195 Z M211 193 Q211 162 213.5 135.5 Q216 109 221.5 89.5 Q227 70 236.5 59 Q246 48 260 48 Q286 48 302 85 Q318 122 318 180 Q318 213 315.5 248.5 Q313 284 305 316 Q290 321 279 321 Q259 321 246 309 Q233 297 225.5 278.5 Q218 260 214.5 237 Q211 214 211 193 Z " />
<glyph glyph-name="summation" unicode="&#x2211;" horiz-adv-x="545" d="M15 -74 L4 -56 L250 277 L18 683 L31 700 L497 700 Q497 685 497.5 662.5 Q498 640 498.5 616.5 Q499 593 500 572 Q501 551 502 540 L456 540 L402 638 L225 638 L381 357 Q390 341 382 330 L185 60 L365 60 Q388 60 403 63.5 Q418 67 428.5 75 Q439 83 445 96 Q451 109 456 128 L507 128 Q505 110 503.5 82 Q502 54 500.5 24 Q499 -6 498 -33 Q497 -60 497 -74 L15 -74 Z " />
<glyph glyph-name="product" unicode="&#x220f;" horiz-adv-x="767" d="M676 48 Q676 33 676.5 20.5 Q677 8 681.5 -1.5 Q686 -11 694.5 -18 Q703 -25 720 -29 L742 -35 L742 -74 Q730 -73 707.5 -72.5 Q685 -72 661 -71.5 Q637 -71 615 -71 Q593 -71 581 -71 Q569 -71 547 -71.5 Q525 -72 501.5 -72.5 Q478 -73 457 -73.5 Q436 -74 426 -74 L426 -35 L487 -16 L487 638 L280 638 L280 48 Q280 33 280.5 20.5 Q281 8 285.5 -1.5 Q290 -11 298.5 -18 Q307 -25 324 -29 L346 -35 L346 -74 Q334 -73 311.5 -72.5 Q289 -72 265 -71.5 Q241 -71 219 -71 Q197 -71 185 -71 Q173 -71 151 -71.5 Q129 -72 105.5 -72.5 Q82 -73 61 -73.5 Q40 -74 30 -74 L30 -35 L91 -16 L91 578 Q91 593 90.5 605.5 Q90 618 85.5 627.5 Q81 637 72 643.5 Q63 650 47 655 L25 661 L25 700 L742 700 L742 661 L720 655 Q703 650 694.5 643.5 Q686 637 681.5 627.5 Q677 618 676.5 605.5 Q676 593 676 578 L676 48 Z " />
<glyph glyph-name="integral" unicode="&#x222b;" horiz-adv-x="380" d="M280 261 Q280 177 266.5 114 Q253 51 228 9 Q203 -33 169 -53.5 Q135 -74 95 -74 Q45 -74 19.5 -55 Q-6 -36 -6 -7 Q-6 18 9.5 39.5 Q25 61 46 61 Q61 61 69 48.5 Q77 36 84 21.5 Q91 7 98 -5.5 Q105 -18 118 -18 Q135 -18 147 3.5 Q159 25 159 58 Q159 87 150 119.5 Q141 152 129.5 187.5 Q118 223 109 262 Q100 301 100 343 Q100 428 113.5 491 Q127 554 152 596 Q177 638 210.5 658.5 Q244 679 285 679 Q335 679 360.5 660 Q386 641 386 612 Q386 587 370.5 565.5 Q355 544 334 544 Q319 544 311 556.5 Q303 569 296 583.5 Q289 598 282 610.5 Q275 623 262 623 Q245 623 233 601.5 Q221 580 221 547 Q221 518 230 485.5 Q239 453 250.5 417 Q262 381 271 342 Q280 303 280 261 Z " />
<glyph glyph-name="Ohm" unicode="&#x2126;" horiz-adv-x="730" d="M688 160 Q686 142 684.5 120.5 Q683 99 681.5 77 Q680 55 679 34.5 Q678 14 678 0 L400 0 L390 57 Q444 132 464.5 206.5 Q485 281 485 363 Q485 405 478.5 443 Q472 481 458 510 Q444 539 421 556.5 Q398 574 365 574 Q332 574 309 556.5 Q286 539 272 510 Q258 481 251.5 443 Q245 405 245 363 Q245 281 265.5 206.5 Q286 132 340 57 L330 0 L52 0 Q52 14 51 34.5 Q50 55 48.5 77 Q47 99 45 120.5 Q43 142 42 160 L88 160 Q92 145 96.5 135 Q101 125 110 120 Q119 115 133.5 113 Q148 111 172 111 L231 111 Q187 130 152.5 157 Q118 184 94 216.5 Q70 249 57 286.5 Q44 324 44 363 Q44 420 65.5 470 Q87 520 128.5 558 Q170 596 229.5 618 Q289 640 365 640 Q441 640 500.5 618 Q560 596 601 558 Q642 520 664 470 Q686 420 686 363 Q686 324 673 286.5 Q660 249 636 216.5 Q612 184 577 157 Q542 130 498 111 L558 111 Q582 111 596.5 113 Q611 115 620 120 Q629 125 633.5 135 Q638 145 642 160 L688 160 Z " />
<glyph glyph-name="Delta" unicode="&#x2206;" horiz-adv-x="623" d="M22 34 L247 625 L371 625 L601 34 L585 0 L37 0 L22 34 Z M261 446 L121 72 L406 72 L261 446 Z " />
<glyph glyph-name="litre" unicode="&#x2113;" horiz-adv-x="564" d="M304 171 Q304 139 309 117.5 Q314 96 327 82 Q343 64 379 64 Q399 64 425.5 67.5 Q452 71 465 75 L465 27 Q433 6 393.5 -4 Q354 -14 314 -14 Q267 -14 234.5 -5 Q202 4 180 20 Q158 36 146 58 Q134 80 129 105 Q113 100 93 94 Q73 88 56 84 L40 128 Q63 135 83.5 143 Q104 151 124 159 L124 404 Q124 455 137 500 Q150 545 177 577 Q202 606 238 623 Q274 640 324 640 Q358 640 390 630.5 Q422 621 446.5 600.5 Q471 580 485.5 548 Q500 516 500 471 Q500 396 450.5 321 Q401 246 304 185 L304 171 Z M355 478 Q355 530 349 554 Q343 578 329 578 Q313 578 308.5 547 Q304 516 304 443 L304 296 Q331 336 343 381.5 Q355 427 355 478 Z " />
<glyph glyph-name="estimated" unicode="&#x212e;" horiz-adv-x="788" d="M169 305 Q164 305 164 301 L164 122 Q164 111 173 102 Q215 56 272.5 30 Q330 4 394 4 Q466 4 526 33 Q586 62 630 113 L683 113 Q633 55 557.5 20 Q482 -15 393 -15 Q318 -15 252 11 Q186 37 136.5 81 Q87 125 58.5 184.5 Q30 244 30 312 Q30 380 58.5 439.5 Q87 499 136.5 543.5 Q186 588 252 614 Q318 640 393 640 Q469 640 535.5 614 Q602 588 651.5 543.5 Q701 499 729.5 439.5 Q758 380 758 312 L758 305 L169 305 Z M626 506 Q626 517 616 527 Q573 571 516.5 596 Q460 621 394 621 Q330 621 273 595 Q216 569 174 524 Q164 516 164 502 L164 326 Q164 321 169 321 L621 321 Q626 321 626 326 L626 506 Z " />
<glyph glyph-name="numero" unicode="&#x2116;" horiz-adv-x="1061" d="M25 625 L248 625 L541 224 L541 502 Q541 517 540.5 529.5 Q540 542 535.5 551.5 Q531 561 522 567.5 Q513 574 497 579 L475 585 L475 625 Q501 624 530 623 Q559 622 582 622 Q603 622 631.5 623 Q660 624 683 625 L683 585 L622 566 L622 0 L485 0 L172 429 L172 118 Q172 84 179.5 69 Q187 54 216 46 L238 40 L238 0 Q188 3 139 3 Q127 3 112.5 2.5 Q98 2 83 1.5 Q68 1 54 0.5 Q40 0 30 0 L30 40 L91 59 L91 504 Q91 520 90.5 532 Q90 544 85.5 553 Q81 562 72 568 Q63 574 47 579 L25 585 L25 625 Z M851 313 Q875 313 882.5 343 Q890 373 890 425 Q890 477 882.5 507 Q875 537 851 537 Q827 537 819.5 507 Q812 477 812 425 Q812 373 819.5 343 Q827 313 851 313 Z M851 266 Q773 266 730 310.5 Q687 355 687 425 Q687 495 730 539.5 Q773 584 851 584 Q929 584 972 539.5 Q1015 495 1015 425 Q1015 355 972 310.5 Q929 266 851 266 Z M711 170 L711 229 L991 229 L991 170 L711 170 Z " />
<glyph glyph-name="ordfeminine" unicode="&#xaa;" horiz-adv-x="344" d="M180 397 Q131 397 131 347 Q131 306 157 306 Q169 306 180 315 L180 397 Z M334 282 Q320 269 298 261 Q276 253 254 253 Q234 253 217.5 261 Q201 269 193 283 Q181 268 158 259.5 Q135 251 112 251 Q68 251 42 275 Q18 299 18 335 Q18 362 31.5 380 Q45 398 67.5 409 Q90 420 119 425 Q148 430 180 430 L180 443 Q180 466 168.5 478.5 Q157 491 137 491 Q96 491 77 447 L35 463 Q49 498 82.5 521.5 Q116 545 166 545 Q199 545 226 536.5 Q253 528 270 510 Q286 493 292.5 472 Q299 451 299 423 L299 327 Q299 318 302 312.5 Q305 307 314 307 Q324 307 334 311 L334 282 Z " />
<glyph glyph-name="ordmasculine" unicode="&#xba;" horiz-adv-x="360" d="M342 398 Q342 326 299 288.5 Q256 251 180 251 Q104 251 61 288.5 Q18 326 18 398 Q18 470 61 507.5 Q104 545 180 545 Q256 545 299 507.5 Q342 470 342 398 Z M214 398 Q214 452 207 475 Q200 498 180 498 Q160 498 153 475 Q146 452 146 398 Q146 344 153 321 Q160 298 180 298 Q200 298 207 321 Q214 344 214 398 Z " />
<glyph glyph-name="onesuperior" unicode="&#xb9;" horiz-adv-x="366" d="M132 636 Q132 656 127 662.5 Q122 669 100 674 L72 680 L72 711 Q107 711 141 717 Q175 723 193 737 L255 737 L255 437 Q255 422 259 415 Q263 408 282 405 L313 400 L313 369 Q306 369 291.5 369.5 Q277 370 259.5 370.5 Q242 371 225.5 371 Q209 371 199 371 Q189 371 172 371 Q155 371 136.5 370.5 Q118 370 100.5 369.5 Q83 369 72 369 L72 400 L132 413 L132 636 Z " />
<glyph glyph-name="twosuperior" unicode="&#xb2;" horiz-adv-x="366" d="M316 503 Q315 492 314 474 Q313 456 312 436.5 Q311 417 310.5 399 Q310 381 310 369 L51 369 L49 402 Q69 420 91.5 445 Q114 470 133.5 498.5 Q153 527 165.5 557 Q178 587 178 616 Q178 674 138 674 Q121 674 106.5 663.5 Q92 653 80 636 L46 656 Q66 691 100.5 715.5 Q135 740 184 740 Q209 740 231.5 732 Q254 724 271 710 Q288 696 297.5 676.5 Q307 657 307 633 Q307 601 292 576.5 Q277 552 255 532 Q233 512 207.5 494.5 Q182 477 161 459 L246 459 Q266 459 273.5 468.5 Q281 478 286 504 L316 503 Z " />
<glyph glyph-name="threesuperior" unicode="&#xb3;" horiz-adv-x="366" d="M157 409 Q171 409 181 423.5 Q191 438 191 468 Q191 510 170 523.5 Q149 537 97 537 L97 577 Q143 579 164 594.5 Q185 610 185 636 Q185 653 174.5 663.5 Q164 674 145 674 Q128 674 113 666 Q98 658 87 644 L53 663 Q70 698 105.5 719 Q141 740 187 740 Q241 740 273.5 714.5 Q306 689 306 651 Q306 616 283.5 595 Q261 574 224 565 Q271 558 295.5 534 Q320 510 320 474 Q320 431 287 403 Q267 385 236 374.5 Q205 364 164 364 Q107 364 75.5 383.5 Q44 403 44 427 Q44 444 57 458 Q70 472 87 472 Q100 472 108 462 Q116 452 122 440.5 Q128 429 135.5 419 Q143 409 157 409 Z " />
<glyph glyph-name="fraction" unicode="&#x2044;" horiz-adv-x="125" d="M-104 -15 L-174 -15 L229 640 L299 640 L-104 -15 Z " />
<glyph glyph-name="onehalf" unicode="&#xbd;" horiz-adv-x="840" d="M121 526 Q121 546 116 552.5 Q111 559 89 564 L61 570 L61 601 Q96 601 130 607 Q164 613 182 627 L244 627 L244 327 Q244 312 248 305 Q252 298 271 295 L302 290 L302 259 Q295 259 280.5 259.5 Q266 260 248.5 260.5 Q231 261 214.5 261 Q198 261 188 261 Q178 261 161 261 Q144 261 125.5 260.5 Q107 260 89.5 259.5 Q72 259 61 259 L61 290 L121 303 L121 526 Z M784 134 Q783 123 782 105 Q781 87 780 67.5 Q779 48 778.5 30 Q778 12 778 0 L519 0 L517 33 Q537 51 559.5 76 Q582 101 601.5 129.5 Q621 158 633.5 188 Q646 218 646 247 Q646 305 606 305 Q589 305 574.5 294.5 Q560 284 548 267 L514 287 Q534 322 568.5 346.5 Q603 371 652 371 Q677 371 699.5 363 Q722 355 739 341 Q756 327 765.5 307.5 Q775 288 775 264 Q775 232 760 207.5 Q745 183 723 163 Q701 143 675.5 125.5 Q650 108 629 90 L714 90 Q734 90 741.5 99.5 Q749 109 754 135 L784 134 Z M266 -15 L196 -15 L599 640 L669 640 L266 -15 Z " />
<glyph glyph-name="onequarter" unicode="&#xbc;" horiz-adv-x="840" d="M121 526 Q121 546 116 552.5 Q111 559 89 564 L61 570 L61 601 Q96 601 130 607 Q164 613 182 627 L244 627 L244 327 Q244 312 248 305 Q252 298 271 295 L302 290 L302 259 Q295 259 280.5 259.5 Q266 260 248.5 260.5 Q231 261 214.5 261 Q198 261 188 261 Q178 261 161 261 Q144 261 125.5 260.5 Q107 260 89.5 259.5 Q72 259 61 259 L61 290 L121 303 L121 526 Z M618 44 L618 96 L481 96 L479 125 L642 366 L739 366 L739 146 L791 146 L791 96 L739 96 L739 68 Q739 53 743 46 Q747 39 766 36 L797 31 L797 0 Q790 0 775.5 0.5 Q761 1 744.5 1.5 Q728 2 711.5 2 Q695 2 685 2 Q675 2 658 2 Q641 2 622.5 1.5 Q604 1 586.5 0.5 Q569 0 558 0 L558 31 L618 44 Z M618 146 L618 257 L543 146 L618 146 Z M266 -15 L196 -15 L599 640 L669 640 L266 -15 Z " />
<glyph glyph-name="threequarters" unicode="&#xbe;" horiz-adv-x="840" d="M167 299 Q181 299 191 313.5 Q201 328 201 358 Q201 400 180 413.5 Q159 427 107 427 L107 467 Q153 469 174 484.5 Q195 500 195 526 Q195 543 184.5 553.5 Q174 564 155 564 Q138 564 123 556 Q108 548 97 534 L63 553 Q80 588 115.5 609 Q151 630 197 630 Q251 630 283.5 604.5 Q316 579 316 541 Q316 506 293.5 485 Q271 464 234 455 Q281 448 305.5 424 Q330 400 330 364 Q330 321 297 293 Q277 275 246 264.5 Q215 254 174 254 Q117 254 85.5 273.5 Q54 293 54 317 Q54 334 67 348 Q80 362 97 362 Q110 362 118 352 Q126 342 132 330.5 Q138 319 145.5 309 Q153 299 167 299 Z M618 44 L618 96 L481 96 L479 125 L642 366 L739 366 L739 146 L791 146 L791 96 L739 96 L739 68 Q739 53 743 46 Q747 39 766 36 L797 31 L797 0 Q790 0 775.5 0.5 Q761 1 744.5 1.5 Q728 2 711.5 2 Q695 2 685 2 Q675 2 658 2 Q641 2 622.5 1.5 Q604 1 586.5 0.5 Q569 0 558 0 L558 31 L618 44 Z M618 146 L618 257 L543 146 L618 146 Z M266 -15 L196 -15 L599 640 L669 640 L266 -15 Z " />
<glyph glyph-name="Agrave" unicode="&#xc0;" horiz-adv-x="692" d="M189 174 L157 80 Q155 74 155 69 Q155 55 183 46 L205 40 L205 0 Q155 3 104 3 Q92 3 78 2.5 Q64 2 50 1.5 Q36 1 23 0.5 Q10 0 0 0 L0 40 L64 59 L273 625 L399 625 L602 96 Q607 83 612.5 75 Q618 67 627 61 Q636 55 650 50.5 Q664 46 686 40 L686 0 Q674 1 651.5 1.5 Q629 2 605 2.5 Q581 3 558.5 3 Q536 3 524 3 Q512 3 490 2.5 Q468 2 444 1.5 Q420 1 398.5 0.5 Q377 0 367 0 L367 40 L427 59 L384 174 L189 174 Z M211 237 L360 237 L283 442 L211 237 Z M205 763 L235 808 Q250 830 267 830 Q277 830 287.5 824.5 Q298 819 310 810 L457 695 L443 666 L211 747 L205 763 Z " />
<glyph glyph-name="Aacute" unicode="&#xc1;" horiz-adv-x="692" d="M189 174 L157 80 Q155 74 155 69 Q155 55 183 46 L205 40 L205 0 Q155 3 104 3 Q92 3 78 2.5 Q64 2 50 1.5 Q36 1 23 0.5 Q10 0 0 0 L0 40 L64 59 L273 625 L399 625 L602 96 Q607 83 612.5 75 Q618 67 627 61 Q636 55 650 50.5 Q664 46 686 40 L686 0 Q674 1 651.5 1.5 Q629 2 605 2.5 Q581 3 558.5 3 Q536 3 524 3 Q512 3 490 2.5 Q468 2 444 1.5 Q420 1 398.5 0.5 Q377 0 367 0 L367 40 L427 59 L384 174 L189 174 Z M211 237 L360 237 L283 442 L211 237 Z M457 746 L225 665 L211 694 L358 809 Q370 818 380.5 823.5 Q391 829 401 829 Q418 829 433 807 L463 762 L457 746 Z " />
<glyph glyph-name="Acircumflex" unicode="&#xc2;" horiz-adv-x="692" d="M189 174 L157 80 Q155 74 155 69 Q155 55 183 46 L205 40 L205 0 Q155 3 104 3 Q92 3 78 2.5 Q64 2 50 1.5 Q36 1 23 0.5 Q10 0 0 0 L0 40 L64 59 L273 625 L399 625 L602 96 Q607 83 612.5 75 Q618 67 627 61 Q636 55 650 50.5 Q664 46 686 40 L686 0 Q674 1 651.5 1.5 Q629 2 605 2.5 Q581 3 558.5 3 Q536 3 524 3 Q512 3 490 2.5 Q468 2 444 1.5 Q420 1 398.5 0.5 Q377 0 367 0 L367 40 L427 59 L384 174 L189 174 Z M211 237 L360 237 L283 442 L211 237 Z M207 664 L181 689 L289 824 L379 824 L487 689 L461 664 L334 745 L207 664 Z " />
<glyph glyph-name="Atilde" unicode="&#xc3;" horiz-adv-x="692" d="M189 174 L157 80 Q155 74 155 69 Q155 55 183 46 L205 40 L205 0 Q155 3 104 3 Q92 3 78 2.5 Q64 2 50 1.5 Q36 1 23 0.5 Q10 0 0 0 L0 40 L64 59 L273 625 L399 625 L602 96 Q607 83 612.5 75 Q618 67 627 61 Q636 55 650 50.5 Q664 46 686 40 L686 0 Q674 1 651.5 1.5 Q629 2 605 2.5 Q581 3 558.5 3 Q536 3 524 3 Q512 3 490 2.5 Q468 2 444 1.5 Q420 1 398.5 0.5 Q377 0 367 0 L367 40 L427 59 L384 174 L189 174 Z M211 237 L360 237 L283 442 L211 237 Z M392 681 Q372 681 354.5 686.5 Q337 692 321.5 698 Q306 704 291.5 709.5 Q277 715 262 715 Q244 715 233.5 706 Q223 697 217 679 L176 688 Q184 745 213 772 Q242 799 279 799 Q299 799 316.5 793.5 Q334 788 349.5 782 Q365 776 379.5 770.5 Q394 765 409 765 Q427 765 437.5 773.5 Q448 782 454 800 L495 791 Q487 734 458 707.5 Q429 681 392 681 Z " />
<glyph glyph-name="Adieresis" unicode="&#xc4;" horiz-adv-x="692" d="M189 174 L157 80 Q155 74 155 69 Q155 55 183 46 L205 40 L205 0 Q155 3 104 3 Q92 3 78 2.5 Q64 2 50 1.5 Q36 1 23 0.5 Q10 0 0 0 L0 40 L64 59 L273 625 L399 625 L602 96 Q607 83 612.5 75 Q618 67 627 61 Q636 55 650 50.5 Q664 46 686 40 L686 0 Q674 1 651.5 1.5 Q629 2 605 2.5 Q581 3 558.5 3 Q536 3 524 3 Q512 3 490 2.5 Q468 2 444 1.5 Q420 1 398.5 0.5 Q377 0 367 0 L367 40 L427 59 L384 174 L189 174 Z M211 237 L360 237 L283 442 L211 237 Z M497 744 Q497 716 476.5 696 Q456 676 429 676 Q401 676 380 696 Q359 716 359 744 Q359 771 380 790.5 Q401 810 429 810 Q456 810 476.5 790.5 Q497 771 497 744 Z M311 744 Q311 716 290 696 Q269 676 241 676 Q228 676 215.5 681.5 Q203 687 193.5 696 Q184 705 178.5 717.5 Q173 730 173 744 Q173 771 194 790.5 Q215 810 241 810 Q269 810 290 790.5 Q311 771 311 744 Z " />
<glyph glyph-name="Amacron" unicode="&#x100;" horiz-adv-x="692" d="M189 174 L157 80 Q155 74 155 69 Q155 55 183 46 L205 40 L205 0 Q155 3 104 3 Q92 3 78 2.5 Q64 2 50 1.5 Q36 1 23 0.5 Q10 0 0 0 L0 40 L64 59 L273 625 L399 625 L602 96 Q607 83 612.5 75 Q618 67 627 61 Q636 55 650 50.5 Q664 46 686 40 L686 0 Q674 1 651.5 1.5 Q629 2 605 2.5 Q581 3 558.5 3 Q536 3 524 3 Q512 3 490 2.5 Q468 2 444 1.5 Q420 1 398.5 0.5 Q377 0 367 0 L367 40 L427 59 L384 174 L189 174 Z M211 237 L360 237 L283 442 L211 237 Z M206 688 L206 760 L464 760 L464 688 L206 688 Z " />
<glyph glyph-name="Abreve" unicode="&#x102;" horiz-adv-x="692" d="M189 174 L157 80 Q155 74 155 69 Q155 55 183 46 L205 40 L205 0 Q155 3 104 3 Q92 3 78 2.5 Q64 2 50 1.5 Q36 1 23 0.5 Q10 0 0 0 L0 40 L64 59 L273 625 L399 625 L602 96 Q607 83 612.5 75 Q618 67 627 61 Q636 55 650 50.5 Q664 46 686 40 L686 0 Q674 1 651.5 1.5 Q629 2 605 2.5 Q581 3 558.5 3 Q536 3 524 3 Q512 3 490 2.5 Q468 2 444 1.5 Q420 1 398.5 0.5 Q377 0 367 0 L367 40 L427 59 L384 174 L189 174 Z M211 237 L360 237 L283 442 L211 237 Z M466 806 Q466 750 432 712.5 Q398 675 337 675 Q276 675 242 712.5 Q208 750 208 806 L255 806 Q263 780 285 767.5 Q307 755 337 755 Q366 755 389 768 Q412 781 420 806 L466 806 L466 806 Z " />
<glyph glyph-name="Acaron" unicode="&#x1cd;" horiz-adv-x="692" d="M189 174 L157 80 Q155 74 155 69 Q155 55 183 46 L205 40 L205 0 Q155 3 104 3 Q92 3 78 2.5 Q64 2 50 1.5 Q36 1 23 0.5 Q10 0 0 0 L0 40 L64 59 L273 625 L399 625 L602 96 Q607 83 612.5 75 Q618 67 627 61 Q636 55 650 50.5 Q664 46 686 40 L686 0 Q674 1 651.5 1.5 Q629 2 605 2.5 Q581 3 558.5 3 Q536 3 524 3 Q512 3 490 2.5 Q468 2 444 1.5 Q420 1 398.5 0.5 Q377 0 367 0 L367 40 L427 59 L384 174 L189 174 Z M211 237 L360 237 L283 442 L211 237 Z M336 754 L463 835 L489 810 L381 675 L291 675 L183 810 L209 835 L336 754 Z " />
<glyph glyph-name="Aring" unicode="&#xc5;" horiz-adv-x="692" d="M189 174 L157 80 Q155 74 155 69 Q155 55 183 46 L205 40 L205 0 Q155 3 104 3 Q92 3 78 2.5 Q64 2 50 1.5 Q36 1 23 0.5 Q10 0 0 0 L0 40 L64 59 L273 625 L399 625 L602 96 Q607 83 612.5 75 Q618 67 627 61 Q636 55 650 50.5 Q664 46 686 40 L686 0 Q674 1 651.5 1.5 Q629 2 605 2.5 Q581 3 558.5 3 Q536 3 524 3 Q512 3 490 2.5 Q468 2 444 1.5 Q420 1 398.5 0.5 Q377 0 367 0 L367 40 L427 59 L384 174 L189 174 Z M211 237 L360 237 L283 442 L211 237 Z M432 770 Q432 750 424.5 732.5 Q417 715 403.5 702 Q390 689 372.5 681.5 Q355 674 335 674 Q295 674 266.5 701.5 Q238 729 238 769 Q238 789 245.5 806.5 Q253 824 266.5 837 Q280 850 297.5 857.5 Q315 865 335 865 Q375 865 403.5 837.5 Q432 810 432 770 Z M375 770 Q375 791 363.5 802.5 Q352 814 335 814 Q318 814 306.5 802 Q295 790 295 769 Q295 748 306.5 736 Q318 724 335 724 Q352 724 363.5 736.5 Q375 749 375 770 Z " />
<glyph glyph-name="Aringacute" unicode="&#x1fa;" horiz-adv-x="692" d="M189 174 L157 80 Q155 74 155 69 Q155 55 183 46 L205 40 L205 0 Q155 3 104 3 Q92 3 78 2.5 Q64 2 50 1.5 Q36 1 23 0.5 Q10 0 0 0 L0 40 L64 59 L273 625 L399 625 L602 96 Q607 83 612.5 75 Q618 67 627 61 Q636 55 650 50.5 Q664 46 686 40 L686 0 Q674 1 651.5 1.5 Q629 2 605 2.5 Q581 3 558.5 3 Q536 3 524 3 Q512 3 490 2.5 Q468 2 444 1.5 Q420 1 398.5 0.5 Q377 0 367 0 L367 40 L427 59 L384 174 L189 174 Z M211 237 L360 237 L283 442 L211 237 Z M462 941 L227 842 L207 870 L360 1004 Q382 1024 401 1024 Q420 1024 435 1002 L465 957 L462 941 Z M432 760 Q432 740 424.5 722.5 Q417 705 403.5 692 Q390 679 372.5 671.5 Q355 664 335 664 Q295 664 266.5 691.5 Q238 719 238 759 Q238 779 245.5 796.5 Q253 814 266.5 827 Q280 840 297.5 847.5 Q315 855 335 855 Q375 855 403.5 827.5 Q432 800 432 760 Z M375 760 Q375 781 363.5 792.5 Q352 804 335 804 Q318 804 306.5 792 Q295 780 295 759 Q295 738 306.5 726 Q318 714 335 714 Q352 714 363.5 726.5 Q375 739 375 760 Z " />
<glyph glyph-name="Aogonek" unicode="&#x104;" horiz-adv-x="692" d="M157 80 Q155 74 155 69 Q155 55 183 46 L205 40 L205 0 Q155 3 104 3 Q92 3 78 2.5 Q64 2 50 1.5 Q36 1 23 0.5 Q10 0 0 0 L0 40 L64 59 L273 625 L399 625 L602 96 Q607 83 612.5 75 Q618 67 627 61 Q636 55 650 50.5 Q664 46 686 40 L686 0 L579 3 Q557 -6 539 -21 Q521 -36 508 -54.5 Q495 -73 487.5 -93 Q480 -113 480 -132 Q480 -153 491 -165 Q502 -177 525 -177 Q539 -177 552 -174 Q565 -171 576 -166 L593 -208 Q575 -222 545 -231.5 Q515 -241 485 -241 Q440 -241 409.5 -217.5 Q379 -194 379 -149 Q379 -127 388 -105.5 Q397 -84 412 -64 Q427 -44 447.5 -27 Q468 -10 492 3 Q476 3 457.5 2.5 Q439 2 421.5 1.5 Q404 1 389 0.5 Q374 0 367 0 L367 40 L427 59 L384 174 L189 174 L157 80 Z M211 237 L360 237 L283 442 L211 237 Z " />
<glyph glyph-name="AE" unicode="&#xc6;" horiz-adv-x="909" d="M359 0 L359 40 L420 59 L420 277 L255 277 L143 80 Q139 72 139 67 Q139 59 150 53 Q161 47 191 40 L191 0 Q166 2 137 2.5 Q108 3 83 3 Q60 3 35 1.5 Q10 0 -10 0 L-10 40 L52 58 L328 538 Q335 549 335 558 Q335 570 322.5 575 Q310 580 284 585 L284 625 L850 625 Q850 609 851.5 586 Q853 563 855 539.5 Q857 516 858.5 495 Q860 474 862 462 L802 462 Q799 489 792.5 509 Q786 529 772.5 541.5 Q759 554 736.5 560 Q714 566 679 566 L609 566 L609 340 L629 340 Q680 340 721.5 344 Q763 348 788 354 L781 268 Q761 271 722 274 Q683 277 629 277 L609 277 L609 111 Q609 82 626.5 71 Q644 60 691 60 Q719 60 741.5 64.5 Q764 69 780.5 80.5 Q797 92 808 111.5 Q819 131 823 162 L878 162 Q877 150 876 127.5 Q875 105 874.5 81 Q874 57 873.5 34.5 Q873 12 873 0 L359 0 Z M292 340 L420 340 L420 562 L292 340 Z " />
<glyph glyph-name="AEacute" unicode="&#x1fc;" horiz-adv-x="909" d="M359 0 L359 40 L420 59 L420 277 L255 277 L143 80 Q139 72 139 67 Q139 59 150 53 Q161 47 191 40 L191 0 Q166 2 137 2.5 Q108 3 83 3 Q60 3 35 1.5 Q10 0 -10 0 L-10 40 L52 58 L328 538 Q335 549 335 558 Q335 570 322.5 575 Q310 580 284 585 L284 625 L850 625 Q850 609 851.5 586 Q853 563 855 539.5 Q857 516 858.5 495 Q860 474 862 462 L802 462 Q799 489 792.5 509 Q786 529 772.5 541.5 Q759 554 736.5 560 Q714 566 679 566 L609 566 L609 340 L629 340 Q680 340 721.5 344 Q763 348 788 354 L781 268 Q761 271 722 274 Q683 277 629 277 L609 277 L609 111 Q609 82 626.5 71 Q644 60 691 60 Q719 60 741.5 64.5 Q764 69 780.5 80.5 Q797 92 808 111.5 Q819 131 823 162 L878 162 Q877 150 876 127.5 Q875 105 874.5 81 Q874 57 873.5 34.5 Q873 12 873 0 L359 0 Z M292 340 L420 340 L420 562 L292 340 Z M690 746 L458 665 L444 694 L591 809 Q603 818 613.5 823.5 Q624 829 634 829 Q651 829 666 807 L696 762 L690 746 Z " />
<glyph glyph-name="Cacute" unicode="&#x106;" horiz-adv-x="597" d="M572 122 Q540 63 477 24 Q414 -15 323 -15 Q254 -15 199.5 8.5 Q145 32 107 74.5 Q69 117 49 176 Q29 235 29 305 Q29 389 53.5 452 Q78 515 121.5 556.5 Q165 598 224.5 619 Q284 640 355 640 Q407 640 453 633.5 Q499 627 548 623 L554 431 L496 431 Q475 572 375 572 Q304 572 268.5 503.5 Q233 435 233 314 Q233 206 269 142.5 Q305 79 379 79 Q419 79 458.5 98 Q498 117 527 154 L572 122 Z M472 746 L240 665 L226 694 L373 809 Q385 818 395.5 823.5 Q406 829 416 829 Q433 829 448 807 L478 762 L472 746 Z " />
<glyph glyph-name="Ccedilla" unicode="&#xc7;" horiz-adv-x="597" d="M572 122 Q543 68 488 31 Q433 -6 355 -13 L350 -31 Q385 -38 412 -59 Q439 -80 439 -120 Q439 -156 420.5 -180.5 Q402 -205 373.5 -219.5 Q345 -234 310.5 -239.5 Q276 -245 243 -242 L238 -198 Q285 -191 313.5 -172 Q342 -153 342 -126 Q342 -109 332 -97.5 Q322 -86 295 -81 Q280 -78 277.5 -72 Q275 -66 279 -55 L292 -14 Q229 -9 180 16.5 Q131 42 97.5 84 Q64 126 46.5 182.5 Q29 239 29 305 Q29 389 53 452 Q77 515 120.5 556.5 Q164 598 224 619 Q284 640 355 640 Q407 640 453 633.5 Q499 627 548 623 L554 431 L496 431 Q475 572 375 572 Q304 572 268.5 503.5 Q233 435 233 314 Q233 206 269 142.5 Q305 79 379 79 Q419 79 458.5 98 Q498 117 527 154 L572 122 Z " />
<glyph glyph-name="Ccircumflex" unicode="&#x108;" horiz-adv-x="597" d="M572 122 Q540 63 477 24 Q414 -15 323 -15 Q254 -15 199.5 8.5 Q145 32 107 74.5 Q69 117 49 176 Q29 235 29 305 Q29 389 53.5 452 Q78 515 121.5 556.5 Q165 598 224.5 619 Q284 640 355 640 Q407 640 453 633.5 Q499 627 548 623 L554 431 L496 431 Q475 572 375 572 Q304 572 268.5 503.5 Q233 435 233 314 Q233 206 269 142.5 Q305 79 379 79 Q419 79 458.5 98 Q498 117 527 154 L572 122 Z M221 664 L195 689 L303 824 L393 824 L501 689 L475 664 L348 745 L221 664 Z " />
<glyph glyph-name="Ccaron" unicode="&#x10c;" horiz-adv-x="597" d="M572 122 Q540 63 477 24 Q414 -15 323 -15 Q254 -15 199.5 8.5 Q145 32 107 74.5 Q69 117 49 176 Q29 235 29 305 Q29 389 53.5 452 Q78 515 121.5 556.5 Q165 598 224.5 619 Q284 640 355 640 Q407 640 453 633.5 Q499 627 548 623 L554 431 L496 431 Q475 572 375 572 Q304 572 268.5 503.5 Q233 435 233 314 Q233 206 269 142.5 Q305 79 379 79 Q419 79 458.5 98 Q498 117 527 154 L572 122 Z M350 754 L477 835 L503 810 L395 675 L305 675 L197 810 L223 835 L350 754 Z " />
<glyph glyph-name="Cdotaccent" unicode="&#x10a;" horiz-adv-x="597" d="M572 122 Q540 63 477 24 Q414 -15 323 -15 Q254 -15 199.5 8.5 Q145 32 107 74.5 Q69 117 49 176 Q29 235 29 305 Q29 389 53.5 452 Q78 515 121.5 556.5 Q165 598 224.5 619 Q284 640 355 640 Q407 640 453 633.5 Q499 627 548 623 L554 431 L496 431 Q475 572 375 572 Q304 572 268.5 503.5 Q233 435 233 314 Q233 206 269 142.5 Q305 79 379 79 Q419 79 458.5 98 Q498 117 527 154 L572 122 Z M426 752 Q426 737 420 723 Q414 709 403.5 698 Q393 687 379 680.5 Q365 674 350 674 Q334 674 320 680.5 Q306 687 295.5 698 Q285 709 279 723 Q273 737 273 752 Q273 784 295.5 805.5 Q318 827 350 827 Q381 827 403.5 805.5 Q426 784 426 752 Z " />
<glyph glyph-name="Dcaron" unicode="&#x10e;" horiz-adv-x="709" d="M476 314 Q476 396 465.5 448 Q455 500 429 527 Q412 546 387.5 553.5 Q363 561 325 561 L280 561 L280 94 Q280 77 290.5 70.5 Q301 64 341 64 Q411 64 443.5 126.5 Q476 189 476 314 Z M25 625 L299 625 Q393 625 464.5 609.5 Q536 594 584 557 Q632 520 656 459.5 Q680 399 680 309 Q680 259 665.5 205 Q651 151 615 105 Q579 59 518 29.5 Q457 0 364 0 L30 0 L30 40 L91 59 L91 502 Q91 517 90.5 529.5 Q90 542 85.5 551.5 Q81 561 72 567.5 Q63 574 47 579 L25 585 L25 625 Z M353 754 L480 835 L506 810 L398 675 L308 675 L200 810 L226 835 L353 754 Z " />
<glyph glyph-name="Dcroat" unicode="&#x110;" horiz-adv-x="709" d="M25 625 L299 625 Q393 625 464.5 609.5 Q536 594 584 557 Q632 520 656 459.5 Q680 399 680 309 Q680 259 665.5 205 Q651 151 615 105 Q579 59 518 29.5 Q457 0 364 0 L30 0 L30 40 L91 59 L91 290 L21 290 L21 361 L91 361 L91 502 Q91 517 90.5 529.5 Q90 542 85.5 551.5 Q81 561 72 567.5 Q63 574 47 579 L25 585 L25 625 Z M280 361 L363 361 L363 290 L280 290 L280 94 Q280 80 287 72 Q294 64 313 64 L341 64 Q411 64 443.5 126.5 Q476 189 476 314 Q476 396 465.5 448 Q455 500 429 527 Q412 546 387.5 553.5 Q363 561 325 561 L280 561 L280 361 Z " />
<glyph glyph-name="Eth" unicode="&#xd0;" horiz-adv-x="709" d="M25 625 L299 625 Q393 625 464.5 609.5 Q536 594 584 557 Q632 520 656 459.5 Q680 399 680 309 Q680 259 665.5 205 Q651 151 615 105 Q579 59 518 29.5 Q457 0 364 0 L30 0 L30 40 L91 59 L91 290 L21 290 L21 361 L91 361 L91 502 Q91 517 90.5 529.5 Q90 542 85.5 551.5 Q81 561 72 567.5 Q63 574 47 579 L25 585 L25 625 Z M280 361 L363 361 L363 290 L280 290 L280 94 Q280 80 287 72 Q294 64 313 64 L341 64 Q411 64 443.5 126.5 Q476 189 476 314 Q476 396 465.5 448 Q455 500 429 527 Q412 546 387.5 553.5 Q363 561 325 561 L280 561 L280 361 Z " />
<glyph glyph-name="Egrave" unicode="&#xc8;" horiz-adv-x="580" d="M91 502 Q91 517 90.5 529.5 Q90 542 85.5 551.5 Q81 561 72 567.5 Q63 574 47 579 L25 585 L25 625 L521 625 Q521 609 522.5 586 Q524 563 526 539.5 Q528 516 529.5 495 Q531 474 533 462 L473 462 Q470 489 463.5 509 Q457 529 443.5 541.5 Q430 554 407.5 560 Q385 566 350 566 L280 566 L280 349 L300 349 Q351 349 392.5 353 Q434 357 459 363 L452 277 Q432 280 393 283 Q354 286 300 286 L280 286 L280 111 Q280 82 297.5 71 Q315 60 362 60 Q390 60 412.5 64.5 Q435 69 451.5 80.5 Q468 92 479 111.5 Q490 131 494 162 L549 162 Q548 150 547 127.5 Q546 105 545.5 81 Q545 57 544.5 34.5 Q544 12 544 0 L30 0 L30 40 L91 59 L91 502 Z M171 763 L201 808 Q216 830 233 830 Q243 830 253.5 824.5 Q264 819 276 810 L423 695 L409 666 L177 747 L171 763 Z " />
<glyph glyph-name="Eacute" unicode="&#xc9;" horiz-adv-x="580" d="M91 502 Q91 517 90.5 529.5 Q90 542 85.5 551.5 Q81 561 72 567.5 Q63 574 47 579 L25 585 L25 625 L521 625 Q521 609 522.5 586 Q524 563 526 539.5 Q528 516 529.5 495 Q531 474 533 462 L473 462 Q470 489 463.5 509 Q457 529 443.5 541.5 Q430 554 407.5 560 Q385 566 350 566 L280 566 L280 349 L300 349 Q351 349 392.5 353 Q434 357 459 363 L452 277 Q432 280 393 283 Q354 286 300 286 L280 286 L280 111 Q280 82 297.5 71 Q315 60 362 60 Q390 60 412.5 64.5 Q435 69 451.5 80.5 Q468 92 479 111.5 Q490 131 494 162 L549 162 Q548 150 547 127.5 Q546 105 545.5 81 Q545 57 544.5 34.5 Q544 12 544 0 L30 0 L30 40 L91 59 L91 502 Z M418 746 L186 665 L172 694 L319 809 Q331 818 341.5 823.5 Q352 829 362 829 Q379 829 394 807 L424 762 L418 746 Z " />
<glyph glyph-name="Ecircumflex" unicode="&#xca;" horiz-adv-x="580" d="M91 502 Q91 517 90.5 529.5 Q90 542 85.5 551.5 Q81 561 72 567.5 Q63 574 47 579 L25 585 L25 625 L521 625 Q521 609 522.5 586 Q524 563 526 539.5 Q528 516 529.5 495 Q531 474 533 462 L473 462 Q470 489 463.5 509 Q457 529 443.5 541.5 Q430 554 407.5 560 Q385 566 350 566 L280 566 L280 349 L300 349 Q351 349 392.5 353 Q434 357 459 363 L452 277 Q432 280 393 283 Q354 286 300 286 L280 286 L280 111 Q280 82 297.5 71 Q315 60 362 60 Q390 60 412.5 64.5 Q435 69 451.5 80.5 Q468 92 479 111.5 Q490 131 494 162 L549 162 Q548 150 547 127.5 Q546 105 545.5 81 Q545 57 544.5 34.5 Q544 12 544 0 L30 0 L30 40 L91 59 L91 502 Z M166 664 L140 689 L248 824 L338 824 L446 689 L420 664 L293 745 L166 664 Z " />
<glyph glyph-name="Ecaron" unicode="&#x11a;" horiz-adv-x="580" d="M91 502 Q91 517 90.5 529.5 Q90 542 85.5 551.5 Q81 561 72 567.5 Q63 574 47 579 L25 585 L25 625 L521 625 Q521 609 522.5 586 Q524 563 526 539.5 Q528 516 529.5 495 Q531 474 533 462 L473 462 Q470 489 463.5 509 Q457 529 443.5 541.5 Q430 554 407.5 560 Q385 566 350 566 L280 566 L280 349 L300 349 Q351 349 392.5 353 Q434 357 459 363 L452 277 Q432 280 393 283 Q354 286 300 286 L280 286 L280 111 Q280 82 297.5 71 Q315 60 362 60 Q390 60 412.5 64.5 Q435 69 451.5 80.5 Q468 92 479 111.5 Q490 131 494 162 L549 162 Q548 150 547 127.5 Q546 105 545.5 81 Q545 57 544.5 34.5 Q544 12 544 0 L30 0 L30 40 L91 59 L91 502 Z M293 754 L420 835 L446 810 L338 675 L248 675 L140 810 L166 835 L293 754 Z " />
<glyph glyph-name="Edieresis" unicode="&#xcb;" horiz-adv-x="580" d="M91 502 Q91 517 90.5 529.5 Q90 542 85.5 551.5 Q81 561 72 567.5 Q63 574 47 579 L25 585 L25 625 L521 625 Q521 609 522.5 586 Q524 563 526 539.5 Q528 516 529.5 495 Q531 474 533 462 L473 462 Q470 489 463.5 509 Q457 529 443.5 541.5 Q430 554 407.5 560 Q385 566 350 566 L280 566 L280 349 L300 349 Q351 349 392.5 353 Q434 357 459 363 L452 277 Q432 280 393 283 Q354 286 300 286 L280 286 L280 111 Q280 82 297.5 71 Q315 60 362 60 Q390 60 412.5 64.5 Q435 69 451.5 80.5 Q468 92 479 111.5 Q490 131 494 162 L549 162 Q548 150 547 127.5 Q546 105 545.5 81 Q545 57 544.5 34.5 Q544 12 544 0 L30 0 L30 40 L91 59 L91 502 Z M455 744 Q455 716 434.5 696 Q414 676 387 676 Q359 676 338 696 Q317 716 317 744 Q317 771 338 790.5 Q359 810 387 810 Q414 810 434.5 790.5 Q455 771 455 744 Z M269 744 Q269 716 248 696 Q227 676 199 676 Q186 676 173.5 681.5 Q161 687 151.5 696 Q142 705 136.5 717.5 Q131 730 131 744 Q131 771 152 790.5 Q173 810 199 810 Q227 810 248 790.5 Q269 771 269 744 Z " />
<glyph glyph-name="Emacron" unicode="&#x112;" horiz-adv-x="580" d="M91 502 Q91 517 90.5 529.5 Q90 542 85.5 551.5 Q81 561 72 567.5 Q63 574 47 579 L25 585 L25 625 L521 625 Q521 609 522.5 586 Q524 563 526 539.5 Q528 516 529.5 495 Q531 474 533 462 L473 462 Q470 489 463.5 509 Q457 529 443.5 541.5 Q430 554 407.5 560 Q385 566 350 566 L280 566 L280 349 L300 349 Q351 349 392.5 353 Q434 357 459 363 L452 277 Q432 280 393 283 Q354 286 300 286 L280 286 L280 111 Q280 82 297.5 71 Q315 60 362 60 Q390 60 412.5 64.5 Q435 69 451.5 80.5 Q468 92 479 111.5 Q490 131 494 162 L549 162 Q548 150 547 127.5 Q546 105 545.5 81 Q545 57 544.5 34.5 Q544 12 544 0 L30 0 L30 40 L91 59 L91 502 Z M162 688 L162 760 L420 760 L420 688 L162 688 Z " />
<glyph glyph-name="Ebreve" unicode="&#x114;" horiz-adv-x="580" d="M91 502 Q91 517 90.5 529.5 Q90 542 85.5 551.5 Q81 561 72 567.5 Q63 574 47 579 L25 585 L25 625 L521 625 Q521 609 522.5 586 Q524 563 526 539.5 Q528 516 529.5 495 Q531 474 533 462 L473 462 Q470 489 463.5 509 Q457 529 443.5 541.5 Q430 554 407.5 560 Q385 566 350 566 L280 566 L280 349 L300 349 Q351 349 392.5 353 Q434 357 459 363 L452 277 Q432 280 393 283 Q354 286 300 286 L280 286 L280 111 Q280 82 297.5 71 Q315 60 362 60 Q390 60 412.5 64.5 Q435 69 451.5 80.5 Q468 92 479 111.5 Q490 131 494 162 L549 162 Q548 150 547 127.5 Q546 105 545.5 81 Q545 57 544.5 34.5 Q544 12 544 0 L30 0 L30 40 L91 59 L91 502 Z M429 806 Q429 750 395 712.5 Q361 675 300 675 Q239 675 205 712.5 Q171 750 171 806 L218 806 Q226 780 248 767.5 Q270 755 300 755 Q329 755 352 768 Q375 781 383 806 L429 806 L429 806 Z " />
<glyph glyph-name="Edotaccent" unicode="&#x116;" horiz-adv-x="580" d="M91 502 Q91 517 90.5 529.5 Q90 542 85.5 551.5 Q81 561 72 567.5 Q63 574 47 579 L25 585 L25 625 L521 625 Q521 609 522.5 586 Q524 563 526 539.5 Q528 516 529.5 495 Q531 474 533 462 L473 462 Q470 489 463.5 509 Q457 529 443.5 541.5 Q430 554 407.5 560 Q385 566 350 566 L280 566 L280 349 L300 349 Q351 349 392.5 353 Q434 357 459 363 L452 277 Q432 280 393 283 Q354 286 300 286 L280 286 L280 111 Q280 82 297.5 71 Q315 60 362 60 Q390 60 412.5 64.5 Q435 69 451.5 80.5 Q468 92 479 111.5 Q490 131 494 162 L549 162 Q548 150 547 127.5 Q546 105 545.5 81 Q545 57 544.5 34.5 Q544 12 544 0 L30 0 L30 40 L91 59 L91 502 Z M376 752 Q376 737 370 723 Q364 709 353.5 698 Q343 687 329 680.5 Q315 674 300 674 Q284 674 270 680.5 Q256 687 245.5 698 Q235 709 229 723 Q223 737 223 752 Q223 784 245.5 805.5 Q268 827 300 827 Q331 827 353.5 805.5 Q376 784 376 752 Z " />
<glyph glyph-name="Eogonek" unicode="&#x118;" horiz-adv-x="580" d="M493 -208 Q475 -222 445 -231.5 Q415 -241 385 -241 Q340 -241 309.5 -217.5 Q279 -194 279 -149 Q279 -106 309.5 -66 Q340 -26 384 0 L30 0 L30 40 L91 59 L91 502 Q91 517 90.5 529.5 Q90 542 85.5 551.5 Q81 561 72 567.5 Q63 574 47 579 L25 585 L25 625 L521 625 Q521 609 522.5 586 Q524 563 526 539.5 Q528 516 529.5 495 Q531 474 533 462 L473 462 Q470 489 463.5 509 Q457 529 444 541.5 Q431 554 408.5 560 Q386 566 351 566 L280 566 L280 349 L300 349 Q351 349 392.5 353 Q434 357 459 363 L452 277 Q432 280 393 283 Q354 286 300 286 L280 286 L280 111 Q280 82 297.5 71 Q315 60 362 60 Q390 60 412.5 64.5 Q435 69 451.5 80.5 Q468 92 479 111.5 Q490 131 494 162 L549 162 Q548 150 547 127.5 Q546 105 545.5 81 Q545 57 544.5 34.5 Q544 12 544 0 L471 0 Q451 -9 434.5 -24 Q418 -39 406 -56.5 Q394 -74 387 -93.5 Q380 -113 380 -132 Q380 -153 391 -165 Q402 -177 425 -177 Q439 -177 452 -174 Q465 -171 476 -166 L493 -208 Z " />
<glyph glyph-name="Gcircumflex" unicode="&#x11c;" horiz-adv-x="701" d="M366 272 L366 312 Q376 312 398 311.5 Q420 311 445.5 310.5 Q471 310 494 309.5 Q517 309 529 309 Q541 309 561.5 309 Q582 309 604 309.5 Q626 310 646.5 310.5 Q667 311 679 312 L679 272 L659 266 Q645 262 636.5 257 Q628 252 623.5 244.5 Q619 237 617.5 226 Q616 215 616 198 L616 47 Q593 32 561 20.5 Q529 9 493.5 1 Q458 -7 421.5 -11 Q385 -15 354 -15 Q278 -15 217.5 6 Q157 27 115 67.5 Q73 108 51 168 Q29 228 29 305 Q29 380 52.5 441.5 Q76 503 121 547 Q166 591 233 615.5 Q300 640 387 640 Q417 640 443 637.5 Q469 635 493 632 Q517 629 540 626 Q563 623 589 622 L595 431 L537 431 Q523 510 486 541.5 Q449 573 393 573 Q318 573 275.5 506.5 Q233 440 233 312 Q233 241 243 192.5 Q253 144 271 114 Q289 84 313 71 Q337 58 365 58 Q400 58 418.5 76 Q437 94 437 133 L437 252 L366 272 Z M242 664 L216 689 L324 824 L414 824 L522 689 L496 664 L369 745 L242 664 Z " />
<glyph glyph-name="Gbreve" unicode="&#x11e;" horiz-adv-x="701" d="M366 272 L366 312 Q376 312 398 311.5 Q420 311 445.5 310.5 Q471 310 494 309.5 Q517 309 529 309 Q541 309 561.5 309 Q582 309 604 309.5 Q626 310 646.5 310.5 Q667 311 679 312 L679 272 L659 266 Q645 262 636.5 257 Q628 252 623.5 244.5 Q619 237 617.5 226 Q616 215 616 198 L616 47 Q593 32 561 20.5 Q529 9 493.5 1 Q458 -7 421.5 -11 Q385 -15 354 -15 Q278 -15 217.5 6 Q157 27 115 67.5 Q73 108 51 168 Q29 228 29 305 Q29 380 52.5 441.5 Q76 503 121 547 Q166 591 233 615.5 Q300 640 387 640 Q417 640 443 637.5 Q469 635 493 632 Q517 629 540 626 Q563 623 589 622 L595 431 L537 431 Q523 510 486 541.5 Q449 573 393 573 Q318 573 275.5 506.5 Q233 440 233 312 Q233 241 243 192.5 Q253 144 271 114 Q289 84 313 71 Q337 58 365 58 Q400 58 418.5 76 Q437 94 437 133 L437 252 L366 272 Z M493 806 Q493 750 459 712.5 Q425 675 364 675 Q303 675 269 712.5 Q235 750 235 806 L282 806 Q290 780 312 767.5 Q334 755 364 755 Q393 755 416 768 Q439 781 447 806 L493 806 L493 806 Z " />
<glyph glyph-name="Gdotaccent" unicode="&#x120;" horiz-adv-x="701" d="M366 272 L366 312 Q376 312 398 311.5 Q420 311 445.5 310.5 Q471 310 494 309.5 Q517 309 529 309 Q541 309 561.5 309 Q582 309 604 309.5 Q626 310 646.5 310.5 Q667 311 679 312 L679 272 L659 266 Q645 262 636.5 257 Q628 252 623.5 244.5 Q619 237 617.5 226 Q616 215 616 198 L616 47 Q593 32 561 20.5 Q529 9 493.5 1 Q458 -7 421.5 -11 Q385 -15 354 -15 Q278 -15 217.5 6 Q157 27 115 67.5 Q73 108 51 168 Q29 228 29 305 Q29 380 52.5 441.5 Q76 503 121 547 Q166 591 233 615.5 Q300 640 387 640 Q417 640 443 637.5 Q469 635 493 632 Q517 629 540 626 Q563 623 589 622 L595 431 L537 431 Q523 510 486 541.5 Q449 573 393 573 Q318 573 275.5 506.5 Q233 440 233 312 Q233 241 243 192.5 Q253 144 271 114 Q289 84 313 71 Q337 58 365 58 Q400 58 418.5 76 Q437 94 437 133 L437 252 L366 272 Z M446 752 Q446 737 440 723 Q434 709 423.5 698 Q413 687 399 680.5 Q385 674 370 674 Q354 674 340 680.5 Q326 687 315.5 698 Q305 709 299 723 Q293 737 293 752 Q293 784 315.5 805.5 Q338 827 370 827 Q401 827 423.5 805.5 Q446 784 446 752 Z " />
<glyph glyph-name="Gcommaaccent" unicode="&#x122;" horiz-adv-x="701" d="M366 272 L366 312 Q376 312 398 311.5 Q420 311 445.5 310.5 Q471 310 494 309.5 Q517 309 529 309 Q541 309 561.5 309 Q582 309 604 309.5 Q626 310 646.5 310.5 Q667 311 679 312 L679 272 L659 266 Q645 262 636.5 257 Q628 252 623.5 244.5 Q619 237 617.5 226 Q616 215 616 198 L616 47 Q593 32 561 20.5 Q529 9 493.5 1 Q458 -7 421.5 -11 Q385 -15 354 -15 Q278 -15 217.5 6 Q157 27 115 67.5 Q73 108 51 168 Q29 228 29 305 Q29 380 52.5 441.5 Q76 503 121 547 Q166 591 233 615.5 Q300 640 387 640 Q417 640 443 637.5 Q469 635 493 632 Q517 629 540 626 Q563 623 589 622 L595 431 L537 431 Q523 510 486 541.5 Q449 573 393 573 Q318 573 275.5 506.5 Q233 440 233 312 Q233 241 243 192.5 Q253 144 271 114 Q289 84 313 71 Q337 58 365 58 Q400 58 418.5 76 Q437 94 437 133 L437 252 L366 272 Z M437 -143 Q436 -191 405 -238 Q374 -285 311 -323 L292 -294 Q355 -237 355 -200 Q355 -185 344.5 -176 Q334 -167 321 -158.5 Q308 -150 297.5 -139 Q287 -128 287 -108 Q287 -86 306 -67 Q325 -48 356 -48 Q391 -48 414 -74 Q437 -100 437 -143 Z " />
<glyph glyph-name="Hcircumflex" unicode="&#x124;" horiz-adv-x="752" d="M280 123 Q280 108 280.5 95.5 Q281 83 285.5 73.5 Q290 64 298.5 57 Q307 50 324 46 L346 40 L346 0 Q334 1 311.5 1.5 Q289 2 264.5 2.5 Q240 3 217.5 3 Q195 3 183 3 Q171 3 149.5 2.5 Q128 2 104.5 1.5 Q81 1 60.5 0.5 Q40 0 30 0 L30 40 L91 59 L91 502 Q91 517 90.5 529.5 Q90 542 85.5 551.5 Q81 561 72 567.5 Q63 574 47 579 L25 585 L25 625 Q37 624 59 623.5 Q81 623 105 622.5 Q129 622 151.5 622 Q174 622 186 622 Q198 622 220 622.5 Q242 623 265.5 623.5 Q289 624 310 624.5 Q331 625 341 625 L341 585 L280 566 L280 361 L472 361 L472 502 Q472 517 471.5 529.5 Q471 542 466.5 551.5 Q462 561 453 567.5 Q444 574 428 579 L406 585 L406 625 Q418 624 440.5 623.5 Q463 623 487.5 622.5 Q512 622 534.5 622 Q557 622 569 622 Q581 622 602.5 622.5 Q624 623 647.5 623.5 Q671 624 691.5 624.5 Q712 625 722 625 L722 585 L661 566 L661 123 Q661 108 661.5 95.5 Q662 83 666.5 73.5 Q671 64 679.5 57 Q688 50 705 46 L727 40 L727 0 Q715 1 692.5 1.5 Q670 2 646 2.5 Q622 3 600 3 Q578 3 566 3 Q554 3 532 2.5 Q510 2 486.5 1.5 Q463 1 442 0.5 Q421 0 411 0 L411 40 L472 59 L472 290 L280 290 L280 123 Z M249 664 L223 689 L331 824 L421 824 L529 689 L503 664 L376 745 L249 664 Z " />
<glyph glyph-name="Hbar" unicode="&#x126;" horiz-adv-x="752" d="M661 440 L661 123 Q661 108 661.5 95.5 Q662 83 666.5 73.5 Q671 64 679.5 57 Q688 50 705 46 L727 40 L727 0 Q715 1 692.5 1.5 Q670 2 646 2.5 Q622 3 600 3 Q578 3 566 3 Q554 3 532 2.5 Q510 2 486.5 1.5 Q463 1 442 0.5 Q421 0 411 0 L411 40 L472 59 L472 290 L280 290 L280 123 Q280 108 280.5 95.5 Q281 83 285.5 73.5 Q290 64 298.5 57 Q307 50 324 46 L346 40 L346 0 Q334 1 311.5 1.5 Q289 2 264.5 2.5 Q240 3 217.5 3 Q195 3 183 3 Q171 3 149.5 2.5 Q128 2 104.5 1.5 Q81 1 60.5 0.5 Q40 0 30 0 L30 40 L91 59 L91 440 L18 440 L18 506 L91 506 Q91 534 84.5 552 Q78 570 47 579 L25 585 L25 625 Q37 624 59 623.5 Q81 623 105 622.5 Q129 622 151.5 622 Q174 622 186 622 Q198 622 220 622.5 Q242 623 265.5 623.5 Q289 624 310 624.5 Q331 625 341 625 L341 585 L280 566 L280 506 L472 506 Q472 534 465.5 552 Q459 570 428 579 L406 585 L406 625 Q418 624 440.5 623.5 Q463 623 487.5 622.5 Q512 622 534.5 622 Q557 622 569 622 Q581 622 602.5 622.5 Q624 623 647.5 623.5 Q671 624 691.5 624.5 Q712 625 722 625 L722 585 L661 566 L661 506 L734 506 L734 440 L661 440 Z M472 361 L472 440 L280 440 L280 361 L472 361 Z " />
<glyph glyph-name="Igrave" unicode="&#xcc;" horiz-adv-x="375" d="M282 123 Q282 108 282.5 95.5 Q283 83 287.5 73.5 Q292 64 300.5 57 Q309 50 326 46 L348 40 L348 0 Q336 1 313.5 1.5 Q291 2 266.5 2.5 Q242 3 219.5 3 Q197 3 185 3 Q173 3 151 2.5 Q129 2 105 1.5 Q81 1 60 0.5 Q39 0 29 0 L29 40 L93 59 L93 502 Q93 517 92.5 529.5 Q92 542 87.5 551.5 Q83 561 74 567.5 Q65 574 49 579 L27 585 L27 625 Q39 624 61 623.5 Q83 623 107 622.5 Q131 622 153.5 622 Q176 622 188 622 Q200 622 221 622.5 Q242 623 265 623.5 Q288 624 309.5 624.5 Q331 625 343 625 L343 585 L282 566 L282 123 Z M61 763 L91 808 Q106 830 123 830 Q133 830 143.5 824.5 Q154 819 166 810 L313 695 L299 666 L67 747 L61 763 Z " />
<glyph glyph-name="Iacute" unicode="&#xcd;" horiz-adv-x="375" d="M282 123 Q282 108 282.5 95.5 Q283 83 287.5 73.5 Q292 64 300.5 57 Q309 50 326 46 L348 40 L348 0 Q336 1 313.5 1.5 Q291 2 266.5 2.5 Q242 3 219.5 3 Q197 3 185 3 Q173 3 151 2.5 Q129 2 105 1.5 Q81 1 60 0.5 Q39 0 29 0 L29 40 L93 59 L93 502 Q93 517 92.5 529.5 Q92 542 87.5 551.5 Q83 561 74 567.5 Q65 574 49 579 L27 585 L27 625 Q39 624 61 623.5 Q83 623 107 622.5 Q131 622 153.5 622 Q176 622 188 622 Q200 622 221 622.5 Q242 623 265 623.5 Q288 624 309.5 624.5 Q331 625 343 625 L343 585 L282 566 L282 123 Z M307 746 L75 665 L61 694 L208 809 Q220 818 230.5 823.5 Q241 829 251 829 Q268 829 283 807 L313 762 L307 746 Z " />
<glyph glyph-name="Icircumflex" unicode="&#xce;" horiz-adv-x="375" d="M282 123 Q282 108 282.5 95.5 Q283 83 287.5 73.5 Q292 64 300.5 57 Q309 50 326 46 L348 40 L348 0 Q336 1 313.5 1.5 Q291 2 266.5 2.5 Q242 3 219.5 3 Q197 3 185 3 Q173 3 151 2.5 Q129 2 105 1.5 Q81 1 60 0.5 Q39 0 29 0 L29 40 L93 59 L93 502 Q93 517 92.5 529.5 Q92 542 87.5 551.5 Q83 561 74 567.5 Q65 574 49 579 L27 585 L27 625 Q39 624 61 623.5 Q83 623 107 622.5 Q131 622 153.5 622 Q176 622 188 622 Q200 622 221 622.5 Q242 623 265 623.5 Q288 624 309.5 624.5 Q331 625 343 625 L343 585 L282 566 L282 123 Z M60 664 L34 689 L142 824 L232 824 L340 689 L314 664 L187 745 L60 664 Z " />
<glyph glyph-name="Itilde" unicode="&#x128;" horiz-adv-x="375" d="M282 123 Q282 108 282.5 95.5 Q283 83 287.5 73.5 Q292 64 300.5 57 Q309 50 326 46 L348 40 L348 0 Q336 1 313.5 1.5 Q291 2 266.5 2.5 Q242 3 219.5 3 Q197 3 185 3 Q173 3 151 2.5 Q129 2 105 1.5 Q81 1 60 0.5 Q39 0 29 0 L29 40 L93 59 L93 502 Q93 517 92.5 529.5 Q92 542 87.5 551.5 Q83 561 74 567.5 Q65 574 49 579 L27 585 L27 625 Q39 624 61 623.5 Q83 623 107 622.5 Q131 622 153.5 622 Q176 622 188 622 Q200 622 221 622.5 Q242 623 265 623.5 Q288 624 309.5 624.5 Q331 625 343 625 L343 585 L282 566 L282 123 Z M244 681 Q224 681 206.5 686.5 Q189 692 173.5 698 Q158 704 143.5 709.5 Q129 715 114 715 Q96 715 85.5 706 Q75 697 69 679 L28 688 Q36 745 65 772 Q94 799 131 799 Q151 799 168.5 793.5 Q186 788 201.5 782 Q217 776 231.5 770.5 Q246 765 261 765 Q279 765 289.5 773.5 Q300 782 306 800 L347 791 Q339 734 310 707.5 Q281 681 244 681 Z " />
<glyph glyph-name="Idieresis" unicode="&#xcf;" horiz-adv-x="375" d="M282 123 Q282 108 282.5 95.5 Q283 83 287.5 73.5 Q292 64 300.5 57 Q309 50 326 46 L348 40 L348 0 Q336 1 313.5 1.5 Q291 2 266.5 2.5 Q242 3 219.5 3 Q197 3 185 3 Q173 3 151 2.5 Q129 2 105 1.5 Q81 1 60 0.5 Q39 0 29 0 L29 40 L93 59 L93 502 Q93 517 92.5 529.5 Q92 542 87.5 551.5 Q83 561 74 567.5 Q65 574 49 579 L27 585 L27 625 Q39 624 61 623.5 Q83 623 107 622.5 Q131 622 153.5 622 Q176 622 188 622 Q200 622 221 622.5 Q242 623 265 623.5 Q288 624 309.5 624.5 Q331 625 343 625 L343 585 L282 566 L282 123 Z M349 744 Q349 716 328.5 696 Q308 676 281 676 Q253 676 232 696 Q211 716 211 744 Q211 771 232 790.5 Q253 810 281 810 Q308 810 328.5 790.5 Q349 771 349 744 Z M163 744 Q163 716 142 696 Q121 676 93 676 Q80 676 67.5 681.5 Q55 687 45.5 696 Q36 705 30.5 717.5 Q25 730 25 744 Q25 771 46 790.5 Q67 810 93 810 Q121 810 142 790.5 Q163 771 163 744 Z " />
<glyph glyph-name="Imacron" unicode="&#x12a;" horiz-adv-x="375" d="M282 123 Q282 108 282.5 95.5 Q283 83 287.5 73.5 Q292 64 300.5 57 Q309 50 326 46 L348 40 L348 0 Q336 1 313.5 1.5 Q291 2 266.5 2.5 Q242 3 219.5 3 Q197 3 185 3 Q173 3 151 2.5 Q129 2 105 1.5 Q81 1 60 0.5 Q39 0 29 0 L29 40 L93 59 L93 502 Q93 517 92.5 529.5 Q92 542 87.5 551.5 Q83 561 74 567.5 Q65 574 49 579 L27 585 L27 625 Q39 624 61 623.5 Q83 623 107 622.5 Q131 622 153.5 622 Q176 622 188 622 Q200 622 221 622.5 Q242 623 265 623.5 Q288 624 309.5 624.5 Q331 625 343 625 L343 585 L282 566 L282 123 Z M58 688 L58 760 L316 760 L316 688 L58 688 Z " />
<glyph glyph-name="Ibreve" unicode="&#x12c;" horiz-adv-x="375" d="M282 123 Q282 108 282.5 95.5 Q283 83 287.5 73.5 Q292 64 300.5 57 Q309 50 326 46 L348 40 L348 0 Q336 1 313.5 1.5 Q291 2 266.5 2.5 Q242 3 219.5 3 Q197 3 185 3 Q173 3 151 2.5 Q129 2 105 1.5 Q81 1 60 0.5 Q39 0 29 0 L29 40 L93 59 L93 502 Q93 517 92.5 529.5 Q92 542 87.5 551.5 Q83 561 74 567.5 Q65 574 49 579 L27 585 L27 625 Q39 624 61 623.5 Q83 623 107 622.5 Q131 622 153.5 622 Q176 622 188 622 Q200 622 221 622.5 Q242 623 265 623.5 Q288 624 309.5 624.5 Q331 625 343 625 L343 585 L282 566 L282 123 Z M316 806 Q316 750 282 712.5 Q248 675 187 675 Q126 675 92 712.5 Q58 750 58 806 L105 806 Q113 780 135 767.5 Q157 755 187 755 Q216 755 239 768 Q262 781 270 806 L316 806 L316 806 Z " />
<glyph glyph-name="Idotaccent" unicode="&#x130;" horiz-adv-x="375" d="M282 123 Q282 108 282.5 95.5 Q283 83 287.5 73.5 Q292 64 300.5 57 Q309 50 326 46 L348 40 L348 0 Q336 1 313.5 1.5 Q291 2 266.5 2.5 Q242 3 219.5 3 Q197 3 185 3 Q173 3 151 2.5 Q129 2 105 1.5 Q81 1 60 0.5 Q39 0 29 0 L29 40 L93 59 L93 502 Q93 517 92.5 529.5 Q92 542 87.5 551.5 Q83 561 74 567.5 Q65 574 49 579 L27 585 L27 625 Q39 624 61 623.5 Q83 623 107 622.5 Q131 622 153.5 622 Q176 622 188 622 Q200 622 221 622.5 Q242 623 265 623.5 Q288 624 309.5 624.5 Q331 625 343 625 L343 585 L282 566 L282 123 Z M264 752 Q264 737 258 723 Q252 709 241.5 698 Q231 687 217 680.5 Q203 674 188 674 Q172 674 158 680.5 Q144 687 133.5 698 Q123 709 117 723 Q111 737 111 752 Q111 784 133.5 805.5 Q156 827 188 827 Q219 827 241.5 805.5 Q264 784 264 752 Z " />
<glyph glyph-name="Iogonek" unicode="&#x12e;" horiz-adv-x="375" d="M293 -208 Q275 -222 245 -231.5 Q215 -241 185 -241 Q140 -241 108.5 -216.5 Q77 -192 77 -146 Q77 -104 102.5 -64.5 Q128 -25 166 3 Q151 3 130.5 2.5 Q110 2 90.5 1.5 Q71 1 54 0.5 Q37 0 29 0 L29 40 L93 59 L93 502 Q93 517 92.5 529.5 Q92 542 87.5 551.5 Q83 561 74 567.5 Q65 574 49 579 L27 585 L27 625 Q39 624 61 623.5 Q83 623 107 622.5 Q131 622 153.5 622 Q176 622 188 622 Q200 622 222 622.5 Q244 623 267.5 623.5 Q291 624 312 624.5 Q333 625 343 625 L343 585 L282 566 L282 123 Q282 108 282.5 95.5 Q283 83 287.5 73.5 Q292 64 300.5 57 Q309 50 326 46 L348 40 L348 0 L239 3 Q210 -23 194 -57 Q178 -91 178 -123 Q178 -177 225 -177 Q239 -177 252 -174 Q265 -171 276 -166 L293 -208 Z " />
<glyph glyph-name="IJ" unicode="&#x132;" horiz-adv-x="738" d="M282 123 Q282 108 282.5 95.5 Q283 83 287.5 73.5 Q292 64 300.5 57 Q309 50 326 46 L348 40 L348 0 Q336 1 313.5 1.5 Q291 2 266.5 2.5 Q242 3 219.5 3 Q197 3 185 3 Q173 3 151 2.5 Q129 2 105 1.5 Q81 1 60 0.5 Q39 0 29 0 L29 40 L93 59 L93 502 Q93 517 92.5 529.5 Q92 542 87.5 551.5 Q83 561 74 567.5 Q65 574 49 579 L27 585 L27 625 Q39 624 61 623.5 Q83 623 107 622.5 Q131 622 153.5 622 Q176 622 188 622 Q200 622 221 622.5 Q242 623 265 623.5 Q288 624 309.5 624.5 Q331 625 343 625 L343 585 L282 566 L282 123 Z M465 502 Q465 517 464.5 529.5 Q464 542 459.5 551.5 Q455 561 446 567.5 Q437 574 421 579 L399 585 L399 625 Q411 624 433.5 623.5 Q456 623 480 622.5 Q504 622 526.5 622 Q549 622 561 622 Q573 622 594.5 622.5 Q616 623 639.5 623.5 Q663 624 684 624.5 Q705 625 715 625 L715 585 L654 566 L654 92 Q654 43 643.5 -7.5 Q633 -58 603 -101.5 Q573 -145 518.5 -177.5 Q464 -210 376 -223 L358 -173 Q389 -160 409.5 -139.5 Q430 -119 442.5 -89 Q455 -59 460 -17 Q465 25 465 82 L465 502 Z " />
<glyph glyph-name="Jcircumflex" unicode="&#x134;" horiz-adv-x="363" d="M90 502 Q90 517 89.5 529.5 Q89 542 84.5 551.5 Q80 561 71 567.5 Q62 574 46 579 L24 585 L24 625 Q36 624 58.5 623.5 Q81 623 105 622.5 Q129 622 151.5 622 Q174 622 186 622 Q198 622 219.5 622.5 Q241 623 264.5 623.5 Q288 624 309 624.5 Q330 625 340 625 L340 585 L279 566 L279 92 Q279 43 268.5 -7.5 Q258 -58 228 -101.5 Q198 -145 143.5 -177.5 Q89 -210 1 -223 L-17 -173 Q14 -160 34.5 -139.5 Q55 -119 67.5 -89 Q80 -59 85 -17 Q90 25 90 82 L90 502 Z M54 664 L28 689 L136 824 L226 824 L334 689 L308 664 L181 745 L54 664 Z " />
<glyph glyph-name="Kcommaaccent" unicode="&#x136;" horiz-adv-x="718" d="M602 116 Q612 95 621.5 81.5 Q631 68 642 60 Q653 52 666.5 47.5 Q680 43 700 39 L700 0 L448 0 Q447 13 445 24 Q443 35 439 46.5 Q435 58 429 71.5 Q423 85 414 103 L331 274 L280 212 L280 123 Q280 108 280.5 95.5 Q281 83 285.5 73.5 Q290 64 298.5 57 Q307 50 324 46 L346 40 L346 0 Q334 1 311.5 1.5 Q289 2 265 2.5 Q241 3 219 3 Q197 3 185 3 Q173 3 151 2.5 Q129 2 105.5 1.5 Q82 1 61 0.5 Q40 0 30 0 L30 40 L91 59 L91 502 Q91 517 90.5 529.5 Q90 542 85.5 551.5 Q81 561 72 567.5 Q63 574 47 579 L25 585 L25 625 Q37 624 59.5 623.5 Q82 623 106.5 622.5 Q131 622 153.5 622 Q176 622 188 622 Q200 622 221.5 622.5 Q243 623 266.5 623.5 Q290 624 311 624.5 Q332 625 342 625 L342 585 L280 566 L280 322 L479 568 L426 585 L426 625 Q451 623 486.5 622.5 Q522 622 547 622 Q559 622 576 622.5 Q593 623 611 623.5 Q629 624 645 624.5 Q661 625 671 625 L671 583 Q644 581 625.5 577.5 Q607 574 593 567.5 Q579 561 567 550.5 Q555 540 541 523 L453 418 L602 116 Z M444 -143 Q443 -191 412 -238 Q381 -285 318 -323 L299 -294 Q362 -237 362 -200 Q362 -185 351.5 -176 Q341 -167 328 -158.5 Q315 -150 304.5 -139 Q294 -128 294 -108 Q294 -86 313 -67 Q332 -48 363 -48 Q398 -48 421 -74 Q444 -100 444 -143 Z " />
<glyph glyph-name="Lacute" unicode="&#x139;" horiz-adv-x="550" d="M536 162 Q535 146 534.5 124 Q534 102 533.5 79.5 Q533 57 532.5 35.5 Q532 14 532 0 L30 0 L30 40 L91 59 L91 502 Q91 517 90.5 529.5 Q90 542 85.5 551.5 Q81 561 72 567.5 Q63 574 47 579 L25 585 L25 625 Q37 624 59 623.5 Q81 623 105 622.5 Q129 622 151 622 Q173 622 185 622 Q197 622 220.5 622.5 Q244 623 269.5 623.5 Q295 624 317.5 624.5 Q340 625 350 625 L350 585 L280 566 L280 111 Q280 97 283 87.5 Q286 78 294 72 Q302 66 316.5 63 Q331 60 354 60 Q382 60 403.5 64.5 Q425 69 441 80.5 Q457 92 467 111.5 Q477 131 481 162 L536 162 Z M306 746 L74 665 L60 694 L207 809 Q219 818 229.5 823.5 Q240 829 250 829 Q267 829 282 807 L312 762 L306 746 Z " />
<glyph glyph-name="Lcaron" unicode="&#x13d;" horiz-adv-x="550" d="M536 162 Q535 146 534.5 124 Q534 102 533.5 79.5 Q533 57 532.5 35.5 Q532 14 532 0 L30 0 L30 40 L91 59 L91 502 Q91 517 90.5 529.5 Q90 542 85.5 551.5 Q81 561 72 567.5 Q63 574 47 579 L25 585 L25 625 Q37 624 59 623.5 Q81 623 105 622.5 Q129 622 151 622 Q173 622 185 622 Q197 622 220.5 622.5 Q244 623 269.5 623.5 Q295 624 317.5 624.5 Q340 625 350 625 L350 585 L280 566 L280 111 Q280 97 283 87.5 Q286 78 294 72 Q302 66 316.5 63 Q331 60 354 60 Q382 60 403.5 64.5 Q425 69 441 80.5 Q457 92 467 111.5 Q477 131 481 162 L536 162 Z M537 547 Q536 499 505 452 Q474 405 411 367 L392 396 Q455 453 455 490 Q455 505 444.5 514 Q434 523 421 531.5 Q408 540 397.5 551 Q387 562 387 582 Q387 604 406 623 Q425 642 456 642 Q491 642 514 616 Q537 590 537 547 Z " />
<glyph glyph-name="Lcommaaccent" unicode="&#x13b;" horiz-adv-x="550" d="M536 162 Q535 146 534.5 124 Q534 102 533.5 79.5 Q533 57 532.5 35.5 Q532 14 532 0 L30 0 L30 40 L91 59 L91 502 Q91 517 90.5 529.5 Q90 542 85.5 551.5 Q81 561 72 567.5 Q63 574 47 579 L25 585 L25 625 Q37 624 59 623.5 Q81 623 105 622.5 Q129 622 151 622 Q173 622 185 622 Q197 622 220.5 622.5 Q244 623 269.5 623.5 Q295 624 317.5 624.5 Q340 625 350 625 L350 585 L280 566 L280 111 Q280 97 283 87.5 Q286 78 294 72 Q302 66 316.5 63 Q331 60 354 60 Q382 60 403.5 64.5 Q425 69 441 80.5 Q457 92 467 111.5 Q477 131 481 162 L536 162 Z M394 -143 Q393 -191 362 -238 Q331 -285 268 -323 L249 -294 Q312 -237 312 -200 Q312 -185 301.5 -176 Q291 -167 278 -158.5 Q265 -150 254.5 -139 Q244 -128 244 -108 Q244 -86 263 -67 Q282 -48 313 -48 Q348 -48 371 -74 Q394 -100 394 -143 Z " />
<glyph glyph-name="Lslash" unicode="&#x141;" horiz-adv-x="550" d="M280 309 L280 111 Q280 97 283 87.5 Q286 78 294 72 Q302 66 316.5 63 Q331 60 354 60 Q382 60 403.5 64.5 Q425 69 441 80.5 Q457 92 467 111.5 Q477 131 481 162 L536 162 Q535 146 534.5 124 Q534 102 533.5 79.5 Q533 57 532.5 35.5 Q532 14 532 0 L30 0 L30 40 L91 59 L91 195 L47 169 L10 229 L91 278 L91 502 Q91 517 90.5 529.5 Q90 542 85.5 551.5 Q81 561 72 567.5 Q63 574 47 579 L25 585 L25 625 Q37 624 59 623.5 Q81 623 105 622.5 Q129 622 151 622 Q173 622 185 622 Q197 622 220.5 622.5 Q244 623 269.5 623.5 Q295 624 317.5 624.5 Q340 625 350 625 L350 585 L280 566 L280 391 L368 445 L405 385 L280 309 Z " />
<glyph glyph-name="Ldot" unicode="&#x13f;" horiz-adv-x="550" d="M536 162 Q535 146 534.5 124 Q534 102 533.5 79.5 Q533 57 532.5 35.5 Q532 14 532 0 L30 0 L30 40 L91 59 L91 502 Q91 517 90.5 529.5 Q90 542 85.5 551.5 Q81 561 72 567.5 Q63 574 47 579 L25 585 L25 625 Q37 624 59 623.5 Q81 623 105 622.5 Q129 622 151 622 Q173 622 185 622 Q197 622 220.5 622.5 Q244 623 269.5 623.5 Q295 624 317.5 624.5 Q340 625 350 625 L350 585 L280 566 L280 111 Q280 97 283 87.5 Q286 78 294 72 Q302 66 316.5 63 Q331 60 354 60 Q382 60 403.5 64.5 Q425 69 441 80.5 Q457 92 467 111.5 Q477 131 481 162 L536 162 Z M536 335 Q536 320 530 306 Q524 292 513.5 281 Q503 270 489 263.5 Q475 257 460 257 Q444 257 430 263.5 Q416 270 405.5 281 Q395 292 389 306 Q383 320 383 335 Q383 367 405.5 388.5 Q428 410 460 410 Q491 410 513.5 388.5 Q536 367 536 335 Z " />
<glyph glyph-name="Nacute" unicode="&#x143;" horiz-adv-x="706" d="M25 625 L248 625 L541 224 L541 502 Q541 517 540.5 529.5 Q540 542 535.5 551.5 Q531 561 522 567.5 Q513 574 497 579 L475 585 L475 625 Q501 624 530 623 Q559 622 582 622 Q603 622 631.5 623 Q660 624 683 625 L683 585 L622 566 L622 0 L485 0 L172 429 L172 118 Q172 84 179.5 69 Q187 54 216 46 L238 40 L238 0 Q188 3 139 3 Q127 3 112.5 2.5 Q98 2 83 1.5 Q68 1 54 0.5 Q40 0 30 0 L30 40 L91 59 L91 504 Q91 520 90.5 532 Q90 544 85.5 553 Q81 562 72 568 Q63 574 47 579 L25 585 L25 625 Z M473 746 L241 665 L227 694 L374 809 Q386 818 396.5 823.5 Q407 829 417 829 Q434 829 449 807 L479 762 L473 746 Z " />
<glyph glyph-name="Ncaron" unicode="&#x147;" horiz-adv-x="706" d="M25 625 L248 625 L541 224 L541 502 Q541 517 540.5 529.5 Q540 542 535.5 551.5 Q531 561 522 567.5 Q513 574 497 579 L475 585 L475 625 Q501 624 530 623 Q559 622 582 622 Q603 622 631.5 623 Q660 624 683 625 L683 585 L622 566 L622 0 L485 0 L172 429 L172 118 Q172 84 179.5 69 Q187 54 216 46 L238 40 L238 0 Q188 3 139 3 Q127 3 112.5 2.5 Q98 2 83 1.5 Q68 1 54 0.5 Q40 0 30 0 L30 40 L91 59 L91 504 Q91 520 90.5 532 Q90 544 85.5 553 Q81 562 72 568 Q63 574 47 579 L25 585 L25 625 Z M353 754 L480 835 L506 810 L398 675 L308 675 L200 810 L226 835 L353 754 Z " />
<glyph glyph-name="Ntilde" unicode="&#xd1;" horiz-adv-x="706" d="M25 625 L248 625 L541 224 L541 502 Q541 517 540.5 529.5 Q540 542 535.5 551.5 Q531 561 522 567.5 Q513 574 497 579 L475 585 L475 625 Q501 624 530 623 Q559 622 582 622 Q603 622 631.5 623 Q660 624 683 625 L683 585 L622 566 L622 0 L485 0 L172 429 L172 118 Q172 84 179.5 69 Q187 54 216 46 L238 40 L238 0 Q188 3 139 3 Q127 3 112.5 2.5 Q98 2 83 1.5 Q68 1 54 0.5 Q40 0 30 0 L30 40 L91 59 L91 504 Q91 520 90.5 532 Q90 544 85.5 553 Q81 562 72 568 Q63 574 47 579 L25 585 L25 625 Z M409 681 Q389 681 371.5 686.5 Q354 692 338.5 698 Q323 704 308.5 709.5 Q294 715 279 715 Q261 715 250.5 706 Q240 697 234 679 L193 688 Q201 745 230 772 Q259 799 296 799 Q316 799 333.5 793.5 Q351 788 366.5 782 Q382 776 396.5 770.5 Q411 765 426 765 Q444 765 454.5 773.5 Q465 782 471 800 L512 791 Q504 734 475 707.5 Q446 681 409 681 Z " />
<glyph glyph-name="Ncommaaccent" unicode="&#x145;" horiz-adv-x="706" d="M25 625 L248 625 L541 224 L541 502 Q541 517 540.5 529.5 Q540 542 535.5 551.5 Q531 561 522 567.5 Q513 574 497 579 L475 585 L475 625 Q501 624 530 623 Q559 622 582 622 Q603 622 631.5 623 Q660 624 683 625 L683 585 L622 566 L622 0 L485 0 L172 429 L172 118 Q172 84 179.5 69 Q187 54 216 46 L238 40 L238 0 Q188 3 139 3 Q127 3 112.5 2.5 Q98 2 83 1.5 Q68 1 54 0.5 Q40 0 30 0 L30 40 L91 59 L91 504 Q91 520 90.5 532 Q90 544 85.5 553 Q81 562 72 568 Q63 574 47 579 L25 585 L25 625 Z M442 -143 Q441 -191 410 -238 Q379 -285 316 -323 L297 -294 Q360 -237 360 -200 Q360 -185 349.5 -176 Q339 -167 326 -158.5 Q313 -150 302.5 -139 Q292 -128 292 -108 Q292 -86 311 -67 Q330 -48 361 -48 Q396 -48 419 -74 Q442 -100 442 -143 Z " />
<glyph glyph-name="Eng" unicode="&#x14a;" horiz-adv-x="715" d="M454 -70 Q486 -70 508.5 -57 Q531 -44 542 -14 L172 429 L172 118 Q172 84 179.5 69 Q187 54 216 46 L238 40 L238 0 Q188 3 139 3 Q127 3 112.5 2.5 Q98 2 83 1.5 Q68 1 54 0.5 Q40 0 30 0 L30 40 L91 59 L91 504 Q91 520 90.5 532 Q90 544 85.5 553 Q81 562 72 568 Q63 574 47 579 L25 585 L25 625 L237 625 L550 249 L550 502 Q550 517 549.5 529.5 Q549 542 544.5 551.5 Q540 561 531 567.5 Q522 574 506 579 L484 585 L484 625 Q510 624 539 623 Q568 622 591 622 Q612 622 640.5 623 Q669 624 692 625 L692 585 L631 566 L631 60 Q631 2 621 -46.5 Q611 -95 588.5 -130 Q566 -165 531 -184.5 Q496 -204 445 -204 Q415 -204 384 -196 Q353 -188 330 -175 Q322 -170 320 -165.5 Q318 -161 319 -153 L331 -45 L348 -38 Q377 -56 402.5 -63 Q428 -70 454 -70 Z " />
<glyph glyph-name="Ograve" unicode="&#xd2;" horiz-adv-x="690" d="M661 313 Q661 239 641 179 Q621 119 581.5 75.5 Q542 32 482.5 8.5 Q423 -15 345 -15 Q267 -15 207.5 8.5 Q148 32 108.5 75.5 Q69 119 49 179 Q29 239 29 313 Q29 386 49 446.5 Q69 507 108.5 550 Q148 593 207.5 616.5 Q267 640 345 640 Q423 640 482.5 616.5 Q542 593 581.5 550 Q621 507 641 446.5 Q661 386 661 313 Z M457 313 Q457 441 430 505 Q403 569 345 569 Q287 569 260 505 Q233 441 233 313 Q233 185 260 120.5 Q287 56 345 56 Q403 56 430 120.5 Q457 185 457 313 Z M219 763 L249 808 Q264 830 281 830 Q291 830 301.5 824.5 Q312 819 324 810 L471 695 L457 666 L225 747 L219 763 Z " />
<glyph glyph-name="Oacute" unicode="&#xd3;" horiz-adv-x="690" d="M661 313 Q661 239 641 179 Q621 119 581.5 75.5 Q542 32 482.5 8.5 Q423 -15 345 -15 Q267 -15 207.5 8.5 Q148 32 108.5 75.5 Q69 119 49 179 Q29 239 29 313 Q29 386 49 446.5 Q69 507 108.5 550 Q148 593 207.5 616.5 Q267 640 345 640 Q423 640 482.5 616.5 Q542 593 581.5 550 Q621 507 641 446.5 Q661 386 661 313 Z M457 313 Q457 441 430 505 Q403 569 345 569 Q287 569 260 505 Q233 441 233 313 Q233 185 260 120.5 Q287 56 345 56 Q403 56 430 120.5 Q457 185 457 313 Z M465 746 L233 665 L219 694 L366 809 Q378 818 388.5 823.5 Q399 829 409 829 Q426 829 441 807 L471 762 L465 746 Z " />
<glyph glyph-name="Ocircumflex" unicode="&#xd4;" horiz-adv-x="690" d="M661 313 Q661 239 641 179 Q621 119 581.5 75.5 Q542 32 482.5 8.5 Q423 -15 345 -15 Q267 -15 207.5 8.5 Q148 32 108.5 75.5 Q69 119 49 179 Q29 239 29 313 Q29 386 49 446.5 Q69 507 108.5 550 Q148 593 207.5 616.5 Q267 640 345 640 Q423 640 482.5 616.5 Q542 593 581.5 550 Q621 507 641 446.5 Q661 386 661 313 Z M457 313 Q457 441 430 505 Q403 569 345 569 Q287 569 260 505 Q233 441 233 313 Q233 185 260 120.5 Q287 56 345 56 Q403 56 430 120.5 Q457 185 457 313 Z M218 664 L192 689 L300 824 L390 824 L498 689 L472 664 L345 745 L218 664 Z " />
<glyph glyph-name="Otilde" unicode="&#xd5;" horiz-adv-x="690" d="M661 313 Q661 239 641 179 Q621 119 581.5 75.5 Q542 32 482.5 8.5 Q423 -15 345 -15 Q267 -15 207.5 8.5 Q148 32 108.5 75.5 Q69 119 49 179 Q29 239 29 313 Q29 386 49 446.5 Q69 507 108.5 550 Q148 593 207.5 616.5 Q267 640 345 640 Q423 640 482.5 616.5 Q542 593 581.5 550 Q621 507 641 446.5 Q661 386 661 313 Z M457 313 Q457 441 430 505 Q403 569 345 569 Q287 569 260 505 Q233 441 233 313 Q233 185 260 120.5 Q287 56 345 56 Q403 56 430 120.5 Q457 185 457 313 Z M401 681 Q381 681 363.5 686.5 Q346 692 330.5 698 Q315 704 300.5 709.5 Q286 715 271 715 Q253 715 242.5 706 Q232 697 226 679 L185 688 Q193 745 222 772 Q251 799 288 799 Q308 799 325.5 793.5 Q343 788 358.5 782 Q374 776 388.5 770.5 Q403 765 418 765 Q436 765 446.5 773.5 Q457 782 463 800 L504 791 Q496 734 467 707.5 Q438 681 401 681 Z " />
<glyph glyph-name="Odieresis" unicode="&#xd6;" horiz-adv-x="690" d="M661 313 Q661 239 641 179 Q621 119 581.5 75.5 Q542 32 482.5 8.5 Q423 -15 345 -15 Q267 -15 207.5 8.5 Q148 32 108.5 75.5 Q69 119 49 179 Q29 239 29 313 Q29 386 49 446.5 Q69 507 108.5 550 Q148 593 207.5 616.5 Q267 640 345 640 Q423 640 482.5 616.5 Q542 593 581.5 550 Q621 507 641 446.5 Q661 386 661 313 Z M457 313 Q457 441 430 505 Q403 569 345 569 Q287 569 260 505 Q233 441 233 313 Q233 185 260 120.5 Q287 56 345 56 Q403 56 430 120.5 Q457 185 457 313 Z M507 744 Q507 716 486.5 696 Q466 676 439 676 Q411 676 390 696 Q369 716 369 744 Q369 771 390 790.5 Q411 810 439 810 Q466 810 486.5 790.5 Q507 771 507 744 Z M321 744 Q321 716 300 696 Q279 676 251 676 Q238 676 225.5 681.5 Q213 687 203.5 696 Q194 705 188.5 717.5 Q183 730 183 744 Q183 771 204 790.5 Q225 810 251 810 Q279 810 300 790.5 Q321 771 321 744 Z " />
<glyph glyph-name="Omacron" unicode="&#x14c;" horiz-adv-x="690" d="M661 313 Q661 239 641 179 Q621 119 581.5 75.5 Q542 32 482.5 8.5 Q423 -15 345 -15 Q267 -15 207.5 8.5 Q148 32 108.5 75.5 Q69 119 49 179 Q29 239 29 313 Q29 386 49 446.5 Q69 507 108.5 550 Q148 593 207.5 616.5 Q267 640 345 640 Q423 640 482.5 616.5 Q542 593 581.5 550 Q621 507 641 446.5 Q661 386 661 313 Z M457 313 Q457 441 430 505 Q403 569 345 569 Q287 569 260 505 Q233 441 233 313 Q233 185 260 120.5 Q287 56 345 56 Q403 56 430 120.5 Q457 185 457 313 Z M216 688 L216 760 L474 760 L474 688 L216 688 Z " />
<glyph glyph-name="Obreve" unicode="&#x14e;" horiz-adv-x="690" d="M661 313 Q661 239 641 179 Q621 119 581.5 75.5 Q542 32 482.5 8.5 Q423 -15 345 -15 Q267 -15 207.5 8.5 Q148 32 108.5 75.5 Q69 119 49 179 Q29 239 29 313 Q29 386 49 446.5 Q69 507 108.5 550 Q148 593 207.5 616.5 Q267 640 345 640 Q423 640 482.5 616.5 Q542 593 581.5 550 Q621 507 641 446.5 Q661 386 661 313 Z M457 313 Q457 441 430 505 Q403 569 345 569 Q287 569 260 505 Q233 441 233 313 Q233 185 260 120.5 Q287 56 345 56 Q403 56 430 120.5 Q457 185 457 313 Z M474 806 Q474 750 440 712.5 Q406 675 345 675 Q284 675 250 712.5 Q216 750 216 806 L263 806 Q271 780 293 767.5 Q315 755 345 755 Q374 755 397 768 Q420 781 428 806 L474 806 L474 806 Z " />
<glyph glyph-name="Ohungarumlaut" unicode="&#x150;" horiz-adv-x="690" d="M661 313 Q661 239 641 179 Q621 119 581.5 75.5 Q542 32 482.5 8.5 Q423 -15 345 -15 Q267 -15 207.5 8.5 Q148 32 108.5 75.5 Q69 119 49 179 Q29 239 29 313 Q29 386 49 446.5 Q69 507 108.5 550 Q148 593 207.5 616.5 Q267 640 345 640 Q423 640 482.5 616.5 Q542 593 581.5 550 Q621 507 641 446.5 Q661 386 661 313 Z M457 313 Q457 441 430 505 Q403 569 345 569 Q287 569 260 505 Q233 441 233 313 Q233 185 260 120.5 Q287 56 345 56 Q403 56 430 120.5 Q457 185 457 313 Z M352 751 L154 665 L140 689 L264 802 Q275 813 284 818.5 Q293 824 303 824 Q318 824 330 806 L357 766 L352 751 Z M545 751 L347 665 L333 689 L457 802 Q468 813 477 818.5 Q486 824 496 824 Q511 824 523 806 L550 766 L545 751 Z " />
<glyph glyph-name="Oslash" unicode="&#xd8;" horiz-adv-x="690" d="M661 313 Q661 239 641 179 Q621 119 581.5 75.5 Q542 32 482.5 8.5 Q423 -15 345 -15 Q313 -15 284 -11 Q255 -7 229 1 L202 -55 L131 -55 L170 26 Q99 67 64 140.5 Q29 214 29 313 Q29 386 49 446.5 Q69 507 108.5 550 Q148 593 207.5 616.5 Q267 640 345 640 Q407 640 457 625 L484 680 L555 680 L517 601 Q589 561 625 487 Q661 413 661 313 Z M457 313 Q457 396 445 452 L274 95 Q299 56 345 56 Q403 56 430 120.5 Q457 185 457 313 Z M233 313 Q233 273 235.5 239.5 Q238 206 243 179 L413 534 Q387 569 345 569 Q287 569 260 505 Q233 441 233 313 Z " />
<glyph glyph-name="Oslashacute" unicode="&#x1fe;" horiz-adv-x="690" d="M661 313 Q661 239 641 179 Q621 119 581.5 75.5 Q542 32 482.5 8.5 Q423 -15 345 -15 Q313 -15 284 -11 Q255 -7 229 1 L202 -55 L131 -55 L170 26 Q99 67 64 140.5 Q29 214 29 313 Q29 386 49 446.5 Q69 507 108.5 550 Q148 593 207.5 616.5 Q267 640 345 640 Q407 640 457 625 L484 680 L555 680 L517 601 Q589 561 625 487 Q661 413 661 313 Z M457 313 Q457 396 445 452 L274 95 Q299 56 345 56 Q403 56 430 120.5 Q457 185 457 313 Z M233 313 Q233 273 235.5 239.5 Q238 206 243 179 L413 534 Q387 569 345 569 Q287 569 260 505 Q233 441 233 313 Z M465 746 L233 665 L219 694 L366 809 Q378 818 388.5 823.5 Q399 829 409 829 Q426 829 441 807 L471 762 L465 746 Z " />
<glyph glyph-name="OE" unicode="&#x152;" horiz-adv-x="910" d="M342 -15 Q263 -15 203.5 8 Q144 31 104.5 74 Q65 117 45.5 177.5 Q26 238 26 313 Q26 388 45.5 448.5 Q65 509 104.5 551.5 Q144 594 203.5 617 Q263 640 342 640 Q377 640 406.5 637.5 Q436 635 466 632.5 Q496 630 529 627.5 Q562 625 605 625 L851 625 Q851 609 852.5 586 Q854 563 856 539.5 Q858 516 859.5 495 Q861 474 863 462 L803 462 Q800 489 793.5 509 Q787 529 774 541.5 Q761 554 738.5 560 Q716 566 681 566 L610 566 L610 350 L630 350 Q681 350 722.5 354 Q764 358 789 364 L782 278 Q762 281 723 284 Q684 287 630 287 L610 287 L610 111 Q610 82 627.5 71 Q645 60 692 60 Q720 60 742.5 64.5 Q765 69 781.5 80.5 Q798 92 809 111.5 Q820 131 824 162 L879 162 Q878 150 877 127.5 Q876 105 875.5 81 Q875 57 874.5 34.5 Q874 12 874 0 L588 0 Q555 0 526 -2.5 Q497 -5 468 -7.5 Q439 -10 408.5 -12.5 Q378 -15 342 -15 Z M421 475 Q421 531 398 554 Q378 574 342 574 Q282 574 256 509 Q230 444 230 313 Q230 182 256 117 Q282 52 342 52 Q378 52 398 72 Q421 95 421 151 L421 475 Z " />
<glyph glyph-name="Thorn" unicode="&#xde;" horiz-adv-x="606" d="M280 510 L306 510 Q363 510 413 503.5 Q463 497 500.5 477 Q538 457 559.5 420.5 Q581 384 581 324 Q581 281 566 244.5 Q551 208 518.5 182 Q486 156 434 141 Q382 126 308 126 L280 126 L280 120 Q280 105 280.5 93 Q281 81 285.5 72 Q290 63 298.5 56.5 Q307 50 324 46 L346 40 L346 0 Q334 1 311.5 1.5 Q289 2 264.5 2.5 Q240 3 217.5 3 Q195 3 183 3 Q171 3 149 2.5 Q127 2 103 1.5 Q79 1 58 0.5 Q37 0 27 0 L27 40 L91 59 L91 502 Q91 517 90.5 529.5 Q90 542 85.5 551.5 Q81 561 72 567.5 Q63 574 47 579 L25 585 L25 625 Q37 624 59 623.5 Q81 623 105 622.5 Q129 622 151.5 622 Q174 622 186 622 Q198 622 220 622.5 Q242 623 265.5 623.5 Q289 624 310 624.5 Q331 625 341 625 L341 585 L280 566 L280 510 Z M280 451 L280 184 L290 184 Q321 184 340.5 194.5 Q360 205 371 223.5 Q382 242 386.5 267 Q391 292 391 321 Q391 360 384 386 Q377 412 365 426 Q353 440 336 445.5 Q319 451 293 451 L280 451 Z " />
<glyph glyph-name="Racute" unicode="&#x154;" horiz-adv-x="661" d="M280 123 Q280 108 280.5 95.5 Q281 83 285.5 73.5 Q290 64 298.5 57 Q307 50 324 46 L346 40 L346 0 Q334 1 311.5 1.5 Q289 2 264.5 2.5 Q240 3 217.5 3 Q195 3 183 3 Q171 3 150.5 2.5 Q130 2 107.5 1.5 Q85 1 65.5 0.5 Q46 0 36 0 L36 40 L91 59 L91 502 Q91 517 90.5 529.5 Q90 542 85.5 551.5 Q81 561 72 567.5 Q63 574 47 579 L25 585 L25 625 L322 625 Q393 625 443 615 Q493 605 524.5 584.5 Q556 564 570 532.5 Q584 501 584 459 Q584 404 547 365.5 Q510 327 447 307 Q470 301 486 294 Q502 287 514 276.5 Q526 266 534 250.5 Q542 235 549 213 L578 116 Q584 96 590 83 Q596 70 604.5 61 Q613 52 626 47.5 Q639 43 659 40 L659 0 L414 0 Q414 23 409.5 46.5 Q405 70 396 99 L366 200 Q355 239 340.5 251.5 Q326 264 296 264 L280 264 L280 123 Z M393 446 Q393 482 386 505.5 Q379 529 367 543 Q354 557 336.5 561.5 Q319 566 296 566 L280 566 L280 321 L309 321 Q334 321 350.5 331.5 Q367 342 376.5 359 Q386 376 389.5 399 Q393 422 393 446 Z M452 746 L220 665 L206 694 L353 809 Q365 818 375.5 823.5 Q386 829 396 829 Q413 829 428 807 L458 762 L452 746 Z " />
<glyph glyph-name="Rcaron" unicode="&#x158;" horiz-adv-x="661" d="M280 123 Q280 108 280.5 95.5 Q281 83 285.5 73.5 Q290 64 298.5 57 Q307 50 324 46 L346 40 L346 0 Q334 1 311.5 1.5 Q289 2 264.5 2.5 Q240 3 217.5 3 Q195 3 183 3 Q171 3 150.5 2.5 Q130 2 107.5 1.5 Q85 1 65.5 0.5 Q46 0 36 0 L36 40 L91 59 L91 502 Q91 517 90.5 529.5 Q90 542 85.5 551.5 Q81 561 72 567.5 Q63 574 47 579 L25 585 L25 625 L322 625 Q393 625 443 615 Q493 605 524.5 584.5 Q556 564 570 532.5 Q584 501 584 459 Q584 404 547 365.5 Q510 327 447 307 Q470 301 486 294 Q502 287 514 276.5 Q526 266 534 250.5 Q542 235 549 213 L578 116 Q584 96 590 83 Q596 70 604.5 61 Q613 52 626 47.5 Q639 43 659 40 L659 0 L414 0 Q414 23 409.5 46.5 Q405 70 396 99 L366 200 Q355 239 340.5 251.5 Q326 264 296 264 L280 264 L280 123 Z M393 446 Q393 482 386 505.5 Q379 529 367 543 Q354 557 336.5 561.5 Q319 566 296 566 L280 566 L280 321 L309 321 Q334 321 350.5 331.5 Q367 342 376.5 359 Q386 376 389.5 399 Q393 422 393 446 Z M330 754 L457 835 L483 810 L375 675 L285 675 L177 810 L203 835 L330 754 Z " />
<glyph glyph-name="Rcommaaccent" unicode="&#x156;" horiz-adv-x="661" d="M280 123 Q280 108 280.5 95.5 Q281 83 285.5 73.5 Q290 64 298.5 57 Q307 50 324 46 L346 40 L346 0 Q334 1 311.5 1.5 Q289 2 264.5 2.5 Q240 3 217.5 3 Q195 3 183 3 Q171 3 150.5 2.5 Q130 2 107.5 1.5 Q85 1 65.5 0.5 Q46 0 36 0 L36 40 L91 59 L91 502 Q91 517 90.5 529.5 Q90 542 85.5 551.5 Q81 561 72 567.5 Q63 574 47 579 L25 585 L25 625 L322 625 Q393 625 443 615 Q493 605 524.5 584.5 Q556 564 570 532.5 Q584 501 584 459 Q584 404 547 365.5 Q510 327 447 307 Q470 301 486 294 Q502 287 514 276.5 Q526 266 534 250.5 Q542 235 549 213 L578 116 Q584 96 590 83 Q596 70 604.5 61 Q613 52 626 47.5 Q639 43 659 40 L659 0 L414 0 Q414 23 409.5 46.5 Q405 70 396 99 L366 200 Q355 239 340.5 251.5 Q326 264 296 264 L280 264 L280 123 Z M393 446 Q393 482 386 505.5 Q379 529 367 543 Q354 557 336.5 561.5 Q319 566 296 566 L280 566 L280 321 L309 321 Q334 321 350.5 331.5 Q367 342 376.5 359 Q386 376 389.5 399 Q393 422 393 446 Z M430 -143 Q429 -191 398 -238 Q367 -285 304 -323 L285 -294 Q348 -237 348 -200 Q348 -185 337.5 -176 Q327 -167 314 -158.5 Q301 -150 290.5 -139 Q280 -128 280 -108 Q280 -86 299 -67 Q318 -48 349 -48 Q384 -48 407 -74 Q430 -100 430 -143 Z " />
<glyph glyph-name="Sacute" unicode="&#x15a;" horiz-adv-x="539" d="M504 200 Q504 157 486.5 118 Q469 79 435.5 49.5 Q402 20 353.5 2.5 Q305 -15 243 -15 Q195 -15 143 -6 Q91 3 49 23 L49 180 L108 180 Q114 144 128 119 Q142 94 160 79 Q178 64 199 57.5 Q220 51 241 51 Q283 51 313 71.5 Q343 92 343 128 Q343 156 320.5 175 Q298 194 265 210.5 Q232 227 192.5 244.5 Q153 262 120 288.5 Q87 315 64.5 353 Q42 391 42 448 Q42 486 55.5 517 Q69 548 93 572 Q126 605 178 622.5 Q230 640 288 640 Q330 640 370 632.5 Q410 625 457 623 Q457 610 457.5 588.5 Q458 567 458.5 544 Q459 521 459.5 498.5 Q460 476 461 460 L404 460 Q395 515 366.5 544.5 Q338 574 293 574 Q254 574 228.5 555 Q203 536 203 504 Q203 474 225.5 454 Q248 434 281 416.5 Q314 399 353.5 381.5 Q393 364 426 340.5 Q459 317 481.5 283 Q504 249 504 200 Z M391 746 L159 665 L145 694 L292 809 Q304 818 314.5 823.5 Q325 829 335 829 Q352 829 367 807 L397 762 L391 746 Z " />
<glyph glyph-name="Scircumflex" unicode="&#x15c;" horiz-adv-x="539" d="M504 200 Q504 157 486.5 118 Q469 79 435.5 49.5 Q402 20 353.5 2.5 Q305 -15 243 -15 Q195 -15 143 -6 Q91 3 49 23 L49 180 L108 180 Q114 144 128 119 Q142 94 160 79 Q178 64 199 57.5 Q220 51 241 51 Q283 51 313 71.5 Q343 92 343 128 Q343 156 320.5 175 Q298 194 265 210.5 Q232 227 192.5 244.5 Q153 262 120 288.5 Q87 315 64.5 353 Q42 391 42 448 Q42 486 55.5 517 Q69 548 93 572 Q126 605 178 622.5 Q230 640 288 640 Q330 640 370 632.5 Q410 625 457 623 Q457 610 457.5 588.5 Q458 567 458.5 544 Q459 521 459.5 498.5 Q460 476 461 460 L404 460 Q395 515 366.5 544.5 Q338 574 293 574 Q254 574 228.5 555 Q203 536 203 504 Q203 474 225.5 454 Q248 434 281 416.5 Q314 399 353.5 381.5 Q393 364 426 340.5 Q459 317 481.5 283 Q504 249 504 200 Z M144 664 L118 689 L226 824 L316 824 L424 689 L398 664 L271 745 L144 664 Z " />
<glyph glyph-name="Scaron" unicode="&#x160;" horiz-adv-x="539" d="M504 200 Q504 157 486.5 118 Q469 79 435.5 49.5 Q402 20 353.5 2.5 Q305 -15 243 -15 Q195 -15 143 -6 Q91 3 49 23 L49 180 L108 180 Q114 144 128 119 Q142 94 160 79 Q178 64 199 57.5 Q220 51 241 51 Q283 51 313 71.5 Q343 92 343 128 Q343 156 320.5 175 Q298 194 265 210.5 Q232 227 192.5 244.5 Q153 262 120 288.5 Q87 315 64.5 353 Q42 391 42 448 Q42 486 55.5 517 Q69 548 93 572 Q126 605 178 622.5 Q230 640 288 640 Q330 640 370 632.5 Q410 625 457 623 Q457 610 457.5 588.5 Q458 567 458.5 544 Q459 521 459.5 498.5 Q460 476 461 460 L404 460 Q395 515 366.5 544.5 Q338 574 293 574 Q254 574 228.5 555 Q203 536 203 504 Q203 474 225.5 454 Q248 434 281 416.5 Q314 399 353.5 381.5 Q393 364 426 340.5 Q459 317 481.5 283 Q504 249 504 200 Z M271 754 L398 835 L424 810 L316 675 L226 675 L118 810 L144 835 L271 754 Z " />
<glyph glyph-name="Scedilla" unicode="&#x15e;" horiz-adv-x="539" d="M504 200 Q504 161 489.5 125 Q475 89 447 60.5 Q419 32 378.5 13 Q338 -6 286 -12 L280 -31 Q315 -38 342 -59 Q369 -80 369 -120 Q369 -156 350.5 -180.5 Q332 -205 303.5 -219.5 Q275 -234 240.5 -239.5 Q206 -245 173 -242 L168 -198 Q215 -191 243.5 -172 Q272 -153 272 -126 Q272 -109 262 -97.5 Q252 -86 225 -81 Q210 -78 207.5 -72 Q205 -66 209 -55 L223 -14 Q178 -12 132 -3 Q86 6 49 23 L49 180 L108 180 Q114 144 128 119 Q142 94 160 79 Q178 64 199 57.5 Q220 51 241 51 Q283 51 313 71.5 Q343 92 343 128 Q343 156 320.5 175 Q298 194 265 210.5 Q232 227 192.5 244.5 Q153 262 120 288.5 Q87 315 64.5 353 Q42 391 42 448 Q42 486 55.5 517 Q69 548 93 572 Q126 605 178 622.5 Q230 640 288 640 Q330 640 370 632.5 Q410 625 457 623 Q457 610 457.5 588.5 Q458 567 458.5 544 Q459 521 459.5 498.5 Q460 476 461 460 L404 460 Q395 515 366.5 544.5 Q338 574 293 574 Q254 574 228.5 555 Q203 536 203 504 Q203 474 225.5 454 Q248 434 281 416.5 Q314 399 353.5 381.5 Q393 364 426 340.5 Q459 317 481.5 283 Q504 249 504 200 Z " />
<glyph glyph-name="Scommaaccent" unicode="&#x218;" horiz-adv-x="539" d="M504 200 Q504 157 486.5 118 Q469 79 435.5 49.5 Q402 20 353.5 2.5 Q305 -15 243 -15 Q195 -15 143 -6 Q91 3 49 23 L49 180 L108 180 Q114 144 128 119 Q142 94 160 79 Q178 64 199 57.5 Q220 51 241 51 Q283 51 313 71.5 Q343 92 343 128 Q343 156 320.5 175 Q298 194 265 210.5 Q232 227 192.5 244.5 Q153 262 120 288.5 Q87 315 64.5 353 Q42 391 42 448 Q42 486 55.5 517 Q69 548 93 572 Q126 605 178 622.5 Q230 640 288 640 Q330 640 370 632.5 Q410 625 457 623 Q457 610 457.5 588.5 Q458 567 458.5 544 Q459 521 459.5 498.5 Q460 476 461 460 L404 460 Q395 515 366.5 544.5 Q338 574 293 574 Q254 574 228.5 555 Q203 536 203 504 Q203 474 225.5 454 Q248 434 281 416.5 Q314 399 353.5 381.5 Q393 364 426 340.5 Q459 317 481.5 283 Q504 249 504 200 Z M343 -143 Q342 -191 311 -238 Q280 -285 217 -323 L198 -294 Q261 -237 261 -200 Q261 -185 250.5 -176 Q240 -167 227 -158.5 Q214 -150 203.5 -139 Q193 -128 193 -108 Q193 -86 212 -67 Q231 -48 262 -48 Q297 -48 320 -74 Q343 -100 343 -143 Z " />
<glyph glyph-name="Tcaron" unicode="&#x164;" horiz-adv-x="639" d="M414 562 L414 120 Q414 101 415.5 88.5 Q417 76 421.5 68 Q426 60 434.5 55 Q443 50 458 46 L480 40 L480 0 Q468 1 446 1.5 Q424 2 400 2.5 Q376 3 354 3 Q332 3 320 3 Q308 3 286 2.5 Q264 2 240 1.5 Q216 1 194.5 0.5 Q173 0 163 0 L163 40 L225 59 L225 562 L184 562 Q160 562 142.5 556 Q125 550 111.5 536.5 Q98 523 88.5 499.5 Q79 476 71 442 L18 442 Q19 455 19.5 480 Q20 505 21 532.5 Q22 560 22.5 585.5 Q23 611 23 625 L616 625 Q616 611 616.5 585.5 Q617 560 617.5 532.5 Q618 505 619 480 Q620 455 621 442 L568 442 Q560 476 550.5 499.5 Q541 523 527.5 536.5 Q514 550 496.5 556 Q479 562 455 562 L414 562 Z M320 754 L447 835 L473 810 L365 675 L275 675 L167 810 L193 835 L320 754 Z " />
<glyph glyph-name="Tcommaaccent" unicode="&#x162;" horiz-adv-x="639" d="M414 562 L414 120 Q414 101 415.5 88.5 Q417 76 421.5 68 Q426 60 434.5 55 Q443 50 458 46 L480 40 L480 0 Q468 1 446 1.5 Q424 2 400 2.5 Q376 3 354 3 Q332 3 320 3 Q308 3 286 2.5 Q264 2 240 1.5 Q216 1 194.5 0.5 Q173 0 163 0 L163 40 L225 59 L225 562 L184 562 Q160 562 142.5 556 Q125 550 111.5 536.5 Q98 523 88.5 499.5 Q79 476 71 442 L18 442 Q19 455 19.5 480 Q20 505 21 532.5 Q22 560 22.5 585.5 Q23 611 23 625 L616 625 Q616 611 616.5 585.5 Q617 560 617.5 532.5 Q618 505 619 480 Q620 455 621 442 L568 442 Q560 476 550.5 499.5 Q541 523 527.5 536.5 Q514 550 496.5 556 Q479 562 455 562 L414 562 Z M401 -143 Q400 -191 369 -238 Q338 -285 275 -323 L256 -294 Q319 -237 319 -200 Q319 -185 308.5 -176 Q298 -167 285 -158.5 Q272 -150 261.5 -139 Q251 -128 251 -108 Q251 -86 270 -67 Q289 -48 320 -48 Q355 -48 378 -74 Q401 -100 401 -143 Z " />
<glyph glyph-name="uni021A" unicode="&#x21a;" horiz-adv-x="639" d="M414 562 L414 120 Q414 101 415.5 88.5 Q417 76 421.5 68 Q426 60 434.5 55 Q443 50 458 46 L480 40 L480 0 Q468 1 446 1.5 Q424 2 400 2.5 Q376 3 354 3 Q332 3 320 3 Q308 3 286 2.5 Q264 2 240 1.5 Q216 1 194.5 0.5 Q173 0 163 0 L163 40 L225 59 L225 562 L184 562 Q160 562 142.5 556 Q125 550 111.5 536.5 Q98 523 88.5 499.5 Q79 476 71 442 L18 442 Q19 455 19.5 480 Q20 505 21 532.5 Q22 560 22.5 585.5 Q23 611 23 625 L616 625 Q616 611 616.5 585.5 Q617 560 617.5 532.5 Q618 505 619 480 Q620 455 621 442 L568 442 Q560 476 550.5 499.5 Q541 523 527.5 536.5 Q514 550 496.5 556 Q479 562 455 562 L414 562 Z M401 -143 Q400 -191 369 -238 Q338 -285 275 -323 L256 -294 Q319 -237 319 -200 Q319 -185 308.5 -176 Q298 -167 285 -158.5 Q272 -150 261.5 -139 Q251 -128 251 -108 Q251 -86 270 -67 Q289 -48 320 -48 Q355 -48 378 -74 Q401 -100 401 -143 Z " />
<glyph glyph-name="Tbar" unicode="&#x166;" horiz-adv-x="639" d="M414 278 L414 120 Q414 101 415.5 88.5 Q417 76 421.5 68 Q426 60 434.5 55 Q443 50 458 46 L480 40 L480 0 Q468 1 446 1.5 Q424 2 400 2.5 Q376 3 354 3 Q332 3 320 3 Q308 3 286 2.5 Q264 2 240 1.5 Q216 1 194.5 0.5 Q173 0 163 0 L163 40 L225 59 L225 278 L108 278 L108 342 L225 342 L225 562 L183 562 Q159 562 141.5 556 Q124 550 111 536.5 Q98 523 88.5 499.5 Q79 476 71 442 L18 442 Q19 455 19.5 480 Q20 505 21 532.5 Q22 560 22.5 585.5 Q23 611 23 625 L616 625 Q616 611 616.5 585.5 Q617 560 617.5 532.5 Q618 505 619 480 Q620 455 621 442 L568 442 Q560 476 550.5 499.5 Q541 523 528 536.5 Q515 550 497.5 556 Q480 562 456 562 L414 562 L414 342 L531 342 L531 278 L414 278 Z " />
<glyph glyph-name="Ugrave" unicode="&#xd9;" horiz-adv-x="689" d="M275 221 Q275 176 282.5 149 Q290 122 306 105 Q322 88 345.5 79.5 Q369 71 397 71 Q426 71 449.5 79.5 Q473 88 489 103 Q509 122 517.5 151.5 Q526 181 526 226 L526 505 Q526 539 519.5 555 Q513 571 482 579 L460 585 L460 625 Q485 623 511 622.5 Q537 622 562 622 Q574 622 588.5 622.5 Q603 623 617.5 623.5 Q632 624 645.5 624.5 Q659 625 669 625 L669 585 L608 566 L608 217 Q608 159 594 119 Q580 79 551 50 Q488 -15 359 -15 Q291 -15 234.5 2.5 Q178 20 143 55 Q86 112 86 224 L86 509 Q86 528 84 540.5 Q82 553 76.5 560.5 Q71 568 62.5 572 Q54 576 42 579 L20 585 L20 625 Q32 624 54 623.5 Q76 623 100 622.5 Q124 622 146.5 622 Q169 622 181 622 Q193 622 215 622.5 Q237 623 260.5 623.5 Q284 624 305 624.5 Q326 625 336 625 L336 585 L275 566 L275 221 Z M240 763 L270 808 Q285 830 302 830 Q312 830 322.5 824.5 Q333 819 345 810 L492 695 L478 666 L246 747 L240 763 Z " />
<glyph glyph-name="Uacute" unicode="&#xda;" horiz-adv-x="689" d="M275 221 Q275 176 282.5 149 Q290 122 306 105 Q322 88 345.5 79.5 Q369 71 397 71 Q426 71 449.5 79.5 Q473 88 489 103 Q509 122 517.5 151.5 Q526 181 526 226 L526 505 Q526 539 519.5 555 Q513 571 482 579 L460 585 L460 625 Q485 623 511 622.5 Q537 622 562 622 Q574 622 588.5 622.5 Q603 623 617.5 623.5 Q632 624 645.5 624.5 Q659 625 669 625 L669 585 L608 566 L608 217 Q608 159 594 119 Q580 79 551 50 Q488 -15 359 -15 Q291 -15 234.5 2.5 Q178 20 143 55 Q86 112 86 224 L86 509 Q86 528 84 540.5 Q82 553 76.5 560.5 Q71 568 62.5 572 Q54 576 42 579 L20 585 L20 625 Q32 624 54 623.5 Q76 623 100 622.5 Q124 622 146.5 622 Q169 622 181 622 Q193 622 215 622.5 Q237 623 260.5 623.5 Q284 624 305 624.5 Q326 625 336 625 L336 585 L275 566 L275 221 Z M507 746 L275 665 L261 694 L408 809 Q420 818 430.5 823.5 Q441 829 451 829 Q468 829 483 807 L513 762 L507 746 Z " />
<glyph glyph-name="Ucircumflex" unicode="&#xdb;" horiz-adv-x="689" d="M275 221 Q275 176 282.5 149 Q290 122 306 105 Q322 88 345.5 79.5 Q369 71 397 71 Q426 71 449.5 79.5 Q473 88 489 103 Q509 122 517.5 151.5 Q526 181 526 226 L526 505 Q526 539 519.5 555 Q513 571 482 579 L460 585 L460 625 Q485 623 511 622.5 Q537 622 562 622 Q574 622 588.5 622.5 Q603 623 617.5 623.5 Q632 624 645.5 624.5 Q659 625 669 625 L669 585 L608 566 L608 217 Q608 159 594 119 Q580 79 551 50 Q488 -15 359 -15 Q291 -15 234.5 2.5 Q178 20 143 55 Q86 112 86 224 L86 509 Q86 528 84 540.5 Q82 553 76.5 560.5 Q71 568 62.5 572 Q54 576 42 579 L20 585 L20 625 Q32 624 54 623.5 Q76 623 100 622.5 Q124 622 146.5 622 Q169 622 181 622 Q193 622 215 622.5 Q237 623 260.5 623.5 Q284 624 305 624.5 Q326 625 336 625 L336 585 L275 566 L275 221 Z M267 664 L241 689 L349 824 L439 824 L547 689 L521 664 L394 745 L267 664 Z " />
<glyph glyph-name="Utilde" unicode="&#x168;" horiz-adv-x="689" d="M275 221 Q275 176 282.5 149 Q290 122 306 105 Q322 88 345.5 79.5 Q369 71 397 71 Q426 71 449.5 79.5 Q473 88 489 103 Q509 122 517.5 151.5 Q526 181 526 226 L526 505 Q526 539 519.5 555 Q513 571 482 579 L460 585 L460 625 Q485 623 511 622.5 Q537 622 562 622 Q574 622 588.5 622.5 Q603 623 617.5 623.5 Q632 624 645.5 624.5 Q659 625 669 625 L669 585 L608 566 L608 217 Q608 159 594 119 Q580 79 551 50 Q488 -15 359 -15 Q291 -15 234.5 2.5 Q178 20 143 55 Q86 112 86 224 L86 509 Q86 528 84 540.5 Q82 553 76.5 560.5 Q71 568 62.5 572 Q54 576 42 579 L20 585 L20 625 Q32 624 54 623.5 Q76 623 100 622.5 Q124 622 146.5 622 Q169 622 181 622 Q193 622 215 622.5 Q237 623 260.5 623.5 Q284 624 305 624.5 Q326 625 336 625 L336 585 L275 566 L275 221 Z M454 681 Q434 681 416.5 686.5 Q399 692 383.5 698 Q368 704 353.5 709.5 Q339 715 324 715 Q306 715 295.5 706 Q285 697 279 679 L238 688 Q246 745 275 772 Q304 799 341 799 Q361 799 378.5 793.5 Q396 788 411.5 782 Q427 776 441.5 770.5 Q456 765 471 765 Q489 765 499.5 773.5 Q510 782 516 800 L557 791 Q549 734 520 707.5 Q491 681 454 681 Z " />
<glyph glyph-name="Udieresis" unicode="&#xdc;" horiz-adv-x="689" d="M275 221 Q275 176 282.5 149 Q290 122 306 105 Q322 88 345.5 79.5 Q369 71 397 71 Q426 71 449.5 79.5 Q473 88 489 103 Q509 122 517.5 151.5 Q526 181 526 226 L526 505 Q526 539 519.5 555 Q513 571 482 579 L460 585 L460 625 Q485 623 511 622.5 Q537 622 562 622 Q574 622 588.5 622.5 Q603 623 617.5 623.5 Q632 624 645.5 624.5 Q659 625 669 625 L669 585 L608 566 L608 217 Q608 159 594 119 Q580 79 551 50 Q488 -15 359 -15 Q291 -15 234.5 2.5 Q178 20 143 55 Q86 112 86 224 L86 509 Q86 528 84 540.5 Q82 553 76.5 560.5 Q71 568 62.5 572 Q54 576 42 579 L20 585 L20 625 Q32 624 54 623.5 Q76 623 100 622.5 Q124 622 146.5 622 Q169 622 181 622 Q193 622 215 622.5 Q237 623 260.5 623.5 Q284 624 305 624.5 Q326 625 336 625 L336 585 L275 566 L275 221 Z M560 744 Q560 716 539.5 696 Q519 676 492 676 Q464 676 443 696 Q422 716 422 744 Q422 771 443 790.5 Q464 810 492 810 Q519 810 539.5 790.5 Q560 771 560 744 Z M374 744 Q374 716 353 696 Q332 676 304 676 Q291 676 278.5 681.5 Q266 687 256.5 696 Q247 705 241.5 717.5 Q236 730 236 744 Q236 771 257 790.5 Q278 810 304 810 Q332 810 353 790.5 Q374 771 374 744 Z " />
<glyph glyph-name="Umacron" unicode="&#x16a;" horiz-adv-x="689" d="M275 221 Q275 176 282.5 149 Q290 122 306 105 Q322 88 345.5 79.5 Q369 71 397 71 Q426 71 449.5 79.5 Q473 88 489 103 Q509 122 517.5 151.5 Q526 181 526 226 L526 505 Q526 539 519.5 555 Q513 571 482 579 L460 585 L460 625 Q485 623 511 622.5 Q537 622 562 622 Q574 622 588.5 622.5 Q603 623 617.5 623.5 Q632 624 645.5 624.5 Q659 625 669 625 L669 585 L608 566 L608 217 Q608 159 594 119 Q580 79 551 50 Q488 -15 359 -15 Q291 -15 234.5 2.5 Q178 20 143 55 Q86 112 86 224 L86 509 Q86 528 84 540.5 Q82 553 76.5 560.5 Q71 568 62.5 572 Q54 576 42 579 L20 585 L20 625 Q32 624 54 623.5 Q76 623 100 622.5 Q124 622 146.5 622 Q169 622 181 622 Q193 622 215 622.5 Q237 623 260.5 623.5 Q284 624 305 624.5 Q326 625 336 625 L336 585 L275 566 L275 221 Z M262 688 L262 760 L520 760 L520 688 L262 688 Z " />
<glyph glyph-name="Ubreve" unicode="&#x16c;" horiz-adv-x="689" d="M275 221 Q275 176 282.5 149 Q290 122 306 105 Q322 88 345.5 79.5 Q369 71 397 71 Q426 71 449.5 79.5 Q473 88 489 103 Q509 122 517.5 151.5 Q526 181 526 226 L526 505 Q526 539 519.5 555 Q513 571 482 579 L460 585 L460 625 Q485 623 511 622.5 Q537 622 562 622 Q574 622 588.5 622.5 Q603 623 617.5 623.5 Q632 624 645.5 624.5 Q659 625 669 625 L669 585 L608 566 L608 217 Q608 159 594 119 Q580 79 551 50 Q488 -15 359 -15 Q291 -15 234.5 2.5 Q178 20 143 55 Q86 112 86 224 L86 509 Q86 528 84 540.5 Q82 553 76.5 560.5 Q71 568 62.5 572 Q54 576 42 579 L20 585 L20 625 Q32 624 54 623.5 Q76 623 100 622.5 Q124 622 146.5 622 Q169 622 181 622 Q193 622 215 622.5 Q237 623 260.5 623.5 Q284 624 305 624.5 Q326 625 336 625 L336 585 L275 566 L275 221 Z M529 806 Q529 750 495 712.5 Q461 675 400 675 Q339 675 305 712.5 Q271 750 271 806 L318 806 Q326 780 348 767.5 Q370 755 400 755 Q429 755 452 768 Q475 781 483 806 L529 806 L529 806 Z " />
<glyph glyph-name="Uring" unicode="&#x16e;" horiz-adv-x="689" d="M275 221 Q275 176 282.5 149 Q290 122 306 105 Q322 88 345.5 79.5 Q369 71 397 71 Q426 71 449.5 79.5 Q473 88 489 103 Q509 122 517.5 151.5 Q526 181 526 226 L526 505 Q526 539 519.5 555 Q513 571 482 579 L460 585 L460 625 Q485 623 511 622.5 Q537 622 562 622 Q574 622 588.5 622.5 Q603 623 617.5 623.5 Q632 624 645.5 624.5 Q659 625 669 625 L669 585 L608 566 L608 217 Q608 159 594 119 Q580 79 551 50 Q488 -15 359 -15 Q291 -15 234.5 2.5 Q178 20 143 55 Q86 112 86 224 L86 509 Q86 528 84 540.5 Q82 553 76.5 560.5 Q71 568 62.5 572 Q54 576 42 579 L20 585 L20 625 Q32 624 54 623.5 Q76 623 100 622.5 Q124 622 146.5 622 Q169 622 181 622 Q193 622 215 622.5 Q237 623 260.5 623.5 Q284 624 305 624.5 Q326 625 336 625 L336 585 L275 566 L275 221 Z M493 770 Q493 750 485.5 732.5 Q478 715 464.5 702 Q451 689 433.5 681.5 Q416 674 396 674 Q356 674 327.5 701.5 Q299 729 299 769 Q299 789 306.5 806.5 Q314 824 327.5 837 Q341 850 358.5 857.5 Q376 865 396 865 Q436 865 464.5 837.5 Q493 810 493 770 Z M436 770 Q436 791 424.5 802.5 Q413 814 396 814 Q379 814 367.5 802 Q356 790 356 769 Q356 748 367.5 736 Q379 724 396 724 Q413 724 424.5 736.5 Q436 749 436 770 Z " />
<glyph glyph-name="Uhungarumlaut" unicode="&#x170;" horiz-adv-x="689" d="M275 221 Q275 176 282.5 149 Q290 122 306 105 Q322 88 345.5 79.5 Q369 71 397 71 Q426 71 449.5 79.5 Q473 88 489 103 Q509 122 517.5 151.5 Q526 181 526 226 L526 505 Q526 539 519.5 555 Q513 571 482 579 L460 585 L460 625 Q485 623 511 622.5 Q537 622 562 622 Q574 622 588.5 622.5 Q603 623 617.5 623.5 Q632 624 645.5 624.5 Q659 625 669 625 L669 585 L608 566 L608 217 Q608 159 594 119 Q580 79 551 50 Q488 -15 359 -15 Q291 -15 234.5 2.5 Q178 20 143 55 Q86 112 86 224 L86 509 Q86 528 84 540.5 Q82 553 76.5 560.5 Q71 568 62.5 572 Q54 576 42 579 L20 585 L20 625 Q32 624 54 623.5 Q76 623 100 622.5 Q124 622 146.5 622 Q169 622 181 622 Q193 622 215 622.5 Q237 623 260.5 623.5 Q284 624 305 624.5 Q326 625 336 625 L336 585 L275 566 L275 221 Z M378 751 L180 665 L166 689 L290 802 Q301 813 310 818.5 Q319 824 329 824 Q344 824 356 806 L383 766 L378 751 Z M571 751 L373 665 L359 689 L483 802 Q494 813 503 818.5 Q512 824 522 824 Q537 824 549 806 L576 766 L571 751 Z " />
<glyph glyph-name="Uogonek" unicode="&#x172;" horiz-adv-x="689" d="M143 55 Q86 112 86 224 L86 509 Q86 528 84 540.5 Q82 553 76.5 560.5 Q71 568 62.5 572 Q54 576 42 579 L20 585 L20 625 Q32 624 54 623.5 Q76 623 100 622.5 Q124 622 146.5 622 Q169 622 181 622 Q193 622 215 622.5 Q237 623 260.5 623.5 Q284 624 305 624.5 Q326 625 336 625 L336 585 L275 566 L275 221 Q275 176 282.5 149 Q290 122 306 105 Q322 88 345.5 79.5 Q369 71 397 71 Q426 71 449.5 79.5 Q473 88 489 103 Q509 122 517.5 151.5 Q526 181 526 226 L526 505 Q526 539 519.5 555 Q513 571 482 579 L460 585 L460 625 Q485 623 511 622.5 Q537 622 562 622 Q574 622 588.5 622.5 Q603 623 617.5 623.5 Q632 624 645.5 624.5 Q659 625 669 625 L669 585 L608 566 L608 213 Q608 159 591.5 118.5 Q575 78 545 47 Q523 25 498.5 6 Q474 -13 454 -32.5 Q434 -52 420.5 -74 Q407 -96 407 -125 Q407 -150 419.5 -163.5 Q432 -177 455 -177 Q468 -177 479 -174 Q490 -171 501 -166 L518 -208 Q500 -222 470 -231.5 Q440 -241 410 -241 Q367 -241 336.5 -217.5 Q306 -194 306 -149 Q306 -114 326 -78.5 Q346 -43 381 -14 Q376 -15 370.5 -15 Q365 -15 360 -15 Q292 -15 235 2.5 Q178 20 143 55 Z " />
<glyph glyph-name="Wgrave" unicode="&#x1e80;" horiz-adv-x="972" d="M717 0 L609 0 L497 331 L379 0 L268 0 L73 520 Q67 536 61 547 Q55 558 46 564.5 Q37 571 22.5 575.5 Q8 580 -14 585 L-14 625 Q-2 624 20.5 623.5 Q43 623 67.5 622.5 Q92 622 114.5 622 Q137 622 149 622 Q161 622 182.5 622.5 Q204 623 227.5 623.5 Q251 624 271.5 624.5 Q292 625 302 625 L302 585 L242 566 L373 208 L458 455 L438 520 Q432 539 427 550 Q422 561 414 567.5 Q406 574 394.5 577.5 Q383 581 365 585 L365 625 Q377 624 399 623.5 Q421 623 444 622.5 Q467 622 489 622 Q511 622 523 622 Q535 622 555.5 622.5 Q576 623 598.5 623.5 Q621 624 641 624.5 Q661 625 671 625 L671 585 L601 566 L711 210 L829 566 L766 585 L766 625 Q776 625 790.5 624.5 Q805 624 821.5 623.5 Q838 623 853.5 622.5 Q869 622 881 622 Q906 622 935 623 Q964 624 987 625 L987 585 Q965 583 950.5 579 Q936 575 927 568.5 Q918 562 912 551 Q906 540 900 524 L717 0 Z M381 763 L411 808 Q426 830 443 830 Q453 830 463.5 824.5 Q474 819 486 810 L633 695 L619 666 L387 747 L381 763 Z " />
<glyph glyph-name="Wacute" unicode="&#x1e82;" horiz-adv-x="972" d="M717 0 L609 0 L497 331 L379 0 L268 0 L73 520 Q67 536 61 547 Q55 558 46 564.5 Q37 571 22.5 575.5 Q8 580 -14 585 L-14 625 Q-2 624 20.5 623.5 Q43 623 67.5 622.5 Q92 622 114.5 622 Q137 622 149 622 Q161 622 182.5 622.5 Q204 623 227.5 623.5 Q251 624 271.5 624.5 Q292 625 302 625 L302 585 L242 566 L373 208 L458 455 L438 520 Q432 539 427 550 Q422 561 414 567.5 Q406 574 394.5 577.5 Q383 581 365 585 L365 625 Q377 624 399 623.5 Q421 623 444 622.5 Q467 622 489 622 Q511 622 523 622 Q535 622 555.5 622.5 Q576 623 598.5 623.5 Q621 624 641 624.5 Q661 625 671 625 L671 585 L601 566 L711 210 L829 566 L766 585 L766 625 Q776 625 790.5 624.5 Q805 624 821.5 623.5 Q838 623 853.5 622.5 Q869 622 881 622 Q906 622 935 623 Q964 624 987 625 L987 585 Q965 583 950.5 579 Q936 575 927 568.5 Q918 562 912 551 Q906 540 900 524 L717 0 Z M627 746 L395 665 L381 694 L528 809 Q540 818 550.5 823.5 Q561 829 571 829 Q588 829 603 807 L633 762 L627 746 Z " />
<glyph glyph-name="Wcircumflex" unicode="&#x174;" horiz-adv-x="972" d="M717 0 L609 0 L497 331 L379 0 L268 0 L73 520 Q67 536 61 547 Q55 558 46 564.5 Q37 571 22.5 575.5 Q8 580 -14 585 L-14 625 Q-2 624 20.5 623.5 Q43 623 67.5 622.5 Q92 622 114.5 622 Q137 622 149 622 Q161 622 182.5 622.5 Q204 623 227.5 623.5 Q251 624 271.5 624.5 Q292 625 302 625 L302 585 L242 566 L373 208 L458 455 L438 520 Q432 539 427 550 Q422 561 414 567.5 Q406 574 394.5 577.5 Q383 581 365 585 L365 625 Q377 624 399 623.5 Q421 623 444 622.5 Q467 622 489 622 Q511 622 523 622 Q535 622 555.5 622.5 Q576 623 598.5 623.5 Q621 624 641 624.5 Q661 625 671 625 L671 585 L601 566 L711 210 L829 566 L766 585 L766 625 Q776 625 790.5 624.5 Q805 624 821.5 623.5 Q838 623 853.5 622.5 Q869 622 881 622 Q906 622 935 623 Q964 624 987 625 L987 585 Q965 583 950.5 579 Q936 575 927 568.5 Q918 562 912 551 Q906 540 900 524 L717 0 Z M374 664 L348 689 L456 824 L546 824 L654 689 L628 664 L501 745 L374 664 Z " />
<glyph glyph-name="Wdieresis" unicode="&#x1e84;" horiz-adv-x="972" d="M717 0 L609 0 L497 331 L379 0 L268 0 L73 520 Q67 536 61 547 Q55 558 46 564.5 Q37 571 22.5 575.5 Q8 580 -14 585 L-14 625 Q-2 624 20.5 623.5 Q43 623 67.5 622.5 Q92 622 114.5 622 Q137 622 149 622 Q161 622 182.5 622.5 Q204 623 227.5 623.5 Q251 624 271.5 624.5 Q292 625 302 625 L302 585 L242 566 L373 208 L458 455 L438 520 Q432 539 427 550 Q422 561 414 567.5 Q406 574 394.5 577.5 Q383 581 365 585 L365 625 Q377 624 399 623.5 Q421 623 444 622.5 Q467 622 489 622 Q511 622 523 622 Q535 622 555.5 622.5 Q576 623 598.5 623.5 Q621 624 641 624.5 Q661 625 671 625 L671 585 L601 566 L711 210 L829 566 L766 585 L766 625 Q776 625 790.5 624.5 Q805 624 821.5 623.5 Q838 623 853.5 622.5 Q869 622 881 622 Q906 622 935 623 Q964 624 987 625 L987 585 Q965 583 950.5 579 Q936 575 927 568.5 Q918 562 912 551 Q906 540 900 524 L717 0 Z M673 744 Q673 716 652.5 696 Q632 676 605 676 Q577 676 556 696 Q535 716 535 744 Q535 771 556 790.5 Q577 810 605 810 Q632 810 652.5 790.5 Q673 771 673 744 Z M487 744 Q487 716 466 696 Q445 676 417 676 Q404 676 391.5 681.5 Q379 687 369.5 696 Q360 705 354.5 717.5 Q349 730 349 744 Q349 771 370 790.5 Q391 810 417 810 Q445 810 466 790.5 Q487 771 487 744 Z " />
<glyph glyph-name="Ygrave" unicode="&#x1ef2;" horiz-adv-x="621" d="M250 566 L366 339 L469 566 L409 585 L409 625 Q419 625 433 624.5 Q447 624 462 623.5 Q477 623 491.5 622.5 Q506 622 518 622 Q543 622 570.5 622.5 Q598 623 623 625 L623 585 Q602 581 588 576.5 Q574 572 564.5 565.5 Q555 559 549 550.5 Q543 542 537 530 L411 255 L411 123 Q411 108 411.5 95.5 Q412 83 416.5 73.5 Q421 64 429.5 57 Q438 50 455 46 L477 40 L477 0 Q465 1 442.5 1.5 Q420 2 396 2.5 Q372 3 349.5 3 Q327 3 315 3 Q303 3 281.5 2.5 Q260 2 236.5 1.5 Q213 1 192 0.5 Q171 0 161 0 L161 40 L222 59 L222 248 L84 514 Q73 534 65 546 Q57 558 47.5 565.5 Q38 573 25 577 Q12 581 -8 585 L-8 625 Q4 624 26 623.5 Q48 623 71 622.5 Q94 622 116 622 Q138 622 150 622 Q162 622 184.5 622.5 Q207 623 231.5 623.5 Q256 624 277.5 624.5 Q299 625 309 625 L309 585 L250 566 Z M204 763 L234 808 Q249 830 266 830 Q276 830 286.5 824.5 Q297 819 309 810 L456 695 L442 666 L210 747 L204 763 Z " />
<glyph glyph-name="Yacute" unicode="&#xdd;" horiz-adv-x="621" d="M250 566 L366 339 L469 566 L409 585 L409 625 Q419 625 433 624.5 Q447 624 462 623.5 Q477 623 491.5 622.5 Q506 622 518 622 Q543 622 570.5 622.5 Q598 623 623 625 L623 585 Q602 581 588 576.5 Q574 572 564.5 565.5 Q555 559 549 550.5 Q543 542 537 530 L411 255 L411 123 Q411 108 411.5 95.5 Q412 83 416.5 73.5 Q421 64 429.5 57 Q438 50 455 46 L477 40 L477 0 Q465 1 442.5 1.5 Q420 2 396 2.5 Q372 3 349.5 3 Q327 3 315 3 Q303 3 281.5 2.5 Q260 2 236.5 1.5 Q213 1 192 0.5 Q171 0 161 0 L161 40 L222 59 L222 248 L84 514 Q73 534 65 546 Q57 558 47.5 565.5 Q38 573 25 577 Q12 581 -8 585 L-8 625 Q4 624 26 623.5 Q48 623 71 622.5 Q94 622 116 622 Q138 622 150 622 Q162 622 184.5 622.5 Q207 623 231.5 623.5 Q256 624 277.5 624.5 Q299 625 309 625 L309 585 L250 566 Z M460 746 L228 665 L214 694 L361 809 Q373 818 383.5 823.5 Q394 829 404 829 Q421 829 436 807 L466 762 L460 746 Z " />
<glyph glyph-name="Ycircumflex" unicode="&#x176;" horiz-adv-x="621" d="M250 566 L366 339 L469 566 L409 585 L409 625 Q419 625 433 624.5 Q447 624 462 623.5 Q477 623 491.5 622.5 Q506 622 518 622 Q543 622 570.5 622.5 Q598 623 623 625 L623 585 Q602 581 588 576.5 Q574 572 564.5 565.5 Q555 559 549 550.5 Q543 542 537 530 L411 255 L411 123 Q411 108 411.5 95.5 Q412 83 416.5 73.5 Q421 64 429.5 57 Q438 50 455 46 L477 40 L477 0 Q465 1 442.5 1.5 Q420 2 396 2.5 Q372 3 349.5 3 Q327 3 315 3 Q303 3 281.5 2.5 Q260 2 236.5 1.5 Q213 1 192 0.5 Q171 0 161 0 L161 40 L222 59 L222 248 L84 514 Q73 534 65 546 Q57 558 47.5 565.5 Q38 573 25 577 Q12 581 -8 585 L-8 625 Q4 624 26 623.5 Q48 623 71 622.5 Q94 622 116 622 Q138 622 150 622 Q162 622 184.5 622.5 Q207 623 231.5 623.5 Q256 624 277.5 624.5 Q299 625 309 625 L309 585 L250 566 Z M233 664 L207 689 L315 824 L405 824 L513 689 L487 664 L360 745 L233 664 Z " />
<glyph glyph-name="Ydieresis" unicode="&#x178;" horiz-adv-x="621" d="M250 566 L366 339 L469 566 L409 585 L409 625 Q419 625 433 624.5 Q447 624 462 623.5 Q477 623 491.5 622.5 Q506 622 518 622 Q543 622 570.5 622.5 Q598 623 623 625 L623 585 Q602 581 588 576.5 Q574 572 564.5 565.5 Q555 559 549 550.5 Q543 542 537 530 L411 255 L411 123 Q411 108 411.5 95.5 Q412 83 416.5 73.5 Q421 64 429.5 57 Q438 50 455 46 L477 40 L477 0 Q465 1 442.5 1.5 Q420 2 396 2.5 Q372 3 349.5 3 Q327 3 315 3 Q303 3 281.5 2.5 Q260 2 236.5 1.5 Q213 1 192 0.5 Q171 0 161 0 L161 40 L222 59 L222 248 L84 514 Q73 534 65 546 Q57 558 47.5 565.5 Q38 573 25 577 Q12 581 -8 585 L-8 625 Q4 624 26 623.5 Q48 623 71 622.5 Q94 622 116 622 Q138 622 150 622 Q162 622 184.5 622.5 Q207 623 231.5 623.5 Q256 624 277.5 624.5 Q299 625 309 625 L309 585 L250 566 Z M523 744 Q523 716 502.5 696 Q482 676 455 676 Q427 676 406 696 Q385 716 385 744 Q385 771 406 790.5 Q427 810 455 810 Q482 810 502.5 790.5 Q523 771 523 744 Z M337 744 Q337 716 316 696 Q295 676 267 676 Q254 676 241.5 681.5 Q229 687 219.5 696 Q210 705 204.5 717.5 Q199 730 199 744 Q199 771 220 790.5 Q241 810 267 810 Q295 810 316 790.5 Q337 771 337 744 Z " />
<glyph glyph-name="Zacute" unicode="&#x179;" horiz-adv-x="587" d="M551 176 Q550 159 549 135.5 Q548 112 547 87 Q546 62 545.5 39 Q545 16 545 0 L38 0 L38 38 L331 562 L146 562 L108 457 L51 457 Q52 470 53.5 492 Q55 514 55.5 538.5 Q56 563 56.5 586 Q57 609 57 625 L546 625 L546 588 L252 63 L386 63 Q411 63 429 68.5 Q447 74 459.5 87 Q472 100 480 121.5 Q488 143 494 176 L551 176 Z M434 746 L202 665 L188 694 L335 809 Q347 818 357.5 823.5 Q368 829 378 829 Q395 829 410 807 L440 762 L434 746 Z " />
<glyph glyph-name="Zcaron" unicode="&#x17d;" horiz-adv-x="587" d="M551 176 Q550 159 549 135.5 Q548 112 547 87 Q546 62 545.5 39 Q545 16 545 0 L38 0 L38 38 L331 562 L146 562 L108 457 L51 457 Q52 470 53.5 492 Q55 514 55.5 538.5 Q56 563 56.5 586 Q57 609 57 625 L546 625 L546 588 L252 63 L386 63 Q411 63 429 68.5 Q447 74 459.5 87 Q472 100 480 121.5 Q488 143 494 176 L551 176 Z M311 755 L438 836 L464 811 L356 676 L266 676 L158 811 L184 836 L311 755 Z " />
<glyph glyph-name="Zdotaccent" unicode="&#x17b;" horiz-adv-x="587" d="M551 176 Q550 159 549 135.5 Q548 112 547 87 Q546 62 545.5 39 Q545 16 545 0 L38 0 L38 38 L331 562 L146 562 L108 457 L51 457 Q52 470 53.5 492 Q55 514 55.5 538.5 Q56 563 56.5 586 Q57 609 57 625 L546 625 L546 588 L252 63 L386 63 Q411 63 429 68.5 Q447 74 459.5 87 Q472 100 480 121.5 Q488 143 494 176 L551 176 Z M387 752 Q387 737 381 723 Q375 709 364.5 698 Q354 687 340 680.5 Q326 674 311 674 Q295 674 281 680.5 Q267 687 256.5 698 Q246 709 240 723 Q234 737 234 752 Q234 784 256.5 805.5 Q279 827 311 827 Q342 827 364.5 805.5 Q387 784 387 752 Z " />
<glyph glyph-name="agrave" unicode="&#xe0;" horiz-adv-x="512" d="M507 28 Q451 -12 382 -12 Q347 -12 321.5 2 Q296 16 284 39 Q263 13 231 -1 Q199 -15 170 -15 Q102 -15 64.5 21 Q27 57 27 125 Q27 165 45.5 194 Q64 223 96.5 241 Q129 259 173 267.5 Q217 276 268 276 L268 306 Q268 346 250.5 359.5 Q233 373 210 373 Q187 373 159.5 359 Q132 345 114 302 L60 325 Q78 383 127 421.5 Q176 460 259 460 Q308 460 345.5 448 Q383 436 409 407 Q448 362 448 272 L448 102 Q448 84 453 75 Q458 66 472 66 Q478 66 486 68 Q494 70 507 76 L507 28 Z M268 226 Q253 226 238.5 220.5 Q224 215 213 202 Q191 177 191 131 Q191 111 195.5 98.5 Q200 86 206.5 78.5 Q213 71 220.5 68.5 Q228 66 234 66 Q253 66 268 81 L268 226 Z M131 601 L161 646 Q176 668 195 668 Q214 668 236 648 L389 514 L369 486 L134 585 L131 601 Z " />
<glyph glyph-name="aacute" unicode="&#xe1;" horiz-adv-x="512" d="M507 28 Q451 -12 382 -12 Q347 -12 321.5 2 Q296 16 284 39 Q263 13 231 -1 Q199 -15 170 -15 Q102 -15 64.5 21 Q27 57 27 125 Q27 165 45.5 194 Q64 223 96.5 241 Q129 259 173 267.5 Q217 276 268 276 L268 306 Q268 346 250.5 359.5 Q233 373 210 373 Q187 373 159.5 359 Q132 345 114 302 L60 325 Q78 383 127 421.5 Q176 460 259 460 Q308 460 345.5 448 Q383 436 409 407 Q448 362 448 272 L448 102 Q448 84 453 75 Q458 66 472 66 Q478 66 486 68 Q494 70 507 76 L507 28 Z M268 226 Q253 226 238.5 220.5 Q224 215 213 202 Q191 177 191 131 Q191 111 195.5 98.5 Q200 86 206.5 78.5 Q213 71 220.5 68.5 Q228 66 234 66 Q253 66 268 81 L268 226 Z M387 585 L152 486 L132 514 L285 648 Q307 668 326 668 Q345 668 360 646 L390 601 L387 585 Z " />
<glyph glyph-name="acircumflex" unicode="&#xe2;" horiz-adv-x="512" d="M507 28 Q451 -12 382 -12 Q347 -12 321.5 2 Q296 16 284 39 Q263 13 231 -1 Q199 -15 170 -15 Q102 -15 64.5 21 Q27 57 27 125 Q27 165 45.5 194 Q64 223 96.5 241 Q129 259 173 267.5 Q217 276 268 276 L268 306 Q268 346 250.5 359.5 Q233 373 210 373 Q187 373 159.5 359 Q132 345 114 302 L60 325 Q78 383 127 421.5 Q176 460 259 460 Q308 460 345.5 448 Q383 436 409 407 Q448 362 448 272 L448 102 Q448 84 453 75 Q458 66 472 66 Q478 66 486 68 Q494 70 507 76 L507 28 Z M268 226 Q253 226 238.5 220.5 Q224 215 213 202 Q191 177 191 131 Q191 111 195.5 98.5 Q200 86 206.5 78.5 Q213 71 220.5 68.5 Q228 66 234 66 Q253 66 268 81 L268 226 Z M140 490 L101 506 L211 665 L301 665 L411 506 L372 490 L256 586 L140 490 Z " />
<glyph glyph-name="atilde" unicode="&#xe3;" horiz-adv-x="512" d="M507 28 Q451 -12 382 -12 Q347 -12 321.5 2 Q296 16 284 39 Q263 13 231 -1 Q199 -15 170 -15 Q102 -15 64.5 21 Q27 57 27 125 Q27 165 45.5 194 Q64 223 96.5 241 Q129 259 173 267.5 Q217 276 268 276 L268 306 Q268 346 250.5 359.5 Q233 373 210 373 Q187 373 159.5 359 Q132 345 114 302 L60 325 Q78 383 127 421.5 Q176 460 259 460 Q308 460 345.5 448 Q383 436 409 407 Q448 362 448 272 L448 102 Q448 84 453 75 Q458 66 472 66 Q478 66 486 68 Q494 70 507 76 L507 28 Z M268 226 Q253 226 238.5 220.5 Q224 215 213 202 Q191 177 191 131 Q191 111 195.5 98.5 Q200 86 206.5 78.5 Q213 71 220.5 68.5 Q228 66 234 66 Q253 66 268 81 L268 226 Z M312 506 Q292 506 274.5 512.5 Q257 519 241.5 526.5 Q226 534 211.5 540.5 Q197 547 182 547 Q164 547 153.5 537 Q143 527 137 509 L96 518 Q104 575 133 605 Q162 635 199 635 Q219 635 236.5 628.5 Q254 622 269.5 614.5 Q285 607 299.5 600.5 Q314 594 329 594 Q347 594 357.5 603.5 Q368 613 374 631 L415 622 Q407 565 378 535.5 Q349 506 312 506 Z " />
<glyph glyph-name="adieresis" unicode="&#xe4;" horiz-adv-x="512" d="M507 28 Q451 -12 382 -12 Q347 -12 321.5 2 Q296 16 284 39 Q263 13 231 -1 Q199 -15 170 -15 Q102 -15 64.5 21 Q27 57 27 125 Q27 165 45.5 194 Q64 223 96.5 241 Q129 259 173 267.5 Q217 276 268 276 L268 306 Q268 346 250.5 359.5 Q233 373 210 373 Q187 373 159.5 359 Q132 345 114 302 L60 325 Q78 383 127 421.5 Q176 460 259 460 Q308 460 345.5 448 Q383 436 409 407 Q448 362 448 272 L448 102 Q448 84 453 75 Q458 66 472 66 Q478 66 486 68 Q494 70 507 76 L507 28 Z M268 226 Q253 226 238.5 220.5 Q224 215 213 202 Q191 177 191 131 Q191 111 195.5 98.5 Q200 86 206.5 78.5 Q213 71 220.5 68.5 Q228 66 234 66 Q253 66 268 81 L268 226 Z M418 574 Q418 546 397.5 526 Q377 506 350 506 Q322 506 301 526 Q280 546 280 574 Q280 601 301 620.5 Q322 640 350 640 Q377 640 397.5 620.5 Q418 601 418 574 Z M232 574 Q232 546 211 526 Q190 506 162 506 Q149 506 136.5 511.5 Q124 517 114.5 526 Q105 535 99.5 547.5 Q94 560 94 574 Q94 601 115 620.5 Q136 640 162 640 Q190 640 211 620.5 Q232 601 232 574 Z " />
<glyph glyph-name="amacron" unicode="&#x101;" horiz-adv-x="512" d="M507 28 Q451 -12 382 -12 Q347 -12 321.5 2 Q296 16 284 39 Q263 13 231 -1 Q199 -15 170 -15 Q102 -15 64.5 21 Q27 57 27 125 Q27 165 45.5 194 Q64 223 96.5 241 Q129 259 173 267.5 Q217 276 268 276 L268 306 Q268 346 250.5 359.5 Q233 373 210 373 Q187 373 159.5 359 Q132 345 114 302 L60 325 Q78 383 127 421.5 Q176 460 259 460 Q308 460 345.5 448 Q383 436 409 407 Q448 362 448 272 L448 102 Q448 84 453 75 Q458 66 472 66 Q478 66 486 68 Q494 70 507 76 L507 28 Z M268 226 Q253 226 238.5 220.5 Q224 215 213 202 Q191 177 191 131 Q191 111 195.5 98.5 Q200 86 206.5 78.5 Q213 71 220.5 68.5 Q228 66 234 66 Q253 66 268 81 L268 226 Z M127 523 L127 595 L385 595 L385 523 L127 523 Z " />
<glyph glyph-name="abreve" unicode="&#x103;" horiz-adv-x="512" d="M507 28 Q451 -12 382 -12 Q347 -12 321.5 2 Q296 16 284 39 Q263 13 231 -1 Q199 -15 170 -15 Q102 -15 64.5 21 Q27 57 27 125 Q27 165 45.5 194 Q64 223 96.5 241 Q129 259 173 267.5 Q217 276 268 276 L268 306 Q268 346 250.5 359.5 Q233 373 210 373 Q187 373 159.5 359 Q132 345 114 302 L60 325 Q78 383 127 421.5 Q176 460 259 460 Q308 460 345.5 448 Q383 436 409 407 Q448 362 448 272 L448 102 Q448 84 453 75 Q458 66 472 66 Q478 66 486 68 Q494 70 507 76 L507 28 Z M268 226 Q253 226 238.5 220.5 Q224 215 213 202 Q191 177 191 131 Q191 111 195.5 98.5 Q200 86 206.5 78.5 Q213 71 220.5 68.5 Q228 66 234 66 Q253 66 268 81 L268 226 Z M390 637 Q390 581 356 543.5 Q322 506 261 506 Q200 506 166 543.5 Q132 581 132 637 L179 637 Q187 611 209 598.5 Q231 586 261 586 Q290 586 313 599 Q336 612 344 637 L390 637 L390 637 Z " />
<glyph glyph-name="acaron" unicode="&#x1ce;" horiz-adv-x="512" d="M507 28 Q451 -12 382 -12 Q347 -12 321.5 2 Q296 16 284 39 Q263 13 231 -1 Q199 -15 170 -15 Q102 -15 64.5 21 Q27 57 27 125 Q27 165 45.5 194 Q64 223 96.5 241 Q129 259 173 267.5 Q217 276 268 276 L268 306 Q268 346 250.5 359.5 Q233 373 210 373 Q187 373 159.5 359 Q132 345 114 302 L60 325 Q78 383 127 421.5 Q176 460 259 460 Q308 460 345.5 448 Q383 436 409 407 Q448 362 448 272 L448 102 Q448 84 453 75 Q458 66 472 66 Q478 66 486 68 Q494 70 507 76 L507 28 Z M268 226 Q253 226 238.5 220.5 Q224 215 213 202 Q191 177 191 131 Q191 111 195.5 98.5 Q200 86 206.5 78.5 Q213 71 220.5 68.5 Q228 66 234 66 Q253 66 268 81 L268 226 Z M256 575 L372 671 L411 655 L301 496 L211 496 L101 655 L140 671 L256 575 Z " />
<glyph glyph-name="aring" unicode="&#xe5;" horiz-adv-x="512" d="M507 28 Q451 -12 382 -12 Q347 -12 321.5 2 Q296 16 284 39 Q263 13 231 -1 Q199 -15 170 -15 Q102 -15 64.5 21 Q27 57 27 125 Q27 165 45.5 194 Q64 223 96.5 241 Q129 259 173 267.5 Q217 276 268 276 L268 306 Q268 346 250.5 359.5 Q233 373 210 373 Q187 373 159.5 359 Q132 345 114 302 L60 325 Q78 383 127 421.5 Q176 460 259 460 Q308 460 345.5 448 Q383 436 409 407 Q448 362 448 272 L448 102 Q448 84 453 75 Q458 66 472 66 Q478 66 486 68 Q494 70 507 76 L507 28 Z M268 226 Q253 226 238.5 220.5 Q224 215 213 202 Q191 177 191 131 Q191 111 195.5 98.5 Q200 86 206.5 78.5 Q213 71 220.5 68.5 Q228 66 234 66 Q253 66 268 81 L268 226 Z M353 607 Q353 587 345.5 569.5 Q338 552 324.5 539 Q311 526 293.5 518.5 Q276 511 256 511 Q216 511 187.5 538.5 Q159 566 159 606 Q159 626 166.5 643.5 Q174 661 187.5 674 Q201 687 218.5 694.5 Q236 702 256 702 Q296 702 324.5 674.5 Q353 647 353 607 Z M296 607 Q296 628 284.5 639.5 Q273 651 256 651 Q239 651 227.5 639 Q216 627 216 606 Q216 585 227.5 573 Q239 561 256 561 Q273 561 284.5 573.5 Q296 586 296 607 Z " />
<glyph glyph-name="aringacute" unicode="&#x1fb;" horiz-adv-x="512" d="M507 28 Q451 -12 382 -12 Q347 -12 321.5 2 Q296 16 284 39 Q263 13 231 -1 Q199 -15 170 -15 Q102 -15 64.5 21 Q27 57 27 125 Q27 165 45.5 194 Q64 223 96.5 241 Q129 259 173 267.5 Q217 276 268 276 L268 306 Q268 346 250.5 359.5 Q233 373 210 373 Q187 373 159.5 359 Q132 345 114 302 L60 325 Q78 383 127 421.5 Q176 460 259 460 Q308 460 345.5 448 Q383 436 409 407 Q448 362 448 272 L448 102 Q448 84 453 75 Q458 66 472 66 Q478 66 486 68 Q494 70 507 76 L507 28 Z M268 226 Q253 226 238.5 220.5 Q224 215 213 202 Q191 177 191 131 Q191 111 195.5 98.5 Q200 86 206.5 78.5 Q213 71 220.5 68.5 Q228 66 234 66 Q253 66 268 81 L268 226 Z M353 595 Q353 575 345.5 557.5 Q338 540 324.5 527 Q311 514 293.5 506.5 Q276 499 256 499 Q216 499 187.5 526.5 Q159 554 159 594 Q159 614 166.5 631.5 Q174 649 187.5 662 Q201 675 218.5 682.5 Q236 690 256 690 Q296 690 324.5 662.5 Q353 635 353 595 Z M296 595 Q296 616 284.5 627.5 Q273 639 256 639 Q239 639 227.5 627 Q216 615 216 594 Q216 573 227.5 561 Q239 549 256 549 Q273 549 284.5 561.5 Q296 574 296 595 Z M382 777 L147 678 L127 706 L280 840 Q302 860 321 860 Q340 860 355 838 L385 793 L382 777 Z " />
<glyph glyph-name="aogonek" unicode="&#x105;" horiz-adv-x="512" d="M504 -208 Q486 -222 456 -231.5 Q426 -241 396 -241 Q351 -241 320.5 -217.5 Q290 -194 290 -149 Q290 -111 313.5 -74.5 Q337 -38 376 -11 Q346 -9 320.5 4.5 Q295 18 284 39 Q263 13 231 -1 Q199 -15 170 -15 Q102 -15 64.5 21 Q27 57 27 125 Q27 165 45.5 194 Q64 223 96.5 241 Q129 259 173 267.5 Q217 276 268 276 L268 306 Q268 346 250.5 359.5 Q233 373 210 373 Q187 373 159.5 359 Q132 345 114 302 L60 325 Q78 383 127 421.5 Q176 460 259 460 Q308 460 345.5 448 Q383 436 409 407 Q448 362 448 272 L448 102 Q448 84 453 75 Q458 66 472 66 Q478 66 486 68 Q494 70 507 76 L507 28 Q452 -7 421.5 -48.5 Q391 -90 391 -132 Q391 -153 402 -165 Q413 -177 436 -177 Q450 -177 463 -174 Q476 -171 487 -166 L504 -208 Z M268 226 Q253 226 238.5 220.5 Q224 215 213 202 Q191 177 191 131 Q191 111 195.5 98.5 Q200 86 206.5 78.5 Q213 71 220.5 68.5 Q228 66 234 66 Q253 66 268 81 L268 226 Z " />
<glyph glyph-name="ae" unicode="&#xe6;" horiz-adv-x="722" d="M694 119 Q672 56 617.5 20.5 Q563 -15 492 -15 Q437 -15 394.5 2.5 Q352 20 323 52 Q297 17 259 1 Q221 -15 175 -15 Q107 -15 67 20.5 Q27 56 27 125 Q27 165 45.5 194 Q64 223 96 241 Q128 259 172 267.5 Q216 276 267 276 L267 306 Q267 346 249.5 359.5 Q232 373 209 373 Q186 373 158.5 359 Q131 345 113 302 L59 325 Q77 383 126 421.5 Q175 460 258 460 Q297 460 328 448.5 Q359 437 379 419 Q397 437 430 448.5 Q463 460 498 460 Q596 460 644.5 406.5 Q693 353 694 249 Q694 242 694 232.5 Q694 223 693 214 L447 214 Q448 188 453 164 Q458 140 469.5 122 Q481 104 499.5 93 Q518 82 545 82 Q615 82 650 141 L694 119 Z M240 67 Q254 67 268 76 Q282 85 292 99 Q267 154 267 223 L267 226 Q252 226 237.5 220.5 Q223 215 212 202 Q190 177 190 131 Q190 100 204 83.5 Q218 67 240 67 Z M501 393 Q476 393 463 360.5 Q450 328 448 272 L553 272 Q553 340 538 366.5 Q523 393 501 393 Z " />
<glyph glyph-name="aeacute" unicode="&#x1fd;" horiz-adv-x="722" d="M694 119 Q672 56 617.5 20.5 Q563 -15 492 -15 Q437 -15 394.5 2.5 Q352 20 323 52 Q297 17 259 1 Q221 -15 175 -15 Q107 -15 67 20.5 Q27 56 27 125 Q27 165 45.5 194 Q64 223 96 241 Q128 259 172 267.5 Q216 276 267 276 L267 306 Q267 346 249.5 359.5 Q232 373 209 373 Q186 373 158.5 359 Q131 345 113 302 L59 325 Q77 383 126 421.5 Q175 460 258 460 Q297 460 328 448.5 Q359 437 379 419 Q397 437 430 448.5 Q463 460 498 460 Q596 460 644.5 406.5 Q693 353 694 249 Q694 242 694 232.5 Q694 223 693 214 L447 214 Q448 188 453 164 Q458 140 469.5 122 Q481 104 499.5 93 Q518 82 545 82 Q615 82 650 141 L694 119 Z M240 67 Q254 67 268 76 Q282 85 292 99 Q267 154 267 223 L267 226 Q252 226 237.5 220.5 Q223 215 212 202 Q190 177 190 131 Q190 100 204 83.5 Q218 67 240 67 Z M501 393 Q476 393 463 360.5 Q450 328 448 272 L553 272 Q553 340 538 366.5 Q523 393 501 393 Z M512 585 L277 486 L257 514 L410 648 Q432 668 451 668 Q470 668 485 646 L515 601 L512 585 Z " />
<glyph glyph-name="cacute" unicode="&#x107;" horiz-adv-x="454" d="M436 116 Q410 55 361.5 20 Q313 -15 244 -15 Q194 -15 153.5 0 Q113 15 83.5 44 Q54 73 38 116.5 Q22 160 22 217 Q22 278 40.5 323.5 Q59 369 92 399.5 Q125 430 169.5 445 Q214 460 267 460 Q288 460 306 458.5 Q324 457 341.5 454.5 Q359 452 377 449 Q395 446 417 443 Q417 426 417 405 Q417 384 417.5 362 Q418 340 418.5 318.5 Q419 297 420 279 L369 279 Q361 341 343.5 367 Q326 393 292 393 Q251 393 228 354.5 Q205 316 205 238 Q205 154 230 116.5 Q255 79 296 79 Q307 79 319 81 Q331 83 343.5 89.5 Q356 96 368.5 108.5 Q381 121 393 141 L436 116 Z M386 585 L151 486 L131 514 L284 648 Q306 668 325 668 Q344 668 359 646 L389 601 L386 585 Z " />
<glyph glyph-name="ccedilla" unicode="&#xe7;" horiz-adv-x="454" d="M348 -120 Q348 -156 329.5 -180.5 Q311 -205 282.5 -219.5 Q254 -234 219.5 -239.5 Q185 -245 152 -242 L147 -198 Q194 -191 222.5 -172 Q251 -153 251 -126 Q251 -109 241 -97.5 Q231 -86 204 -81 Q189 -78 186.5 -72 Q184 -66 188 -55 L203 -12 Q120 -1 71 56.5 Q22 114 22 217 Q22 278 40.5 323.5 Q59 369 92 399.5 Q125 430 169.5 445 Q214 460 267 460 Q288 460 306 458.5 Q324 457 341.5 454.5 Q359 452 377 449 Q395 446 417 443 Q417 426 417 405 Q417 384 417.5 362 Q418 340 418.5 318.5 Q419 297 420 279 L369 279 Q361 341 343.5 367 Q326 393 292 393 Q251 393 228 354.5 Q205 316 205 238 Q205 154 230 116.5 Q255 79 296 79 Q307 79 319 81 Q331 83 343.5 89.5 Q356 96 368.5 108.5 Q381 121 393 141 L436 116 Q412 59 368.5 25 Q325 -9 265 -14 L259 -31 Q294 -38 321 -59 Q348 -80 348 -120 Z " />
<glyph glyph-name="ccircumflex" unicode="&#x109;" horiz-adv-x="454" d="M436 116 Q410 55 361.5 20 Q313 -15 244 -15 Q194 -15 153.5 0 Q113 15 83.5 44 Q54 73 38 116.5 Q22 160 22 217 Q22 278 40.5 323.5 Q59 369 92 399.5 Q125 430 169.5 445 Q214 460 267 460 Q288 460 306 458.5 Q324 457 341.5 454.5 Q359 452 377 449 Q395 446 417 443 Q417 426 417 405 Q417 384 417.5 362 Q418 340 418.5 318.5 Q419 297 420 279 L369 279 Q361 341 343.5 367 Q326 393 292 393 Q251 393 228 354.5 Q205 316 205 238 Q205 154 230 116.5 Q255 79 296 79 Q307 79 319 81 Q331 83 343.5 89.5 Q356 96 368.5 108.5 Q381 121 393 141 L436 116 Z M129 490 L90 506 L200 665 L290 665 L400 506 L361 490 L245 586 L129 490 Z " />
</font>
</svg>
