<?xml version="1.0" encoding="UTF-8"?>
<svg xmlns="http://www.w3.org/2000/svg" xmlns:xlink="http://www.w3.org/1999/xlink" version="1.2" >
<font id="Cadillac Serif Web Italic">
<font-face  font-family="Cadillac Serif Web" units-per-em="1000" ascent="700" descent="-300" font-style="italic" font-weight="400" font-stretch="normal" slope="-15" cap-height="625" x-height="444" underline-position="-123" underline-thickness="20" />
<missing-glyph  horiz-adv-x="535" d="M20 693 L515 693 L515 0 L20 0 L20 693 Z M436 644 L99 644 L268 391 L436 644 Z M466 94 L466 599 L297 347 L466 94 Z M436 50 L268 302 L99 50 L436 50 Z M70 94 L238 347 L70 599 L70 94 Z " />
<glyph glyph-name="null" d="" />
<glyph glyph-name="nonmarkingreturn" unicode="&#xd;" horiz-adv-x="176" d="" />
<glyph glyph-name="nbspace" unicode="&#xa0;" horiz-adv-x="176" d="" />
<glyph glyph-name="space" unicode="&#x20;" horiz-adv-x="176" d="" />
<glyph glyph-name="A" unicode="A" horiz-adv-x="622" d="M573 0 Q564 0 550.5 0.5 Q537 1 522 1.5 Q507 2 492.5 2.5 Q478 3 468 3 Q457 3 442.5 2.5 Q428 2 413 1.5 Q398 1 384 0.5 Q370 0 361 0 L367 20 L430 40 L414 224 L232 224 L136 74 Q126 59 126 50 Q126 43 131 38 Q136 33 150 29 L183 20 L177 0 Q160 0 133.5 1.5 Q107 3 86 3 Q64 3 34.5 1.5 Q5 0 -14 0 L-8 20 L61 40 L432 625 L463 625 L515 76 Q517 52 524.5 43 Q532 34 549 29 L579 20 L573 0 Z M409 263 L398 388 Q396 413 394.5 434.5 Q393 456 393 470 Q393 477 393 482.5 Q393 488 394 495 Q384 475 370 450.5 Q356 426 332 387 L256 263 L409 263 Z " />
<glyph glyph-name="B" unicode="B" horiz-adv-x="558" d="M222 547 Q225 559 225 567 Q225 582 213 589.5 Q201 597 173 605 L179 625 L386 625 Q434 625 467.5 618 Q501 611 524 593 Q543 578 553.5 556 Q564 534 564 504 Q564 479 554.5 454.5 Q545 430 527.5 408 Q510 386 485 369 Q460 352 430 342 Q475 328 499 292.5 Q523 257 523 215 Q523 172 506.5 134.5 Q490 97 461 68 Q428 36 378 18 Q328 0 257 0 L15 0 L21 20 L84 41 L222 547 Z M184 90 Q181 79 181 71 Q181 53 199 46 Q217 39 258 39 Q298 39 330 54 Q362 69 384.5 94.5 Q407 120 419 153 Q431 186 431 221 Q431 267 408 290 Q393 305 369 311.5 Q345 318 306 318 L246 318 L184 90 Z M257 357 L321 357 Q360 357 386.5 368 Q413 379 433 396 Q456 416 468 446 Q480 476 480 502 Q480 541 460 561 Q446 575 423.5 581 Q401 587 366 587 L320 587 L257 357 Z " />
<glyph glyph-name="C" unicode="C" horiz-adv-x="555" d="M508 105 Q464 49 402 17 Q340 -15 275 -15 Q234 -15 199.5 -1.5 Q165 12 140.5 38.5 Q116 65 102 103.5 Q88 142 88 192 Q88 243 100 296.5 Q112 350 134 399.5 Q156 449 188 493 Q220 537 260.5 569.5 Q301 602 348.5 621 Q396 640 450 640 Q495 640 536 631 Q577 622 612 617 Q602 579 592 536 Q582 493 576 459 L556 459 Q556 534 527.5 565 Q499 596 445 596 Q407 596 373 578 Q339 560 309.5 529.5 Q280 499 256.5 458.5 Q233 418 216 373 Q199 328 190 281 Q181 234 181 191 Q181 115 213 76.5 Q245 38 302 38 Q350 38 399.5 63 Q449 88 484 126 L508 105 Z " />
<glyph glyph-name="D" unicode="D" horiz-adv-x="628" d="M222 547 Q225 559 225 567 Q225 582 213 589.5 Q201 597 173 605 L179 625 L373 625 Q518 625 584 556 Q611 528 624.5 489.5 Q638 451 638 405 Q638 370 630.5 331.5 Q623 293 608 253.5 Q593 214 569.5 176 Q546 138 513 106 Q465 59 402.5 29.5 Q340 0 249 0 L15 0 L21 20 L84 41 L222 547 Z M233 40 Q296 40 343.5 58 Q391 76 426 111 Q456 140 478.5 178.5 Q501 217 516 258 Q531 299 538.5 340.5 Q546 382 546 418 Q546 460 536.5 489.5 Q527 519 508 539 Q485 562 448.5 572 Q412 582 359 582 L319 582 L183 87 Q180 75 180 68 Q180 54 191.5 47 Q203 40 233 40 Z " />
<glyph glyph-name="E" unicode="E" horiz-adv-x="533" d="M222 547 Q225 559 225 567 Q225 582 213 589.5 Q201 597 173 605 L179 625 L591 625 Q587 611 582.5 591 Q578 571 573.5 549.5 Q569 528 565.5 508.5 Q562 489 560 477 L536 477 Q537 482 537.5 489 Q538 496 538 503 Q538 523 534 538 Q530 553 520 562 Q503 578 472.5 582.5 Q442 587 404 587 Q384 587 359 586.5 Q334 586 320 585 L253 341 L313 341 Q325 341 343 341.5 Q361 342 379.5 343 Q398 344 412.5 345 Q427 346 431 348 L413 297 Q409 298 396.5 299 Q384 300 368 301 Q352 302 334.5 302.5 Q317 303 304 303 L242 303 L182 81 Q180 73 180 68 Q180 54 199 46.5 Q218 39 265 39 Q296 39 317.5 40.5 Q339 42 353.5 45 Q368 48 378 52.5 Q388 57 396 62 Q415 74 429 92.5 Q443 111 461 147 L482 147 Q477 134 471 114 Q465 94 458 72.5 Q451 51 445.5 31.5 Q440 12 437 0 L15 0 L21 20 L84 41 L222 547 Z " />
<glyph glyph-name="F" unicode="F" horiz-adv-x="494" d="M181 78 Q178 66 178 58 Q178 45 191.5 36.5 Q205 28 240 20 L234 0 Q225 0 210.5 0.5 Q196 1 180 1.5 Q164 2 148.5 2.5 Q133 3 123 3 Q112 3 97.5 2.5 Q83 2 67.5 1.5 Q52 1 38 0.5 Q24 0 15 0 L21 20 L84 41 L222 547 Q225 559 225 567 Q225 582 213 589.5 Q201 597 173 605 L179 625 L590 625 Q586 611 581.5 591 Q577 571 572.5 549.5 Q568 528 564.5 508.5 Q561 489 559 477 L535 477 Q536 482 536.5 489 Q537 496 537 503 Q537 523 533 538 Q529 553 519 562 Q502 578 473 582.5 Q444 587 403 587 Q383 587 358.5 586.5 Q334 586 320 585 L253 341 L312 341 Q324 341 342 341.5 Q360 342 378.5 343 Q397 344 411.5 345 Q426 346 430 348 L412 297 Q408 298 395 299 Q382 300 365.5 301 Q349 302 332 302.5 Q315 303 303 303 L242 303 L181 78 Z " />
<glyph glyph-name="G" unicode="G" horiz-adv-x="616" d="M500 43 Q465 17 413 1 Q361 -15 308 -15 Q260 -15 219.5 -1.5 Q179 12 149.5 39 Q120 66 104 107 Q88 148 88 204 Q88 280 114 357.5 Q140 435 188 498 Q236 561 304.5 600.5 Q373 640 459 640 Q504 640 547.5 630.5 Q591 621 624 616 Q615 582 605 539.5 Q595 497 588 459 L568 459 L568 463 Q568 527 541.5 561.5 Q515 596 452 596 Q389 596 339 559 Q289 522 254 465.5 Q219 409 200 341 Q181 273 181 210 Q181 122 213.5 75 Q246 28 303 28 Q363 28 402 67 Q418 83 429 105.5 Q440 128 449 161 L468 231 L400 249 L406 269 Q415 269 430 268.5 Q445 268 461.5 267.5 Q478 267 493.5 266.5 Q509 266 520 266 Q530 266 543.5 266.5 Q557 267 570.5 267.5 Q584 268 596.5 268.5 Q609 269 618 269 L612 249 Q593 246 581 242.5 Q569 239 561.5 233 Q554 227 549.5 217 Q545 207 541 191 L500 43 Z " />
<glyph glyph-name="H" unicode="H" horiz-adv-x="671" d="M549 78 Q546 66 546 58 Q546 43 558 35.5 Q570 28 598 20 L592 0 Q583 0 570.5 0.5 Q558 1 544 1.5 Q530 2 516 2.5 Q502 3 492 3 Q481 3 466 2.5 Q451 2 436 1.5 Q421 1 406.5 0.5 Q392 0 383 0 L389 20 L452 41 L522 299 L241 299 L181 78 Q178 66 178 58 Q178 43 190 35.5 Q202 28 230 20 L224 0 Q215 0 202.5 0.5 Q190 1 175.5 1.5 Q161 2 147 2.5 Q133 3 123 3 Q112 3 97.5 2.5 Q83 2 67.5 1.5 Q52 1 38 0.5 Q24 0 15 0 L21 20 L84 41 L222 547 Q225 559 225 567 Q225 582 213 589.5 Q201 597 173 605 L179 625 Q188 625 200.5 624.5 Q213 624 227 623.5 Q241 623 254.5 622.5 Q268 622 279 622 Q290 622 305 622.5 Q320 623 335 623.5 Q350 624 364.5 624.5 Q379 625 388 625 L382 605 L319 584 L253 342 L534 342 L590 547 Q593 559 593 567 Q593 582 581 589.5 Q569 597 541 605 L547 625 Q556 625 568.5 624.5 Q581 624 595.5 623.5 Q610 623 623.5 622.5 Q637 622 648 622 Q659 622 673.5 622.5 Q688 623 703.5 623.5 Q719 624 733 624.5 Q747 625 756 625 L750 605 L687 584 L549 78 Z " />
<glyph glyph-name="I" unicode="I" horiz-adv-x="307" d="M224 547 Q227 559 227 567 Q227 582 215 589.5 Q203 597 175 605 L181 625 Q190 625 202.5 624.5 Q215 624 229 623.5 Q243 623 256.5 622.5 Q270 622 281 622 Q292 622 307 622.5 Q322 623 337 623.5 Q352 624 366.5 624.5 Q381 625 390 625 L384 605 L321 584 L183 78 Q180 66 180 58 Q180 43 192 35.5 Q204 28 232 20 L226 0 Q217 0 204.5 0.5 Q192 1 177.5 1.5 Q163 2 149 2.5 Q135 3 125 3 Q114 3 99.5 2.5 Q85 2 69.5 1.5 Q54 1 40 0.5 Q26 0 17 0 L23 20 L86 41 L224 547 Z " />
<glyph glyph-name="J" unicode="J" horiz-adv-x="303" d="M178 625 Q204 625 227.5 623.5 Q251 622 277 622 Q305 622 332.5 623.5 Q360 625 387 625 L381 605 L318 584 L182 85 Q168 35 148.5 -13.5 Q129 -62 99 -102.5 Q69 -143 25 -173 Q-19 -203 -82 -217 L-89 -192 Q-55 -179 -28 -157 Q-1 -135 21 -102.5 Q43 -70 60.5 -25 Q78 20 94 80 L221 547 Q224 559 224 567 Q224 582 212 589.5 Q200 597 172 605 L178 625 L178 625 Z " />
<glyph glyph-name="K" unicode="K" horiz-adv-x="598" d="M387 402 L473 83 Q480 58 490 48.5 Q500 39 517 39 Q526 39 537 42 Q548 45 557 50 L548 19 Q534 6 514 -1.5 Q494 -9 476 -9 Q443 -9 423 10 Q403 29 392 71 L320 338 L228 252 L181 78 Q178 66 178 58 Q178 43 190.5 35.5 Q203 28 230 20 L224 0 Q216 0 202 0.5 Q188 1 173 1.5 Q158 2 143.5 2.5 Q129 3 119 3 Q108 3 93.5 2.5 Q79 2 64.5 1.5 Q50 1 37 0.5 Q24 0 15 0 L21 20 L84 41 L222 547 Q225 559 225 567 Q225 582 213 589.5 Q201 597 173 605 L179 625 Q188 625 201.5 624.5 Q215 624 229.5 623.5 Q244 623 258.5 622.5 Q273 622 283 622 Q306 622 337.5 623.5 Q369 625 388 625 L382 605 L319 584 L248 325 L530 590 L475 605 L480 625 Q500 625 529 623 Q558 621 577 621 Q600 621 627.5 623 Q655 625 668 625 L663 605 Q639 602 622.5 597.5 Q606 593 592 585.5 Q578 578 563.5 566.5 Q549 555 529 536 L387 402 Z " />
<glyph glyph-name="L" unicode="L" horiz-adv-x="485" d="M222 547 Q225 559 225 567 Q225 582 213 589.5 Q201 597 173 605 L179 625 Q187 625 200 624.5 Q213 624 227 623.5 Q241 623 254.5 622.5 Q268 622 278 622 Q289 622 304.5 622.5 Q320 623 335.5 623.5 Q351 624 365 624.5 Q379 625 388 625 L382 605 L319 584 L182 80 Q180 72 180 67 Q180 53 198.5 46 Q217 39 263 39 Q313 39 339.5 45 Q366 51 385 62 Q404 73 418 91 Q432 109 450 147 L471 147 Q466 134 460 114 Q454 94 447 72.5 Q440 51 434.5 31.5 Q429 12 426 0 L15 0 L21 20 L84 41 L222 547 Z " />
<glyph glyph-name="M" unicode="M" horiz-adv-x="805" d="M146 78 Q143 66 143 58 Q143 43 155 35.5 Q167 28 195 20 L189 0 Q172 0 148 1.5 Q124 3 103 3 Q81 3 57.5 1.5 Q34 0 15 0 L21 20 L84 41 L222 547 Q225 559 225 567 Q225 582 213 589.5 Q201 597 173 605 L179 625 L329 625 L406 143 L740 625 L890 625 L884 605 L821 584 L683 79 Q680 67 680 59 Q680 44 692 36 Q704 28 732 20 L726 0 Q717 0 704 0.5 Q691 1 676.5 1.5 Q662 2 647.5 2.5 Q633 3 623 3 Q612 3 597.5 2.5 Q583 2 568.5 1.5 Q554 1 540.5 0.5 Q527 0 518 0 L524 20 L587 41 L720 528 Q702 497 677 459 Q652 421 628 386 L360 -4 L345 -4 L280 386 Q274 423 270.5 459 Q267 495 267 521 L146 78 Z " />
<glyph glyph-name="N" unicode="N" horiz-adv-x="674" d="M293 625 L526 149 L635 547 Q638 559 638 567 Q638 582 626 589.5 Q614 597 586 605 L592 625 Q609 625 633 623.5 Q657 622 678 622 Q700 622 722.5 623.5 Q745 625 764 625 L758 605 L695 584 L534 -4 L507 -4 L261 499 L145 78 Q142 66 142 58 Q142 43 154 35.5 Q166 28 194 20 L188 0 Q171 0 147 1.5 Q123 3 102 3 Q80 3 57 1.5 Q34 0 15 0 L21 20 L84 41 L222 547 Q225 559 225 567 Q225 582 213 589.5 Q201 597 173 605 L179 625 L293 625 Z " />
<glyph glyph-name="O" unicode="O" horiz-adv-x="610" d="M282 30 Q315 30 346 48.5 Q377 67 403.5 98.5 Q430 130 452 171 Q474 212 490 257.5 Q506 303 514.5 350 Q523 397 523 439 Q523 516 495 555.5 Q467 595 422 595 Q389 595 358 576.5 Q327 558 300.5 526.5 Q274 495 252 454 Q230 413 214 367.5 Q198 322 189.5 275 Q181 228 181 186 Q181 109 209 69.5 Q237 30 282 30 Z M276 -15 Q233 -15 198 0 Q163 15 138.5 42.5 Q114 70 101 109 Q88 148 88 196 Q88 269 113 347.5 Q138 426 183 491 Q228 556 290.5 598 Q353 640 428 640 Q471 640 506 625 Q541 610 565.5 582.5 Q590 555 603 516 Q616 477 616 429 Q616 356 591 277.5 Q566 199 521 134 Q476 69 413.5 27 Q351 -15 276 -15 Z " />
<glyph glyph-name="P" unicode="P" horiz-adv-x="540" d="M240 295 L283 295 Q331 295 367 308.5 Q403 322 429 347 Q455 373 470.5 409.5 Q486 446 486 481 Q486 526 461 553 Q445 569 419.5 576.5 Q394 584 355 584 L319 584 L240 295 Z M123 3 Q112 3 97.5 2.5 Q83 2 67.5 1.5 Q52 1 38 0.5 Q24 0 15 0 L21 20 L84 41 L222 547 Q225 559 225 567 Q225 582 213 589.5 Q201 597 173 605 L179 625 L375 625 Q488 625 539 577 Q578 540 578 478 Q578 440 562.5 400.5 Q547 361 517 332 Q438 256 295 256 L229 256 L181 78 Q178 66 178 58 Q178 45 191.5 36.5 Q205 28 240 20 L234 0 Q225 0 210.5 0.5 Q196 1 180 1.5 Q164 2 148.5 2.5 Q133 3 123 3 Z " />
<glyph glyph-name="Q" unicode="Q" horiz-adv-x="610" d="M616 429 Q616 367 598 300.5 Q580 234 546.5 175 Q513 116 466.5 69.5 Q420 23 363 1 Q371 -83 438.5 -127 Q506 -171 621 -179 L616 -202 Q524 -202 459 -187.5 Q394 -173 350.5 -147.5 Q307 -122 283 -87.5 Q259 -53 250 -13 Q212 -9 182 7.5 Q152 24 131 51 Q110 78 99 115 Q88 152 88 196 Q88 269 113 347.5 Q138 426 183 491 Q228 556 290.5 598 Q353 640 428 640 Q471 640 506 625 Q541 610 565.5 582.5 Q590 555 603 516 Q616 477 616 429 Z M282 30 Q315 30 346 48.5 Q377 67 403.5 98.5 Q430 130 452 171 Q474 212 490 257.5 Q506 303 514.5 350 Q523 397 523 439 Q523 516 495 555.5 Q467 595 422 595 Q389 595 358 576.5 Q327 558 300.5 526.5 Q274 495 252 454 Q230 413 214 367.5 Q198 322 189.5 275 Q181 228 181 186 Q181 109 209 69.5 Q237 30 282 30 Z " />
<glyph glyph-name="R" unicode="R" horiz-adv-x="585" d="M473 90 Q479 61 489 50 Q499 39 517 39 Q526 39 536.5 41.5 Q547 44 555 48 L545 18 Q531 7 512 -1 Q493 -9 473 -9 Q436 -9 418.5 10.5 Q401 30 391 77 L366 200 Q361 223 355.5 237.5 Q350 252 341.5 259.5 Q333 267 320 269.5 Q307 272 288 272 L234 272 L181 78 Q178 66 178 58 Q178 43 190 35.5 Q202 28 230 20 L224 0 Q215 0 202.5 0.5 Q190 1 175.5 1.5 Q161 2 147 2.5 Q133 3 123 3 Q112 3 97.5 2.5 Q83 2 67.5 1.5 Q52 1 38 0.5 Q24 0 15 0 L21 20 L84 41 L222 547 Q225 559 225 567 Q225 582 213 589.5 Q201 597 173 605 L179 625 L380 625 Q429 625 467.5 615.5 Q506 606 531 585 Q575 549 575 482 Q575 448 562 417.5 Q549 387 526.5 362 Q504 337 473 318.5 Q442 300 406 291 Q424 280 432.5 263 Q441 246 447 216 L473 90 Z M244 310 L280 310 Q331 310 368 323.5 Q405 337 431 363 Q458 389 470.5 423.5 Q483 458 483 486 Q483 531 459 555 Q442 572 417.5 578 Q393 584 354 584 L319 584 L244 310 Z " />
<glyph glyph-name="S" unicode="S" horiz-adv-x="495" d="M536 613 Q532 601 527.5 583.5 Q523 566 518.5 546.5 Q514 527 510 508.5 Q506 490 504 477 L484 477 Q484 598 379 598 Q349 598 324.5 588.5 Q300 579 282.5 563 Q265 547 255.5 525 Q246 503 246 478 Q246 449 260.5 425 Q275 401 297 380 Q319 359 344.5 338.5 Q370 318 392 295 Q414 272 428.5 244 Q443 216 443 181 Q443 134 425 98 Q407 62 375.5 36.5 Q344 11 301 -2 Q258 -15 209 -15 Q189 -15 167 -12 Q145 -9 123.5 -4 Q102 1 83 7.5 Q64 14 49 22 Q60 57 69 91.5 Q78 126 86 158 L106 158 Q105 154 105 149 Q105 144 105 139 Q105 81 137.5 53.5 Q170 26 218 26 Q248 26 273.5 35.5 Q299 45 317.5 62 Q336 79 347 104 Q358 129 358 159 Q358 190 343.5 214 Q329 238 307 258.5 Q285 279 259.5 299 Q234 319 212 341.5 Q190 364 175.5 391.5 Q161 419 161 456 Q161 495 177 529 Q193 563 222 587.5 Q251 612 293 626 Q335 640 386 640 Q426 640 464 630.5 Q502 621 536 613 Z " />
<glyph glyph-name="T" unicode="T" horiz-adv-x="537" d="M298 78 Q295 66 295 58 Q295 43 308 35.5 Q321 28 349 20 L343 0 Q334 0 320.5 0.5 Q307 1 292 1.5 Q277 2 262.5 2.5 Q248 3 238 3 Q227 3 212.5 2.5 Q198 2 183.5 1.5 Q169 1 155 0.5 Q141 0 132 0 L138 20 L201 41 L350 587 L303 587 Q267 587 241 582 Q215 577 198 562 Q191 556 185 549 Q179 542 172.5 532.5 Q166 523 158 509.5 Q150 496 139 477 L116 477 Q120 490 126.5 509.5 Q133 529 140 550 Q147 571 153.5 591 Q160 611 164 625 L644 625 Q640 609 635 589 Q630 569 625.5 548 Q621 527 617 508.5 Q613 490 610 477 L587 477 Q587 499 586.5 512.5 Q586 526 585 535 Q584 544 582 550 Q580 556 576 562 Q567 577 542 582 Q517 587 483 587 L437 587 L298 78 Z " />
<glyph glyph-name="U" unicode="U" horiz-adv-x="649" d="M581 255 Q561 181 536 130.5 Q511 80 476 48 Q408 -15 298 -15 Q210 -15 162.5 28.5 Q115 72 115 145 Q115 167 120.5 195 Q126 223 133 248 L214 547 Q217 559 217 567 Q217 582 205 589.5 Q193 597 165 605 L171 625 Q180 625 192.5 624.5 Q205 624 219.5 623.5 Q234 623 247.5 622.5 Q261 622 272 622 Q283 622 297.5 622.5 Q312 623 327.5 623.5 Q343 624 357 624.5 Q371 625 380 625 L374 605 L312 584 L220 247 Q212 218 207.5 191.5 Q203 165 203 146 Q203 91 234.5 61 Q266 31 320 31 Q358 31 392.5 46 Q427 61 453 89 Q480 118 497.5 157 Q515 196 529 250 L610 547 Q613 559 613 567 Q613 582 601 589.5 Q589 597 561 605 L567 625 Q584 625 608 623.5 Q632 622 653 622 Q675 622 697.5 623.5 Q720 625 739 625 L733 605 L670 584 L581 255 Z " />
<glyph glyph-name="V" unicode="V" horiz-adv-x="556" d="M684 605 Q662 602 648 598 Q634 594 624 587 Q614 580 606 569.5 Q598 559 589 544 L263 -3 L226 -3 L173 542 Q171 557 168.5 567 Q166 577 159 583.5 Q152 590 140 595 Q128 600 107 605 L113 625 Q118 625 131 624.5 Q144 624 159 623.5 Q174 623 188.5 622.5 Q203 622 211 622 Q221 622 235.5 622.5 Q250 623 265 623.5 Q280 624 293 624.5 Q306 625 314 625 L308 605 L255 592 L297 136 L567 591 L513 605 L519 625 Q539 624 557 623 Q572 622 587.5 622 Q603 622 612 622 Q628 622 652 623.5 Q676 625 690 625 L684 605 L684 605 Z " />
<glyph glyph-name="W" unicode="W" horiz-adv-x="846" d="M974 605 Q952 602 937.5 598 Q923 594 912.5 587 Q902 580 894 569.5 Q886 559 877 544 L562 -3 L524 -3 L500 415 L245 -3 L208 -3 L170 552 Q169 566 165.5 574.5 Q162 583 155 588.5 Q148 594 136.5 597.5 Q125 601 108 605 L114 625 Q119 625 132.5 624.5 Q146 624 161 623.5 Q176 623 190.5 622.5 Q205 622 213 622 Q222 622 236.5 622.5 Q251 623 265.5 623.5 Q280 624 293 624.5 Q306 625 314 625 L308 605 L252 592 L283 138 L493 482 L490 552 Q488 578 476 587.5 Q464 597 433 605 L439 625 Q444 625 457 624.5 Q470 624 484.5 623.5 Q499 623 512.5 622.5 Q526 622 534 622 Q544 622 558 622.5 Q572 623 586.5 623.5 Q601 624 613.5 624.5 Q626 625 634 625 L628 605 L572 592 L597 145 L856 591 L799 605 L804 625 Q823 624 841 623 Q856 622 871 622 Q886 622 894 622 Q902 622 914 622.5 Q926 623 938.5 623.5 Q951 624 962 624.5 Q973 625 980 625 L974 605 L974 605 Z " />
<glyph glyph-name="X" unicode="X" horiz-adv-x="577" d="M389 339 L486 77 Q496 48 512.5 37 Q529 26 564 20 L559 0 Q536 2 509.5 2.5 Q483 3 462 3 Q432 3 399.5 2.5 Q367 2 350 0 L355 20 L411 33 L325 274 L119 33 L174 20 L169 0 Q139 2 116 2.5 Q93 3 71 3 Q55 3 32.5 2.5 Q10 2 -16 0 L-11 20 Q24 23 49.5 33.5 Q75 44 96 68 L308 314 L220 553 Q210 579 196 588.5 Q182 598 151 605 L157 625 Q176 623 202 622.5 Q228 622 249 622 Q271 622 300.5 622.5 Q330 623 356 625 L351 605 L300 592 L375 381 L559 595 L512 605 L517 625 Q540 623 562.5 622.5 Q585 622 604 622 Q622 622 644 622.5 Q666 623 685 625 L680 605 Q658 603 643 600 Q628 597 616.5 591 Q605 585 595 575.5 Q585 566 573 552 L389 339 Z " />
<glyph glyph-name="Y" unicode="Y" horiz-adv-x="535" d="M301 78 Q298 66 298 58 Q298 43 310 35.5 Q322 28 350 20 L344 0 Q335 0 322.5 0.5 Q310 1 295.5 1.5 Q281 2 267 2.5 Q253 3 243 3 Q232 3 217.5 2.5 Q203 2 187.5 1.5 Q172 1 158 0.5 Q144 0 135 0 L141 20 L204 41 L260 246 L191 544 Q187 560 181.5 570 Q176 580 168 586.5 Q160 593 147.5 597 Q135 601 118 605 L124 625 Q129 625 141.5 624.5 Q154 624 168.5 623.5 Q183 623 196.5 622.5 Q210 622 218 622 Q228 622 242 622.5 Q256 623 271 623.5 Q286 624 299 624.5 Q312 625 320 625 L314 605 L264 592 L334 295 L550 591 L501 606 L507 625 Q525 624 541 623 Q555 622 569 622 Q583 622 592 622 Q608 622 631 623.5 Q654 625 668 625 L663 605 Q643 602 630 598.5 Q617 595 606 588.5 Q595 582 585.5 571 Q576 560 564 544 L347 246 L301 78 Z " />
<glyph glyph-name="Z" unicode="Z" horiz-adv-x="531" d="M601 603 Q581 577 550 539.5 Q519 502 481 455.5 Q443 409 399.5 357 Q356 305 310.5 250.5 Q265 196 219.5 142 Q174 88 132 38 L308 38 Q343 38 366.5 46 Q390 54 407 70 Q422 84 433.5 103.5 Q445 123 456 147 L483 147 Q477 129 470 109 Q463 89 457 69.5 Q451 50 445.5 31.5 Q440 13 436 0 L33 0 L22 22 Q42 47 73 85 Q104 123 141.5 169 Q179 215 222.5 267.5 Q266 320 311 374.5 Q356 429 401.5 483 Q447 537 490 587 L256 587 L183 482 L158 482 Q162 493 168 511.5 Q174 530 180 550 Q186 570 192 590 Q198 610 202 625 L590 625 L601 603 Z " />
<glyph glyph-name="a" unicode="a" horiz-adv-x="485" d="M167 -15 Q112 -15 78.5 24 Q45 63 45 135 Q45 166 53.5 200 Q62 234 78 267 Q94 300 115.5 331 Q137 362 163 387 Q195 418 236 439 Q277 460 325 460 Q354 460 375.5 451.5 Q397 443 417 426 L441 460 L481 448 L483 444 L386 86 Q381 68 381 59 Q381 42 399 42 Q408 42 419.5 45 Q431 48 438 51 L430 20 Q417 9 393.5 0.5 Q370 -8 351 -8 Q327 -8 313.5 4.5 Q300 17 300 40 Q300 45 301 52 Q302 59 304 67 L302 67 Q292 49 277 34 Q254 11 226.5 -2 Q199 -15 167 -15 Z M387 379 Q379 394 361.5 405 Q344 416 321 416 Q282 416 248 387.5 Q214 359 188.5 317 Q163 275 148.5 225.5 Q134 176 134 134 Q134 88 150.5 64 Q167 40 195 40 Q221 40 247 57.5 Q273 75 296 111 Q316 143 330.5 182.5 Q345 222 354 257 L387 379 Z " />
<glyph glyph-name="b" unicode="b" horiz-adv-x="486" d="M190 28 Q234 28 270 58 Q306 88 332 132.5 Q358 177 372 226.5 Q386 276 386 315 Q386 355 370 379.5 Q354 404 323 404 Q296 404 269.5 381.5 Q243 359 221 324 Q200 291 183 247.5 Q166 204 156 167 L129 67 Q135 49 151.5 38.5 Q168 28 190 28 Z M207 360 Q233 405 272 432.5 Q311 460 354 460 Q408 460 440.5 423 Q473 386 473 324 Q473 266 452 205.5 Q431 145 394.5 96 Q358 47 307 16 Q256 -15 196 -15 Q167 -15 140 -6.5 Q113 2 92 18 L75 -5 L33 -8 L30 -4 L190 585 Q192 590 193.5 598.5 Q195 607 195 612 Q195 625 186.5 632.5 Q178 640 149 647 L153 665 Q254 665 289 671 L292 667 L239 471 Q231 442 222 412.5 Q213 383 205 360 L207 360 Z " />
<glyph glyph-name="c" unicode="c" horiz-adv-x="426" d="M320 460 Q356 460 385.5 453 Q415 446 450 435 Q442 414 435.5 387.5 Q429 361 423 332 L408 332 Q403 374 380 395.5 Q357 417 321 417 Q276 417 241.5 389.5 Q207 362 183.5 320.5 Q160 279 147.5 231 Q135 183 135 142 Q135 42 212 42 Q233 42 253.5 50 Q274 58 293 70.5 Q312 83 328.5 98 Q345 113 358 128 L378 109 Q363 85 341 62.5 Q319 40 293.5 23 Q268 6 240.5 -4.5 Q213 -15 186 -15 Q115 -15 80.5 27 Q46 69 46 133 Q46 187 66.5 245 Q87 303 123 350.5 Q159 398 209.5 429 Q260 460 320 460 Z " />
<glyph glyph-name="d" unicode="d" horiz-adv-x="487" d="M167 -15 Q112 -15 78.5 24 Q45 63 45 135 Q45 166 53.5 200 Q62 234 78 267 Q94 300 115.5 331 Q137 362 163 387 Q195 418 236 439 Q277 460 325 460 Q348 460 366.5 453.5 Q385 447 401 436 L442 585 Q444 590 445.5 598.5 Q447 607 447 612 Q447 625 438.5 632.5 Q430 640 401 647 L405 665 Q506 665 541 671 L544 667 L386 86 Q381 68 381 59 Q381 42 399 42 Q408 42 419.5 45 Q431 48 438 51 L430 20 Q417 9 393.5 0.5 Q370 -8 351 -8 Q327 -8 313.5 4.5 Q300 17 300 40 Q300 45 301 52 Q302 59 304 67 L302 67 Q292 49 277 34 Q254 11 226.5 -2 Q199 -15 167 -15 Z M387 379 Q379 394 361.5 405 Q344 416 321 416 Q282 416 248 387.5 Q214 359 188.5 317 Q163 275 148.5 225.5 Q134 176 134 134 Q134 88 150.5 64 Q167 40 195 40 Q221 40 247 57.5 Q273 75 296 111 Q316 143 330.5 182.5 Q345 222 354 257 L387 379 Z " />
<glyph glyph-name="e" unicode="e" horiz-adv-x="425" d="M378 111 Q364 86 342.5 63.5 Q321 41 295.5 23.5 Q270 6 241.5 -4.5 Q213 -15 184 -15 Q152 -15 126 -4 Q100 7 82 27 Q64 47 54.5 74.5 Q45 102 45 135 Q45 187 65 244.5 Q85 302 121 350 Q157 398 206.5 429 Q256 460 314 460 Q362 460 390.5 438 Q419 416 419 377 Q419 336 394.5 302.5 Q370 269 330 244 Q290 219 239.5 203 Q189 187 137 182 Q134 162 134 144 Q134 100 150 71 Q166 42 212 42 Q233 42 254 50 Q275 58 294 71 Q313 84 329.5 99.5 Q346 115 358 129 L378 111 Z M300 417 Q276 417 252.5 400.5 Q229 384 208 356.5 Q187 329 170.5 293.5 Q154 258 144 221 Q191 228 227.5 244.5 Q264 261 289.5 282 Q315 303 328.5 327 Q342 351 342 375 Q342 393 331.5 405 Q321 417 300 417 Z " />
<glyph glyph-name="f" unicode="f" horiz-adv-x="281" d="M163 470 Q192 579 245.5 629.5 Q299 680 382 680 Q417 680 441 666.5 Q465 653 465 631 Q465 615 448 599.5 Q431 584 412 584 Q401 584 395.5 591.5 Q390 599 385 612 Q380 625 372.5 635.5 Q365 646 348 646 Q322 646 296.5 610.5 Q271 575 249 493 L236 444 L341 444 L324 408 L226 408 L56 -220 L-24 -220 L146 408 L82 408 L91 444 L156 444 L163 470 Z " />
<glyph glyph-name="g" unicode="g" horiz-adv-x="451" d="M39 -113 Q39 -145 67 -166.5 Q95 -188 147 -188 Q176 -188 204 -181 Q232 -174 253.5 -162 Q275 -150 288.5 -134.5 Q302 -119 302 -103 Q302 -81 282 -66.5 Q262 -52 233.5 -40.5 Q205 -29 173 -18 Q141 -7 118 9 Q76 -22 57.5 -50.5 Q39 -79 39 -113 Z M228 179 Q259 179 283 195 Q307 211 323.5 235.5 Q340 260 348.5 290 Q357 320 357 349 Q357 381 340.5 399.5 Q324 418 293 418 Q262 418 237.5 402 Q213 386 196.5 361.5 Q180 337 171.5 306.5 Q163 276 163 248 Q163 216 179.5 197.5 Q196 179 228 179 Z M438 341 Q438 302 421.5 265 Q405 228 375.5 199.5 Q346 171 305.5 154 Q265 137 217 137 Q198 137 182 140 Q168 129 162 120 Q156 111 156 103 Q156 90 172.5 79.5 Q189 69 213 59.5 Q237 50 266 39.5 Q295 29 319 15.5 Q343 2 359.5 -16 Q376 -34 376 -59 Q376 -95 354.5 -127 Q333 -159 297 -183 Q261 -207 213 -221 Q165 -235 113 -235 Q82 -235 53.5 -228 Q25 -221 3.5 -207 Q-18 -193 -31 -173 Q-44 -153 -44 -127 Q-44 -78 -5 -39.5 Q34 -1 94 31 Q84 45 84 65 Q84 88 100.5 111.5 Q117 135 146 151 Q116 165 99 191.5 Q82 218 82 256 Q82 295 98.5 331.5 Q115 368 144.5 396.5 Q174 425 215 442.5 Q256 460 304 460 Q337 460 365 450 Q381 485 402.5 505.5 Q424 526 453 526 Q473 526 483 514.5 Q493 503 493 489 Q493 479 488 467 L481 450 Q465 461 445 461 Q428 461 415.5 453.5 Q403 446 393 435 Q416 418 427 394 Q438 370 438 341 Z " />
<glyph glyph-name="h" unicode="h" horiz-adv-x="502" d="M446 21 Q426 9 405 0.5 Q384 -8 362 -8 Q342 -8 329.5 4 Q317 16 317 38 Q317 47 319 60 Q321 73 326 93 Q331 113 339.5 143 Q348 173 362 217 Q376 261 384 294 Q392 327 392 347 Q392 373 379.5 385 Q367 397 345 397 Q327 397 306.5 386.5 Q286 376 266.5 358 Q247 340 229 315 Q211 290 197 261 Q181 229 166 188 Q151 147 133 83 L110 0 L30 0 L189 585 Q191 590 192.5 598.5 Q194 607 194 612 Q194 625 185.5 632.5 Q177 640 148 647 L152 665 Q253 665 288 671 L291 667 L226 427 Q218 397 209 368 Q200 339 192 316 L193 316 Q224 374 261 410 Q286 434 314.5 447 Q343 460 375 460 Q423 460 448 433 Q473 406 473 360 Q473 336 465.5 300.5 Q458 265 439 200 Q425 155 417.5 128.5 Q410 102 406 87 Q402 72 401 66 Q400 60 400 56 Q400 48 405 45 Q410 42 415 42 Q424 42 433.5 44.5 Q443 47 454 52 L446 21 Z " />
<glyph glyph-name="i" unicode="i" horiz-adv-x="242" d="M215 525 Q199 525 189 535.5 Q179 546 179 562 Q179 576 185 588.5 Q191 601 200 610 Q209 619 220.5 624 Q232 629 244 629 Q261 629 271 618.5 Q281 608 281 592 Q281 563 260 544 Q239 525 215 525 Z M138 86 Q133 68 133 59 Q133 42 151 42 Q160 42 171.5 45 Q183 48 190 51 L182 20 Q169 9 145.5 0.5 Q122 -8 103 -8 Q78 -8 65 6 Q52 20 52 43 Q52 60 60 92 L134 364 Q136 369 137.5 377.5 Q139 386 139 391 Q139 404 130.5 411.5 Q122 419 93 426 L97 444 Q198 444 233 450 L236 446 L138 86 Z " />
<glyph glyph-name="j" unicode="j" horiz-adv-x="231" d="M111 -13 Q97 -64 78.5 -99 Q60 -134 35 -158 Q8 -184 -26.5 -201 Q-61 -218 -101 -231 L-108 -211 Q-80 -198 -59.5 -182 Q-39 -166 -23 -145 Q-7 -124 4.5 -96.5 Q16 -69 26 -31 L134 364 Q136 369 137.5 377.5 Q139 386 139 391 Q139 404 130.5 411.5 Q122 419 93 426 L97 444 Q198 444 233 450 L236 446 L111 -13 Z M215 525 Q199 525 189 535.5 Q179 546 179 562 Q179 576 185 588.5 Q191 601 200 610 Q209 619 220.5 624 Q232 629 244 629 Q261 629 271 618.5 Q281 608 281 592 Q281 563 260 544 Q239 525 215 525 Z " />
<glyph glyph-name="k" unicode="k" horiz-adv-x="449" d="M291 667 L182 267 L245 312 Q291 345 326.5 380.5 Q362 416 372 442 L481 444 L481 440 L278 293 L334 93 Q342 63 352 53 Q362 43 379 43 Q387 43 397.5 45 Q408 47 416 51 L407 18 Q393 8 373 0.5 Q353 -7 334 -7 Q303 -7 286 12 Q278 21 272 33.5 Q266 46 261 64 L210 247 L169 218 L110 0 L30 0 L189 585 Q191 590 192.5 598.5 Q194 607 194 612 Q194 625 185.5 632.5 Q177 640 148 647 L152 665 Q253 665 288 671 L291 667 Z " />
<glyph glyph-name="l" unicode="l" horiz-adv-x="236" d="M133 86 Q128 68 128 59 Q128 42 146 42 Q155 42 166.5 45 Q178 48 185 51 L177 20 Q164 9 140.5 0.5 Q117 -8 98 -8 Q73 -8 60 6 Q47 20 47 43 Q47 60 55 92 L189 585 Q191 590 192.5 598.5 Q194 607 194 612 Q194 625 185.5 632.5 Q177 640 148 647 L152 665 Q253 665 288 671 L291 667 L133 86 Z " />
<glyph glyph-name="m" unicode="m" horiz-adv-x="758" d="M461 261 Q430 197 411.5 133 Q393 69 385 0 L310 0 Q311 20 314 41 Q317 62 322.5 87.5 Q328 113 337 144.5 Q346 176 358 217 Q372 260 380 293.5 Q388 327 388 347 Q388 397 346 397 Q328 397 308.5 386.5 Q289 376 270 358 Q251 340 233 315 Q215 290 201 261 Q185 229 170 188 Q155 147 137 83 L114 0 L34 0 L133 364 Q135 369 136.5 377.5 Q138 386 138 391 Q138 404 129.5 411.5 Q121 419 92 426 L96 444 Q195 444 230 450 L233 446 L196 314 L198 314 Q214 344 232.5 370.5 Q251 397 273 417 Q295 437 320.5 448.5 Q346 460 375 460 Q423 460 446 433 Q469 406 469 360 Q469 354 468.5 347.5 Q468 341 467 333 Q482 360 500 383 Q518 406 539 423 Q560 440 584 450 Q608 460 635 460 Q683 460 706 433 Q729 406 729 360 Q729 336 721.5 300.5 Q714 265 695 200 Q681 155 673.5 128.5 Q666 102 662 87 Q658 72 657 66 Q656 60 656 56 Q656 48 661 45 Q666 42 671 42 Q680 42 689.5 44.5 Q699 47 710 52 L702 21 Q682 9 661 0.5 Q640 -8 618 -8 Q598 -8 585.5 4 Q573 16 573 38 Q573 47 575 60 Q577 73 582 93 Q587 113 595.5 143 Q604 173 618 217 Q632 261 640 294 Q648 327 648 347 Q648 397 606 397 Q588 397 568.5 386.5 Q549 376 530 358 Q511 340 493 315 Q475 290 461 261 Z " />
<glyph glyph-name="n" unicode="n" horiz-adv-x="506" d="M450 21 Q430 9 409 0.5 Q388 -8 366 -8 Q346 -8 333.5 4 Q321 16 321 38 Q321 47 323 60 Q325 73 330 93 Q335 113 343.5 143 Q352 173 366 217 Q380 261 388 294 Q396 327 396 347 Q396 373 383.5 385 Q371 397 349 397 Q331 397 310.5 386.5 Q290 376 270.5 358 Q251 340 233 315 Q215 290 201 261 Q185 229 170 188 Q155 147 137 83 L114 0 L34 0 L133 364 Q135 369 136.5 377.5 Q138 386 138 391 Q138 404 129.5 411.5 Q121 419 92 426 L96 444 Q195 444 230 450 L233 446 L197 317 L199 317 Q214 346 230 369 Q246 392 265 410 Q290 434 318.5 447 Q347 460 379 460 Q427 460 452 433 Q477 406 477 360 Q477 336 469.5 300.5 Q462 265 443 200 Q429 155 421.5 128.5 Q414 102 410 87 Q406 72 405 66 Q404 60 404 56 Q404 48 409 45 Q414 42 419 42 Q428 42 437.5 44.5 Q447 47 458 52 L450 21 Z " />
<glyph glyph-name="o" unicode="o" horiz-adv-x="462" d="M206 28 Q245 28 273.5 61.5 Q302 95 321.5 142 Q341 189 350.5 238 Q360 287 360 319 Q360 338 356.5 356 Q353 374 344.5 387.5 Q336 401 322 409 Q308 417 288 417 Q262 417 240.5 401.5 Q219 386 202 360.5 Q185 335 172.5 303 Q160 271 151.5 238.5 Q143 206 138.5 176.5 Q134 147 134 126 Q134 106 137.5 88.5 Q141 71 149.5 57.5 Q158 44 172 36 Q186 28 206 28 Z M201 -15 Q122 -15 83.5 31 Q45 77 45 152 Q45 198 62.5 251.5 Q80 305 112 351.5 Q144 398 190 429 Q236 460 293 460 Q372 460 410.5 414 Q449 368 449 293 Q449 247 431.5 193 Q414 139 382 93 Q350 47 304 16 Q258 -15 201 -15 Z " />
<glyph glyph-name="p" unicode="p" horiz-adv-x="487" d="M-25 -220 L133 364 Q135 369 136.5 377.5 Q138 386 138 391 Q138 404 129.5 411.5 Q121 419 92 426 L96 444 Q146 444 178 445.5 Q210 447 227 450 L230 446 L207 360 L210 360 Q235 404 274.5 432 Q314 460 355 460 Q408 460 441 423 Q474 386 474 324 Q474 266 452 205.5 Q430 145 391.5 96 Q353 47 301 16 Q249 -15 189 -15 Q153 -15 114 -1 L54 -220 L-25 -220 Z M183 28 Q227 28 264.5 58 Q302 88 329 132.5 Q356 177 371.5 226.5 Q387 276 387 315 Q387 355 372.5 379.5 Q358 404 327 404 Q300 404 273 381.5 Q246 359 224 324 Q203 291 186 247.5 Q169 204 159 167 L129 57 Q135 47 149 37.5 Q163 28 183 28 Z " />
<glyph glyph-name="q" unicode="q" horiz-adv-x="482" d="M300 61 L298 61 Q272 26 238.5 5.5 Q205 -15 167 -15 Q112 -15 78.5 24 Q45 63 45 135 Q45 166 53.5 200 Q62 234 78 267 Q94 300 115.5 331 Q137 362 163 387 Q195 418 236 439 Q277 460 325 460 Q354 460 375.5 451.5 Q397 443 417 426 L441 460 L482 449 L484 445 L325 -140 Q322 -151 321 -157 Q320 -163 320 -167 Q320 -180 328.5 -187.5 Q337 -195 366 -202 L362 -220 Q261 -220 227 -226 L224 -222 L300 61 Z M387 379 Q379 394 361.5 405 Q344 416 321 416 Q282 416 248 387.5 Q214 359 188.5 317 Q163 275 148.5 225.5 Q134 176 134 134 Q134 88 150.5 64 Q167 40 195 40 Q221 40 247 57.5 Q273 75 296 111 Q316 143 330.5 182.5 Q345 222 354 257 L387 379 Z " />
<glyph glyph-name="r" unicode="r" horiz-adv-x="361" d="M373 378 Q363 378 354 384 Q345 390 332 390 Q306 390 279.5 367 Q253 344 229 309 Q204 273 182 219 Q160 165 138 86 L114 0 L34 0 L133 364 Q135 369 136.5 377.5 Q138 386 138 391 Q138 404 129.5 411.5 Q121 419 92 426 L96 444 Q195 444 230 450 L233 446 L197 316 L199 316 Q239 388 283 424 Q327 460 370 460 Q395 460 406 451 Q417 442 417 428 Q417 420 413 411.5 Q409 403 402.5 395.5 Q396 388 388 383 Q380 378 373 378 Z " />
<glyph glyph-name="s" unicode="s" horiz-adv-x="397" d="M162 27 Q184 27 204 33.5 Q224 40 239 50.5 Q254 61 262.5 75 Q271 89 271 105 Q271 124 258 138.5 Q245 153 226 166 Q207 179 184 192.5 Q161 206 142 222 Q123 238 110 259.5 Q97 281 97 310 Q97 341 111 368 Q125 395 149 415.5 Q173 436 205.5 448 Q238 460 276 460 Q314 460 346 452 Q378 444 406 436 Q403 427 399.5 414.5 Q396 402 392.5 389 Q389 376 386 363 Q383 350 381 340 L367 340 Q358 381 334.5 399.5 Q311 418 272 418 Q226 418 200 395 Q174 372 174 342 Q174 324 187 309 Q200 294 219.5 281 Q239 268 261.5 254.5 Q284 241 303.5 224 Q323 207 336 186 Q349 165 349 137 Q349 106 334.5 78.5 Q320 51 293.5 30 Q267 9 230.5 -3 Q194 -15 150 -15 Q117 -15 81 -7.5 Q45 0 19 10 Q22 20 26.5 34 Q31 48 35 62.5 Q39 77 42 90.5 Q45 104 47 113 L62 113 Q67 70 92.5 48.5 Q118 27 162 27 Z " />
<glyph glyph-name="t" unicode="t" horiz-adv-x="312" d="M278 48 Q250 20 213 2.5 Q176 -15 138 -15 Q103 -15 79.5 5 Q56 25 56 65 Q56 85 64 115 L144 408 L79 408 L89 444 L153 444 L177 530 L263 569 L266 565 L233 444 L344 444 L326 408 L224 408 L142 108 Q139 96 137.5 88 Q136 80 136 72 Q136 54 146.5 45 Q157 36 174 36 Q194 36 217 45 Q240 54 263 71 L278 48 Z " />
<glyph glyph-name="u" unicode="u" horiz-adv-x="501" d="M316 47 Q316 80 332 119 L330 119 Q315 90 300.5 71 Q286 52 267 34 Q216 -15 154 -15 Q106 -15 82.5 12 Q59 39 59 85 Q59 108 65.5 138.5 Q72 169 83 206 L127 364 Q129 369 130.5 377.5 Q132 386 132 391 Q132 404 123 411.5 Q114 419 89 426 L93 444 Q191 444 226 450 L229 446 L153 172 Q147 151 143 132 Q139 113 139 98 Q139 48 184 48 Q202 48 222 58.5 Q242 69 261.5 87 Q281 105 299 129.5 Q317 154 331 183 Q347 215 362 256 Q377 297 395 361 L418 444 L497 444 L400 86 Q395 68 395 59 Q395 42 413 42 Q422 42 433.5 45 Q445 48 452 51 L444 20 Q431 9 408.5 0.5 Q386 -8 367 -8 Q343 -8 329.5 7 Q316 22 316 47 Z " />
<glyph glyph-name="v" unicode="v" horiz-adv-x="422" d="M456 441 Q447 402 419 344.5 Q391 287 349 224 Q307 161 254.5 99.5 Q202 38 144 -8 L109 -8 L108 361 Q108 377 106.5 387 Q105 397 99 404 Q93 411 81.5 415.5 Q70 420 50 426 L55 444 Q109 444 141.5 445.5 Q174 447 188 449 L191 445 L189 83 Q225 119 256 162 Q287 205 311 251.5 Q335 298 350 347.5 Q365 397 369 448 L456 441 Z " />
<glyph glyph-name="w" unicode="w" horiz-adv-x="647" d="M346 257 Q334 225 312.5 190 Q291 155 263.5 120.5 Q236 86 204 53 Q172 20 140 -8 L107 -8 L106 361 Q106 377 104.5 387 Q103 397 97 404 Q91 411 80 415.5 Q69 420 50 426 L55 444 Q156 444 184 449 L187 445 L185 87 Q219 123 249.5 164 Q280 205 303 251 Q326 297 339.5 345.5 Q353 394 355 445 L426 444 L424 83 Q505 166 549 258 Q593 350 599 448 L681 441 Q676 406 652.5 350.5 Q629 295 589.5 233 Q550 171 496.5 107.5 Q443 44 380 -8 L347 -8 L346 257 Z " />
<glyph glyph-name="x" unicode="x" horiz-adv-x="462" d="M158 359 Q151 377 145.5 387.5 Q140 398 132.5 405 Q125 412 113.5 416.5 Q102 421 84 426 L89 444 Q142 444 165.5 446 Q189 448 203 450 L207 448 L269 284 Q297 321 322.5 353 Q348 385 372 409 Q396 433 420 446.5 Q444 460 470 460 Q473 460 478 460 Q483 460 487 459 Q479 436 473.5 414.5 Q468 393 463 368 Q458 370 451 372 Q444 374 436 374 Q401 374 365.5 340.5 Q330 307 282 250 L352 68 Q358 53 365 46.5 Q372 40 385 40 Q394 40 404.5 42.5 Q415 45 423 49 L417 21 Q403 10 382.5 1 Q362 -8 344 -8 Q333 -8 322.5 -5.5 Q312 -3 304 5 Q288 20 275 54 L229 170 Q205 133 177.5 99.5 Q150 66 122.5 40.5 Q95 15 69 0 Q43 -15 22 -15 Q20 -2 15.5 19.5 Q11 41 6 56 Q75 71 124.5 110 Q174 149 216 205 L158 359 Z " />
<glyph glyph-name="y" unicode="y" horiz-adv-x="491" d="M154 -15 Q106 -15 82.5 12 Q59 39 59 85 Q59 108 65.5 138.5 Q72 169 83 206 L127 364 Q129 369 130.5 377.5 Q132 386 132 391 Q132 404 123 411.5 Q114 419 89 426 L93 444 Q191 444 226 450 L229 446 L153 172 Q147 151 143 132 Q139 113 139 98 Q139 48 184 48 Q202 48 222 58.5 Q242 69 261.5 87 Q281 105 299 129.5 Q317 154 331 183 Q347 215 362 256 Q377 297 395 361 L418 444 L497 444 L396 73 Q377 4 351 -47.5 Q325 -99 287 -135.5 Q249 -172 197.5 -195.5 Q146 -219 77 -231 L71 -209 Q120 -196 158 -174.5 Q196 -153 224 -122.5 Q252 -92 272 -52.5 Q292 -13 306 37 L327 111 L325 111 Q312 88 295 65.5 Q278 43 257 25 Q236 7 210 -4 Q184 -15 154 -15 Z " />
<glyph glyph-name="z" unicode="z" horiz-adv-x="426" d="M8 7 Q17 22 38.5 51 Q60 80 100.5 128 Q141 176 203 245.5 Q265 315 354 410 L276 410 Q247 410 224 405 Q201 400 183 388 Q167 377 153 362 Q139 347 125 324 L107 324 Q116 352 125 384 Q134 416 140 444 L452 444 L457 437 Q448 422 426.5 393 Q405 364 364.5 316 Q324 268 262 198.5 Q200 129 111 34 L203 34 Q233 34 255.5 39 Q278 44 296 56 Q312 67 326 82 Q340 97 354 120 L372 120 Q363 92 354 60 Q345 28 339 0 L13 0 L8 7 Z " />
<glyph glyph-name="ampersand" unicode="&#x26;" horiz-adv-x="642" d="M523 314 Q499 313 482.5 309.5 Q466 306 456 297.5 Q446 289 442 275.5 Q438 262 438 241 L417 238 Q411 265 411 287 Q411 340 440 363 Q469 386 526 388 Q556 389 574.5 394 Q593 399 605 407.5 Q617 416 624 428.5 Q631 441 637 458 L658 458 L655 441 Q650 411 644 388.5 Q638 366 627.5 351 Q617 336 601.5 328 Q586 320 561 317 Q563 306 564 294 Q565 282 565 270 Q565 217 545 162.5 Q525 108 483 65 Q448 29 397.5 7 Q347 -15 293 -15 Q238 -15 196.5 0.5 Q155 16 127 45 Q102 71 88 105.5 Q74 140 74 182 Q74 218 87 251 Q100 284 124.5 311.5 Q149 339 183.5 359 Q218 379 261 389 Q237 403 223.5 428 Q210 453 210 480 Q210 514 225 543.5 Q240 573 267 594.5 Q294 616 331 628 Q368 640 413 640 Q446 640 484.5 632 Q523 624 555 610 Q552 603 547 589 Q542 575 536.5 558.5 Q531 542 525.5 527 Q520 512 517 504 L497 504 Q500 549 476.5 574 Q453 599 409 599 Q384 599 362 590 Q340 581 323.5 565.5 Q307 550 297.5 529 Q288 508 288 483 Q288 439 318 419.5 Q348 400 392 400 L396 400 L373 364 L357 364 Q318 364 284 350.5 Q250 337 225 313 Q200 289 185.5 255.5 Q171 222 171 183 Q171 154 180 130.5 Q189 107 206 89 Q245 47 317 47 Q363 47 400 64.5 Q437 82 464 112 Q494 145 509.5 189.5 Q525 234 525 283 Q525 291 524.5 298.5 Q524 306 523 314 Z " />
<glyph glyph-name="at" unicode="&#x40;" horiz-adv-x="758" d="M545 267 Q541 253 538.5 241.5 Q536 230 536 218 Q536 204 543.5 193.5 Q551 183 569 183 Q591 183 611 200 Q631 217 646.5 246.5 Q662 276 671.5 315.5 Q681 355 681 399 Q681 444 668 481.5 Q655 519 629.5 546 Q604 573 566 588 Q528 603 479 603 Q417 603 360 574.5 Q303 546 260 498.5 Q217 451 191.5 389 Q166 327 166 259 Q166 206 181 162.5 Q196 119 225.5 88 Q255 57 299.5 39.5 Q344 22 403 22 Q469 22 532 44.5 Q595 67 647 104 L661 84 Q602 40 530.5 12.5 Q459 -15 377 -15 Q311 -15 255.5 3.5 Q200 22 162 57 Q123 92 101.5 142 Q80 192 80 256 Q80 333 109 402.5 Q138 472 191.5 525 Q245 578 319 609 Q393 640 483 640 Q547 640 597.5 622 Q648 604 683 571.5 Q718 539 736 494.5 Q754 450 754 397 Q754 348 738.5 303 Q723 258 696 223 Q669 188 632.5 167 Q596 146 554 146 Q516 146 492 164 Q468 182 466 211 Q446 178 414.5 156.5 Q383 135 343 135 Q303 135 273.5 162.5 Q244 190 244 244 Q244 292 263.5 335 Q283 378 314.5 411 Q346 444 385.5 463 Q425 482 464 482 Q484 482 504 476 Q524 470 539 457 L557 482 L605 473 L607 470 L545 267 Z M515 423 Q499 444 468 444 Q440 444 414.5 425.5 Q389 407 370 377.5 Q351 348 340 312.5 Q329 277 329 244 Q329 215 341 198.5 Q353 182 373 182 Q390 182 407 191.5 Q424 201 442 227 Q467 265 488 334 L515 423 Z " />
<glyph glyph-name="exclam" unicode="&#x21;" horiz-adv-x="248" d="M253 640 Q268 640 278 632 Q288 624 288 609 Q288 600 286 590.5 Q284 581 280 570 L138 165 L117 165 L193 565 Q201 604 214 622 Q227 640 253 640 Z M143 45 Q143 19 125 2 Q107 -15 83 -15 Q64 -15 53 -3.5 Q42 8 42 25 Q42 51 60 68 Q78 85 102 85 Q121 85 132 73.5 Q143 62 143 45 Z " />
<glyph glyph-name="exclamdown" unicode="&#xa1;" horiz-adv-x="248" d="M37.0309 -192.922 Q22.0327 -192.922 12.0339 -184.923 Q2.03516 -176.924 2.03516 -161.926 Q2.03516 -152.927 4.03491 -143.428 Q6.03467 -133.929 10.0342 -122.93 L152.017 282.02 L173.014 282.02 L97.0236 -117.931 Q89.0245 -156.926 76.0261 -174.924 Q63.0277 -192.922 37.0309 -192.922 Z M147.017 402.005 Q147.017 428.002 165.015 445 Q183.013 461.998 207.01 461.998 Q226.008 461.998 237.006 450.5 Q248.005 439.001 248.005 422.003 Q248.005 396.006 230.007 379.008 Q212.01 362.01 188.012 362.01 Q169.015 362.01 158.016 373.509 Q147.017 385.008 147.017 402.005 Z " />
<glyph glyph-name="question" unicode="&#x3f;" horiz-adv-x="417" d="M439 529 Q439 492 426 463 Q413 434 391.5 407.5 Q370 381 343 355 Q316 329 287.5 299 Q259 269 232.5 232 Q206 195 186 146 L158 146 Q177 208 209 255.5 Q241 303 272 345.5 Q303 388 325.5 429 Q348 470 348 518 Q348 553 328.5 571 Q309 589 279 589 Q256 589 230 575 Q204 561 178 532 L160 552 Q194 594 235.5 617 Q277 640 321 640 Q375 640 407 610.5 Q439 581 439 529 Z M195 45 Q195 19 177 2 Q159 -15 135 -15 Q116 -15 105 -3.5 Q94 8 94 25 Q94 51 111.5 68 Q129 85 153 85 Q172 85 183.5 73.5 Q195 62 195 45 Z " />
<glyph glyph-name="questiondown" unicode="&#xbf;" horiz-adv-x="417" d="M33.0536 -81.9354 Q33.0536 -44.9399 46.052 -15.9435 Q59.0504 13.053 80.5478 39.5497 Q102.045 66.0465 129.042 92.0433 Q156.039 118.04 184.535 148.036 Q213.032 178.033 239.528 215.028 Q266.025 252.024 286.023 301.018 L314.019 301.018 Q295.022 239.025 263.026 191.531 Q231.029 144.037 200.033 101.542 Q169.037 59.0474 146.54 18.0524 Q124.042 -22.9426 124.042 -70.9368 Q124.042 -105.932 143.54 -123.93 Q163.038 -141.928 193.034 -141.928 Q216.031 -141.928 242.028 -127.93 Q268.025 -113.932 294.022 -84.9351 L312.02 -104.933 Q278.024 -146.927 236.529 -169.925 Q195.034 -192.922 151.039 -192.922 Q97.0458 -192.922 65.0497 -163.425 Q33.0536 -133.929 33.0536 -81.9354 Z M277.024 402.005 Q277.024 428.002 295.022 445 Q313.019 461.998 337.016 461.998 Q356.014 461.998 367.013 450.5 Q378.011 439.001 378.011 422.003 Q378.011 396.006 360.514 379.008 Q343.016 362.01 319.019 362.01 Q300.021 362.01 288.522 373.509 Q277.024 385.008 277.024 402.005 Z " />
<glyph glyph-name="asterisk" unicode="&#x2a;" horiz-adv-x="377" d="M291 484 Q310 495 327.5 507.5 Q345 520 360 532 Q378 547 390.5 557.5 Q403 568 421 568 Q430 568 437.5 561 Q445 554 445 543 Q445 526 430 516.5 Q415 507 382 498 Q363 493 340.5 486 Q318 479 295 468 Q308 460 321.5 455 Q335 450 348 445 Q354 443 363.5 440 Q373 437 382 432 Q391 427 397.5 420.5 Q404 414 404 404 Q404 390 393.5 379.5 Q383 369 369 369 Q352 369 341 382.5 Q330 396 319 410 Q311 421 302.5 431.5 Q294 442 283 452 Q279 434 277.5 416 Q276 398 275.5 382.5 Q275 367 274 354 Q273 341 271 333 Q267 317 257.5 307.5 Q248 298 233 298 Q211 298 211 320 Q211 337 220.5 353.5 Q230 370 239 388 Q247 403 254.5 420 Q262 437 268 454 Q249 443 231.5 430.5 Q214 418 199 406 Q181 391 168.5 380.5 Q156 370 138 370 Q129 370 121.5 377 Q114 384 114 395 Q114 412 129 421.5 Q144 431 177 440 Q196 445 218.5 452 Q241 459 264 470 Q251 478 237.5 483 Q224 488 211 493 Q205 495 195.5 498 Q186 501 177 506 Q168 511 161.5 517.5 Q155 524 155 534 Q155 548 165.5 558.5 Q176 569 190 569 Q207 569 218 555.5 Q229 542 240 528 Q248 517 256.5 506.5 Q265 496 276 486 Q284 522 283.5 555 Q283 588 288 605 Q292 621 301.5 630.5 Q311 640 326 640 Q348 640 348 618 Q348 601 338.5 584.5 Q329 568 320 550 Q312 535 304.5 518 Q297 501 291 484 Z " />
<glyph glyph-name="period" unicode="&#x2e;" horiz-adv-x="173" d="M121 45 Q121 19 103 2 Q85 -15 61 -15 Q42 -15 31 -3.5 Q20 8 20 25 Q20 51 38 68 Q56 85 80 85 Q99 85 110 73.5 Q121 62 121 45 Z " />
<glyph glyph-name="comma" unicode="&#x2c;" horiz-adv-x="171" d="M114 35 Q114 11 105 -13 Q96 -37 80 -59 Q64 -81 42 -100 Q20 -119 -6 -133 L-17 -117 Q-3 -106 10.5 -92.5 Q24 -79 34 -65.5 Q44 -52 50 -38.5 Q56 -25 56 -13 Q56 -3 51 4 Q46 11 39.5 17 Q33 23 28 29 Q23 35 23 43 Q23 58 37 72 Q51 86 74 86 Q94 86 104 71 Q114 56 114 35 Z " />
<glyph glyph-name="colon" unicode="&#x3a;" horiz-adv-x="203" d="M121 45 Q121 19 102.5 2 Q84 -15 60 -15 Q41 -15 30.5 -4 Q20 7 20 24 Q20 50 38 67.5 Q56 85 80 85 Q99 85 110 73.5 Q121 62 121 45 Z M193 313 Q193 287 175 269.5 Q157 252 133 252 Q114 252 103 263.5 Q92 275 92 292 Q92 318 110.5 335 Q129 352 153 352 Q172 352 182.5 341 Q193 330 193 313 Z " />
<glyph glyph-name="semicolon" unicode="&#x3b;" horiz-adv-x="203" d="M119 35 Q119 11 110 -13 Q101 -37 85 -59 Q69 -81 47 -100 Q25 -119 -1 -133 L-12 -117 Q2 -106 15.5 -92.5 Q29 -79 39 -65.5 Q49 -52 55 -38.5 Q61 -25 61 -13 Q61 -3 56 4 Q51 11 44.5 17 Q38 23 33 29 Q28 35 28 43 Q28 58 42 72 Q56 86 79 86 Q99 86 109 71 Q119 56 119 35 Z M193 313 Q193 287 175 269.5 Q157 252 133 252 Q114 252 103 263.5 Q92 275 92 292 Q92 318 110.5 335 Q129 352 153 352 Q172 352 182.5 341 Q193 330 193 313 Z " />
<glyph glyph-name="ellipsis" unicode="&#x2026;" horiz-adv-x="519" d="M121 45 Q121 19 103 2 Q85 -15 61 -15 Q42 -15 31 -3.5 Q20 8 20 25 Q20 51 38 68 Q56 85 80 85 Q99 85 110 73.5 Q121 62 121 45 Z M294 45 Q294 19 276 2 Q258 -15 234 -15 Q215 -15 204 -3.5 Q193 8 193 25 Q193 51 211 68 Q229 85 253 85 Q272 85 283 73.5 Q294 62 294 45 Z M467 45 Q467 19 449 2 Q431 -15 407 -15 Q388 -15 377 -3.5 Q366 8 366 25 Q366 51 384 68 Q402 85 426 85 Q445 85 456 73.5 Q467 62 467 45 Z " />
<glyph glyph-name="periodcentered" unicode="&#xb7;" horiz-adv-x="173" d="M154 232 Q154 206 136 189 Q118 172 94 172 Q75 172 64 183.5 Q53 195 53 212 Q53 238 71 255 Q89 272 113 272 Q132 272 143 260.5 Q154 249 154 232 Z " />
<glyph glyph-name="uni22C5" unicode="&#x22c5;" horiz-adv-x="173" d="M154 232 Q154 206 136 189 Q118 172 94 172 Q75 172 64 183.5 Q53 195 53 212 Q53 238 71 255 Q89 272 113 272 Q132 272 143 260.5 Q154 249 154 232 Z " />
<glyph glyph-name="bullet" unicode="&#x2022;" horiz-adv-x="304" d="M139 111 Q102 111 81 134 Q60 157 60 192 Q60 217 71 240.5 Q82 264 100 283 Q118 302 142 313.5 Q166 325 193 325 Q230 325 251 302 Q272 279 272 244 Q272 219 261 195 Q250 171 232 152.5 Q214 134 190 122.5 Q166 111 139 111 Z " />
<glyph glyph-name="slash" unicode="&#x2f;" horiz-adv-x="345" d="M65 -15 L14 -15 L385 640 L436 640 L65 -15 Z " />
<glyph glyph-name="parenleft" unicode="&#x28;" horiz-adv-x="284" d="M187 -142 Q143 -101 114 -29.5 Q85 42 85 134 Q85 221 110 312.5 Q135 404 181 489 Q227 574 291 646.5 Q355 719 433 767 L453 756 Q390 705 336 631.5 Q282 558 242.5 472 Q203 386 181 293 Q159 200 159 110 Q159 23 172 -35 Q185 -93 209 -131 L187 -142 L187 -142 Z " />
<glyph glyph-name="brokenbar" unicode="&#xa6;" horiz-adv-x="268" d="M168 347 L266 710 L318 710 L220 347 L168 347 Z M2 -265 L100 98 L152 98 L54 -265 L2 -265 Z " />
<glyph glyph-name="parenright" unicode="&#x29;" horiz-adv-x="284" d="M199 767 Q243 726 272 654.5 Q301 583 301 491 Q301 404 276 312.5 Q251 221 205 136 Q159 51 95 -21.5 Q31 -94 -47 -142 L-67 -131 Q-4 -80 50 -6.5 Q104 67 143.5 153 Q183 239 205 332 Q227 425 227 515 Q227 602 214 660 Q201 718 177 756 L199 767 L199 767 Z " />
<glyph glyph-name="bracketleft" unicode="&#x5b;" horiz-adv-x="312" d="M28 -142 L274 767 L459 767 L449 730 L340 730 L113 -105 L222 -105 L212 -142 L28 -142 Z " />
<glyph glyph-name="backslash" unicode="&#x5c;" horiz-adv-x="345" d="M248 -15 L136 640 L178 640 L290 -15 L248 -15 Z " />
<glyph glyph-name="bracketright" unicode="&#x5d;" horiz-adv-x="312" d="M376 767 L130 -142 L-55 -142 L-45 -105 L64 -105 L291 730 L182 730 L192 767 L376 767 Z " />
<glyph glyph-name="braceleft" unicode="&#x7b;" horiz-adv-x="283" d="M108 325 Q149 333 172.5 360 Q196 387 201 425 L216 563 Q220 599 230.5 631.5 Q241 664 267 692 Q299 724 344.5 743 Q390 762 444 767 L439 748 Q374 739 343 707 Q322 686 314.5 656 Q307 626 304 598 L291 480 Q287 444 275 417.5 Q263 391 239 367 Q222 350 199 336 Q176 322 146 312 Q185 296 201.5 270 Q218 244 218 215 Q218 198 213.5 181 Q209 164 200 144 L149 26 Q135 -7 129 -25.5 Q123 -44 123 -61 Q123 -111 202 -123 L197 -142 Q131 -136 92.5 -106.5 Q54 -77 54 -26 Q54 -9 59.5 10.5 Q65 30 79 61 L137 192 Q143 206 146.5 217.5 Q150 229 150 243 Q150 264 138 279 Q126 294 101 299 L108 325 Z " />
<glyph glyph-name="bar" unicode="&#x7c;" horiz-adv-x="267" d="M2 -265 L265 710 L317 710 L53 -265 L2 -265 Z " />
<glyph glyph-name="braceright" unicode="&#x7d;" horiz-adv-x="283" d="M244 433 Q238 419 234.5 407.5 Q231 396 231 382 Q231 361 243 346 Q255 331 280 326 L273 300 Q232 292 208.5 265 Q185 238 180 200 L165 62 Q161 26 150.5 -6.5 Q140 -39 114 -67 Q82 -99 36.5 -118 Q-9 -137 -63 -142 L-58 -123 Q7 -114 38 -82 Q59 -61 66.5 -31 Q74 -1 77 27 L90 145 Q94 181 106 207.5 Q118 234 142 258 Q159 275 182 289 Q205 303 235 313 Q196 329 179.5 355 Q163 381 163 410 Q163 427 167.5 444 Q172 461 181 481 L232 599 Q246 632 252 650.5 Q258 669 258 686 Q258 736 179 748 L184 767 Q250 761 288.5 731.5 Q327 702 327 651 Q327 634 321.5 614.5 Q316 595 302 564 L244 433 Z " />
<glyph glyph-name="hyphen" unicode="&#x2d;" horiz-adv-x="290" d="M51 254 L279 254 L267 209 L39 209 L51 254 Z " />
<glyph glyph-name="uni00AD" unicode="&#xad;" horiz-adv-x="290" d="M51 254 L279 254 L267 209 L39 209 L51 254 Z " />
<glyph glyph-name="endash" unicode="&#x2013;" horiz-adv-x="500" d="M38 254 L513 254 L501 209 L26 209 L38 254 Z " />
<glyph glyph-name="emdash" unicode="&#x2014;" horiz-adv-x="1000" d="M38 254 L1013 254 L1001 209 L26 209 L38 254 Z " />
<glyph glyph-name="underscore" unicode="&#x5f;" horiz-adv-x="500" d="M-40 -149 L-29 -108 L421 -108 L411 -149 L-40 -149 Z " />
<glyph glyph-name="dagger" unicode="&#x2020;" horiz-adv-x="408" d="M446 409 Q446 389 430.5 378 Q415 367 392 367 Q380 367 367.5 370.5 Q355 374 342 378.5 Q329 383 313.5 387.5 Q298 392 280 393 Q272 364 270 334.5 Q268 305 265 270 Q256 251 243.5 216 Q231 181 215 132 Q199 83 181.5 23 Q164 -37 145 -106 L121 -106 Q139 -39 154 21.5 Q169 82 180 131 Q191 180 197.5 216 Q204 252 205 271 Q220 304 235 335.5 Q250 367 258 393 Q238 392 221 387.5 Q204 383 188.5 378.5 Q173 374 159 370.5 Q145 367 133 367 Q118 367 107 373.5 Q96 380 96 394 Q96 414 111 424 Q126 434 151 434 Q162 434 173.5 430.5 Q185 427 198.5 422.5 Q212 418 227.5 414 Q243 410 261 409 Q269 439 270 465.5 Q271 492 271 515 Q271 541 274 564 Q277 587 284 604 Q291 621 303 630.5 Q315 640 332 640 Q349 640 356 631 Q363 622 363 610 Q363 590 354.5 568 Q346 546 327 509 Q316 486 304 461 Q292 436 284 409 Q303 410 321 414 Q339 418 355 422.5 Q371 427 385 430.5 Q399 434 410 434 Q427 434 436.5 427.5 Q446 421 446 409 Z " />
<glyph glyph-name="daggerdbl" unicode="&#x2021;" horiz-adv-x="414" d="M429 453 Q429 436 415.5 427.5 Q402 419 383 419 Q372 419 362.5 422 Q353 425 342.5 428.5 Q332 432 320 435.5 Q308 439 293 440 Q287 417 284 401 Q281 385 274 358 Q268 336 262 320.5 Q256 305 251 288 L227 288 Q233 310 235.5 324.5 Q238 339 243 359 Q251 387 257 403 Q263 419 269 440 Q237 438 213 428.5 Q189 419 169 419 Q156 419 147.5 425 Q139 431 139 442 Q139 456 149.5 465 Q160 474 183 474 Q193 474 202.5 471.5 Q212 469 222 465 Q232 461 244 457.5 Q256 454 271 453 Q277 474 278.5 493.5 Q280 513 280 530 Q280 547 280.5 562.5 Q281 578 284 592 Q289 611 302 625.5 Q315 640 335 640 Q349 640 355 633 Q361 626 361 615 Q361 598 354 580.5 Q347 563 336.5 543.5 Q326 524 315 501.5 Q304 479 296 453 Q328 455 353 464.5 Q378 474 398 474 Q412 474 420.5 469 Q429 464 429 453 Z M38 81 Q38 98 51.5 106.5 Q65 115 84 115 Q94 115 104 112 Q114 109 124.5 105 Q135 101 147 98 Q159 95 174 94 Q177 106 179 115 Q181 124 183 133 Q185 142 187 152 Q189 162 193 176 Q199 198 205 213.5 Q211 229 216 246 L240 246 Q234 224 231.5 209.5 Q229 195 224 175 Q216 147 210 131 Q204 115 198 94 Q230 96 254 105.5 Q278 115 298 115 Q311 115 319.5 109 Q328 103 328 92 Q328 78 317.5 69 Q307 60 284 60 Q274 60 264.5 62.5 Q255 65 245 69 Q235 73 223 76 Q211 79 196 81 Q190 60 188.5 40.5 Q187 21 187 4 Q187 -13 186.5 -28.5 Q186 -44 183 -58 Q178 -77 165 -91.5 Q152 -106 132 -106 Q118 -106 112 -99 Q106 -92 106 -81 Q106 -65 113 -47 Q120 -29 130.5 -9.5 Q141 10 152 32.5 Q163 55 171 81 Q139 79 114 69.5 Q89 60 69 60 Q55 60 46.5 65 Q38 70 38 81 Z " />
<glyph glyph-name="section" unicode="&#xa7;" horiz-adv-x="421" d="M149 -64 Q171 -64 191 -57.5 Q211 -51 226 -40.5 Q241 -30 249.5 -16 Q258 -2 258 14 Q258 33 245 47.5 Q232 62 213 74.5 Q194 87 171 100 Q148 113 129 129.5 Q110 146 97 167.5 Q84 189 84 219 Q84 248 96.5 274 Q109 300 130.5 320 Q152 340 182 353 Q212 366 247 368 Q230 378 213.5 389.5 Q197 401 184.5 415.5 Q172 430 164 448 Q156 466 156 490 Q156 521 170 548 Q184 575 208 595.5 Q232 616 264.5 628 Q297 640 335 640 Q373 640 405 632.5 Q437 625 465 615 Q459 597 451.5 568.5 Q444 540 440 520 L426 520 Q417 561 393.5 579.5 Q370 598 331 598 Q285 598 259 575 Q233 552 233 522 Q233 504 246 489.5 Q259 475 278.5 462 Q298 449 320.5 435.5 Q343 422 362.5 405.5 Q382 389 395 367.5 Q408 346 408 317 Q408 289 396 263.5 Q384 238 362.5 218 Q341 198 311 184.5 Q281 171 244 167 Q261 156 277.5 144.5 Q294 133 307 118.5 Q320 104 328 86 Q336 68 336 46 Q336 15 321.5 -12.5 Q307 -40 280.5 -61 Q254 -82 217.5 -94 Q181 -106 137 -106 Q104 -106 68 -98.5 Q32 -91 6 -81 Q9 -71 13.5 -57 Q18 -43 22 -28.5 Q26 -14 29 -0.5 Q32 13 34 22 L49 22 Q54 -21 79.5 -42.5 Q105 -64 149 -64 Z M226 201 Q272 201 298 224 Q324 247 324 277 Q324 300 305.5 313.5 Q287 327 259 327 Q213 327 187 304 Q161 281 161 251 Q161 228 179.5 214.5 Q198 201 226 201 Z " />
<glyph glyph-name="paragraph" unicode="&#xb6;" horiz-adv-x="490" d="M495 581 L308 -106 L262 -106 L449 581 L391 581 L204 -106 L157 -106 L267 298 Q202 300 162 332.5 Q122 365 122 426 Q122 469 139.5 506 Q157 543 189 569 Q221 597 269 611 Q317 625 371 625 L573 625 L567 605 L495 581 Z " />
<glyph glyph-name="registered" unicode="&#xae;" horiz-adv-x="777" d="M757 313 Q757 245 731.5 185.5 Q706 126 662 81.5 Q618 37 559 11 Q500 -15 432 -15 Q364 -15 304.5 11 Q245 37 201 81.5 Q157 126 131.5 185.5 Q106 245 106 313 Q106 381 131.5 440.5 Q157 500 201 544.5 Q245 589 304.5 614.5 Q364 640 432 640 Q500 640 559 614.5 Q618 589 662 544.5 Q706 500 731.5 440.5 Q757 381 757 313 Z M703 311 Q703 369 682 420.5 Q661 472 624.5 511 Q588 550 538.5 572.5 Q489 595 431 595 Q373 595 323.5 572.5 Q274 550 237.5 511 Q201 472 180 420.5 Q159 369 159 311 Q159 253 180 201.5 Q201 150 237.5 111.5 Q274 73 323.5 50.5 Q373 28 431 28 Q489 28 538.5 50.5 Q588 73 624.5 111.5 Q661 150 682 201.5 Q703 253 703 311 Z M497 128 Q496 139 492.5 150 Q489 161 480 180 L452 241 Q440 268 428 276 Q416 284 388 284 L378 284 L378 179 Q378 162 385.5 156.5 Q393 151 418 145 L418 128 Q402 128 385 128.5 Q368 129 351 129 Q334 129 314.5 128.5 Q295 128 278 128 L278 145 L316 157 L316 441 Q316 457 309 463 Q302 469 277 474 L277 492 L396 492 Q443 492 473.5 484 Q504 476 522 460 Q550 435 550 397 Q550 365 530 340 Q510 315 475 301 Q486 295 495 285.5 Q504 276 512 259 L544 189 Q555 163 565.5 156 Q576 149 596 145 L596 128 L497 128 Z M482 391 Q482 426 460 444 Q439 461 387 461 L378 461 L378 313 L387 313 Q410 313 429 318.5 Q448 324 460 335 Q482 355 482 391 Z " />
<glyph glyph-name="copyright" unicode="&#xa9;" horiz-adv-x="777" d="M757 313 Q757 245 731.5 185.5 Q706 126 662 81.5 Q618 37 559 11 Q500 -15 432 -15 Q364 -15 304.5 11 Q245 37 201 81.5 Q157 126 131.5 185.5 Q106 245 106 313 Q106 381 131.5 440.5 Q157 500 201 544.5 Q245 589 304.5 614.5 Q364 640 432 640 Q500 640 559 614.5 Q618 589 662 544.5 Q706 500 731.5 440.5 Q757 381 757 313 Z M703 311 Q703 369 682 420.5 Q661 472 624.5 511 Q588 550 538.5 572.5 Q489 595 431 595 Q373 595 323.5 572.5 Q274 550 237.5 511 Q201 472 180 420.5 Q159 369 159 311 Q159 253 180 201.5 Q201 150 237.5 111.5 Q274 73 323.5 50.5 Q373 28 431 28 Q489 28 538.5 50.5 Q588 73 624.5 111.5 Q661 150 682 201.5 Q703 253 703 311 Z M560 198 Q539 161 505 142 Q471 123 430 123 Q355 123 313 175 Q271 227 271 314 Q271 358 284.5 393.5 Q298 429 322 454 Q345 477 374.5 489.5 Q404 502 443 502 Q471 502 493.5 496.5 Q516 491 542 488 Q542 476 542 460 Q542 444 542.5 428.5 Q543 413 543.5 398 Q544 383 544 373 L523 373 Q518 413 499.5 440.5 Q481 468 440 468 Q415 468 397 455.5 Q379 443 367 422 Q355 401 349 373 Q343 345 343 314 Q343 242 369.5 203.5 Q396 165 445 165 Q501 165 541 214 L560 198 Z " />
<glyph glyph-name="trademark" unicode="&#x2122;" horiz-adv-x="689" d="M255 600 Q236 600 223.5 599 Q211 598 202.5 593 Q194 588 187 578.5 Q180 569 172 553 L150 553 Q152 559 155.5 568 Q159 577 162.5 587.5 Q166 598 169 608 Q172 618 174 625 L400 625 Q395 607 390.5 588 Q386 569 382 553 L362 553 Q362 568 361 577.5 Q360 587 354.5 592 Q349 597 338.5 598.5 Q328 600 309 600 L250 384 Q248 376 248 374 Q248 369 256 366 L274 361 L269 344 Q261 344 244.5 344.5 Q228 345 218 345 Q207 345 186.5 344.5 Q166 344 158 344 L163 361 L191 367 L255 600 Z M440 585 Q442 593 442 595 Q442 600 434 603 L416 608 L421 625 L520 625 L549 430 L680 625 L777 625 L772 608 L744 602 L685 384 Q683 376 683 374 Q683 369 691 366 L709 361 L704 344 Q696 344 677.5 344.5 Q659 345 649 345 Q638 345 618.5 344.5 Q599 344 591 344 L596 361 L624 367 L680 571 L523 341 L509 341 L472 580 L419 384 Q417 376 417 374 Q417 369 425 366 L443 361 L438 344 Q430 344 418.5 344.5 Q407 345 397 345 Q386 345 371 344.5 Q356 344 348 344 L353 361 L381 367 L440 585 Z " />
<glyph glyph-name="quotedblleft" unicode="&#x201c;" horiz-adv-x="321" d="M271 472 Q271 496 280 520 Q289 544 305 566 Q321 588 343 607 Q365 626 391 640 L402 624 Q388 613 374.5 599.5 Q361 586 351 572.5 Q341 559 335 545.5 Q329 532 329 520 Q329 510 334 503 Q339 496 345.5 490 Q352 484 357 478 Q362 472 362 464 Q362 449 348 435 Q334 421 311 421 Q291 421 281 436 Q271 451 271 472 Z M147 472 Q147 496 156 520 Q165 544 181 566 Q197 588 219 607 Q241 626 267 640 L278 624 Q264 613 250.5 599.5 Q237 586 227 572.5 Q217 559 211 545.5 Q205 532 205 520 Q205 510 210 503 Q215 496 221.5 490 Q228 484 233 478 Q238 472 238 464 Q238 449 224 435 Q210 421 187 421 Q167 421 157 436 Q147 451 147 472 Z " />
<glyph glyph-name="quotedblright" unicode="&#x201d;" horiz-adv-x="321" d="M261 589 Q261 565 252 541 Q243 517 227 495 Q211 473 189 454 Q167 435 141 421 L130 437 Q144 448 157.5 461.5 Q171 475 181 488.5 Q191 502 197 515.5 Q203 529 203 541 Q203 551 198 558 Q193 565 186.5 571 Q180 577 175 583 Q170 589 170 597 Q170 612 184 626 Q198 640 221 640 Q241 640 251 625 Q261 610 261 589 Z M385 589 Q385 565 376 541 Q367 517 351 495 Q335 473 313 454 Q291 435 265 421 L254 437 Q268 448 281.5 461.5 Q295 475 305 488.5 Q315 502 321 515.5 Q327 529 327 541 Q327 551 322 558 Q317 565 310.5 571 Q304 577 299 583 Q294 589 294 597 Q294 612 308 626 Q322 640 345 640 Q365 640 375 625 Q385 610 385 589 Z " />
<glyph glyph-name="quoteleft" unicode="&#x2018;" horiz-adv-x="197" d="M147 472 Q147 496 156 520 Q165 544 181 566 Q197 588 219 607 Q241 626 267 640 L278 624 Q264 613 250.5 599.5 Q237 586 227 572.5 Q217 559 211 545.5 Q205 532 205 520 Q205 510 210 503 Q215 496 221.5 490 Q228 484 233 478 Q238 472 238 464 Q238 449 224 435 Q210 421 187 421 Q167 421 157 436 Q147 451 147 472 Z " />
<glyph glyph-name="quoteright" unicode="&#x2019;" horiz-adv-x="197" d="M262 589 Q262 565 253 541 Q244 517 228 495 Q212 473 190 454 Q168 435 142 421 L131 437 Q145 448 158.5 461.5 Q172 475 182 488.5 Q192 502 198 515.5 Q204 529 204 541 Q204 551 199 558 Q194 565 187.5 571 Q181 577 176 583 Q171 589 171 597 Q171 612 185 626 Q199 640 222 640 Q242 640 252 625 Q262 610 262 589 Z " />
<glyph glyph-name="guillemotleft" unicode="&#xab;" horiz-adv-x="365" d="M272 59 L195 217 L358 374 L375 356 L254 216 L301 77 L272 59 Z M131 59 L54 217 L218 374 L234 356 L113 216 L161 77 L131 59 Z " />
<glyph glyph-name="guillemotright" unicode="&#xbb;" horiz-adv-x="365" d="M181 59 L163 77 L285 216 L242 356 L268 374 L346 217 L181 59 Z M41 59 L22 77 L144 216 L101 356 L127 374 L205 217 L41 59 Z " />
<glyph glyph-name="guilsinglleft" unicode="&#x2039;" horiz-adv-x="223" d="M131 59 L54 217 L217 374 L233 356 L113 216 L160 77 L131 59 Z " />
<glyph glyph-name="guilsinglright" unicode="&#x203a;" horiz-adv-x="223" d="M40 59 L22 77 L143 216 L101 356 L126 374 L204 217 L40 59 Z " />
<glyph glyph-name="quotesinglbase" unicode="&#x201a;" horiz-adv-x="197" d="M120 28 Q120 4 111 -20 Q102 -44 86 -66 Q70 -88 48 -107 Q26 -126 0 -140 L-11 -124 Q3 -113 16.5 -99.5 Q30 -86 40 -72.5 Q50 -59 56 -45.5 Q62 -32 62 -20 Q62 -10 57 -3 Q52 4 45.5 10 Q39 16 34 22 Q29 28 29 36 Q29 51 43 65 Q57 79 80 79 Q100 79 110 64 Q120 49 120 28 Z " />
<glyph glyph-name="quotedblbase" unicode="&#x201e;" horiz-adv-x="321" d="M120 28 Q120 4 111 -20 Q102 -44 86 -66 Q70 -88 48 -107 Q26 -126 0 -140 L-11 -124 Q3 -113 16.5 -99.5 Q30 -86 40 -72.5 Q50 -59 56 -45.5 Q62 -32 62 -20 Q62 -10 57 -3 Q52 4 45.5 10 Q39 16 34 22 Q29 28 29 36 Q29 51 43 65 Q57 79 80 79 Q100 79 110 64 Q120 49 120 28 Z M244 28 Q244 4 235 -20 Q226 -44 210 -66 Q194 -88 172 -107 Q150 -126 124 -140 L113 -124 Q127 -113 140.5 -99.5 Q154 -86 164 -72.5 Q174 -59 180 -45.5 Q186 -32 186 -20 Q186 -10 181 -3 Q176 4 169.5 10 Q163 16 158 22 Q153 28 153 36 Q153 51 167 65 Q181 79 204 79 Q224 79 234 64 Q244 49 244 28 Z " />
<glyph glyph-name="fi" unicode="&#xfb01;" horiz-adv-x="501" d="M397 86 Q392 68 392 59 Q392 42 410 42 Q419 42 430.5 45 Q442 48 449 51 L441 20 Q428 9 404.5 0.5 Q381 -8 362 -8 Q337 -8 324 6 Q311 20 311 43 Q311 60 319 92 L393 365 Q396 377 396 385 Q396 397 387 402.5 Q378 408 355 408 L226 408 L56 -220 L-24 -220 L146 408 L82 408 L91 444 L156 444 L163 470 Q190 572 244 626 Q298 680 379 680 Q403 680 428 674 Q453 668 473.5 657.5 Q494 647 506.5 633 Q519 619 519 604 Q519 589 503 573 Q487 557 469 557 Q454 557 444.5 571 Q435 585 425 601.5 Q415 618 401 632 Q387 646 363 646 Q321 646 293 601.5 Q265 557 245 479 L236 444 L356 444 Q457 444 492 450 L495 446 L397 86 Z " />
<glyph glyph-name="fl" unicode="&#xfb02;" horiz-adv-x="508" d="M405 86 Q400 68 400 59 Q400 42 418 42 Q427 42 438.5 45 Q450 48 457 51 L449 20 Q436 9 412.5 0.5 Q389 -8 370 -8 Q345 -8 332 6 Q319 20 319 43 Q319 60 327 92 L472 623 Q454 632 432.5 638.5 Q411 645 390 645 Q344 645 307 608.5 Q270 572 249 493 L236 444 L341 444 L324 408 L226 408 L56 -220 L-24 -220 L146 408 L82 408 L91 444 L156 444 L163 470 Q192 577 245.5 628.5 Q299 680 386 680 Q430 680 467.5 672 Q505 664 534 664 Q548 664 558 666 L562 662 L405 86 Z " />
<glyph glyph-name="f_f" unicode="&#xfb00;" horiz-adv-x="547" d="M429 470 Q458 579 511.5 629.5 Q565 680 648 680 Q683 680 707 666.5 Q731 653 731 631 Q731 615 714 599.5 Q697 584 678 584 Q667 584 661.5 591.5 Q656 599 651 612 Q646 625 638.5 635.5 Q631 646 614 646 Q588 646 562.5 610.5 Q537 575 515 493 L502 444 L607 444 L590 408 L492 408 L326 -205 L246 -205 L412 408 L226 408 L56 -220 L-24 -220 L146 408 L82 408 L91 444 L156 444 L161 463 Q188 566 236 619.5 Q284 673 365 673 Q403 673 428 659.5 Q453 646 453 624 Q453 608 436 592.5 Q419 577 400 577 Q389 577 383.5 584.5 Q378 592 373 605 Q367 619 360 629 Q353 639 339 639 Q287 639 247 486 L236 444 L422 444 L429 470 Z " />
<glyph glyph-name="f_f_i" unicode="&#xfb03;" horiz-adv-x="767" d="M156 444 L161 463 Q176 521 197.5 561 Q219 601 246.5 626 Q274 651 307 662 Q340 673 378 673 Q417 673 452.5 660.5 Q488 648 510 630 Q538 656 572 668 Q606 680 645 680 Q669 680 694 674 Q719 668 739.5 657.5 Q760 647 772.5 633 Q785 619 785 604 Q785 589 769 573 Q753 557 735 557 Q720 557 710.5 571 Q701 585 691 601.5 Q681 618 667 632 Q653 646 629 646 Q587 646 559 601.5 Q531 557 511 479 L502 444 L622 444 Q723 444 758 450 L761 446 L663 86 Q658 68 658 59 Q658 42 676 42 Q685 42 696.5 45 Q708 48 715 51 L707 20 Q694 9 670.5 0.5 Q647 -8 628 -8 Q603 -8 590 6 Q577 20 577 43 Q577 60 585 92 L659 365 Q662 377 662 385 Q662 397 653 402.5 Q644 408 621 408 L492 408 L326 -205 L246 -205 L412 408 L226 408 L56 -220 L-24 -220 L146 408 L82 408 L91 444 L156 444 Z M236 444 L422 444 L429 470 Q437 501 447 526 Q457 551 468 572 Q460 583 451 595 Q442 607 430 616.5 Q418 626 404 632.5 Q390 639 373 639 Q334 639 299.5 600.5 Q265 562 243 472 L236 444 Z " />
<glyph glyph-name="f_f_l" unicode="&#xfb04;" horiz-adv-x="774" d="M378 673 Q416 673 452.5 660.5 Q489 648 512 629 Q566 680 652 680 Q696 680 733.5 672 Q771 664 800 664 Q814 664 824 666 L828 662 L671 86 Q666 68 666 59 Q666 42 684 42 Q693 42 704.5 45 Q716 48 723 51 L715 20 Q702 9 678.5 0.5 Q655 -8 636 -8 Q611 -8 598 6 Q585 20 585 43 Q585 60 593 92 L738 623 Q720 632 698.5 638.5 Q677 645 656 645 Q610 645 573 608.5 Q536 572 515 493 L502 444 L607 444 L590 408 L492 408 L326 -205 L246 -205 L412 408 L226 408 L56 -220 L-24 -220 L146 408 L82 408 L91 444 L156 444 L161 463 Q176 521 197.5 561 Q219 601 246.5 626 Q274 651 307 662 Q340 673 378 673 Z M429 470 Q444 529 468 571 Q452 596 428.5 617.5 Q405 639 373 639 Q334 639 299.5 600.5 Q265 562 243 472 L236 444 L422 444 L429 470 Z " />
<glyph glyph-name="grave" unicode="&#x60;" horiz-adv-x="242" d="M159 592 L193 626 Q200 633 207 633 Q216 633 224 623 L327 506 L318 495 L161 582 L159 592 Z " />
<glyph glyph-name="acute" unicode="&#xb4;" horiz-adv-x="242" d="M315 582 L128 495 L121 507 L257 623 Q269 633 276 633 Q282 633 288 626 L316 592 L315 582 Z " />
<glyph glyph-name="dieresis" unicode="&#xa8;" horiz-adv-x="242" d="M218 580 Q218 557 202 542 Q186 527 165 527 Q149 527 139.5 536.5 Q130 546 130 561 Q130 584 145.5 599 Q161 614 183 614 Q199 614 208.5 604 Q218 594 218 580 Z M357 580 Q357 557 341 542 Q325 527 304 527 Q288 527 278.5 536.5 Q269 546 269 561 Q269 584 284.5 599 Q300 614 322 614 Q338 614 347.5 604 Q357 594 357 580 Z " />
<glyph glyph-name="circumflex" unicode="&#x2c6;" horiz-adv-x="242" d="M307 502 L238 586 L123 502 L110 511 L230 640 L273 640 L323 507 L307 502 Z " />
<glyph glyph-name="tilde" unicode="&#x2dc;" horiz-adv-x="242" d="M272 529 Q258 529 245.5 535 Q233 541 221.5 547.5 Q210 554 198.5 560 Q187 566 174 566 Q143 566 121 530 L104 533 Q124 585 147.5 605 Q171 625 197 625 Q211 625 223.5 619 Q236 613 247.5 606.5 Q259 600 270.5 594 Q282 588 295 588 Q326 588 348 624 L365 621 Q345 569 321.5 549 Q298 529 272 529 Z " />
<glyph glyph-name="macron" unicode="&#xaf;" horiz-adv-x="242" d="M123 543 L136 589 L348 589 L335 543 L123 543 Z " />
<glyph glyph-name="breve" unicode="&#x2d8;" horiz-adv-x="242" d="M223 511 Q181 511 158 532.5 Q135 554 135 589 Q135 605 140 625 L162 625 Q157 593 177 575 Q197 557 231 557 Q265 557 294 575 Q323 593 334 625 L356 625 Q343 573 309 542 Q275 511 223 511 Z " />
<glyph glyph-name="dotaccent" unicode="&#x2d9;" horiz-adv-x="242" d="M280 580 Q280 552 260.5 533.5 Q241 515 215 515 Q195 515 183.5 527 Q172 539 172 557 Q172 585 191.5 603.5 Q211 622 237 622 Q257 622 268.5 610 Q280 598 280 580 Z " />
<glyph glyph-name="ring" unicode="&#x2da;" horiz-adv-x="242" d="M199 577 Q199 561 207.5 551.5 Q216 542 230 542 Q253 542 268.5 561.5 Q284 581 284 606 Q284 622 275.5 631.5 Q267 641 253 641 Q230 641 214.5 621.5 Q199 602 199 577 Z M323 609 Q323 590 316 572 Q309 554 296 540 Q283 526 265.5 517.5 Q248 509 226 509 Q196 509 178 527.5 Q160 546 160 574 Q160 593 167 611 Q174 629 186.5 643 Q199 657 217 665.5 Q235 674 257 674 Q287 674 305 655.5 Q323 637 323 609 Z " />
<glyph glyph-name="cedilla" unicode="&#xb8;" horiz-adv-x="242" d="M-17 -207 Q31 -199 62 -175 Q93 -151 93 -121 Q93 -110 89.5 -104 Q86 -98 80 -94.5 Q74 -91 67 -89.5 Q60 -88 53 -86 Q41 -84 34 -80 Q27 -76 34 -63 L78 16 L117 16 L78 -55 Q111 -57 131 -73 Q151 -89 151 -118 Q151 -134 141.5 -152.5 Q132 -171 112 -186.5 Q92 -202 61 -213.5 Q30 -225 -13 -228 L-17 -207 Z " />
<glyph glyph-name="hungarumlaut" unicode="&#x2dd;" horiz-adv-x="242" d="M361 596 L209 499 L201 509 L309 631 Q318 641 327 641 Q334 641 340 634 L363 605 L361 596 Z M227 596 L75 499 L67 509 L175 631 Q184 641 193 641 Q200 641 206 634 L229 605 L227 596 Z " />
<glyph glyph-name="ogonek" unicode="&#x2db;" horiz-adv-x="242" d="M140 -210 Q127 -218 109.5 -222.5 Q92 -227 72 -227 Q29 -227 -1 -204 Q-31 -181 -31 -141 Q-31 -114 -16 -88.5 Q-1 -63 23.5 -43 Q48 -23 79 -8 Q110 7 142 13 L151 2 Q92 -20 60 -59.5 Q28 -99 28 -141 Q28 -167 43 -182.5 Q58 -198 84 -198 Q110 -198 132 -188 L140 -210 Z " />
<glyph glyph-name="caron" unicode="&#x2c7;" horiz-adv-x="242" d="M153 640 L222 556 L337 640 L350 631 L230 502 L187 502 L137 635 L153 640 Z " />
<glyph glyph-name="commaaccent" unicode="&#xf6c3;" horiz-adv-x="242" d="M118 -102 Q118 -147 86.5 -189.5 Q55 -232 7 -258 L-4 -242 Q9 -232 21.5 -220 Q34 -208 43.5 -195.5 Q53 -183 58.5 -170.5 Q64 -158 64 -147 Q64 -138 59.5 -131.5 Q55 -125 49 -119.5 Q43 -114 38.5 -108.5 Q34 -103 34 -95 Q34 -81 47.5 -68 Q61 -55 81 -55 Q100 -55 109 -68.5 Q118 -82 118 -102 Z " />
<glyph glyph-name="zero" unicode="0" horiz-adv-x="492" d="M224 29 Q252 29 279 52.5 Q306 76 329 114.5 Q352 153 371 202 Q390 251 404 302 Q418 353 425.5 401 Q433 449 433 486 Q433 545 416 570.5 Q399 596 370 596 Q342 596 315 572.5 Q288 549 265 510.5 Q242 472 223 423 Q204 374 190 323 Q176 272 168.5 224 Q161 176 161 139 Q161 80 178 54.5 Q195 29 224 29 Z M215 -15 Q150 -15 113 31 Q76 77 76 164 Q76 209 86 262 Q96 315 114.5 368 Q133 421 159.5 470 Q186 519 219.5 557 Q253 595 293 617.5 Q333 640 379 640 Q444 640 481 594 Q518 548 518 461 Q518 416 508 363 Q498 310 479.5 257 Q461 204 434.5 155 Q408 106 374.5 68 Q341 30 300.5 7.5 Q260 -15 215 -15 Z " />
<glyph glyph-name="one" unicode="1" horiz-adv-x="492" d="M321 0 Q296 2 268 2.5 Q240 3 216 3 Q193 3 163 2 Q133 1 110 0 L116 19 L184 39 L314 517 Q317 529 317 537 Q317 557 298.5 567 Q280 577 247 585 L253 604 Q293 607 337 615.5 Q381 624 410 634 L425 634 L274 78 Q271 64 271 56 Q271 40 284.5 33 Q298 26 327 19 L321 0 L321 0 Z " />
<glyph glyph-name="two" unicode="2" horiz-adv-x="492" d="M409 118 Q392 88 379 60 Q366 32 352 0 L44 0 L36 19 Q109 96 176 161.5 Q243 227 294 286.5 Q345 346 375.5 400.5 Q406 455 406 509 Q406 547 389 567.5 Q372 588 335 588 Q302 588 270.5 568 Q239 548 211 511 L183 528 Q220 582 268 611 Q316 640 371 640 Q425 640 460 608.5 Q495 577 495 518 Q495 457 461 400 Q427 343 374.5 287.5 Q322 232 258 177.5 Q194 123 133 68 L290 68 Q323 68 344.5 80 Q366 92 386 124 L409 118 L409 118 Z " />
<glyph glyph-name="three" unicode="3" horiz-adv-x="492" d="M423 220 Q423 175 404.5 132.5 Q386 90 353.5 57.5 Q321 25 276.5 5 Q232 -15 180 -15 Q156 -15 133 -10.5 Q110 -6 92 2 Q74 10 63.5 22 Q53 34 53 49 Q53 65 66.5 82 Q80 99 99 99 Q112 99 119.5 87.5 Q127 76 134.5 62 Q142 48 152.5 36.5 Q163 25 182 25 Q217 25 245 43.5 Q273 62 292.5 90.5 Q312 119 322.5 154 Q333 189 333 221 Q333 273 299 297.5 Q265 322 217 325 L227 361 Q267 364 298.5 377.5 Q330 391 352 412 Q374 433 386 460.5 Q398 488 398 518 Q398 554 378.5 572 Q359 590 327 590 Q295 590 270 572.5 Q245 555 226 527 L197 542 Q226 587 265.5 613.5 Q305 640 358 640 Q413 640 448.5 610 Q484 580 484 529 Q484 496 471.5 467.5 Q459 439 437 416 Q415 393 386 377 Q357 361 324 352 Q423 316 423 220 Z " />
<glyph glyph-name="four" unicode="4" horiz-adv-x="492" d="M54 179 L460 625 L507 625 L393 208 L472 208 L456 149 L377 149 L358 78 Q355 64 355 56 Q355 40 370 33 Q385 26 414 19 L408 0 Q383 2 353.5 2.5 Q324 3 300 3 Q277 3 248.5 2 Q220 1 197 0 L203 19 L268 39 L298 149 L59 149 L54 179 Z M130 208 L314 208 L392 496 L130 208 Z " />
<glyph glyph-name="five" unicode="5" horiz-adv-x="492" d="M184 25 Q221 25 251.5 48.5 Q282 72 303.5 107.5 Q325 143 336.5 183.5 Q348 224 348 257 Q348 299 329.5 323 Q311 347 276 347 Q233 347 192 316 L173 328 L265 625 L523 625 L502 557 L289 557 L232 373 Q249 382 269 387 Q289 392 307 392 Q368 392 402.5 355.5 Q437 319 437 256 Q437 209 418 160.5 Q399 112 365.5 73 Q332 34 285.5 9.5 Q239 -15 184 -15 Q160 -15 137 -10.5 Q114 -6 96.5 2 Q79 10 68.5 22 Q58 34 58 49 Q58 65 72 82 Q86 99 104 99 Q117 99 124.5 87.5 Q132 76 139.5 62 Q147 48 156.5 36.5 Q166 25 184 25 Z " />
<glyph glyph-name="six" unicode="6" horiz-adv-x="492" d="M498 617 Q465 597 430.5 569.5 Q396 542 363 509 Q330 476 300.5 438 Q271 400 247 360 Q294 385 341 385 Q367 385 388.5 378 Q410 371 426 356 Q464 320 464 251 Q464 204 448 156.5 Q432 109 402 71 Q372 33 329 9 Q286 -15 232 -15 Q162 -15 124 24.5 Q86 64 86 136 Q86 213 121.5 290 Q157 367 214.5 434.5 Q272 502 343.5 555.5 Q415 609 487 640 L498 617 Z M309 340 Q292 340 269 334.5 Q246 329 223 318 Q199 274 184.5 221.5 Q170 169 170 119 Q170 71 188.5 48.5 Q207 26 238 26 Q268 26 293.5 47.5 Q319 69 338.5 102 Q358 135 369 175.5 Q380 216 380 255 Q380 294 362 317 Q344 340 309 340 Z " />
<glyph glyph-name="seven" unicode="7" horiz-adv-x="492" d="M537 610 L185 0 L95 0 L445 560 L299 560 Q278 560 262 557 Q246 554 232 546.5 Q218 539 205 525.5 Q192 512 179 491 L156 497 Q163 509 171.5 526 Q180 543 188 561 Q196 579 203.5 596 Q211 613 215 625 L529 625 L537 610 Z " />
<glyph glyph-name="eight" unicode="8" horiz-adv-x="492" d="M189 482 Q189 516 202.5 545 Q216 574 239.5 595 Q263 616 296 628 Q329 640 368 640 Q429 640 468.5 607.5 Q508 575 508 519 Q508 487 494.5 460 Q481 433 459 411.5 Q437 390 409 373.5 Q381 357 352 345 Q369 325 386 305.5 Q403 286 416.5 264.5 Q430 243 438 220 Q446 197 446 172 Q446 128 429 93.5 Q412 59 383 35 Q354 11 315 -2 Q276 -15 232 -15 Q196 -15 166 -5.5 Q136 4 113.5 22 Q91 40 78.5 65.5 Q66 91 66 123 Q66 159 79.5 190.5 Q93 222 117 249 Q141 276 174.5 298 Q208 320 247 337 Q222 366 205.5 401.5 Q189 437 189 482 Z M141 130 Q141 83 167.5 54.5 Q194 26 241 26 Q268 26 290.5 36 Q313 46 329 63 Q345 80 354 103 Q363 126 363 152 Q363 176 355 197 Q347 218 333.5 237.5 Q320 257 303 275.5 Q286 294 268 313 Q206 280 173.5 232.5 Q141 185 141 130 Z M440 519 Q440 556 418.5 578 Q397 600 359 600 Q317 600 292.5 572 Q268 544 268 503 Q268 463 286.5 431.5 Q305 400 331 368 Q380 392 410 431.5 Q440 471 440 519 Z " />
<glyph glyph-name="nine" unicode="9" horiz-adv-x="492" d="M99 8 Q132 28 166.5 55.5 Q201 83 234 116 Q267 149 296.5 186.5 Q326 224 350 265 Q303 240 256 240 Q230 240 208.5 247 Q187 254 171 269 Q133 305 133 374 Q133 421 149 468.5 Q165 516 195 554 Q225 592 268 616 Q311 640 365 640 Q435 640 473 600.5 Q511 561 511 489 Q511 412 475.5 335 Q440 258 382.5 190.5 Q325 123 253.5 69.5 Q182 16 110 -15 L99 8 Z M288 285 Q305 285 328 290.5 Q351 296 374 307 Q398 351 412.5 403.5 Q427 456 427 506 Q427 554 408.5 576.5 Q390 599 359 599 Q329 599 303.5 577.5 Q278 556 258.5 523 Q239 490 228 449.5 Q217 409 217 370 Q217 331 235 308 Q253 285 288 285 Z " />
<glyph glyph-name="dollar" unicode="&#x24;" horiz-adv-x="492" d="M442 181 Q442 139 425.5 104.5 Q409 70 381 44.5 Q353 19 315.5 4 Q278 -11 235 -14 L210 -107 L165 -114 L192 -13 Q143 -6 109 25.5 Q75 57 74 110 Q74 115 74 121.5 Q74 128 76 134 L118 139 Q117 133 117 128 Q117 123 117 118 Q117 78 141 54.5 Q165 31 203 27 L273 284 Q253 300 232.5 317.5 Q212 335 195.5 355.5 Q179 376 168.5 400.5 Q158 425 158 456 Q158 494 173 527 Q188 560 215.5 585 Q243 610 281.5 624.5 Q320 639 367 640 L392 731 L437 738 L409 637 Q457 629 487.5 599.5 Q518 570 519 520 Q519 503 516 487 L472 481 Q475 497 475 512 Q475 549 454 570 Q433 591 398 596 L331 349 Q351 332 371 314.5 Q391 297 406.5 277 Q422 257 432 233.5 Q442 210 442 181 Z M244 478 Q244 448 258 424 Q272 400 295 379 L355 596 Q304 589 274 556 Q244 523 244 478 Z M356 159 Q356 188 342 211 Q328 234 308 254 L246 29 Q294 38 325 72.5 Q356 107 356 159 Z " />
<glyph glyph-name="cent" unicode="&#xa2;" horiz-adv-x="492" d="M248 -74 L203 -81 L221 -15 Q155 -11 122.5 30 Q90 71 90 133 Q90 185 109 241 Q128 297 162.5 344.5 Q197 392 245 423.5 Q293 455 350 459 L366 519 L411 526 L392 456 Q430 447 455.5 415.5 Q481 384 485 338 L452 332 Q447 368 428.5 389 Q410 410 381 415 L280 44 Q298 48 315 57 Q332 66 347.5 77.5 Q363 89 377 102 Q391 115 402 128 L422 109 Q396 68 353.5 34.5 Q311 1 265 -10 L248 -74 Z M179 142 Q179 55 237 43 L338 414 Q300 406 270 376.5 Q240 347 220 307.5 Q200 268 189.5 224 Q179 180 179 142 Z " />
<glyph glyph-name="Euro" unicode="&#x20ac;" horiz-adv-x="492" d="M245 343 Q237 314 233 289 L439 289 L421 248 L227 248 Q225 231 224 216.5 Q223 202 223 188 Q223 112 252.5 73 Q282 34 332 34 Q393 34 453 85 L470 68 Q439 29 397.5 7 Q356 -15 312 -15 Q274 -15 241 -2.5 Q208 10 184 35.5 Q160 61 146 100.5 Q132 140 132 193 Q132 219 135 248 L60 248 L77 289 L142 289 Q144 303 147.5 316 Q151 329 155 343 L91 343 L108 384 L169 384 Q188 435 215.5 481 Q243 527 279 562.5 Q315 598 358.5 619 Q402 640 452 640 Q512 640 545 611.5 Q578 583 592 536 L562 530 Q548 563 521 580 Q494 597 459 597 Q422 597 391 579 Q360 561 335 531.5 Q310 502 290.5 463.5 Q271 425 257 384 L470 384 L452 343 L245 343 Z " />
<glyph glyph-name="florin" unicode="&#x192;" horiz-adv-x="492" d="M-184 -124 Q-172 -144 -152.5 -156.5 Q-133 -169 -107 -169 Q-54 -169 -10 -118.5 Q34 -68 79 35 L207 331 L119 331 L148 372 L222 372 Q245 425 273.5 473.5 Q302 522 336 559 Q370 596 411 618 Q452 640 500 640 Q538 640 566.5 626.5 Q595 613 595 592 Q595 576 580.5 561.5 Q566 547 547 547 Q534 547 528 555.5 Q522 564 516.5 574.5 Q511 585 503.5 594 Q496 603 481 603 Q449 603 403.5 548 Q358 493 307 372 L413 372 L384 331 L290 331 L178 60 Q121 -78 50.5 -143 Q-20 -208 -99 -208 Q-137 -208 -165.5 -191 Q-194 -174 -209 -148 L-184 -124 Z " />
<glyph glyph-name="sterling" unicode="&#xa3;" horiz-adv-x="492" d="M249 410 Q264 467 284.5 506.5 Q305 546 331 574 Q394 640 488 640 Q523 640 550 626.5 Q577 613 577 591 Q577 575 560 559.5 Q543 544 524 544 Q513 544 507.5 551.5 Q502 559 497 572 Q492 585 481.5 595.5 Q471 606 454 606 Q425 606 395.5 570.5 Q366 535 343 452 L317 357 L444 357 L424 316 L306 316 Q287 244 268.5 186 Q250 128 239 102 Q268 77 299 63.5 Q330 50 372 50 Q398 50 424.5 59.5 Q451 69 472 87 L483 70 Q471 55 457 40 Q443 25 426 13 Q409 1 388.5 -7 Q368 -15 344 -15 Q298 -15 268 5 Q238 25 212 57 Q187 20 160 2.5 Q133 -15 98 -15 Q68 -15 45.5 3.5 Q23 22 23 54 Q23 90 50.5 116 Q78 142 122 142 Q136 142 149.5 139.5 Q163 137 172 134 Q176 145 183 169 Q190 193 198 223 L223 316 L147 316 L159 357 L235 357 L249 410 Z M160 96 Q140 109 120 109 Q94 109 79 93.5 Q64 78 64 57 Q64 42 73.5 32.5 Q83 23 98 23 Q116 23 132 38.5 Q148 54 160 96 Z " />
<glyph glyph-name="yen" unicode="&#xa5;" horiz-adv-x="492" d="M297 162 L284 113 Q283 110 281 102 Q279 94 277 85 Q275 76 273.5 68 Q272 60 272 58 Q272 43 284 35.5 Q296 28 324 20 L318 0 Q309 0 296.5 0.5 Q284 1 269.5 1.5 Q255 2 241 2.5 Q227 3 217 3 Q206 3 191.5 2.5 Q177 2 161.5 1.5 Q146 1 132 0.5 Q118 0 109 0 L115 20 L178 41 L210 162 L87 162 L104 203 L221 203 L234 248 L108 248 L126 289 L232 289 L197 544 Q194 560 189 570 Q184 580 175.5 586.5 Q167 593 155 597 Q143 601 126 605 L132 625 Q137 625 149.5 624.5 Q162 624 176.5 623.5 Q191 623 204.5 622.5 Q218 622 226 622 Q236 622 250 622.5 Q264 623 279 623.5 Q294 624 307 624.5 Q320 625 328 625 L322 605 L272 592 L316 306 L491 591 L442 606 L448 625 Q465 624 481 623 Q495 622 509 622 Q523 622 532 622 Q548 622 571 623.5 Q594 625 608 625 L603 605 Q583 603 569.5 599.5 Q556 596 545 589 Q534 582 524.5 571.5 Q515 561 504 544 L352 289 L455 289 L437 248 L321 248 L308 203 L433 203 L415 162 L297 162 Z " />
<glyph glyph-name="numbersign" unicode="&#x23;" horiz-adv-x="492" d="M544 443 L531 390 L429 390 L396 233 L499 233 L487 180 L385 180 L345 -15 L286 -15 L326 180 L222 180 L182 -15 L123 -15 L163 180 L60 180 L73 233 L174 233 L207 390 L105 390 L117 443 L219 443 L261 640 L319 640 L278 443 L382 443 L424 640 L482 640 L441 443 L544 443 Z M233 233 L337 233 L370 390 L266 390 L233 233 Z " />
<glyph glyph-name="percent" unicode="&#x25;" horiz-adv-x="760" d="M565 26 Q587 26 607 50 Q627 74 642 110.5 Q657 147 666 190 Q675 233 675 270 Q675 299 667.5 319.5 Q660 340 640 340 Q618 340 598 316 Q578 292 563 255.5 Q548 219 539 176 Q530 133 530 96 Q530 67 537.5 46.5 Q545 26 565 26 Z M559 -5 Q516 -5 488.5 23 Q461 51 461 107 Q461 155 476 202 Q491 249 516.5 286.5 Q542 324 575.5 347.5 Q609 371 646 371 Q689 371 716.5 343 Q744 315 744 259 Q744 211 729 163.5 Q714 116 688.5 78.5 Q663 41 629.5 18 Q596 -5 559 -5 Z M218 285 Q240 285 260 309 Q280 333 295 369.5 Q310 406 319 449 Q328 492 328 529 Q328 558 320.5 578.5 Q313 599 293 599 Q271 599 251 575 Q231 551 216 514.5 Q201 478 192 435 Q183 392 183 355 Q183 326 190.5 305.5 Q198 285 218 285 Z M212 254 Q169 254 141.5 282 Q114 310 114 366 Q114 414 129 461 Q144 508 169.5 545.5 Q195 583 228.5 606.5 Q262 630 299 630 Q342 630 369.5 602 Q397 574 397 518 Q397 470 382 422.5 Q367 375 341.5 337.5 Q316 300 282.5 277 Q249 254 212 254 Z M177 -15 L125 -15 L684 640 L736 640 L177 -15 Z " />
<glyph glyph-name="perthousand" unicode="&#x2030;" horiz-adv-x="1071" d="M565 26 Q587 26 607 50 Q627 74 642 110.5 Q657 147 666 190 Q675 233 675 270 Q675 299 667.5 319.5 Q660 340 640 340 Q618 340 598 316 Q578 292 563 255.5 Q548 219 539 176 Q530 133 530 96 Q530 67 537.5 46.5 Q545 26 565 26 Z M559 -5 Q516 -5 488.5 23 Q461 51 461 107 Q461 155 476 202 Q491 249 516.5 286.5 Q542 324 575.5 347.5 Q609 371 646 371 Q689 371 716.5 343 Q744 315 744 259 Q744 211 729 163.5 Q714 116 688.5 78.5 Q663 41 629.5 18 Q596 -5 559 -5 Z M218 285 Q240 285 260 309 Q280 333 295 369.5 Q310 406 319 449 Q328 492 328 529 Q328 558 320.5 578.5 Q313 599 293 599 Q271 599 251 575 Q231 551 216 514.5 Q201 478 192 435 Q183 392 183 355 Q183 326 190.5 305.5 Q198 285 218 285 Z M212 254 Q169 254 141.5 282 Q114 310 114 366 Q114 414 129 461 Q144 508 169.5 545.5 Q195 583 228.5 606.5 Q262 630 299 630 Q342 630 369.5 602 Q397 574 397 518 Q397 470 382 422.5 Q367 375 341.5 337.5 Q316 300 282.5 277 Q249 254 212 254 Z M876 26 Q898 26 918 50 Q938 74 953 110.5 Q968 147 977 190 Q986 233 986 270 Q986 299 978.5 319.5 Q971 340 951 340 Q929 340 909 316 Q889 292 874 255.5 Q859 219 850 176 Q841 133 841 96 Q841 67 848.5 46.5 Q856 26 876 26 Z M870 -5 Q827 -5 799.5 23 Q772 51 772 107 Q772 155 787 202 Q802 249 827.5 286.5 Q853 324 886.5 347.5 Q920 371 957 371 Q1000 371 1027.5 343 Q1055 315 1055 259 Q1055 211 1040 163.5 Q1025 116 999.5 78.5 Q974 41 940.5 18 Q907 -5 870 -5 Z M177 -15 L125 -15 L684 640 L736 640 L177 -15 Z " />
<glyph glyph-name="plus" unicode="&#x2b;" horiz-adv-x="440" d="M262 198 L224 56 L176 56 L214 198 L80 198 L94 247 L228 247 L266 389 L314 389 L276 247 L410 247 L396 198 L262 198 Z " />
<glyph glyph-name="minus" unicode="&#x2212;" horiz-adv-x="440" d="M80 198 L94 247 L410 247 L396 198 L80 198 Z " />
<glyph glyph-name="multiply" unicode="&#xd7;" horiz-adv-x="440" d="M304 87 L236 187 L114 87 L90 122 L213 222 L145 322 L188 357 L255 257 L378 357 L402 322 L279 222 L347 122 L304 87 Z " />
<glyph glyph-name="less" unicode="&#x3c;" horiz-adv-x="440" d="M82 195 L96 246 L456 408 L441 352 L150 219 L369 87 L355 35 L82 195 Z " />
<glyph glyph-name="divide" unicode="&#xf7;" horiz-adv-x="440" d="M80 198 L94 247 L410 247 L396 198 L80 198 Z M203 52 Q189 52 181 60.5 Q173 69 173 83 Q173 103 189 119 Q205 135 225 135 Q239 135 247 126.5 Q255 118 255 104 Q255 84 239 68 Q223 52 203 52 Z M274 311 Q260 311 252 319.5 Q244 328 244 342 Q244 362 260 378 Q276 394 296 394 Q310 394 318 385.5 Q326 377 326 363 Q326 343 310 327 Q294 311 274 311 Z " />
<glyph glyph-name="equal" unicode="&#x3d;" horiz-adv-x="440" d="M101 271 L114 320 L430 320 L417 271 L101 271 Z M60 123 L73 172 L389 172 L376 123 L60 123 Z " />
<glyph glyph-name="logicalnot" unicode="&#xac;" horiz-adv-x="440" d="M327 124 L366 271 L101 271 L114 320 L430 320 L377 124 L327 124 Z " />
<glyph glyph-name="greater" unicode="&#x3e;" horiz-adv-x="440" d="M408 246 L394 195 L34 33 L49 89 L340 222 L121 354 L135 406 L408 246 Z " />
<glyph glyph-name="notequal" unicode="&#x2260;" horiz-adv-x="440" d="M210 124 L140 23 L82 23 L152 124 L59 124 L72 173 L186 173 L255 272 L100 272 L113 321 L289 321 L360 422 L419 422 L348 321 L429 321 L416 272 L314 272 L245 173 L388 173 L375 124 L210 124 Z " />
<glyph glyph-name="approxequal" unicode="&#x2248;" horiz-adv-x="440" d="M455 350 Q434 302 402 270.5 Q370 239 325 239 Q302 239 284.5 248 Q267 257 251 267.5 Q235 278 218.5 287 Q202 296 181 296 Q154 296 133 281 Q112 266 97 239 L76 239 Q97 296 134 322.5 Q171 349 210 349 Q234 349 251.5 341 Q269 333 284.5 323 Q300 313 315.5 305 Q331 297 352 297 Q384 297 403 312 Q422 327 434 350 L455 350 Z M414 202 Q393 154 361 122.5 Q329 91 284 91 Q261 91 243.5 100 Q226 109 210 119.5 Q194 130 177.5 139 Q161 148 140 148 Q113 148 92 133 Q71 118 56 91 L35 91 Q56 148 93 174.5 Q130 201 169 201 Q193 201 210.5 193 Q228 185 243.5 175 Q259 165 274.5 157 Q290 149 311 149 Q343 149 362 164 Q381 179 393 202 L414 202 Z " />
<glyph glyph-name="plusminus" unicode="&#xb1;" horiz-adv-x="440" d="M21 0 L34 49 L350 49 L337 0 L21 0 Z M274 265 L236 123 L188 123 L226 265 L92 265 L106 314 L240 314 L278 456 L326 456 L288 314 L422 314 L408 265 L274 265 Z " />
<glyph glyph-name="lessequal" unicode="&#x2264;" horiz-adv-x="440" d="M33 0 L46 49 L362 49 L349 0 L33 0 Z M103 259 L117 310 L477 472 L462 416 L171 283 L390 151 L376 99 L103 259 Z " />
<glyph glyph-name="greaterequal" unicode="&#x2265;" horiz-adv-x="440" d="M29 0 L42 49 L358 49 L345 0 L29 0 Z M429 312 L415 261 L55 99 L70 155 L361 288 L142 420 L156 472 L429 312 Z " />
<glyph glyph-name="asciicircum" unicode="&#x5e;" horiz-adv-x="440" d="M389 345 L330 569 L147 345 L87 345 L316 625 L374 625 L448 345 L389 345 Z " />
<glyph glyph-name="asciitilde" unicode="&#x7e;" horiz-adv-x="440" d="M483 366 Q460 312 423.5 276.5 Q387 241 337 241 Q312 241 292.5 251 Q273 261 255 273 Q237 285 218 295 Q199 305 176 305 Q116 305 82 241 L58 241 Q81 305 122.5 335 Q164 365 208 365 Q235 365 254.5 356 Q274 347 291.5 335.5 Q309 324 326.5 315 Q344 306 367 306 Q403 306 424.5 323 Q446 340 459 366 L483 366 L483 366 Z " />
<glyph glyph-name="lozenge" unicode="&#x25ca;" horiz-adv-x="571" d="M215 0 L102 316 L388 625 L451 625 L565 316 L278 0 L215 0 Z M253 47 L504 324 L412 578 L163 308 L253 47 Z " />
<glyph glyph-name="degree" unicode="&#xb0;" horiz-adv-x="312" d="M228 428 Q249 428 266.5 438 Q284 448 297 464 Q310 480 317.5 500.5 Q325 521 325 541 Q325 568 311 585 Q297 602 268 602 Q247 602 229.5 592 Q212 582 199 566 Q186 550 178.5 529.5 Q171 509 171 489 Q171 462 185 445 Q199 428 228 428 Z M219 390 Q178 390 150.5 416 Q123 442 123 484 Q123 515 134.5 543.5 Q146 572 166.5 593.5 Q187 615 215.5 627.5 Q244 640 277 640 Q318 640 345.5 614 Q373 588 373 546 Q373 515 361.5 486.5 Q350 458 329.5 436.5 Q309 415 280.5 402.5 Q252 390 219 390 Z " />
<glyph glyph-name="quotesingle" unicode="&#x27;" horiz-adv-x="158" d="M236 609 Q236 588 225.5 560 Q215 532 191 487 Q179 464 168.5 440.5 Q158 417 150 395 L127 395 Q132 420 133.5 447 Q135 474 137 500 Q142 566 155 603 Q168 640 202 640 Q219 640 227.5 631.5 Q236 623 236 609 Z " />
<glyph glyph-name="quotedbl" unicode="&#x22;" horiz-adv-x="298" d="M236 609 Q236 588 225.5 560 Q215 532 191 487 Q179 464 168.5 440.5 Q158 417 150 395 L127 395 Q132 420 133.5 447 Q135 474 137 500 Q142 566 155 603 Q168 640 202 640 Q219 640 227.5 631.5 Q236 623 236 609 Z M376 609 Q376 588 365.5 560 Q355 532 331 487 Q319 464 308.5 440.5 Q298 417 290 395 L267 395 Q272 420 273.5 447 Q275 474 277 500 Q282 566 295 603 Q308 640 342 640 Q359 640 367.5 631.5 Q376 623 376 609 Z " />
<glyph glyph-name="radical" unicode="&#x221a;" horiz-adv-x="613" d="M228 444 Q276 444 296 430 Q316 416 320 378 L342 146 L596 551 Q608 571 620 585 Q632 599 645.5 608 Q659 617 676 621 Q693 625 717 625 L743 625 L733 589 L709 589 Q682 589 667 578 Q652 567 638 544 L298 -2 L270 -2 L229 353 Q225 385 216 396.5 Q207 408 177 408 L120 408 L130 444 L228 444 Z " />
<glyph glyph-name="currency" unicode="&#xa4;" horiz-adv-x="492" d="M252 124 Q205 124 170 146 L113 82 L52 82 L138 177 Q112 212 112 263 Q112 317 137 366.5 Q162 416 204 449 L163 547 L224 547 L252 479 Q295 498 340 498 Q381 498 412 481 L471 547 L532 547 L448 453 Q480 415 480 359 Q480 302 454 252 Q428 202 383 169 L421 82 L360 82 L334 141 Q295 124 252 124 Z M405 361 Q405 379 401 396.5 Q397 414 388.5 428 Q380 442 365.5 450.5 Q351 459 330 459 Q308 459 286 448.5 Q264 438 247 420 Q218 389 202.5 345 Q187 301 187 261 Q187 243 191 225.5 Q195 208 203.5 194 Q212 180 226.5 171.5 Q241 163 262 163 Q284 163 306 173.5 Q328 184 345 202 Q374 233 389.5 277 Q405 321 405 361 Z " />
<glyph glyph-name="infinity" unicode="&#x221e;" horiz-adv-x="697" d="M213 198 Q252 198 291.5 213.5 Q331 229 355 257 Q348 276 337.5 295 Q327 314 313 328 Q299 342 281 351 Q263 360 240 360 Q220 360 201.5 352.5 Q183 345 168 331.5 Q153 318 144 299 Q135 280 135 258 Q135 230 155 214 Q175 198 213 198 Z M567 361 Q528 361 488.5 345.5 Q449 330 425 302 Q432 282 442.5 263.5 Q453 245 467 231 Q481 217 499 208 Q517 199 540 199 Q559 199 578 206.5 Q597 214 612 227.5 Q627 241 636 259.5 Q645 278 645 301 Q645 329 625 345 Q605 361 567 361 Z M367 228 Q330 172 284 147 Q238 122 198 122 Q173 122 153.5 131.5 Q134 141 120.5 157 Q107 173 100 194.5 Q93 216 93 240 Q93 277 106.5 312 Q120 347 144.5 374.5 Q169 402 202.5 419 Q236 436 275 436 Q327 436 358.5 409 Q390 382 413 331 Q450 387 496 412 Q542 437 582 437 Q607 437 626.5 427.5 Q646 418 659.5 402 Q673 386 680 364.5 Q687 343 687 319 Q687 282 673 247 Q659 212 634.5 184.5 Q610 157 576.5 140 Q543 123 504 123 Q452 123 421 150 Q390 177 367 228 Z " />
<glyph glyph-name="uni00B5" unicode="&#xb5;" horiz-adv-x="504" d="M319 47 Q319 80 335 119 L333 119 Q318 90 303.5 71 Q289 52 270 34 Q219 -15 156 -15 Q90 -15 68 35 Q53 -26 47 -70 Q41 -114 35 -143 Q29 -172 19 -186 Q9 -200 -13 -200 Q-41 -200 -41 -171 Q-41 -155 -33 -134.5 Q-25 -114 -9 -74.5 Q7 -35 29.5 31.5 Q52 98 82 206 L125 364 Q127 369 128.5 377.5 Q130 386 130 391 Q130 404 121 411.5 Q112 419 87 426 L91 444 Q189 444 224 450 L227 446 L152 172 Q147 152 142.5 132.5 Q138 113 138 98 Q138 72 151 60 Q164 48 186 48 Q204 48 224.5 58.5 Q245 69 264.5 87 Q284 105 302 129.5 Q320 154 334 183 Q350 215 365 256 Q380 297 398 361 L421 444 L500 444 L403 86 Q398 68 398 59 Q398 42 416 42 Q425 42 436.5 45 Q448 48 455 51 L447 20 Q434 9 411.5 0.5 Q389 -8 370 -8 Q346 -8 332.5 7 Q319 22 319 47 Z " />
<glyph glyph-name="partialdiff" unicode="&#x2202;" horiz-adv-x="492" d="M286 389 Q318 389 346 376 Q374 363 391 345 Q390 429 366.5 499.5 Q343 570 283 618 L298 640 Q342 620 376 588.5 Q410 557 432.5 517 Q455 477 466.5 431.5 Q478 386 478 340 Q478 281 461.5 218 Q445 155 413 103 Q381 51 332 18 Q283 -15 219 -15 Q152 -15 109.5 23.5 Q67 62 67 132 Q67 180 84 226 Q101 272 130 308.5 Q159 345 199 367 Q239 389 286 389 Z M149 113 Q149 68 169 44.5 Q189 21 224 21 Q251 21 273.5 36 Q296 51 313.5 75 Q331 99 344 129 Q357 159 366.5 190 Q376 221 381 248.5 Q386 276 388 296 Q374 314 350.5 327.5 Q327 341 298 341 Q262 341 234 317.5 Q206 294 187.5 259.5 Q169 225 159 185 Q149 145 149 113 Z " />
<glyph glyph-name="summation" unicode="&#x2211;" horiz-adv-x="526" d="M-29 -75 L-32 -67 L335 303 L193 692 L200 699 L632 699 Q628 684 622.5 664 Q617 644 612 624 Q607 604 603 585.5 Q599 567 597 556 L579 556 L555 666 L298 666 L414 353 Q419 342 417 336.5 Q415 331 406 322 L82 -2 L307 -2 Q339 -2 361 2.5 Q383 7 399 18 Q415 29 427.5 47 Q440 65 453 91 L473 91 Q467 73 459 50.5 Q451 28 443 4.5 Q435 -19 428 -40 Q421 -61 417 -75 L-29 -75 Z " />
<glyph glyph-name="product" unicode="&#x220f;" horiz-adv-x="662" d="M621 666 L338 666 L154 2 Q151 -9 151 -19 Q151 -30 155.5 -35.5 Q160 -41 169 -44 Q178 -47 188.5 -49.5 Q199 -52 206 -54 L200 -74 Q191 -74 177 -73.5 Q163 -73 148 -72.5 Q133 -72 118 -71.5 Q103 -71 92 -71 Q80 -71 65 -71.5 Q50 -72 34 -72.5 Q18 -73 4 -73.5 Q-10 -74 -20 -74 L-14 -54 L54 -34 L236 622 Q241 639 241 647 Q241 658 234.5 662 Q228 666 214 671 L184 680 L190 700 L782 700 L776 680 L709 659 L527 2 Q524 -10 524 -19 Q524 -30 529 -35.5 Q534 -41 542 -44 Q551 -47 561.5 -49.5 Q572 -52 579 -54 L573 -74 Q564 -74 551 -73.5 Q538 -73 523.5 -72.5 Q509 -72 495 -71.5 Q481 -71 470 -71 Q458 -71 442 -71.5 Q426 -72 409 -72.5 Q392 -73 377 -73.5 Q362 -74 352 -74 L358 -54 L427 -34 L621 666 Z " />
<glyph glyph-name="integral" unicode="&#x222b;" horiz-adv-x="385" d="M232 427 Q271 567 325.5 634 Q380 701 449 701 Q481 701 501.5 688 Q522 675 522 658 Q522 645 509.5 631.5 Q497 618 482 618 Q473 618 467 625.5 Q461 633 455.5 642.5 Q450 652 442.5 659.5 Q435 667 422 667 Q398 667 379 645 Q364 629 355 601 Q346 573 339.5 539.5 Q333 506 326.5 469.5 Q320 433 311 399 L256 199 Q218 59 163 -8 Q108 -75 39 -75 Q7 -75 -13.5 -62 Q-34 -49 -34 -32 Q-34 -19 -21.5 -5.5 Q-9 8 6 8 Q15 8 21 0.5 Q27 -7 32.5 -16.5 Q38 -26 45.5 -33.5 Q53 -41 66 -41 Q90 -41 109 -19 Q124 -3 132.5 25 Q141 53 148 86.5 Q155 120 161.5 156.5 Q168 193 177 227 L232 427 Z " />
<glyph glyph-name="Ohm" unicode="&#x2126;" horiz-adv-x="722" d="M32 0 Q36 14 40.5 35 Q45 56 50 79.5 Q55 103 60 125.5 Q65 148 68 166 L88 166 Q86 140 85.5 122 Q85 104 91.5 93 Q98 82 114 77.5 Q130 73 162 73 L238 73 Q200 107 172.5 158 Q145 209 145 275 Q145 348 176 414 Q207 480 258.5 530.5 Q310 581 376 610.5 Q442 640 513 640 Q571 640 614 625 Q657 610 685 583 Q713 556 726.5 519.5 Q740 483 740 440 Q740 381 719 327 Q698 273 663.5 226 Q629 179 584.5 140 Q540 101 494 73 L566 73 Q598 73 616.5 77.5 Q635 82 647.5 93 Q660 104 669.5 122 Q679 140 692 166 L712 166 Q706 148 697.5 125.5 Q689 103 681 79.5 Q673 56 666.5 35 Q660 14 656 0 L379 0 L376 8 Q428 52 476 101.5 Q524 151 561 206 Q598 261 619.5 321.5 Q641 382 641 450 Q641 522 604.5 560 Q568 598 505 598 Q440 598 390.5 565.5 Q341 533 306.5 483 Q272 433 254.5 373 Q237 313 237 258 Q237 199 256.5 132.5 Q276 66 316 7 L311 0 L32 0 L32 0 Z " />
<glyph glyph-name="Delta" unicode="&#x2206;" horiz-adv-x="562" d="M6 9 L410 625 L444 625 L510 9 L502 0 L8 0 L6 9 Z M364 474 L79 40 L412 40 L364 474 Z " />
<glyph glyph-name="litre" unicode="&#x2113;" horiz-adv-x="422" d="M238 152 Q229 116 229 95 Q229 66 245.5 51.5 Q262 37 288 37 Q309 37 329 42 Q349 47 365 54 L359 29 Q339 15 308 1.5 Q277 -12 242 -12 Q196 -12 168 14.5 Q140 41 140 85 Q140 99 142.5 116 Q145 133 150 150 L169 228 Q148 216 126.5 205 Q105 194 85 183 L78 205 Q105 220 130 235.5 Q155 251 178 266 L215 421 Q230 483 252 525 Q274 567 303 594 Q326 617 353.5 628.5 Q381 640 408 640 Q446 640 464 620.5 Q482 601 482 569 Q482 527 460 486.5 Q438 446 406 411 Q374 376 337.5 346 Q301 316 272 295 L238 152 Z M418 576 Q418 590 413.5 598 Q409 606 398 606 Q375 606 352 570.5 Q329 535 309 451 L285 348 Q309 371 332.5 398 Q356 425 375 454.5 Q394 484 406 515 Q418 546 418 576 Z " />
<glyph glyph-name="estimated" unicode="&#x212e;" horiz-adv-x="788" d="M207 305 Q202 305 202 301 L202 122 Q202 111 211 102 Q253 56 310.5 30 Q368 4 432 4 Q504 4 564 33 Q624 62 668 113 L721 113 Q671 55 595.5 20 Q520 -15 431 -15 Q356 -15 290 11 Q224 37 174.5 81 Q125 125 96.5 184.5 Q68 244 68 312 Q68 380 96.5 439.5 Q125 499 174.5 543.5 Q224 588 290 614 Q356 640 431 640 Q507 640 573.5 614 Q640 588 689.5 543.5 Q739 499 767.5 439.5 Q796 380 796 312 L796 305 L207 305 Z M664 506 Q664 517 654 527 Q611 571 554.5 596 Q498 621 432 621 Q368 621 311 595 Q254 569 212 524 Q202 516 202 502 L202 326 Q202 321 207 321 L659 321 Q664 321 664 326 L664 506 Z " />
<glyph glyph-name="numero" unicode="&#x2116;" horiz-adv-x="955" d="M293 625 L526 149 L635 547 Q638 559 638 567 Q638 582 626 589.5 Q614 597 586 605 L592 625 Q609 625 633 623.5 Q657 622 678 622 Q700 622 722.5 623.5 Q745 625 764 625 L758 605 L695 584 L534 -4 L507 -4 L261 499 L145 78 Q142 66 142 58 Q142 43 154 35.5 Q166 28 194 20 L188 0 Q171 0 147 1.5 Q123 3 102 3 Q80 3 57 1.5 Q34 0 15 0 L21 20 L84 41 L222 547 Q225 559 225 567 Q225 582 213 589.5 Q201 597 173 605 L179 625 L293 625 Z M828 306 Q852 306 870 326.5 Q888 347 900 375.5 Q912 404 918 434.5 Q924 465 924 484 Q924 508 914.5 526 Q905 544 880 544 Q856 544 838 523.5 Q820 503 808 474 Q796 445 790 414.5 Q784 384 784 365 Q784 342 793.5 324 Q803 306 828 306 Z M824 270 Q772 270 747 300 Q722 330 722 379 Q722 409 733.5 444 Q745 479 766 509.5 Q787 540 817 560 Q847 580 884 580 Q935 580 960.5 550 Q986 520 986 471 Q986 441 974.5 406 Q963 371 942 340.5 Q921 310 891 290 Q861 270 824 270 Z M683 194 L693 231 L931 231 L921 194 L683 194 Z " />
<glyph glyph-name="ordfeminine" unicode="&#xaa;" horiz-adv-x="334" d="M260 291 Q260 295 260 299.5 Q260 304 261 309 Q246 286 223 270 Q200 254 173 254 Q136 254 112.5 278.5 Q89 303 89 348 Q89 382 102.5 417 Q116 452 139.5 479.5 Q163 507 194.5 524.5 Q226 542 262 542 Q299 542 327 522 L343 540 L381 535 L384 532 L328 325 Q324 310 324 304 Q324 292 335 292 Q340 292 348 293.5 Q356 295 361 297 L354 276 Q343 268 327 262 Q311 256 296 256 Q276 256 268 266.5 Q260 277 260 291 Z M308 490 Q296 511 268 511 Q246 511 226 496 Q206 481 190.5 458 Q175 435 166 405.5 Q157 376 157 348 Q157 321 168.5 307.5 Q180 294 197 294 Q215 294 230.5 307.5 Q246 321 258 341 Q267 357 274 375.5 Q281 394 288 417 L308 490 Z " />
<glyph glyph-name="ordmasculine" unicode="&#xba;" horiz-adv-x="322" d="M204 285 Q228 285 246 303 Q264 321 276 346.5 Q288 372 294 400 Q300 428 300 448 Q300 480 287 495.5 Q274 511 254 511 Q230 511 212 493 Q194 475 182 449.5 Q170 424 164 396 Q158 368 158 348 Q158 316 171 300.5 Q184 285 204 285 Z M201 254 Q150 254 119.5 282 Q89 310 89 360 Q89 393 102 425.5 Q115 458 137.5 484 Q160 510 190.5 526 Q221 542 257 542 Q308 542 338.5 514 Q369 486 369 436 Q369 403 356 370.5 Q343 338 320.5 312 Q298 286 267.5 270 Q237 254 201 254 Z " />
<glyph glyph-name="onesuperior" unicode="&#xb9;" horiz-adv-x="314" d="M309 369 Q303 369 292.5 369 Q282 369 269.5 369.5 Q257 370 245 370 Q233 370 225 370 Q215 370 202.5 370 Q190 370 178.5 369.5 Q167 369 157.5 369 Q148 369 144 369 L149 386 L200 398 L274 674 Q276 684 275 689 Q274 694 263 696 L227 704 L232 721 Q262 721 291.5 725.5 Q321 730 338 738 L357 738 L271 418 Q267 403 275 397 Q283 391 314 386 L309 369 Z " />
<glyph glyph-name="twosuperior" unicode="&#xb2;" horiz-adv-x="314" d="M356 462 Q345 444 333 419.5 Q321 395 309 369 L116 369 L111 384 Q141 415 178.5 449.5 Q216 484 248.5 519.5 Q281 555 303.5 590 Q326 625 326 657 Q326 677 315.5 688.5 Q305 700 285 700 Q265 700 246.5 687.5 Q228 675 213 652 L192 664 Q211 698 241.5 719 Q272 740 311 740 Q345 740 371 719.5 Q397 699 397 657 Q397 622 375.5 592.5 Q354 563 322.5 535 Q291 507 254.5 480.5 Q218 454 188 425 L271 425 Q295 425 308.5 433.5 Q322 442 336 462 L356 462 Z " />
<glyph glyph-name="threesuperior" unicode="&#xb3;" horiz-adv-x="314" d="M220 576 Q239 578 257.5 585 Q276 592 290 603.5 Q304 615 313 630.5 Q322 646 322 664 Q322 681 312 690.5 Q302 700 285 700 Q265 700 247.5 689 Q230 678 217 658 L196 668 Q215 704 246 722 Q277 740 309 740 Q345 740 367.5 720.5 Q390 701 390 669 Q390 634 362.5 611 Q335 588 292 574 Q324 564 341 544 Q358 524 358 494 Q358 467 345 443.5 Q332 420 310 402 Q288 384 259.5 374 Q231 364 200 364 Q169 364 145 376.5 Q121 389 121 408 Q121 419 131 429 Q141 439 152 439 Q160 439 165.5 432 Q171 425 177 416.5 Q183 408 190.5 401 Q198 394 210 394 Q225 394 239 402.5 Q253 411 263.5 425 Q274 439 280.5 456.5 Q287 474 287 492 Q287 521 268 537 Q249 553 214 553 L220 576 Z " />
<glyph glyph-name="fraction" unicode="&#x2044;" horiz-adv-x="117" d="M-144 -15 L-196 -15 L363 640 L415 640 L-144 -15 Z " />
<glyph glyph-name="onehalf" unicode="&#xbd;" horiz-adv-x="760" d="M277 259 Q271 259 260.5 259 Q250 259 237.5 259.5 Q225 260 213 260 Q201 260 193 260 Q183 260 170.5 260 Q158 260 146.5 259.5 Q135 259 125.5 259 Q116 259 112 259 L117 276 L168 288 L242 564 Q244 574 243 579 Q242 584 231 586 L195 594 L200 611 Q230 611 259.5 615.5 Q289 620 306 628 L325 628 L239 308 Q235 293 243 287 Q251 281 282 276 L277 259 Z M685 93 Q674 75 662 50.5 Q650 26 638 0 L445 0 L440 15 Q470 46 507.5 80.5 Q545 115 577.5 150.5 Q610 186 632.5 221 Q655 256 655 288 Q655 308 644.5 319.5 Q634 331 614 331 Q594 331 575.5 318.5 Q557 306 542 283 L521 295 Q540 329 570.5 350 Q601 371 640 371 Q674 371 700 350.5 Q726 330 726 288 Q726 253 704.5 223.5 Q683 194 651.5 166 Q620 138 583.5 111.5 Q547 85 517 56 L600 56 Q624 56 637.5 64.5 Q651 73 665 93 L685 93 Z M179 -15 L127 -15 L686 640 L738 640 L179 -15 Z " />
<glyph glyph-name="onequarter" unicode="&#xbc;" horiz-adv-x="760" d="M624 49 Q620 34 628 28 Q636 22 667 17 L662 0 Q656 0 645.5 0 Q635 0 622.5 0.5 Q610 1 598 1 Q586 1 578 1 Q568 1 555.5 1 Q543 1 531.5 0.5 Q520 0 510.5 0 Q501 0 497 0 L502 17 L553 29 L571 95 L432 95 L426 110 L673 366 L709 366 L648 136 L702 136 L692 95 L636 95 L624 49 Z M618 275 L484 136 L582 136 L618 275 Z M279 259 Q273 259 262.5 259 Q252 259 239.5 259.5 Q227 260 215 260 Q203 260 195 260 Q185 260 172.5 260 Q160 260 148.5 259.5 Q137 259 127.5 259 Q118 259 114 259 L119 276 L170 288 L244 564 Q246 574 245 579 Q244 584 233 586 L197 594 L202 611 Q232 611 261.5 615.5 Q291 620 308 628 L327 628 L241 308 Q237 293 245 287 Q253 281 284 276 L279 259 Z M181 -15 L129 -15 L688 640 L740 640 L181 -15 Z " />
<glyph glyph-name="threequarters" unicode="&#xbe;" horiz-adv-x="760" d="M634 49 Q630 34 638 28 Q646 22 677 17 L672 0 Q666 0 655.5 0 Q645 0 632.5 0.5 Q620 1 608 1 Q596 1 588 1 Q578 1 565.5 1 Q553 1 541.5 0.5 Q530 0 520.5 0 Q511 0 507 0 L512 17 L563 29 L581 95 L442 95 L436 110 L683 366 L719 366 L658 136 L712 136 L702 95 L646 95 L634 49 Z M628 275 L494 136 L592 136 L628 275 Z M196 466 Q215 468 233.5 475 Q252 482 266 493.5 Q280 505 289 520.5 Q298 536 298 554 Q298 571 288 580.5 Q278 590 261 590 Q241 590 223.5 579 Q206 568 193 548 L172 558 Q191 594 222 612 Q253 630 285 630 Q321 630 343.5 610.5 Q366 591 366 559 Q366 524 338.5 501 Q311 478 268 464 Q300 454 317 434 Q334 414 334 384 Q334 357 321 333.5 Q308 310 286 292 Q264 274 235.5 264 Q207 254 176 254 Q145 254 121 266.5 Q97 279 97 298 Q97 309 107 319 Q117 329 128 329 Q136 329 141.5 322 Q147 315 153 306.5 Q159 298 166.5 291 Q174 284 186 284 Q201 284 215 292.5 Q229 301 239.5 315 Q250 329 256.5 346.5 Q263 364 263 382 Q263 411 244 427 Q225 443 190 443 L196 466 Z M191 -15 L139 -15 L698 640 L750 640 L191 -15 Z " />
<glyph glyph-name="Agrave" unicode="&#xc0;" horiz-adv-x="622" d="M573 0 Q564 0 550.5 0.5 Q537 1 522 1.5 Q507 2 492.5 2.5 Q478 3 468 3 Q457 3 442.5 2.5 Q428 2 413 1.5 Q398 1 384 0.5 Q370 0 361 0 L367 20 L430 40 L414 224 L232 224 L136 74 Q126 59 126 50 Q126 43 131 38 Q136 33 150 29 L183 20 L177 0 Q160 0 133.5 1.5 Q107 3 86 3 Q64 3 34.5 1.5 Q5 0 -14 0 L-8 20 L61 40 L432 625 L463 625 L515 76 Q517 52 524.5 43 Q532 34 549 29 L579 20 L573 0 Z M409 263 L398 388 Q396 413 394.5 434.5 Q393 456 393 470 Q393 477 393 482.5 Q393 488 394 495 Q384 475 370 450.5 Q356 426 332 387 L256 263 L409 263 Z M363 749 L393 780 Q403 790 410 790 Q417 790 432 776 L539 675 L530 664 L365 739 L363 749 Z " />
<glyph glyph-name="Aacute" unicode="&#xc1;" horiz-adv-x="622" d="M573 0 Q564 0 550.5 0.5 Q537 1 522 1.5 Q507 2 492.5 2.5 Q478 3 468 3 Q457 3 442.5 2.5 Q428 2 413 1.5 Q398 1 384 0.5 Q370 0 361 0 L367 20 L430 40 L414 224 L232 224 L136 74 Q126 59 126 50 Q126 43 131 38 Q136 33 150 29 L183 20 L177 0 Q160 0 133.5 1.5 Q107 3 86 3 Q64 3 34.5 1.5 Q5 0 -14 0 L-8 20 L61 40 L432 625 L463 625 L515 76 Q517 52 524.5 43 Q532 34 549 29 L579 20 L573 0 Z M409 263 L398 388 Q396 413 394.5 434.5 Q393 456 393 470 Q393 477 393 482.5 Q393 488 394 495 Q384 475 370 450.5 Q356 426 332 387 L256 263 L409 263 Z M547 739 L360 670 L353 682 L493 780 Q508 790 515 790 Q523 790 529 780 L548 749 L547 739 Z " />
<glyph glyph-name="Acircumflex" unicode="&#xc2;" horiz-adv-x="622" d="M573 0 Q564 0 550.5 0.5 Q537 1 522 1.5 Q507 2 492.5 2.5 Q478 3 468 3 Q457 3 442.5 2.5 Q428 2 413 1.5 Q398 1 384 0.5 Q370 0 361 0 L367 20 L430 40 L414 224 L232 224 L136 74 Q126 59 126 50 Q126 43 131 38 Q136 33 150 29 L183 20 L177 0 Q160 0 133.5 1.5 Q107 3 86 3 Q64 3 34.5 1.5 Q5 0 -14 0 L-8 20 L61 40 L432 625 L463 625 L515 76 Q517 52 524.5 43 Q532 34 549 29 L579 20 L573 0 Z M409 263 L398 388 Q396 413 394.5 434.5 Q393 456 393 470 Q393 477 393 482.5 Q393 488 394 495 Q384 475 370 450.5 Q356 426 332 387 L256 263 L409 263 Z M548 669 L469 739 L351 669 L340 679 L460 795 L503 795 L561 676 L548 669 Z " />
<glyph glyph-name="Atilde" unicode="&#xc3;" horiz-adv-x="622" d="M573 0 Q564 0 550.5 0.5 Q537 1 522 1.5 Q507 2 492.5 2.5 Q478 3 468 3 Q457 3 442.5 2.5 Q428 2 413 1.5 Q398 1 384 0.5 Q370 0 361 0 L367 20 L430 40 L414 224 L232 224 L136 74 Q126 59 126 50 Q126 43 131 38 Q136 33 150 29 L183 20 L177 0 Q160 0 133.5 1.5 Q107 3 86 3 Q64 3 34.5 1.5 Q5 0 -14 0 L-8 20 L61 40 L432 625 L463 625 L515 76 Q517 52 524.5 43 Q532 34 549 29 L579 20 L573 0 Z M409 263 L398 388 Q396 413 394.5 434.5 Q393 456 393 470 Q393 477 393 482.5 Q393 488 394 495 Q384 475 370 450.5 Q356 426 332 387 L256 263 L409 263 Z M331 701 Q351 753 374 771 Q397 789 423 789 Q437 789 449.5 783 Q462 777 473.5 770.5 Q485 764 496.5 758 Q508 752 521 752 Q535 752 548.5 759 Q562 766 573 784 L590 781 Q570 729 547 711 Q524 693 498 693 Q484 693 471.5 699 Q459 705 447.5 711.5 Q436 718 424.5 724 Q413 730 400 730 Q386 730 372.5 723 Q359 716 348 698 L331 701 Z " />
<glyph glyph-name="Adieresis" unicode="&#xc4;" horiz-adv-x="622" d="M573 0 Q564 0 550.5 0.5 Q537 1 522 1.5 Q507 2 492.5 2.5 Q478 3 468 3 Q457 3 442.5 2.5 Q428 2 413 1.5 Q398 1 384 0.5 Q370 0 361 0 L367 20 L430 40 L414 224 L232 224 L136 74 Q126 59 126 50 Q126 43 131 38 Q136 33 150 29 L183 20 L177 0 Q160 0 133.5 1.5 Q107 3 86 3 Q64 3 34.5 1.5 Q5 0 -14 0 L-8 20 L61 40 L432 625 L463 625 L515 76 Q517 52 524.5 43 Q532 34 549 29 L579 20 L573 0 Z M409 263 L398 388 Q396 413 394.5 434.5 Q393 456 393 470 Q393 477 393 482.5 Q393 488 394 495 Q384 475 370 450.5 Q356 426 332 387 L256 263 L409 263 Z M449 742 Q449 719 433 704 Q417 689 396 689 Q380 689 370.5 698.5 Q361 708 361 723 Q361 746 376.5 761 Q392 776 414 776 Q430 776 439.5 766 Q449 756 449 742 Z M588 742 Q588 719 572 704 Q556 689 535 689 Q519 689 509.5 698.5 Q500 708 500 723 Q500 746 515.5 761 Q531 776 553 776 Q569 776 578.5 766 Q588 756 588 742 Z " />
<glyph glyph-name="Amacron" unicode="&#x100;" horiz-adv-x="622" d="M573 0 Q564 0 550.5 0.5 Q537 1 522 1.5 Q507 2 492.5 2.5 Q478 3 468 3 Q457 3 442.5 2.5 Q428 2 413 1.5 Q398 1 384 0.5 Q370 0 361 0 L367 20 L430 40 L414 224 L232 224 L136 74 Q126 59 126 50 Q126 43 131 38 Q136 33 150 29 L183 20 L177 0 Q160 0 133.5 1.5 Q107 3 86 3 Q64 3 34.5 1.5 Q5 0 -14 0 L-8 20 L61 40 L432 625 L463 625 L515 76 Q517 52 524.5 43 Q532 34 549 29 L579 20 L573 0 Z M409 263 L398 388 Q396 413 394.5 434.5 Q393 456 393 470 Q393 477 393 482.5 Q393 488 394 495 Q384 475 370 450.5 Q356 426 332 387 L256 263 L409 263 Z M362 700 L375 746 L587 746 L574 700 L362 700 Z " />
<glyph glyph-name="Abreve" unicode="&#x102;" horiz-adv-x="622" d="M573 0 Q564 0 550.5 0.5 Q537 1 522 1.5 Q507 2 492.5 2.5 Q478 3 468 3 Q457 3 442.5 2.5 Q428 2 413 1.5 Q398 1 384 0.5 Q370 0 361 0 L367 20 L430 40 L414 224 L232 224 L136 74 Q126 59 126 50 Q126 43 131 38 Q136 33 150 29 L183 20 L177 0 Q160 0 133.5 1.5 Q107 3 86 3 Q64 3 34.5 1.5 Q5 0 -14 0 L-8 20 L61 40 L432 625 L463 625 L515 76 Q517 52 524.5 43 Q532 34 549 29 L579 20 L573 0 Z M409 263 L398 388 Q396 413 394.5 434.5 Q393 456 393 470 Q393 477 393 482.5 Q393 488 394 495 Q384 475 370 450.5 Q356 426 332 387 L256 263 L409 263 Z M454 675 Q412 675 389 696.5 Q366 718 366 753 Q366 769 371 784 L393 784 Q388 755 408 738 Q428 721 462 721 Q496 721 524.5 737.5 Q553 754 565 784 L587 784 Q574 734 540 704.5 Q506 675 454 675 Z " />
<glyph glyph-name="Acaron" unicode="&#x1cd;" horiz-adv-x="622" d="M573 0 Q564 0 550.5 0.5 Q537 1 522 1.5 Q507 2 492.5 2.5 Q478 3 468 3 Q457 3 442.5 2.5 Q428 2 413 1.5 Q398 1 384 0.5 Q370 0 361 0 L367 20 L430 40 L414 224 L232 224 L136 74 Q126 59 126 50 Q126 43 131 38 Q136 33 150 29 L183 20 L177 0 Q160 0 133.5 1.5 Q107 3 86 3 Q64 3 34.5 1.5 Q5 0 -14 0 L-8 20 L61 40 L432 625 L463 625 L515 76 Q517 52 524.5 43 Q532 34 549 29 L579 20 L573 0 Z M409 263 L398 388 Q396 413 394.5 434.5 Q393 456 393 470 Q393 477 393 482.5 Q393 488 394 495 Q384 475 370 450.5 Q356 426 332 387 L256 263 L409 263 Z M389 799 L468 729 L586 799 L597 789 L477 673 L434 673 L376 792 L389 799 Z " />
<glyph glyph-name="Aring" unicode="&#xc5;" horiz-adv-x="622" d="M573 0 Q564 0 550.5 0.5 Q537 1 522 1.5 Q507 2 492.5 2.5 Q478 3 468 3 Q457 3 442.5 2.5 Q428 2 413 1.5 Q398 1 384 0.5 Q370 0 361 0 L367 20 L430 40 L414 224 L232 224 L136 74 Q126 59 126 50 Q126 43 131 38 Q136 33 150 29 L183 20 L177 0 Q160 0 133.5 1.5 Q107 3 86 3 Q64 3 34.5 1.5 Q5 0 -14 0 L-8 20 L61 40 L432 625 L463 625 L515 76 Q517 52 524.5 43 Q532 34 549 29 L579 20 L573 0 Z M409 263 L398 388 Q396 413 394.5 434.5 Q393 456 393 470 Q393 477 393 482.5 Q393 488 394 495 Q384 475 370 450.5 Q356 426 332 387 L256 263 L409 263 Z M438 736 Q438 720 446.5 710.5 Q455 701 469 701 Q492 701 507.5 720.5 Q523 740 523 765 Q523 781 514.5 790.5 Q506 800 492 800 Q469 800 453.5 780.5 Q438 761 438 736 Z M562 768 Q562 749 555 731 Q548 713 535 699 Q522 685 504.5 676.5 Q487 668 465 668 Q435 668 417 686.5 Q399 705 399 733 Q399 752 406 770 Q413 788 425.5 802 Q438 816 456 824.5 Q474 833 496 833 Q526 833 544 814.5 Q562 796 562 768 Z " />
<glyph glyph-name="Aringacute" unicode="&#x1fa;" horiz-adv-x="622" d="M614 922 L427 835 L420 847 L556 963 Q568 973 575 973 Q581 973 587 966 L615 932 L614 922 Z M573 0 Q564 0 550.5 0.5 Q537 1 522 1.5 Q507 2 492.5 2.5 Q478 3 468 3 Q457 3 442.5 2.5 Q428 2 413 1.5 Q398 1 384 0.5 Q370 0 361 0 L367 20 L430 40 L414 224 L232 224 L136 74 Q126 59 126 50 Q126 43 131 38 Q136 33 150 29 L183 20 L177 0 Q160 0 133.5 1.5 Q107 3 86 3 Q64 3 34.5 1.5 Q5 0 -14 0 L-8 20 L61 40 L432 625 L463 625 L515 76 Q517 52 524.5 43 Q532 34 549 29 L579 20 L573 0 Z M409 263 L398 388 Q396 413 394.5 434.5 Q393 456 393 470 Q393 477 393 482.5 Q393 488 394 495 Q384 475 370 450.5 Q356 426 332 387 L256 263 L409 263 Z M434 724 Q434 708 442.5 698.5 Q451 689 465 689 Q488 689 503.5 708.5 Q519 728 519 753 Q519 769 510.5 778.5 Q502 788 488 788 Q465 788 449.5 768.5 Q434 749 434 724 Z M558 756 Q558 737 551 719 Q544 701 531 687 Q518 673 500.5 664.5 Q483 656 461 656 Q431 656 413 674.5 Q395 693 395 721 Q395 740 402 758 Q409 776 421.5 790 Q434 804 452 812.5 Q470 821 492 821 Q522 821 540 802.5 Q558 784 558 756 Z " />
<glyph glyph-name="Aogonek" unicode="&#x104;" horiz-adv-x="622" d="M573 0 Q564 0 541 0 Q518 0 496 1 Q461 -28 441.5 -66.5 Q422 -105 422 -141 Q422 -167 437 -182.5 Q452 -198 478 -198 Q504 -198 526 -188 L534 -210 Q521 -218 503.5 -222.5 Q486 -227 466 -227 Q415 -227 384 -203.5 Q353 -180 353 -136 Q353 -117 361 -98 Q369 -79 382.5 -61 Q396 -43 414 -27 Q432 -11 452 2 Q429 1 402 0.5 Q375 0 361 0 L367 20 L430 40 L414 224 L232 224 L136 74 Q126 59 126 50 Q126 43 131 38 Q136 33 150 29 L183 20 L177 0 Q160 0 133.5 1.5 Q107 3 86 3 Q64 3 34.5 1.5 Q5 0 -14 0 L-8 20 L61 40 L432 625 L464 625 L516 76 Q518 53 525.5 43.5 Q533 34 549 29 L579 20 L573 0 Z M256 263 L409 263 L398 388 Q396 413 394.5 434 Q393 455 393 470 Q393 477 393 482.5 Q393 488 394 495 Q384 475 370 450.5 Q356 426 332 387 L256 263 Z " />
<glyph glyph-name="AE" unicode="&#xc6;" horiz-adv-x="903" d="M454 41 L526 304 L352 304 L140 74 Q126 58 126 48 Q126 35 151 28 L178 20 L172 0 Q155 0 127 1.5 Q99 3 78 3 Q56 3 27.5 1.5 Q-1 0 -20 0 L-14 20 L51 40 L532 562 Q540 572 540 579 Q540 589 526.5 595.5 Q513 602 483 605 L489 625 L961 625 Q957 611 952.5 591 Q948 571 943.5 549.5 Q939 528 935.5 508.5 Q932 489 930 477 L905 477 Q906 482 906.5 489 Q907 496 907 503 Q907 523 903 538.5 Q899 554 889 563 Q872 579 841.5 583.5 Q811 588 773 588 Q753 588 728.5 587.5 Q704 587 690 586 L623 341 L683 341 Q695 341 713 341.5 Q731 342 749.5 343 Q768 344 782.5 345 Q797 346 801 348 L783 298 Q779 299 766.5 300 Q754 301 738 302 Q722 303 704.5 303.5 Q687 304 674 304 L612 304 L552 81 Q550 73 550 68 Q550 54 569 46 Q588 38 635 38 Q665 38 686.5 39 Q708 40 723 42.5 Q738 45 748 49 Q758 53 766 58 Q785 70 799 90 Q813 110 831 147 L852 147 Q847 134 841 114 Q835 94 828 72.5 Q821 51 815.5 31.5 Q810 12 807 0 L385 0 L391 20 L454 41 Z M386 341 L536 341 L599 571 L386 341 Z " />
<glyph glyph-name="AEacute" unicode="&#x1fc;" horiz-adv-x="903" d="M454 41 L526 304 L352 304 L140 74 Q126 58 126 48 Q126 35 151 28 L178 20 L172 0 Q155 0 127 1.5 Q99 3 78 3 Q56 3 27.5 1.5 Q-1 0 -20 0 L-14 20 L51 40 L532 562 Q540 572 540 579 Q540 589 526.5 595.5 Q513 602 483 605 L489 625 L961 625 Q957 611 952.5 591 Q948 571 943.5 549.5 Q939 528 935.5 508.5 Q932 489 930 477 L905 477 Q906 482 906.5 489 Q907 496 907 503 Q907 523 903 538.5 Q899 554 889 563 Q872 579 841.5 583.5 Q811 588 773 588 Q753 588 728.5 587.5 Q704 587 690 586 L623 341 L683 341 Q695 341 713 341.5 Q731 342 749.5 343 Q768 344 782.5 345 Q797 346 801 348 L783 298 Q779 299 766.5 300 Q754 301 738 302 Q722 303 704.5 303.5 Q687 304 674 304 L612 304 L552 81 Q550 73 550 68 Q550 54 569 46 Q588 38 635 38 Q665 38 686.5 39 Q708 40 723 42.5 Q738 45 748 49 Q758 53 766 58 Q785 70 799 90 Q813 110 831 147 L852 147 Q847 134 841 114 Q835 94 828 72.5 Q821 51 815.5 31.5 Q810 12 807 0 L385 0 L391 20 L454 41 Z M386 341 L536 341 L599 571 L386 341 Z M859 739 L672 670 L665 682 L805 780 Q820 790 827 790 Q835 790 841 780 L860 749 L859 739 Z " />
<glyph glyph-name="Cacute" unicode="&#x106;" horiz-adv-x="555" d="M508 105 Q464 49 402 17 Q340 -15 275 -15 Q234 -15 199.5 -1.5 Q165 12 140.5 38.5 Q116 65 102 103.5 Q88 142 88 192 Q88 243 100 296.5 Q112 350 134 399.5 Q156 449 188 493 Q220 537 260.5 569.5 Q301 602 348.5 621 Q396 640 450 640 Q495 640 536 631 Q577 622 612 617 Q602 579 592 536 Q582 493 576 459 L556 459 Q556 534 527.5 565 Q499 596 445 596 Q407 596 373 578 Q339 560 309.5 529.5 Q280 499 256.5 458.5 Q233 418 216 373 Q199 328 190 281 Q181 234 181 191 Q181 115 213 76.5 Q245 38 302 38 Q350 38 399.5 63 Q449 88 484 126 L508 105 Z M573 739 L386 670 L379 682 L519 780 Q534 790 541 790 Q549 790 555 780 L574 749 L573 739 Z " />
<glyph glyph-name="Ccedilla" unicode="&#xc7;" horiz-adv-x="555" d="M508 105 Q466 51 408.5 19.5 Q351 -12 288 -14 L267 -55 Q300 -57 320 -73 Q340 -89 340 -118 Q340 -134 330.5 -152.5 Q321 -171 301 -186.5 Q281 -202 250 -213.5 Q219 -225 176 -228 L172 -207 Q220 -199 251 -175 Q282 -151 282 -121 Q282 -110 278.5 -104 Q275 -98 269 -94.5 Q263 -91 256 -89.5 Q249 -88 242 -86 Q230 -84 223 -80 Q216 -76 223 -63 L250 -13 Q215 -9 185 6 Q155 21 133.5 47 Q112 73 100 109 Q88 145 88 191 Q88 268 114.5 348 Q141 428 188.5 493 Q236 558 302.5 599 Q369 640 450 640 Q497 640 537 631 Q577 622 612 617 Q602 579 592 536 Q582 493 576 459 L556 459 Q556 534 527.5 565 Q499 596 445 596 Q407 596 373 578 Q339 560 309.5 529.5 Q280 499 256.5 458 Q233 417 216 372 Q199 327 190 280.5 Q181 234 181 191 Q181 116 215 77 Q249 38 306 38 Q354 38 401.5 63 Q449 88 484 126 L508 105 Z " />
<glyph glyph-name="Ccircumflex" unicode="&#x108;" horiz-adv-x="555" d="M508 105 Q464 49 402 17 Q340 -15 275 -15 Q234 -15 199.5 -1.5 Q165 12 140.5 38.5 Q116 65 102 103.5 Q88 142 88 192 Q88 243 100 296.5 Q112 350 134 399.5 Q156 449 188 493 Q220 537 260.5 569.5 Q301 602 348.5 621 Q396 640 450 640 Q495 640 536 631 Q577 622 612 617 Q602 579 592 536 Q582 493 576 459 L556 459 Q556 534 527.5 565 Q499 596 445 596 Q407 596 373 578 Q339 560 309.5 529.5 Q280 499 256.5 458.5 Q233 418 216 373 Q199 328 190 281 Q181 234 181 191 Q181 115 213 76.5 Q245 38 302 38 Q350 38 399.5 63 Q449 88 484 126 L508 105 Z M574 669 L495 739 L377 669 L366 679 L486 795 L529 795 L587 676 L574 669 Z " />
<glyph glyph-name="Ccaron" unicode="&#x10c;" horiz-adv-x="555" d="M508 105 Q464 49 402 17 Q340 -15 275 -15 Q234 -15 199.5 -1.5 Q165 12 140.5 38.5 Q116 65 102 103.5 Q88 142 88 192 Q88 243 100 296.5 Q112 350 134 399.5 Q156 449 188 493 Q220 537 260.5 569.5 Q301 602 348.5 621 Q396 640 450 640 Q495 640 536 631 Q577 622 612 617 Q602 579 592 536 Q582 493 576 459 L556 459 Q556 534 527.5 565 Q499 596 445 596 Q407 596 373 578 Q339 560 309.5 529.5 Q280 499 256.5 458.5 Q233 418 216 373 Q199 328 190 281 Q181 234 181 191 Q181 115 213 76.5 Q245 38 302 38 Q350 38 399.5 63 Q449 88 484 126 L508 105 Z M387 799 L466 729 L584 799 L595 789 L475 673 L432 673 L374 792 L387 799 Z " />
<glyph glyph-name="Cdotaccent" unicode="&#x10a;" horiz-adv-x="555" d="M508 105 Q464 49 402 17 Q340 -15 275 -15 Q234 -15 199.5 -1.5 Q165 12 140.5 38.5 Q116 65 102 103.5 Q88 142 88 192 Q88 243 100 296.5 Q112 350 134 399.5 Q156 449 188 493 Q220 537 260.5 569.5 Q301 602 348.5 621 Q396 640 450 640 Q495 640 536 631 Q577 622 612 617 Q602 579 592 536 Q582 493 576 459 L556 459 Q556 534 527.5 565 Q499 596 445 596 Q407 596 373 578 Q339 560 309.5 529.5 Q280 499 256.5 458.5 Q233 418 216 373 Q199 328 190 281 Q181 234 181 191 Q181 115 213 76.5 Q245 38 302 38 Q350 38 399.5 63 Q449 88 484 126 L508 105 Z M538 746 Q538 718 518.5 699.5 Q499 681 473 681 Q453 681 441.5 693 Q430 705 430 723 Q430 751 449.5 769.5 Q469 788 495 788 Q515 788 526.5 776 Q538 764 538 746 Z " />
<glyph glyph-name="Dcaron" unicode="&#x10e;" horiz-adv-x="628" d="M222 547 Q225 559 225 567 Q225 582 213 589.5 Q201 597 173 605 L179 625 L373 625 Q518 625 584 556 Q611 528 624.5 489.5 Q638 451 638 405 Q638 370 630.5 331.5 Q623 293 608 253.5 Q593 214 569.5 176 Q546 138 513 106 Q465 59 402.5 29.5 Q340 0 249 0 L15 0 L21 20 L84 41 L222 547 Z M233 40 Q296 40 343.5 58 Q391 76 426 111 Q456 140 478.5 178.5 Q501 217 516 258 Q531 299 538.5 340.5 Q546 382 546 418 Q546 460 536.5 489.5 Q527 519 508 539 Q485 562 448.5 572 Q412 582 359 582 L319 582 L183 87 Q180 75 180 68 Q180 54 191.5 47 Q203 40 233 40 Z M379 799 L458 729 L576 799 L587 789 L467 673 L424 673 L366 792 L379 799 Z " />
<glyph glyph-name="Dcroat" unicode="&#x110;" horiz-adv-x="628" d="M154 299 L78 299 L90 342 L166 342 L222 547 Q225 559 225 567 Q225 582 213 589.5 Q201 597 173 605 L179 625 L378 625 Q449 625 500.5 607 Q552 589 584 555 Q638 499 638 405 Q638 370 630.5 331 Q623 292 608 253 Q593 214 569.5 176 Q546 138 513 106 Q465 59 403 29.5 Q341 0 252 0 L15 0 L21 20 L84 41 L154 299 Z M241 299 L182 83 Q180 75 180 68 Q180 53 191.5 46 Q203 39 233 39 Q296 39 343.5 57.5 Q391 76 426 111 Q456 140 478.5 178.5 Q501 217 516 258 Q531 299 538.5 340.5 Q546 382 546 418 Q546 460 536.5 490 Q527 520 508 540 Q485 563 449.5 573 Q414 583 363 583 L319 583 L253 342 L362 342 L350 299 L241 299 Z " />
<glyph glyph-name="Eth" unicode="&#xd0;" horiz-adv-x="628" d="M154 299 L78 299 L90 342 L166 342 L222 547 Q225 559 225 567 Q225 582 213 589.5 Q201 597 173 605 L179 625 L378 625 Q449 625 500.5 607 Q552 589 584 555 Q638 499 638 405 Q638 370 630.5 331 Q623 292 608 253 Q593 214 569.5 176 Q546 138 513 106 Q465 59 403 29.5 Q341 0 252 0 L15 0 L21 20 L84 41 L154 299 Z M241 299 L182 83 Q180 75 180 68 Q180 53 191.5 46 Q203 39 233 39 Q296 39 343.5 57.5 Q391 76 426 111 Q456 140 478.5 178.5 Q501 217 516 258 Q531 299 538.5 340.5 Q546 382 546 418 Q546 460 536.5 490 Q527 520 508 540 Q485 563 449.5 573 Q414 583 363 583 L319 583 L253 342 L362 342 L350 299 L241 299 Z " />
<glyph glyph-name="Egrave" unicode="&#xc8;" horiz-adv-x="533" d="M222 547 Q225 559 225 567 Q225 582 213 589.5 Q201 597 173 605 L179 625 L591 625 Q587 611 582.5 591 Q578 571 573.5 549.5 Q569 528 565.5 508.5 Q562 489 560 477 L536 477 Q537 482 537.5 489 Q538 496 538 503 Q538 523 534 538 Q530 553 520 562 Q503 578 472.5 582.5 Q442 587 404 587 Q384 587 359 586.5 Q334 586 320 585 L253 341 L313 341 Q325 341 343 341.5 Q361 342 379.5 343 Q398 344 412.5 345 Q427 346 431 348 L413 297 Q409 298 396.5 299 Q384 300 368 301 Q352 302 334.5 302.5 Q317 303 304 303 L242 303 L182 81 Q180 73 180 68 Q180 54 199 46.5 Q218 39 265 39 Q296 39 317.5 40.5 Q339 42 353.5 45 Q368 48 378 52.5 Q388 57 396 62 Q415 74 429 92.5 Q443 111 461 147 L482 147 Q477 134 471 114 Q465 94 458 72.5 Q451 51 445.5 31.5 Q440 12 437 0 L15 0 L21 20 L84 41 L222 547 Z M322 749 L352 780 Q362 790 369 790 Q376 790 391 776 L498 675 L489 664 L324 739 L322 749 Z " />
<glyph glyph-name="Eacute" unicode="&#xc9;" horiz-adv-x="533" d="M222 547 Q225 559 225 567 Q225 582 213 589.5 Q201 597 173 605 L179 625 L591 625 Q587 611 582.5 591 Q578 571 573.5 549.5 Q569 528 565.5 508.5 Q562 489 560 477 L536 477 Q537 482 537.5 489 Q538 496 538 503 Q538 523 534 538 Q530 553 520 562 Q503 578 472.5 582.5 Q442 587 404 587 Q384 587 359 586.5 Q334 586 320 585 L253 341 L313 341 Q325 341 343 341.5 Q361 342 379.5 343 Q398 344 412.5 345 Q427 346 431 348 L413 297 Q409 298 396.5 299 Q384 300 368 301 Q352 302 334.5 302.5 Q317 303 304 303 L242 303 L182 81 Q180 73 180 68 Q180 54 199 46.5 Q218 39 265 39 Q296 39 317.5 40.5 Q339 42 353.5 45 Q368 48 378 52.5 Q388 57 396 62 Q415 74 429 92.5 Q443 111 461 147 L482 147 Q477 134 471 114 Q465 94 458 72.5 Q451 51 445.5 31.5 Q440 12 437 0 L15 0 L21 20 L84 41 L222 547 Z M522 739 L335 670 L328 682 L468 780 Q483 790 490 790 Q498 790 504 780 L523 749 L522 739 Z " />
<glyph glyph-name="Ecircumflex" unicode="&#xca;" horiz-adv-x="533" d="M222 547 Q225 559 225 567 Q225 582 213 589.5 Q201 597 173 605 L179 625 L591 625 Q587 611 582.5 591 Q578 571 573.5 549.5 Q569 528 565.5 508.5 Q562 489 560 477 L536 477 Q537 482 537.5 489 Q538 496 538 503 Q538 523 534 538 Q530 553 520 562 Q503 578 472.5 582.5 Q442 587 404 587 Q384 587 359 586.5 Q334 586 320 585 L253 341 L313 341 Q325 341 343 341.5 Q361 342 379.5 343 Q398 344 412.5 345 Q427 346 431 348 L413 297 Q409 298 396.5 299 Q384 300 368 301 Q352 302 334.5 302.5 Q317 303 304 303 L242 303 L182 81 Q180 73 180 68 Q180 54 199 46.5 Q218 39 265 39 Q296 39 317.5 40.5 Q339 42 353.5 45 Q368 48 378 52.5 Q388 57 396 62 Q415 74 429 92.5 Q443 111 461 147 L482 147 Q477 134 471 114 Q465 94 458 72.5 Q451 51 445.5 31.5 Q440 12 437 0 L15 0 L21 20 L84 41 L222 547 Z M508 669 L429 739 L311 669 L300 679 L420 795 L463 795 L521 676 L508 669 Z " />
<glyph glyph-name="Ecaron" unicode="&#x11a;" horiz-adv-x="533" d="M222 547 Q225 559 225 567 Q225 582 213 589.5 Q201 597 173 605 L179 625 L591 625 Q587 611 582.5 591 Q578 571 573.5 549.5 Q569 528 565.5 508.5 Q562 489 560 477 L536 477 Q537 482 537.5 489 Q538 496 538 503 Q538 523 534 538 Q530 553 520 562 Q503 578 472.5 582.5 Q442 587 404 587 Q384 587 359 586.5 Q334 586 320 585 L253 341 L313 341 Q325 341 343 341.5 Q361 342 379.5 343 Q398 344 412.5 345 Q427 346 431 348 L413 297 Q409 298 396.5 299 Q384 300 368 301 Q352 302 334.5 302.5 Q317 303 304 303 L242 303 L182 81 Q180 73 180 68 Q180 54 199 46.5 Q218 39 265 39 Q296 39 317.5 40.5 Q339 42 353.5 45 Q368 48 378 52.5 Q388 57 396 62 Q415 74 429 92.5 Q443 111 461 147 L482 147 Q477 134 471 114 Q465 94 458 72.5 Q451 51 445.5 31.5 Q440 12 437 0 L15 0 L21 20 L84 41 L222 547 Z M335 799 L414 729 L532 799 L543 789 L423 673 L380 673 L322 792 L335 799 Z " />
<glyph glyph-name="Edieresis" unicode="&#xcb;" horiz-adv-x="533" d="M222 547 Q225 559 225 567 Q225 582 213 589.5 Q201 597 173 605 L179 625 L591 625 Q587 611 582.5 591 Q578 571 573.5 549.5 Q569 528 565.5 508.5 Q562 489 560 477 L536 477 Q537 482 537.5 489 Q538 496 538 503 Q538 523 534 538 Q530 553 520 562 Q503 578 472.5 582.5 Q442 587 404 587 Q384 587 359 586.5 Q334 586 320 585 L253 341 L313 341 Q325 341 343 341.5 Q361 342 379.5 343 Q398 344 412.5 345 Q427 346 431 348 L413 297 Q409 298 396.5 299 Q384 300 368 301 Q352 302 334.5 302.5 Q317 303 304 303 L242 303 L182 81 Q180 73 180 68 Q180 54 199 46.5 Q218 39 265 39 Q296 39 317.5 40.5 Q339 42 353.5 45 Q368 48 378 52.5 Q388 57 396 62 Q415 74 429 92.5 Q443 111 461 147 L482 147 Q477 134 471 114 Q465 94 458 72.5 Q451 51 445.5 31.5 Q440 12 437 0 L15 0 L21 20 L84 41 L222 547 Z M390 742 Q390 719 374 704 Q358 689 337 689 Q321 689 311.5 698.5 Q302 708 302 723 Q302 746 317.5 761 Q333 776 355 776 Q371 776 380.5 766 Q390 756 390 742 Z M529 742 Q529 719 513 704 Q497 689 476 689 Q460 689 450.5 698.5 Q441 708 441 723 Q441 746 456.5 761 Q472 776 494 776 Q510 776 519.5 766 Q529 756 529 742 Z " />
<glyph glyph-name="Emacron" unicode="&#x112;" horiz-adv-x="533" d="M222 547 Q225 559 225 567 Q225 582 213 589.5 Q201 597 173 605 L179 625 L591 625 Q587 611 582.5 591 Q578 571 573.5 549.5 Q569 528 565.5 508.5 Q562 489 560 477 L536 477 Q537 482 537.5 489 Q538 496 538 503 Q538 523 534 538 Q530 553 520 562 Q503 578 472.5 582.5 Q442 587 404 587 Q384 587 359 586.5 Q334 586 320 585 L253 341 L313 341 Q325 341 343 341.5 Q361 342 379.5 343 Q398 344 412.5 345 Q427 346 431 348 L413 297 Q409 298 396.5 299 Q384 300 368 301 Q352 302 334.5 302.5 Q317 303 304 303 L242 303 L182 81 Q180 73 180 68 Q180 54 199 46.5 Q218 39 265 39 Q296 39 317.5 40.5 Q339 42 353.5 45 Q368 48 378 52.5 Q388 57 396 62 Q415 74 429 92.5 Q443 111 461 147 L482 147 Q477 134 471 114 Q465 94 458 72.5 Q451 51 445.5 31.5 Q440 12 437 0 L15 0 L21 20 L84 41 L222 547 Z M302 700 L315 746 L527 746 L514 700 L302 700 Z " />
<glyph glyph-name="Ebreve" unicode="&#x114;" horiz-adv-x="533" d="M222 547 Q225 559 225 567 Q225 582 213 589.5 Q201 597 173 605 L179 625 L591 625 Q587 611 582.5 591 Q578 571 573.5 549.5 Q569 528 565.5 508.5 Q562 489 560 477 L536 477 Q537 482 537.5 489 Q538 496 538 503 Q538 523 534 538 Q530 553 520 562 Q503 578 472.5 582.5 Q442 587 404 587 Q384 587 359 586.5 Q334 586 320 585 L253 341 L313 341 Q325 341 343 341.5 Q361 342 379.5 343 Q398 344 412.5 345 Q427 346 431 348 L413 297 Q409 298 396.5 299 Q384 300 368 301 Q352 302 334.5 302.5 Q317 303 304 303 L242 303 L182 81 Q180 73 180 68 Q180 54 199 46.5 Q218 39 265 39 Q296 39 317.5 40.5 Q339 42 353.5 45 Q368 48 378 52.5 Q388 57 396 62 Q415 74 429 92.5 Q443 111 461 147 L482 147 Q477 134 471 114 Q465 94 458 72.5 Q451 51 445.5 31.5 Q440 12 437 0 L15 0 L21 20 L84 41 L222 547 Z M408 675 Q366 675 343 696.5 Q320 718 320 753 Q320 769 325 784 L347 784 Q342 755 362 738 Q382 721 416 721 Q450 721 478.5 737.5 Q507 754 519 784 L541 784 Q528 734 494 704.5 Q460 675 408 675 Z " />
<glyph glyph-name="Edotaccent" unicode="&#x116;" horiz-adv-x="533" d="M222 547 Q225 559 225 567 Q225 582 213 589.5 Q201 597 173 605 L179 625 L591 625 Q587 611 582.5 591 Q578 571 573.5 549.5 Q569 528 565.5 508.5 Q562 489 560 477 L536 477 Q537 482 537.5 489 Q538 496 538 503 Q538 523 534 538 Q530 553 520 562 Q503 578 472.5 582.5 Q442 587 404 587 Q384 587 359 586.5 Q334 586 320 585 L253 341 L313 341 Q325 341 343 341.5 Q361 342 379.5 343 Q398 344 412.5 345 Q427 346 431 348 L413 297 Q409 298 396.5 299 Q384 300 368 301 Q352 302 334.5 302.5 Q317 303 304 303 L242 303 L182 81 Q180 73 180 68 Q180 54 199 46.5 Q218 39 265 39 Q296 39 317.5 40.5 Q339 42 353.5 45 Q368 48 378 52.5 Q388 57 396 62 Q415 74 429 92.5 Q443 111 461 147 L482 147 Q477 134 471 114 Q465 94 458 72.5 Q451 51 445.5 31.5 Q440 12 437 0 L15 0 L21 20 L84 41 L222 547 Z M482 746 Q482 718 462.5 699.5 Q443 681 417 681 Q397 681 385.5 693 Q374 705 374 723 Q374 751 393.5 769.5 Q413 788 439 788 Q459 788 470.5 776 Q482 764 482 746 Z " />
<glyph glyph-name="Eogonek" unicode="&#x118;" horiz-adv-x="533" d="M238 -137 Q238 -118 245.5 -99 Q253 -80 266.5 -62 Q280 -44 297.5 -28.5 Q315 -13 335 0 L15 0 L21 20 L84 41 L222 547 Q225 559 225 567 Q225 582 213 589.5 Q201 597 173 605 L179 625 L591 625 Q587 611 582.5 591 Q578 571 573.5 549.5 Q569 528 565.5 508.5 Q562 489 560 477 L535 477 Q536 482 536.5 489 Q537 496 537 503 Q537 523 533 538 Q529 553 519 562 Q502 578 471.5 582.5 Q441 587 403 587 Q383 587 358.5 586.5 Q334 586 320 585 L253 341 L313 341 Q325 341 343 341.5 Q361 342 379.5 343 Q398 344 412.5 345 Q427 346 431 348 L413 297 Q409 298 396.5 299 Q384 300 368 301 Q352 302 334.5 302.5 Q317 303 304 303 L242 303 L182 81 Q180 73 180 68 Q180 54 198 46.5 Q216 39 263 39 Q294 39 315.5 40 Q337 41 352 43.5 Q367 46 377.5 50 Q388 54 396 59 Q415 71 429 91 Q443 111 461 147 L482 147 Q477 134 471 114 Q465 94 458 72.5 Q451 51 445.5 31.5 Q440 12 437 0 L381 0 Q346 -29 326.5 -67.5 Q307 -106 307 -142 Q307 -168 322 -183.5 Q337 -199 363 -199 Q389 -199 411 -189 L419 -211 Q406 -219 388.5 -223.5 Q371 -228 351 -228 Q300 -228 269 -204.5 Q238 -181 238 -137 Z " />
<glyph glyph-name="Gcircumflex" unicode="&#x11c;" horiz-adv-x="616" d="M500 43 Q465 17 413 1 Q361 -15 308 -15 Q260 -15 219.5 -1.5 Q179 12 149.5 39 Q120 66 104 107 Q88 148 88 204 Q88 280 114 357.5 Q140 435 188 498 Q236 561 304.5 600.5 Q373 640 459 640 Q504 640 547.5 630.5 Q591 621 624 616 Q615 582 605 539.5 Q595 497 588 459 L568 459 L568 463 Q568 527 541.5 561.5 Q515 596 452 596 Q389 596 339 559 Q289 522 254 465.5 Q219 409 200 341 Q181 273 181 210 Q181 122 213.5 75 Q246 28 303 28 Q363 28 402 67 Q418 83 429 105.5 Q440 128 449 161 L468 231 L400 249 L406 269 Q415 269 430 268.5 Q445 268 461.5 267.5 Q478 267 493.5 266.5 Q509 266 520 266 Q530 266 543.5 266.5 Q557 267 570.5 267.5 Q584 268 596.5 268.5 Q609 269 618 269 L612 249 Q593 246 581 242.5 Q569 239 561.5 233 Q554 227 549.5 217 Q545 207 541 191 L500 43 Z M558 669 L479 739 L361 669 L350 679 L470 795 L513 795 L571 676 L558 669 Z " />
<glyph glyph-name="Gbreve" unicode="&#x11e;" horiz-adv-x="616" d="M500 43 Q465 17 413 1 Q361 -15 308 -15 Q260 -15 219.5 -1.5 Q179 12 149.5 39 Q120 66 104 107 Q88 148 88 204 Q88 280 114 357.5 Q140 435 188 498 Q236 561 304.5 600.5 Q373 640 459 640 Q504 640 547.5 630.5 Q591 621 624 616 Q615 582 605 539.5 Q595 497 588 459 L568 459 L568 463 Q568 527 541.5 561.5 Q515 596 452 596 Q389 596 339 559 Q289 522 254 465.5 Q219 409 200 341 Q181 273 181 210 Q181 122 213.5 75 Q246 28 303 28 Q363 28 402 67 Q418 83 429 105.5 Q440 128 449 161 L468 231 L400 249 L406 269 Q415 269 430 268.5 Q445 268 461.5 267.5 Q478 267 493.5 266.5 Q509 266 520 266 Q530 266 543.5 266.5 Q557 267 570.5 267.5 Q584 268 596.5 268.5 Q609 269 618 269 L612 249 Q593 246 581 242.5 Q569 239 561.5 233 Q554 227 549.5 217 Q545 207 541 191 L500 43 Z M467 675 Q425 675 402 696.5 Q379 718 379 753 Q379 769 384 784 L406 784 Q401 755 421 738 Q441 721 475 721 Q509 721 537.5 737.5 Q566 754 578 784 L600 784 Q587 734 553 704.5 Q519 675 467 675 Z " />
<glyph glyph-name="Gdotaccent" unicode="&#x120;" horiz-adv-x="616" d="M500 43 Q465 17 413 1 Q361 -15 308 -15 Q260 -15 219.5 -1.5 Q179 12 149.5 39 Q120 66 104 107 Q88 148 88 204 Q88 280 114 357.5 Q140 435 188 498 Q236 561 304.5 600.5 Q373 640 459 640 Q504 640 547.5 630.5 Q591 621 624 616 Q615 582 605 539.5 Q595 497 588 459 L568 459 L568 463 Q568 527 541.5 561.5 Q515 596 452 596 Q389 596 339 559 Q289 522 254 465.5 Q219 409 200 341 Q181 273 181 210 Q181 122 213.5 75 Q246 28 303 28 Q363 28 402 67 Q418 83 429 105.5 Q440 128 449 161 L468 231 L400 249 L406 269 Q415 269 430 268.5 Q445 268 461.5 267.5 Q478 267 493.5 266.5 Q509 266 520 266 Q530 266 543.5 266.5 Q557 267 570.5 267.5 Q584 268 596.5 268.5 Q609 269 618 269 L612 249 Q593 246 581 242.5 Q569 239 561.5 233 Q554 227 549.5 217 Q545 207 541 191 L500 43 Z M538 746 Q538 718 518.5 699.5 Q499 681 473 681 Q453 681 441.5 693 Q430 705 430 723 Q430 751 449.5 769.5 Q469 788 495 788 Q515 788 526.5 776 Q538 764 538 746 Z " />
<glyph glyph-name="Gcommaaccent" unicode="&#x122;" horiz-adv-x="616" d="M500 43 Q465 17 413 1 Q361 -15 308 -15 Q260 -15 219.5 -1.5 Q179 12 149.5 39 Q120 66 104 107 Q88 148 88 204 Q88 280 114 357.5 Q140 435 188 498 Q236 561 304.5 600.5 Q373 640 459 640 Q504 640 547.5 630.5 Q591 621 624 616 Q615 582 605 539.5 Q595 497 588 459 L568 459 L568 463 Q568 527 541.5 561.5 Q515 596 452 596 Q389 596 339 559 Q289 522 254 465.5 Q219 409 200 341 Q181 273 181 210 Q181 122 213.5 75 Q246 28 303 28 Q363 28 402 67 Q418 83 429 105.5 Q440 128 449 161 L468 231 L400 249 L406 269 Q415 269 430 268.5 Q445 268 461.5 267.5 Q478 267 493.5 266.5 Q509 266 520 266 Q530 266 543.5 266.5 Q557 267 570.5 267.5 Q584 268 596.5 268.5 Q609 269 618 269 L612 249 Q593 246 581 242.5 Q569 239 561.5 233 Q554 227 549.5 217 Q545 207 541 191 L500 43 Z M327 -102 Q327 -147 295.5 -189.5 Q264 -232 216 -258 L205 -242 Q218 -232 230.5 -220 Q243 -208 252.5 -195.5 Q262 -183 267.5 -170.5 Q273 -158 273 -147 Q273 -138 268.5 -131.5 Q264 -125 258 -119.5 Q252 -114 247.5 -108.5 Q243 -103 243 -95 Q243 -81 256.5 -68 Q270 -55 290 -55 Q309 -55 318 -68.5 Q327 -82 327 -102 Z " />
<glyph glyph-name="Hcircumflex" unicode="&#x124;" horiz-adv-x="671" d="M649 78 Q646 66 646 58 Q646 43 658 35.5 Q670 28 698 20 L692 0 Q683 0 670.5 0.5 Q658 1 644 1.5 Q630 2 616 2.5 Q602 3 592 3 Q581 3 566 2.5 Q551 2 536 1.5 Q521 1 506.5 0.5 Q492 0 483 0 L489 20 L552 41 L622 299 L341 299 L281 78 Q278 66 278 58 Q278 43 290 35.5 Q302 28 330 20 L324 0 Q315 0 302.5 0.5 Q290 1 275.5 1.5 Q261 2 247 2.5 Q233 3 223 3 Q212 3 197.5 2.5 Q183 2 167.5 1.5 Q152 1 138 0.5 Q124 0 115 0 L121 20 L184 41 L322 547 Q325 559 325 567 Q325 582 313 589.5 Q301 597 273 605 L279 625 Q288 625 300.5 624.5 Q313 624 327 623.5 Q341 623 354.5 622.5 Q368 622 379 622 Q390 622 405 622.5 Q420 623 435 623.5 Q450 624 464.5 624.5 Q479 625 488 625 L482 605 L419 584 L353 342 L634 342 L690 547 Q693 559 693 567 Q693 582 681 589.5 Q669 597 641 605 L647 625 Q656 625 668.5 624.5 Q681 624 695.5 623.5 Q710 623 723.5 622.5 Q737 622 748 622 Q759 622 773.5 622.5 Q788 623 803.5 623.5 Q819 624 833 624.5 Q847 625 856 625 L850 605 L787 584 L649 78 Z M576 669 L497 739 L379 669 L368 679 L488 795 L531 795 L589 676 L576 669 Z " />
<glyph glyph-name="Hbar" unicode="&#x126;" horiz-adv-x="671" d="M208 498 L222 547 Q225 559 225 567 Q225 582 213 589.5 Q201 597 173 605 L179 625 Q188 625 200.5 624.5 Q213 624 227 623.5 Q241 623 254.5 622.5 Q268 622 279 622 Q290 622 305 622.5 Q320 623 335 623.5 Q350 624 364.5 624.5 Q379 625 388 625 L382 605 L319 584 L295 498 L576 498 L590 547 Q593 559 593 567 Q593 582 581 589.5 Q569 597 541 605 L547 625 Q556 625 568.5 624.5 Q581 624 595.5 623.5 Q610 623 623.5 622.5 Q637 622 648 622 Q659 622 673.5 622.5 Q688 623 703.5 623.5 Q719 624 733 624.5 Q747 625 756 625 L750 605 L687 584 L663 498 L740 498 L728 455 L652 455 L549 78 Q546 66 546 58 Q546 43 558 35.5 Q570 28 598 20 L592 0 Q583 0 570.5 0.5 Q558 1 544 1.5 Q530 2 516 2.5 Q502 3 492 3 Q481 3 466 2.5 Q451 2 436 1.5 Q421 1 406.5 0.5 Q392 0 383 0 L389 20 L452 41 L522 299 L241 299 L181 78 Q178 66 178 58 Q178 43 190 35.5 Q202 28 230 20 L224 0 Q215 0 202.5 0.5 Q190 1 175.5 1.5 Q161 2 147 2.5 Q133 3 123 3 Q112 3 97.5 2.5 Q83 2 67.5 1.5 Q52 1 38 0.5 Q24 0 15 0 L21 20 L84 41 L197 455 L120 455 L132 498 L208 498 Z M534 342 L565 455 L284 455 L253 342 L534 342 Z " />
<glyph glyph-name="Igrave" unicode="&#xcc;" horiz-adv-x="307" d="M224 547 Q227 559 227 567 Q227 582 215 589.5 Q203 597 175 605 L181 625 Q190 625 202.5 624.5 Q215 624 229 623.5 Q243 623 256.5 622.5 Q270 622 281 622 Q292 622 307 622.5 Q322 623 337 623.5 Q352 624 366.5 624.5 Q381 625 390 625 L384 605 L321 584 L183 78 Q180 66 180 58 Q180 43 192 35.5 Q204 28 232 20 L226 0 Q217 0 204.5 0.5 Q192 1 177.5 1.5 Q163 2 149 2.5 Q135 3 125 3 Q114 3 99.5 2.5 Q85 2 69.5 1.5 Q54 1 40 0.5 Q26 0 17 0 L23 20 L86 41 L224 547 Z M210 749 L240 780 Q250 790 257 790 Q264 790 279 776 L386 675 L377 664 L212 739 L210 749 Z " />
<glyph glyph-name="Iacute" unicode="&#xcd;" horiz-adv-x="307" d="M224 547 Q227 559 227 567 Q227 582 215 589.5 Q203 597 175 605 L181 625 Q190 625 202.5 624.5 Q215 624 229 623.5 Q243 623 256.5 622.5 Q270 622 281 622 Q292 622 307 622.5 Q322 623 337 623.5 Q352 624 366.5 624.5 Q381 625 390 625 L384 605 L321 584 L183 78 Q180 66 180 58 Q180 43 192 35.5 Q204 28 232 20 L226 0 Q217 0 204.5 0.5 Q192 1 177.5 1.5 Q163 2 149 2.5 Q135 3 125 3 Q114 3 99.5 2.5 Q85 2 69.5 1.5 Q54 1 40 0.5 Q26 0 17 0 L23 20 L86 41 L224 547 Z M399 739 L212 670 L205 682 L345 780 Q360 790 367 790 Q375 790 381 780 L400 749 L399 739 Z " />
<glyph glyph-name="Icircumflex" unicode="&#xce;" horiz-adv-x="307" d="M224 547 Q227 559 227 567 Q227 582 215 589.5 Q203 597 175 605 L181 625 Q190 625 202.5 624.5 Q215 624 229 623.5 Q243 623 256.5 622.5 Q270 622 281 622 Q292 622 307 622.5 Q322 623 337 623.5 Q352 624 366.5 624.5 Q381 625 390 625 L384 605 L321 584 L183 78 Q180 66 180 58 Q180 43 192 35.5 Q204 28 232 20 L226 0 Q217 0 204.5 0.5 Q192 1 177.5 1.5 Q163 2 149 2.5 Q135 3 125 3 Q114 3 99.5 2.5 Q85 2 69.5 1.5 Q54 1 40 0.5 Q26 0 17 0 L23 20 L86 41 L224 547 Z M389 669 L310 739 L192 669 L181 679 L301 795 L344 795 L402 676 L389 669 Z " />
<glyph glyph-name="Itilde" unicode="&#x128;" horiz-adv-x="307" d="M224 547 Q227 559 227 567 Q227 582 215 589.5 Q203 597 175 605 L181 625 Q190 625 202.5 624.5 Q215 624 229 623.5 Q243 623 256.5 622.5 Q270 622 281 622 Q292 622 307 622.5 Q322 623 337 623.5 Q352 624 366.5 624.5 Q381 625 390 625 L384 605 L321 584 L183 78 Q180 66 180 58 Q180 43 192 35.5 Q204 28 232 20 L226 0 Q217 0 204.5 0.5 Q192 1 177.5 1.5 Q163 2 149 2.5 Q135 3 125 3 Q114 3 99.5 2.5 Q85 2 69.5 1.5 Q54 1 40 0.5 Q26 0 17 0 L23 20 L86 41 L224 547 Z M172 701 Q192 753 215 771 Q238 789 264 789 Q278 789 290.5 783 Q303 777 314.5 770.5 Q326 764 337.5 758 Q349 752 362 752 Q376 752 389.5 759 Q403 766 414 784 L431 781 Q411 729 388 711 Q365 693 339 693 Q325 693 312.5 699 Q300 705 288.5 711.5 Q277 718 265.5 724 Q254 730 241 730 Q227 730 213.5 723 Q200 716 189 698 L172 701 Z " />
<glyph glyph-name="Idieresis" unicode="&#xcf;" horiz-adv-x="307" d="M224 547 Q227 559 227 567 Q227 582 215 589.5 Q203 597 175 605 L181 625 Q190 625 202.5 624.5 Q215 624 229 623.5 Q243 623 256.5 622.5 Q270 622 281 622 Q292 622 307 622.5 Q322 623 337 623.5 Q352 624 366.5 624.5 Q381 625 390 625 L384 605 L321 584 L183 78 Q180 66 180 58 Q180 43 192 35.5 Q204 28 232 20 L226 0 Q217 0 204.5 0.5 Q192 1 177.5 1.5 Q163 2 149 2.5 Q135 3 125 3 Q114 3 99.5 2.5 Q85 2 69.5 1.5 Q54 1 40 0.5 Q26 0 17 0 L23 20 L86 41 L224 547 Z M277 742 Q277 719 261 704 Q245 689 224 689 Q208 689 198.5 698.5 Q189 708 189 723 Q189 746 204.5 761 Q220 776 242 776 Q258 776 267.5 766 Q277 756 277 742 Z M416 742 Q416 719 400 704 Q384 689 363 689 Q347 689 337.5 698.5 Q328 708 328 723 Q328 746 343.5 761 Q359 776 381 776 Q397 776 406.5 766 Q416 756 416 742 Z " />
<glyph glyph-name="Imacron" unicode="&#x12a;" horiz-adv-x="307" d="M224 547 Q227 559 227 567 Q227 582 215 589.5 Q203 597 175 605 L181 625 Q190 625 202.5 624.5 Q215 624 229 623.5 Q243 623 256.5 622.5 Q270 622 281 622 Q292 622 307 622.5 Q322 623 337 623.5 Q352 624 366.5 624.5 Q381 625 390 625 L384 605 L321 584 L183 78 Q180 66 180 58 Q180 43 192 35.5 Q204 28 232 20 L226 0 Q217 0 204.5 0.5 Q192 1 177.5 1.5 Q163 2 149 2.5 Q135 3 125 3 Q114 3 99.5 2.5 Q85 2 69.5 1.5 Q54 1 40 0.5 Q26 0 17 0 L23 20 L86 41 L224 547 Z M193 700 L206 746 L418 746 L405 700 L193 700 Z " />
<glyph glyph-name="Ibreve" unicode="&#x12c;" horiz-adv-x="307" d="M224 547 Q227 559 227 567 Q227 582 215 589.5 Q203 597 175 605 L181 625 Q190 625 202.5 624.5 Q215 624 229 623.5 Q243 623 256.5 622.5 Q270 622 281 622 Q292 622 307 622.5 Q322 623 337 623.5 Q352 624 366.5 624.5 Q381 625 390 625 L384 605 L321 584 L183 78 Q180 66 180 58 Q180 43 192 35.5 Q204 28 232 20 L226 0 Q217 0 204.5 0.5 Q192 1 177.5 1.5 Q163 2 149 2.5 Q135 3 125 3 Q114 3 99.5 2.5 Q85 2 69.5 1.5 Q54 1 40 0.5 Q26 0 17 0 L23 20 L86 41 L224 547 Z M295 675 Q253 675 230 696.5 Q207 718 207 753 Q207 769 212 784 L234 784 Q229 755 249 738 Q269 721 303 721 Q337 721 365.5 737.5 Q394 754 406 784 L428 784 Q415 734 381 704.5 Q347 675 295 675 Z " />
<glyph glyph-name="Idotaccent" unicode="&#x130;" horiz-adv-x="307" d="M224 547 Q227 559 227 567 Q227 582 215 589.5 Q203 597 175 605 L181 625 Q190 625 202.5 624.5 Q215 624 229 623.5 Q243 623 256.5 622.5 Q270 622 281 622 Q292 622 307 622.5 Q322 623 337 623.5 Q352 624 366.5 624.5 Q381 625 390 625 L384 605 L321 584 L183 78 Q180 66 180 58 Q180 43 192 35.5 Q204 28 232 20 L226 0 Q217 0 204.5 0.5 Q192 1 177.5 1.5 Q163 2 149 2.5 Q135 3 125 3 Q114 3 99.5 2.5 Q85 2 69.5 1.5 Q54 1 40 0.5 Q26 0 17 0 L23 20 L86 41 L224 547 Z M363 746 Q363 718 343.5 699.5 Q324 681 298 681 Q278 681 266.5 693 Q255 705 255 723 Q255 751 274.5 769.5 Q294 788 320 788 Q340 788 351.5 776 Q363 764 363 746 Z " />
<glyph glyph-name="Iogonek" unicode="&#x12e;" horiz-adv-x="307" d="M108 3 Q85 2 59 1 Q33 0 17 0 L23 20 L86 41 L224 547 Q227 559 227 567 Q227 582 215 589.5 Q203 597 175 605 L181 625 Q190 625 202.5 624.5 Q215 624 229 623.5 Q243 623 256.5 622.5 Q270 622 281 622 Q292 622 307 622.5 Q322 623 337 623.5 Q352 624 366.5 624.5 Q381 625 390 625 L384 605 L321 584 L183 78 Q180 66 180 58 Q180 43 192 35.5 Q204 28 232 20 L226 0 Q213 0 192 0.5 Q171 1 151 2 Q116 -27 96.5 -66 Q77 -105 77 -141 Q77 -167 92 -182.5 Q107 -198 133 -198 Q159 -198 181 -188 L189 -210 Q176 -218 158.5 -222.5 Q141 -227 121 -227 Q70 -227 39 -203.5 Q8 -180 8 -136 Q8 -117 16 -97.5 Q24 -78 38 -60 Q52 -42 70 -26 Q88 -10 108 3 Z " />
<glyph glyph-name="IJ" unicode="&#x132;" horiz-adv-x="610" d="M224 547 Q227 559 227 567 Q227 582 215 589.5 Q203 597 175 605 L181 625 Q190 625 202.5 624.5 Q215 624 229 623.5 Q243 623 256.5 622.5 Q270 622 281 622 Q292 622 307 622.5 Q322 623 337 623.5 Q352 624 366.5 624.5 Q381 625 390 625 L384 605 L321 584 L183 78 Q180 66 180 58 Q180 43 192 35.5 Q204 28 232 20 L226 0 Q217 0 204.5 0.5 Q192 1 177.5 1.5 Q163 2 149 2.5 Q135 3 125 3 Q114 3 99.5 2.5 Q85 2 69.5 1.5 Q54 1 40 0.5 Q26 0 17 0 L23 20 L86 41 L224 547 Z M485 625 Q511 625 534.5 623.5 Q558 622 584 622 Q612 622 639.5 623.5 Q667 625 694 625 L688 605 L625 584 L489 85 Q475 35 455.5 -13.5 Q436 -62 406 -102.5 Q376 -143 332 -173 Q288 -203 225 -217 L218 -192 Q252 -179 279 -157 Q306 -135 328 -102.5 Q350 -70 367.5 -25 Q385 20 401 80 L528 547 Q531 559 531 567 Q531 582 519 589.5 Q507 597 479 605 L485 625 L485 625 Z " />
<glyph glyph-name="Jcircumflex" unicode="&#x134;" horiz-adv-x="303" d="M178 625 Q204 625 227.5 623.5 Q251 622 277 622 Q305 622 332.5 623.5 Q360 625 387 625 L381 605 L318 584 L182 85 Q168 35 148.5 -13.5 Q129 -62 99 -102.5 Q69 -143 25 -173 Q-19 -203 -82 -217 L-89 -192 Q-55 -179 -28 -157 Q-1 -135 21 -102.5 Q43 -70 60.5 -25 Q78 20 94 80 L221 547 Q224 559 224 567 Q224 582 212 589.5 Q200 597 172 605 L178 625 L178 625 Z M389 669 L310 739 L192 669 L181 679 L301 795 L344 795 L402 676 L389 669 Z " />
<glyph glyph-name="Kcommaaccent" unicode="&#x136;" horiz-adv-x="598" d="M387 402 L473 83 Q480 58 490 48.5 Q500 39 517 39 Q526 39 537 42 Q548 45 557 50 L548 19 Q534 6 514 -1.5 Q494 -9 476 -9 Q443 -9 423 10 Q403 29 392 71 L320 338 L228 252 L181 78 Q178 66 178 58 Q178 43 190.5 35.5 Q203 28 230 20 L224 0 Q216 0 202 0.5 Q188 1 173 1.5 Q158 2 143.5 2.5 Q129 3 119 3 Q108 3 93.5 2.5 Q79 2 64.5 1.5 Q50 1 37 0.5 Q24 0 15 0 L21 20 L84 41 L222 547 Q225 559 225 567 Q225 582 213 589.5 Q201 597 173 605 L179 625 Q188 625 201.5 624.5 Q215 624 229.5 623.5 Q244 623 258.5 622.5 Q273 622 283 622 Q306 622 337.5 623.5 Q369 625 388 625 L382 605 L319 584 L248 325 L530 590 L475 605 L480 625 Q500 625 529 623 Q558 621 577 621 Q600 621 627.5 623 Q655 625 668 625 L663 605 Q639 602 622.5 597.5 Q606 593 592 585.5 Q578 578 563.5 566.5 Q549 555 529 536 L387 402 Z M335 -102 Q335 -147 303.5 -189.5 Q272 -232 224 -258 L213 -242 Q226 -232 238.5 -220 Q251 -208 260.5 -195.5 Q270 -183 275.5 -170.5 Q281 -158 281 -147 Q281 -138 276.5 -131.5 Q272 -125 266 -119.5 Q260 -114 255.5 -108.5 Q251 -103 251 -95 Q251 -81 264.5 -68 Q278 -55 298 -55 Q317 -55 326 -68.5 Q335 -82 335 -102 Z " />
<glyph glyph-name="Lacute" unicode="&#x139;" horiz-adv-x="485" d="M222 547 Q225 559 225 567 Q225 582 213 589.5 Q201 597 173 605 L179 625 Q187 625 200 624.5 Q213 624 227 623.5 Q241 623 254.5 622.5 Q268 622 278 622 Q289 622 304.5 622.5 Q320 623 335.5 623.5 Q351 624 365 624.5 Q379 625 388 625 L382 605 L319 584 L182 80 Q180 72 180 67 Q180 53 198.5 46 Q217 39 263 39 Q313 39 339.5 45 Q366 51 385 62 Q404 73 418 91 Q432 109 450 147 L471 147 Q466 134 460 114 Q454 94 447 72.5 Q440 51 434.5 31.5 Q429 12 426 0 L15 0 L21 20 L84 41 L222 547 Z M398 739 L211 670 L204 682 L344 780 Q359 790 366 790 Q374 790 380 780 L399 749 L398 739 Z " />
<glyph glyph-name="Lcaron" unicode="&#x13d;" horiz-adv-x="485" d="M222 547 Q225 559 225 567 Q225 582 213 589.5 Q201 597 173 605 L179 625 Q187 625 200 624.5 Q213 624 227 623.5 Q241 623 254.5 622.5 Q268 622 278 622 Q289 622 304.5 622.5 Q320 623 335.5 623.5 Q351 624 365 624.5 Q379 625 388 625 L382 605 L319 584 L182 80 Q180 72 180 67 Q180 53 198.5 46 Q217 39 263 39 Q313 39 339.5 45 Q366 51 385 62 Q404 73 418 91 Q432 109 450 147 L471 147 Q466 134 460 114 Q454 94 447 72.5 Q440 51 434.5 31.5 Q429 12 426 0 L15 0 L21 20 L84 41 L222 547 Z M517 601 Q517 556 485.5 513.5 Q454 471 406 445 L395 461 Q408 471 420.5 483 Q433 495 442.5 507.5 Q452 520 457.5 532.5 Q463 545 463 556 Q463 565 458.5 571.5 Q454 578 448 583.5 Q442 589 437.5 594.5 Q433 600 433 608 Q433 622 446.5 635 Q460 648 480 648 Q499 648 508 634.5 Q517 621 517 601 Z " />
<glyph glyph-name="Lcommaaccent" unicode="&#x13b;" horiz-adv-x="485" d="M222 547 Q225 559 225 567 Q225 582 213 589.5 Q201 597 173 605 L179 625 Q187 625 200 624.5 Q213 624 227 623.5 Q241 623 254.5 622.5 Q268 622 278 622 Q289 622 304.5 622.5 Q320 623 335.5 623.5 Q351 624 365 624.5 Q379 625 388 625 L382 605 L319 584 L182 80 Q180 72 180 67 Q180 53 198.5 46 Q217 39 263 39 Q313 39 339.5 45 Q366 51 385 62 Q404 73 418 91 Q432 109 450 147 L471 147 Q466 134 460 114 Q454 94 447 72.5 Q440 51 434.5 31.5 Q429 12 426 0 L15 0 L21 20 L84 41 L222 547 Z M287 -102 Q287 -147 255.5 -189.5 Q224 -232 176 -258 L165 -242 Q178 -232 190.5 -220 Q203 -208 212.5 -195.5 Q222 -183 227.5 -170.5 Q233 -158 233 -147 Q233 -138 228.5 -131.5 Q224 -125 218 -119.5 Q212 -114 207.5 -108.5 Q203 -103 203 -95 Q203 -81 216.5 -68 Q230 -55 250 -55 Q269 -55 278 -68.5 Q287 -82 287 -102 Z " />
<glyph glyph-name="Lslash" unicode="&#x141;" horiz-adv-x="485" d="M246 320 L181 80 Q179 72 179 67 Q179 53 196.5 45.5 Q214 38 260 38 Q311 38 338.5 42.5 Q366 47 385 58 Q404 69 418 88 Q432 107 450 147 L471 147 Q466 134 460 114 Q454 94 447 72.5 Q440 51 434.5 31.5 Q429 12 426 0 L15 0 L21 20 L84 41 L146 269 L68 230 L51 267 L161 322 L222 547 Q225 559 225 567 Q225 582 213 589.5 Q201 597 173 605 L179 625 Q187 625 200 624.5 Q213 624 227 623.5 Q241 623 254.5 622.5 Q268 622 278 622 Q289 622 304.5 622.5 Q320 623 335.5 623.5 Q351 624 365 624.5 Q379 625 388 625 L382 605 L319 584 L261 372 L383 434 L400 397 L246 320 Z " />
<glyph glyph-name="Ldot" unicode="&#x13f;" horiz-adv-x="485" d="M222 547 Q225 559 225 567 Q225 582 213 589.5 Q201 597 173 605 L179 625 Q187 625 200 624.5 Q213 624 227 623.5 Q241 623 254.5 622.5 Q268 622 278 622 Q289 622 304.5 622.5 Q320 623 335.5 623.5 Q351 624 365 624.5 Q379 625 388 625 L382 605 L319 584 L182 80 Q180 72 180 67 Q180 53 198.5 46 Q217 39 263 39 Q313 39 339.5 45 Q366 51 385 62 Q404 73 418 91 Q432 109 450 147 L471 147 Q466 134 460 114 Q454 94 447 72.5 Q440 51 434.5 31.5 Q429 12 426 0 L15 0 L21 20 L84 41 L222 547 Z M492 321 Q492 293 472.5 274.5 Q453 256 427 256 Q407 256 395.5 268 Q384 280 384 298 Q384 326 403.5 344.5 Q423 363 449 363 Q469 363 480.5 351 Q492 339 492 321 Z " />
<glyph glyph-name="Nacute" unicode="&#x143;" horiz-adv-x="674" d="M293 625 L526 149 L635 547 Q638 559 638 567 Q638 582 626 589.5 Q614 597 586 605 L592 625 Q609 625 633 623.5 Q657 622 678 622 Q700 622 722.5 623.5 Q745 625 764 625 L758 605 L695 584 L534 -4 L507 -4 L261 499 L145 78 Q142 66 142 58 Q142 43 154 35.5 Q166 28 194 20 L188 0 Q171 0 147 1.5 Q123 3 102 3 Q80 3 57 1.5 Q34 0 15 0 L21 20 L84 41 L222 547 Q225 559 225 567 Q225 582 213 589.5 Q201 597 173 605 L179 625 L293 625 Z M580 739 L393 670 L386 682 L526 780 Q541 790 548 790 Q556 790 562 780 L581 749 L580 739 Z " />
<glyph glyph-name="Ncaron" unicode="&#x147;" horiz-adv-x="674" d="M293 625 L526 149 L635 547 Q638 559 638 567 Q638 582 626 589.5 Q614 597 586 605 L592 625 Q609 625 633 623.5 Q657 622 678 622 Q700 622 722.5 623.5 Q745 625 764 625 L758 605 L695 584 L534 -4 L507 -4 L261 499 L145 78 Q142 66 142 58 Q142 43 154 35.5 Q166 28 194 20 L188 0 Q171 0 147 1.5 Q123 3 102 3 Q80 3 57 1.5 Q34 0 15 0 L21 20 L84 41 L222 547 Q225 559 225 567 Q225 582 213 589.5 Q201 597 173 605 L179 625 L293 625 Z M406 799 L485 729 L603 799 L614 789 L494 673 L451 673 L393 792 L406 799 Z " />
<glyph glyph-name="Ntilde" unicode="&#xd1;" horiz-adv-x="674" d="M293 625 L526 149 L635 547 Q638 559 638 567 Q638 582 626 589.5 Q614 597 586 605 L592 625 Q609 625 633 623.5 Q657 622 678 622 Q700 622 722.5 623.5 Q745 625 764 625 L758 605 L695 584 L534 -4 L507 -4 L261 499 L145 78 Q142 66 142 58 Q142 43 154 35.5 Q166 28 194 20 L188 0 Q171 0 147 1.5 Q123 3 102 3 Q80 3 57 1.5 Q34 0 15 0 L21 20 L84 41 L222 547 Q225 559 225 567 Q225 582 213 589.5 Q201 597 173 605 L179 625 L293 625 Z M365 701 Q385 753 408 771 Q431 789 457 789 Q471 789 483.5 783 Q496 777 507.5 770.5 Q519 764 530.5 758 Q542 752 555 752 Q569 752 582.5 759 Q596 766 607 784 L624 781 Q604 729 581 711 Q558 693 532 693 Q518 693 505.5 699 Q493 705 481.5 711.5 Q470 718 458.5 724 Q447 730 434 730 Q420 730 406.5 723 Q393 716 382 698 L365 701 Z " />
<glyph glyph-name="Ncommaaccent" unicode="&#x145;" horiz-adv-x="674" d="M293 625 L526 149 L635 547 Q638 559 638 567 Q638 582 626 589.5 Q614 597 586 605 L592 625 Q609 625 633 623.5 Q657 622 678 622 Q700 622 722.5 623.5 Q745 625 764 625 L758 605 L695 584 L534 -4 L507 -4 L261 499 L145 78 Q142 66 142 58 Q142 43 154 35.5 Q166 28 194 20 L188 0 Q171 0 147 1.5 Q123 3 102 3 Q80 3 57 1.5 Q34 0 15 0 L21 20 L84 41 L222 547 Q225 559 225 567 Q225 582 213 589.5 Q201 597 173 605 L179 625 L293 625 Z M349 -102 Q349 -147 317.5 -189.5 Q286 -232 238 -258 L227 -242 Q240 -232 252.5 -220 Q265 -208 274.5 -195.5 Q284 -183 289.5 -170.5 Q295 -158 295 -147 Q295 -138 290.5 -131.5 Q286 -125 280 -119.5 Q274 -114 269.5 -108.5 Q265 -103 265 -95 Q265 -81 278.5 -68 Q292 -55 312 -55 Q331 -55 340 -68.5 Q349 -82 349 -102 Z " />
<glyph glyph-name="Eng" unicode="&#x14a;" horiz-adv-x="674" d="M393 -92 Q425 -92 450 -67 Q475 -42 488 5 L493 24 L261 499 L145 78 Q142 66 142 58 Q142 43 154 35.5 Q166 28 194 20 L188 0 Q171 0 147 1.5 Q123 3 102 3 Q80 3 57 1.5 Q34 0 15 0 L21 20 L84 41 L222 547 Q225 559 225 567 Q225 582 213 589.5 Q201 597 173 605 L179 625 L293 625 L526 149 L635 547 Q638 559 638 567 Q638 582 626 589.5 Q614 597 586 605 L592 625 Q609 625 633 623.5 Q657 622 678 622 Q700 622 722.5 623.5 Q745 625 764 625 L758 605 L695 584 L537 7 Q526 -31 511.5 -63 Q497 -95 477 -118.5 Q457 -142 430.5 -155.5 Q404 -169 370 -169 Q349 -169 328 -163 Q307 -157 295 -150 Q291 -148 290 -145 Q289 -142 292 -135 L316 -75 L325 -72 Q345 -83 360.5 -87.5 Q376 -92 393 -92 Z " />
<glyph glyph-name="Ograve" unicode="&#xd2;" horiz-adv-x="610" d="M282 30 Q315 30 346 48.5 Q377 67 403.5 98.5 Q430 130 452 171 Q474 212 490 257.5 Q506 303 514.5 350 Q523 397 523 439 Q523 516 495 555.5 Q467 595 422 595 Q389 595 358 576.5 Q327 558 300.5 526.5 Q274 495 252 454 Q230 413 214 367.5 Q198 322 189.5 275 Q181 228 181 186 Q181 109 209 69.5 Q237 30 282 30 Z M276 -15 Q233 -15 198 0 Q163 15 138.5 42.5 Q114 70 101 109 Q88 148 88 196 Q88 269 113 347.5 Q138 426 183 491 Q228 556 290.5 598 Q353 640 428 640 Q471 640 506 625 Q541 610 565.5 582.5 Q590 555 603 516 Q616 477 616 429 Q616 356 591 277.5 Q566 199 521 134 Q476 69 413.5 27 Q351 -15 276 -15 Z M367 749 L397 780 Q407 790 414 790 Q421 790 436 776 L543 675 L534 664 L369 739 L367 749 Z " />
<glyph glyph-name="Oacute" unicode="&#xd3;" horiz-adv-x="610" d="M282 30 Q315 30 346 48.5 Q377 67 403.5 98.5 Q430 130 452 171 Q474 212 490 257.5 Q506 303 514.5 350 Q523 397 523 439 Q523 516 495 555.5 Q467 595 422 595 Q389 595 358 576.5 Q327 558 300.5 526.5 Q274 495 252 454 Q230 413 214 367.5 Q198 322 189.5 275 Q181 228 181 186 Q181 109 209 69.5 Q237 30 282 30 Z M276 -15 Q233 -15 198 0 Q163 15 138.5 42.5 Q114 70 101 109 Q88 148 88 196 Q88 269 113 347.5 Q138 426 183 491 Q228 556 290.5 598 Q353 640 428 640 Q471 640 506 625 Q541 610 565.5 582.5 Q590 555 603 516 Q616 477 616 429 Q616 356 591 277.5 Q566 199 521 134 Q476 69 413.5 27 Q351 -15 276 -15 Z M551 739 L364 670 L357 682 L497 780 Q512 790 519 790 Q527 790 533 780 L552 749 L551 739 Z " />
<glyph glyph-name="Ocircumflex" unicode="&#xd4;" horiz-adv-x="610" d="M282 30 Q315 30 346 48.5 Q377 67 403.5 98.5 Q430 130 452 171 Q474 212 490 257.5 Q506 303 514.5 350 Q523 397 523 439 Q523 516 495 555.5 Q467 595 422 595 Q389 595 358 576.5 Q327 558 300.5 526.5 Q274 495 252 454 Q230 413 214 367.5 Q198 322 189.5 275 Q181 228 181 186 Q181 109 209 69.5 Q237 30 282 30 Z M276 -15 Q233 -15 198 0 Q163 15 138.5 42.5 Q114 70 101 109 Q88 148 88 196 Q88 269 113 347.5 Q138 426 183 491 Q228 556 290.5 598 Q353 640 428 640 Q471 640 506 625 Q541 610 565.5 582.5 Q590 555 603 516 Q616 477 616 429 Q616 356 591 277.5 Q566 199 521 134 Q476 69 413.5 27 Q351 -15 276 -15 Z M542 669 L463 739 L345 669 L334 679 L454 795 L497 795 L555 676 L542 669 Z " />
<glyph glyph-name="Otilde" unicode="&#xd5;" horiz-adv-x="610" d="M282 30 Q315 30 346 48.5 Q377 67 403.5 98.5 Q430 130 452 171 Q474 212 490 257.5 Q506 303 514.5 350 Q523 397 523 439 Q523 516 495 555.5 Q467 595 422 595 Q389 595 358 576.5 Q327 558 300.5 526.5 Q274 495 252 454 Q230 413 214 367.5 Q198 322 189.5 275 Q181 228 181 186 Q181 109 209 69.5 Q237 30 282 30 Z M276 -15 Q233 -15 198 0 Q163 15 138.5 42.5 Q114 70 101 109 Q88 148 88 196 Q88 269 113 347.5 Q138 426 183 491 Q228 556 290.5 598 Q353 640 428 640 Q471 640 506 625 Q541 610 565.5 582.5 Q590 555 603 516 Q616 477 616 429 Q616 356 591 277.5 Q566 199 521 134 Q476 69 413.5 27 Q351 -15 276 -15 Z M325 701 Q345 753 368 771 Q391 789 417 789 Q431 789 443.5 783 Q456 777 467.5 770.5 Q479 764 490.5 758 Q502 752 515 752 Q529 752 542.5 759 Q556 766 567 784 L584 781 Q564 729 541 711 Q518 693 492 693 Q478 693 465.5 699 Q453 705 441.5 711.5 Q430 718 418.5 724 Q407 730 394 730 Q380 730 366.5 723 Q353 716 342 698 L325 701 Z " />
<glyph glyph-name="Odieresis" unicode="&#xd6;" horiz-adv-x="610" d="M282 30 Q315 30 346 48.5 Q377 67 403.5 98.5 Q430 130 452 171 Q474 212 490 257.5 Q506 303 514.5 350 Q523 397 523 439 Q523 516 495 555.5 Q467 595 422 595 Q389 595 358 576.5 Q327 558 300.5 526.5 Q274 495 252 454 Q230 413 214 367.5 Q198 322 189.5 275 Q181 228 181 186 Q181 109 209 69.5 Q237 30 282 30 Z M276 -15 Q233 -15 198 0 Q163 15 138.5 42.5 Q114 70 101 109 Q88 148 88 196 Q88 269 113 347.5 Q138 426 183 491 Q228 556 290.5 598 Q353 640 428 640 Q471 640 506 625 Q541 610 565.5 582.5 Q590 555 603 516 Q616 477 616 429 Q616 356 591 277.5 Q566 199 521 134 Q476 69 413.5 27 Q351 -15 276 -15 Z M429 742 Q429 719 413 704 Q397 689 376 689 Q360 689 350.5 698.5 Q341 708 341 723 Q341 746 356.5 761 Q372 776 394 776 Q410 776 419.5 766 Q429 756 429 742 Z M568 742 Q568 719 552 704 Q536 689 515 689 Q499 689 489.5 698.5 Q480 708 480 723 Q480 746 495.5 761 Q511 776 533 776 Q549 776 558.5 766 Q568 756 568 742 Z " />
<glyph glyph-name="Omacron" unicode="&#x14c;" horiz-adv-x="610" d="M282 30 Q315 30 346 48.5 Q377 67 403.5 98.5 Q430 130 452 171 Q474 212 490 257.5 Q506 303 514.5 350 Q523 397 523 439 Q523 516 495 555.5 Q467 595 422 595 Q389 595 358 576.5 Q327 558 300.5 526.5 Q274 495 252 454 Q230 413 214 367.5 Q198 322 189.5 275 Q181 228 181 186 Q181 109 209 69.5 Q237 30 282 30 Z M276 -15 Q233 -15 198 0 Q163 15 138.5 42.5 Q114 70 101 109 Q88 148 88 196 Q88 269 113 347.5 Q138 426 183 491 Q228 556 290.5 598 Q353 640 428 640 Q471 640 506 625 Q541 610 565.5 582.5 Q590 555 603 516 Q616 477 616 429 Q616 356 591 277.5 Q566 199 521 134 Q476 69 413.5 27 Q351 -15 276 -15 Z M339 700 L352 746 L564 746 L551 700 L339 700 Z " />
<glyph glyph-name="Obreve" unicode="&#x14e;" horiz-adv-x="610" d="M282 30 Q315 30 346 48.5 Q377 67 403.5 98.5 Q430 130 452 171 Q474 212 490 257.5 Q506 303 514.5 350 Q523 397 523 439 Q523 516 495 555.5 Q467 595 422 595 Q389 595 358 576.5 Q327 558 300.5 526.5 Q274 495 252 454 Q230 413 214 367.5 Q198 322 189.5 275 Q181 228 181 186 Q181 109 209 69.5 Q237 30 282 30 Z M276 -15 Q233 -15 198 0 Q163 15 138.5 42.5 Q114 70 101 109 Q88 148 88 196 Q88 269 113 347.5 Q138 426 183 491 Q228 556 290.5 598 Q353 640 428 640 Q471 640 506 625 Q541 610 565.5 582.5 Q590 555 603 516 Q616 477 616 429 Q616 356 591 277.5 Q566 199 521 134 Q476 69 413.5 27 Q351 -15 276 -15 Z M430 675 Q388 675 365 696.5 Q342 718 342 753 Q342 769 347 784 L369 784 Q364 755 384 738 Q404 721 438 721 Q472 721 500.5 737.5 Q529 754 541 784 L563 784 Q550 734 516 704.5 Q482 675 430 675 Z " />
<glyph glyph-name="Ohungarumlaut" unicode="&#x150;" horiz-adv-x="610" d="M282 30 Q315 30 346 48.5 Q377 67 403.5 98.5 Q430 130 452 171 Q474 212 490 257.5 Q506 303 514.5 350 Q523 397 523 439 Q523 516 495 555.5 Q467 595 422 595 Q389 595 358 576.5 Q327 558 300.5 526.5 Q274 495 252 454 Q230 413 214 367.5 Q198 322 189.5 275 Q181 228 181 186 Q181 109 209 69.5 Q237 30 282 30 Z M276 -15 Q233 -15 198 0 Q163 15 138.5 42.5 Q114 70 101 109 Q88 148 88 196 Q88 269 113 347.5 Q138 426 183 491 Q228 556 290.5 598 Q353 640 428 640 Q471 640 506 625 Q541 610 565.5 582.5 Q590 555 603 516 Q616 477 616 429 Q616 356 591 277.5 Q566 199 521 134 Q476 69 413.5 27 Q351 -15 276 -15 Z M463 755 L309 679 L303 689 L412 790 Q418 795 422.5 798 Q427 801 432 801 Q440 801 448 790 L465 764 L463 755 Z M604 755 L450 679 L444 689 L553 790 Q559 795 563.5 798 Q568 801 573 801 Q581 801 589 790 L606 764 L604 755 Z " />
<glyph glyph-name="Oslash" unicode="&#xd8;" horiz-adv-x="610" d="M276 -15 Q231 -15 194 2 L149 -76 L103 -76 L160 22 Q125 49 106.5 93.5 Q88 138 88 196 Q88 269 113 347.5 Q138 426 183 491 Q228 556 290.5 598 Q353 640 428 640 Q471 640 508 624 L553 701 L599 701 L542 603 Q577 576 596.5 531.5 Q616 487 616 429 Q616 356 591 277.5 Q566 199 521 134 Q476 69 413.5 27 Q351 -15 276 -15 Z M282 30 Q315 30 346 48.5 Q377 67 403.5 98.5 Q430 130 452 171 Q474 212 490 257.5 Q506 303 514.5 350 Q523 397 523 439 Q523 498 504 538 L223 52 Q246 30 282 30 Z M181 186 Q181 128 198 89 L479 573 Q454 595 422 595 Q389 595 358 576.5 Q327 558 300.5 526.5 Q274 495 252 454 Q230 413 214 367.5 Q198 322 189.5 275 Q181 228 181 186 Z " />
<glyph glyph-name="Oslashacute" unicode="&#x1fe;" horiz-adv-x="610" d="M276 -15 Q231 -15 194 2 L149 -76 L103 -76 L160 22 Q125 49 106.5 93.5 Q88 138 88 196 Q88 269 113 347.5 Q138 426 183 491 Q228 556 290.5 598 Q353 640 428 640 Q471 640 508 624 L553 701 L599 701 L542 603 Q577 576 596.5 531.5 Q616 487 616 429 Q616 356 591 277.5 Q566 199 521 134 Q476 69 413.5 27 Q351 -15 276 -15 Z M282 30 Q315 30 346 48.5 Q377 67 403.5 98.5 Q430 130 452 171 Q474 212 490 257.5 Q506 303 514.5 350 Q523 397 523 439 Q523 498 504 538 L223 52 Q246 30 282 30 Z M181 186 Q181 128 198 89 L479 573 Q454 595 422 595 Q389 595 358 576.5 Q327 558 300.5 526.5 Q274 495 252 454 Q230 413 214 367.5 Q198 322 189.5 275 Q181 228 181 186 Z M548 739 L361 670 L354 682 L494 780 Q509 790 516 790 Q524 790 530 780 L549 749 L548 739 Z " />
<glyph glyph-name="OE" unicode="&#x152;" horiz-adv-x="843" d="M278 -15 Q183 -15 134.5 43 Q86 101 86 198 Q86 240 96.5 289 Q107 338 126.5 387 Q146 436 175.5 481.5 Q205 527 243 562.5 Q281 598 327.5 619 Q374 640 429 640 Q477 640 517.5 632.5 Q558 625 601 625 L901 625 Q897 611 892.5 591 Q888 571 883.5 549.5 Q879 528 875.5 508.5 Q872 489 870 477 L845 477 Q846 482 846.5 489 Q847 496 847 503 Q847 523 843 538.5 Q839 554 829 563 Q812 579 781.5 583.5 Q751 588 713 588 Q693 588 668.5 587.5 Q644 587 630 586 L563 341 L623 341 Q635 341 653 341.5 Q671 342 689.5 343 Q708 344 722.5 345 Q737 346 741 348 L723 298 Q719 299 706.5 300 Q694 301 678 302 Q662 303 644.5 303.5 Q627 304 614 304 L552 304 L492 81 Q490 73 490 68 Q490 54 508 46 Q526 38 573 38 Q604 38 625.5 39 Q647 40 662 42.5 Q677 45 687.5 49 Q698 53 706 58 Q725 70 739 90 Q753 110 771 147 L792 147 Q787 134 781 114 Q775 94 768 72.5 Q761 51 755.5 31.5 Q750 12 747 0 L444 0 Q420 0 399 -2.5 Q378 -5 358.5 -7.5 Q339 -10 319.5 -12.5 Q300 -15 278 -15 Z M292 29 Q320 29 341.5 37.5 Q363 46 380 61 Q394 74 404 93.5 Q414 113 422 143 L516 490 Q519 501 521.5 513 Q524 525 524 536 Q524 566 499 581 Q474 596 431 596 Q389 596 357.5 578 Q326 560 303 533 Q274 499 251 452.5 Q228 406 212 356.5 Q196 307 187.5 258.5 Q179 210 179 171 Q179 97 210 63 Q241 29 292 29 Z " />
<glyph glyph-name="Thorn" unicode="&#xde;" horiz-adv-x="534" d="M222 547 Q225 559 225 567 Q225 582 213 589.5 Q201 597 173 605 L179 625 Q188 625 200.5 624.5 Q213 624 227 623.5 Q241 623 254.5 622.5 Q268 622 279 622 Q290 622 305 622.5 Q320 623 335 623.5 Q350 624 364.5 624.5 Q379 625 388 625 L382 605 L319 584 L296 501 L339 501 Q452 501 503 453 Q542 416 542 354 Q542 316 526.5 276.5 Q511 237 481 208 Q403 133 259 133 L196 133 L181 78 Q178 66 178 58 Q178 43 190 35.5 Q202 28 230 20 L224 0 Q215 0 202.5 0.5 Q190 1 175.5 1.5 Q161 2 147 2.5 Q133 3 123 3 Q112 3 97.5 2.5 Q83 2 67.5 1.5 Q52 1 38 0.5 Q24 0 15 0 L21 20 L84 41 L222 547 Z M285 461 L206 170 L247 170 Q340 170 393 221 Q419 247 434.5 284 Q450 321 450 357 Q450 403 425 430 Q409 446 383.5 453.5 Q358 461 319 461 L285 461 Z " />
<glyph glyph-name="Racute" unicode="&#x154;" horiz-adv-x="585" d="M473 90 Q479 61 489 50 Q499 39 517 39 Q526 39 536.5 41.5 Q547 44 555 48 L545 18 Q531 7 512 -1 Q493 -9 473 -9 Q436 -9 418.5 10.5 Q401 30 391 77 L366 200 Q361 223 355.5 237.5 Q350 252 341.5 259.5 Q333 267 320 269.5 Q307 272 288 272 L234 272 L181 78 Q178 66 178 58 Q178 43 190 35.5 Q202 28 230 20 L224 0 Q215 0 202.5 0.5 Q190 1 175.5 1.5 Q161 2 147 2.5 Q133 3 123 3 Q112 3 97.5 2.5 Q83 2 67.5 1.5 Q52 1 38 0.5 Q24 0 15 0 L21 20 L84 41 L222 547 Q225 559 225 567 Q225 582 213 589.5 Q201 597 173 605 L179 625 L380 625 Q429 625 467.5 615.5 Q506 606 531 585 Q575 549 575 482 Q575 448 562 417.5 Q549 387 526.5 362 Q504 337 473 318.5 Q442 300 406 291 Q424 280 432.5 263 Q441 246 447 216 L473 90 Z M244 310 L280 310 Q331 310 368 323.5 Q405 337 431 363 Q458 389 470.5 423.5 Q483 458 483 486 Q483 531 459 555 Q442 572 417.5 578 Q393 584 354 584 L319 584 L244 310 Z M513 739 L326 670 L319 682 L459 780 Q474 790 481 790 Q489 790 495 780 L514 749 L513 739 Z " />
<glyph glyph-name="Rcaron" unicode="&#x158;" horiz-adv-x="585" d="M473 90 Q479 61 489 50 Q499 39 517 39 Q526 39 536.5 41.5 Q547 44 555 48 L545 18 Q531 7 512 -1 Q493 -9 473 -9 Q436 -9 418.5 10.5 Q401 30 391 77 L366 200 Q361 223 355.5 237.5 Q350 252 341.5 259.5 Q333 267 320 269.5 Q307 272 288 272 L234 272 L181 78 Q178 66 178 58 Q178 43 190 35.5 Q202 28 230 20 L224 0 Q215 0 202.5 0.5 Q190 1 175.5 1.5 Q161 2 147 2.5 Q133 3 123 3 Q112 3 97.5 2.5 Q83 2 67.5 1.5 Q52 1 38 0.5 Q24 0 15 0 L21 20 L84 41 L222 547 Q225 559 225 567 Q225 582 213 589.5 Q201 597 173 605 L179 625 L380 625 Q429 625 467.5 615.5 Q506 606 531 585 Q575 549 575 482 Q575 448 562 417.5 Q549 387 526.5 362 Q504 337 473 318.5 Q442 300 406 291 Q424 280 432.5 263 Q441 246 447 216 L473 90 Z M244 310 L280 310 Q331 310 368 323.5 Q405 337 431 363 Q458 389 470.5 423.5 Q483 458 483 486 Q483 531 459 555 Q442 572 417.5 578 Q393 584 354 584 L319 584 L244 310 Z M340 799 L419 729 L537 799 L548 789 L428 673 L385 673 L327 792 L340 799 Z " />
<glyph glyph-name="Rcommaaccent" unicode="&#x156;" horiz-adv-x="585" d="M473 90 Q479 61 489 50 Q499 39 517 39 Q526 39 536.5 41.5 Q547 44 555 48 L545 18 Q531 7 512 -1 Q493 -9 473 -9 Q436 -9 418.5 10.5 Q401 30 391 77 L366 200 Q361 223 355.5 237.5 Q350 252 341.5 259.5 Q333 267 320 269.5 Q307 272 288 272 L234 272 L181 78 Q178 66 178 58 Q178 43 190 35.5 Q202 28 230 20 L224 0 Q215 0 202.5 0.5 Q190 1 175.5 1.5 Q161 2 147 2.5 Q133 3 123 3 Q112 3 97.5 2.5 Q83 2 67.5 1.5 Q52 1 38 0.5 Q24 0 15 0 L21 20 L84 41 L222 547 Q225 559 225 567 Q225 582 213 589.5 Q201 597 173 605 L179 625 L380 625 Q429 625 467.5 615.5 Q506 606 531 585 Q575 549 575 482 Q575 448 562 417.5 Q549 387 526.5 362 Q504 337 473 318.5 Q442 300 406 291 Q424 280 432.5 263 Q441 246 447 216 L473 90 Z M244 310 L280 310 Q331 310 368 323.5 Q405 337 431 363 Q458 389 470.5 423.5 Q483 458 483 486 Q483 531 459 555 Q442 572 417.5 578 Q393 584 354 584 L319 584 L244 310 Z M319 -102 Q319 -147 287.5 -189.5 Q256 -232 208 -258 L197 -242 Q210 -232 222.5 -220 Q235 -208 244.5 -195.5 Q254 -183 259.5 -170.5 Q265 -158 265 -147 Q265 -138 260.5 -131.5 Q256 -125 250 -119.5 Q244 -114 239.5 -108.5 Q235 -103 235 -95 Q235 -81 248.5 -68 Q262 -55 282 -55 Q301 -55 310 -68.5 Q319 -82 319 -102 Z " />
<glyph glyph-name="Sacute" unicode="&#x15a;" horiz-adv-x="495" d="M536 613 Q532 601 527.5 583.5 Q523 566 518.5 546.5 Q514 527 510 508.5 Q506 490 504 477 L484 477 Q484 598 379 598 Q349 598 324.5 588.5 Q300 579 282.5 563 Q265 547 255.5 525 Q246 503 246 478 Q246 449 260.5 425 Q275 401 297 380 Q319 359 344.5 338.5 Q370 318 392 295 Q414 272 428.5 244 Q443 216 443 181 Q443 134 425 98 Q407 62 375.5 36.5 Q344 11 301 -2 Q258 -15 209 -15 Q189 -15 167 -12 Q145 -9 123.5 -4 Q102 1 83 7.5 Q64 14 49 22 Q60 57 69 91.5 Q78 126 86 158 L106 158 Q105 154 105 149 Q105 144 105 139 Q105 81 137.5 53.5 Q170 26 218 26 Q248 26 273.5 35.5 Q299 45 317.5 62 Q336 79 347 104 Q358 129 358 159 Q358 190 343.5 214 Q329 238 307 258.5 Q285 279 259.5 299 Q234 319 212 341.5 Q190 364 175.5 391.5 Q161 419 161 456 Q161 495 177 529 Q193 563 222 587.5 Q251 612 293 626 Q335 640 386 640 Q426 640 464 630.5 Q502 621 536 613 Z M504 739 L317 670 L310 682 L450 780 Q465 790 472 790 Q480 790 486 780 L505 749 L504 739 Z " />
<glyph glyph-name="Scircumflex" unicode="&#x15c;" horiz-adv-x="495" d="M536 613 Q532 601 527.5 583.5 Q523 566 518.5 546.5 Q514 527 510 508.5 Q506 490 504 477 L484 477 Q484 598 379 598 Q349 598 324.5 588.5 Q300 579 282.5 563 Q265 547 255.5 525 Q246 503 246 478 Q246 449 260.5 425 Q275 401 297 380 Q319 359 344.5 338.5 Q370 318 392 295 Q414 272 428.5 244 Q443 216 443 181 Q443 134 425 98 Q407 62 375.5 36.5 Q344 11 301 -2 Q258 -15 209 -15 Q189 -15 167 -12 Q145 -9 123.5 -4 Q102 1 83 7.5 Q64 14 49 22 Q60 57 69 91.5 Q78 126 86 158 L106 158 Q105 154 105 149 Q105 144 105 139 Q105 81 137.5 53.5 Q170 26 218 26 Q248 26 273.5 35.5 Q299 45 317.5 62 Q336 79 347 104 Q358 129 358 159 Q358 190 343.5 214 Q329 238 307 258.5 Q285 279 259.5 299 Q234 319 212 341.5 Q190 364 175.5 391.5 Q161 419 161 456 Q161 495 177 529 Q193 563 222 587.5 Q251 612 293 626 Q335 640 386 640 Q426 640 464 630.5 Q502 621 536 613 Z M495 669 L416 739 L298 669 L287 679 L407 795 L450 795 L508 676 L495 669 Z " />
<glyph glyph-name="Scaron" unicode="&#x160;" horiz-adv-x="495" d="M536 613 Q532 601 527.5 583.5 Q523 566 518.5 546.5 Q514 527 510 508.5 Q506 490 504 477 L484 477 Q484 598 379 598 Q349 598 324.5 588.5 Q300 579 282.5 563 Q265 547 255.5 525 Q246 503 246 478 Q246 449 260.5 425 Q275 401 297 380 Q319 359 344.5 338.5 Q370 318 392 295 Q414 272 428.5 244 Q443 216 443 181 Q443 134 425 98 Q407 62 375.5 36.5 Q344 11 301 -2 Q258 -15 209 -15 Q189 -15 167 -12 Q145 -9 123.5 -4 Q102 1 83 7.5 Q64 14 49 22 Q60 57 69 91.5 Q78 126 86 158 L106 158 Q105 154 105 149 Q105 144 105 139 Q105 81 137.5 53.5 Q170 26 218 26 Q248 26 273.5 35.5 Q299 45 317.5 62 Q336 79 347 104 Q358 129 358 159 Q358 190 343.5 214 Q329 238 307 258.5 Q285 279 259.5 299 Q234 319 212 341.5 Q190 364 175.5 391.5 Q161 419 161 456 Q161 495 177 529 Q193 563 222 587.5 Q251 612 293 626 Q335 640 386 640 Q426 640 464 630.5 Q502 621 536 613 Z M324 799 L403 729 L521 799 L532 789 L412 673 L369 673 L311 792 L324 799 Z " />
<glyph glyph-name="Scedilla" unicode="&#x15e;" horiz-adv-x="495" d="M379 598 Q349 598 324.5 588.5 Q300 579 282.5 563 Q265 547 255.5 525 Q246 503 246 478 Q246 449 260.5 425.5 Q275 402 297 381 Q319 360 345 339.5 Q371 319 393 296 Q415 273 429.5 245 Q444 217 444 181 Q444 138 428 103.5 Q412 69 384.5 44 Q357 19 319 4.5 Q281 -10 236 -14 L214 -55 Q247 -57 267 -73 Q287 -89 287 -118 Q287 -134 277.5 -152.5 Q268 -171 248 -186.5 Q228 -202 197 -213.5 Q166 -225 123 -228 L119 -207 Q167 -199 198 -175 Q229 -151 229 -121 Q229 -110 225.5 -104 Q222 -98 216 -94.5 Q210 -91 203 -89.5 Q196 -88 189 -86 Q177 -84 170 -80 Q163 -76 170 -63 L197 -15 Q158 -13 117 -3 Q76 7 49 22 Q60 57 69 91.5 Q78 126 86 158 L106 158 Q105 154 105 149 Q105 144 105 139 Q105 81 137.5 53.5 Q170 26 218 26 Q248 26 273.5 35.5 Q299 45 317.5 62 Q336 79 347 104 Q358 129 358 159 Q358 190 343.5 213.5 Q329 237 307 258 Q285 279 259 298.5 Q233 318 211 340.5 Q189 363 174.5 391 Q160 419 160 456 Q160 495 176 529 Q192 563 221.5 587.5 Q251 612 293 626 Q335 640 386 640 Q426 640 464 631 Q502 622 536 613 Q532 601 527.5 583.5 Q523 566 518.5 546.5 Q514 527 510 508.5 Q506 490 504 477 L484 477 Q484 598 379 598 Z " />
<glyph glyph-name="Scommaaccent" unicode="&#x218;" horiz-adv-x="495" d="M536 613 Q532 601 527.5 583.5 Q523 566 518.5 546.5 Q514 527 510 508.5 Q506 490 504 477 L484 477 Q484 598 379 598 Q349 598 324.5 588.5 Q300 579 282.5 563 Q265 547 255.5 525 Q246 503 246 478 Q246 449 260.5 425 Q275 401 297 380 Q319 359 344.5 338.5 Q370 318 392 295 Q414 272 428.5 244 Q443 216 443 181 Q443 134 425 98 Q407 62 375.5 36.5 Q344 11 301 -2 Q258 -15 209 -15 Q189 -15 167 -12 Q145 -9 123.5 -4 Q102 1 83 7.5 Q64 14 49 22 Q60 57 69 91.5 Q78 126 86 158 L106 158 Q105 154 105 149 Q105 144 105 139 Q105 81 137.5 53.5 Q170 26 218 26 Q248 26 273.5 35.5 Q299 45 317.5 62 Q336 79 347 104 Q358 129 358 159 Q358 190 343.5 214 Q329 238 307 258.5 Q285 279 259.5 299 Q234 319 212 341.5 Q190 364 175.5 391.5 Q161 419 161 456 Q161 495 177 529 Q193 563 222 587.5 Q251 612 293 626 Q335 640 386 640 Q426 640 464 630.5 Q502 621 536 613 Z M237 -102 Q237 -147 205.5 -189.5 Q174 -232 126 -258 L115 -242 Q128 -232 140.5 -220 Q153 -208 162.5 -195.5 Q172 -183 177.5 -170.5 Q183 -158 183 -147 Q183 -138 178.5 -131.5 Q174 -125 168 -119.5 Q162 -114 157.5 -108.5 Q153 -103 153 -95 Q153 -81 166.5 -68 Q180 -55 200 -55 Q219 -55 228 -68.5 Q237 -82 237 -102 Z " />
<glyph glyph-name="Tcaron" unicode="&#x164;" horiz-adv-x="537" d="M298 78 Q295 66 295 58 Q295 43 308 35.5 Q321 28 349 20 L343 0 Q334 0 320.5 0.5 Q307 1 292 1.5 Q277 2 262.5 2.5 Q248 3 238 3 Q227 3 212.5 2.5 Q198 2 183.5 1.5 Q169 1 155 0.5 Q141 0 132 0 L138 20 L201 41 L350 587 L303 587 Q267 587 241 582 Q215 577 198 562 Q191 556 185 549 Q179 542 172.5 532.5 Q166 523 158 509.5 Q150 496 139 477 L116 477 Q120 490 126.5 509.5 Q133 529 140 550 Q147 571 153.5 591 Q160 611 164 625 L644 625 Q640 609 635 589 Q630 569 625.5 548 Q621 527 617 508.5 Q613 490 610 477 L587 477 Q587 499 586.5 512.5 Q586 526 585 535 Q584 544 582 550 Q580 556 576 562 Q567 577 542 582 Q517 587 483 587 L437 587 L298 78 Z M343 799 L422 729 L540 799 L551 789 L431 673 L388 673 L330 792 L343 799 Z " />
<glyph glyph-name="Tcommaaccent" unicode="&#x162;" horiz-adv-x="537" d="M298 78 Q295 66 295 58 Q295 43 308 35.5 Q321 28 349 20 L343 0 Q334 0 320.5 0.5 Q307 1 292 1.5 Q277 2 262.5 2.5 Q248 3 238 3 Q227 3 212.5 2.5 Q198 2 183.5 1.5 Q169 1 155 0.5 Q141 0 132 0 L138 20 L201 41 L350 587 L303 587 Q267 587 241 582 Q215 577 198 562 Q191 556 185 549 Q179 542 172.5 532.5 Q166 523 158 509.5 Q150 496 139 477 L116 477 Q120 490 126.5 509.5 Q133 529 140 550 Q147 571 153.5 591 Q160 611 164 625 L644 625 Q640 609 635 589 Q630 569 625.5 548 Q621 527 617 508.5 Q613 490 610 477 L587 477 Q587 499 586.5 512.5 Q586 526 585 535 Q584 544 582 550 Q580 556 576 562 Q567 577 542 582 Q517 587 483 587 L437 587 L298 78 Z M262 -102 Q262 -147 230.5 -189.5 Q199 -232 151 -258 L140 -242 Q153 -232 165.5 -220 Q178 -208 187.5 -195.5 Q197 -183 202.5 -170.5 Q208 -158 208 -147 Q208 -138 203.5 -131.5 Q199 -125 193 -119.5 Q187 -114 182.5 -108.5 Q178 -103 178 -95 Q178 -81 191.5 -68 Q205 -55 225 -55 Q244 -55 253 -68.5 Q262 -82 262 -102 Z " />
<glyph glyph-name="uni021A" unicode="&#x21a;" horiz-adv-x="537" d="M298 78 Q295 66 295 58 Q295 43 308 35.5 Q321 28 349 20 L343 0 Q334 0 320.5 0.5 Q307 1 292 1.5 Q277 2 262.5 2.5 Q248 3 238 3 Q227 3 212.5 2.5 Q198 2 183.5 1.5 Q169 1 155 0.5 Q141 0 132 0 L138 20 L201 41 L350 587 L303 587 Q267 587 241 582 Q215 577 198 562 Q191 556 185 549 Q179 542 172.5 532.5 Q166 523 158 509.5 Q150 496 139 477 L116 477 Q120 490 126.5 509.5 Q133 529 140 550 Q147 571 153.5 591 Q160 611 164 625 L644 625 Q640 609 635 589 Q630 569 625.5 548 Q621 527 617 508.5 Q613 490 610 477 L587 477 Q587 499 586.5 512.5 Q586 526 585 535 Q584 544 582 550 Q580 556 576 562 Q567 577 542 582 Q517 587 483 587 L437 587 L298 78 Z M262 -102 Q262 -147 230.5 -189.5 Q199 -232 151 -258 L140 -242 Q153 -232 165.5 -220 Q178 -208 187.5 -195.5 Q197 -183 202.5 -170.5 Q208 -158 208 -147 Q208 -138 203.5 -131.5 Q199 -125 193 -119.5 Q187 -114 182.5 -108.5 Q178 -103 178 -95 Q178 -81 191.5 -68 Q205 -55 225 -55 Q244 -55 253 -68.5 Q262 -82 262 -102 Z " />
<glyph glyph-name="Tbar" unicode="&#x166;" horiz-adv-x="537" d="M370 342 L477 342 L465 299 L358 299 L298 78 Q295 66 295 58 Q295 43 308 35.5 Q321 28 349 20 L343 0 Q334 0 320.5 0.5 Q307 1 292 1.5 Q277 2 262.5 2.5 Q248 3 238 3 Q227 3 212.5 2.5 Q198 2 183.5 1.5 Q169 1 155 0.5 Q141 0 132 0 L138 20 L201 41 L271 299 L164 299 L176 342 L283 342 L350 587 L303 587 Q267 587 241 582 Q215 577 198 562 Q191 556 185 549 Q179 542 172.5 532.5 Q166 523 158 509.5 Q150 496 139 477 L116 477 Q120 490 126.5 509.5 Q133 529 140 550 Q147 571 153.5 591 Q160 611 164 625 L644 625 Q640 609 635 589 Q630 569 625.5 548 Q621 527 617 508.5 Q613 490 610 477 L587 477 Q587 499 586.5 512.5 Q586 526 585 535 Q584 544 582 550 Q580 556 576 562 Q567 577 542 582 Q517 587 483 587 L437 587 L370 342 Z " />
<glyph glyph-name="Ugrave" unicode="&#xd9;" horiz-adv-x="649" d="M581 255 Q561 181 536 130.5 Q511 80 476 48 Q408 -15 298 -15 Q210 -15 162.5 28.5 Q115 72 115 145 Q115 167 120.5 195 Q126 223 133 248 L214 547 Q217 559 217 567 Q217 582 205 589.5 Q193 597 165 605 L171 625 Q180 625 192.5 624.5 Q205 624 219.5 623.5 Q234 623 247.5 622.5 Q261 622 272 622 Q283 622 297.5 622.5 Q312 623 327.5 623.5 Q343 624 357 624.5 Q371 625 380 625 L374 605 L312 584 L220 247 Q212 218 207.5 191.5 Q203 165 203 146 Q203 91 234.5 61 Q266 31 320 31 Q358 31 392.5 46 Q427 61 453 89 Q480 118 497.5 157 Q515 196 529 250 L610 547 Q613 559 613 567 Q613 582 601 589.5 Q589 597 561 605 L567 625 Q584 625 608 623.5 Q632 622 653 622 Q675 622 697.5 623.5 Q720 625 739 625 L733 605 L670 584 L581 255 Z M378 749 L408 780 Q418 790 425 790 Q432 790 447 776 L554 675 L545 664 L380 739 L378 749 Z " />
<glyph glyph-name="Uacute" unicode="&#xda;" horiz-adv-x="649" d="M581 255 Q561 181 536 130.5 Q511 80 476 48 Q408 -15 298 -15 Q210 -15 162.5 28.5 Q115 72 115 145 Q115 167 120.5 195 Q126 223 133 248 L214 547 Q217 559 217 567 Q217 582 205 589.5 Q193 597 165 605 L171 625 Q180 625 192.5 624.5 Q205 624 219.5 623.5 Q234 623 247.5 622.5 Q261 622 272 622 Q283 622 297.5 622.5 Q312 623 327.5 623.5 Q343 624 357 624.5 Q371 625 380 625 L374 605 L312 584 L220 247 Q212 218 207.5 191.5 Q203 165 203 146 Q203 91 234.5 61 Q266 31 320 31 Q358 31 392.5 46 Q427 61 453 89 Q480 118 497.5 157 Q515 196 529 250 L610 547 Q613 559 613 567 Q613 582 601 589.5 Q589 597 561 605 L567 625 Q584 625 608 623.5 Q632 622 653 622 Q675 622 697.5 623.5 Q720 625 739 625 L733 605 L670 584 L581 255 Z M594 739 L407 670 L400 682 L540 780 Q555 790 562 790 Q570 790 576 780 L595 749 L594 739 Z " />
<glyph glyph-name="Ucircumflex" unicode="&#xdb;" horiz-adv-x="649" d="M581 255 Q561 181 536 130.5 Q511 80 476 48 Q408 -15 298 -15 Q210 -15 162.5 28.5 Q115 72 115 145 Q115 167 120.5 195 Q126 223 133 248 L214 547 Q217 559 217 567 Q217 582 205 589.5 Q193 597 165 605 L171 625 Q180 625 192.5 624.5 Q205 624 219.5 623.5 Q234 623 247.5 622.5 Q261 622 272 622 Q283 622 297.5 622.5 Q312 623 327.5 623.5 Q343 624 357 624.5 Q371 625 380 625 L374 605 L312 584 L220 247 Q212 218 207.5 191.5 Q203 165 203 146 Q203 91 234.5 61 Q266 31 320 31 Q358 31 392.5 46 Q427 61 453 89 Q480 118 497.5 157 Q515 196 529 250 L610 547 Q613 559 613 567 Q613 582 601 589.5 Q589 597 561 605 L567 625 Q584 625 608 623.5 Q632 622 653 622 Q675 622 697.5 623.5 Q720 625 739 625 L733 605 L670 584 L581 255 Z M582 669 L503 739 L385 669 L374 679 L494 795 L537 795 L595 676 L582 669 Z " />
<glyph glyph-name="Utilde" unicode="&#x168;" horiz-adv-x="649" d="M581 255 Q561 181 536 130.5 Q511 80 476 48 Q408 -15 298 -15 Q210 -15 162.5 28.5 Q115 72 115 145 Q115 167 120.5 195 Q126 223 133 248 L214 547 Q217 559 217 567 Q217 582 205 589.5 Q193 597 165 605 L171 625 Q180 625 192.5 624.5 Q205 624 219.5 623.5 Q234 623 247.5 622.5 Q261 622 272 622 Q283 622 297.5 622.5 Q312 623 327.5 623.5 Q343 624 357 624.5 Q371 625 380 625 L374 605 L312 584 L220 247 Q212 218 207.5 191.5 Q203 165 203 146 Q203 91 234.5 61 Q266 31 320 31 Q358 31 392.5 46 Q427 61 453 89 Q480 118 497.5 157 Q515 196 529 250 L610 547 Q613 559 613 567 Q613 582 601 589.5 Q589 597 561 605 L567 625 Q584 625 608 623.5 Q632 622 653 622 Q675 622 697.5 623.5 Q720 625 739 625 L733 605 L670 584 L581 255 Z M364 701 Q384 753 407 771 Q430 789 456 789 Q470 789 482.5 783 Q495 777 506.5 770.5 Q518 764 529.5 758 Q541 752 554 752 Q568 752 581.5 759 Q595 766 606 784 L623 781 Q603 729 580 711 Q557 693 531 693 Q517 693 504.5 699 Q492 705 480.5 711.5 Q469 718 457.5 724 Q446 730 433 730 Q419 730 405.5 723 Q392 716 381 698 L364 701 Z " />
<glyph glyph-name="Udieresis" unicode="&#xdc;" horiz-adv-x="649" d="M581 255 Q561 181 536 130.5 Q511 80 476 48 Q408 -15 298 -15 Q210 -15 162.5 28.5 Q115 72 115 145 Q115 167 120.5 195 Q126 223 133 248 L214 547 Q217 559 217 567 Q217 582 205 589.5 Q193 597 165 605 L171 625 Q180 625 192.5 624.5 Q205 624 219.5 623.5 Q234 623 247.5 622.5 Q261 622 272 622 Q283 622 297.5 622.5 Q312 623 327.5 623.5 Q343 624 357 624.5 Q371 625 380 625 L374 605 L312 584 L220 247 Q212 218 207.5 191.5 Q203 165 203 146 Q203 91 234.5 61 Q266 31 320 31 Q358 31 392.5 46 Q427 61 453 89 Q480 118 497.5 157 Q515 196 529 250 L610 547 Q613 559 613 567 Q613 582 601 589.5 Q589 597 561 605 L567 625 Q584 625 608 623.5 Q632 622 653 622 Q675 622 697.5 623.5 Q720 625 739 625 L733 605 L670 584 L581 255 Z M469 742 Q469 719 453 704 Q437 689 416 689 Q400 689 390.5 698.5 Q381 708 381 723 Q381 746 396.5 761 Q412 776 434 776 Q450 776 459.5 766 Q469 756 469 742 Z M608 742 Q608 719 592 704 Q576 689 555 689 Q539 689 529.5 698.5 Q520 708 520 723 Q520 746 535.5 761 Q551 776 573 776 Q589 776 598.5 766 Q608 756 608 742 Z " />
<glyph glyph-name="Umacron" unicode="&#x16a;" horiz-adv-x="649" d="M581 255 Q561 181 536 130.5 Q511 80 476 48 Q408 -15 298 -15 Q210 -15 162.5 28.5 Q115 72 115 145 Q115 167 120.5 195 Q126 223 133 248 L214 547 Q217 559 217 567 Q217 582 205 589.5 Q193 597 165 605 L171 625 Q180 625 192.5 624.5 Q205 624 219.5 623.5 Q234 623 247.5 622.5 Q261 622 272 622 Q283 622 297.5 622.5 Q312 623 327.5 623.5 Q343 624 357 624.5 Q371 625 380 625 L374 605 L312 584 L220 247 Q212 218 207.5 191.5 Q203 165 203 146 Q203 91 234.5 61 Q266 31 320 31 Q358 31 392.5 46 Q427 61 453 89 Q480 118 497.5 157 Q515 196 529 250 L610 547 Q613 559 613 567 Q613 582 601 589.5 Q589 597 561 605 L567 625 Q584 625 608 623.5 Q632 622 653 622 Q675 622 697.5 623.5 Q720 625 739 625 L733 605 L670 584 L581 255 Z M383 700 L396 746 L608 746 L595 700 L383 700 Z " />
<glyph glyph-name="Ubreve" unicode="&#x16c;" horiz-adv-x="649" d="M581 255 Q561 181 536 130.5 Q511 80 476 48 Q408 -15 298 -15 Q210 -15 162.5 28.5 Q115 72 115 145 Q115 167 120.5 195 Q126 223 133 248 L214 547 Q217 559 217 567 Q217 582 205 589.5 Q193 597 165 605 L171 625 Q180 625 192.5 624.5 Q205 624 219.5 623.5 Q234 623 247.5 622.5 Q261 622 272 622 Q283 622 297.5 622.5 Q312 623 327.5 623.5 Q343 624 357 624.5 Q371 625 380 625 L374 605 L312 584 L220 247 Q212 218 207.5 191.5 Q203 165 203 146 Q203 91 234.5 61 Q266 31 320 31 Q358 31 392.5 46 Q427 61 453 89 Q480 118 497.5 157 Q515 196 529 250 L610 547 Q613 559 613 567 Q613 582 601 589.5 Q589 597 561 605 L567 625 Q584 625 608 623.5 Q632 622 653 622 Q675 622 697.5 623.5 Q720 625 739 625 L733 605 L670 584 L581 255 Z M482 675 Q440 675 417 696.5 Q394 718 394 753 Q394 769 399 784 L421 784 Q416 755 436 738 Q456 721 490 721 Q524 721 552.5 737.5 Q581 754 593 784 L615 784 Q602 734 568 704.5 Q534 675 482 675 Z " />
<glyph glyph-name="Uring" unicode="&#x16e;" horiz-adv-x="649" d="M581 255 Q561 181 536 130.5 Q511 80 476 48 Q408 -15 298 -15 Q210 -15 162.5 28.5 Q115 72 115 145 Q115 167 120.5 195 Q126 223 133 248 L214 547 Q217 559 217 567 Q217 582 205 589.5 Q193 597 165 605 L171 625 Q180 625 192.5 624.5 Q205 624 219.5 623.5 Q234 623 247.5 622.5 Q261 622 272 622 Q283 622 297.5 622.5 Q312 623 327.5 623.5 Q343 624 357 624.5 Q371 625 380 625 L374 605 L312 584 L220 247 Q212 218 207.5 191.5 Q203 165 203 146 Q203 91 234.5 61 Q266 31 320 31 Q358 31 392.5 46 Q427 61 453 89 Q480 118 497.5 157 Q515 196 529 250 L610 547 Q613 559 613 567 Q613 582 601 589.5 Q589 597 561 605 L567 625 Q584 625 608 623.5 Q632 622 653 622 Q675 622 697.5 623.5 Q720 625 739 625 L733 605 L670 584 L581 255 Z M462 736 Q462 720 470.5 710.5 Q479 701 493 701 Q516 701 531.5 720.5 Q547 740 547 765 Q547 781 538.5 790.5 Q530 800 516 800 Q493 800 477.5 780.5 Q462 761 462 736 Z M586 768 Q586 749 579 731 Q572 713 559 699 Q546 685 528.5 676.5 Q511 668 489 668 Q459 668 441 686.5 Q423 705 423 733 Q423 752 430 770 Q437 788 449.5 802 Q462 816 480 824.5 Q498 833 520 833 Q550 833 568 814.5 Q586 796 586 768 Z " />
<glyph glyph-name="Uhungarumlaut" unicode="&#x170;" horiz-adv-x="649" d="M581 255 Q561 181 536 130.5 Q511 80 476 48 Q408 -15 298 -15 Q210 -15 162.5 28.5 Q115 72 115 145 Q115 167 120.5 195 Q126 223 133 248 L214 547 Q217 559 217 567 Q217 582 205 589.5 Q193 597 165 605 L171 625 Q180 625 192.5 624.5 Q205 624 219.5 623.5 Q234 623 247.5 622.5 Q261 622 272 622 Q283 622 297.5 622.5 Q312 623 327.5 623.5 Q343 624 357 624.5 Q371 625 380 625 L374 605 L312 584 L220 247 Q212 218 207.5 191.5 Q203 165 203 146 Q203 91 234.5 61 Q266 31 320 31 Q358 31 392.5 46 Q427 61 453 89 Q480 118 497.5 157 Q515 196 529 250 L610 547 Q613 559 613 567 Q613 582 601 589.5 Q589 597 561 605 L567 625 Q584 625 608 623.5 Q632 622 653 622 Q675 622 697.5 623.5 Q720 625 739 625 L733 605 L670 584 L581 255 Z M499 755 L345 679 L339 689 L448 790 Q454 795 458.5 798 Q463 801 468 801 Q476 801 484 790 L501 764 L499 755 Z M640 755 L486 679 L480 689 L589 790 Q595 795 599.5 798 Q604 801 609 801 Q617 801 625 790 L642 764 L640 755 Z " />
<glyph glyph-name="Uogonek" unicode="&#x172;" horiz-adv-x="649" d="M395 -210 Q382 -218 364 -222.5 Q346 -227 320 -227 Q274 -227 244 -204.5 Q214 -182 214 -141 Q214 -101 243 -69 Q272 -37 318 -14 Q313 -15 308 -15 Q303 -15 298 -15 Q210 -15 162.5 28.5 Q115 72 115 145 Q115 167 120.5 195 Q126 223 133 248 L214 547 Q217 559 217 567 Q217 582 205 589.5 Q193 597 165 605 L171 625 Q180 625 192.5 624.5 Q205 624 219.5 623.5 Q234 623 247.5 622.5 Q261 622 272 622 Q283 622 297.5 622.5 Q312 623 327.5 623.5 Q343 624 357 624.5 Q371 625 380 625 L374 605 L312 584 L220 247 Q212 218 207.5 191.5 Q203 165 203 146 Q203 91 234.5 61 Q266 31 320 31 Q358 31 392.5 46 Q427 61 453 89 Q480 118 497.5 157 Q515 196 529 250 L610 547 Q613 559 613 567 Q613 582 601 589.5 Q589 597 561 605 L567 625 Q584 625 608 623.5 Q632 622 653 622 Q675 622 697.5 623.5 Q720 625 739 625 L733 605 L670 584 L581 255 Q561 181 536 130.5 Q511 80 476 48 Q448 23 414.5 4.5 Q381 -14 351.5 -33.5 Q322 -53 302.5 -78 Q283 -103 283 -141 Q283 -167 298 -182.5 Q313 -198 339 -198 Q365 -198 387 -188 L395 -210 Z " />
<glyph glyph-name="Wgrave" unicode="&#x1e80;" horiz-adv-x="846" d="M974 605 Q952 602 937.5 598 Q923 594 912.5 587 Q902 580 894 569.5 Q886 559 877 544 L562 -3 L524 -3 L500 415 L245 -3 L208 -3 L170 552 Q169 566 165.5 574.5 Q162 583 155 588.5 Q148 594 136.5 597.5 Q125 601 108 605 L114 625 Q119 625 132.5 624.5 Q146 624 161 623.5 Q176 623 190.5 622.5 Q205 622 213 622 Q222 622 236.5 622.5 Q251 623 265.5 623.5 Q280 624 293 624.5 Q306 625 314 625 L308 605 L252 592 L283 138 L493 482 L490 552 Q488 578 476 587.5 Q464 597 433 605 L439 625 Q444 625 457 624.5 Q470 624 484.5 623.5 Q499 623 512.5 622.5 Q526 622 534 622 Q544 622 558 622.5 Q572 623 586.5 623.5 Q601 624 613.5 624.5 Q626 625 634 625 L628 605 L572 592 L597 145 L856 591 L799 605 L804 625 Q823 624 841 623 Q856 622 871 622 Q886 622 894 622 Q902 622 914 622.5 Q926 623 938.5 623.5 Q951 624 962 624.5 Q973 625 980 625 L974 605 L974 605 Z M468 749 L498 780 Q508 790 515 790 Q522 790 537 776 L644 675 L635 664 L470 739 L468 749 Z " />
<glyph glyph-name="Wacute" unicode="&#x1e82;" horiz-adv-x="846" d="M974 605 Q952 602 937.5 598 Q923 594 912.5 587 Q902 580 894 569.5 Q886 559 877 544 L562 -3 L524 -3 L500 415 L245 -3 L208 -3 L170 552 Q169 566 165.5 574.5 Q162 583 155 588.5 Q148 594 136.5 597.5 Q125 601 108 605 L114 625 Q119 625 132.5 624.5 Q146 624 161 623.5 Q176 623 190.5 622.5 Q205 622 213 622 Q222 622 236.5 622.5 Q251 623 265.5 623.5 Q280 624 293 624.5 Q306 625 314 625 L308 605 L252 592 L283 138 L493 482 L490 552 Q488 578 476 587.5 Q464 597 433 605 L439 625 Q444 625 457 624.5 Q470 624 484.5 623.5 Q499 623 512.5 622.5 Q526 622 534 622 Q544 622 558 622.5 Q572 623 586.5 623.5 Q601 624 613.5 624.5 Q626 625 634 625 L628 605 L572 592 L597 145 L856 591 L799 605 L804 625 Q823 624 841 623 Q856 622 871 622 Q886 622 894 622 Q902 622 914 622.5 Q926 623 938.5 623.5 Q951 624 962 624.5 Q973 625 980 625 L974 605 L974 605 Z M653 739 L466 670 L459 682 L599 780 Q614 790 621 790 Q629 790 635 780 L654 749 L653 739 Z " />
<glyph glyph-name="Wcircumflex" unicode="&#x174;" horiz-adv-x="846" d="M974 605 Q952 602 937.5 598 Q923 594 912.5 587 Q902 580 894 569.5 Q886 559 877 544 L562 -3 L524 -3 L500 415 L245 -3 L208 -3 L170 552 Q169 566 165.5 574.5 Q162 583 155 588.5 Q148 594 136.5 597.5 Q125 601 108 605 L114 625 Q119 625 132.5 624.5 Q146 624 161 623.5 Q176 623 190.5 622.5 Q205 622 213 622 Q222 622 236.5 622.5 Q251 623 265.5 623.5 Q280 624 293 624.5 Q306 625 314 625 L308 605 L252 592 L283 138 L493 482 L490 552 Q488 578 476 587.5 Q464 597 433 605 L439 625 Q444 625 457 624.5 Q470 624 484.5 623.5 Q499 623 512.5 622.5 Q526 622 534 622 Q544 622 558 622.5 Q572 623 586.5 623.5 Q601 624 613.5 624.5 Q626 625 634 625 L628 605 L572 592 L597 145 L856 591 L799 605 L804 625 Q823 624 841 623 Q856 622 871 622 Q886 622 894 622 Q902 622 914 622.5 Q926 623 938.5 623.5 Q951 624 962 624.5 Q973 625 980 625 L974 605 L974 605 Z M646 669 L567 739 L449 669 L438 679 L558 795 L601 795 L659 676 L646 669 Z " />
<glyph glyph-name="Wdieresis" unicode="&#x1e84;" horiz-adv-x="846" d="M974 605 Q952 602 937.5 598 Q923 594 912.5 587 Q902 580 894 569.5 Q886 559 877 544 L562 -3 L524 -3 L500 415 L245 -3 L208 -3 L170 552 Q169 566 165.5 574.5 Q162 583 155 588.5 Q148 594 136.5 597.5 Q125 601 108 605 L114 625 Q119 625 132.5 624.5 Q146 624 161 623.5 Q176 623 190.5 622.5 Q205 622 213 622 Q222 622 236.5 622.5 Q251 623 265.5 623.5 Q280 624 293 624.5 Q306 625 314 625 L308 605 L252 592 L283 138 L493 482 L490 552 Q488 578 476 587.5 Q464 597 433 605 L439 625 Q444 625 457 624.5 Q470 624 484.5 623.5 Q499 623 512.5 622.5 Q526 622 534 622 Q544 622 558 622.5 Q572 623 586.5 623.5 Q601 624 613.5 624.5 Q626 625 634 625 L628 605 L572 592 L597 145 L856 591 L799 605 L804 625 Q823 624 841 623 Q856 622 871 622 Q886 622 894 622 Q902 622 914 622.5 Q926 623 938.5 623.5 Q951 624 962 624.5 Q973 625 980 625 L974 605 L974 605 Z M537 742 Q537 719 521 704 Q505 689 484 689 Q468 689 458.5 698.5 Q449 708 449 723 Q449 746 464.5 761 Q480 776 502 776 Q518 776 527.5 766 Q537 756 537 742 Z M676 742 Q676 719 660 704 Q644 689 623 689 Q607 689 597.5 698.5 Q588 708 588 723 Q588 746 603.5 761 Q619 776 641 776 Q657 776 666.5 766 Q676 756 676 742 Z " />
<glyph glyph-name="Ygrave" unicode="&#x1ef2;" horiz-adv-x="535" d="M301 78 Q298 66 298 58 Q298 43 310 35.5 Q322 28 350 20 L344 0 Q335 0 322.5 0.5 Q310 1 295.5 1.5 Q281 2 267 2.5 Q253 3 243 3 Q232 3 217.5 2.5 Q203 2 187.5 1.5 Q172 1 158 0.5 Q144 0 135 0 L141 20 L204 41 L260 246 L191 544 Q187 560 181.5 570 Q176 580 168 586.5 Q160 593 147.5 597 Q135 601 118 605 L124 625 Q129 625 141.5 624.5 Q154 624 168.5 623.5 Q183 623 196.5 622.5 Q210 622 218 622 Q228 622 242 622.5 Q256 623 271 623.5 Q286 624 299 624.5 Q312 625 320 625 L314 605 L264 592 L334 295 L550 591 L501 606 L507 625 Q525 624 541 623 Q555 622 569 622 Q583 622 592 622 Q608 622 631 623.5 Q654 625 668 625 L663 605 Q643 602 630 598.5 Q617 595 606 588.5 Q595 582 585.5 571 Q576 560 564 544 L347 246 L301 78 Z M314 749 L344 780 Q354 790 361 790 Q368 790 383 776 L490 675 L481 664 L316 739 L314 749 Z " />
<glyph glyph-name="Yacute" unicode="&#xdd;" horiz-adv-x="535" d="M301 78 Q298 66 298 58 Q298 43 310 35.5 Q322 28 350 20 L344 0 Q335 0 322.5 0.5 Q310 1 295.5 1.5 Q281 2 267 2.5 Q253 3 243 3 Q232 3 217.5 2.5 Q203 2 187.5 1.5 Q172 1 158 0.5 Q144 0 135 0 L141 20 L204 41 L260 246 L191 544 Q187 560 181.5 570 Q176 580 168 586.5 Q160 593 147.5 597 Q135 601 118 605 L124 625 Q129 625 141.5 624.5 Q154 624 168.5 623.5 Q183 623 196.5 622.5 Q210 622 218 622 Q228 622 242 622.5 Q256 623 271 623.5 Q286 624 299 624.5 Q312 625 320 625 L314 605 L264 592 L334 295 L550 591 L501 606 L507 625 Q525 624 541 623 Q555 622 569 622 Q583 622 592 622 Q608 622 631 623.5 Q654 625 668 625 L663 605 Q643 602 630 598.5 Q617 595 606 588.5 Q595 582 585.5 571 Q576 560 564 544 L347 246 L301 78 Z M526 739 L339 670 L332 682 L472 780 Q487 790 494 790 Q502 790 508 780 L527 749 L526 739 Z " />
<glyph glyph-name="Ycircumflex" unicode="&#x176;" horiz-adv-x="535" d="M301 78 Q298 66 298 58 Q298 43 310 35.5 Q322 28 350 20 L344 0 Q335 0 322.5 0.5 Q310 1 295.5 1.5 Q281 2 267 2.5 Q253 3 243 3 Q232 3 217.5 2.5 Q203 2 187.5 1.5 Q172 1 158 0.5 Q144 0 135 0 L141 20 L204 41 L260 246 L191 544 Q187 560 181.5 570 Q176 580 168 586.5 Q160 593 147.5 597 Q135 601 118 605 L124 625 Q129 625 141.5 624.5 Q154 624 168.5 623.5 Q183 623 196.5 622.5 Q210 622 218 622 Q228 622 242 622.5 Q256 623 271 623.5 Q286 624 299 624.5 Q312 625 320 625 L314 605 L264 592 L334 295 L550 591 L501 606 L507 625 Q525 624 541 623 Q555 622 569 622 Q583 622 592 622 Q608 622 631 623.5 Q654 625 668 625 L663 605 Q643 602 630 598.5 Q617 595 606 588.5 Q595 582 585.5 571 Q576 560 564 544 L347 246 L301 78 Z M511 669 L432 739 L314 669 L303 679 L423 795 L466 795 L524 676 L511 669 Z " />
<glyph glyph-name="Ydieresis" unicode="&#x178;" horiz-adv-x="535" d="M301 78 Q298 66 298 58 Q298 43 310 35.5 Q322 28 350 20 L344 0 Q335 0 322.5 0.5 Q310 1 295.5 1.5 Q281 2 267 2.5 Q253 3 243 3 Q232 3 217.5 2.5 Q203 2 187.5 1.5 Q172 1 158 0.5 Q144 0 135 0 L141 20 L204 41 L260 246 L191 544 Q187 560 181.5 570 Q176 580 168 586.5 Q160 593 147.5 597 Q135 601 118 605 L124 625 Q129 625 141.5 624.5 Q154 624 168.5 623.5 Q183 623 196.5 622.5 Q210 622 218 622 Q228 622 242 622.5 Q256 623 271 623.5 Q286 624 299 624.5 Q312 625 320 625 L314 605 L264 592 L334 295 L550 591 L501 606 L507 625 Q525 624 541 623 Q555 622 569 622 Q583 622 592 622 Q608 622 631 623.5 Q654 625 668 625 L663 605 Q643 602 630 598.5 Q617 595 606 588.5 Q595 582 585.5 571 Q576 560 564 544 L347 246 L301 78 Z M404 742 Q404 719 388 704 Q372 689 351 689 Q335 689 325.5 698.5 Q316 708 316 723 Q316 746 331.5 761 Q347 776 369 776 Q385 776 394.5 766 Q404 756 404 742 Z M543 742 Q543 719 527 704 Q511 689 490 689 Q474 689 464.5 698.5 Q455 708 455 723 Q455 746 470.5 761 Q486 776 508 776 Q524 776 533.5 766 Q543 756 543 742 Z " />
<glyph glyph-name="Zacute" unicode="&#x179;" horiz-adv-x="531" d="M601 603 Q581 577 550 539.5 Q519 502 481 455.5 Q443 409 399.5 357 Q356 305 310.5 250.5 Q265 196 219.5 142 Q174 88 132 38 L308 38 Q343 38 366.5 46 Q390 54 407 70 Q422 84 433.5 103.5 Q445 123 456 147 L483 147 Q477 129 470 109 Q463 89 457 69.5 Q451 50 445.5 31.5 Q440 13 436 0 L33 0 L22 22 Q42 47 73 85 Q104 123 141.5 169 Q179 215 222.5 267.5 Q266 320 311 374.5 Q356 429 401.5 483 Q447 537 490 587 L256 587 L183 482 L158 482 Q162 493 168 511.5 Q174 530 180 550 Q186 570 192 590 Q198 610 202 625 L590 625 L601 603 Z M518 739 L331 670 L324 682 L464 780 Q479 790 486 790 Q494 790 500 780 L519 749 L518 739 Z " />
<glyph glyph-name="Zcaron" unicode="&#x17d;" horiz-adv-x="531" d="M601 603 Q581 577 550 539.5 Q519 502 481 455.5 Q443 409 399.5 357 Q356 305 310.5 250.5 Q265 196 219.5 142 Q174 88 132 38 L308 38 Q343 38 366.5 46 Q390 54 407 70 Q422 84 433.5 103.5 Q445 123 456 147 L483 147 Q477 129 470 109 Q463 89 457 69.5 Q451 50 445.5 31.5 Q440 13 436 0 L33 0 L22 22 Q42 47 73 85 Q104 123 141.5 169 Q179 215 222.5 267.5 Q266 320 311 374.5 Q356 429 401.5 483 Q447 537 490 587 L256 587 L183 482 L158 482 Q162 493 168 511.5 Q174 530 180 550 Q186 570 192 590 Q198 610 202 625 L590 625 L601 603 Z M334 799 L413 729 L531 799 L542 789 L422 673 L379 673 L321 792 L334 799 Z " />
<glyph glyph-name="Zdotaccent" unicode="&#x17b;" horiz-adv-x="531" d="M601 603 Q581 577 550 539.5 Q519 502 481 455.5 Q443 409 399.5 357 Q356 305 310.5 250.5 Q265 196 219.5 142 Q174 88 132 38 L308 38 Q343 38 366.5 46 Q390 54 407 70 Q422 84 433.5 103.5 Q445 123 456 147 L483 147 Q477 129 470 109 Q463 89 457 69.5 Q451 50 445.5 31.5 Q440 13 436 0 L33 0 L22 22 Q42 47 73 85 Q104 123 141.5 169 Q179 215 222.5 267.5 Q266 320 311 374.5 Q356 429 401.5 483 Q447 537 490 587 L256 587 L183 482 L158 482 Q162 493 168 511.5 Q174 530 180 550 Q186 570 192 590 Q198 610 202 625 L590 625 L601 603 Z M474 746 Q474 718 454.5 699.5 Q435 681 409 681 Q389 681 377.5 693 Q366 705 366 723 Q366 751 385.5 769.5 Q405 788 431 788 Q451 788 462.5 776 Q474 764 474 746 Z " />
<glyph glyph-name="agrave" unicode="&#xe0;" horiz-adv-x="485" d="M167 -15 Q112 -15 78.5 24 Q45 63 45 135 Q45 166 53.5 200 Q62 234 78 267 Q94 300 115.5 331 Q137 362 163 387 Q195 418 236 439 Q277 460 325 460 Q354 460 375.5 451.5 Q397 443 417 426 L441 460 L481 448 L483 444 L386 86 Q381 68 381 59 Q381 42 399 42 Q408 42 419.5 45 Q431 48 438 51 L430 20 Q417 9 393.5 0.5 Q370 -8 351 -8 Q327 -8 313.5 4.5 Q300 17 300 40 Q300 45 301 52 Q302 59 304 67 L302 67 Q292 49 277 34 Q254 11 226.5 -2 Q199 -15 167 -15 Z M387 379 Q379 394 361.5 405 Q344 416 321 416 Q282 416 248 387.5 Q214 359 188.5 317 Q163 275 148.5 225.5 Q134 176 134 134 Q134 88 150.5 64 Q167 40 195 40 Q221 40 247 57.5 Q273 75 296 111 Q316 143 330.5 182.5 Q345 222 354 257 L387 379 Z M256 592 L290 626 Q297 633 304 633 Q313 633 321 623 L424 506 L415 495 L258 582 L256 592 Z " />
<glyph glyph-name="aacute" unicode="&#xe1;" horiz-adv-x="485" d="M167 -15 Q112 -15 78.5 24 Q45 63 45 135 Q45 166 53.5 200 Q62 234 78 267 Q94 300 115.5 331 Q137 362 163 387 Q195 418 236 439 Q277 460 325 460 Q354 460 375.5 451.5 Q397 443 417 426 L441 460 L481 448 L483 444 L386 86 Q381 68 381 59 Q381 42 399 42 Q408 42 419.5 45 Q431 48 438 51 L430 20 Q417 9 393.5 0.5 Q370 -8 351 -8 Q327 -8 313.5 4.5 Q300 17 300 40 Q300 45 301 52 Q302 59 304 67 L302 67 Q292 49 277 34 Q254 11 226.5 -2 Q199 -15 167 -15 Z M387 379 Q379 394 361.5 405 Q344 416 321 416 Q282 416 248 387.5 Q214 359 188.5 317 Q163 275 148.5 225.5 Q134 176 134 134 Q134 88 150.5 64 Q167 40 195 40 Q221 40 247 57.5 Q273 75 296 111 Q316 143 330.5 182.5 Q345 222 354 257 L387 379 Z M446 582 L259 495 L252 507 L388 623 Q400 633 407 633 Q413 633 419 626 L447 592 L446 582 Z " />
<glyph glyph-name="acircumflex" unicode="&#xe2;" horiz-adv-x="485" d="M167 -15 Q112 -15 78.5 24 Q45 63 45 135 Q45 166 53.5 200 Q62 234 78 267 Q94 300 115.5 331 Q137 362 163 387 Q195 418 236 439 Q277 460 325 460 Q354 460 375.5 451.5 Q397 443 417 426 L441 460 L481 448 L483 444 L386 86 Q381 68 381 59 Q381 42 399 42 Q408 42 419.5 45 Q431 48 438 51 L430 20 Q417 9 393.5 0.5 Q370 -8 351 -8 Q327 -8 313.5 4.5 Q300 17 300 40 Q300 45 301 52 Q302 59 304 67 L302 67 Q292 49 277 34 Q254 11 226.5 -2 Q199 -15 167 -15 Z M387 379 Q379 394 361.5 405 Q344 416 321 416 Q282 416 248 387.5 Q214 359 188.5 317 Q163 275 148.5 225.5 Q134 176 134 134 Q134 88 150.5 64 Q167 40 195 40 Q221 40 247 57.5 Q273 75 296 111 Q316 143 330.5 182.5 Q345 222 354 257 L387 379 Z M439 502 L370 586 L255 502 L242 511 L362 640 L405 640 L455 507 L439 502 Z " />
<glyph glyph-name="atilde" unicode="&#xe3;" horiz-adv-x="485" d="M167 -15 Q112 -15 78.5 24 Q45 63 45 135 Q45 166 53.5 200 Q62 234 78 267 Q94 300 115.5 331 Q137 362 163 387 Q195 418 236 439 Q277 460 325 460 Q354 460 375.5 451.5 Q397 443 417 426 L441 460 L481 448 L483 444 L386 86 Q381 68 381 59 Q381 42 399 42 Q408 42 419.5 45 Q431 48 438 51 L430 20 Q417 9 393.5 0.5 Q370 -8 351 -8 Q327 -8 313.5 4.5 Q300 17 300 40 Q300 45 301 52 Q302 59 304 67 L302 67 Q292 49 277 34 Q254 11 226.5 -2 Q199 -15 167 -15 Z M387 379 Q379 394 361.5 405 Q344 416 321 416 Q282 416 248 387.5 Q214 359 188.5 317 Q163 275 148.5 225.5 Q134 176 134 134 Q134 88 150.5 64 Q167 40 195 40 Q221 40 247 57.5 Q273 75 296 111 Q316 143 330.5 182.5 Q345 222 354 257 L387 379 Z M393 529 Q379 529 366.5 535 Q354 541 342.5 547.5 Q331 554 319.5 560 Q308 566 295 566 Q264 566 242 530 L225 533 Q245 585 268.5 605 Q292 625 318 625 Q332 625 344.5 619 Q357 613 368.5 606.5 Q380 600 391.5 594 Q403 588 416 588 Q447 588 469 624 L486 621 Q466 569 442.5 549 Q419 529 393 529 Z " />
<glyph glyph-name="adieresis" unicode="&#xe4;" horiz-adv-x="485" d="M167 -15 Q112 -15 78.5 24 Q45 63 45 135 Q45 166 53.5 200 Q62 234 78 267 Q94 300 115.5 331 Q137 362 163 387 Q195 418 236 439 Q277 460 325 460 Q354 460 375.5 451.5 Q397 443 417 426 L441 460 L481 448 L483 444 L386 86 Q381 68 381 59 Q381 42 399 42 Q408 42 419.5 45 Q431 48 438 51 L430 20 Q417 9 393.5 0.5 Q370 -8 351 -8 Q327 -8 313.5 4.5 Q300 17 300 40 Q300 45 301 52 Q302 59 304 67 L302 67 Q292 49 277 34 Q254 11 226.5 -2 Q199 -15 167 -15 Z M387 379 Q379 394 361.5 405 Q344 416 321 416 Q282 416 248 387.5 Q214 359 188.5 317 Q163 275 148.5 225.5 Q134 176 134 134 Q134 88 150.5 64 Q167 40 195 40 Q221 40 247 57.5 Q273 75 296 111 Q316 143 330.5 182.5 Q345 222 354 257 L387 379 Z M330 580 Q330 557 314 542 Q298 527 277 527 Q261 527 251.5 536.5 Q242 546 242 561 Q242 584 257.5 599 Q273 614 295 614 Q311 614 320.5 604 Q330 594 330 580 Z M469 580 Q469 557 453 542 Q437 527 416 527 Q400 527 390.5 536.5 Q381 546 381 561 Q381 584 396.5 599 Q412 614 434 614 Q450 614 459.5 604 Q469 594 469 580 Z " />
<glyph glyph-name="amacron" unicode="&#x101;" horiz-adv-x="485" d="M167 -15 Q112 -15 78.5 24 Q45 63 45 135 Q45 166 53.5 200 Q62 234 78 267 Q94 300 115.5 331 Q137 362 163 387 Q195 418 236 439 Q277 460 325 460 Q354 460 375.5 451.5 Q397 443 417 426 L441 460 L481 448 L483 444 L386 86 Q381 68 381 59 Q381 42 399 42 Q408 42 419.5 45 Q431 48 438 51 L430 20 Q417 9 393.5 0.5 Q370 -8 351 -8 Q327 -8 313.5 4.5 Q300 17 300 40 Q300 45 301 52 Q302 59 304 67 L302 67 Q292 49 277 34 Q254 11 226.5 -2 Q199 -15 167 -15 Z M387 379 Q379 394 361.5 405 Q344 416 321 416 Q282 416 248 387.5 Q214 359 188.5 317 Q163 275 148.5 225.5 Q134 176 134 134 Q134 88 150.5 64 Q167 40 195 40 Q221 40 247 57.5 Q273 75 296 111 Q316 143 330.5 182.5 Q345 222 354 257 L387 379 Z M241 543 L254 589 L466 589 L453 543 L241 543 Z " />
<glyph glyph-name="abreve" unicode="&#x103;" horiz-adv-x="485" d="M167 -15 Q112 -15 78.5 24 Q45 63 45 135 Q45 166 53.5 200 Q62 234 78 267 Q94 300 115.5 331 Q137 362 163 387 Q195 418 236 439 Q277 460 325 460 Q354 460 375.5 451.5 Q397 443 417 426 L441 460 L481 448 L483 444 L386 86 Q381 68 381 59 Q381 42 399 42 Q408 42 419.5 45 Q431 48 438 51 L430 20 Q417 9 393.5 0.5 Q370 -8 351 -8 Q327 -8 313.5 4.5 Q300 17 300 40 Q300 45 301 52 Q302 59 304 67 L302 67 Q292 49 277 34 Q254 11 226.5 -2 Q199 -15 167 -15 Z M387 379 Q379 394 361.5 405 Q344 416 321 416 Q282 416 248 387.5 Q214 359 188.5 317 Q163 275 148.5 225.5 Q134 176 134 134 Q134 88 150.5 64 Q167 40 195 40 Q221 40 247 57.5 Q273 75 296 111 Q316 143 330.5 182.5 Q345 222 354 257 L387 379 Z M336 511 Q294 511 271 532.5 Q248 554 248 589 Q248 605 253 625 L275 625 Q270 593 290 575 Q310 557 344 557 Q378 557 407 575 Q436 593 447 625 L469 625 Q456 573 422 542 Q388 511 336 511 Z " />
<glyph glyph-name="acaron" unicode="&#x1ce;" horiz-adv-x="485" d="M167 -15 Q112 -15 78.5 24 Q45 63 45 135 Q45 166 53.5 200 Q62 234 78 267 Q94 300 115.5 331 Q137 362 163 387 Q195 418 236 439 Q277 460 325 460 Q354 460 375.5 451.5 Q397 443 417 426 L441 460 L481 448 L483 444 L386 86 Q381 68 381 59 Q381 42 399 42 Q408 42 419.5 45 Q431 48 438 51 L430 20 Q417 9 393.5 0.5 Q370 -8 351 -8 Q327 -8 313.5 4.5 Q300 17 300 40 Q300 45 301 52 Q302 59 304 67 L302 67 Q292 49 277 34 Q254 11 226.5 -2 Q199 -15 167 -15 Z M387 379 Q379 394 361.5 405 Q344 416 321 416 Q282 416 248 387.5 Q214 359 188.5 317 Q163 275 148.5 225.5 Q134 176 134 134 Q134 88 150.5 64 Q167 40 195 40 Q221 40 247 57.5 Q273 75 296 111 Q316 143 330.5 182.5 Q345 222 354 257 L387 379 Z M286 640 L355 556 L470 640 L483 631 L363 502 L320 502 L270 635 L286 640 Z " />
<glyph glyph-name="aring" unicode="&#xe5;" horiz-adv-x="485" d="M167 -15 Q112 -15 78.5 24 Q45 63 45 135 Q45 166 53.5 200 Q62 234 78 267 Q94 300 115.5 331 Q137 362 163 387 Q195 418 236 439 Q277 460 325 460 Q354 460 375.5 451.5 Q397 443 417 426 L441 460 L481 448 L483 444 L386 86 Q381 68 381 59 Q381 42 399 42 Q408 42 419.5 45 Q431 48 438 51 L430 20 Q417 9 393.5 0.5 Q370 -8 351 -8 Q327 -8 313.5 4.5 Q300 17 300 40 Q300 45 301 52 Q302 59 304 67 L302 67 Q292 49 277 34 Q254 11 226.5 -2 Q199 -15 167 -15 Z M387 379 Q379 394 361.5 405 Q344 416 321 416 Q282 416 248 387.5 Q214 359 188.5 317 Q163 275 148.5 225.5 Q134 176 134 134 Q134 88 150.5 64 Q167 40 195 40 Q221 40 247 57.5 Q273 75 296 111 Q316 143 330.5 182.5 Q345 222 354 257 L387 379 Z M320 577 Q320 561 328.5 551.5 Q337 542 351 542 Q374 542 389.5 561.5 Q405 581 405 606 Q405 622 396.5 631.5 Q388 641 374 641 Q351 641 335.5 621.5 Q320 602 320 577 Z M444 609 Q444 590 437 572 Q430 554 417 540 Q404 526 386.5 517.5 Q369 509 347 509 Q317 509 299 527.5 Q281 546 281 574 Q281 593 288 611 Q295 629 307.5 643 Q320 657 338 665.5 Q356 674 378 674 Q408 674 426 655.5 Q444 637 444 609 Z " />
<glyph glyph-name="aringacute" unicode="&#x1fb;" horiz-adv-x="485" d="M167 -15 Q112 -15 78.5 24 Q45 63 45 135 Q45 166 53.5 200 Q62 234 78 267 Q94 300 115.5 331 Q137 362 163 387 Q195 418 236 439 Q277 460 325 460 Q354 460 375.5 451.5 Q397 443 417 426 L441 460 L481 448 L483 444 L386 86 Q381 68 381 59 Q381 42 399 42 Q408 42 419.5 45 Q431 48 438 51 L430 20 Q417 9 393.5 0.5 Q370 -8 351 -8 Q327 -8 313.5 4.5 Q300 17 300 40 Q300 45 301 52 Q302 59 304 67 L302 67 Q292 49 277 34 Q254 11 226.5 -2 Q199 -15 167 -15 Z M387 379 Q379 394 361.5 405 Q344 416 321 416 Q282 416 248 387.5 Q214 359 188.5 317 Q163 275 148.5 225.5 Q134 176 134 134 Q134 88 150.5 64 Q167 40 195 40 Q221 40 247 57.5 Q273 75 296 111 Q316 143 330.5 182.5 Q345 222 354 257 L387 379 Z M317 556 Q317 540 325.5 530.5 Q334 521 348 521 Q371 521 386.5 540.5 Q402 560 402 585 Q402 601 393.5 610.5 Q385 620 371 620 Q348 620 332.5 600.5 Q317 581 317 556 Z M441 588 Q441 569 434 551 Q427 533 414 519 Q401 505 383.5 496.5 Q366 488 344 488 Q314 488 296 506.5 Q278 525 278 553 Q278 572 285 590 Q292 608 304.5 622 Q317 636 335 644.5 Q353 653 375 653 Q405 653 423 634.5 Q441 616 441 588 Z M503 754 L316 667 L309 679 L445 795 Q457 805 464 805 Q470 805 476 798 L504 764 L503 754 Z " />
<glyph glyph-name="aogonek" unicode="&#x105;" horiz-adv-x="485" d="M387 -210 Q374 -218 356.5 -222.5 Q339 -227 319 -227 Q268 -227 237 -203.5 Q206 -180 206 -136 Q206 -95 242 -61.5 Q278 -28 331 -5 Q300 3 300 40 Q300 45 301 52 Q302 59 304 67 L302 67 Q292 49 277 34 Q254 11 226.5 -2 Q199 -15 167 -15 Q112 -15 78.5 24 Q45 63 45 135 Q45 166 53.5 200 Q62 234 78 267 Q94 300 115.5 331 Q137 362 163 387 Q195 418 236 439 Q277 460 325 460 Q354 460 375.5 451.5 Q397 443 417 426 L441 460 L481 448 L483 444 L386 86 Q381 68 381 59 Q381 42 399 42 Q408 42 419.5 45 Q431 48 438 51 L430 20 Q394 2 365.5 -15.5 Q337 -33 317 -52 Q297 -71 286 -93 Q275 -115 275 -141 Q275 -167 290 -182.5 Q305 -198 331 -198 Q357 -198 379 -188 L387 -210 Z M387 379 Q379 394 361.5 405 Q344 416 321 416 Q282 416 248 387.5 Q214 359 188.5 317 Q163 275 148.5 225.5 Q134 176 134 134 Q134 88 150.5 64 Q167 40 195 40 Q221 40 247 57.5 Q273 75 296 111 Q316 143 330.5 182.5 Q345 222 354 257 L387 379 Z " />
<glyph glyph-name="ae" unicode="&#xe6;" horiz-adv-x="661" d="M170 -15 Q113 -15 79 22.5 Q45 60 45 129 Q45 192 68 252 Q91 312 130 358 Q169 404 220.5 432 Q272 460 330 460 Q364 460 395.5 451 Q427 442 448 429 Q498 460 546 460 Q598 460 624 436 Q650 412 650 377 Q650 307 581 234.5 Q512 162 389 87 Q408 42 458 42 Q498 42 534.5 65.5 Q571 89 603 127 L623 109 Q609 84 587.5 61.5 Q566 39 540 22 Q514 5 485 -5 Q456 -15 427 -15 Q389 -15 361 -0.5 Q333 14 316 40 Q280 16 243.5 0.5 Q207 -15 170 -15 Z M327 421 Q284 421 248.5 392 Q213 363 187.5 319.5 Q162 276 147.5 225.5 Q133 175 133 133 Q133 82 151 61.5 Q169 41 199 41 Q222 41 245 49.5 Q268 58 300 75 Q291 102 291 135 Q291 207 319.5 272 Q348 337 392 383 Q378 403 362.5 412 Q347 421 327 421 Z M580 374 Q580 417 540 417 Q508 417 479 394 Q450 371 428 332.5 Q406 294 393 245 Q380 196 380 144 Q380 139 380 134.5 Q380 130 381 125 Q437 164 475 198.5 Q513 233 536.5 264 Q560 295 570 322.5 Q580 350 580 374 Z " />
</font>
</svg>
