<?xml version="1.0" encoding="UTF-8"?>
<svg xmlns="http://www.w3.org/2000/svg" xmlns:xlink="http://www.w3.org/1999/xlink" version="1.2" >
<font id="Cadillac Serif Web Medium Italic">
<font-face  font-family="Cadillac Serif Web" units-per-em="1000" ascent="700" descent="-300" font-style="italic" font-weight="500" font-stretch="normal" slope="-15" cap-height="625" x-height="444" underline-position="-75" underline-thickness="50" />
<missing-glyph  horiz-adv-x="535" d="M20 693 L515 693 L515 0 L20 0 L20 693 Z M436 644 L99 644 L268 391 L436 644 Z M466 94 L466 599 L297 347 L466 94 Z M436 50 L268 302 L99 50 L436 50 Z M70 94 L238 347 L70 599 L70 94 Z " />
<glyph glyph-name="null" d="" />
<glyph glyph-name="nonmarkingreturn" unicode="&#xd;" horiz-adv-x="170" d="" />
<glyph glyph-name="nbspace" unicode="&#xa0;" horiz-adv-x="174" d="" />
<glyph glyph-name="space" unicode="&#x20;" horiz-adv-x="174" d="" />
<glyph glyph-name="A" unicode="A" horiz-adv-x="616" d="M366 22 L420 36 L403 217 L217 217 L133 83 Q119 61 119 52 Q119 42 129.5 36 Q140 30 174 22 L168 0 Q150 1 123 2 Q96 3 75 3 Q53 3 23.5 2 Q-6 1 -24 0 L-17 22 L49 41 L415 625 L458 625 L510 94 Q512 75 515 64 Q518 53 525.5 45.5 Q533 38 545.5 33 Q558 28 578 22 L571 0 Q566 0 553 0.5 Q540 1 524.5 1.5 Q509 2 493.5 2.5 Q478 3 467 3 Q453 3 437 2.5 Q421 2 406 1.5 Q391 1 379 0.5 Q367 0 360 0 L366 22 Z M377 477 L243 259 L399 259 L377 477 Z " />
<glyph glyph-name="B" unicode="B" horiz-adv-x="561" d="M19 22 L82 42 L216 539 Q220 555 220 564 Q220 579 208.5 587 Q197 595 168 603 L174 625 L376 625 Q431 625 473 615 Q515 605 538 582 Q569 552 569 503 Q569 480 560 456 Q551 432 534 410 Q517 388 492 370 Q467 352 435 341 Q482 325 505.5 291 Q529 257 529 214 Q529 174 514.5 136.5 Q500 99 469 70 Q436 38 384 19 Q332 0 254 0 L13 0 L19 22 Z M194 102 Q192 93 190.5 86 Q189 79 189 73 Q189 57 204 49.5 Q219 42 259 42 Q294 42 325 56.5 Q356 71 379.5 95 Q403 119 416.5 151 Q430 183 430 218 Q430 268 401 291 Q384 305 357.5 311 Q331 317 293 317 L252 317 L194 102 Z M318 358 Q362 358 390.5 369.5 Q419 381 439 401 Q459 421 469 447.5 Q479 474 479 501 Q479 543 454 562 Q427 583 363 583 L323 583 L263 358 L318 358 Z " />
<glyph glyph-name="C" unicode="C" horiz-adv-x="554" d="M506 106 Q462 52 401.5 18.5 Q341 -15 269 -15 Q181 -15 131.5 40.5 Q82 96 82 191 Q82 240 92.5 290 Q103 340 123 387 Q143 434 171 475.5 Q199 517 234 550 Q279 592 333 616 Q387 640 451 640 Q494 640 535 631 Q576 622 611 617 Q600 579 590.5 535.5 Q581 492 574 456 L549 456 L549 474 Q549 593 447 593 Q401 593 362 569.5 Q323 546 291 507 Q266 476 246.5 437.5 Q227 399 213 358 Q199 317 191.5 275 Q184 233 184 195 Q184 116 215.5 79.5 Q247 43 301 43 Q349 43 396 67 Q443 91 484 130 L506 106 Z " />
<glyph glyph-name="D" unicode="D" horiz-adv-x="634" d="M372 625 Q517 625 587 557 Q615 529 630 491 Q645 453 645 403 Q645 318 609.5 236.5 Q574 155 508 95 Q458 50 394.5 25 Q331 0 250 0 L14 0 L20 22 L83 42 L217 539 Q221 555 221 564 Q221 579 209.5 587 Q198 595 169 603 L175 625 L372 625 Z M240 42 Q289 42 331 58.5 Q373 75 406.5 103.5 Q440 132 466 170 Q492 208 509 250 Q526 292 535 335.5 Q544 379 544 419 Q544 495 508 534 Q485 559 448 570 Q411 581 358 581 L324 581 L192 89 Q189 77 189 70 Q189 57 200 49.5 Q211 42 240 42 Z " />
<glyph glyph-name="E" unicode="E" horiz-adv-x="535" d="M20 22 L83 42 L217 539 Q221 555 221 564 Q221 579 209.5 587 Q198 595 169 603 L175 625 L593 625 Q589 611 584.5 590 Q580 569 575.5 547.5 Q571 526 567.5 506.5 Q564 487 562 475 L536 475 Q537 481 537.5 488.5 Q538 496 538 504 Q538 553 508.5 568.5 Q479 584 409 584 Q387 584 363 583.5 Q339 583 325 582 L260 341 L316 341 Q332 341 351 341.5 Q370 342 387 343.5 Q404 345 417.5 346 Q431 347 437 349 L419 295 Q414 296 402 297 Q390 298 374.5 299 Q359 300 340.5 300.5 Q322 301 306 301 L249 301 L192 92 Q188 77 188 70 Q188 56 205.5 48.5 Q223 41 268 41 Q317 41 347.5 45 Q378 49 398 60.5 Q418 72 432.5 93 Q447 114 464 148 L487 148 Q482 135 476 115 Q470 95 463 73 Q456 51 450.5 31.5 Q445 12 442 0 L14 0 L20 22 Z " />
<glyph glyph-name="F" unicode="F" horiz-adv-x="495" d="M191 86 Q187 70 187 61 Q187 50 199 40 Q211 30 251 22 L245 0 Q235 0 219 0.5 Q203 1 185.5 1.5 Q168 2 152 2.5 Q136 3 125 3 Q101 3 68.5 2 Q36 1 14 0 L20 22 L83 42 L217 539 Q221 555 221 564 Q221 579 209.5 587 Q198 595 169 603 L175 625 L589 625 Q585 611 580.5 590 Q576 569 571.5 547.5 Q567 526 563.5 506.5 Q560 487 558 475 L532 475 Q533 481 533.5 488.5 Q534 496 534 504 Q534 528 527 543.5 Q520 559 505 568 Q490 577 465.5 580.5 Q441 584 407 584 Q385 584 362 583.5 Q339 583 325 582 L260 341 L314 341 Q330 341 348.5 341.5 Q367 342 384 343.5 Q401 345 414 346 Q427 347 433 349 L415 295 Q410 296 398.5 297 Q387 298 371.5 299 Q356 300 338 300.5 Q320 301 304 301 L249 301 L191 86 Z " />
<glyph glyph-name="G" unicode="G" horiz-adv-x="616" d="M501 45 Q483 33 459 22 Q435 11 408.5 3 Q382 -5 354 -10 Q326 -15 299 -15 Q250 -15 210 -0.5 Q170 14 141.5 42 Q113 70 97.5 111.5 Q82 153 82 206 Q82 283 108 360.5 Q134 438 183 500 Q232 562 301 601 Q370 640 456 640 Q476 640 498.5 637 Q521 634 543.5 630.5 Q566 627 586.5 623 Q607 619 624 616 Q615 581 604.5 537 Q594 493 586 455 L562 455 Q562 486 557.5 511.5 Q553 537 540 555 Q527 573 505.5 583 Q484 593 450 593 Q384 593 334 554 Q284 515 250.5 456.5 Q217 398 200.5 330.5 Q184 263 184 205 Q184 124 214 78 Q244 32 302 32 Q354 32 389 65 Q407 82 419 108 Q431 134 442 173 L458 232 L391 250 L398 272 Q407 272 422.5 271.5 Q438 271 454.5 270.5 Q471 270 487 269.5 Q503 269 514 269 Q525 269 539.5 269.5 Q554 270 568.5 270.5 Q583 271 596 271.5 Q609 272 618 272 L611 250 Q575 244 561.5 232.5 Q548 221 540 190 L501 45 Z " />
<glyph glyph-name="H" unicode="H" horiz-adv-x="677" d="M585 539 Q589 555 589 564 Q589 579 577.5 587 Q566 595 537 603 L543 625 Q553 625 567 624.5 Q581 624 596 623.5 Q611 623 625.5 622.5 Q640 622 651 622 Q675 622 707.5 623 Q740 624 762 625 L756 603 L693 583 L559 86 Q555 70 555 61 Q555 46 566.5 38 Q578 30 607 22 L601 0 Q591 0 577 0.5 Q563 1 548 1.5 Q533 2 518.5 2.5 Q504 3 493 3 Q469 3 436.5 2 Q404 1 382 0 L388 22 L451 42 L520 298 L248 298 L191 86 Q187 70 187 61 Q187 46 198.5 38 Q210 30 239 22 L233 0 Q223 0 209 0.5 Q195 1 180 1.5 Q165 2 150.5 2.5 Q136 3 125 3 Q101 3 68.5 2 Q36 1 14 0 L20 22 L83 42 L217 539 Q221 555 221 564 Q221 579 209.5 587 Q198 595 169 603 L175 625 Q185 625 199 624.5 Q213 624 228 623.5 Q243 623 257.5 622.5 Q272 622 283 622 Q307 622 339.5 623 Q372 624 394 625 L388 603 L325 583 L260 343 L532 343 L585 539 Z " />
<glyph glyph-name="I" unicode="I" horiz-adv-x="313" d="M193 86 Q189 70 189 61 Q189 46 200.5 38 Q212 30 241 22 L235 0 Q225 0 211 0.5 Q197 1 182 1.5 Q167 2 152.5 2.5 Q138 3 127 3 Q103 3 70.5 2 Q38 1 16 0 L22 22 L85 42 L219 539 Q223 555 223 564 Q223 579 211.5 587 Q200 595 171 603 L177 625 Q187 625 201 624.5 Q215 624 230 623.5 Q245 623 259.5 622.5 Q274 622 285 622 Q309 622 341.5 623 Q374 624 396 625 L390 603 L327 583 L193 86 Z " />
<glyph glyph-name="J" unicode="J" horiz-adv-x="306" d="M386 603 L323 583 L188 81 Q167 4 140 -48 Q113 -100 79.5 -134 Q46 -168 6 -187.5 Q-34 -207 -82 -217 L-90 -189 Q-56 -174 -30 -154.5 Q-4 -135 17 -105 Q38 -75 55.5 -30.5 Q73 14 91 79 L215 539 Q219 555 219 564 Q219 579 207.5 587 Q196 595 167 603 L173 625 Q183 625 197 624.5 Q211 624 226 623.5 Q241 623 255.5 622.5 Q270 622 281 622 Q305 622 337.5 623 Q370 624 392 625 L386 603 Z " />
<glyph glyph-name="K" unicode="K" horiz-adv-x="599" d="M254 322 L534 588 L481 603 L487 625 Q507 624 537 623 Q567 622 587 622 Q597 622 610 622.5 Q623 623 636 623.5 Q649 624 660.5 624.5 Q672 625 679 625 L673 603 Q650 599 634 595 Q618 591 603.5 583.5 Q589 576 574.5 564.5 Q560 553 540 534 L397 399 L484 89 Q492 63 500 52.5 Q508 42 524 42 Q535 42 547 45.5 Q559 49 567 53 L559 22 Q544 10 520.5 0.5 Q497 -9 476 -9 Q444 -9 424 11 Q413 23 405 40.5 Q397 58 388 91 L323 328 L233 244 L191 86 Q187 70 187 61 Q187 46 198.5 38 Q210 30 239 22 L233 0 Q223 0 209 0.5 Q195 1 180 1.5 Q165 2 150.5 2.5 Q136 3 125 3 Q101 3 68.5 2 Q36 1 14 0 L20 22 L83 42 L217 539 Q221 555 221 564 Q221 579 209.5 587 Q198 595 169 603 L175 625 Q185 625 199 624.5 Q213 624 228 623.5 Q243 623 257.5 622.5 Q272 622 283 622 Q307 622 339.5 623 Q372 624 394 625 L388 603 L325 583 L254 322 Z " />
<glyph glyph-name="L" unicode="L" horiz-adv-x="491" d="M192 92 Q188 77 188 70 Q188 56 205.5 48.5 Q223 41 268 41 Q313 41 341 45 Q369 49 388.5 60.5 Q408 72 422 93 Q436 114 453 148 L476 148 Q471 135 465 115 Q459 95 452 73 Q445 51 439.5 31.5 Q434 12 431 0 L14 0 L20 22 L83 42 L217 539 Q221 555 221 564 Q221 579 209.5 587 Q198 595 169 603 L175 625 Q185 625 199 624.5 Q213 624 228 623.5 Q243 623 257.5 622.5 Q272 622 283 622 Q307 622 339.5 623 Q372 624 394 625 L388 603 L325 583 L192 92 Z " />
<glyph glyph-name="M" unicode="M" horiz-adv-x="811" d="M693 86 Q689 70 689 61 Q689 46 700.5 38 Q712 30 741 22 L735 0 Q725 0 711 0.5 Q697 1 682 1.5 Q667 2 652.5 2.5 Q638 3 627 3 Q603 3 571 2 Q539 1 517 0 L523 22 L586 42 L714 513 Q706 500 691.5 478 Q677 456 661.5 432.5 Q646 409 631.5 387 Q617 365 608 353 L365 -3 L342 -3 L284 339 Q277 380 271 420.5 Q265 461 261 499 L150 86 Q146 70 146 61 Q146 46 157.5 38 Q169 30 198 22 L192 0 Q172 1 151.5 2 Q131 3 109 3 Q85 3 60.5 2 Q36 1 14 0 L20 22 L83 42 L217 539 Q221 555 221 564 Q221 579 209.5 587 Q198 595 169 603 L175 625 L334 625 L412 151 L736 625 L896 625 L890 603 L827 583 L693 86 Z " />
<glyph glyph-name="N" unicode="N" horiz-adv-x="676" d="M300 625 L527 159 L630 539 Q634 555 634 564 Q634 579 622.5 587 Q611 595 582 603 L588 625 Q608 624 628.5 623 Q649 622 671 622 Q695 622 719.5 623 Q744 624 766 625 L760 603 L697 583 L539 -3 L502 -3 L260 496 L150 86 Q146 70 146 61 Q146 46 157.5 38 Q169 30 198 22 L192 0 Q172 1 151.5 2 Q131 3 109 3 Q85 3 60.5 2 Q36 1 14 0 L20 22 L83 42 L216 535 Q220 549 221 555.5 Q222 562 222 567 Q222 581 208 589 Q194 597 167 603 L173 625 L300 625 Z " />
<glyph glyph-name="O" unicode="O" horiz-adv-x="589" d="M283 -15 Q237 -15 201 0.5 Q165 16 140 44 Q115 72 102 110.5 Q89 149 89 195 Q89 239 99.5 289 Q110 339 130.5 388.5 Q151 438 180.5 483.5 Q210 529 248 564 Q286 599 332 619.5 Q378 640 431 640 Q477 640 513 624.5 Q549 609 574 581 Q599 553 612 514.5 Q625 476 625 430 Q625 386 614.5 336 Q604 286 583.5 236.5 Q563 187 533.5 141.5 Q504 96 466 61 Q428 26 382 5.5 Q336 -15 283 -15 Z M288 33 Q315 33 340 45 Q365 57 387 78.5 Q409 100 428 129 Q447 158 463 191 Q491 251 507 318.5 Q523 386 523 446 Q523 517 497.5 554.5 Q472 592 426 592 Q399 592 374 580 Q349 568 327 546.5 Q305 525 286 496 Q267 467 251 434 Q223 374 207 306.5 Q191 239 191 179 Q191 108 216.5 70.5 Q242 33 288 33 Z " />
<glyph glyph-name="P" unicode="P" horiz-adv-x="543" d="M187 61 Q187 50 199 40 Q211 30 251 22 L245 0 Q235 0 219 0.5 Q203 1 185.5 1.5 Q168 2 152 2.5 Q136 3 125 3 Q101 3 68.5 2 Q36 1 14 0 L20 22 L83 42 L217 539 Q221 555 221 564 Q221 579 209.5 587 Q198 595 169 603 L175 625 L371 625 Q502 625 553 571 Q587 536 587 474 Q587 435 570.5 396 Q554 357 523 328 Q486 293 427 274 Q368 255 292 255 L237 255 L191 86 Q187 70 187 61 Z M248 296 L279 296 Q330 296 367.5 310.5 Q405 325 431 350 Q457 375 471.5 410 Q486 445 486 482 Q486 524 463 549 Q448 565 420.5 573 Q393 581 349 581 L324 581 L248 296 Z " />
<glyph glyph-name="Q" unicode="Q" horiz-adv-x="608" d="M618 430 Q618 373 600.5 306.5 Q583 240 549.5 179 Q516 118 468 69.5 Q420 21 359 0 Q366 -85 434 -127 Q502 -169 618 -176 L613 -202 Q518 -202 451.5 -188 Q385 -174 340.5 -149 Q296 -124 272 -89 Q248 -54 239 -12 Q164 -1 123 55.5 Q82 112 82 195 Q82 239 92.5 289 Q103 339 123.5 388.5 Q144 438 173.5 483.5 Q203 529 241 564 Q279 599 325 619.5 Q371 640 424 640 Q470 640 506 624.5 Q542 609 567 581 Q592 553 605 514.5 Q618 476 618 430 Z M281 33 Q308 33 333 45 Q358 57 380 78.5 Q402 100 421 129 Q440 158 456 191 Q484 251 500 318.5 Q516 386 516 446 Q516 517 490.5 554.5 Q465 592 419 592 Q392 592 367 580 Q342 568 320 546.5 Q298 525 279 496 Q260 467 244 434 Q216 374 200 306.5 Q184 239 184 179 Q184 108 209.5 70.5 Q235 33 281 33 Z " />
<glyph glyph-name="R" unicode="R" horiz-adv-x="592" d="M191 86 Q187 70 187 61 Q187 46 198.5 38 Q210 30 239 22 L233 0 Q223 0 209 0.5 Q195 1 180 1.5 Q165 2 150.5 2.5 Q136 3 125 3 Q101 3 68.5 2 Q36 1 14 0 L20 22 L83 42 L217 539 Q221 555 221 564 Q221 579 209.5 587 Q198 595 169 603 L175 625 L373 625 Q504 625 552 573 Q584 538 584 481 Q584 448 571 418 Q558 388 535.5 363 Q513 338 482.5 320 Q452 302 416 293 Q433 282 442.5 265 Q452 248 458 216 L483 91 Q489 62 497.5 52 Q506 42 523 42 Q532 42 543 44.5 Q554 47 564 51 L556 21 Q540 10 517.5 1.5 Q495 -7 474 -7 Q439 -7 421 11 Q410 22 403.5 38.5 Q397 55 391 84 L368 200 Q363 222 357.5 236 Q352 250 342.5 258 Q333 266 319.5 268.5 Q306 271 285 271 L241 271 L191 86 Z M252 312 L278 312 Q327 312 364 326 Q401 340 428 365 Q454 388 468.5 420.5 Q483 453 483 488 Q483 530 459 553 Q430 581 352 581 L325 581 L252 312 Z " />
<glyph glyph-name="S" unicode="S" horiz-adv-x="497" d="M248 478 Q248 438 273.5 409 Q299 380 335 350 Q355 333 375 315.5 Q395 298 411 278 Q427 258 437 234.5 Q447 211 447 183 Q447 136 429 99.5 Q411 63 379 37.5 Q347 12 303.5 -1.5 Q260 -15 209 -15 Q188 -15 166 -12.5 Q144 -10 122 -5 Q100 0 80.5 6.5 Q61 13 46 21 Q57 57 66 92 Q75 127 83 160 L107 160 L107 143 Q107 87 138 57.5 Q169 28 217 28 Q246 28 271 37 Q296 46 315 63 Q334 80 344.5 104 Q355 128 355 157 Q355 179 347 197 Q339 215 325.5 231 Q312 247 295 261.5 Q278 276 260 291 Q240 307 221.5 323.5 Q203 340 188.5 359 Q174 378 165 401 Q156 424 156 452 Q156 496 174 531 Q192 566 223 590 Q254 614 294 627 Q334 640 379 640 Q421 640 460.5 630.5 Q500 621 536 614 Q533 603 528.5 586.5 Q524 570 520 551 Q516 532 512 512.5 Q508 493 505 475 L481 475 L481 483 Q481 532 457 563.5 Q433 595 379 595 Q321 595 284.5 562.5 Q248 530 248 478 Z " />
<glyph glyph-name="T" unicode="T" horiz-adv-x="546" d="M309 86 Q305 70 305 61 Q305 46 316.5 38 Q328 30 357 22 L351 0 Q341 0 327 0.5 Q313 1 298 1.5 Q283 2 268.5 2.5 Q254 3 243 3 Q219 3 186.5 2 Q154 1 132 0 L138 22 L201 42 L348 585 L304 585 Q271 585 249.5 582.5 Q228 580 210.5 569 Q193 558 177 535.5 Q161 513 140 473 L114 473 Q118 486 124.5 506 Q131 526 138 548 Q145 570 151.5 590.5 Q158 611 162 625 L650 625 Q646 609 641 588 Q636 567 631.5 546 Q627 525 623 505.5 Q619 486 616 473 L590 473 Q590 509 588 530 Q586 551 576 564 Q565 578 544 581.5 Q523 585 483 585 L444 585 L309 86 Z " />
<glyph glyph-name="U" unicode="U" horiz-adv-x="647" d="M671 583 L579 241 Q563 180 541 133.5 Q519 87 488 55 Q421 -15 309 -15 Q255 -15 216 -1 Q177 13 153 38 Q133 58 122.5 85 Q112 112 112 142 Q112 166 116.5 191 Q121 216 129 248 L207 539 Q211 555 211 564 Q211 579 199.5 587 Q188 595 159 603 L165 625 Q175 625 189 624.5 Q203 624 218 623.5 Q233 623 247.5 622.5 Q262 622 273 622 Q297 622 329.5 623 Q362 624 384 625 L378 603 L315 583 L225 247 Q217 218 212.5 193 Q208 168 208 145 Q208 94 238.5 64.5 Q269 35 326 35 Q370 35 402 51.5 Q434 68 457.5 96.5 Q481 125 497 163 Q513 201 525 245 L605 539 Q609 555 609 564 Q609 579 597.5 587 Q586 595 557 603 L563 625 Q583 624 604 623 Q625 622 647 622 Q671 622 694.5 623 Q718 624 740 625 L734 603 L671 583 Z " />
<glyph glyph-name="V" unicode="V" horiz-adv-x="562" d="M692 603 Q672 600 658.5 596 Q645 592 634.5 585.5 Q624 579 615.5 568.5 Q607 558 597 542 L274 -2 L230 -2 L176 529 Q174 548 171 559.5 Q168 571 160.5 578.5 Q153 586 140.5 591.5 Q128 597 108 603 L115 625 Q120 625 133 624.5 Q146 624 161.5 623.5 Q177 623 192.5 622.5 Q208 622 219 622 Q233 622 249 622.5 Q265 623 280 623.5 Q295 624 307 624.5 Q319 625 326 625 L320 603 L266 589 L308 150 L568 588 L515 603 L521 625 Q529 624 542 623.5 Q555 623 569 622.5 Q583 622 596.5 622 Q610 622 618 622 Q626 622 637.5 622 Q649 622 660.5 622.5 Q672 623 682 623.5 Q692 624 698 625 L692 603 L692 603 Z " />
<glyph glyph-name="W" unicode="W" horiz-adv-x="855" d="M982 603 Q962 600 948 595.5 Q934 591 923.5 583.5 Q913 576 904.5 565 Q896 554 887 538 L577 -2 L533 -2 L506 405 L259 -2 L214 -2 L175 538 Q174 554 171 564.5 Q168 575 161 582 Q154 589 141.5 593.5 Q129 598 108 603 L115 625 Q121 625 133 624.5 Q145 624 160 623.5 Q175 623 190 622.5 Q205 622 217 622 Q243 622 273.5 622.5 Q304 623 327 625 L321 603 L265 589 L296 148 L500 486 L497 548 Q495 574 483 584.5 Q471 595 439 603 L446 625 Q452 625 464.5 624.5 Q477 624 492 623.5 Q507 623 522 622.5 Q537 622 547 622 Q557 622 571 622 Q585 622 600 622.5 Q615 623 629 623.5 Q643 624 651 625 L642 603 L586 589 L612 158 L860 588 L804 603 L809 625 Q817 625 829.5 624.5 Q842 624 855.5 623.5 Q869 623 882 622.5 Q895 622 903 622 Q911 622 923 622.5 Q935 623 947 623.5 Q959 624 970 624.5 Q981 625 988 625 L982 603 L982 603 Z " />
<glyph glyph-name="X" unicode="X" horiz-adv-x="583" d="M370 386 L549 592 L501 603 L507 625 Q513 625 525 624.5 Q537 624 551 623.5 Q565 623 578.5 622.5 Q592 622 601 622 Q610 622 622.5 622.5 Q635 623 647 623.5 Q659 624 669 624.5 Q679 625 683 625 L677 603 Q656 601 641.5 597.5 Q627 594 615.5 588 Q604 582 593.5 573 Q583 564 571 550 L388 339 L486 76 Q491 62 496.5 53.5 Q502 45 510.5 39 Q519 33 530 29.5 Q541 26 558 22 L552 0 Q539 1 511.5 2 Q484 3 455 3 Q443 3 426 2.5 Q409 2 392.5 1.5 Q376 1 362.5 0.5 Q349 0 342 0 L348 22 L399 36 L314 263 L115 33 L164 22 L158 0 Q152 0 140 0.5 Q128 1 114 1.5 Q100 2 86 2.5 Q72 3 63 3 Q54 3 41 2.5 Q28 2 15.5 1.5 Q3 1 -7.5 0.5 Q-18 0 -22 0 L-16 22 Q5 25 20 28.5 Q35 32 47 37.5 Q59 43 70 52 Q81 61 93 75 L297 310 L208 549 Q203 563 197 572 Q191 581 182.5 586.5 Q174 592 162 596 Q150 600 134 603 L140 625 Q146 625 158 624.5 Q170 624 184 623.5 Q198 623 213 622.5 Q228 622 241 622 Q253 622 270 622.5 Q287 623 303.5 623.5 Q320 624 333.5 624.5 Q347 625 354 625 L348 603 L295 589 L370 386 Z " />
<glyph glyph-name="Y" unicode="Y" horiz-adv-x="541" d="M311 86 Q307 70 307 61 Q307 46 318.5 38 Q330 30 359 22 L353 0 Q343 0 329 0.5 Q315 1 300 1.5 Q285 2 270.5 2.5 Q256 3 245 3 Q221 3 188.5 2 Q156 1 134 0 L140 22 L203 42 L257 243 L184 541 Q180 556 175.5 566 Q171 576 163 583 Q155 590 143.5 594.5 Q132 599 115 603 L121 625 Q138 624 168.5 623 Q199 622 223 622 Q234 622 249.5 622 Q265 622 280 622.5 Q295 623 308 623.5 Q321 624 328 625 L321 603 L270 589 L338 298 L547 588 L499 603 L505 625 Q510 625 520.5 624.5 Q531 624 544 623.5 Q557 623 569.5 622.5 Q582 622 592 622 Q611 622 635.5 623 Q660 624 673 625 L667 603 Q648 601 635 597.5 Q622 594 611.5 587 Q601 580 591 569.5 Q581 559 569 542 L354 245 L311 86 Z " />
<glyph glyph-name="Z" unicode="Z" horiz-adv-x="535" d="M605 601 Q584 574 553 535.5 Q522 497 484.5 450.5 Q447 404 404 352.5 Q361 301 317 248 Q273 195 228.5 142 Q184 89 143 40 L313 40 Q347 40 370 47.5 Q393 55 409.5 69 Q426 83 438 103 Q450 123 462 149 L490 149 Q484 132 477.5 111.5 Q471 91 464.5 71 Q458 51 452.5 32.5 Q447 14 443 0 L34 0 L23 24 Q54 65 106.5 130 Q159 195 222 271.5 Q285 348 353 429.5 Q421 511 483 584 L257 584 L183 479 L155 479 Q159 491 164.5 509.5 Q170 528 176.5 549 Q183 570 189 590 Q195 610 199 625 L593 625 L605 601 Z " />
<glyph glyph-name="a" unicode="a" horiz-adv-x="493" d="M298 61 Q276 29 241 7 Q206 -15 166 -15 Q110 -15 77.5 25.5 Q45 66 45 138 Q45 191 65.5 248 Q86 305 123 352 Q160 399 212 429.5 Q264 460 327 460 Q380 460 417 428 L441 460 L487 449 L490 444 L394 91 Q389 73 389 63 Q389 45 407 45 Q422 45 445 54 L436 21 Q419 10 396.5 1 Q374 -8 353 -8 Q327 -8 312.5 6.5 Q298 21 298 47 L298 61 Z M296 117 Q313 146 326.5 182 Q340 218 353 265 L384 381 Q376 396 361.5 405 Q347 414 327 414 Q298 414 274.5 399.5 Q251 385 229 361 Q211 340 195 313.5 Q179 287 167 257 Q155 227 148.5 195.5 Q142 164 142 134 Q142 89 158 67 Q174 45 201 45 Q230 45 253 65 Q276 85 296 117 Z " />
<glyph glyph-name="b" unicode="b" horiz-adv-x="492" d="M189 583 Q193 599 193 609 Q193 622 183.5 629 Q174 636 146 644 L152 665 Q202 665 239 666.5 Q276 668 296 671 L300 666 L258 511 Q254 497 248 477.5 Q242 458 235 436.5 Q228 415 221 394.5 Q214 374 208 359 L211 359 Q222 379 237 397 Q252 415 271 429 Q290 443 312 451.5 Q334 460 359 460 Q413 460 446.5 420.5 Q480 381 480 309 Q480 255 459.5 198 Q439 141 401.5 93.5 Q364 46 312.5 15.5 Q261 -15 198 -15 Q170 -15 144.5 -6.5 Q119 2 99 16 L83 -5 L34 -8 L30 -3 L189 583 Z M137 67 Q144 53 160.5 42 Q177 31 203 31 Q239 31 271.5 59 Q304 87 329 129.5 Q354 172 369 221.5 Q384 271 384 315 Q384 351 370 375 Q356 399 325 399 Q299 399 275 380 Q251 361 231 331 Q208 296 192 253 Q176 210 165 171 L137 67 Z " />
<glyph glyph-name="c" unicode="c" horiz-adv-x="427" d="M405 322 Q403 368 381 391 Q359 414 323 414 Q280 414 246.5 387 Q213 360 189.5 319.5 Q166 279 154 231.5 Q142 184 142 144 Q142 96 162.5 71 Q183 46 221 46 Q259 46 294 69 Q329 92 362 129 L384 108 Q347 53 295.5 19 Q244 -15 188 -15 Q118 -15 81.5 28 Q45 71 45 140 Q45 203 72.5 268.5 Q100 334 148 382 Q183 417 228.5 438.5 Q274 460 328 460 Q363 460 394 453 Q425 446 456 439 Q449 417 439.5 383.5 Q430 350 424 322 L405 322 Z " />
<glyph glyph-name="d" unicode="d" horiz-adv-x="493" d="M296 117 Q313 146 326.5 182 Q340 218 353 265 L384 381 Q376 396 361.5 405 Q347 414 327 414 Q298 414 274.5 399.5 Q251 385 229 361 Q211 340 195 313.5 Q179 287 167 257 Q155 227 148.5 195.5 Q142 164 142 134 Q142 89 158 67 Q174 45 201 45 Q230 45 253 65 Q276 85 296 117 Z M402 665 Q452 665 489.5 666.5 Q527 668 546 671 L550 666 L394 91 Q389 73 389 63 Q389 45 407 45 Q422 45 445 54 L436 21 Q419 10 396.5 1 Q374 -8 353 -8 Q327 -8 312.5 6.5 Q298 21 298 47 L298 61 Q276 29 241 7 Q206 -15 166 -15 Q110 -15 77.5 25.5 Q45 66 45 138 Q45 191 65.5 248 Q86 305 122.5 352 Q159 399 211 429.5 Q263 460 326 460 Q368 460 400 439 L439 583 Q443 599 443 609 Q443 622 433.5 629 Q424 636 396 644 L402 665 Z " />
<glyph glyph-name="e" unicode="e" horiz-adv-x="428" d="M387 109 Q350 52 295.5 18.5 Q241 -15 186 -15 Q120 -15 82.5 25.5 Q45 66 45 137 Q45 206 74.5 272.5 Q104 339 152 387 Q186 420 228.5 440 Q271 460 316 460 Q368 460 400 435.5 Q432 411 432 366 Q432 328 408.5 295.5 Q385 263 345 238.5 Q305 214 253.5 198.5 Q202 183 146 180 Q144 172 143 159.5 Q142 147 142 139 Q142 96 161 71 Q180 46 219 46 Q251 46 290 65.5 Q329 85 366 130 L387 109 Z M153 219 Q196 223 231 238.5 Q266 254 291 275 Q316 296 330 321 Q344 346 344 371 Q344 390 333 402 Q322 414 302 414 Q279 414 257 399.5 Q235 385 215.5 359 Q196 333 180 297.5 Q164 262 153 219 Z " />
<glyph glyph-name="f" unicode="f" horiz-adv-x="288" d="M155 444 Q219 680 373 680 Q421 680 448.5 666.5 Q476 653 476 630 Q476 622 471.5 612.5 Q467 603 459.5 595.5 Q452 588 442.5 583 Q433 578 423 578 Q409 578 402.5 588 Q396 598 390.5 610.5 Q385 623 377 633 Q369 643 353 643 Q338 643 324 632.5 Q310 622 297 598 Q284 574 271 536 Q258 498 244 444 L351 444 L332 405 L233 405 L64 -220 L-25 -220 L144 405 L74 405 L84 444 L155 444 L155 444 Z " />
<glyph glyph-name="g" unicode="g" horiz-adv-x="459" d="M447 337 Q447 296 429.5 259.5 Q412 223 382 195 Q352 167 312.5 151 Q273 135 228 135 Q205 135 180 140 Q160 123 160 106 Q160 92 176.5 81 Q193 70 240 54 Q279 40 306.5 28 Q334 16 351.5 2.5 Q369 -11 377 -27.5 Q385 -44 385 -66 Q385 -100 362.5 -130.5 Q340 -161 303 -184 Q266 -207 217.5 -220.5 Q169 -234 118 -234 Q83 -234 53.5 -226.5 Q24 -219 2 -204.5 Q-20 -190 -32 -170 Q-44 -150 -44 -125 Q-44 -103 -33.5 -81.5 Q-23 -60 -4.5 -41 Q14 -22 38.5 -5 Q63 12 91 26 Q80 41 80 64 Q80 113 146 152 Q117 167 99.5 193.5 Q82 220 82 258 Q82 299 99.5 335.5 Q117 372 147 400 Q177 428 216.5 444 Q256 460 301 460 Q336 460 367 449 Q383 482 404.5 505.5 Q426 529 457 529 Q475 529 487 519.5 Q499 510 499 493 Q499 483 495 470.5 Q491 458 486 447 Q478 452 470.5 455.5 Q463 459 452 459 Q437 459 423 452 Q409 445 398 434 Q421 418 434 393.5 Q447 369 447 337 Z M209 -37 Q177 -26 154 -17 Q131 -8 115 3 Q81 -22 63.5 -51.5 Q46 -81 46 -111 Q46 -144 73.5 -164 Q101 -184 152 -184 Q180 -184 207 -177.5 Q234 -171 255.5 -160 Q277 -149 290 -134.5 Q303 -120 303 -103 Q303 -83 282.5 -69 Q262 -55 209 -37 Z M357 344 Q357 415 295 415 Q265 415 242 398 Q219 381 203.5 356 Q188 331 180 302.5 Q172 274 172 251 Q172 180 234 180 Q264 180 287 197 Q310 214 325.5 239 Q341 264 349 292.5 Q357 321 357 344 Z " />
<glyph glyph-name="h" unicode="h" horiz-adv-x="508" d="M150 665 Q200 665 237.5 666.5 Q275 668 295 671 L299 666 L247 473 Q236 435 224.5 396 Q213 357 201 322 L204 322 Q235 385 280 422.5 Q325 460 381 460 Q429 460 454.5 432.5 Q480 405 480 359 Q480 332 472 296 Q464 260 445 197 Q434 159 427 135 Q420 111 416 96 Q412 81 410.5 73 Q409 65 409 60 Q409 45 423 45 Q431 45 441.5 47.5 Q452 50 463 54 L454 22 Q434 8 411.5 0 Q389 -8 368 -8 Q344 -8 331 6.5 Q318 21 318 47 Q318 67 327.5 104.5 Q337 142 358 210 Q374 261 381.5 293 Q389 325 389 345 Q389 391 348 391 Q321 391 294.5 373 Q268 355 245 325 Q214 285 190 228.5 Q166 172 142 84 L119 0 L30 0 L187 583 Q191 599 191 609 Q191 622 181.5 629 Q172 636 144 644 L150 665 Z " />
<glyph glyph-name="i" unicode="i" horiz-adv-x="249" d="M286 593 Q286 565 267 543.5 Q248 522 220 522 Q201 522 190 533.5 Q179 545 178 562 Q178 590 197.5 611.5 Q217 633 245 633 Q264 633 275 621.5 Q286 610 286 593 Z M96 444 Q146 444 183.5 445.5 Q221 447 240 450 L244 445 L148 91 Q143 73 143 63 Q143 45 161 45 Q176 45 199 54 L190 21 Q173 10 150.5 1 Q128 -8 107 -8 Q81 -8 67 6.5 Q53 21 53 47 Q53 67 61 97 L133 362 Q137 378 137 388 Q137 401 127.5 408 Q118 415 90 423 L96 444 Z " />
<glyph glyph-name="j" unicode="j" horiz-adv-x="235" d="M285 593 Q285 565 266 543.5 Q247 522 219 522 Q200 522 189 533.5 Q178 545 177 562 Q177 590 196.5 611.5 Q216 633 244 633 Q263 633 274 621.5 Q285 610 285 593 Z M95 444 Q145 444 182.5 445.5 Q220 447 239 450 L243 445 L120 -9 Q106 -62 87 -97.5 Q68 -133 43 -157 Q14 -184 -22.5 -201.5 Q-59 -219 -101 -230 L-108 -207 Q-80 -194 -59.5 -178.5 Q-39 -163 -23 -142 Q-7 -121 4.5 -93.5 Q16 -66 26 -30 L132 362 Q136 378 136 388 Q136 401 126.5 408 Q117 415 89 423 L95 444 Z " />
<glyph glyph-name="k" unicode="k" horiz-adv-x="458" d="M150 665 Q200 665 237.5 666.5 Q275 668 295 671 L299 666 L190 267 Q272 322 317.5 364 Q363 406 376 441 L492 444 L492 438 L291 294 L346 94 Q354 66 363 56 Q372 46 390 46 Q398 46 408 48 Q418 50 426 53 L416 20 Q401 9 380.5 1 Q360 -7 342 -7 Q306 -7 289 15.5 Q272 38 258 87 L216 243 L176 215 L119 0 L30 0 L187 583 Q191 599 191 609 Q191 622 181.5 629 Q172 636 144 644 L150 665 Z " />
<glyph glyph-name="l" unicode="l" horiz-adv-x="244" d="M151 665 Q201 665 238.5 666.5 Q276 668 295 671 L299 666 L143 91 Q138 73 138 63 Q138 45 156 45 Q171 45 194 54 L185 21 Q168 10 145.5 1 Q123 -8 102 -8 Q76 -8 62 6.5 Q48 21 48 47 Q48 67 56 97 L188 583 Q192 599 192 609 Q192 622 182.5 629 Q173 636 145 644 L151 665 Z " />
<glyph glyph-name="m" unicode="m" horiz-adv-x="764" d="M95 444 Q196 444 235 450 L239 445 L205 320 L207 320 Q222 348 240 373.5 Q258 399 280 418.5 Q302 438 327 449 Q352 460 381 460 Q427 460 450 434 Q473 408 475 364 Q475 358 475 351.5 Q475 345 474 337 Q503 388 545 424 Q587 460 640 460 Q688 460 712 432.5 Q736 405 736 359 Q736 332 728 296 Q720 260 701 197 Q690 159 683 135 Q676 111 672 96 Q668 81 666.5 73 Q665 65 665 60 Q665 45 679 45 Q687 45 697.5 47.5 Q708 50 719 54 L710 22 Q690 8 667.5 0 Q645 -8 624 -8 Q600 -8 587 6.5 Q574 21 574 47 Q574 67 583.5 104.5 Q593 142 614 210 Q630 261 637.5 293 Q645 325 645 345 Q645 365 636.5 378 Q628 391 606 391 Q588 391 569 381 Q550 371 532 353.5 Q514 336 497 312.5 Q480 289 467 261 Q437 197 419 131.5 Q401 66 393 0 L310 0 Q311 19 313.5 40 Q316 61 321.5 87 Q327 113 335.5 144.5 Q344 176 357 216 Q371 260 378.5 293 Q386 326 386 346 Q386 391 348 391 Q317 391 285.5 365 Q254 339 228 296 Q217 278 207 258 Q197 238 187 213 Q177 188 167 156.5 Q157 125 146 84 L123 0 L34 0 L132 362 Q136 378 136 388 Q136 401 126.5 408 Q117 415 89 423 L95 444 Z " />
<glyph glyph-name="n" unicode="n" horiz-adv-x="512" d="M458 22 Q438 8 415.5 0 Q393 -8 372 -8 Q348 -8 335 6.5 Q322 21 322 47 Q322 67 331.5 104.5 Q341 142 362 210 Q378 261 385.5 293 Q393 325 393 345 Q393 391 352 391 Q325 391 298.5 373 Q272 355 249 325 Q218 285 194 228.5 Q170 172 146 84 L123 0 L34 0 L132 362 Q136 378 136 388 Q136 401 126.5 408 Q117 415 89 423 L95 444 Q196 444 235 450 L239 445 L205 322 L208 322 Q239 385 284 422.5 Q329 460 385 460 Q433 460 458.5 432.5 Q484 405 484 359 Q484 332 476 296 Q468 260 449 197 Q438 159 431 135 Q424 111 420 96 Q416 81 414.5 73 Q413 65 413 60 Q413 45 427 45 Q435 45 445.5 47.5 Q456 50 467 54 L458 22 Z " />
<glyph glyph-name="o" unicode="o" horiz-adv-x="468" d="M142 127 Q142 107 145 90 Q148 73 155.5 59.5 Q163 46 175.5 38.5 Q188 31 207 31 Q239 31 263 52.5 Q287 74 306 109 Q319 134 329 163 Q339 192 345.5 220 Q352 248 355.5 273.5 Q359 299 359 317 Q359 356 345 385 Q331 414 294 414 Q262 414 238 392 Q214 370 195 335 Q182 310 172 281.5 Q162 253 155.5 225.5 Q149 198 145.5 172 Q142 146 142 127 Z M456 291 Q456 242 438.5 188 Q421 134 388 89 Q355 44 308.5 14.5 Q262 -15 205 -15 Q125 -15 85 31.5 Q45 78 45 153 Q45 202 62.5 256 Q80 310 113 355.5 Q146 401 192.5 430.5 Q239 460 296 460 Q376 460 416 413 Q456 366 456 291 Z " />
<glyph glyph-name="p" unicode="p" horiz-adv-x="498" d="M142 67 Q149 53 166 42 Q183 31 209 31 Q245 31 277.5 59 Q310 87 335 129.5 Q360 172 375 221.5 Q390 271 390 315 Q390 350 377 374.5 Q364 399 335 399 Q306 399 281 377 Q256 355 236 325 Q213 290 195.5 246.5 Q178 203 166 158 L142 67 Z M95 444 Q195 444 233 450 L237 445 L212 351 L215 351 Q226 371 241.5 390.5 Q257 410 276.5 425.5 Q296 441 318.5 450.5 Q341 460 367 460 Q421 460 453.5 420.5 Q486 381 486 309 Q486 255 465.5 198 Q445 141 407.5 93.5 Q370 46 318.5 15.5 Q267 -15 204 -15 Q181 -15 161 -9.5 Q141 -4 124 5 L64 -220 L-25 -220 L132 362 Q136 378 136 388 Q136 401 126.5 408 Q117 415 89 423 L95 444 Z " />
<glyph glyph-name="q" unicode="q" horiz-adv-x="483" d="M296 117 Q313 146 326.5 182 Q340 218 353 265 L384 381 Q376 396 361.5 405 Q347 414 327 414 Q298 414 274.5 399.5 Q251 385 229 361 Q211 340 195 313.5 Q179 287 167 257 Q155 227 148.5 195.5 Q142 164 142 134 Q142 89 158 67 Q174 45 201 45 Q230 45 253 65 Q276 85 296 117 Z M369 -220 Q319 -220 281.5 -221.5 Q244 -223 225 -226 L221 -221 L296 58 Q274 27 239.5 6 Q205 -15 166 -15 Q110 -15 77.5 25.5 Q45 66 45 138 Q45 191 65.5 248 Q86 305 123 352 Q160 399 212 429.5 Q264 460 327 460 Q380 460 417 428 L441 460 L487 449 L490 444 L332 -138 Q328 -154 328 -164 Q328 -177 337.5 -184 Q347 -191 375 -199 L369 -220 Z " />
<glyph glyph-name="r" unicode="r" horiz-adv-x="370" d="M132 362 Q136 378 136 388 Q136 401 126.5 408 Q117 415 89 423 L95 444 Q196 444 235 450 L239 445 L205 322 L207 322 Q246 392 289.5 426 Q333 460 375 460 Q401 460 412 449.5 Q423 439 423 425 Q423 416 419 406.5 Q415 397 409 388.5 Q403 380 395 375 Q387 370 379 370 Q366 370 355.5 376.5 Q345 383 328 383 Q298 383 264 346 Q232 311 202.5 248.5 Q173 186 149 96 L123 0 L34 0 L132 362 Z " />
<glyph glyph-name="s" unicode="s" horiz-adv-x="402" d="M413 437 Q410 428 406 414 Q402 400 398 385.5 Q394 371 390.5 356.5 Q387 342 385 332 L366 332 Q350 415 275 415 Q231 415 206 393.5 Q181 372 181 343 Q181 324 194 309.5 Q207 295 226.5 281.5 Q246 268 268.5 254.5 Q291 241 310.5 224.5 Q330 208 343 187 Q356 166 356 138 Q356 106 341.5 78.5 Q327 51 300.5 30 Q274 9 236.5 -3 Q199 -15 154 -15 Q121 -15 83.5 -7.5 Q46 0 20 11 Q23 21 27.5 36 Q32 51 36.5 67 Q41 83 44 98 Q47 113 49 122 L69 122 Q73 80 97.5 55 Q122 30 166 30 Q211 30 241 52 Q271 74 271 104 Q271 123 258 137.5 Q245 152 225.5 165 Q206 178 183.5 191 Q161 204 141.5 220 Q122 236 109 257 Q96 278 96 308 Q96 339 110 367 Q124 395 149 415.5 Q174 436 207.5 448 Q241 460 279 460 Q313 460 347.5 452 Q382 444 413 437 Z " />
<glyph glyph-name="t" unicode="t" horiz-adv-x="319" d="M287 50 Q258 22 219 3.5 Q180 -15 141 -15 Q103 -15 80 5.5 Q57 26 57 64 Q57 78 59.5 93 Q62 108 67 126 L142 405 L72 405 L82 444 L153 444 L176 529 L270 568 L274 563 L242 444 L353 444 L334 405 L231 405 L153 116 Q146 89 146 75 Q146 40 183 40 Q203 40 225.5 49.5 Q248 59 271 75 L287 50 Z " />
<glyph glyph-name="u" unicode="u" horiz-adv-x="509" d="M125 362 Q129 378 129 388 Q129 401 119.5 408 Q110 415 82 423 L88 444 Q138 444 175.5 445.5 Q213 447 232 450 L236 445 L164 180 Q156 153 152.5 134 Q149 115 149 100 Q149 80 158.5 67 Q168 54 191 54 Q221 54 253 80 Q285 106 311 149 Q322 167 332 187 Q342 207 352 232 Q362 257 372 288.5 Q382 320 393 361 L416 444 L505 444 L410 91 Q405 73 405 63 Q405 45 423 45 Q438 45 461 54 L452 21 Q435 10 412.5 1 Q390 -8 369 -8 Q343 -8 329 6.5 Q315 21 315 47 Q315 56 316.5 71.5 Q318 87 326 107 L325 107 Q291 51 249.5 18 Q208 -15 157 -15 Q110 -15 84 12 Q58 39 58 85 Q58 104 62.5 126 Q67 148 75 178 L125 362 Z " />
<glyph glyph-name="v" unicode="v" horiz-adv-x="430" d="M464 441 Q456 400 427.5 341.5 Q399 283 356 220 Q313 157 259.5 97 Q206 37 149 -7 L108 -7 L107 359 Q107 375 105 385 Q103 395 96.5 401.5 Q90 408 78.5 412.5 Q67 417 49 423 L55 444 Q109 444 143 445.5 Q177 447 194 449 L198 444 L196 87 Q267 159 315 252.5 Q363 346 370 448 L464 441 Z " />
<glyph glyph-name="w" unicode="w" horiz-adv-x="658" d="M349 247 Q337 216 315.5 182 Q294 148 267 115 Q240 82 209 50.5 Q178 19 147 -7 L108 -7 L107 359 Q107 375 105 385 Q103 395 97 401.5 Q91 408 79.5 412.5 Q68 417 49 423 L55 444 Q107 444 142 445.5 Q177 447 192 449 L196 444 L195 91 Q228 125 257 165.5 Q286 206 308 251 Q330 296 343 345 Q356 394 357 445 L437 444 L436 87 Q514 168 555.5 259 Q597 350 603 448 L692 441 Q689 403 664.5 346.5 Q640 290 599.5 228 Q559 166 505.5 104 Q452 42 389 -7 L350 -7 L349 247 Z " />
<glyph glyph-name="x" unicode="x" horiz-adv-x="468" d="M157 357 Q150 375 144.5 385.5 Q139 396 131 402.5 Q123 409 111 413.5 Q99 418 81 423 L87 444 Q139 444 166.5 446 Q194 448 210 450 L215 447 L275 287 Q307 330 333 362.5 Q359 395 382.5 416.5 Q406 438 427.5 449 Q449 460 473 460 Q478 460 483 459.5 Q488 459 493 458 Q485 435 479 412.5 Q473 390 467 364 Q456 371 438 371 Q406 371 371.5 339.5 Q337 308 289 251 L357 71 Q363 55 370 49 Q377 43 390 43 Q398 43 408.5 45.5 Q419 48 427 52 L421 21 Q405 9 385 0.5 Q365 -8 343 -8 Q314 -8 299.5 6 Q285 20 273 51 L229 166 Q172 79 119 33 Q66 -13 24 -14 Q22 -1 17.5 21 Q13 43 8 60 Q71 73 119 107.5 Q167 142 215 203 L157 357 Z " />
<glyph glyph-name="y" unicode="y" horiz-adv-x="498" d="M126 362 Q130 378 130 388 Q130 401 120.5 408 Q111 415 83 423 L89 444 Q139 444 176.5 445.5 Q214 447 233 450 L237 445 L164 180 Q156 153 152.5 134 Q149 115 149 100 Q149 80 158.5 67 Q168 54 191 54 Q221 54 253 80 Q285 106 311 149 Q322 167 332 187 Q342 207 352 232 Q362 257 372 288.5 Q382 320 393 361 L416 444 L505 444 L407 80 Q385 0 360.5 -49 Q336 -98 300 -133 Q260 -171 206 -194.5 Q152 -218 78 -230 L71 -204 Q170 -179 225 -120.5 Q280 -62 306 36 L325 107 Q291 51 249.5 18 Q208 -15 157 -15 Q110 -15 84 12 Q58 39 58 85 Q58 104 62.5 126 Q67 148 75 178 L126 362 Z " />
<glyph glyph-name="z" unicode="z" horiz-adv-x="437" d="M8 8 Q17 24 40 54 Q63 84 104 132 Q145 180 206 247.5 Q267 315 353 407 L276 407 Q245 407 222.5 402.5 Q200 398 182 386 Q152 365 126 323 L105 323 Q114 351 123 383.5 Q132 416 138 444 L462 444 L468 436 Q459 420 436.5 390 Q414 360 373 312 Q332 264 271 196 Q210 128 124 36 L215 36 Q246 36 268 41.5 Q290 47 308 59 Q323 70 337 84.5 Q351 99 364 122 L385 122 Q376 93 367 60 Q358 27 352 0 L14 0 L8 8 Z " />
<glyph glyph-name="ampersand" unicode="&#x26;" horiz-adv-x="646" d="M417 237 Q415 251 413.5 262.5 Q412 274 412 285 Q412 313 418.5 331.5 Q425 350 439 362 Q453 374 475 380 Q497 386 529 388 Q558 390 576.5 394.5 Q595 399 606.5 407 Q618 415 625 427 Q632 439 638 456 L662 456 L659 436 Q655 411 649 390.5 Q643 370 632.5 354 Q622 338 605.5 327.5 Q589 317 565 313 Q567 304 567.5 291.5 Q568 279 568 268 Q568 209 547 157.5 Q526 106 488.5 67.5 Q451 29 400.5 7 Q350 -15 291 -15 Q239 -15 198.5 0 Q158 15 130 41.5 Q102 68 87 104 Q72 140 72 182 Q72 224 87 258.5 Q102 293 127 319 Q152 345 185.5 362 Q219 379 255 388 Q231 402 217.5 425.5 Q204 449 204 479 Q204 513 219.5 542.5 Q235 572 262.5 594 Q290 616 328 628 Q366 640 411 640 Q448 640 486.5 631 Q525 622 557 609 L518 495 L495 495 Q496 500 496 504 Q496 508 496 513 Q496 550 476 572.5 Q456 595 412 595 Q387 595 364.5 586.5 Q342 578 325.5 562.5 Q309 547 299.5 526 Q290 505 290 480 Q290 399 396 399 L373 361 Q331 361 295 349.5 Q259 338 232.5 316 Q206 294 191 262 Q176 230 176 189 Q176 129 214.5 90.5 Q253 52 323 52 Q370 52 407 71 Q444 90 470 121.5 Q496 153 510 194 Q524 235 525 279 Q525 286 525 293.5 Q525 301 524 309 Q495 307 478.5 303 Q462 299 454 291.5 Q446 284 443.5 271.5 Q441 259 441 240 L417 237 Z " />
<glyph glyph-name="at" unicode="&#x40;" horiz-adv-x="763" d="M551 264 Q543 237 543 219 Q543 205 550 194.5 Q557 184 574 184 Q595 184 615 201 Q635 218 650 247 Q665 276 674.5 314.5 Q684 353 684 396 Q684 439 671 476.5 Q658 514 632.5 541.5 Q607 569 569 584.5 Q531 600 482 600 Q420 600 363.5 572.5 Q307 545 264 498 Q221 451 195.5 389 Q170 327 170 258 Q170 207 185.5 164 Q201 121 231.5 90 Q262 59 306.5 41.5 Q351 24 410 24 Q476 24 539 46 Q602 68 655 105 L670 83 Q610 38 538 11.5 Q466 -15 384 -15 Q316 -15 260 3.5 Q204 22 164 57.5 Q124 93 102 143 Q80 193 80 256 Q80 332 110 401.5 Q140 471 193.5 524 Q247 577 321.5 608.5 Q396 640 486 640 Q551 640 602 621.5 Q653 603 688.5 570 Q724 537 742.5 492 Q761 447 761 394 Q761 345 745 300 Q729 255 701.5 220.5 Q674 186 637 165.5 Q600 145 558 145 Q520 145 496 162.5 Q472 180 469 208 Q449 176 417 155.5 Q385 135 348 135 Q306 135 277 164.5 Q248 194 248 248 Q248 296 267 338 Q286 380 316.5 411.5 Q347 443 385.5 461.5 Q424 480 464 480 Q484 480 504.5 474 Q525 468 540 456 L558 480 L609 471 L612 467 L551 264 Z M381 185 Q411 185 437.5 217.5 Q464 250 488 330 L516 423 Q500 441 471 441 Q444 441 419.5 422.5 Q395 404 377 375 Q359 346 348 311.5 Q337 277 337 244 Q337 215 349 200 Q361 185 381 185 Z " />
<glyph glyph-name="exclam" unicode="&#x21;" horiz-adv-x="253" d="M88 -15 Q69 -15 57.5 -3 Q46 9 46 27 Q46 54 65 73 Q84 92 110 92 Q130 92 141.5 80 Q153 68 153 50 Q153 23 133.5 4 Q114 -15 88 -15 Z M118 169 L188 545 Q197 595 212 617.5 Q227 640 255 640 Q274 640 282.5 629.5 Q291 619 291 603 Q291 589 285.5 570.5 Q280 552 274 535 L144 169 L118 169 Z " />
<glyph glyph-name="exclamdown" unicode="&#xa1;" horiz-adv-x="253" d="M207.011 459.998 Q226.008 459.998 237.507 448 Q249.006 436.001 249.006 418.003 Q249.006 391.007 230.008 372.009 Q211.01 353.011 185.013 353.011 Q165.016 353.011 153.517 365.01 Q142.019 377.008 142.019 395.006 Q142.019 422.003 161.516 441 Q181.014 459.998 207.011 459.998 Z M177.014 276.021 L107.023 -99.9335 Q98.024 -149.927 83.0259 -172.425 Q68.0277 -194.922 40.0311 -194.922 Q21.0334 -194.922 12.5345 -184.423 Q4.03552 -173.924 4.03552 -157.926 Q4.03552 -143.928 9.53485 -125.43 Q15.0342 -106.933 21.0334 -89.9347 L151.018 276.021 L177.014 276.021 Z " />
<glyph glyph-name="question" unicode="&#x3f;" horiz-adv-x="410" d="M155 152 Q170 210 200.5 256.5 Q231 303 262.5 345 Q294 387 317.5 427.5 Q341 468 341 513 Q341 548 322 564.5 Q303 581 274 581 Q245 581 217.5 566.5 Q190 552 163 525 L140 546 Q174 591 219.5 615.5 Q265 640 317 640 Q343 640 366 632.5 Q389 625 406.5 610 Q424 595 434 572.5 Q444 550 444 520 Q444 483 429 452 Q414 421 390 393.5 Q366 366 337 339.5 Q308 313 279.5 284.5 Q251 256 226.5 224 Q202 192 188 152 L155 152 Z M134 -15 Q115 -15 103.5 -3 Q92 9 92 27 Q92 54 111 73 Q130 92 156 92 Q176 92 187.5 80 Q199 68 199 50 Q199 23 179.5 4 Q160 -15 134 -15 Z " />
<glyph glyph-name="questiondown" unicode="&#xbf;" horiz-adv-x="410" d="M323.019 294.019 Q308.021 236.026 277.524 189.531 Q247.028 143.037 215.532 101.042 Q184.036 59.0472 160.539 18.5522 Q137.042 -21.9429 137.042 -66.9374 Q137.042 -101.933 156.039 -118.431 Q175.037 -134.929 204.033 -134.929 Q233.03 -134.929 260.527 -120.431 Q288.023 -105.933 315.02 -78.9359 L338.017 -99.9333 Q304.021 -144.928 258.527 -169.425 Q213.032 -193.922 161.039 -193.922 Q135.042 -193.922 112.045 -186.423 Q89.0475 -178.924 71.5496 -163.926 Q54.0518 -148.927 44.053 -126.43 Q34.0542 -103.933 34.0542 -73.9365 Q34.0542 -36.941 49.0524 -5.94482 Q64.0505 25.0514 88.0476 52.548 Q112.045 80.0447 141.041 106.541 Q170.038 133.038 198.534 161.535 Q227.031 190.031 251.528 222.027 Q276.025 254.023 290.023 294.019 L323.019 294.019 Z M344.016 460.998 Q363.014 460.998 374.513 449 Q386.011 437.001 386.011 419.003 Q386.011 392.007 367.014 373.009 Q348.016 354.011 322.019 354.011 Q302.021 354.011 290.523 366.01 Q279.024 378.008 279.024 396.006 Q279.024 423.003 298.522 442 Q318.02 460.998 344.016 460.998 Z " />
<glyph glyph-name="asterisk" unicode="&#x2a;" horiz-adv-x="380" d="M280 451 Q277 436 276.5 421 Q276 406 276 392 Q276 345 265.5 320 Q255 295 232 295 Q219 295 213 301.5 Q207 308 207 319 Q207 332 213 347.5 Q219 363 228 380 Q237 397 247 415 Q257 433 264 451 Q243 438 225 423.5 Q207 409 191.5 396.5 Q176 384 162 376 Q148 368 135 368 Q121 368 114.5 376 Q108 384 108 394 Q108 405 114 412 Q120 419 132 424 Q151 432 183 440.5 Q215 449 259 469 Q245 477 226 482.5 Q207 488 190 494 Q173 500 161 509 Q149 518 149 532 Q149 546 160 557 Q171 568 185 568 Q198 568 208.5 559 Q219 550 229 537.5 Q239 525 249.5 510.5 Q260 496 272 484 Q275 499 275.5 514 Q276 529 276 543 Q276 590 286.5 615 Q297 640 320 640 Q333 640 339 633.5 Q345 627 345 616 Q345 603 339 587.5 Q333 572 324 555 Q315 538 305 520 Q295 502 288 484 Q309 497 327 511.5 Q345 526 360.5 538.5 Q376 551 390 559 Q404 567 417 567 Q431 567 437.5 559 Q444 551 444 541 Q444 521 420 511 Q401 503 369 494.5 Q337 486 293 466 Q307 458 326 452.5 Q345 447 362 441 Q379 435 391 426 Q403 417 403 403 Q403 389 392 378 Q381 367 367 367 Q354 367 343.5 376 Q333 385 323 397.5 Q313 410 302.5 424.5 Q292 439 280 451 Z " />
<glyph glyph-name="period" unicode="&#x2e;" horiz-adv-x="182" d="M65 -15 Q45 -15 33.5 -3 Q22 9 22 27 Q22 54 41.5 73 Q61 92 87 92 Q107 92 118.5 80 Q130 68 130 50 Q130 23 110.5 4 Q91 -15 65 -15 Z " />
<glyph glyph-name="comma" unicode="&#x2c;" horiz-adv-x="182" d="M117 38 Q117 -8 84.5 -54 Q52 -100 -8 -135 L-20 -117 Q15 -89 33 -62 Q51 -35 51 -13 Q51 -3 46 3.5 Q41 10 34.5 15.5 Q28 21 23 27.5 Q18 34 18 43 Q18 62 35 77 Q52 92 75 92 Q98 92 107.5 76.5 Q117 61 117 38 Z " />
<glyph glyph-name="colon" unicode="&#x3a;" horiz-adv-x="182" d="M65 -15 Q45 -15 33.5 -3 Q22 9 22 27 Q22 54 41.5 73 Q61 92 87 92 Q107 92 118.5 80 Q130 68 130 50 Q130 23 110.5 4 Q91 -15 65 -15 Z M138 256 Q118 256 106.5 268 Q95 280 95 298 Q95 325 114.5 344 Q134 363 160 363 Q180 363 191.5 351 Q203 339 203 321 Q203 294 183.5 275 Q164 256 138 256 Z " />
<glyph glyph-name="semicolon" unicode="&#x3b;" horiz-adv-x="182" d="M130 256 Q110 256 98.5 268 Q87 280 87 298 Q87 325 106.5 344 Q126 363 152 363 Q172 363 183.5 351 Q195 339 195 321 Q195 294 175.5 275 Q156 256 130 256 Z M117 38 Q117 -8 84.5 -54 Q52 -100 -8 -135 L-20 -117 Q15 -89 33 -62 Q51 -35 51 -13 Q51 -3 46 3.5 Q41 10 34.5 15.5 Q28 21 23 27.5 Q18 34 18 43 Q18 62 35 77 Q52 92 75 92 Q98 92 107.5 76.5 Q117 61 117 38 Z " />
<glyph glyph-name="ellipsis" unicode="&#x2026;" horiz-adv-x="546" d="M65 -15 Q45 -15 33.5 -3 Q22 9 22 27 Q22 54 41.5 73 Q61 92 87 92 Q107 92 118.5 80 Q130 68 130 50 Q130 23 110.5 4 Q91 -15 65 -15 Z M247 -15 Q227 -15 215.5 -3 Q204 9 204 27 Q204 54 223.5 73 Q243 92 269 92 Q289 92 300.5 80 Q312 68 312 50 Q312 23 292.5 4 Q273 -15 247 -15 Z M429 -15 Q409 -15 397.5 -3 Q386 9 386 27 Q386 54 405.5 73 Q425 92 451 92 Q471 92 482.5 80 Q494 68 494 50 Q494 23 474.5 4 Q455 -15 429 -15 Z " />
<glyph glyph-name="periodcentered" unicode="&#xb7;" horiz-adv-x="182" d="M97 169 Q77 169 65.5 181 Q54 193 54 211 Q54 238 73.5 257 Q93 276 119 276 Q139 276 150.5 264 Q162 252 162 234 Q162 207 142.5 188 Q123 169 97 169 Z " />
<glyph glyph-name="uni22C5" unicode="&#x22c5;" horiz-adv-x="182" d="M97 169 Q77 169 65.5 181 Q54 193 54 211 Q54 238 73.5 257 Q93 276 119 276 Q139 276 150.5 264 Q162 252 162 234 Q162 207 142.5 188 Q123 169 97 169 Z " />
<glyph glyph-name="bullet" unicode="&#x2022;" horiz-adv-x="308" d="M278 245 Q278 219 267.5 194.5 Q257 170 238.5 151 Q220 132 195.5 121 Q171 110 143 110 Q105 110 83.5 133.5 Q62 157 62 192 Q62 218 72.5 242.5 Q83 267 101.5 285.5 Q120 304 144.5 315.5 Q169 327 197 327 Q235 327 256.5 303.5 Q278 280 278 245 Z " />
<glyph glyph-name="slash" unicode="&#x2f;" horiz-adv-x="347" d="M67 -15 L14 -15 L384 640 L437 640 L67 -15 Z " />
<glyph glyph-name="parenleft" unicode="&#x28;" horiz-adv-x="293" d="M192 -142 Q147 -100 116.5 -27.5 Q86 45 86 138 Q86 225 111.5 316 Q137 407 183 491 Q229 575 293 647 Q357 719 435 767 L458 753 Q395 702 342 628 Q289 554 250.5 468.5 Q212 383 190.5 290.5 Q169 198 169 109 Q169 25 182 -32.5 Q195 -90 218 -128 L192 -142 L192 -142 Z " />
<glyph glyph-name="brokenbar" unicode="&#xa6;" horiz-adv-x="266" d="M165 345 L262 710 L316 710 L219 345 L165 345 Z M1 -265 L98 99 L152 99 L55 -265 L1 -265 Z " />
<glyph glyph-name="parenright" unicode="&#x29;" horiz-adv-x="293" d="M202 767 Q247 725 277.5 652.5 Q308 580 308 487 Q308 400 282.5 309 Q257 218 211 134 Q165 50 101 -22 Q37 -94 -41 -142 L-64 -128 Q-1 -77 52 -3 Q105 71 143.5 156.5 Q182 242 203.5 334.5 Q225 427 225 516 Q225 600 212 657.5 Q199 715 176 753 L202 767 Z " />
<glyph glyph-name="bracketleft" unicode="&#x5b;" horiz-adv-x="320" d="M28 -142 L273 767 L466 767 L455 727 L347 727 L123 -102 L233 -102 L222 -142 L28 -142 Z " />
<glyph glyph-name="backslash" unicode="&#x5c;" horiz-adv-x="344" d="M242 -15 L137 640 L181 640 L287 -15 L242 -15 Z " />
<glyph glyph-name="bracketright" unicode="&#x5d;" horiz-adv-x="320" d="M385 767 L140 -142 L-53 -142 L-42 -102 L66 -102 L290 727 L180 727 L191 767 L385 767 Z " />
<glyph glyph-name="braceleft" unicode="&#x7b;" horiz-adv-x="292" d="M106 326 Q133 332 151 344 Q169 356 180 375.5 Q191 395 196.5 423 Q202 451 206 489 L212 548 Q218 602 233.5 642 Q249 682 277.5 709 Q306 736 348.5 750 Q391 764 450 766 L444 745 Q408 740 383.5 727.5 Q359 715 344 693 Q329 671 320.5 638.5 Q312 606 307 560 L302 512 Q297 468 287 434.5 Q277 401 259 376.5 Q241 352 214.5 336 Q188 320 150 311 Q225 274 225 215 Q225 193 218 170 Q211 147 194 111 L168 54 Q148 11 140 -12 Q132 -35 132 -52 Q132 -78 150.5 -94 Q169 -110 212 -121 L206 -142 Q173 -139 145 -130.5 Q117 -122 96 -108 Q75 -94 63.5 -74.5 Q52 -55 52 -30 Q52 -19 54 -8 Q56 3 60.5 17 Q65 31 72.5 49.5 Q80 68 92 93 L118 150 Q132 181 139.5 202.5 Q147 224 147 241 Q147 281 98 297 L106 326 Z " />
<glyph glyph-name="bar" unicode="&#x7c;" horiz-adv-x="266" d="M2 -265 L262 710 L316 710 L55 -265 L2 -265 Z " />
<glyph glyph-name="braceright" unicode="&#x7d;" horiz-adv-x="292" d="M279 296 Q252 290 234 278 Q216 266 205 247 Q194 228 188.5 200.5 Q183 173 179 135 L173 76 Q167 22 151.5 -18 Q136 -58 107.5 -85 Q79 -112 36.5 -126 Q-6 -140 -65 -142 L-59 -121 Q-23 -116 1.5 -103.5 Q26 -91 41 -69 Q56 -47 64.5 -14.5 Q73 18 78 64 L83 112 Q87 156 97.5 189 Q108 222 126 246 Q144 270 170.5 286 Q197 302 235 311 Q160 348 160 409 Q160 431 167 454 Q174 477 191 513 L217 570 Q237 613 245 636 Q253 659 253 676 Q253 702 234.5 718 Q216 734 173 745 L179 766 Q212 763 240 754.5 Q268 746 289 732 Q310 718 321.5 698.5 Q333 679 333 654 Q333 643 331 632 Q329 621 324.5 607 Q320 593 312.5 574.5 Q305 556 293 531 L267 474 Q253 443 245.5 421.5 Q238 400 238 383 Q238 363 250 348 Q262 333 287 325 L279 296 Z " />
<glyph glyph-name="hyphen" unicode="&#x2d;" horiz-adv-x="292" d="M51 255 L283 255 L270 206 L38 206 L51 255 Z " />
<glyph glyph-name="uni00AD" unicode="&#xad;" horiz-adv-x="292" d="M51 255 L283 255 L270 206 L38 206 L51 255 Z " />
<glyph glyph-name="endash" unicode="&#x2013;" horiz-adv-x="500" d="M38 255 L515 255 L502 206 L25 206 L38 255 Z " />
<glyph glyph-name="emdash" unicode="&#x2014;" horiz-adv-x="1000" d="M38 255 L1015 255 L1002 206 L25 206 L38 255 Z " />
<glyph glyph-name="underscore" unicode="&#x5f;" horiz-adv-x="500" d="M-38 -152 L-27 -110 L423 -110 L412 -152 L-38 -152 Z " />
<glyph glyph-name="dagger" unicode="&#x2020;" horiz-adv-x="417" d="M455 408 Q455 386 438 374.5 Q421 363 398 363 Q385 363 372.5 367 Q360 371 346 375.5 Q332 380 317 384 Q302 388 284 389 Q281 379 279 364 Q277 349 275 332 Q273 315 272 298 Q271 281 271 266 Q262 247 249.5 212.5 Q237 178 222 130 Q207 82 189.5 22.5 Q172 -37 154 -106 L123 -106 Q141 -39 155.5 20.5 Q170 80 181 128.5 Q192 177 198 212.5 Q204 248 205 267 Q220 294 236 329 Q252 364 260 389 Q241 388 223.5 384 Q206 380 190.5 375.5 Q175 371 160.5 367 Q146 363 133 363 Q116 363 105 370.5 Q94 378 94 393 Q94 413 109.5 424 Q125 435 148 435 Q162 435 175 431.5 Q188 428 202 423.5 Q216 419 231 414.5 Q246 410 264 409 Q266 418 267.5 427 Q269 436 269.5 448.5 Q270 461 270.5 477.5 Q271 494 271 517 Q271 542 274.5 564 Q278 586 285.5 603 Q293 620 305.5 630 Q318 640 335 640 Q352 640 360.5 630 Q369 620 369 606 Q369 589 361.5 567 Q354 545 334 509 Q316 476 305.5 453 Q295 430 289 409 Q308 410 325.5 414 Q343 418 359.5 422.5 Q376 427 390.5 430.5 Q405 434 417 434 Q434 434 444.5 427.5 Q455 421 455 408 Z " />
<glyph glyph-name="daggerdbl" unicode="&#x2021;" horiz-adv-x="409" d="M283 449 Q288 469 289 487.5 Q290 506 290 525 Q290 580 303.5 610 Q317 640 346 640 Q361 640 369 631.5 Q377 623 377 609 Q377 592 369 574.5 Q361 557 350.5 537.5 Q340 518 328 496 Q316 474 309 449 Q341 451 369 461.5 Q397 472 417 472 Q430 472 438.5 465.5 Q447 459 447 448 Q447 431 433 420.5 Q419 410 399 410 Q388 410 377.5 413.5 Q367 417 356 421.5 Q345 426 333 429.5 Q321 433 306 434 Q300 410 298 391.5 Q296 373 289 347 Q283 324 276 308.5 Q269 293 264 277 L235 277 Q240 297 242 312.5 Q244 328 249 348 Q256 374 264.5 394 Q273 414 280 434 Q263 433 248 429.5 Q233 426 219.5 421.5 Q206 417 193.5 413.5 Q181 410 171 410 Q158 410 149.5 417 Q141 424 141 435 Q141 452 155.5 462 Q170 472 190 472 Q201 472 211 468.5 Q221 465 232 461 Q243 457 255.5 453.5 Q268 450 283 449 Z M208 79 Q203 59 202 40.5 Q201 22 201 3 Q201 -52 187.5 -82 Q174 -112 145 -112 Q130 -112 122 -103.5 Q114 -95 114 -81 Q114 -65 122 -47.5 Q130 -30 140.5 -10.5 Q151 9 162.5 31 Q174 53 182 79 Q150 77 122 66.5 Q94 56 74 56 Q61 56 52.5 62.5 Q44 69 44 80 Q44 97 58 107.5 Q72 118 92 118 Q103 118 113.5 114.5 Q124 111 135 106.5 Q146 102 158 98.5 Q170 95 185 94 Q191 118 193 136.5 Q195 155 202 181 Q208 204 215 219.5 Q222 235 227 251 L256 251 Q251 231 249 215.5 Q247 200 242 180 Q235 154 226.5 134 Q218 114 211 94 Q227 95 242.5 98.5 Q258 102 271.5 106.5 Q285 111 297 114.5 Q309 118 320 118 Q333 118 341.5 111 Q350 104 350 93 Q350 76 335.5 66 Q321 56 301 56 Q290 56 280 59.5 Q270 63 259 67 Q248 71 235.5 74.5 Q223 78 208 79 Z " />
<glyph glyph-name="section" unicode="&#xa7;" horiz-adv-x="426" d="M468 615 Q462 597 454 567.5 Q446 538 442 517 L425 517 Q409 596 334 596 Q291 596 266.5 575 Q242 554 242 525 Q242 507 254.5 493 Q267 479 286 465.5 Q305 452 327.5 438.5 Q350 425 369 409 Q388 393 400.5 372 Q413 351 413 324 Q413 296 401 271.5 Q389 247 368 227.5 Q347 208 318 194.5 Q289 181 255 176 Q271 166 287 154.5 Q303 143 315.5 128.5 Q328 114 335.5 96.5 Q343 79 343 57 Q343 26 328.5 -1 Q314 -28 288 -48.5 Q262 -69 226 -81 Q190 -93 146 -93 Q112 -93 75.5 -85.5 Q39 -78 13 -67 Q16 -57 20.5 -43 Q25 -29 29 -14.5 Q33 0 36.5 14 Q40 28 42 37 L60 37 Q64 -5 89.5 -27.5 Q115 -50 157 -50 Q179 -50 197.5 -44 Q216 -38 229.5 -27.5 Q243 -17 251 -4 Q259 9 259 24 Q259 42 246.5 56.5 Q234 71 215 83.5 Q196 96 173.5 109 Q151 122 132 138 Q113 154 100.5 175 Q88 196 88 224 Q88 252 100.5 277.5 Q113 303 134 323 Q155 343 183.5 356 Q212 369 245 372 Q229 382 213.5 393 Q198 404 185.5 418.5 Q173 433 165.5 450.5 Q158 468 158 491 Q158 521 172 548.5 Q186 576 210 596 Q234 616 267 628 Q300 640 338 640 Q375 640 408 632.5 Q441 625 468 615 Z M232 210 Q274 210 299 231.5 Q324 253 324 281 Q324 304 307 317.5 Q290 331 263 331 Q221 331 196 309.5 Q171 288 171 260 Q171 237 188 223.5 Q205 210 232 210 Z " />
<glyph glyph-name="paragraph" unicode="&#xb6;" horiz-adv-x="487" d="M499 580 L315 -106 L261 -106 L445 579 L392 579 L208 -106 L154 -106 L262 296 Q196 301 156 335.5 Q116 370 116 429 Q116 469 131.5 504 Q147 539 176 565 Q245 625 376 625 L577 625 L571 603 L499 580 Z " />
<glyph glyph-name="registered" unicode="&#xae;" horiz-adv-x="768" d="M492 147 Q492 156 489 170 Q486 184 480 199 L461 249 Q453 270 441 276 Q429 282 407 282 L391 282 L391 196 Q391 180 396.5 173.5 Q402 167 425 162 L425 147 Q409 147 395 147.5 Q381 148 364 148 Q347 148 327 147.5 Q307 147 290 147 L290 162 L323 172 L323 422 Q323 438 316.5 443.5 Q310 449 285 454 L285 470 L421 470 Q484 470 518 448 Q552 426 552 380 Q552 350 534 329.5 Q516 309 487 298 Q501 294 511.5 284.5 Q522 275 530 255 L548 208 Q553 195 557 187.5 Q561 180 566 175 Q571 170 578.5 167.5 Q586 165 597 162 L597 147 L492 147 Z M391 307 L403 307 Q483 307 483 376 Q483 412 462 427 Q441 442 397 442 L391 442 L391 307 Z M758 312 Q758 243 733 183 Q708 123 664 79 Q620 35 561 9.5 Q502 -16 434 -16 Q366 -16 307 9.5 Q248 35 204 79 Q160 123 135 183 Q110 243 110 312 Q110 381 135 441 Q160 501 204 545 Q248 589 307 614.5 Q366 640 434 640 Q502 640 561 614.5 Q620 589 664 545 Q708 501 733 441 Q758 381 758 312 Z M700 312 Q700 371 680 422 Q660 473 624.5 511 Q589 549 540.5 570.5 Q492 592 434 592 Q376 592 327.5 570.5 Q279 549 243.5 511 Q208 473 188 422 Q168 371 168 312 Q168 253 188 202 Q208 151 243.5 113 Q279 75 327.5 53.5 Q376 32 434 32 Q492 32 540.5 53.5 Q589 75 624.5 113 Q660 151 680 202 Q700 253 700 312 Z " />
<glyph glyph-name="copyright" unicode="&#xa9;" horiz-adv-x="768" d="M555 207 Q533 176 502.5 157.5 Q472 139 430 139 Q367 139 328 183 Q289 227 289 306 Q289 387 330.5 432.5 Q372 478 447 478 Q474 478 495 474 Q516 470 540 467 Q540 442 540.5 417 Q541 392 542 371 L523 371 Q519 403 501 425 Q483 447 448 447 Q403 447 382 411 Q361 375 361 313 Q361 250 382 215.5 Q403 181 448 181 Q474 181 496.5 193 Q519 205 538 225 L555 207 Z M758 312 Q758 243 733 183 Q708 123 664 79 Q620 35 561 9.5 Q502 -16 434 -16 Q366 -16 307 9.5 Q248 35 204 79 Q160 123 135 183 Q110 243 110 312 Q110 381 135 441 Q160 501 204 545 Q248 589 307 614.5 Q366 640 434 640 Q502 640 561 614.5 Q620 589 664 545 Q708 501 733 441 Q758 381 758 312 Z M700 312 Q700 371 680 422 Q660 473 624.5 511 Q589 549 540.5 570.5 Q492 592 434 592 Q376 592 327.5 570.5 Q279 549 243.5 511 Q208 473 188 422 Q168 371 168 312 Q168 253 188 202 Q208 151 243.5 113 Q279 75 327.5 53.5 Q376 32 434 32 Q492 32 540.5 53.5 Q589 75 624.5 113 Q660 151 680 202 Q700 253 700 312 Z " />
<glyph glyph-name="trademark" unicode="&#x2122;" horiz-adv-x="707" d="M713 391 Q710 379 714 373 Q718 367 737 362 L732 344 Q728 344 720 344 Q712 344 702.5 344.5 Q693 345 684.5 345 Q676 345 670 345 Q664 345 655.5 345 Q647 345 637.5 344.5 Q628 344 620 344 Q612 344 608 344 L613 362 L645 371 L699 566 L536 341 L517 341 L477 574 L429 391 Q426 379 430 373 Q434 367 453 362 L448 344 Q440 344 426.5 344.5 Q413 345 402 345 Q391 345 374.5 344.5 Q358 344 350 344 L355 362 L387 371 L443 578 Q446 590 442 596 Q438 602 419 607 L424 625 L528 625 L562 427 L703 625 L805 625 L800 607 L768 598 L713 391 Z M246 391 Q243 379 247 373 Q251 367 270 362 L265 344 Q261 344 253 344 Q245 344 236.5 344.5 Q228 345 219.5 345 Q211 345 205 345 Q199 345 190 345 Q181 345 171.5 344.5 Q162 344 153.5 344 Q145 344 141 344 L146 362 L178 371 L241 598 L234 598 Q215 598 203.5 596.5 Q192 595 184 590 Q176 585 170 575 Q164 565 155 548 L132 548 Q137 563 144 585.5 Q151 608 156 625 L400 625 Q395 608 390.5 585.5 Q386 563 384 548 L361 548 Q361 565 359.5 575 Q358 585 353 590 Q348 595 337.5 596.5 Q327 598 308 598 L301 598 L246 391 Z " />
<glyph glyph-name="quotedblleft" unicode="&#x201c;" horiz-adv-x="331" d="M279 622 Q244 594 226 567 Q208 540 208 518 Q208 508 213 501.5 Q218 495 224.5 489.5 Q231 484 236 477.5 Q241 471 241 462 Q241 443 224 428 Q207 413 184 413 Q161 413 151.5 428.5 Q142 444 142 467 Q142 513 174.5 559 Q207 605 267 640 L279 622 Z M411 622 Q376 594 358 567 Q340 540 340 518 Q340 508 345 501.5 Q350 495 356.5 489.5 Q363 484 368 477.5 Q373 471 373 462 Q373 443 356 428 Q339 413 316 413 Q293 413 283.5 428.5 Q274 444 274 467 Q274 513 306.5 559 Q339 605 399 640 L411 622 Z " />
<glyph glyph-name="quotedblright" unicode="&#x201d;" horiz-adv-x="331" d="M262 431 Q297 459 315 486 Q333 513 333 535 Q333 545 328 551.5 Q323 558 316.5 563.5 Q310 569 305 575.5 Q300 582 300 591 Q300 610 317 625 Q334 640 357 640 Q380 640 389.5 624.5 Q399 609 399 586 Q399 540 366.5 494 Q334 448 274 413 L262 431 Z M130 431 Q165 459 183 486 Q201 513 201 535 Q201 545 196 551.5 Q191 558 184.5 563.5 Q178 569 173 575.5 Q168 582 168 591 Q168 610 185 625 Q202 640 225 640 Q248 640 257.5 624.5 Q267 609 267 586 Q267 540 234.5 494 Q202 448 142 413 L130 431 Z " />
<glyph glyph-name="quoteleft" unicode="&#x2018;" horiz-adv-x="199" d="M279 622 Q244 594 226 567 Q208 540 208 518 Q208 508 213 501.5 Q218 495 224.5 489.5 Q231 484 236 477.5 Q241 471 241 462 Q241 443 224 428 Q207 413 184 413 Q161 413 151.5 428.5 Q142 444 142 467 Q142 513 174.5 559 Q207 605 267 640 L279 622 Z " />
<glyph glyph-name="quoteright" unicode="&#x2019;" horiz-adv-x="199" d="M267 586 Q267 540 234.5 494 Q202 448 142 413 L130 431 Q165 459 183 486 Q201 513 201 535 Q201 545 196 551.5 Q191 558 184.5 563.5 Q178 569 173 575.5 Q168 582 168 591 Q168 610 185 625 Q202 640 225 640 Q248 640 257.5 624.5 Q267 609 267 586 Z " />
<glyph glyph-name="guillemotleft" unicode="&#xab;" horiz-adv-x="385" d="M136 55 L50 217 L223 377 L239 355 L123 216 L167 78 L136 55 Z M290 55 L204 217 L377 377 L393 355 L277 216 L321 78 L290 55 Z " />
<glyph glyph-name="guillemotright" unicode="&#xbb;" horiz-adv-x="385" d="M282 377 L368 215 L195 55 L179 77 L295 216 L251 354 L282 377 Z M128 377 L214 215 L41 55 L25 77 L141 216 L97 354 L128 377 Z " />
<glyph glyph-name="guilsinglleft" unicode="&#x2039;" horiz-adv-x="231" d="M136 55 L50 217 L223 377 L239 355 L123 216 L167 78 L136 55 Z " />
<glyph glyph-name="guilsinglright" unicode="&#x203a;" horiz-adv-x="231" d="M128 377 L214 215 L41 55 L25 77 L141 216 L97 354 L128 377 Z " />
<glyph glyph-name="quotesinglbase" unicode="&#x201a;" horiz-adv-x="199" d="M-12 -124 Q23 -96 41 -69 Q59 -42 59 -20 Q59 -10 54 -3.5 Q49 3 42.5 8.5 Q36 14 31 20.5 Q26 27 26 36 Q26 55 43 70 Q60 85 83 85 Q106 85 115.5 69.5 Q125 54 125 31 Q125 -15 92.5 -61 Q60 -107 0 -142 L-12 -124 Z " />
<glyph glyph-name="quotedblbase" unicode="&#x201e;" horiz-adv-x="331" d="M120 -124 Q155 -96 173 -69 Q191 -42 191 -20 Q191 -10 186 -3.5 Q181 3 174.5 8.5 Q168 14 163 20.5 Q158 27 158 36 Q158 55 175 70 Q192 85 215 85 Q238 85 247.5 69.5 Q257 54 257 31 Q257 -15 224.5 -61 Q192 -107 132 -142 L120 -124 Z M-12 -124 Q23 -96 41 -69 Q59 -42 59 -20 Q59 -10 54 -3.5 Q49 3 42.5 8.5 Q36 14 31 20.5 Q26 27 26 36 Q26 55 43 70 Q60 85 83 85 Q106 85 115.5 69.5 Q125 54 125 31 Q125 -15 92.5 -61 Q60 -107 0 -142 L-12 -124 Z " />
<glyph glyph-name="fi" unicode="&#xfb01;" horiz-adv-x="515" d="M233 405 L64 -220 L-25 -220 L144 405 L74 405 L84 444 L155 444 Q185 556 242 618 Q299 680 393 680 Q421 680 444.5 675 Q468 670 485.5 660.5 Q503 651 513 638.5 Q523 626 523 611 Q523 593 508 576.5 Q493 560 472 560 Q457 560 448.5 573 Q440 586 431 601.5 Q422 617 409 630 Q396 643 374 643 Q350 643 331 628 Q312 613 296 586.5 Q280 560 267.5 523.5 Q255 487 244 444 L362 444 Q412 444 449.5 445.5 Q487 447 506 450 L510 445 L414 91 Q409 73 409 63 Q409 45 427 45 Q442 45 465 54 L456 21 Q439 10 416.5 1 Q394 -8 373 -8 Q347 -8 333 6.5 Q319 21 319 47 Q319 67 327 97 L397 355 Q402 373 402 382 Q402 396 391.5 400.5 Q381 405 358 405 L233 405 Z " />
<glyph glyph-name="fl" unicode="&#xfb02;" horiz-adv-x="520" d="M474 620 Q439 642 396 642 Q367 642 345.5 632 Q324 622 306 598.5 Q288 575 273 537 Q258 499 243 444 L352 444 L333 405 L233 405 L64 -220 L-25 -220 L144 405 L74 405 L84 444 L155 444 Q173 508 194.5 551.5 Q216 595 242 623 Q272 655 309.5 667.5 Q347 680 397 680 Q432 680 469 673 Q506 666 536 666 Q553 666 570 671 L575 666 L419 91 Q414 73 414 63 Q414 45 432 45 Q447 45 470 54 L461 21 Q444 10 421.5 1 Q399 -8 378 -8 Q352 -8 338 6.5 Q324 21 324 47 Q324 67 332 97 L474 620 Z " />
<glyph glyph-name="f_f" unicode="&#xfb00;" horiz-adv-x="557" d="M424 444 Q488 680 642 680 Q690 680 717.5 666.5 Q745 653 745 630 Q745 622 740.5 612.5 Q736 603 728.5 595.5 Q721 588 711.5 583 Q702 578 692 578 Q678 578 671.5 588 Q665 598 659.5 610.5 Q654 623 646 633 Q638 643 622 643 Q607 643 593 632.5 Q579 622 566 598 Q553 574 540 536 Q527 498 513 444 L620 444 L601 405 L502 405 L337 -205 L248 -205 L413 405 L233 405 L64 -220 L-25 -220 L144 405 L74 405 L84 444 L155 444 Q189 566 240.5 619.5 Q292 673 361 673 Q405 673 431 657.5 Q457 642 457 621 Q457 606 442.5 589 Q428 572 409 572 Q397 572 390 582 Q383 592 377 604 Q371 616 363 626 Q355 636 341 636 Q326 636 314 626.5 Q302 617 291 594.5 Q280 572 269 535 Q258 498 244 444 L424 444 L424 444 Z " />
<glyph glyph-name="f_f_i" unicode="&#xfb03;" horiz-adv-x="784" d="M385 673 Q425 673 461 661 Q497 649 524 629 Q552 654 586 667 Q620 680 662 680 Q690 680 713.5 675 Q737 670 754.5 660.5 Q772 651 782 638.5 Q792 626 792 611 Q792 593 777 576.5 Q762 560 741 560 Q726 560 717.5 573 Q709 586 700 601.5 Q691 617 678 630 Q665 643 643 643 Q619 643 600 628 Q581 613 565 586.5 Q549 560 536.5 523.5 Q524 487 513 444 L631 444 Q681 444 718.5 445.5 Q756 447 775 450 L779 445 L683 91 Q678 73 678 63 Q678 45 696 45 Q711 45 734 54 L725 21 Q708 10 685.5 1 Q663 -8 642 -8 Q616 -8 602 6.5 Q588 21 588 47 Q588 67 596 97 L666 355 Q671 373 671 382 Q671 396 660.5 400.5 Q650 405 627 405 L502 405 L337 -205 L248 -205 L413 405 L233 405 L64 -220 L-25 -220 L144 405 L74 405 L84 444 L155 444 Q173 506 195 549.5 Q217 593 245.5 620.5 Q274 648 308.5 660.5 Q343 673 385 673 Z M424 444 Q433 480 446 512.5 Q459 545 475 571 Q458 600 434.5 618 Q411 636 382 636 Q357 636 337.5 625.5 Q318 615 302 591.5 Q286 568 272 531.5 Q258 495 244 444 L424 444 Z " />
<glyph glyph-name="f_f_l" unicode="&#xfb04;" horiz-adv-x="789" d="M385 673 Q423 673 458 661.5 Q493 650 520 632 Q549 658 584.5 669 Q620 680 666 680 Q701 680 738 673 Q775 666 805 666 Q822 666 839 671 L844 666 L688 91 Q683 73 683 63 Q683 45 701 45 Q716 45 739 54 L730 21 Q713 10 690.5 1 Q668 -8 647 -8 Q621 -8 607 6.5 Q593 21 593 47 Q593 67 601 97 L743 620 Q708 642 665 642 Q636 642 614.5 632 Q593 622 575 598.5 Q557 575 542 537 Q527 499 512 444 L621 444 L603 405 L502 405 L337 -205 L248 -205 L413 405 L233 405 L64 -220 L-25 -220 L144 405 L74 405 L84 444 L155 444 Q173 506 195 549.5 Q217 593 245.5 620.5 Q274 648 308.5 660.5 Q343 673 385 673 Z M424 444 Q433 480 446 512.5 Q459 545 475 571 Q458 600 434.5 618 Q411 636 382 636 Q357 636 337.5 625.5 Q318 615 302 591.5 Q286 568 272 531.5 Q258 495 244 444 L424 444 Z " />
<glyph glyph-name="grave" unicode="&#x60;" horiz-adv-x="250" d="M159 594 L191 627 Q201 637 209 637 Q219 637 228 626 L334 508 L324 495 L162 583 L159 594 Z " />
<glyph glyph-name="acute" unicode="&#xb4;" horiz-adv-x="250" d="M323 583 L129 495 L121 509 L261 626 Q275 637 282 637 Q291 637 299 626 L324 594 L323 583 Z " />
<glyph glyph-name="dieresis" unicode="&#xa8;" horiz-adv-x="250" d="M163 520 Q146 520 136 530 Q126 540 126 555 Q126 579 143 595.5 Q160 612 183 612 Q200 612 210 602 Q220 592 220 577 Q220 553 203 536.5 Q186 520 163 520 Z M307 520 Q290 520 280 530 Q270 540 270 555 Q270 579 287 595.5 Q304 612 327 612 Q344 612 354 602 Q364 592 364 577 Q364 553 347 536.5 Q330 520 307 520 Z " />
<glyph glyph-name="circumflex" unicode="&#x2c6;" horiz-adv-x="250" d="M316 502 L243 585 L126 501 L111 511 L233 642 L281 642 L333 507 L316 502 Z " />
<glyph glyph-name="tilde" unicode="&#x2dc;" horiz-adv-x="250" d="M277 522 Q262 522 249.5 527.5 Q237 533 225 540 Q213 547 201 552.5 Q189 558 176 558 Q161 558 147.5 550 Q134 542 125 522 L103 526 Q120 573 143 596.5 Q166 620 198 620 Q213 620 225.5 614.5 Q238 609 250 602 Q262 595 273.5 589.5 Q285 584 299 584 Q314 584 327.5 592 Q341 600 350 620 L372 616 Q355 569 332 545.5 Q309 522 277 522 Z " />
<glyph glyph-name="macron" unicode="&#xaf;" horiz-adv-x="250" d="M127 533 L140 581 L354 581 L341 533 L127 533 Z " />
<glyph glyph-name="breve" unicode="&#x2d8;" horiz-adv-x="250" d="M363 626 Q350 574 318.5 541 Q287 508 231 508 Q188 508 163.5 531.5 Q139 555 139 592 Q139 608 144 626 L170 626 Q170 597 187 580 Q204 563 239 563 Q274 563 300 580 Q326 597 337 626 L363 626 Z " />
<glyph glyph-name="dotaccent" unicode="&#x2d9;" horiz-adv-x="250" d="M225 513 Q205 513 192.5 525.5 Q180 538 180 557 Q180 586 200.5 605.5 Q221 625 249 625 Q269 625 281 612.5 Q293 600 293 581 Q293 552 273 532.5 Q253 513 225 513 Z " />
<glyph glyph-name="ring" unicode="&#x2da;" horiz-adv-x="250" d="M237 543 Q261 543 275.5 561.5 Q290 580 290 605 Q290 622 281 631 Q272 640 258 640 Q234 640 219.5 621.5 Q205 603 205 578 Q205 561 214 552 Q223 543 237 543 Z M233 506 Q201 506 181.5 525.5 Q162 545 162 577 Q162 596 169 614 Q176 632 189.5 646 Q203 660 221 668.5 Q239 677 262 677 Q294 677 313.5 657.5 Q333 638 333 606 Q333 587 326 569 Q319 551 305.5 537 Q292 523 273.5 514.5 Q255 506 233 506 Z " />
<glyph glyph-name="cedilla" unicode="&#xb8;" horiz-adv-x="250" d="M158 -117 Q158 -138 146 -158 Q134 -178 111.5 -193 Q89 -208 58 -218 Q27 -228 -10 -229 L-15 -205 Q39 -194 67.5 -171.5 Q96 -149 96 -123 Q96 -108 85 -100.5 Q74 -93 51 -85 Q37 -80 35.5 -73.5 Q34 -67 39 -58 L80 16 L122 16 L85 -53 Q118 -63 138 -76.5 Q158 -90 158 -117 Z " />
<glyph glyph-name="hungarumlaut" unicode="&#x2dd;" horiz-adv-x="250" d="M231 596 L73 498 L65 509 L176 633 Q186 645 195 645 Q201 645 204.5 642.5 Q208 640 211 636 L233 606 L231 596 Z M371 596 L213 498 L205 509 L316 633 Q326 645 335 645 Q341 645 344.5 642.5 Q348 640 351 636 L373 606 L371 596 Z " />
<glyph glyph-name="ogonek" unicode="&#x2db;" horiz-adv-x="250" d="M150 -211 Q136 -219 116.5 -224 Q97 -229 77 -229 Q31 -229 3 -208 Q-25 -187 -25 -143 Q-25 -114 -10.5 -88 Q4 -62 28 -40.5 Q52 -19 83.5 -3.5 Q115 12 149 19 L158 7 Q101 -15 69.5 -55.5 Q38 -96 38 -138 Q38 -168 53.5 -181.5 Q69 -195 94 -195 Q106 -195 119 -192 Q132 -189 141 -186 L150 -211 Z " />
<glyph glyph-name="caron" unicode="&#x2c7;" horiz-adv-x="250" d="M161 642 L235 558 L352 642 L366 632 L244 501 L197 501 L144 636 L161 642 Z " />
<glyph glyph-name="commaaccent" unicode="&#xf6c3;" horiz-adv-x="250" d="M128 -103 Q128 -145 96.5 -188.5 Q65 -232 11 -264 L0 -248 Q31 -222 49.5 -195.5 Q68 -169 68 -149 Q68 -140 63.5 -134.5 Q59 -129 53 -123.5 Q47 -118 42.5 -112.5 Q38 -107 38 -98 Q38 -81 54 -67.5 Q70 -54 90 -54 Q110 -54 119 -68.5 Q128 -83 128 -103 Z " />
<glyph glyph-name="zero" unicode="0" horiz-adv-x="500" d="M526 457 Q526 412 516.5 359.5 Q507 307 489 254.5 Q471 202 444.5 153.5 Q418 105 384 67.5 Q350 30 308.5 7.5 Q267 -15 219 -15 Q151 -15 112.5 32.5 Q74 80 74 168 Q74 213 83.5 265.5 Q93 318 111 370.5 Q129 423 155.5 471.5 Q182 520 216 557.5 Q250 595 291.5 617.5 Q333 640 381 640 Q449 640 487.5 592.5 Q526 545 526 457 Z M432 487 Q432 593 371 593 Q343 593 317 569.5 Q291 546 268.5 508 Q246 470 227.5 421.5 Q209 373 195.5 322.5 Q182 272 175 223.5 Q168 175 168 138 Q168 32 229 32 Q257 32 283 55.5 Q309 79 331.5 117 Q354 155 372.5 203.5 Q391 252 404.5 302.5 Q418 353 425 401 Q432 449 432 487 Z " />
<glyph glyph-name="one" unicode="1" horiz-adv-x="500" d="M342 0 Q333 0 319.5 0.5 Q306 1 291 1.5 Q276 2 261 2.5 Q246 3 234 3 Q219 3 202.5 2.5 Q186 2 169.5 1.5 Q153 1 138 0.5 Q123 0 112 0 L118 21 L189 41 L313 504 Q318 522 318 531 Q318 548 302.5 558.5 Q287 569 246 580 L252 601 Q300 601 344.5 610.5 Q389 620 416 633 L436 633 L289 87 Q284 69 284 61 Q284 47 297.5 39.5 Q311 32 348 21 L342 0 Z " />
<glyph glyph-name="two" unicode="2" horiz-adv-x="500" d="M420 127 Q389 64 364 0 L47 0 L38 23 Q147 131 218 206 Q289 281 331 334.5 Q373 388 389.5 427 Q406 466 406 503 Q406 540 386 561 Q366 582 332 582 Q297 582 266 563 Q235 544 207 509 L175 528 Q212 579 261 609.5 Q310 640 372 640 Q430 640 466.5 606 Q503 572 503 510 Q503 451 469 397 Q435 343 383 290 Q331 237 269 184.5 Q207 132 152 77 L295 77 Q331 77 354 88.5 Q377 100 396 132 L420 127 Z " />
<glyph glyph-name="three" unicode="3" horiz-adv-x="500" d="M435 218 Q435 173 416 131 Q397 89 364 56.5 Q331 24 285.5 4.5 Q240 -15 188 -15 Q160 -15 134.5 -9.5 Q109 -4 90 5.5 Q71 15 59.5 28 Q48 41 48 56 Q48 75 63 91.5 Q78 108 99 108 Q114 108 121.5 95.5 Q129 83 136.5 67.5 Q144 52 155 39.5 Q166 27 189 27 Q220 27 247 43 Q274 59 294 86 Q314 113 325.5 147.5 Q337 182 337 219 Q337 246 328 265 Q319 284 303.5 296.5 Q288 309 267 315.5 Q246 322 221 323 L231 360 Q272 363 303.5 377 Q335 391 356.5 412 Q378 433 389 459 Q400 485 400 512 Q400 545 381 564 Q362 583 325 583 Q291 583 262.5 565.5 Q234 548 214 521 L182 539 Q214 588 262.5 614 Q311 640 364 640 Q420 640 457.5 609.5 Q495 579 495 522 Q495 490 482.5 462.5 Q470 435 448.5 413 Q427 391 398.5 375 Q370 359 338 350 Q435 312 435 218 Z " />
<glyph glyph-name="four" unicode="4" horiz-adv-x="500" d="M369 87 Q364 69 364 61 Q364 47 377.5 39.5 Q391 32 428 21 L422 0 Q413 0 399.5 0.5 Q386 1 371 1.5 Q356 2 341 2.5 Q326 3 314 3 Q299 3 282.5 2.5 Q266 2 249.5 1.5 Q233 1 218 0.5 Q203 0 192 0 L198 21 L269 41 L297 147 L60 147 L52 178 L455 625 L514 625 L402 209 L481 209 L464 147 L385 147 L369 87 Z M137 209 L314 209 L389 490 L137 209 Z " />
<glyph glyph-name="five" unicode="5" horiz-adv-x="500" d="M184 -15 Q157 -15 133 -9.5 Q109 -4 91 5.5 Q73 15 62.5 28 Q52 41 52 56 Q52 75 67.5 91.5 Q83 108 103 108 Q118 108 124.5 95.5 Q131 83 137.5 67.5 Q144 52 155 39.5 Q166 27 189 27 Q225 27 254.5 50.5 Q284 74 305 109 Q326 144 337 184.5 Q348 225 348 258 Q348 300 331 323 Q314 346 278 346 Q235 346 193 315 L170 327 L260 625 L531 625 L500 548 L284 548 L232 375 Q249 384 270 390 Q291 396 314 396 Q377 396 411.5 357 Q446 318 446 255 Q446 204 423.5 153 Q401 102 362 63 Q327 28 283 6.5 Q239 -15 184 -15 Z " />
<glyph glyph-name="six" unicode="6" horiz-adv-x="500" d="M506 612 Q473 592 438.5 566 Q404 540 371 508 Q338 476 308 439 Q278 402 254 362 Q277 373 300.5 379 Q324 385 344 385 Q400 385 436.5 351 Q473 317 473 250 Q473 199 456 151 Q439 103 407.5 66.5 Q376 30 332.5 7.5 Q289 -15 236 -15 Q164 -15 124 26.5 Q84 68 84 140 Q84 217 120 293 Q156 369 214 436 Q272 503 345 556 Q418 609 492 640 L506 612 Z M229 317 Q206 273 191.5 220.5 Q177 168 177 119 Q177 71 194 50 Q211 29 239 29 Q272 29 298 52 Q324 75 342.5 109 Q361 143 370.5 182 Q380 221 380 253 Q380 337 310 337 Q292 337 271 332.5 Q250 328 229 317 Z " />
<glyph glyph-name="seven" unicode="7" horiz-adv-x="500" d="M554 608 L203 0 L96 0 L461 549 L300 549 Q275 549 258 546.5 Q241 544 228.5 537 Q216 530 205.5 518 Q195 506 183 487 L160 493 Q166 506 174 523 Q182 540 190 558.5 Q198 577 205 594.5 Q212 612 216 625 L544 625 L554 608 Z " />
<glyph glyph-name="eight" unicode="8" horiz-adv-x="500" d="M65 127 Q65 162 79.5 193.5 Q94 225 119.5 252 Q145 279 178 300.5 Q211 322 249 339 Q225 368 207.5 402 Q190 436 190 480 Q190 514 203.5 543.5 Q217 573 241.5 594.5 Q266 616 299.5 628 Q333 640 373 640 Q404 640 431 631.5 Q458 623 477 607 Q496 591 507 568.5 Q518 546 518 518 Q518 487 504.5 460.5 Q491 434 469.5 412 Q448 390 420 373.5 Q392 357 363 345 Q380 326 396.5 306 Q413 286 426 265 Q439 244 447 221 Q455 198 455 173 Q455 131 438.5 96.5 Q422 62 392.5 37.5 Q363 13 323.5 -1 Q284 -15 239 -15 Q201 -15 169.5 -5.5 Q138 4 114.5 22.5 Q91 41 78 67.5 Q65 94 65 127 Z M366 150 Q366 174 358 195.5 Q350 217 337 236.5 Q324 256 307.5 274.5 Q291 293 274 311 Q214 279 180.5 233.5 Q147 188 147 132 Q147 85 173 56.5 Q199 28 246 28 Q272 28 294 37.5 Q316 47 332 63.5 Q348 80 357 102.5 Q366 125 366 150 Z M277 502 Q277 465 295 433.5 Q313 402 339 372 Q385 396 414.5 433.5 Q444 471 444 519 Q444 554 424 576 Q404 598 367 598 Q323 598 300 570.5 Q277 543 277 502 Z " />
<glyph glyph-name="nine" unicode="9" horiz-adv-x="500" d="M94 13 Q127 32 161.5 58.5 Q196 85 229 117 Q262 149 292 186 Q322 223 346 263 Q323 252 299.5 246 Q276 240 256 240 Q200 240 163.5 274 Q127 308 127 375 Q127 426 144 474 Q161 522 192.5 558.5 Q224 595 267.5 617.5 Q311 640 364 640 Q436 640 476 598.5 Q516 557 516 485 Q516 408 480 332 Q444 256 386 189 Q328 122 255 69 Q182 16 108 -15 L94 13 Z M371 308 Q394 352 408.5 404.5 Q423 457 423 506 Q423 554 406 575 Q389 596 361 596 Q328 596 302 573 Q276 550 257.5 516 Q239 482 229.5 443 Q220 404 220 372 Q220 288 290 288 Q308 288 329 292.5 Q350 297 371 308 Z " />
<glyph glyph-name="dollar" unicode="&#x24;" horiz-adv-x="500" d="M453 180 Q453 138 436 103 Q419 68 389.5 43 Q360 18 320.5 3 Q281 -12 237 -14 L213 -107 L167 -115 L194 -12 Q140 -4 109 28 Q78 60 78 108 Q78 114 78.5 121 Q79 128 80 133 L123 139 L123 127 Q123 85 142.5 60 Q162 35 205 29 L275 281 Q254 297 233.5 314.5 Q213 332 196.5 353 Q180 374 170 400 Q160 426 160 460 Q160 497 176 530 Q192 563 220.5 587.5 Q249 612 288 626 Q327 640 374 640 L399 730 L445 738 L417 636 Q468 627 497.5 595.5 Q527 564 527 512 Q527 507 526.5 500 Q526 493 525 487 L479 481 Q480 488 480.5 496.5 Q481 505 481 513 Q480 548 459.5 568.5 Q439 589 406 594 L405 594 L338 352 Q359 335 379.5 317.5 Q400 300 416.5 279.5 Q433 259 443 234.5 Q453 210 453 180 Z M360 157 Q360 186 346 208.5 Q332 231 310 251 L249 30 Q297 38 328.5 72 Q360 106 360 157 Z M253 478 Q253 449 267 426 Q281 403 303 382 L362 594 Q312 587 282.5 556 Q253 525 253 478 Z " />
<glyph glyph-name="cent" unicode="&#xa2;" horiz-adv-x="500" d="M255 -72 L210 -80 L228 -14 Q162 -12 126 31.5 Q90 75 90 143 Q90 198 110 253 Q130 308 165 352 Q200 396 249 425 Q298 454 355 458 L371 518 L416 525 L397 455 Q436 446 461.5 414 Q487 382 491 335 Q481 333 473 332 Q469 331 466 330.5 Q463 330 460 330 Q456 329 454 329 Q445 403 385 412 L287 48 Q322 56 352.5 79.5 Q383 103 405 128 L428 107 Q401 67 359 34 Q317 1 272 -9 L255 -72 Z M187 144 Q187 60 245 47 L343 411 Q305 402 276 373 Q247 344 227.5 305 Q208 266 197.5 223 Q187 180 187 144 Z " />
<glyph glyph-name="Euro" unicode="&#x20ac;" horiz-adv-x="500" d="M134 286 Q136 299 138.5 311 Q141 323 144 336 L69 336 L87 377 L156 377 Q174 432 201.5 480 Q229 528 265 563.5 Q301 599 345 619.5 Q389 640 440 640 Q493 640 527 613 Q561 586 578 535 L544 526 Q531 561 508 576.5 Q485 592 450 592 Q416 592 386 575.5 Q356 559 331 529.5 Q306 500 286 461 Q266 422 252 377 L449 377 L431 336 L241 336 Q238 323 235.5 311 Q233 299 231 286 L418 286 L400 245 L226 245 Q225 231 224.5 217.5 Q224 204 224 190 Q224 115 252.5 78 Q281 41 330 41 Q362 41 393 53 Q424 65 455 91 L475 69 Q443 27 397.5 6 Q352 -15 305 -15 Q226 -15 176.5 37 Q127 89 127 192 Q127 205 127.5 218 Q128 231 129 245 L38 245 L56 286 L134 286 Z " />
<glyph glyph-name="florin" unicode="&#x192;" horiz-adv-x="500" d="M-167 -122 Q-151 -142 -128 -154.5 Q-105 -167 -79 -167 Q-29 -167 14.5 -119 Q58 -71 102 37 L224 334 L124 334 L153 376 L241 376 Q268 438 297 487 Q326 536 359 570 Q392 604 429.5 622 Q467 640 512 640 Q554 640 582 626 Q610 612 610 589 Q610 580 605.5 571 Q601 562 594 554.5 Q587 547 577.5 542.5 Q568 538 559 538 Q547 538 540 548 Q533 558 527 569.5 Q521 581 513.5 591 Q506 601 492 601 Q457 601 419 547.5 Q381 494 332 376 L448 376 L419 334 L315 334 L195 42 Q91 -210 -73 -210 Q-111 -210 -143 -191.5 Q-175 -173 -192 -147 L-167 -122 Z " />
<glyph glyph-name="sterling" unicode="&#xa3;" horiz-adv-x="500" d="M268 203 Q251 137 228 92 Q255 81 283.5 73 Q312 65 347 65 Q385 65 416 76.5 Q447 88 469 105 L487 86 Q454 39 415 12 Q376 -15 332 -15 Q286 -15 255 3.5 Q224 22 198 43 Q152 -15 91 -15 Q62 -15 42 1.5 Q22 18 22 48 Q22 83 48 103 Q74 123 112 123 Q131 123 151 118 Q165 160 181 221 L206 316 L126 316 L138 358 L218 358 L232 411 Q264 530 321 585 Q378 640 463 640 Q510 640 540 625 Q570 610 570 588 Q570 579 566 570 Q562 561 555.5 553.5 Q549 546 540 541.5 Q531 537 522 537 Q511 537 503.5 547.5 Q496 558 488.5 570.5 Q481 583 471 593.5 Q461 604 443 604 Q406 604 378.5 558 Q351 512 325 415 L310 358 L442 358 L421 316 L298 316 L268 203 Z M86 22 Q101 22 113.5 35.5 Q126 49 140 85 Q132 88 124 90 Q116 92 108 92 Q87 92 73.5 80 Q60 68 60 50 Q60 22 86 22 Z " />
<glyph glyph-name="yen" unicode="&#xa5;" horiz-adv-x="500" d="M218 169 L233 225 L105 225 L123 267 L231 267 L183 541 Q178 572 164 583.5 Q150 595 115 603 L121 625 Q130 625 142.5 624.5 Q155 624 169 623.5 Q183 623 197.5 622.5 Q212 622 224 622 Q235 622 250.5 622 Q266 622 281 622.5 Q296 623 309 623.5 Q322 624 329 625 L322 603 L271 589 L319 298 L508 588 L460 603 L466 625 Q471 625 481.5 624.5 Q492 624 505 623.5 Q518 623 530.5 622.5 Q543 622 553 622 Q572 622 594.5 623 Q617 624 630 625 L624 603 Q604 600 591 596.5 Q578 593 568 586 Q558 579 549.5 568.5 Q541 558 530 542 L349 267 L460 267 L442 225 L329 225 L314 169 L439 169 L421 127 L303 127 L292 86 Q288 70 288 61 Q288 46 299.5 38 Q311 30 340 22 L334 0 Q324 0 310 0.5 Q296 1 281 1.5 Q266 2 251.5 2.5 Q237 3 226 3 Q202 3 169.5 2 Q137 1 115 0 L121 22 L184 42 L206 127 L84 127 L102 169 L218 169 Z " />
<glyph glyph-name="numbersign" unicode="&#x23;" horiz-adv-x="500" d="M331 237 L363 386 L267 386 L235 237 L331 237 Z M341 -16 L279 -16 L320 180 L223 180 L183 -16 L121 -16 L162 180 L66 180 L79 237 L173 237 L205 386 L110 386 L123 443 L217 443 L259 640 L320 640 L279 443 L375 443 L417 640 L478 640 L437 443 L534 443 L521 386 L426 386 L394 237 L490 237 L477 180 L382 180 L341 -16 Z " />
<glyph glyph-name="percent" unicode="&#x25;" horiz-adv-x="770" d="M572 27 Q594 27 614 53 Q634 79 648.5 116.5 Q663 154 671.5 197 Q680 240 680 274 Q680 339 645 339 Q622 339 602.5 313 Q583 287 568.5 249.5 Q554 212 545.5 169 Q537 126 537 92 Q537 27 572 27 Z M565 -5 Q519 -5 491 24 Q463 53 463 109 Q463 153 477 199.5 Q491 246 516.5 284 Q542 322 576.5 346.5 Q611 371 652 371 Q698 371 726 342 Q754 313 754 257 Q754 213 740 166.5 Q726 120 700.5 82 Q675 44 640.5 19.5 Q606 -5 565 -5 Z M225 286 Q247 286 267 312 Q287 338 301.5 375.5 Q316 413 324.5 456 Q333 499 333 533 Q333 598 298 598 Q275 598 255.5 572 Q236 546 221.5 508.5 Q207 471 198.5 428 Q190 385 190 351 Q190 286 225 286 Z M218 254 Q172 254 144 283 Q116 312 116 368 Q116 412 130 458.5 Q144 505 169.5 543 Q195 581 229.5 605.5 Q264 630 305 630 Q351 630 379 601 Q407 572 407 516 Q407 472 393 425.5 Q379 379 353.5 341 Q328 303 293.5 278.5 Q259 254 218 254 Z M182 -15 L128 -15 L687 640 L741 640 L182 -15 Z " />
<glyph glyph-name="perthousand" unicode="&#x2030;" horiz-adv-x="1094" d="M572 27 Q594 27 614 53 Q634 79 648.5 116.5 Q663 154 671.5 197 Q680 240 680 274 Q680 339 645 339 Q622 339 602.5 313 Q583 287 568.5 249.5 Q554 212 545.5 169 Q537 126 537 92 Q537 27 572 27 Z M565 -5 Q519 -5 491 24 Q463 53 463 109 Q463 153 477 199.5 Q491 246 516.5 284 Q542 322 576.5 346.5 Q611 371 652 371 Q698 371 726 342 Q754 313 754 257 Q754 213 740 166.5 Q726 120 700.5 82 Q675 44 640.5 19.5 Q606 -5 565 -5 Z M225 286 Q247 286 267 312 Q287 338 301.5 375.5 Q316 413 324.5 456 Q333 499 333 533 Q333 598 298 598 Q275 598 255.5 572 Q236 546 221.5 508.5 Q207 471 198.5 428 Q190 385 190 351 Q190 286 225 286 Z M218 254 Q172 254 144 283 Q116 312 116 368 Q116 412 130 458.5 Q144 505 169.5 543 Q195 581 229.5 605.5 Q264 630 305 630 Q351 630 379 601 Q407 572 407 516 Q407 472 393 425.5 Q379 379 353.5 341 Q328 303 293.5 278.5 Q259 254 218 254 Z M896 27 Q918 27 938 53 Q958 79 972.5 116.5 Q987 154 995.5 197 Q1004 240 1004 274 Q1004 339 969 339 Q946 339 926.5 313 Q907 287 892.5 249.5 Q878 212 869.5 169 Q861 126 861 92 Q861 27 896 27 Z M889 -5 Q843 -5 815 24 Q787 53 787 109 Q787 153 801 199.5 Q815 246 840.5 284 Q866 322 900.5 346.5 Q935 371 976 371 Q1022 371 1050 342 Q1078 313 1078 257 Q1078 213 1064 166.5 Q1050 120 1024.5 82 Q999 44 964.5 19.5 Q930 -5 889 -5 Z M182 -15 L128 -15 L687 640 L741 640 L182 -15 Z " />
<glyph glyph-name="plus" unicode="&#x2b;" horiz-adv-x="442" d="M263 195 L226 55 L172 55 L209 195 L77 195 L92 250 L225 250 L262 390 L316 390 L278 250 L411 250 L396 195 L263 195 Z " />
<glyph glyph-name="minus" unicode="&#x2212;" horiz-adv-x="442" d="M77 195 L92 250 L411 250 L396 195 L77 195 Z " />
<glyph glyph-name="multiply" unicode="&#xd7;" horiz-adv-x="442" d="M306 86 L238 184 L117 86 L90 124 L212 223 L144 322 L192 361 L258 262 L380 361 L407 322 L286 223 L353 124 L306 86 Z " />
<glyph glyph-name="less" unicode="&#x3c;" horiz-adv-x="442" d="M77 195 L92 250 L454 412 L438 351 L154 221 L368 92 L353 34 L77 195 Z " />
<glyph glyph-name="divide" unicode="&#xf7;" horiz-adv-x="442" d="M77 195 L92 250 L411 250 L396 195 L77 195 Z M200 47 Q184 47 174.5 57 Q165 67 165 82 Q165 104 181 119.5 Q197 135 218 135 Q235 135 244.5 125 Q254 115 254 100 Q254 78 238 62.5 Q222 47 200 47 Z M271 310 Q255 310 245.5 320 Q236 330 236 345 Q236 367 252 382.5 Q268 398 289 398 Q306 398 315.5 388 Q325 378 325 363 Q325 341 309 325.5 Q293 310 271 310 Z " />
<glyph glyph-name="equal" unicode="&#x3d;" horiz-adv-x="442" d="M57 119 L71 174 L391 174 L376 119 L57 119 Z M97 269 L112 324 L431 324 L416 269 L97 269 Z " />
<glyph glyph-name="logicalnot" unicode="&#xac;" horiz-adv-x="442" d="M97 269 L112 324 L431 324 L376 119 L320 119 L360 269 L97 269 Z " />
<glyph glyph-name="greater" unicode="&#x3e;" horiz-adv-x="442" d="M411 250 L396 195 L34 32 L50 94 L335 224 L120 353 L135 411 L411 250 Z " />
<glyph glyph-name="notequal" unicode="&#x2260;" horiz-adv-x="442" d="M207 119 L141 24 L82 24 L148 119 L57 119 L71 174 L186 174 L252 269 L97 269 L112 324 L291 324 L358 420 L418 420 L351 324 L431 324 L416 269 L312 269 L246 174 L391 174 L376 119 L207 119 Z " />
<glyph glyph-name="approxequal" unicode="&#x2248;" horiz-adv-x="442" d="M440 361 Q420 316 390.5 286.5 Q361 257 320 257 Q299 257 283 265 Q267 273 252.5 283 Q238 293 223 301 Q208 309 190 309 Q166 309 149.5 295.5 Q133 282 120 257 L94 257 Q114 311 147.5 335.5 Q181 360 217 360 Q239 360 254.5 352.5 Q270 345 284 336.5 Q298 328 312.5 320.5 Q327 313 345 313 Q373 313 388 326.5 Q403 340 414 361 L440 361 Z M402 222 Q382 177 352.5 147.5 Q323 118 282 118 Q261 118 245 126 Q229 134 214.5 144 Q200 154 185 162 Q170 170 152 170 Q128 170 111.5 156.5 Q95 143 82 118 L56 118 Q76 172 109.5 196.5 Q143 221 179 221 Q201 221 216.5 213.5 Q232 206 246 197.5 Q260 189 274.5 181.5 Q289 174 307 174 Q335 174 350 187.5 Q365 201 376 222 L402 222 Z " />
<glyph glyph-name="plusminus" unicode="&#xb1;" horiz-adv-x="442" d="M279 266 L242 126 L188 126 L225 266 L93 266 L108 321 L240 321 L277 461 L331 461 L294 321 L427 321 L412 266 L279 266 Z M21 0 L37 55 L355 55 L340 0 L21 0 Z " />
<glyph glyph-name="lessequal" unicode="&#x2264;" horiz-adv-x="442" d="M21 0 L37 55 L355 55 L340 0 L21 0 Z M91 262 L106 317 L468 479 L452 418 L168 288 L382 159 L367 101 L91 262 Z " />
<glyph glyph-name="greaterequal" unicode="&#x2265;" horiz-adv-x="442" d="M21 0 L37 55 L355 55 L340 0 L21 0 Z M427 318 L412 263 L50 101 L66 162 L350 292 L136 421 L151 479 L427 318 Z " />
<glyph glyph-name="asciicircum" unicode="&#x5e;" horiz-adv-x="442" d="M387 344 L332 562 L157 344 L90 344 L319 625 L378 625 L452 344 L387 344 Z " />
<glyph glyph-name="asciitilde" unicode="&#x7e;" horiz-adv-x="442" d="M457 363 Q437 307 403 280 Q369 253 332 253 Q307 253 288 261.5 Q269 270 252.5 280.5 Q236 291 220.5 300 Q205 309 186 309 Q161 309 143 294 Q125 279 111 253 L83 253 Q103 309 137 336 Q171 363 208 363 Q233 363 252 354 Q271 345 287.5 334.5 Q304 324 319.5 315.5 Q335 307 354 307 Q379 307 397 322 Q415 337 429 363 L457 363 Z " />
<glyph glyph-name="lozenge" unicode="&#x25ca;" horiz-adv-x="563" d="M212 0 L98 316 L383 625 L446 625 L561 316 L275 0 L212 0 Z M252 52 L496 323 L405 572 L163 308 L252 52 Z " />
<glyph glyph-name="degree" unicode="&#xb0;" horiz-adv-x="314" d="M228 430 Q248 430 265 439 Q282 448 294.5 463 Q307 478 314 497.5 Q321 517 321 538 Q321 564 307.5 580.5 Q294 597 266 597 Q246 597 229 588 Q212 579 199.5 564 Q187 549 180 529.5 Q173 510 173 489 Q173 463 186.5 446.5 Q200 430 228 430 Z M221 387 Q175 387 147.5 414.5 Q120 442 120 484 Q120 517 131.5 545.5 Q143 574 163.5 595 Q184 616 212 628 Q240 640 273 640 Q319 640 346.5 612.5 Q374 585 374 543 Q374 510 362.5 481.5 Q351 453 330.5 432 Q310 411 282 399 Q254 387 221 387 Z " />
<glyph glyph-name="quotesingle" unicode="&#x27;" horiz-adv-x="166" d="M128 393 Q136 446 138.5 491 Q141 536 146.5 569 Q152 602 164.5 621 Q177 640 205 640 Q223 640 231.5 630.5 Q240 621 240 606 Q240 584 229 556.5 Q218 529 195 484 Q183 461 172.5 438 Q162 415 154 393 L128 393 Z " />
<glyph glyph-name="quotedbl" unicode="&#x22;" horiz-adv-x="306" d="M128 393 Q136 446 138.5 491 Q141 536 146.5 569 Q152 602 164.5 621 Q177 640 205 640 Q223 640 231.5 630.5 Q240 621 240 606 Q240 584 229 556.5 Q218 529 195 484 Q183 461 172.5 438 Q162 415 154 393 L128 393 Z M268 393 Q276 446 278.5 491 Q281 536 286.5 569 Q292 602 304.5 621 Q317 640 345 640 Q363 640 371.5 630.5 Q380 621 380 606 Q380 584 369 556.5 Q358 529 335 484 Q323 461 312.5 438 Q302 415 294 393 L268 393 Z " />
<glyph glyph-name="radical" unicode="&#x221a;" horiz-adv-x="616" d="M224 444 Q275 444 296 430.5 Q317 417 321 378 L343 146 L596 551 Q610 573 622 587.5 Q634 602 648 610.5 Q662 619 678.5 622 Q695 625 718 625 L746 625 L736 587 L713 587 Q685 587 670 577 Q655 567 640 542 L303 -2 L266 -2 L224 353 Q222 370 219.5 380.5 Q217 391 211.5 396.5 Q206 402 196.5 404 Q187 406 172 406 L117 406 L127 444 L224 444 Z " />
<glyph glyph-name="currency" unicode="&#xa4;" horiz-adv-x="500" d="M345 499 Q371 499 391 493.5 Q411 488 428 477 L486 542 L548 542 L462 446 Q490 410 490 358 Q490 303 464.5 253 Q439 203 395 170 L436 73 L374 73 L346 140 Q326 132 303 127 Q280 122 257 122 Q231 122 211 127.5 Q191 133 174 144 L116 79 L54 79 L140 175 Q112 211 112 263 Q112 318 137.5 368 Q163 418 207 451 L166 548 L228 548 L256 481 Q276 489 299 494 Q322 499 345 499 Z M266 164 Q297 164 322.5 182 Q348 200 366.5 228.5 Q385 257 395 292 Q405 327 405 361 Q405 401 390 429 Q375 457 336 457 Q305 457 279.5 439 Q254 421 235.5 392.5 Q217 364 207 329 Q197 294 197 260 Q197 220 212 192 Q227 164 266 164 Z " />
<glyph glyph-name="infinity" unicode="&#x221e;" horiz-adv-x="698" d="M356 261 Q347 282 336 300.5 Q325 319 311 333.5 Q297 348 279.5 356.5 Q262 365 240 365 Q221 365 202.5 358 Q184 351 170 338 Q156 325 147 307 Q138 289 138 268 Q138 236 158.5 219 Q179 202 214 202 Q233 202 253 206.5 Q273 211 292 218.5 Q311 226 327.5 237 Q344 248 356 261 Z M369 227 Q333 173 287.5 149 Q242 125 202 125 Q152 125 123 159 Q94 193 94 253 Q94 290 108 324.5 Q122 359 146 385.5 Q170 412 202.5 427.5 Q235 443 272 443 Q327 443 359 415 Q391 387 414 342 Q450 396 495.5 420 Q541 444 581 444 Q631 444 660 410 Q689 376 689 316 Q689 278 675 244 Q661 210 637 183.5 Q613 157 580.5 141.5 Q548 126 511 126 Q456 126 424 154 Q392 182 369 227 Z M427 308 Q436 287 447 268.5 Q458 250 472 235.5 Q486 221 503.5 212.5 Q521 204 543 204 Q562 204 580.5 211 Q599 218 613 231 Q627 244 636 262 Q645 280 645 301 Q645 333 624.5 350 Q604 367 569 367 Q550 367 530 362.5 Q510 358 491 350.5 Q472 343 455.5 332 Q439 321 427 308 Z " />
<glyph glyph-name="uni00B5" unicode="&#xb5;" horiz-adv-x="496" d="M-39 -227 Q-21 -164 -2 -94.5 Q17 -25 38 53 L85 232 Q100 288 114 344.5 Q128 401 138 441 L238 460 Q224 416 209 364.5 Q194 313 174 236 L160 183 Q152 154 147.5 134 Q143 114 143 98 Q143 75 158 59 Q173 43 199 43 Q229 43 260.5 60 Q292 77 318 107 L352 232 Q368 289 381.5 344 Q395 399 405 441 L504 460 Q487 403 471.5 345.5 Q456 288 439 228 L408 115 Q403 96 401.5 85 Q400 74 400 70 Q400 45 428 45 Q436 45 448.5 47.5 Q461 50 471 54 L463 22 Q443 9 415 -1 Q387 -11 364 -11 Q335 -11 322.5 1 Q310 13 310 33 Q310 38 310.5 44.5 Q311 51 312 56 Q279 21 247.5 3 Q216 -15 185 -15 Q153 -15 134 0.5 Q115 16 111 36 Q94 -37 79 -97 Q64 -157 53 -208 L-39 -227 L-39 -227 Z " />
<glyph glyph-name="partialdiff" unicode="&#x2202;" horiz-adv-x="500" d="M394 349 Q393 430 368 499 Q343 568 283 615 L300 640 Q345 620 380 588 Q415 556 439 516 Q463 476 475.5 430 Q488 384 488 336 Q488 276 471 213.5 Q454 151 421 100.5 Q388 50 339 17.5 Q290 -15 225 -15 Q191 -15 162.5 -5 Q134 5 113 23.5 Q92 42 80.5 70 Q69 98 69 134 Q69 182 86.5 228 Q104 274 134 310 Q164 346 205 368 Q246 390 293 390 Q320 390 346.5 379.5 Q373 369 394 349 Z M160 112 Q160 73 177.5 50 Q195 27 228 27 Q266 27 296 57 Q326 87 347 129.5 Q368 172 379.5 218.5 Q391 265 391 298 Q378 314 356 326 Q334 338 307 338 Q274 338 247 317 Q220 296 200.5 263 Q181 230 170.5 190 Q160 150 160 112 Z " />
<glyph glyph-name="summation" unicode="&#x2211;" horiz-adv-x="528" d="M-33 -75 L-37 -66 L329 303 L186 692 L194 700 L628 700 Q624 685 619 665 Q614 645 609 624 Q604 603 599.5 584.5 Q595 566 593 555 L572 555 L551 663 L300 663 L413 355 Q416 346 415.5 339.5 Q415 333 408 325 L94 8 L298 8 Q328 8 350 13 Q372 18 389.5 28.5 Q407 39 421 56 Q435 73 448 98 L472 98 Q466 80 457.5 56.5 Q449 33 441 8.5 Q433 -16 426 -38.5 Q419 -61 415 -75 L-33 -75 Z " />
<glyph glyph-name="product" unicode="&#x220f;" horiz-adv-x="651" d="M413 -32 L599 660 L337 660 L163 12 Q159 -4 159 -13 Q159 -28 170.5 -36 Q182 -44 211 -52 L205 -74 Q195 -74 181 -73.5 Q167 -73 152 -72.5 Q137 -72 122.5 -71.5 Q108 -71 97 -71 Q73 -71 40.5 -72 Q8 -73 -14 -74 L-8 -52 L55 -32 L229 614 Q233 630 233 639 Q233 654 221.5 662 Q210 670 181 678 L187 700 L763 700 L757 678 L694 658 L521 12 Q517 -4 517 -13 Q517 -28 528.5 -36 Q540 -44 569 -52 L563 -74 Q553 -74 539 -73.5 Q525 -73 510 -72.5 Q495 -72 480.5 -71.5 Q466 -71 455 -71 Q431 -71 398.5 -72 Q366 -73 344 -74 L350 -52 L413 -32 Z " />
<glyph glyph-name="integral" unicode="&#x222b;" horiz-adv-x="376" d="M208 362 Q231 453 253 516.5 Q275 580 300.5 620.5 Q326 661 356.5 679.5 Q387 698 427 698 Q468 698 490.5 682.5 Q513 667 513 648 Q513 633 499.5 617.5 Q486 602 469 602 Q458 602 452.5 611 Q447 620 441 631.5 Q435 643 427 652 Q419 661 404 661 Q366 661 347 599 Q342 583 336.5 556.5 Q331 530 324.5 496.5 Q318 463 310 425 Q302 387 293 350 L271 262 Q248 171 226 107.5 Q204 44 178.5 3.5 Q153 -37 122.5 -55.5 Q92 -74 52 -74 Q11 -74 -11.5 -58.5 Q-34 -43 -34 -24 Q-34 -9 -20.5 6.5 Q-7 22 10 22 Q20 22 26 13 Q32 4 38 -7.5 Q44 -19 52 -28 Q60 -37 75 -37 Q113 -37 132 25 Q137 41 142.5 67.5 Q148 94 154.5 127.5 Q161 161 169 198.5 Q177 236 186 274 L208 362 Z " />
<glyph glyph-name="Ohm" unicode="&#x2126;" horiz-adv-x="701" d="M338 12 Q470 118 536 222.5 Q602 327 602 439 Q602 470 593.5 498.5 Q585 527 567.5 548 Q550 569 523.5 581.5 Q497 594 461 594 Q401 594 355.5 563.5 Q310 533 279 484.5 Q248 436 232 375.5 Q216 315 216 255 Q216 198 236.5 133.5 Q257 69 295 12 L288 0 L7 0 Q10 14 15 35 Q20 56 25 79 Q30 102 35 124.5 Q40 147 43 165 L66 165 Q66 138 68 121.5 Q70 105 77 95 Q84 85 97.5 81.5 Q111 78 135 78 L214 78 Q193 95 174.5 116 Q156 137 142 162.5 Q128 188 119.5 217 Q111 246 111 279 Q111 346 137.5 410.5 Q164 475 211.5 526 Q259 577 324.5 608.5 Q390 640 468 640 Q525 640 569.5 624.5 Q614 609 645.5 581 Q677 553 693.5 513.5 Q710 474 710 426 Q710 375 691 326.5 Q672 278 638.5 234 Q605 190 559.5 150.5 Q514 111 461 78 L517 78 Q547 78 567 82.5 Q587 87 601 97 Q615 107 625.5 123.5 Q636 140 649 165 L672 165 Q666 147 658 124.5 Q650 102 642.5 79 Q635 56 628 35 Q621 14 617 0 L340 0 L338 12 Z " />
<glyph glyph-name="Delta" unicode="&#x2206;" horiz-adv-x="567" d="M0 11 L402 625 L442 625 L511 11 L502 0 L3 0 L0 11 Z M74 40 L411 40 L362 480 L74 40 Z " />
<glyph glyph-name="litre" unicode="&#x2113;" horiz-adv-x="439" d="M246 171 Q233 116 233 94 Q233 68 245 54 Q257 40 287 40 Q305 40 328.5 45 Q352 50 368 57 L360 27 Q337 10 306 -1 Q275 -12 244 -12 Q198 -12 169.5 12 Q141 36 141 81 Q141 96 143.5 113.5 Q146 131 154 163 L171 232 L88 189 L77 215 Q87 221 101 229 Q115 237 130 245.5 Q145 254 158.5 262 Q172 270 181 275 L216 423 Q242 532 292 586 Q342 640 404 640 Q444 640 467.5 620 Q491 600 491 565 Q491 531 474 495 Q457 459 428 423 Q399 387 359 351 Q319 315 273 282 L246 171 Z M287 338 Q316 364 340.5 395.5 Q365 427 383 459 Q401 491 411.5 520.5 Q422 550 422 572 Q422 603 398 603 Q372 603 351.5 562.5 Q331 522 313 447 L287 338 Z " />
<glyph glyph-name="estimated" unicode="&#x212e;" horiz-adv-x="788" d="M208 305 Q203 305 203 301 L203 122 Q203 111 212 102 Q254 56 311.5 30 Q369 4 433 4 Q505 4 565 33 Q625 62 669 113 L722 113 Q672 55 596.5 20 Q521 -15 432 -15 Q357 -15 291 11 Q225 37 175.5 81 Q126 125 97.5 184.5 Q69 244 69 312 Q69 380 97.5 439.5 Q126 499 175.5 543.5 Q225 588 291 614 Q357 640 432 640 Q508 640 574.5 614 Q641 588 690.5 543.5 Q740 499 768.5 439.5 Q797 380 797 312 L797 305 L208 305 Z M665 506 Q665 517 655 527 Q612 571 555.5 596 Q499 621 433 621 Q369 621 312 595 Q255 569 213 524 Q203 516 203 502 L203 326 Q203 321 208 321 L660 321 Q665 321 665 326 L665 506 Z " />
<glyph glyph-name="numero" unicode="&#x2116;" horiz-adv-x="955" d="M686 191 L696 230 L938 230 L928 191 L686 191 Z M834 306 Q855 306 872.5 323.5 Q890 341 902 367.5 Q914 394 921 424 Q928 454 928 479 Q928 503 919.5 523 Q911 543 886 543 Q865 543 847.5 525.5 Q830 508 818 481.5 Q806 455 799 425 Q792 395 792 370 Q792 346 800.5 326 Q809 306 834 306 Z M830 269 Q777 269 751 299.5 Q725 330 725 380 Q725 411 736.5 446 Q748 481 769 511 Q790 541 820.5 560.5 Q851 580 890 580 Q943 580 969 549.5 Q995 519 995 469 Q995 438 983.5 403 Q972 368 951 338 Q930 308 899.5 288.5 Q869 269 830 269 Z M300 625 L527 159 L630 539 Q634 555 634 564 Q634 579 622.5 587 Q611 595 582 603 L588 625 Q608 624 628.5 623 Q649 622 671 622 Q695 622 719.5 623 Q744 624 766 625 L760 603 L697 583 L539 -3 L502 -3 L260 496 L150 86 Q146 70 146 61 Q146 46 157.5 38 Q169 30 198 22 L192 0 Q172 1 151.5 2 Q131 3 109 3 Q85 3 60.5 2 Q36 1 14 0 L20 22 L83 42 L216 535 Q220 549 221 555.5 Q222 562 222 567 Q222 581 208 589 Q194 597 167 603 L173 625 L300 625 Z " />
<glyph glyph-name="ordfeminine" unicode="&#xaa;" horiz-adv-x="340" d="M361 275 Q349 267 332.5 260.5 Q316 254 301 254 Q261 254 261 299 Q246 279 222.5 266.5 Q199 254 174 254 Q135 254 112 279 Q89 304 89 349 Q89 384 103 418.5 Q117 453 140.5 480.5 Q164 508 196 525 Q228 542 264 542 Q284 542 299.5 537 Q315 532 329 522 L345 540 L387 535 L390 531 L337 333 Q332 313 332 306 Q332 292 345 292 Q350 292 356.5 293.5 Q363 295 368 297 L361 275 Z M308 491 Q297 509 271 509 Q249 509 229.5 493.5 Q210 478 195 454.5 Q180 431 171.5 403 Q163 375 163 350 Q163 297 203 297 Q232 297 253 328.5 Q274 360 288 415 L308 491 Z " />
<glyph glyph-name="ordmasculine" unicode="&#xba;" horiz-adv-x="324" d="M206 286 Q229 286 246.5 303.5 Q264 321 275.5 346.5 Q287 372 293 399.5 Q299 427 299 447 Q299 480 287.5 495 Q276 510 256 510 Q233 510 215.5 492.5 Q198 475 186.5 449.5 Q175 424 169 396.5 Q163 369 163 349 Q163 316 174.5 301 Q186 286 206 286 Z M203 254 Q151 254 120 281.5 Q89 309 89 361 Q89 393 100.5 425.5 Q112 458 134 484 Q156 510 187.5 526 Q219 542 259 542 Q311 542 342 514.5 Q373 487 373 435 Q373 403 361.5 370.5 Q350 338 328 312 Q306 286 274.5 270 Q243 254 203 254 Z " />
<glyph glyph-name="onesuperior" unicode="&#xb9;" horiz-adv-x="325" d="M322 369 Q316 369 305.5 369 Q295 369 283 369.5 Q271 370 259 370 Q247 370 239 370 Q227 370 213.5 370 Q200 370 187.5 369.5 Q175 369 165 369 Q155 369 150 369 L155 387 L207 399 L277 659 Q281 674 281 680 Q281 687 276.5 690 Q272 693 258 696 L231 702 L236 720 Q272 720 300.5 724 Q329 728 348 737 L368 737 L288 441 Q283 424 283 416 Q283 406 291 399.5 Q299 393 328 387 L322 369 Z " />
<glyph glyph-name="twosuperior" unicode="&#xb2;" horiz-adv-x="325" d="M369 466 Q358 447 346 421 Q334 395 322 369 L121 369 L115 385 Q139 410 175.5 443 Q212 476 246 512 Q280 548 304.5 584.5 Q329 621 329 654 Q329 676 317 686.5 Q305 697 287 697 Q265 697 245 684 Q225 671 208 649 L188 663 Q208 696 241 718 Q274 740 316 740 Q352 740 378.5 719 Q405 698 405 655 Q405 619 384 589.5 Q363 560 332.5 533.5 Q302 507 266.5 482 Q231 457 202 430 L283 430 Q307 430 320.5 437 Q334 444 347 466 L369 466 Z " />
<glyph glyph-name="threesuperior" unicode="&#xb3;" horiz-adv-x="325" d="M317 740 Q350 740 375.5 721.5 Q401 703 401 668 Q401 635 374.5 611.5 Q348 588 303 573 Q334 563 351.5 543 Q369 523 369 493 Q369 466 356 442.5 Q343 419 321 401.5 Q299 384 270.5 374 Q242 364 211 364 Q176 364 150 376 Q124 388 124 408 Q124 421 133.5 432 Q143 443 155 443 Q163 443 168.5 435.5 Q174 428 180 418.5 Q186 409 194.5 401.5 Q203 394 217 394 Q232 394 246 403 Q260 412 270.5 426 Q281 440 287 457.5 Q293 475 293 492 Q293 521 273.5 536 Q254 551 218 552 L224 576 Q243 577 261.5 583.5 Q280 590 294.5 600.5 Q309 611 318 626 Q327 641 327 659 Q327 678 315 687.5 Q303 697 286 697 Q268 697 249 686 Q230 675 215 654 L193 666 Q213 702 247.5 721 Q282 740 317 740 Z " />
<glyph glyph-name="fraction" unicode="&#x2044;" horiz-adv-x="113" d="M-143 -15 L-197 -15 L362 640 L416 640 L-143 -15 Z " />
<glyph glyph-name="onehalf" unicode="&#xbd;" horiz-adv-x="770" d="M284 259 Q278 259 267.5 259 Q257 259 245 259.5 Q233 260 221 260 Q209 260 201 260 Q189 260 175.5 260 Q162 260 149.5 259.5 Q137 259 127 259 Q117 259 112 259 L117 277 L169 289 L239 549 Q243 564 243 570 Q243 577 238.5 580 Q234 583 220 586 L193 592 L198 610 Q234 610 262.5 614 Q291 618 310 627 L330 627 L250 331 Q245 314 245 306 Q245 296 253 289.5 Q261 283 290 277 L284 259 Z M691 97 Q680 78 668 52 Q656 26 644 0 L443 0 L437 16 Q461 41 497.5 74 Q534 107 568 143 Q602 179 626.5 215.5 Q651 252 651 285 Q651 307 639 317.5 Q627 328 609 328 Q587 328 567 315 Q547 302 530 280 L510 294 Q530 327 563 349 Q596 371 638 371 Q674 371 700.5 350 Q727 329 727 286 Q727 250 706 220.5 Q685 191 654.5 164.5 Q624 138 588.5 113 Q553 88 524 61 L605 61 Q629 61 642.5 68 Q656 75 669 97 L691 97 Z M181 -15 L127 -15 L686 640 L740 640 L181 -15 Z " />
<glyph glyph-name="onequarter" unicode="&#xbc;" horiz-adv-x="770" d="M637 72 Q632 52 632 47 Q632 36 639.5 30.5 Q647 25 673 18 L667 0 Q661 0 651.5 0 Q642 0 630.5 0.5 Q619 1 608 1 Q597 1 589 1 Q579 1 566.5 1 Q554 1 542 0.5 Q530 0 520 0 Q510 0 505 0 L510 18 L556 30 L573 95 L427 95 L421 111 L674 366 L716 366 L655 137 L707 137 L695 95 L643 95 L637 72 Z M621 274 L484 137 L585 137 L621 274 Z M286 259 Q280 259 269.5 259 Q259 259 247 259.5 Q235 260 223 260 Q211 260 203 260 Q191 260 177.5 260 Q164 260 151.5 259.5 Q139 259 129 259 Q119 259 114 259 L119 277 L171 289 L241 549 Q245 564 245 570 Q245 577 240.5 580 Q236 583 222 586 L195 592 L200 610 Q236 610 264.5 614 Q293 618 312 627 L332 627 L252 331 Q247 314 247 306 Q247 296 255 289.5 Q263 283 292 277 L286 259 Z M183 -15 L129 -15 L688 640 L742 640 L183 -15 Z " />
<glyph glyph-name="threequarters" unicode="&#xbe;" horiz-adv-x="770" d="M297 630 Q330 630 355.5 611.5 Q381 593 381 558 Q381 525 354.5 501.5 Q328 478 283 463 Q314 453 331.5 433 Q349 413 349 383 Q349 356 336 332.5 Q323 309 301 291.5 Q279 274 250.5 264 Q222 254 191 254 Q156 254 130 266 Q104 278 104 298 Q104 311 113.5 322 Q123 333 135 333 Q143 333 148.5 325.5 Q154 318 160 308.5 Q166 299 174.5 291.5 Q183 284 197 284 Q212 284 226 293 Q240 302 250.5 316 Q261 330 267 347.5 Q273 365 273 382 Q273 411 253.5 426 Q234 441 198 442 L204 466 Q223 467 241.5 473.5 Q260 480 274.5 490.5 Q289 501 298 516 Q307 531 307 549 Q307 568 295 577.5 Q283 587 266 587 Q248 587 229 576 Q210 565 195 544 L173 556 Q193 592 227.5 611 Q262 630 297 630 Z M654 72 Q649 52 649 47 Q649 36 656.5 30.5 Q664 25 690 18 L684 0 Q678 0 668.5 0 Q659 0 647.5 0.5 Q636 1 625 1 Q614 1 606 1 Q596 1 583.5 1 Q571 1 559 0.5 Q547 0 537 0 Q527 0 522 0 L527 18 L573 30 L590 95 L444 95 L438 111 L691 366 L733 366 L672 137 L724 137 L712 95 L660 95 L654 72 Z M638 274 L501 137 L602 137 L638 274 Z M200 -15 L146 -15 L705 640 L759 640 L200 -15 Z " />
<glyph glyph-name="Agrave" unicode="&#xc0;" horiz-adv-x="616" d="M366 22 L420 36 L403 217 L217 217 L133 83 Q119 61 119 52 Q119 42 129.5 36 Q140 30 174 22 L168 0 Q150 1 123 2 Q96 3 75 3 Q53 3 23.5 2 Q-6 1 -24 0 L-17 22 L49 41 L415 625 L458 625 L510 94 Q512 75 515 64 Q518 53 525.5 45.5 Q533 38 545.5 33 Q558 28 578 22 L571 0 Q566 0 553 0.5 Q540 1 524.5 1.5 Q509 2 493.5 2.5 Q478 3 467 3 Q453 3 437 2.5 Q421 2 406 1.5 Q391 1 379 0.5 Q367 0 360 0 L366 22 Z M377 477 L243 259 L399 259 L377 477 Z M357 750 L386 782 Q396 794 406 794 Q415 794 430 779 L539 677 L529 664 L359 740 L357 750 Z " />
<glyph glyph-name="Aacute" unicode="&#xc1;" horiz-adv-x="616" d="M366 22 L420 36 L403 217 L217 217 L133 83 Q119 61 119 52 Q119 42 129.5 36 Q140 30 174 22 L168 0 Q150 1 123 2 Q96 3 75 3 Q53 3 23.5 2 Q-6 1 -24 0 L-17 22 L49 41 L415 625 L458 625 L510 94 Q512 75 515 64 Q518 53 525.5 45.5 Q533 38 545.5 33 Q558 28 578 22 L571 0 Q566 0 553 0.5 Q540 1 524.5 1.5 Q509 2 493.5 2.5 Q478 3 467 3 Q453 3 437 2.5 Q421 2 406 1.5 Q391 1 379 0.5 Q367 0 360 0 L366 22 Z M377 477 L243 259 L399 259 L377 477 Z M547 740 L354 670 L346 683 L490 783 Q506 794 514 794 Q522 794 530 782 L549 750 L547 740 Z " />
<glyph glyph-name="Acircumflex" unicode="&#xc2;" horiz-adv-x="616" d="M366 22 L420 36 L403 217 L217 217 L133 83 Q119 61 119 52 Q119 42 129.5 36 Q140 30 174 22 L168 0 Q150 1 123 2 Q96 3 75 3 Q53 3 23.5 2 Q-6 1 -24 0 L-17 22 L49 41 L415 625 L458 625 L510 94 Q512 75 515 64 Q518 53 525.5 45.5 Q533 38 545.5 33 Q558 28 578 22 L571 0 Q566 0 553 0.5 Q540 1 524.5 1.5 Q509 2 493.5 2.5 Q478 3 467 3 Q453 3 437 2.5 Q421 2 406 1.5 Q391 1 379 0.5 Q367 0 360 0 L366 22 Z M377 477 L243 259 L399 259 L377 477 Z M539 669 L457 740 L337 669 L325 680 L446 797 L494 797 L554 677 L539 669 Z " />
<glyph glyph-name="Atilde" unicode="&#xc3;" horiz-adv-x="616" d="M366 22 L420 36 L403 217 L217 217 L133 83 Q119 61 119 52 Q119 42 129.5 36 Q140 30 174 22 L168 0 Q150 1 123 2 Q96 3 75 3 Q53 3 23.5 2 Q-6 1 -24 0 L-17 22 L49 41 L415 625 L458 625 L510 94 Q512 75 515 64 Q518 53 525.5 45.5 Q533 38 545.5 33 Q558 28 578 22 L571 0 Q566 0 553 0.5 Q540 1 524.5 1.5 Q509 2 493.5 2.5 Q478 3 467 3 Q453 3 437 2.5 Q421 2 406 1.5 Q391 1 379 0.5 Q367 0 360 0 L366 22 Z M377 477 L243 259 L399 259 L377 477 Z M497 692 Q482 692 469.5 697.5 Q457 703 445 710 Q433 717 421 722.5 Q409 728 396 728 Q381 728 367.5 720 Q354 712 345 692 L323 696 Q340 743 363 766.5 Q386 790 418 790 Q433 790 445.5 784.5 Q458 779 470 772 Q482 765 493.5 759.5 Q505 754 519 754 Q534 754 547.5 762 Q561 770 570 790 L592 786 Q575 739 552 715.5 Q529 692 497 692 Z " />
<glyph glyph-name="Adieresis" unicode="&#xc4;" horiz-adv-x="616" d="M366 22 L420 36 L403 217 L217 217 L133 83 Q119 61 119 52 Q119 42 129.5 36 Q140 30 174 22 L168 0 Q150 1 123 2 Q96 3 75 3 Q53 3 23.5 2 Q-6 1 -24 0 L-17 22 L49 41 L415 625 L458 625 L510 94 Q512 75 515 64 Q518 53 525.5 45.5 Q533 38 545.5 33 Q558 28 578 22 L571 0 Q566 0 553 0.5 Q540 1 524.5 1.5 Q509 2 493.5 2.5 Q478 3 467 3 Q453 3 437 2.5 Q421 2 406 1.5 Q391 1 379 0.5 Q367 0 360 0 L366 22 Z M377 477 L243 259 L399 259 L377 477 Z M375 687 Q358 687 348 697 Q338 707 338 722 Q338 746 355 762.5 Q372 779 395 779 Q412 779 422 769 Q432 759 432 744 Q432 720 415 703.5 Q398 687 375 687 Z M519 687 Q502 687 492 697 Q482 707 482 722 Q482 746 499 762.5 Q516 779 539 779 Q556 779 566 769 Q576 759 576 744 Q576 720 559 703.5 Q542 687 519 687 Z " />
<glyph glyph-name="Amacron" unicode="&#x100;" horiz-adv-x="616" d="M366 22 L420 36 L403 217 L217 217 L133 83 Q119 61 119 52 Q119 42 129.5 36 Q140 30 174 22 L168 0 Q150 1 123 2 Q96 3 75 3 Q53 3 23.5 2 Q-6 1 -24 0 L-17 22 L49 41 L415 625 L458 625 L510 94 Q512 75 515 64 Q518 53 525.5 45.5 Q533 38 545.5 33 Q558 28 578 22 L571 0 Q566 0 553 0.5 Q540 1 524.5 1.5 Q509 2 493.5 2.5 Q478 3 467 3 Q453 3 437 2.5 Q421 2 406 1.5 Q391 1 379 0.5 Q367 0 360 0 L366 22 Z M377 477 L243 259 L399 259 L377 477 Z M339 699 L352 747 L566 747 L553 699 L339 699 Z " />
<glyph glyph-name="Abreve" unicode="&#x102;" horiz-adv-x="616" d="M366 22 L420 36 L403 217 L217 217 L133 83 Q119 61 119 52 Q119 42 129.5 36 Q140 30 174 22 L168 0 Q150 1 123 2 Q96 3 75 3 Q53 3 23.5 2 Q-6 1 -24 0 L-17 22 L49 41 L415 625 L458 625 L510 94 Q512 75 515 64 Q518 53 525.5 45.5 Q533 38 545.5 33 Q558 28 578 22 L571 0 Q566 0 553 0.5 Q540 1 524.5 1.5 Q509 2 493.5 2.5 Q478 3 467 3 Q453 3 437 2.5 Q421 2 406 1.5 Q391 1 379 0.5 Q367 0 360 0 L366 22 Z M377 477 L243 259 L399 259 L377 477 Z M576 794 Q563 742 531.5 709 Q500 676 444 676 Q401 676 376.5 699.5 Q352 723 352 760 Q352 776 357 794 L383 794 Q383 765 400 748 Q417 731 452 731 Q487 731 513 748 Q539 765 550 794 L576 794 Z " />
<glyph glyph-name="Acaron" unicode="&#x1cd;" horiz-adv-x="616" d="M366 22 L420 36 L403 217 L217 217 L133 83 Q119 61 119 52 Q119 42 129.5 36 Q140 30 174 22 L168 0 Q150 1 123 2 Q96 3 75 3 Q53 3 23.5 2 Q-6 1 -24 0 L-17 22 L49 41 L415 625 L458 625 L510 94 Q512 75 515 64 Q518 53 525.5 45.5 Q533 38 545.5 33 Q558 28 578 22 L571 0 Q566 0 553 0.5 Q540 1 524.5 1.5 Q509 2 493.5 2.5 Q478 3 467 3 Q453 3 437 2.5 Q421 2 406 1.5 Q391 1 379 0.5 Q367 0 360 0 L366 22 Z M377 477 L243 259 L399 259 L377 477 Z M374 802 L456 731 L577 802 L589 790 L467 673 L419 673 L360 793 L374 802 Z " />
<glyph glyph-name="Aring" unicode="&#xc5;" horiz-adv-x="616" d="M366 22 L420 36 L403 217 L217 217 L133 83 Q119 61 119 52 Q119 42 129.5 36 Q140 30 174 22 L168 0 Q150 1 123 2 Q96 3 75 3 Q53 3 23.5 2 Q-6 1 -24 0 L-17 22 L49 41 L415 625 L458 625 L510 94 Q512 75 515 64 Q518 53 525.5 45.5 Q533 38 545.5 33 Q558 28 578 22 L571 0 Q566 0 553 0.5 Q540 1 524.5 1.5 Q509 2 493.5 2.5 Q478 3 467 3 Q453 3 437 2.5 Q421 2 406 1.5 Q391 1 379 0.5 Q367 0 360 0 L366 22 Z M377 477 L243 259 L399 259 L377 477 Z M453 704 Q477 704 491.5 722.5 Q506 741 506 766 Q506 783 497 792 Q488 801 474 801 Q450 801 435.5 782.5 Q421 764 421 739 Q421 722 430 713 Q439 704 453 704 Z M449 667 Q417 667 397.5 686.5 Q378 706 378 738 Q378 757 385 775 Q392 793 405.5 807 Q419 821 437 829.5 Q455 838 478 838 Q510 838 529.5 818.5 Q549 799 549 767 Q549 748 542 730 Q535 712 521.5 698 Q508 684 489.5 675.5 Q471 667 449 667 Z " />
<glyph glyph-name="Aringacute" unicode="&#x1fa;" horiz-adv-x="616" d="M600 917 L406 829 L398 843 L538 960 Q552 971 559 971 Q568 971 576 960 L601 928 L600 917 Z M366 22 L420 36 L403 217 L217 217 L133 83 Q119 61 119 52 Q119 42 129.5 36 Q140 30 174 22 L168 0 Q150 1 123 2 Q96 3 75 3 Q53 3 23.5 2 Q-6 1 -24 0 L-17 22 L49 41 L415 625 L458 625 L510 94 Q512 75 515 64 Q518 53 525.5 45.5 Q533 38 545.5 33 Q558 28 578 22 L571 0 Q566 0 553 0.5 Q540 1 524.5 1.5 Q509 2 493.5 2.5 Q478 3 467 3 Q453 3 437 2.5 Q421 2 406 1.5 Q391 1 379 0.5 Q367 0 360 0 L366 22 Z M377 477 L243 259 L399 259 L377 477 Z M448 687 Q472 687 486.5 705.5 Q501 724 501 749 Q501 766 492 775 Q483 784 469 784 Q445 784 430.5 765.5 Q416 747 416 722 Q416 705 425 696 Q434 687 448 687 Z M444 650 Q412 650 392.5 669.5 Q373 689 373 721 Q373 740 380 758 Q387 776 400.5 790 Q414 804 432 812.5 Q450 821 473 821 Q505 821 524.5 801.5 Q544 782 544 750 Q544 731 537 713 Q530 695 516.5 681 Q503 667 484.5 658.5 Q466 650 444 650 Z " />
<glyph glyph-name="Aogonek" unicode="&#x104;" horiz-adv-x="616" d="M522 -211 Q508 -219 488.5 -224 Q469 -229 449 -229 Q403 -229 371.5 -207 Q340 -185 340 -143 Q340 -122 350 -101 Q360 -80 377 -61 Q394 -42 415 -25.5 Q436 -9 459 3 Q432 3 402.5 2 Q373 1 360 0 L366 22 L420 36 L403 217 L217 217 L133 83 Q119 61 119 52 Q119 42 129.5 36 Q140 30 174 22 L168 0 Q150 1 123 2 Q96 3 75 3 Q53 3 23.5 2 Q-6 1 -24 0 L-17 22 L49 41 L415 625 L458 625 L510 94 Q512 75 515 64 Q518 53 525.5 45.5 Q533 38 545.5 33 Q558 28 578 22 L571 0 Q563 0 543.5 1 Q524 2 504 2 Q463 -23 436.5 -62.5 Q410 -102 410 -138 Q410 -168 425.5 -181.5 Q441 -195 466 -195 Q478 -195 491 -192 Q504 -189 513 -186 L522 -211 Z M377 477 L243 259 L399 259 L377 477 Z " />
<glyph glyph-name="AE" unicode="&#xc6;" horiz-adv-x="893" d="M40 41 L509 556 Q516 564 518 568.5 Q520 573 520 577 Q520 594 464 603 L470 625 L951 625 Q947 611 942.5 590 Q938 569 933.5 547.5 Q929 526 925.5 506.5 Q922 487 920 475 L894 475 Q895 481 895.5 488.5 Q896 496 896 504 Q896 528 889 543.5 Q882 559 866.5 568 Q851 577 826.5 580.5 Q802 584 767 584 Q745 584 721 583.5 Q697 583 683 582 L618 341 L674 341 Q690 341 709 341.5 Q728 342 745 343.5 Q762 345 775.5 346 Q789 347 795 349 L777 295 Q772 296 760 297.5 Q748 299 732.5 300 Q717 301 698.5 301.5 Q680 302 664 302 L607 302 L550 92 Q546 77 546 70 Q546 56 563.5 48.5 Q581 41 626 41 Q675 41 705.5 45 Q736 49 756 60.5 Q776 72 790.5 93 Q805 114 822 148 L845 148 Q840 135 834 115 Q828 95 821 73 Q814 51 808.5 31.5 Q803 12 800 0 L372 0 L378 22 L441 42 L511 302 L339 302 L140 84 Q127 70 122.5 63 Q118 56 118 50 Q118 43 124 38.5 Q130 34 146 29 L171 22 L165 0 Q156 0 142.5 0.5 Q129 1 115.5 1.5 Q102 2 89 2 Q76 2 69 2 Q62 2 50 2 Q38 2 23.5 1.5 Q9 1 -5 0.5 Q-19 0 -30 0 L-24 22 L40 41 Z M374 341 L522 341 L584 570 L374 341 Z " />
<glyph glyph-name="AEacute" unicode="&#x1fc;" horiz-adv-x="893" d="M40 41 L509 556 Q516 564 518 568.5 Q520 573 520 577 Q520 594 464 603 L470 625 L951 625 Q947 611 942.5 590 Q938 569 933.5 547.5 Q929 526 925.5 506.5 Q922 487 920 475 L894 475 Q895 481 895.5 488.5 Q896 496 896 504 Q896 528 889 543.5 Q882 559 866.5 568 Q851 577 826.5 580.5 Q802 584 767 584 Q745 584 721 583.5 Q697 583 683 582 L618 341 L674 341 Q690 341 709 341.5 Q728 342 745 343.5 Q762 345 775.5 346 Q789 347 795 349 L777 295 Q772 296 760 297.5 Q748 299 732.5 300 Q717 301 698.5 301.5 Q680 302 664 302 L607 302 L550 92 Q546 77 546 70 Q546 56 563.5 48.5 Q581 41 626 41 Q675 41 705.5 45 Q736 49 756 60.5 Q776 72 790.5 93 Q805 114 822 148 L845 148 Q840 135 834 115 Q828 95 821 73 Q814 51 808.5 31.5 Q803 12 800 0 L372 0 L378 22 L441 42 L511 302 L339 302 L140 84 Q127 70 122.5 63 Q118 56 118 50 Q118 43 124 38.5 Q130 34 146 29 L171 22 L165 0 Q156 0 142.5 0.5 Q129 1 115.5 1.5 Q102 2 89 2 Q76 2 69 2 Q62 2 50 2 Q38 2 23.5 1.5 Q9 1 -5 0.5 Q-19 0 -30 0 L-24 22 L40 41 Z M374 341 L522 341 L584 570 L374 341 Z M848 740 L655 670 L647 683 L791 783 Q807 794 815 794 Q823 794 831 782 L850 750 L848 740 Z " />
<glyph glyph-name="Cacute" unicode="&#x106;" horiz-adv-x="554" d="M506 106 Q462 52 401.5 18.5 Q341 -15 269 -15 Q181 -15 131.5 40.5 Q82 96 82 191 Q82 240 92.5 290 Q103 340 123 387 Q143 434 171 475.5 Q199 517 234 550 Q279 592 333 616 Q387 640 451 640 Q494 640 535 631 Q576 622 611 617 Q600 579 590.5 535.5 Q581 492 574 456 L549 456 L549 474 Q549 593 447 593 Q401 593 362 569.5 Q323 546 291 507 Q266 476 246.5 437.5 Q227 399 213 358 Q199 317 191.5 275 Q184 233 184 195 Q184 116 215.5 79.5 Q247 43 301 43 Q349 43 396 67 Q443 91 484 130 L506 106 Z M576 740 L383 670 L375 683 L519 783 Q535 794 543 794 Q551 794 559 782 L578 750 L576 740 Z " />
<glyph glyph-name="Ccedilla" unicode="&#xc7;" horiz-adv-x="554" d="M345 -117 Q345 -138 333 -158 Q321 -178 298.5 -193 Q276 -208 245 -218 Q214 -228 177 -229 L172 -205 Q226 -194 254.5 -171.5 Q283 -149 283 -123 Q283 -108 272 -100.5 Q261 -93 238 -85 Q224 -80 222.5 -73.5 Q221 -67 226 -58 L250 -14 Q171 -8 126.5 46 Q82 100 82 191 Q82 240 92.5 290 Q103 340 123 387 Q143 434 171 475.5 Q199 517 234 550 Q279 592 333 616 Q387 640 451 640 Q494 640 535 631 Q576 622 611 617 Q600 579 590.5 535.5 Q581 492 574 456 L549 456 L549 474 Q549 593 447 593 Q401 593 362 569.5 Q323 546 291 507 Q266 476 246.5 437.5 Q227 399 213.5 358 Q200 317 192.5 275 Q185 233 185 195 Q185 116 216.5 79.5 Q248 43 302 43 Q350 43 396.5 67 Q443 91 484 130 L506 106 Q466 56 411.5 24.5 Q357 -7 293 -13 L272 -53 Q305 -63 325 -76.5 Q345 -90 345 -117 Z " />
<glyph glyph-name="Ccircumflex" unicode="&#x108;" horiz-adv-x="554" d="M506 106 Q462 52 401.5 18.5 Q341 -15 269 -15 Q181 -15 131.5 40.5 Q82 96 82 191 Q82 240 92.5 290 Q103 340 123 387 Q143 434 171 475.5 Q199 517 234 550 Q279 592 333 616 Q387 640 451 640 Q494 640 535 631 Q576 622 611 617 Q600 579 590.5 535.5 Q581 492 574 456 L549 456 L549 474 Q549 593 447 593 Q401 593 362 569.5 Q323 546 291 507 Q266 476 246.5 437.5 Q227 399 213 358 Q199 317 191.5 275 Q184 233 184 195 Q184 116 215.5 79.5 Q247 43 301 43 Q349 43 396 67 Q443 91 484 130 L506 106 Z M556 669 L474 740 L354 669 L342 680 L463 797 L511 797 L571 677 L556 669 Z " />
<glyph glyph-name="Ccaron" unicode="&#x10c;" horiz-adv-x="554" d="M506 106 Q462 52 401.5 18.5 Q341 -15 269 -15 Q181 -15 131.5 40.5 Q82 96 82 191 Q82 240 92.5 290 Q103 340 123 387 Q143 434 171 475.5 Q199 517 234 550 Q279 592 333 616 Q387 640 451 640 Q494 640 535 631 Q576 622 611 617 Q600 579 590.5 535.5 Q581 492 574 456 L549 456 L549 474 Q549 593 447 593 Q401 593 362 569.5 Q323 546 291 507 Q266 476 246.5 437.5 Q227 399 213 358 Q199 317 191.5 275 Q184 233 184 195 Q184 116 215.5 79.5 Q247 43 301 43 Q349 43 396 67 Q443 91 484 130 L506 106 Z M388 802 L470 731 L591 802 L603 790 L481 673 L433 673 L374 793 L388 802 Z " />
<glyph glyph-name="Cdotaccent" unicode="&#x10a;" horiz-adv-x="554" d="M506 106 Q462 52 401.5 18.5 Q341 -15 269 -15 Q181 -15 131.5 40.5 Q82 96 82 191 Q82 240 92.5 290 Q103 340 123 387 Q143 434 171 475.5 Q199 517 234 550 Q279 592 333 616 Q387 640 451 640 Q494 640 535 631 Q576 622 611 617 Q600 579 590.5 535.5 Q581 492 574 456 L549 456 L549 474 Q549 593 447 593 Q401 593 362 569.5 Q323 546 291 507 Q266 476 246.5 437.5 Q227 399 213 358 Q199 317 191.5 275 Q184 233 184 195 Q184 116 215.5 79.5 Q247 43 301 43 Q349 43 396 67 Q443 91 484 130 L506 106 Z M453 680 Q433 680 420.5 692.5 Q408 705 408 724 Q408 753 428.5 772.5 Q449 792 477 792 Q497 792 509 779.5 Q521 767 521 748 Q521 719 501 699.5 Q481 680 453 680 Z " />
<glyph glyph-name="Dcaron" unicode="&#x10e;" horiz-adv-x="634" d="M372 625 Q517 625 587 557 Q615 529 630 491 Q645 453 645 403 Q645 318 609.5 236.5 Q574 155 508 95 Q458 50 394.5 25 Q331 0 250 0 L14 0 L20 22 L83 42 L217 539 Q221 555 221 564 Q221 579 209.5 587 Q198 595 169 603 L175 625 L372 625 Z M240 42 Q289 42 331 58.5 Q373 75 406.5 103.5 Q440 132 466 170 Q492 208 509 250 Q526 292 535 335.5 Q544 379 544 419 Q544 495 508 534 Q485 559 448 570 Q411 581 358 581 L324 581 L192 89 Q189 77 189 70 Q189 57 200 49.5 Q211 42 240 42 Z M383 802 L465 731 L586 802 L598 790 L476 673 L428 673 L369 793 L383 802 Z " />
<glyph glyph-name="Dcroat" unicode="&#x110;" horiz-adv-x="638" d="M376 625 Q521 625 591 557 Q619 529 634 491 Q649 453 649 403 Q649 318 613.5 236.5 Q578 155 512 95 Q462 50 398.5 25 Q335 0 254 0 L18 0 L24 22 L87 42 L156 298 L77 298 L90 343 L168 343 L221 539 Q225 555 225 564 Q225 579 213.5 587 Q202 595 173 603 L179 625 L376 625 Z M244 42 Q293 42 335 58.5 Q377 75 410.5 103.5 Q444 132 470 170 Q496 208 513 250 Q530 292 539 335.5 Q548 379 548 419 Q548 495 512 534 Q489 559 452 570 Q415 581 362 581 L328 581 L264 343 L369 343 L356 298 L252 298 L196 89 Q193 77 193 70 Q193 57 204 49.5 Q215 42 244 42 Z " />
<glyph glyph-name="Eth" unicode="&#xd0;" horiz-adv-x="639" d="M377 625 Q522 625 592 557 Q620 529 635 491 Q650 453 650 403 Q650 318 614.5 236.5 Q579 155 513 95 Q463 50 399.5 25 Q336 0 255 0 L18 0 L24 22 L87 42 L156 298 L77 298 L90 343 L168 343 L221 539 Q225 555 225 564 Q225 579 213.5 587 Q202 595 173 603 L179 625 L377 625 Z M244 42 Q293 42 335 58.5 Q377 75 410.5 103.5 Q444 132 470 170 Q496 208 513 250 Q530 292 539 335.5 Q548 379 548 419 Q548 495 512 534 Q489 559 452 570 Q415 581 362 581 L328 581 L264 343 L369 343 L356 298 L252 298 L196 89 Q193 77 193 70 Q193 57 204 49.5 Q215 42 244 42 Z " />
<glyph glyph-name="Egrave" unicode="&#xc8;" horiz-adv-x="535" d="M20 22 L83 42 L217 539 Q221 555 221 564 Q221 579 209.5 587 Q198 595 169 603 L175 625 L593 625 Q589 611 584.5 590 Q580 569 575.5 547.5 Q571 526 567.5 506.5 Q564 487 562 475 L536 475 Q537 481 537.5 488.5 Q538 496 538 504 Q538 553 508.5 568.5 Q479 584 409 584 Q387 584 363 583.5 Q339 583 325 582 L260 341 L316 341 Q332 341 351 341.5 Q370 342 387 343.5 Q404 345 417.5 346 Q431 347 437 349 L419 295 Q414 296 402 297 Q390 298 374.5 299 Q359 300 340.5 300.5 Q322 301 306 301 L249 301 L192 92 Q188 77 188 70 Q188 56 205.5 48.5 Q223 41 268 41 Q317 41 347.5 45 Q378 49 398 60.5 Q418 72 432.5 93 Q447 114 464 148 L487 148 Q482 135 476 115 Q470 95 463 73 Q456 51 450.5 31.5 Q445 12 442 0 L14 0 L20 22 Z M326 750 L355 782 Q365 794 375 794 Q384 794 399 779 L508 677 L498 664 L328 740 L326 750 Z " />
<glyph glyph-name="Eacute" unicode="&#xc9;" horiz-adv-x="535" d="M20 22 L83 42 L217 539 Q221 555 221 564 Q221 579 209.5 587 Q198 595 169 603 L175 625 L593 625 Q589 611 584.5 590 Q580 569 575.5 547.5 Q571 526 567.5 506.5 Q564 487 562 475 L536 475 Q537 481 537.5 488.5 Q538 496 538 504 Q538 553 508.5 568.5 Q479 584 409 584 Q387 584 363 583.5 Q339 583 325 582 L260 341 L316 341 Q332 341 351 341.5 Q370 342 387 343.5 Q404 345 417.5 346 Q431 347 437 349 L419 295 Q414 296 402 297 Q390 298 374.5 299 Q359 300 340.5 300.5 Q322 301 306 301 L249 301 L192 92 Q188 77 188 70 Q188 56 205.5 48.5 Q223 41 268 41 Q317 41 347.5 45 Q378 49 398 60.5 Q418 72 432.5 93 Q447 114 464 148 L487 148 Q482 135 476 115 Q470 95 463 73 Q456 51 450.5 31.5 Q445 12 442 0 L14 0 L20 22 Z M532 740 L339 670 L331 683 L475 783 Q491 794 499 794 Q507 794 515 782 L534 750 L532 740 Z " />
<glyph glyph-name="Ecircumflex" unicode="&#xca;" horiz-adv-x="535" d="M20 22 L83 42 L217 539 Q221 555 221 564 Q221 579 209.5 587 Q198 595 169 603 L175 625 L593 625 Q589 611 584.5 590 Q580 569 575.5 547.5 Q571 526 567.5 506.5 Q564 487 562 475 L536 475 Q537 481 537.5 488.5 Q538 496 538 504 Q538 553 508.5 568.5 Q479 584 409 584 Q387 584 363 583.5 Q339 583 325 582 L260 341 L316 341 Q332 341 351 341.5 Q370 342 387 343.5 Q404 345 417.5 346 Q431 347 437 349 L419 295 Q414 296 402 297 Q390 298 374.5 299 Q359 300 340.5 300.5 Q322 301 306 301 L249 301 L192 92 Q188 77 188 70 Q188 56 205.5 48.5 Q223 41 268 41 Q317 41 347.5 45 Q378 49 398 60.5 Q418 72 432.5 93 Q447 114 464 148 L487 148 Q482 135 476 115 Q470 95 463 73 Q456 51 450.5 31.5 Q445 12 442 0 L14 0 L20 22 Z M508 669 L426 740 L306 669 L294 680 L415 797 L463 797 L523 677 L508 669 Z " />
<glyph glyph-name="Ecaron" unicode="&#x11a;" horiz-adv-x="535" d="M20 22 L83 42 L217 539 Q221 555 221 564 Q221 579 209.5 587 Q198 595 169 603 L175 625 L593 625 Q589 611 584.5 590 Q580 569 575.5 547.5 Q571 526 567.5 506.5 Q564 487 562 475 L536 475 Q537 481 537.5 488.5 Q538 496 538 504 Q538 553 508.5 568.5 Q479 584 409 584 Q387 584 363 583.5 Q339 583 325 582 L260 341 L316 341 Q332 341 351 341.5 Q370 342 387 343.5 Q404 345 417.5 346 Q431 347 437 349 L419 295 Q414 296 402 297 Q390 298 374.5 299 Q359 300 340.5 300.5 Q322 301 306 301 L249 301 L192 92 Q188 77 188 70 Q188 56 205.5 48.5 Q223 41 268 41 Q317 41 347.5 45 Q378 49 398 60.5 Q418 72 432.5 93 Q447 114 464 148 L487 148 Q482 135 476 115 Q470 95 463 73 Q456 51 450.5 31.5 Q445 12 442 0 L14 0 L20 22 Z M341 802 L423 731 L544 802 L556 790 L434 673 L386 673 L327 793 L341 802 Z " />
<glyph glyph-name="Edieresis" unicode="&#xcb;" horiz-adv-x="535" d="M20 22 L83 42 L217 539 Q221 555 221 564 Q221 579 209.5 587 Q198 595 169 603 L175 625 L593 625 Q589 611 584.5 590 Q580 569 575.5 547.5 Q571 526 567.5 506.5 Q564 487 562 475 L536 475 Q537 481 537.5 488.5 Q538 496 538 504 Q538 553 508.5 568.5 Q479 584 409 584 Q387 584 363 583.5 Q339 583 325 582 L260 341 L316 341 Q332 341 351 341.5 Q370 342 387 343.5 Q404 345 417.5 346 Q431 347 437 349 L419 295 Q414 296 402 297 Q390 298 374.5 299 Q359 300 340.5 300.5 Q322 301 306 301 L249 301 L192 92 Q188 77 188 70 Q188 56 205.5 48.5 Q223 41 268 41 Q317 41 347.5 45 Q378 49 398 60.5 Q418 72 432.5 93 Q447 114 464 148 L487 148 Q482 135 476 115 Q470 95 463 73 Q456 51 450.5 31.5 Q445 12 442 0 L14 0 L20 22 Z M330 687 Q313 687 303 697 Q293 707 293 722 Q293 746 310 762.5 Q327 779 350 779 Q367 779 377 769 Q387 759 387 744 Q387 720 370 703.5 Q353 687 330 687 Z M474 687 Q457 687 447 697 Q437 707 437 722 Q437 746 454 762.5 Q471 779 494 779 Q511 779 521 769 Q531 759 531 744 Q531 720 514 703.5 Q497 687 474 687 Z " />
<glyph glyph-name="Emacron" unicode="&#x112;" horiz-adv-x="535" d="M20 22 L83 42 L217 539 Q221 555 221 564 Q221 579 209.5 587 Q198 595 169 603 L175 625 L593 625 Q589 611 584.5 590 Q580 569 575.5 547.5 Q571 526 567.5 506.5 Q564 487 562 475 L536 475 Q537 481 537.5 488.5 Q538 496 538 504 Q538 553 508.5 568.5 Q479 584 409 584 Q387 584 363 583.5 Q339 583 325 582 L260 341 L316 341 Q332 341 351 341.5 Q370 342 387 343.5 Q404 345 417.5 346 Q431 347 437 349 L419 295 Q414 296 402 297 Q390 298 374.5 299 Q359 300 340.5 300.5 Q322 301 306 301 L249 301 L192 92 Q188 77 188 70 Q188 56 205.5 48.5 Q223 41 268 41 Q317 41 347.5 45 Q378 49 398 60.5 Q418 72 432.5 93 Q447 114 464 148 L487 148 Q482 135 476 115 Q470 95 463 73 Q456 51 450.5 31.5 Q445 12 442 0 L14 0 L20 22 Z M299 699 L312 747 L526 747 L513 699 L299 699 Z " />
<glyph glyph-name="Ebreve" unicode="&#x114;" horiz-adv-x="535" d="M20 22 L83 42 L217 539 Q221 555 221 564 Q221 579 209.5 587 Q198 595 169 603 L175 625 L593 625 Q589 611 584.5 590 Q580 569 575.5 547.5 Q571 526 567.5 506.5 Q564 487 562 475 L536 475 Q537 481 537.5 488.5 Q538 496 538 504 Q538 553 508.5 568.5 Q479 584 409 584 Q387 584 363 583.5 Q339 583 325 582 L260 341 L316 341 Q332 341 351 341.5 Q370 342 387 343.5 Q404 345 417.5 346 Q431 347 437 349 L419 295 Q414 296 402 297 Q390 298 374.5 299 Q359 300 340.5 300.5 Q322 301 306 301 L249 301 L192 92 Q188 77 188 70 Q188 56 205.5 48.5 Q223 41 268 41 Q317 41 347.5 45 Q378 49 398 60.5 Q418 72 432.5 93 Q447 114 464 148 L487 148 Q482 135 476 115 Q470 95 463 73 Q456 51 450.5 31.5 Q445 12 442 0 L14 0 L20 22 Z M545 794 Q532 742 500.5 709 Q469 676 413 676 Q370 676 345.5 699.5 Q321 723 321 760 Q321 776 326 794 L352 794 Q352 765 369 748 Q386 731 421 731 Q456 731 482 748 Q508 765 519 794 L545 794 Z " />
<glyph glyph-name="Edotaccent" unicode="&#x116;" horiz-adv-x="535" d="M20 22 L83 42 L217 539 Q221 555 221 564 Q221 579 209.5 587 Q198 595 169 603 L175 625 L593 625 Q589 611 584.5 590 Q580 569 575.5 547.5 Q571 526 567.5 506.5 Q564 487 562 475 L536 475 Q537 481 537.5 488.5 Q538 496 538 504 Q538 553 508.5 568.5 Q479 584 409 584 Q387 584 363 583.5 Q339 583 325 582 L260 341 L316 341 Q332 341 351 341.5 Q370 342 387 343.5 Q404 345 417.5 346 Q431 347 437 349 L419 295 Q414 296 402 297 Q390 298 374.5 299 Q359 300 340.5 300.5 Q322 301 306 301 L249 301 L192 92 Q188 77 188 70 Q188 56 205.5 48.5 Q223 41 268 41 Q317 41 347.5 45 Q378 49 398 60.5 Q418 72 432.5 93 Q447 114 464 148 L487 148 Q482 135 476 115 Q470 95 463 73 Q456 51 450.5 31.5 Q445 12 442 0 L14 0 L20 22 Z M413 680 Q393 680 380.5 692.5 Q368 705 368 724 Q368 753 388.5 772.5 Q409 792 437 792 Q457 792 469 779.5 Q481 767 481 748 Q481 719 461 699.5 Q441 680 413 680 Z " />
<glyph glyph-name="Eogonek" unicode="&#x118;" horiz-adv-x="535" d="M20 22 L83 42 L217 539 Q221 555 221 564 Q221 579 209.5 587 Q198 595 169 603 L175 625 L593 625 Q589 611 584.5 590 Q580 569 575.5 547.5 Q571 526 567.5 506.5 Q564 487 562 475 L536 475 Q537 481 537.5 488.5 Q538 496 538 504 Q538 553 508.5 568.5 Q479 584 409 584 Q387 584 363 583.5 Q339 583 325 582 L260 341 L316 341 Q332 341 351 341.5 Q370 342 387 343.5 Q404 345 417.5 346 Q431 347 437 349 L419 295 Q414 296 402 297 Q390 298 374.5 299 Q359 300 340.5 300.5 Q322 301 306 301 L249 301 L192 92 Q188 77 188 70 Q188 56 205.5 48.5 Q223 41 268 41 Q317 41 347.5 45 Q378 49 398 60.5 Q418 72 432.5 93 Q447 114 464 148 L487 148 Q482 135 476 115 Q470 95 463 73 Q456 51 450.5 31.5 Q445 12 442 0 L399 0 Q377 -12 358 -27.5 Q339 -43 324.5 -61.5 Q310 -80 302 -99.5 Q294 -119 294 -138 Q294 -168 309.5 -181.5 Q325 -195 350 -195 Q362 -195 375 -192 Q388 -189 397 -186 L406 -211 Q392 -219 372.5 -224 Q353 -229 333 -229 Q287 -229 255.5 -208 Q224 -187 224 -143 Q224 -121 234 -100 Q244 -79 261.5 -60.5 Q279 -42 301.5 -26.5 Q324 -11 348 0 L14 0 L20 22 Z " />
<glyph glyph-name="Gcircumflex" unicode="&#x11c;" horiz-adv-x="616" d="M501 45 Q483 33 459 22 Q435 11 408.5 3 Q382 -5 354 -10 Q326 -15 299 -15 Q250 -15 210 -0.5 Q170 14 141.5 42 Q113 70 97.5 111.5 Q82 153 82 206 Q82 283 108 360.5 Q134 438 183 500 Q232 562 301 601 Q370 640 456 640 Q476 640 498.5 637 Q521 634 543.5 630.5 Q566 627 586.5 623 Q607 619 624 616 Q615 581 604.5 537 Q594 493 586 455 L562 455 Q562 486 557.5 511.5 Q553 537 540 555 Q527 573 505.5 583 Q484 593 450 593 Q384 593 334 554 Q284 515 250.5 456.5 Q217 398 200.5 330.5 Q184 263 184 205 Q184 124 214 78 Q244 32 302 32 Q354 32 389 65 Q407 82 419 108 Q431 134 442 173 L458 232 L391 250 L398 272 Q407 272 422.5 271.5 Q438 271 454.5 270.5 Q471 270 487 269.5 Q503 269 514 269 Q525 269 539.5 269.5 Q554 270 568.5 270.5 Q583 271 596 271.5 Q609 272 618 272 L611 250 Q575 244 561.5 232.5 Q548 221 540 190 L501 45 Z M570 669 L488 740 L368 669 L356 680 L477 797 L525 797 L585 677 L570 669 Z " />
<glyph glyph-name="Gbreve" unicode="&#x11e;" horiz-adv-x="616" d="M501 45 Q483 33 459 22 Q435 11 408.5 3 Q382 -5 354 -10 Q326 -15 299 -15 Q250 -15 210 -0.5 Q170 14 141.5 42 Q113 70 97.5 111.5 Q82 153 82 206 Q82 283 108 360.5 Q134 438 183 500 Q232 562 301 601 Q370 640 456 640 Q476 640 498.5 637 Q521 634 543.5 630.5 Q566 627 586.5 623 Q607 619 624 616 Q615 581 604.5 537 Q594 493 586 455 L562 455 Q562 486 557.5 511.5 Q553 537 540 555 Q527 573 505.5 583 Q484 593 450 593 Q384 593 334 554 Q284 515 250.5 456.5 Q217 398 200.5 330.5 Q184 263 184 205 Q184 124 214 78 Q244 32 302 32 Q354 32 389 65 Q407 82 419 108 Q431 134 442 173 L458 232 L391 250 L398 272 Q407 272 422.5 271.5 Q438 271 454.5 270.5 Q471 270 487 269.5 Q503 269 514 269 Q525 269 539.5 269.5 Q554 270 568.5 270.5 Q583 271 596 271.5 Q609 272 618 272 L611 250 Q575 244 561.5 232.5 Q548 221 540 190 L501 45 Z M607 794 Q594 742 562.5 709 Q531 676 475 676 Q432 676 407.5 699.5 Q383 723 383 760 Q383 776 388 794 L414 794 Q414 765 431 748 Q448 731 483 731 Q518 731 544 748 Q570 765 581 794 L607 794 Z " />
<glyph glyph-name="Gdotaccent" unicode="&#x120;" horiz-adv-x="616" d="M501 45 Q483 33 459 22 Q435 11 408.5 3 Q382 -5 354 -10 Q326 -15 299 -15 Q250 -15 210 -0.5 Q170 14 141.5 42 Q113 70 97.5 111.5 Q82 153 82 206 Q82 283 108 360.5 Q134 438 183 500 Q232 562 301 601 Q370 640 456 640 Q476 640 498.5 637 Q521 634 543.5 630.5 Q566 627 586.5 623 Q607 619 624 616 Q615 581 604.5 537 Q594 493 586 455 L562 455 Q562 486 557.5 511.5 Q553 537 540 555 Q527 573 505.5 583 Q484 593 450 593 Q384 593 334 554 Q284 515 250.5 456.5 Q217 398 200.5 330.5 Q184 263 184 205 Q184 124 214 78 Q244 32 302 32 Q354 32 389 65 Q407 82 419 108 Q431 134 442 173 L458 232 L391 250 L398 272 Q407 272 422.5 271.5 Q438 271 454.5 270.5 Q471 270 487 269.5 Q503 269 514 269 Q525 269 539.5 269.5 Q554 270 568.5 270.5 Q583 271 596 271.5 Q609 272 618 272 L611 250 Q575 244 561.5 232.5 Q548 221 540 190 L501 45 Z M468 680 Q448 680 435.5 692.5 Q423 705 423 724 Q423 753 443.5 772.5 Q464 792 492 792 Q512 792 524 779.5 Q536 767 536 748 Q536 719 516 699.5 Q496 680 468 680 Z " />
<glyph glyph-name="Gcommaaccent" unicode="&#x122;" horiz-adv-x="616" d="M501 45 Q483 33 459 22 Q435 11 408.5 3 Q382 -5 354 -10 Q326 -15 299 -15 Q250 -15 210 -0.5 Q170 14 141.5 42 Q113 70 97.5 111.5 Q82 153 82 206 Q82 283 108 360.5 Q134 438 183 500 Q232 562 301 601 Q370 640 456 640 Q476 640 498.5 637 Q521 634 543.5 630.5 Q566 627 586.5 623 Q607 619 624 616 Q615 581 604.5 537 Q594 493 586 455 L562 455 Q562 486 557.5 511.5 Q553 537 540 555 Q527 573 505.5 583 Q484 593 450 593 Q384 593 334 554 Q284 515 250.5 456.5 Q217 398 200.5 330.5 Q184 263 184 205 Q184 124 214 78 Q244 32 302 32 Q354 32 389 65 Q407 82 419 108 Q431 134 442 173 L458 232 L391 250 L398 272 Q407 272 422.5 271.5 Q438 271 454.5 270.5 Q471 270 487 269.5 Q503 269 514 269 Q525 269 539.5 269.5 Q554 270 568.5 270.5 Q583 271 596 271.5 Q609 272 618 272 L611 250 Q575 244 561.5 232.5 Q548 221 540 190 L501 45 Z M319 -103 Q319 -145 287.5 -188.5 Q256 -232 202 -264 L191 -248 Q222 -222 240.5 -195.5 Q259 -169 259 -149 Q259 -140 254.5 -134.5 Q250 -129 244 -123.5 Q238 -118 233.5 -112.5 Q229 -107 229 -98 Q229 -81 245 -67.5 Q261 -54 281 -54 Q301 -54 310 -68.5 Q319 -83 319 -103 Z " />
<glyph glyph-name="Hcircumflex" unicode="&#x124;" horiz-adv-x="677" d="M585 539 Q589 555 589 564 Q589 579 577.5 587 Q566 595 537 603 L543 625 Q553 625 567 624.5 Q581 624 596 623.5 Q611 623 625.5 622.5 Q640 622 651 622 Q675 622 707.5 623 Q740 624 762 625 L756 603 L693 583 L559 86 Q555 70 555 61 Q555 46 566.5 38 Q578 30 607 22 L601 0 Q591 0 577 0.5 Q563 1 548 1.5 Q533 2 518.5 2.5 Q504 3 493 3 Q469 3 436.5 2 Q404 1 382 0 L388 22 L451 42 L520 298 L248 298 L191 86 Q187 70 187 61 Q187 46 198.5 38 Q210 30 239 22 L233 0 Q223 0 209 0.5 Q195 1 180 1.5 Q165 2 150.5 2.5 Q136 3 125 3 Q101 3 68.5 2 Q36 1 14 0 L20 22 L83 42 L217 539 Q221 555 221 564 Q221 579 209.5 587 Q198 595 169 603 L175 625 Q185 625 199 624.5 Q213 624 228 623.5 Q243 623 257.5 622.5 Q272 622 283 622 Q307 622 339.5 623 Q372 624 394 625 L388 603 L325 583 L260 343 L532 343 L585 539 Z M575 669 L493 740 L373 669 L361 680 L482 797 L530 797 L590 677 L575 669 Z " />
<glyph glyph-name="Hbar" unicode="&#x126;" horiz-adv-x="685" d="M660 447 L563 86 Q559 70 559 61 Q559 46 570.5 38 Q582 30 611 22 L605 0 Q595 0 581 0.5 Q567 1 552 1.5 Q537 2 522.5 2.5 Q508 3 497 3 Q473 3 440.5 2 Q408 1 386 0 L392 22 L455 42 L524 298 L252 298 L195 86 Q191 70 191 61 Q191 46 202.5 38 Q214 30 243 22 L237 0 Q227 0 213 0.5 Q199 1 184 1.5 Q169 2 154.5 2.5 Q140 3 129 3 Q105 3 72.5 2 Q40 1 18 0 L24 22 L87 42 L196 447 L117 447 L129 490 L207 490 L221 539 Q225 555 225 564 Q225 579 213.5 587 Q202 595 173 603 L179 625 Q189 625 203 624.5 Q217 624 232 623.5 Q247 623 261.5 622.5 Q276 622 287 622 Q311 622 343.5 623 Q376 624 398 625 L392 603 L329 583 L303 490 L575 490 L589 539 Q593 555 593 564 Q593 579 581.5 587 Q570 595 541 603 L547 625 Q557 625 571 624.5 Q585 624 600 623.5 Q615 623 629.5 622.5 Q644 622 655 622 Q679 622 711.5 623 Q744 624 766 625 L760 603 L697 583 L672 490 L750 490 L738 447 L660 447 Z M564 447 L292 447 L264 343 L536 343 L564 447 Z " />
<glyph glyph-name="Igrave" unicode="&#xcc;" horiz-adv-x="313" d="M193 86 Q189 70 189 61 Q189 46 200.5 38 Q212 30 241 22 L235 0 Q225 0 211 0.5 Q197 1 182 1.5 Q167 2 152.5 2.5 Q138 3 127 3 Q103 3 70.5 2 Q38 1 16 0 L22 22 L85 42 L219 539 Q223 555 223 564 Q223 579 211.5 587 Q200 595 171 603 L177 625 Q187 625 201 624.5 Q215 624 230 623.5 Q245 623 259.5 622.5 Q274 622 285 622 Q309 622 341.5 623 Q374 624 396 625 L390 603 L327 583 L193 86 Z M214 750 L243 782 Q253 794 263 794 Q272 794 287 779 L396 677 L386 664 L216 740 L214 750 Z " />
<glyph glyph-name="Iacute" unicode="&#xcd;" horiz-adv-x="313" d="M193 86 Q189 70 189 61 Q189 46 200.5 38 Q212 30 241 22 L235 0 Q225 0 211 0.5 Q197 1 182 1.5 Q167 2 152.5 2.5 Q138 3 127 3 Q103 3 70.5 2 Q38 1 16 0 L22 22 L85 42 L219 539 Q223 555 223 564 Q223 579 211.5 587 Q200 595 171 603 L177 625 Q187 625 201 624.5 Q215 624 230 623.5 Q245 623 259.5 622.5 Q274 622 285 622 Q309 622 341.5 623 Q374 624 396 625 L390 603 L327 583 L193 86 Z M408 740 L215 670 L207 683 L351 783 Q367 794 375 794 Q383 794 391 782 L410 750 L408 740 Z " />
<glyph glyph-name="Icircumflex" unicode="&#xce;" horiz-adv-x="313" d="M193 86 Q189 70 189 61 Q189 46 200.5 38 Q212 30 241 22 L235 0 Q225 0 211 0.5 Q197 1 182 1.5 Q167 2 152.5 2.5 Q138 3 127 3 Q103 3 70.5 2 Q38 1 16 0 L22 22 L85 42 L219 539 Q223 555 223 564 Q223 579 211.5 587 Q200 595 171 603 L177 625 Q187 625 201 624.5 Q215 624 230 623.5 Q245 623 259.5 622.5 Q274 622 285 622 Q309 622 341.5 623 Q374 624 396 625 L390 603 L327 583 L193 86 Z M392 669 L310 740 L190 669 L178 680 L299 797 L347 797 L407 677 L392 669 Z " />
<glyph glyph-name="Itilde" unicode="&#x128;" horiz-adv-x="313" d="M193 86 Q189 70 189 61 Q189 46 200.5 38 Q212 30 241 22 L235 0 Q225 0 211 0.5 Q197 1 182 1.5 Q167 2 152.5 2.5 Q138 3 127 3 Q103 3 70.5 2 Q38 1 16 0 L22 22 L85 42 L219 539 Q223 555 223 564 Q223 579 211.5 587 Q200 595 171 603 L177 625 Q187 625 201 624.5 Q215 624 230 623.5 Q245 623 259.5 622.5 Q274 622 285 622 Q309 622 341.5 623 Q374 624 396 625 L390 603 L327 583 L193 86 Z M347 692 Q332 692 319.5 697.5 Q307 703 295 710 Q283 717 271 722.5 Q259 728 246 728 Q231 728 217.5 720 Q204 712 195 692 L173 696 Q190 743 213 766.5 Q236 790 268 790 Q283 790 295.5 784.5 Q308 779 320 772 Q332 765 343.5 759.5 Q355 754 369 754 Q384 754 397.5 762 Q411 770 420 790 L442 786 Q425 739 402 715.5 Q379 692 347 692 Z " />
<glyph glyph-name="Idieresis" unicode="&#xcf;" horiz-adv-x="313" d="M193 86 Q189 70 189 61 Q189 46 200.5 38 Q212 30 241 22 L235 0 Q225 0 211 0.5 Q197 1 182 1.5 Q167 2 152.5 2.5 Q138 3 127 3 Q103 3 70.5 2 Q38 1 16 0 L22 22 L85 42 L219 539 Q223 555 223 564 Q223 579 211.5 587 Q200 595 171 603 L177 625 Q187 625 201 624.5 Q215 624 230 623.5 Q245 623 259.5 622.5 Q274 622 285 622 Q309 622 341.5 623 Q374 624 396 625 L390 603 L327 583 L193 86 Z M228 687 Q211 687 201 697 Q191 707 191 722 Q191 746 208 762.5 Q225 779 248 779 Q265 779 275 769 Q285 759 285 744 Q285 720 268 703.5 Q251 687 228 687 Z M372 687 Q355 687 345 697 Q335 707 335 722 Q335 746 352 762.5 Q369 779 392 779 Q409 779 419 769 Q429 759 429 744 Q429 720 412 703.5 Q395 687 372 687 Z " />
<glyph glyph-name="Imacron" unicode="&#x12a;" horiz-adv-x="313" d="M193 86 Q189 70 189 61 Q189 46 200.5 38 Q212 30 241 22 L235 0 Q225 0 211 0.5 Q197 1 182 1.5 Q167 2 152.5 2.5 Q138 3 127 3 Q103 3 70.5 2 Q38 1 16 0 L22 22 L85 42 L219 539 Q223 555 223 564 Q223 579 211.5 587 Q200 595 171 603 L177 625 Q187 625 201 624.5 Q215 624 230 623.5 Q245 623 259.5 622.5 Q274 622 285 622 Q309 622 341.5 623 Q374 624 396 625 L390 603 L327 583 L193 86 Z M195 699 L208 747 L422 747 L409 699 L195 699 Z " />
<glyph glyph-name="Ibreve" unicode="&#x12c;" horiz-adv-x="313" d="M193 86 Q189 70 189 61 Q189 46 200.5 38 Q212 30 241 22 L235 0 Q225 0 211 0.5 Q197 1 182 1.5 Q167 2 152.5 2.5 Q138 3 127 3 Q103 3 70.5 2 Q38 1 16 0 L22 22 L85 42 L219 539 Q223 555 223 564 Q223 579 211.5 587 Q200 595 171 603 L177 625 Q187 625 201 624.5 Q215 624 230 623.5 Q245 623 259.5 622.5 Q274 622 285 622 Q309 622 341.5 623 Q374 624 396 625 L390 603 L327 583 L193 86 Z M432 794 Q419 742 387.5 709 Q356 676 300 676 Q257 676 232.5 699.5 Q208 723 208 760 Q208 776 213 794 L239 794 Q239 765 256 748 Q273 731 308 731 Q343 731 369 748 Q395 765 406 794 L432 794 Z " />
<glyph glyph-name="Idotaccent" unicode="&#x130;" horiz-adv-x="313" d="M193 86 Q189 70 189 61 Q189 46 200.5 38 Q212 30 241 22 L235 0 Q225 0 211 0.5 Q197 1 182 1.5 Q167 2 152.5 2.5 Q138 3 127 3 Q103 3 70.5 2 Q38 1 16 0 L22 22 L85 42 L219 539 Q223 555 223 564 Q223 579 211.5 587 Q200 595 171 603 L177 625 Q187 625 201 624.5 Q215 624 230 623.5 Q245 623 259.5 622.5 Q274 622 285 622 Q309 622 341.5 623 Q374 624 396 625 L390 603 L327 583 L193 86 Z M298 680 Q278 680 265.5 692.5 Q253 705 253 724 Q253 753 273.5 772.5 Q294 792 322 792 Q342 792 354 779.5 Q366 767 366 748 Q366 719 346 699.5 Q326 680 298 680 Z " />
<glyph glyph-name="Iogonek" unicode="&#x12e;" horiz-adv-x="313" d="M193 86 Q189 70 189 61 Q189 46 200.5 38 Q212 30 241 22 L235 0 Q221 0 202.5 1 Q184 2 164 2 Q124 -23 98.5 -62 Q73 -101 73 -138 Q73 -168 88.5 -181.5 Q104 -195 129 -195 Q141 -195 154 -192 Q167 -189 176 -186 L185 -211 Q171 -219 151.5 -224 Q132 -229 112 -229 Q66 -229 34.5 -207 Q3 -185 3 -143 Q3 -122 13 -101 Q23 -80 39 -61 Q55 -42 75.5 -25.5 Q96 -9 118 3 L16 0 L22 22 L85 42 L219 539 Q223 555 223 564 Q223 579 211.5 587 Q200 595 171 603 L177 625 Q187 625 201 624.5 Q215 624 230 623.5 Q245 623 259.5 622.5 Q274 622 285 622 Q309 622 341.5 623 Q374 624 396 625 L390 603 L327 583 L193 86 Z " />
<glyph glyph-name="IJ" unicode="&#x132;" horiz-adv-x="619" d="M193 86 Q189 70 189 61 Q189 46 200.5 38 Q212 30 241 22 L235 0 Q225 0 211 0.5 Q197 1 182 1.5 Q167 2 152.5 2.5 Q138 3 127 3 Q103 3 70.5 2 Q38 1 16 0 L22 22 L85 42 L219 539 Q223 555 223 564 Q223 579 211.5 587 Q200 595 171 603 L177 625 Q187 625 201 624.5 Q215 624 230 623.5 Q245 623 259.5 622.5 Q274 622 285 622 Q309 622 341.5 623 Q374 624 396 625 L390 603 L327 583 L193 86 Z M699 603 L636 583 L501 81 Q480 4 453 -48 Q426 -100 392.5 -134 Q359 -168 319 -187.5 Q279 -207 231 -217 L223 -189 Q257 -174 283 -154.5 Q309 -135 330 -105 Q351 -75 368.5 -30.5 Q386 14 404 79 L528 539 Q532 555 532 564 Q532 579 520.5 587 Q509 595 480 603 L486 625 Q496 625 510 624.5 Q524 624 539 623.5 Q554 623 568.5 622.5 Q583 622 594 622 Q618 622 650.5 623 Q683 624 705 625 L699 603 Z " />
<glyph glyph-name="Jcircumflex" unicode="&#x134;" horiz-adv-x="306" d="M386 603 L323 583 L188 81 Q167 4 140 -48 Q113 -100 79.5 -134 Q46 -168 6 -187.5 Q-34 -207 -82 -217 L-90 -189 Q-56 -174 -30 -154.5 Q-4 -135 17 -105 Q38 -75 55.5 -30.5 Q73 14 91 79 L215 539 Q219 555 219 564 Q219 579 207.5 587 Q196 595 167 603 L173 625 Q183 625 197 624.5 Q211 624 226 623.5 Q241 623 255.5 622.5 Q270 622 281 622 Q305 622 337.5 623 Q370 624 392 625 L386 603 Z M387 669 L305 740 L185 669 L173 680 L294 797 L342 797 L402 677 L387 669 Z " />
<glyph glyph-name="Kcommaaccent" unicode="&#x136;" horiz-adv-x="599" d="M254 322 L534 588 L481 603 L487 625 Q507 624 537 623 Q567 622 587 622 Q597 622 610 622.5 Q623 623 636 623.5 Q649 624 660.5 624.5 Q672 625 679 625 L673 603 Q650 599 634 595 Q618 591 603.5 583.5 Q589 576 574.5 564.5 Q560 553 540 534 L397 399 L484 89 Q492 63 500 52.5 Q508 42 524 42 Q535 42 547 45.5 Q559 49 567 53 L559 22 Q544 10 520.5 0.5 Q497 -9 476 -9 Q444 -9 424 11 Q413 23 405 40.5 Q397 58 388 91 L323 328 L233 244 L191 86 Q187 70 187 61 Q187 46 198.5 38 Q210 30 239 22 L233 0 Q223 0 209 0.5 Q195 1 180 1.5 Q165 2 150.5 2.5 Q136 3 125 3 Q101 3 68.5 2 Q36 1 14 0 L20 22 L83 42 L217 539 Q221 555 221 564 Q221 579 209.5 587 Q198 595 169 603 L175 625 Q185 625 199 624.5 Q213 624 228 623.5 Q243 623 257.5 622.5 Q272 622 283 622 Q307 622 339.5 623 Q372 624 394 625 L388 603 L325 583 L254 322 Z M336 -103 Q336 -145 304.5 -188.5 Q273 -232 219 -264 L208 -248 Q239 -222 257.5 -195.5 Q276 -169 276 -149 Q276 -140 271.5 -134.5 Q267 -129 261 -123.5 Q255 -118 250.5 -112.5 Q246 -107 246 -98 Q246 -81 262 -67.5 Q278 -54 298 -54 Q318 -54 327 -68.5 Q336 -83 336 -103 Z " />
<glyph glyph-name="Lacute" unicode="&#x139;" horiz-adv-x="491" d="M192 92 Q188 77 188 70 Q188 56 205.5 48.5 Q223 41 268 41 Q313 41 341 45 Q369 49 388.5 60.5 Q408 72 422 93 Q436 114 453 148 L476 148 Q471 135 465 115 Q459 95 452 73 Q445 51 439.5 31.5 Q434 12 431 0 L14 0 L20 22 L83 42 L217 539 Q221 555 221 564 Q221 579 209.5 587 Q198 595 169 603 L175 625 Q185 625 199 624.5 Q213 624 228 623.5 Q243 623 257.5 622.5 Q272 622 283 622 Q307 622 339.5 623 Q372 624 394 625 L388 603 L325 583 L192 92 Z M397 740 L204 670 L196 683 L340 783 Q356 794 364 794 Q372 794 380 782 L399 750 L397 740 Z " />
<glyph glyph-name="Lcaron" unicode="&#x13d;" horiz-adv-x="491" d="M192 92 Q188 77 188 70 Q188 56 205.5 48.5 Q223 41 268 41 Q313 41 341 45 Q369 49 388.5 60.5 Q408 72 422 93 Q436 114 453 148 L476 148 Q471 135 465 115 Q459 95 452 73 Q445 51 439.5 31.5 Q434 12 431 0 L14 0 L20 22 L83 42 L217 539 Q221 555 221 564 Q221 579 209.5 587 Q198 595 169 603 L175 625 Q185 625 199 624.5 Q213 624 228 623.5 Q243 623 257.5 622.5 Q272 622 283 622 Q307 622 339.5 623 Q372 624 394 625 L388 603 L325 583 L192 92 Z M519 591 Q519 549 487.5 505.5 Q456 462 402 430 L391 446 Q422 472 440.5 498.5 Q459 525 459 545 Q459 554 454.5 559.5 Q450 565 444 570.5 Q438 576 433.5 581.5 Q429 587 429 596 Q429 613 445 626.5 Q461 640 481 640 Q501 640 510 625.5 Q519 611 519 591 Z " />
<glyph glyph-name="Lcommaaccent" unicode="&#x13b;" horiz-adv-x="491" d="M192 92 Q188 77 188 70 Q188 56 205.5 48.5 Q223 41 268 41 Q313 41 341 45 Q369 49 388.5 60.5 Q408 72 422 93 Q436 114 453 148 L476 148 Q471 135 465 115 Q459 95 452 73 Q445 51 439.5 31.5 Q434 12 431 0 L14 0 L20 22 L83 42 L217 539 Q221 555 221 564 Q221 579 209.5 587 Q198 595 169 603 L175 625 Q185 625 199 624.5 Q213 624 228 623.5 Q243 623 257.5 622.5 Q272 622 283 622 Q307 622 339.5 623 Q372 624 394 625 L388 603 L325 583 L192 92 Z M286 -103 Q286 -145 254.5 -188.5 Q223 -232 169 -264 L158 -248 Q189 -222 207.5 -195.5 Q226 -169 226 -149 Q226 -140 221.5 -134.5 Q217 -129 211 -123.5 Q205 -118 200.5 -112.5 Q196 -107 196 -98 Q196 -81 212 -67.5 Q228 -54 248 -54 Q268 -54 277 -68.5 Q286 -83 286 -103 Z " />
<glyph glyph-name="Lslash" unicode="&#x141;" horiz-adv-x="491" d="M267 370 L393 434 L411 395 L252 314 L192 92 Q188 77 188 70 Q188 56 205.5 48.5 Q223 41 268 41 Q313 41 341 45 Q369 49 388.5 60.5 Q408 72 422 93 Q436 114 453 148 L476 148 Q471 135 465 115 Q459 95 452 73 Q445 51 439.5 31.5 Q434 12 431 0 L14 0 L20 22 L83 42 L141 258 L64 219 L46 258 L156 314 L217 539 Q221 555 221 564 Q221 579 209.5 587 Q198 595 169 603 L175 625 Q185 625 199 624.5 Q213 624 228 623.5 Q243 623 257.5 622.5 Q272 622 283 622 Q307 622 339.5 623 Q372 624 394 625 L388 603 L325 583 L267 370 Z " />
<glyph glyph-name="Ldot" unicode="&#x13f;" horiz-adv-x="491" d="M192 92 Q188 77 188 70 Q188 56 205.5 48.5 Q223 41 268 41 Q313 41 341 45 Q369 49 388.5 60.5 Q408 72 422 93 Q436 114 453 148 L476 148 Q471 135 465 115 Q459 95 452 73 Q445 51 439.5 31.5 Q434 12 431 0 L14 0 L20 22 L83 42 L217 539 Q221 555 221 564 Q221 579 209.5 587 Q198 595 169 603 L175 625 Q185 625 199 624.5 Q213 624 228 623.5 Q243 623 257.5 622.5 Q272 622 283 622 Q307 622 339.5 623 Q372 624 394 625 L388 603 L325 583 L192 92 Z M439 281 Q419 281 406.5 293.5 Q394 306 394 325 Q394 354 414.5 373.5 Q435 393 463 393 Q483 393 495 380.5 Q507 368 507 349 Q507 320 487 300.5 Q467 281 439 281 Z " />
<glyph glyph-name="Nacute" unicode="&#x143;" horiz-adv-x="676" d="M300 625 L527 159 L630 539 Q634 555 634 564 Q634 579 622.5 587 Q611 595 582 603 L588 625 Q608 624 628.5 623 Q649 622 671 622 Q695 622 719.5 623 Q744 624 766 625 L760 603 L697 583 L539 -3 L502 -3 L260 496 L150 86 Q146 70 146 61 Q146 46 157.5 38 Q169 30 198 22 L192 0 Q172 1 151.5 2 Q131 3 109 3 Q85 3 60.5 2 Q36 1 14 0 L20 22 L83 42 L216 535 Q220 549 221 555.5 Q222 562 222 567 Q222 581 208 589 Q194 597 167 603 L173 625 L300 625 Z M590 740 L397 670 L389 683 L533 783 Q549 794 557 794 Q565 794 573 782 L592 750 L590 740 Z " />
<glyph glyph-name="Ncaron" unicode="&#x147;" horiz-adv-x="676" d="M300 625 L527 159 L630 539 Q634 555 634 564 Q634 579 622.5 587 Q611 595 582 603 L588 625 Q608 624 628.5 623 Q649 622 671 622 Q695 622 719.5 623 Q744 624 766 625 L760 603 L697 583 L539 -3 L502 -3 L260 496 L150 86 Q146 70 146 61 Q146 46 157.5 38 Q169 30 198 22 L192 0 Q172 1 151.5 2 Q131 3 109 3 Q85 3 60.5 2 Q36 1 14 0 L20 22 L83 42 L216 535 Q220 549 221 555.5 Q222 562 222 567 Q222 581 208 589 Q194 597 167 603 L173 625 L300 625 Z M404 802 L486 731 L607 802 L619 790 L497 673 L449 673 L390 793 L404 802 Z " />
<glyph glyph-name="Ntilde" unicode="&#xd1;" horiz-adv-x="676" d="M300 625 L527 159 L630 539 Q634 555 634 564 Q634 579 622.5 587 Q611 595 582 603 L588 625 Q608 624 628.5 623 Q649 622 671 622 Q695 622 719.5 623 Q744 624 766 625 L760 603 L697 583 L539 -3 L502 -3 L260 496 L150 86 Q146 70 146 61 Q146 46 157.5 38 Q169 30 198 22 L192 0 Q172 1 151.5 2 Q131 3 109 3 Q85 3 60.5 2 Q36 1 14 0 L20 22 L83 42 L216 535 Q220 549 221 555.5 Q222 562 222 567 Q222 581 208 589 Q194 597 167 603 L173 625 L300 625 Z M533 692 Q518 692 505.5 697.5 Q493 703 481 710 Q469 717 457 722.5 Q445 728 432 728 Q417 728 403.5 720 Q390 712 381 692 L359 696 Q376 743 399 766.5 Q422 790 454 790 Q469 790 481.5 784.5 Q494 779 506 772 Q518 765 529.5 759.5 Q541 754 555 754 Q570 754 583.5 762 Q597 770 606 790 L628 786 Q611 739 588 715.5 Q565 692 533 692 Z " />
<glyph glyph-name="Ncommaaccent" unicode="&#x145;" horiz-adv-x="676" d="M300 625 L527 159 L630 539 Q634 555 634 564 Q634 579 622.5 587 Q611 595 582 603 L588 625 Q608 624 628.5 623 Q649 622 671 622 Q695 622 719.5 623 Q744 624 766 625 L760 603 L697 583 L539 -3 L502 -3 L260 496 L150 86 Q146 70 146 61 Q146 46 157.5 38 Q169 30 198 22 L192 0 Q172 1 151.5 2 Q131 3 109 3 Q85 3 60.5 2 Q36 1 14 0 L20 22 L83 42 L216 535 Q220 549 221 555.5 Q222 562 222 567 Q222 581 208 589 Q194 597 167 603 L173 625 L300 625 Z M354 -103 Q354 -145 322.5 -188.5 Q291 -232 237 -264 L226 -248 Q257 -222 275.5 -195.5 Q294 -169 294 -149 Q294 -140 289.5 -134.5 Q285 -129 279 -123.5 Q273 -118 268.5 -112.5 Q264 -107 264 -98 Q264 -81 280 -67.5 Q296 -54 316 -54 Q336 -54 345 -68.5 Q354 -83 354 -103 Z " />
<glyph glyph-name="Eng" unicode="&#x14a;" horiz-adv-x="677" d="M393 -90 Q428 -90 450 -68.5 Q472 -47 485 0 L490 20 L260 496 L150 86 Q146 70 146 61 Q146 46 157.5 38 Q169 30 198 22 L192 0 Q172 1 151.5 2 Q131 3 109 3 Q85 3 60.5 2 Q36 1 14 0 L20 22 L83 42 L216 535 Q220 549 221 555.5 Q222 562 222 567 Q222 581 208 589 Q194 597 167 603 L173 625 L300 625 L527 159 L630 539 Q634 555 634 564 Q634 579 622.5 587 Q611 595 582 603 L588 625 Q608 624 628.5 623 Q649 622 671 622 Q695 622 719.5 623 Q744 624 766 625 L760 603 L697 583 L541 3 Q516 -90 475.5 -131 Q435 -172 368 -172 Q348 -172 327.5 -167.5 Q307 -163 294 -155 Q286 -150 285 -146 Q284 -142 286 -136 L312 -72 L322 -68 Q342 -79 358 -84.5 Q374 -90 393 -90 Z " />
<glyph glyph-name="Ograve" unicode="&#xd2;" horiz-adv-x="611" d="M276 -15 Q230 -15 194 0.5 Q158 16 133 44 Q108 72 95 110.5 Q82 149 82 195 Q82 239 92.5 289 Q103 339 123.5 388.5 Q144 438 173.5 483.5 Q203 529 241 564 Q279 599 325 619.5 Q371 640 424 640 Q470 640 506 624.5 Q542 609 567 581 Q592 553 605 514.5 Q618 476 618 430 Q618 386 607.5 336 Q597 286 576.5 236.5 Q556 187 526.5 141.5 Q497 96 459 61 Q421 26 375 5.5 Q329 -15 276 -15 Z M281 33 Q308 33 333 45 Q358 57 380 78.5 Q402 100 421 129 Q440 158 456 191 Q484 251 500 318.5 Q516 386 516 446 Q516 517 490.5 554.5 Q465 592 419 592 Q392 592 367 580 Q342 568 320 546.5 Q298 525 279 496 Q260 467 244 434 Q216 374 200 306.5 Q184 239 184 179 Q184 108 209.5 70.5 Q235 33 281 33 Z M363 750 L392 782 Q402 794 412 794 Q421 794 436 779 L545 677 L535 664 L365 740 L363 750 Z " />
<glyph glyph-name="Oacute" unicode="&#xd3;" horiz-adv-x="611" d="M276 -15 Q230 -15 194 0.5 Q158 16 133 44 Q108 72 95 110.5 Q82 149 82 195 Q82 239 92.5 289 Q103 339 123.5 388.5 Q144 438 173.5 483.5 Q203 529 241 564 Q279 599 325 619.5 Q371 640 424 640 Q470 640 506 624.5 Q542 609 567 581 Q592 553 605 514.5 Q618 476 618 430 Q618 386 607.5 336 Q597 286 576.5 236.5 Q556 187 526.5 141.5 Q497 96 459 61 Q421 26 375 5.5 Q329 -15 276 -15 Z M281 33 Q308 33 333 45 Q358 57 380 78.5 Q402 100 421 129 Q440 158 456 191 Q484 251 500 318.5 Q516 386 516 446 Q516 517 490.5 554.5 Q465 592 419 592 Q392 592 367 580 Q342 568 320 546.5 Q298 525 279 496 Q260 467 244 434 Q216 374 200 306.5 Q184 239 184 179 Q184 108 209.5 70.5 Q235 33 281 33 Z M549 740 L356 670 L348 683 L492 783 Q508 794 516 794 Q524 794 532 782 L551 750 L549 740 Z " />
<glyph glyph-name="Ocircumflex" unicode="&#xd4;" horiz-adv-x="611" d="M276 -15 Q230 -15 194 0.5 Q158 16 133 44 Q108 72 95 110.5 Q82 149 82 195 Q82 239 92.5 289 Q103 339 123.5 388.5 Q144 438 173.5 483.5 Q203 529 241 564 Q279 599 325 619.5 Q371 640 424 640 Q470 640 506 624.5 Q542 609 567 581 Q592 553 605 514.5 Q618 476 618 430 Q618 386 607.5 336 Q597 286 576.5 236.5 Q556 187 526.5 141.5 Q497 96 459 61 Q421 26 375 5.5 Q329 -15 276 -15 Z M281 33 Q308 33 333 45 Q358 57 380 78.5 Q402 100 421 129 Q440 158 456 191 Q484 251 500 318.5 Q516 386 516 446 Q516 517 490.5 554.5 Q465 592 419 592 Q392 592 367 580 Q342 568 320 546.5 Q298 525 279 496 Q260 467 244 434 Q216 374 200 306.5 Q184 239 184 179 Q184 108 209.5 70.5 Q235 33 281 33 Z M541 669 L459 740 L339 669 L327 680 L448 797 L496 797 L556 677 L541 669 Z " />
<glyph glyph-name="Otilde" unicode="&#xd5;" horiz-adv-x="611" d="M276 -15 Q230 -15 194 0.5 Q158 16 133 44 Q108 72 95 110.5 Q82 149 82 195 Q82 239 92.5 289 Q103 339 123.5 388.5 Q144 438 173.5 483.5 Q203 529 241 564 Q279 599 325 619.5 Q371 640 424 640 Q470 640 506 624.5 Q542 609 567 581 Q592 553 605 514.5 Q618 476 618 430 Q618 386 607.5 336 Q597 286 576.5 236.5 Q556 187 526.5 141.5 Q497 96 459 61 Q421 26 375 5.5 Q329 -15 276 -15 Z M281 33 Q308 33 333 45 Q358 57 380 78.5 Q402 100 421 129 Q440 158 456 191 Q484 251 500 318.5 Q516 386 516 446 Q516 517 490.5 554.5 Q465 592 419 592 Q392 592 367 580 Q342 568 320 546.5 Q298 525 279 496 Q260 467 244 434 Q216 374 200 306.5 Q184 239 184 179 Q184 108 209.5 70.5 Q235 33 281 33 Z M500 692 Q485 692 472.5 697.5 Q460 703 448 710 Q436 717 424 722.5 Q412 728 399 728 Q384 728 370.5 720 Q357 712 348 692 L326 696 Q343 743 366 766.5 Q389 790 421 790 Q436 790 448.5 784.5 Q461 779 473 772 Q485 765 496.5 759.5 Q508 754 522 754 Q537 754 550.5 762 Q564 770 573 790 L595 786 Q578 739 555 715.5 Q532 692 500 692 Z " />
<glyph glyph-name="Odieresis" unicode="&#xd6;" horiz-adv-x="611" d="M276 -15 Q230 -15 194 0.5 Q158 16 133 44 Q108 72 95 110.5 Q82 149 82 195 Q82 239 92.5 289 Q103 339 123.5 388.5 Q144 438 173.5 483.5 Q203 529 241 564 Q279 599 325 619.5 Q371 640 424 640 Q470 640 506 624.5 Q542 609 567 581 Q592 553 605 514.5 Q618 476 618 430 Q618 386 607.5 336 Q597 286 576.5 236.5 Q556 187 526.5 141.5 Q497 96 459 61 Q421 26 375 5.5 Q329 -15 276 -15 Z M281 33 Q308 33 333 45 Q358 57 380 78.5 Q402 100 421 129 Q440 158 456 191 Q484 251 500 318.5 Q516 386 516 446 Q516 517 490.5 554.5 Q465 592 419 592 Q392 592 367 580 Q342 568 320 546.5 Q298 525 279 496 Q260 467 244 434 Q216 374 200 306.5 Q184 239 184 179 Q184 108 209.5 70.5 Q235 33 281 33 Z M374 687 Q357 687 347 697 Q337 707 337 722 Q337 746 354 762.5 Q371 779 394 779 Q411 779 421 769 Q431 759 431 744 Q431 720 414 703.5 Q397 687 374 687 Z M518 687 Q501 687 491 697 Q481 707 481 722 Q481 746 498 762.5 Q515 779 538 779 Q555 779 565 769 Q575 759 575 744 Q575 720 558 703.5 Q541 687 518 687 Z " />
<glyph glyph-name="Omacron" unicode="&#x14c;" horiz-adv-x="611" d="M276 -15 Q230 -15 194 0.5 Q158 16 133 44 Q108 72 95 110.5 Q82 149 82 195 Q82 239 92.5 289 Q103 339 123.5 388.5 Q144 438 173.5 483.5 Q203 529 241 564 Q279 599 325 619.5 Q371 640 424 640 Q470 640 506 624.5 Q542 609 567 581 Q592 553 605 514.5 Q618 476 618 430 Q618 386 607.5 336 Q597 286 576.5 236.5 Q556 187 526.5 141.5 Q497 96 459 61 Q421 26 375 5.5 Q329 -15 276 -15 Z M281 33 Q308 33 333 45 Q358 57 380 78.5 Q402 100 421 129 Q440 158 456 191 Q484 251 500 318.5 Q516 386 516 446 Q516 517 490.5 554.5 Q465 592 419 592 Q392 592 367 580 Q342 568 320 546.5 Q298 525 279 496 Q260 467 244 434 Q216 374 200 306.5 Q184 239 184 179 Q184 108 209.5 70.5 Q235 33 281 33 Z M343 699 L356 747 L570 747 L557 699 L343 699 Z " />
<glyph glyph-name="Obreve" unicode="&#x14e;" horiz-adv-x="611" d="M276 -15 Q230 -15 194 0.5 Q158 16 133 44 Q108 72 95 110.5 Q82 149 82 195 Q82 239 92.5 289 Q103 339 123.5 388.5 Q144 438 173.5 483.5 Q203 529 241 564 Q279 599 325 619.5 Q371 640 424 640 Q470 640 506 624.5 Q542 609 567 581 Q592 553 605 514.5 Q618 476 618 430 Q618 386 607.5 336 Q597 286 576.5 236.5 Q556 187 526.5 141.5 Q497 96 459 61 Q421 26 375 5.5 Q329 -15 276 -15 Z M281 33 Q308 33 333 45 Q358 57 380 78.5 Q402 100 421 129 Q440 158 456 191 Q484 251 500 318.5 Q516 386 516 446 Q516 517 490.5 554.5 Q465 592 419 592 Q392 592 367 580 Q342 568 320 546.5 Q298 525 279 496 Q260 467 244 434 Q216 374 200 306.5 Q184 239 184 179 Q184 108 209.5 70.5 Q235 33 281 33 Z M582 794 Q569 742 537.5 709 Q506 676 450 676 Q407 676 382.5 699.5 Q358 723 358 760 Q358 776 363 794 L389 794 Q389 765 406 748 Q423 731 458 731 Q493 731 519 748 Q545 765 556 794 L582 794 Z " />
<glyph glyph-name="Ohungarumlaut" unicode="&#x150;" horiz-adv-x="611" d="M276 -15 Q230 -15 194 0.5 Q158 16 133 44 Q108 72 95 110.5 Q82 149 82 195 Q82 239 92.5 289 Q103 339 123.5 388.5 Q144 438 173.5 483.5 Q203 529 241 564 Q279 599 325 619.5 Q371 640 424 640 Q470 640 506 624.5 Q542 609 567 581 Q592 553 605 514.5 Q618 476 618 430 Q618 386 607.5 336 Q597 286 576.5 236.5 Q556 187 526.5 141.5 Q497 96 459 61 Q421 26 375 5.5 Q329 -15 276 -15 Z M281 33 Q308 33 333 45 Q358 57 380 78.5 Q402 100 421 129 Q440 158 456 191 Q484 251 500 318.5 Q516 386 516 446 Q516 517 490.5 554.5 Q465 592 419 592 Q392 592 367 580 Q342 568 320 546.5 Q298 525 279 496 Q260 467 244 434 Q216 374 200 306.5 Q184 239 184 179 Q184 108 209.5 70.5 Q235 33 281 33 Z M465 755 L305 678 L298 689 L411 791 Q417 796 422 799.5 Q427 803 433 803 Q443 803 451 791 L468 764 L465 755 Z M611 755 L451 678 L444 689 L557 791 Q563 796 568 799.5 Q573 803 579 803 Q589 803 597 791 L614 764 L611 755 Z " />
<glyph glyph-name="Oslash" unicode="&#xd8;" horiz-adv-x="611" d="M621 425 Q621 383 611 334 Q601 285 581.5 236 Q562 187 532.5 141.5 Q503 96 465 61.5 Q427 27 380.5 6 Q334 -15 279 -15 Q225 -15 183 7 L137 -66 L87 -66 L148 31 Q83 88 83 200 Q83 242 93 291 Q103 340 122.5 389 Q142 438 171.5 483.5 Q201 529 239 563.5 Q277 598 323.5 619 Q370 640 425 640 Q451 640 474.5 634.5 Q498 629 518 619 L563 691 L613 691 L553 596 Q586 568 603.5 524.5 Q621 481 621 425 Z M518 446 Q518 490 507 523 L217 62 Q241 33 283 33 Q310 33 335 45 Q360 57 382.5 78.5 Q405 100 424 129 Q443 158 459 191 Q487 251 502.5 318.5 Q518 386 518 446 Z M186 179 Q186 136 195 106 L484 565 Q460 592 421 592 Q394 592 369 580 Q344 568 321.5 546.5 Q299 525 280 496 Q261 467 245 434 Q217 374 201.5 306.5 Q186 239 186 179 Z " />
<glyph glyph-name="Oslashacute" unicode="&#x1fe;" horiz-adv-x="611" d="M621 425 Q621 383 611 334 Q601 285 581.5 236 Q562 187 532.5 141.5 Q503 96 465 61.5 Q427 27 380.5 6 Q334 -15 279 -15 Q225 -15 183 7 L137 -66 L87 -66 L148 31 Q83 88 83 200 Q83 242 93 291 Q103 340 122.5 389 Q142 438 171.5 483.5 Q201 529 239 563.5 Q277 598 323.5 619 Q370 640 425 640 Q451 640 474.5 634.5 Q498 629 518 619 L563 691 L613 691 L553 596 Q586 568 603.5 524.5 Q621 481 621 425 Z M518 446 Q518 490 507 523 L217 62 Q241 33 283 33 Q310 33 335 45 Q360 57 382.5 78.5 Q405 100 424 129 Q443 158 459 191 Q487 251 502.5 318.5 Q518 386 518 446 Z M186 179 Q186 136 195 106 L484 565 Q460 592 421 592 Q394 592 369 580 Q344 568 321.5 546.5 Q299 525 280 496 Q261 467 245 434 Q217 374 201.5 306.5 Q186 239 186 179 Z M549 740 L356 670 L348 683 L492 783 Q508 794 516 794 Q524 794 532 782 L551 750 L549 740 Z " />
<glyph glyph-name="OE" unicode="&#x152;" horiz-adv-x="841" d="M507 478 Q512 495 515 510.5 Q518 526 518 539 Q518 592 436 592 Q386 592 350 568 Q314 544 285 505 Q260 471 241 428.5 Q222 386 209 342 Q196 298 189.5 255.5 Q183 213 183 179 Q183 148 188 121 Q193 94 205.5 74.5 Q218 55 238.5 43.5 Q259 32 290 32 Q317 32 337 39.5 Q357 47 373 62 Q390 78 401 101 Q412 124 423 166 L507 478 Z M460 0 Q430 0 407 -2.5 Q384 -5 363 -7.5 Q342 -10 321.5 -12.5 Q301 -15 276 -15 Q183 -15 131.5 40.5 Q80 96 80 199 Q80 244 91.5 294 Q103 344 124 392 Q145 440 175 484 Q205 528 243 562 Q283 597 331.5 618.5 Q380 640 441 640 Q465 640 486.5 637.5 Q508 635 530.5 632.5 Q553 630 577.5 627.5 Q602 625 632 625 L899 625 Q895 611 890.5 590 Q886 569 881.5 547.5 Q877 526 873.5 506.5 Q870 487 868 475 L842 475 Q843 481 843.5 488.5 Q844 496 844 504 Q844 553 814.5 568.5 Q785 584 715 584 Q693 584 669 583.5 Q645 583 631 582 L566 341 L622 341 Q638 341 657 341.5 Q676 342 693 343.5 Q710 345 723.5 346 Q737 347 743 349 L725 295 Q720 296 708 297 Q696 298 680.5 299 Q665 300 646.5 300.5 Q628 301 612 301 L555 301 L498 92 Q494 77 494 70 Q494 56 511.5 48.5 Q529 41 574 41 Q623 41 653.5 45 Q684 49 704 60.5 Q724 72 738.5 93 Q753 114 770 148 L793 148 Q788 135 782 115 Q776 95 769 73 Q762 51 756.5 31.5 Q751 12 748 0 L460 0 Z " />
<glyph glyph-name="Thorn" unicode="&#xde;" horiz-adv-x="559" d="M303 501 L341 501 Q472 501 523 447 Q557 412 557 350 Q557 311 540.5 272 Q524 233 493 204 Q456 169 397 150 Q338 131 262 131 L203 131 L191 86 Q187 70 187 61 Q187 46 198.5 38 Q210 30 239 22 L233 0 Q223 0 209 0.5 Q195 1 180 1.5 Q165 2 150.5 2.5 Q136 3 125 3 Q101 3 68.5 2 Q36 1 14 0 L20 22 L83 42 L217 539 Q221 555 221 564 Q221 579 209.5 587 Q198 595 169 603 L175 625 Q185 625 199 624.5 Q213 624 228 623.5 Q243 623 257.5 622.5 Q272 622 283 622 Q307 622 339.5 623 Q372 624 394 625 L388 603 L325 583 L303 501 Z M291 457 L214 172 L249 172 Q300 172 337.5 186.5 Q375 201 401 226 Q427 251 441.5 286 Q456 321 456 358 Q456 400 433 425 Q418 441 390.5 449 Q363 457 319 457 L291 457 Z " />
<glyph glyph-name="Racute" unicode="&#x154;" horiz-adv-x="592" d="M191 86 Q187 70 187 61 Q187 46 198.5 38 Q210 30 239 22 L233 0 Q223 0 209 0.5 Q195 1 180 1.5 Q165 2 150.5 2.5 Q136 3 125 3 Q101 3 68.5 2 Q36 1 14 0 L20 22 L83 42 L217 539 Q221 555 221 564 Q221 579 209.5 587 Q198 595 169 603 L175 625 L373 625 Q504 625 552 573 Q584 538 584 481 Q584 448 571 418 Q558 388 535.5 363 Q513 338 482.5 320 Q452 302 416 293 Q433 282 442.5 265 Q452 248 458 216 L483 91 Q489 62 497.5 52 Q506 42 523 42 Q532 42 543 44.5 Q554 47 564 51 L556 21 Q540 10 517.5 1.5 Q495 -7 474 -7 Q439 -7 421 11 Q410 22 403.5 38.5 Q397 55 391 84 L368 200 Q363 222 357.5 236 Q352 250 342.5 258 Q333 266 319.5 268.5 Q306 271 285 271 L241 271 L191 86 Z M252 312 L278 312 Q327 312 364 326 Q401 340 428 365 Q454 388 468.5 420.5 Q483 453 483 488 Q483 530 459 553 Q430 581 352 581 L325 581 L252 312 Z M523 740 L330 670 L322 683 L466 783 Q482 794 490 794 Q498 794 506 782 L525 750 L523 740 Z " />
<glyph glyph-name="Rcaron" unicode="&#x158;" horiz-adv-x="592" d="M191 86 Q187 70 187 61 Q187 46 198.5 38 Q210 30 239 22 L233 0 Q223 0 209 0.5 Q195 1 180 1.5 Q165 2 150.5 2.5 Q136 3 125 3 Q101 3 68.5 2 Q36 1 14 0 L20 22 L83 42 L217 539 Q221 555 221 564 Q221 579 209.5 587 Q198 595 169 603 L175 625 L373 625 Q504 625 552 573 Q584 538 584 481 Q584 448 571 418 Q558 388 535.5 363 Q513 338 482.5 320 Q452 302 416 293 Q433 282 442.5 265 Q452 248 458 216 L483 91 Q489 62 497.5 52 Q506 42 523 42 Q532 42 543 44.5 Q554 47 564 51 L556 21 Q540 10 517.5 1.5 Q495 -7 474 -7 Q439 -7 421 11 Q410 22 403.5 38.5 Q397 55 391 84 L368 200 Q363 222 357.5 236 Q352 250 342.5 258 Q333 266 319.5 268.5 Q306 271 285 271 L241 271 L191 86 Z M252 312 L278 312 Q327 312 364 326 Q401 340 428 365 Q454 388 468.5 420.5 Q483 453 483 488 Q483 530 459 553 Q430 581 352 581 L325 581 L252 312 Z M341 802 L423 731 L544 802 L556 790 L434 673 L386 673 L327 793 L341 802 Z " />
<glyph glyph-name="Rcommaaccent" unicode="&#x156;" horiz-adv-x="592" d="M191 86 Q187 70 187 61 Q187 46 198.5 38 Q210 30 239 22 L233 0 Q223 0 209 0.5 Q195 1 180 1.5 Q165 2 150.5 2.5 Q136 3 125 3 Q101 3 68.5 2 Q36 1 14 0 L20 22 L83 42 L217 539 Q221 555 221 564 Q221 579 209.5 587 Q198 595 169 603 L175 625 L373 625 Q504 625 552 573 Q584 538 584 481 Q584 448 571 418 Q558 388 535.5 363 Q513 338 482.5 320 Q452 302 416 293 Q433 282 442.5 265 Q452 248 458 216 L483 91 Q489 62 497.5 52 Q506 42 523 42 Q532 42 543 44.5 Q554 47 564 51 L556 21 Q540 10 517.5 1.5 Q495 -7 474 -7 Q439 -7 421 11 Q410 22 403.5 38.5 Q397 55 391 84 L368 200 Q363 222 357.5 236 Q352 250 342.5 258 Q333 266 319.5 268.5 Q306 271 285 271 L241 271 L191 86 Z M252 312 L278 312 Q327 312 364 326 Q401 340 428 365 Q454 388 468.5 420.5 Q483 453 483 488 Q483 530 459 553 Q430 581 352 581 L325 581 L252 312 Z M324 -103 Q324 -145 292.5 -188.5 Q261 -232 207 -264 L196 -248 Q227 -222 245.5 -195.5 Q264 -169 264 -149 Q264 -140 259.5 -134.5 Q255 -129 249 -123.5 Q243 -118 238.5 -112.5 Q234 -107 234 -98 Q234 -81 250 -67.5 Q266 -54 286 -54 Q306 -54 315 -68.5 Q324 -83 324 -103 Z " />
<glyph glyph-name="Sacute" unicode="&#x15a;" horiz-adv-x="497" d="M248 478 Q248 438 273.5 409 Q299 380 335 350 Q355 333 375 315.5 Q395 298 411 278 Q427 258 437 234.5 Q447 211 447 183 Q447 136 429 99.5 Q411 63 379 37.5 Q347 12 303.5 -1.5 Q260 -15 209 -15 Q188 -15 166 -12.5 Q144 -10 122 -5 Q100 0 80.5 6.5 Q61 13 46 21 Q57 57 66 92 Q75 127 83 160 L107 160 L107 143 Q107 87 138 57.5 Q169 28 217 28 Q246 28 271 37 Q296 46 315 63 Q334 80 344.5 104 Q355 128 355 157 Q355 179 347 197 Q339 215 325.5 231 Q312 247 295 261.5 Q278 276 260 291 Q240 307 221.5 323.5 Q203 340 188.5 359 Q174 378 165 401 Q156 424 156 452 Q156 496 174 531 Q192 566 223 590 Q254 614 294 627 Q334 640 379 640 Q421 640 460.5 630.5 Q500 621 536 614 Q533 603 528.5 586.5 Q524 570 520 551 Q516 532 512 512.5 Q508 493 505 475 L481 475 L481 483 Q481 532 457 563.5 Q433 595 379 595 Q321 595 284.5 562.5 Q248 530 248 478 Z M515 740 L322 670 L314 683 L458 783 Q474 794 482 794 Q490 794 498 782 L517 750 L515 740 Z " />
<glyph glyph-name="Scircumflex" unicode="&#x15c;" horiz-adv-x="497" d="M248 478 Q248 438 273.5 409 Q299 380 335 350 Q355 333 375 315.5 Q395 298 411 278 Q427 258 437 234.5 Q447 211 447 183 Q447 136 429 99.5 Q411 63 379 37.5 Q347 12 303.5 -1.5 Q260 -15 209 -15 Q188 -15 166 -12.5 Q144 -10 122 -5 Q100 0 80.5 6.5 Q61 13 46 21 Q57 57 66 92 Q75 127 83 160 L107 160 L107 143 Q107 87 138 57.5 Q169 28 217 28 Q246 28 271 37 Q296 46 315 63 Q334 80 344.5 104 Q355 128 355 157 Q355 179 347 197 Q339 215 325.5 231 Q312 247 295 261.5 Q278 276 260 291 Q240 307 221.5 323.5 Q203 340 188.5 359 Q174 378 165 401 Q156 424 156 452 Q156 496 174 531 Q192 566 223 590 Q254 614 294 627 Q334 640 379 640 Q421 640 460.5 630.5 Q500 621 536 614 Q533 603 528.5 586.5 Q524 570 520 551 Q516 532 512 512.5 Q508 493 505 475 L481 475 L481 483 Q481 532 457 563.5 Q433 595 379 595 Q321 595 284.5 562.5 Q248 530 248 478 Z M505 669 L423 740 L303 669 L291 680 L412 797 L460 797 L520 677 L505 669 Z " />
<glyph glyph-name="Scaron" unicode="&#x160;" horiz-adv-x="497" d="M248 478 Q248 438 273.5 409 Q299 380 335 350 Q355 333 375 315.5 Q395 298 411 278 Q427 258 437 234.5 Q447 211 447 183 Q447 136 429 99.5 Q411 63 379 37.5 Q347 12 303.5 -1.5 Q260 -15 209 -15 Q188 -15 166 -12.5 Q144 -10 122 -5 Q100 0 80.5 6.5 Q61 13 46 21 Q57 57 66 92 Q75 127 83 160 L107 160 L107 143 Q107 87 138 57.5 Q169 28 217 28 Q246 28 271 37 Q296 46 315 63 Q334 80 344.5 104 Q355 128 355 157 Q355 179 347 197 Q339 215 325.5 231 Q312 247 295 261.5 Q278 276 260 291 Q240 307 221.5 323.5 Q203 340 188.5 359 Q174 378 165 401 Q156 424 156 452 Q156 496 174 531 Q192 566 223 590 Q254 614 294 627 Q334 640 379 640 Q421 640 460.5 630.5 Q500 621 536 614 Q533 603 528.5 586.5 Q524 570 520 551 Q516 532 512 512.5 Q508 493 505 475 L481 475 L481 483 Q481 532 457 563.5 Q433 595 379 595 Q321 595 284.5 562.5 Q248 530 248 478 Z M328 802 L410 731 L531 802 L543 790 L421 673 L373 673 L314 793 L328 802 Z " />
<glyph glyph-name="Scedilla" unicode="&#x15e;" horiz-adv-x="497" d="M289 -117 Q289 -138 277 -158 Q265 -178 242.5 -193 Q220 -208 189 -218 Q158 -228 121 -229 L116 -205 Q170 -194 198.5 -171.5 Q227 -149 227 -123 Q227 -108 216 -100.5 Q205 -93 182 -85 Q168 -80 166.5 -73.5 Q165 -67 170 -58 L194 -14 Q156 -12 115.5 -2.5 Q75 7 49 21 Q60 57 69 92 Q78 127 86 160 L110 160 L110 143 Q110 87 141 57.5 Q172 28 220 28 Q249 28 274 37 Q299 46 318 63 Q337 80 347.5 104 Q358 128 358 157 Q358 179 350 197 Q342 215 328.5 231 Q315 247 298 261.5 Q281 276 263 291 Q243 307 224.5 323.5 Q206 340 191 359 Q176 378 167 401 Q158 424 158 452 Q158 496 176.5 531 Q195 566 225.5 590 Q256 614 296.5 627 Q337 640 382 640 Q424 640 463.5 630.5 Q503 621 539 614 Q536 603 531.5 586.5 Q527 570 523 551 Q519 532 515 512.5 Q511 493 508 475 L484 475 L484 483 Q484 532 460 563.5 Q436 595 382 595 Q324 595 287.5 562.5 Q251 530 251 478 Q251 438 276.5 409 Q302 380 338 350 Q358 333 378.5 315.5 Q399 298 415 278 Q431 258 441 234.5 Q451 211 451 183 Q451 139 434.5 104 Q418 69 389.5 43.5 Q361 18 322 3.5 Q283 -11 237 -14 L216 -53 Q249 -63 269 -76.5 Q289 -90 289 -117 Z " />
<glyph glyph-name="Scommaaccent" unicode="&#x218;" horiz-adv-x="497" d="M248 478 Q248 438 273.5 409 Q299 380 335 350 Q355 333 375 315.5 Q395 298 411 278 Q427 258 437 234.5 Q447 211 447 183 Q447 136 429 99.5 Q411 63 379 37.5 Q347 12 303.5 -1.5 Q260 -15 209 -15 Q188 -15 166 -12.5 Q144 -10 122 -5 Q100 0 80.5 6.5 Q61 13 46 21 Q57 57 66 92 Q75 127 83 160 L107 160 L107 143 Q107 87 138 57.5 Q169 28 217 28 Q246 28 271 37 Q296 46 315 63 Q334 80 344.5 104 Q355 128 355 157 Q355 179 347 197 Q339 215 325.5 231 Q312 247 295 261.5 Q278 276 260 291 Q240 307 221.5 323.5 Q203 340 188.5 359 Q174 378 165 401 Q156 424 156 452 Q156 496 174 531 Q192 566 223 590 Q254 614 294 627 Q334 640 379 640 Q421 640 460.5 630.5 Q500 621 536 614 Q533 603 528.5 586.5 Q524 570 520 551 Q516 532 512 512.5 Q508 493 505 475 L481 475 L481 483 Q481 532 457 563.5 Q433 595 379 595 Q321 595 284.5 562.5 Q248 530 248 478 Z M250 -103 Q250 -145 218.5 -188.5 Q187 -232 133 -264 L122 -248 Q153 -222 171.5 -195.5 Q190 -169 190 -149 Q190 -140 185.5 -134.5 Q181 -129 175 -123.5 Q169 -118 164.5 -112.5 Q160 -107 160 -98 Q160 -81 176 -67.5 Q192 -54 212 -54 Q232 -54 241 -68.5 Q250 -83 250 -103 Z " />
<glyph glyph-name="Tcaron" unicode="&#x164;" horiz-adv-x="546" d="M309 86 Q305 70 305 61 Q305 46 316.5 38 Q328 30 357 22 L351 0 Q341 0 327 0.5 Q313 1 298 1.5 Q283 2 268.5 2.5 Q254 3 243 3 Q219 3 186.5 2 Q154 1 132 0 L138 22 L201 42 L348 585 L304 585 Q271 585 249.5 582.5 Q228 580 210.5 569 Q193 558 177 535.5 Q161 513 140 473 L114 473 Q118 486 124.5 506 Q131 526 138 548 Q145 570 151.5 590.5 Q158 611 162 625 L650 625 Q646 609 641 588 Q636 567 631.5 546 Q627 525 623 505.5 Q619 486 616 473 L590 473 Q590 509 588 530 Q586 551 576 564 Q565 578 544 581.5 Q523 585 483 585 L444 585 L309 86 Z M342 802 L424 731 L545 802 L557 790 L435 673 L387 673 L328 793 L342 802 Z " />
<glyph glyph-name="Tcommaaccent" unicode="&#x162;" horiz-adv-x="546" d="M309 86 Q305 70 305 61 Q305 46 316.5 38 Q328 30 357 22 L351 0 Q341 0 327 0.5 Q313 1 298 1.5 Q283 2 268.5 2.5 Q254 3 243 3 Q219 3 186.5 2 Q154 1 132 0 L138 22 L201 42 L348 585 L304 585 Q271 585 249.5 582.5 Q228 580 210.5 569 Q193 558 177 535.5 Q161 513 140 473 L114 473 Q118 486 124.5 506 Q131 526 138 548 Q145 570 151.5 590.5 Q158 611 162 625 L650 625 Q646 609 641 588 Q636 567 631.5 546 Q627 525 623 505.5 Q619 486 616 473 L590 473 Q590 509 588 530 Q586 551 576 564 Q565 578 544 581.5 Q523 585 483 585 L444 585 L309 86 Z M268 -103 Q268 -145 236.5 -188.5 Q205 -232 151 -264 L140 -248 Q171 -222 189.5 -195.5 Q208 -169 208 -149 Q208 -140 203.5 -134.5 Q199 -129 193 -123.5 Q187 -118 182.5 -112.5 Q178 -107 178 -98 Q178 -81 194 -67.5 Q210 -54 230 -54 Q250 -54 259 -68.5 Q268 -83 268 -103 Z " />
<glyph glyph-name="uni021A" unicode="&#x21a;" horiz-adv-x="546" d="M309 86 Q305 70 305 61 Q305 46 316.5 38 Q328 30 357 22 L351 0 Q341 0 327 0.5 Q313 1 298 1.5 Q283 2 268.5 2.5 Q254 3 243 3 Q219 3 186.5 2 Q154 1 132 0 L138 22 L201 42 L348 585 L304 585 Q271 585 249.5 582.5 Q228 580 210.5 569 Q193 558 177 535.5 Q161 513 140 473 L114 473 Q118 486 124.5 506 Q131 526 138 548 Q145 570 151.5 590.5 Q158 611 162 625 L650 625 Q646 609 641 588 Q636 567 631.5 546 Q627 525 623 505.5 Q619 486 616 473 L590 473 Q590 509 588 530 Q586 551 576 564 Q565 578 544 581.5 Q523 585 483 585 L444 585 L309 86 Z M268 -103 Q268 -145 236.5 -188.5 Q205 -232 151 -264 L140 -248 Q171 -222 189.5 -195.5 Q208 -169 208 -149 Q208 -140 203.5 -134.5 Q199 -129 193 -123.5 Q187 -118 182.5 -112.5 Q178 -107 178 -98 Q178 -81 194 -67.5 Q210 -54 230 -54 Q250 -54 259 -68.5 Q268 -83 268 -103 Z " />
<glyph glyph-name="Tbar" unicode="&#x166;" horiz-adv-x="546" d="M376 336 L496 336 L483 291 L364 291 L309 86 Q305 70 305 61 Q305 46 316.5 38 Q328 30 357 22 L351 0 Q341 0 327 0.5 Q313 1 298 1.5 Q283 2 268.5 2.5 Q254 3 243 3 Q219 3 186.5 2 Q154 1 132 0 L138 22 L201 42 L268 291 L149 291 L162 336 L280 336 L348 585 L304 585 Q271 585 249.5 582.5 Q228 580 210.5 569 Q193 558 177 535.5 Q161 513 140 473 L114 473 Q118 486 124.5 506 Q131 526 138 548 Q145 570 151.5 590.5 Q158 611 162 625 L650 625 Q646 609 641 588 Q636 567 631.5 546 Q627 525 623 505.5 Q619 486 616 473 L590 473 Q590 509 588 530 Q586 551 576 564 Q565 578 544 581.5 Q523 585 483 585 L444 585 L376 336 Z " />
<glyph glyph-name="Ugrave" unicode="&#xd9;" horiz-adv-x="647" d="M671 583 L579 241 Q563 180 541 133.5 Q519 87 488 55 Q421 -15 309 -15 Q255 -15 216 -1 Q177 13 153 38 Q133 58 122.5 85 Q112 112 112 142 Q112 166 116.5 191 Q121 216 129 248 L207 539 Q211 555 211 564 Q211 579 199.5 587 Q188 595 159 603 L165 625 Q175 625 189 624.5 Q203 624 218 623.5 Q233 623 247.5 622.5 Q262 622 273 622 Q297 622 329.5 623 Q362 624 384 625 L378 603 L315 583 L225 247 Q217 218 212.5 193 Q208 168 208 145 Q208 94 238.5 64.5 Q269 35 326 35 Q370 35 402 51.5 Q434 68 457.5 96.5 Q481 125 497 163 Q513 201 525 245 L605 539 Q609 555 609 564 Q609 579 597.5 587 Q586 595 557 603 L563 625 Q583 624 604 623 Q625 622 647 622 Q671 622 694.5 623 Q718 624 740 625 L734 603 L671 583 Z M372 750 L401 782 Q411 794 421 794 Q430 794 445 779 L554 677 L544 664 L374 740 L372 750 Z " />
<glyph glyph-name="Uacute" unicode="&#xda;" horiz-adv-x="647" d="M671 583 L579 241 Q563 180 541 133.5 Q519 87 488 55 Q421 -15 309 -15 Q255 -15 216 -1 Q177 13 153 38 Q133 58 122.5 85 Q112 112 112 142 Q112 166 116.5 191 Q121 216 129 248 L207 539 Q211 555 211 564 Q211 579 199.5 587 Q188 595 159 603 L165 625 Q175 625 189 624.5 Q203 624 218 623.5 Q233 623 247.5 622.5 Q262 622 273 622 Q297 622 329.5 623 Q362 624 384 625 L378 603 L315 583 L225 247 Q217 218 212.5 193 Q208 168 208 145 Q208 94 238.5 64.5 Q269 35 326 35 Q370 35 402 51.5 Q434 68 457.5 96.5 Q481 125 497 163 Q513 201 525 245 L605 539 Q609 555 609 564 Q609 579 597.5 587 Q586 595 557 603 L563 625 Q583 624 604 623 Q625 622 647 622 Q671 622 694.5 623 Q718 624 740 625 L734 603 L671 583 Z M598 740 L405 670 L397 683 L541 783 Q557 794 565 794 Q573 794 581 782 L600 750 L598 740 Z " />
<glyph glyph-name="Ucircumflex" unicode="&#xdb;" horiz-adv-x="647" d="M671 583 L579 241 Q563 180 541 133.5 Q519 87 488 55 Q421 -15 309 -15 Q255 -15 216 -1 Q177 13 153 38 Q133 58 122.5 85 Q112 112 112 142 Q112 166 116.5 191 Q121 216 129 248 L207 539 Q211 555 211 564 Q211 579 199.5 587 Q188 595 159 603 L165 625 Q175 625 189 624.5 Q203 624 218 623.5 Q233 623 247.5 622.5 Q262 622 273 622 Q297 622 329.5 623 Q362 624 384 625 L378 603 L315 583 L225 247 Q217 218 212.5 193 Q208 168 208 145 Q208 94 238.5 64.5 Q269 35 326 35 Q370 35 402 51.5 Q434 68 457.5 96.5 Q481 125 497 163 Q513 201 525 245 L605 539 Q609 555 609 564 Q609 579 597.5 587 Q586 595 557 603 L563 625 Q583 624 604 623 Q625 622 647 622 Q671 622 694.5 623 Q718 624 740 625 L734 603 L671 583 Z M582 669 L500 740 L380 669 L368 680 L489 797 L537 797 L597 677 L582 669 Z " />
<glyph glyph-name="Utilde" unicode="&#x168;" horiz-adv-x="647" d="M671 583 L579 241 Q563 180 541 133.5 Q519 87 488 55 Q421 -15 309 -15 Q255 -15 216 -1 Q177 13 153 38 Q133 58 122.5 85 Q112 112 112 142 Q112 166 116.5 191 Q121 216 129 248 L207 539 Q211 555 211 564 Q211 579 199.5 587 Q188 595 159 603 L165 625 Q175 625 189 624.5 Q203 624 218 623.5 Q233 623 247.5 622.5 Q262 622 273 622 Q297 622 329.5 623 Q362 624 384 625 L378 603 L315 583 L225 247 Q217 218 212.5 193 Q208 168 208 145 Q208 94 238.5 64.5 Q269 35 326 35 Q370 35 402 51.5 Q434 68 457.5 96.5 Q481 125 497 163 Q513 201 525 245 L605 539 Q609 555 609 564 Q609 579 597.5 587 Q586 595 557 603 L563 625 Q583 624 604 623 Q625 622 647 622 Q671 622 694.5 623 Q718 624 740 625 L734 603 L671 583 Z M542 692 Q527 692 514.5 697.5 Q502 703 490 710 Q478 717 466 722.5 Q454 728 441 728 Q426 728 412.5 720 Q399 712 390 692 L368 696 Q385 743 408 766.5 Q431 790 463 790 Q478 790 490.5 784.5 Q503 779 515 772 Q527 765 538.5 759.5 Q550 754 564 754 Q579 754 592.5 762 Q606 770 615 790 L637 786 Q620 739 597 715.5 Q574 692 542 692 Z " />
<glyph glyph-name="Udieresis" unicode="&#xdc;" horiz-adv-x="647" d="M671 583 L579 241 Q563 180 541 133.5 Q519 87 488 55 Q421 -15 309 -15 Q255 -15 216 -1 Q177 13 153 38 Q133 58 122.5 85 Q112 112 112 142 Q112 166 116.5 191 Q121 216 129 248 L207 539 Q211 555 211 564 Q211 579 199.5 587 Q188 595 159 603 L165 625 Q175 625 189 624.5 Q203 624 218 623.5 Q233 623 247.5 622.5 Q262 622 273 622 Q297 622 329.5 623 Q362 624 384 625 L378 603 L315 583 L225 247 Q217 218 212.5 193 Q208 168 208 145 Q208 94 238.5 64.5 Q269 35 326 35 Q370 35 402 51.5 Q434 68 457.5 96.5 Q481 125 497 163 Q513 201 525 245 L605 539 Q609 555 609 564 Q609 579 597.5 587 Q586 595 557 603 L563 625 Q583 624 604 623 Q625 622 647 622 Q671 622 694.5 623 Q718 624 740 625 L734 603 L671 583 Z M419 687 Q402 687 392 697 Q382 707 382 722 Q382 746 399 762.5 Q416 779 439 779 Q456 779 466 769 Q476 759 476 744 Q476 720 459 703.5 Q442 687 419 687 Z M563 687 Q546 687 536 697 Q526 707 526 722 Q526 746 543 762.5 Q560 779 583 779 Q600 779 610 769 Q620 759 620 744 Q620 720 603 703.5 Q586 687 563 687 Z " />
<glyph glyph-name="Umacron" unicode="&#x16a;" horiz-adv-x="647" d="M671 583 L579 241 Q563 180 541 133.5 Q519 87 488 55 Q421 -15 309 -15 Q255 -15 216 -1 Q177 13 153 38 Q133 58 122.5 85 Q112 112 112 142 Q112 166 116.5 191 Q121 216 129 248 L207 539 Q211 555 211 564 Q211 579 199.5 587 Q188 595 159 603 L165 625 Q175 625 189 624.5 Q203 624 218 623.5 Q233 623 247.5 622.5 Q262 622 273 622 Q297 622 329.5 623 Q362 624 384 625 L378 603 L315 583 L225 247 Q217 218 212.5 193 Q208 168 208 145 Q208 94 238.5 64.5 Q269 35 326 35 Q370 35 402 51.5 Q434 68 457.5 96.5 Q481 125 497 163 Q513 201 525 245 L605 539 Q609 555 609 564 Q609 579 597.5 587 Q586 595 557 603 L563 625 Q583 624 604 623 Q625 622 647 622 Q671 622 694.5 623 Q718 624 740 625 L734 603 L671 583 Z M378 699 L391 747 L605 747 L592 699 L378 699 Z " />
<glyph glyph-name="Ubreve" unicode="&#x16c;" horiz-adv-x="647" d="M671 583 L579 241 Q563 180 541 133.5 Q519 87 488 55 Q421 -15 309 -15 Q255 -15 216 -1 Q177 13 153 38 Q133 58 122.5 85 Q112 112 112 142 Q112 166 116.5 191 Q121 216 129 248 L207 539 Q211 555 211 564 Q211 579 199.5 587 Q188 595 159 603 L165 625 Q175 625 189 624.5 Q203 624 218 623.5 Q233 623 247.5 622.5 Q262 622 273 622 Q297 622 329.5 623 Q362 624 384 625 L378 603 L315 583 L225 247 Q217 218 212.5 193 Q208 168 208 145 Q208 94 238.5 64.5 Q269 35 326 35 Q370 35 402 51.5 Q434 68 457.5 96.5 Q481 125 497 163 Q513 201 525 245 L605 539 Q609 555 609 564 Q609 579 597.5 587 Q586 595 557 603 L563 625 Q583 624 604 623 Q625 622 647 622 Q671 622 694.5 623 Q718 624 740 625 L734 603 L671 583 Z M619 794 Q606 742 574.5 709 Q543 676 487 676 Q444 676 419.5 699.5 Q395 723 395 760 Q395 776 400 794 L426 794 Q426 765 443 748 Q460 731 495 731 Q530 731 556 748 Q582 765 593 794 L619 794 Z " />
<glyph glyph-name="Uring" unicode="&#x16e;" horiz-adv-x="647" d="M671 583 L579 241 Q563 180 541 133.5 Q519 87 488 55 Q421 -15 309 -15 Q255 -15 216 -1 Q177 13 153 38 Q133 58 122.5 85 Q112 112 112 142 Q112 166 116.5 191 Q121 216 129 248 L207 539 Q211 555 211 564 Q211 579 199.5 587 Q188 595 159 603 L165 625 Q175 625 189 624.5 Q203 624 218 623.5 Q233 623 247.5 622.5 Q262 622 273 622 Q297 622 329.5 623 Q362 624 384 625 L378 603 L315 583 L225 247 Q217 218 212.5 193 Q208 168 208 145 Q208 94 238.5 64.5 Q269 35 326 35 Q370 35 402 51.5 Q434 68 457.5 96.5 Q481 125 497 163 Q513 201 525 245 L605 539 Q609 555 609 564 Q609 579 597.5 587 Q586 595 557 603 L563 625 Q583 624 604 623 Q625 622 647 622 Q671 622 694.5 623 Q718 624 740 625 L734 603 L671 583 Z M493 704 Q517 704 531.5 722.5 Q546 741 546 766 Q546 783 537 792 Q528 801 514 801 Q490 801 475.5 782.5 Q461 764 461 739 Q461 722 470 713 Q479 704 493 704 Z M489 667 Q457 667 437.5 686.5 Q418 706 418 738 Q418 757 425 775 Q432 793 445.5 807 Q459 821 477 829.5 Q495 838 518 838 Q550 838 569.5 818.5 Q589 799 589 767 Q589 748 582 730 Q575 712 561.5 698 Q548 684 529.5 675.5 Q511 667 489 667 Z " />
<glyph glyph-name="Uhungarumlaut" unicode="&#x170;" horiz-adv-x="647" d="M671 583 L579 241 Q563 180 541 133.5 Q519 87 488 55 Q421 -15 309 -15 Q255 -15 216 -1 Q177 13 153 38 Q133 58 122.5 85 Q112 112 112 142 Q112 166 116.5 191 Q121 216 129 248 L207 539 Q211 555 211 564 Q211 579 199.5 587 Q188 595 159 603 L165 625 Q175 625 189 624.5 Q203 624 218 623.5 Q233 623 247.5 622.5 Q262 622 273 622 Q297 622 329.5 623 Q362 624 384 625 L378 603 L315 583 L225 247 Q217 218 212.5 193 Q208 168 208 145 Q208 94 238.5 64.5 Q269 35 326 35 Q370 35 402 51.5 Q434 68 457.5 96.5 Q481 125 497 163 Q513 201 525 245 L605 539 Q609 555 609 564 Q609 579 597.5 587 Q586 595 557 603 L563 625 Q583 624 604 623 Q625 622 647 622 Q671 622 694.5 623 Q718 624 740 625 L734 603 L671 583 Z M521 755 L361 678 L354 689 L467 791 Q473 796 478 799.5 Q483 803 489 803 Q499 803 507 791 L524 764 L521 755 Z M667 755 L507 678 L500 689 L613 791 Q619 796 624 799.5 Q629 803 635 803 Q645 803 653 791 L670 764 L667 755 Z " />
<glyph glyph-name="Uogonek" unicode="&#x172;" horiz-adv-x="647" d="M411 -211 Q396 -219 377 -224 Q358 -229 338 -229 Q288 -229 258.5 -205 Q229 -181 229 -143 Q229 -105 259 -72.5 Q289 -40 331 -14 Q326 -15 319 -15 Q312 -15 309 -15 Q255 -15 216 -1 Q177 13 153 38 Q133 58 122.5 85 Q112 112 112 142 Q112 166 116.5 191 Q121 216 129 248 L207 539 Q211 555 211 564 Q211 579 199.5 587 Q188 595 159 603 L165 625 Q175 625 189 624.5 Q203 624 218 623.5 Q233 623 247.5 622.5 Q262 622 273 622 Q297 622 329.5 623 Q362 624 384 625 L378 603 L315 583 L225 247 Q217 218 212.5 193 Q208 168 208 145 Q208 94 238.5 64.5 Q269 35 326 35 Q370 35 402.5 51 Q435 67 458.5 95.5 Q482 124 498 162.5 Q514 201 526 245 L606 539 Q610 555 610 564 Q610 579 598.5 587 Q587 595 558 603 L564 625 Q584 624 604.5 623 Q625 622 647 622 Q671 622 694.5 623 Q718 624 740 625 L734 603 L671 583 L579 241 Q562 180 540.5 133.5 Q519 87 488 55 Q473 38 452.5 24 Q432 10 410.5 -4.5 Q389 -19 368.5 -33.5 Q348 -48 332 -64 Q317 -80 308 -97.5 Q299 -115 299 -138 Q299 -166 314 -180 Q329 -194 355 -194 Q367 -194 380 -191 Q393 -188 402 -185 L411 -211 Z " />
<glyph glyph-name="Wgrave" unicode="&#x1e80;" horiz-adv-x="855" d="M982 603 Q962 600 948 595.5 Q934 591 923.5 583.5 Q913 576 904.5 565 Q896 554 887 538 L577 -2 L533 -2 L506 405 L259 -2 L214 -2 L175 538 Q174 554 171 564.5 Q168 575 161 582 Q154 589 141.5 593.5 Q129 598 108 603 L115 625 Q121 625 133 624.5 Q145 624 160 623.5 Q175 623 190 622.5 Q205 622 217 622 Q243 622 273.5 622.5 Q304 623 327 625 L321 603 L265 589 L296 148 L500 486 L497 548 Q495 574 483 584.5 Q471 595 439 603 L446 625 Q452 625 464.5 624.5 Q477 624 492 623.5 Q507 623 522 622.5 Q537 622 547 622 Q557 622 571 622 Q585 622 600 622.5 Q615 623 629 623.5 Q643 624 651 625 L642 603 L586 589 L612 158 L860 588 L804 603 L809 625 Q817 625 829.5 624.5 Q842 624 855.5 623.5 Q869 623 882 622.5 Q895 622 903 622 Q911 622 923 622.5 Q935 623 947 623.5 Q959 624 970 624.5 Q981 625 988 625 L982 603 L982 603 Z M466 750 L495 782 Q505 794 515 794 Q524 794 539 779 L648 677 L638 664 L468 740 L466 750 Z " />
<glyph glyph-name="Wacute" unicode="&#x1e82;" horiz-adv-x="855" d="M982 603 Q962 600 948 595.5 Q934 591 923.5 583.5 Q913 576 904.5 565 Q896 554 887 538 L577 -2 L533 -2 L506 405 L259 -2 L214 -2 L175 538 Q174 554 171 564.5 Q168 575 161 582 Q154 589 141.5 593.5 Q129 598 108 603 L115 625 Q121 625 133 624.5 Q145 624 160 623.5 Q175 623 190 622.5 Q205 622 217 622 Q243 622 273.5 622.5 Q304 623 327 625 L321 603 L265 589 L296 148 L500 486 L497 548 Q495 574 483 584.5 Q471 595 439 603 L446 625 Q452 625 464.5 624.5 Q477 624 492 623.5 Q507 623 522 622.5 Q537 622 547 622 Q557 622 571 622 Q585 622 600 622.5 Q615 623 629 623.5 Q643 624 651 625 L642 603 L586 589 L612 158 L860 588 L804 603 L809 625 Q817 625 829.5 624.5 Q842 624 855.5 623.5 Q869 623 882 622.5 Q895 622 903 622 Q911 622 923 622.5 Q935 623 947 623.5 Q959 624 970 624.5 Q981 625 988 625 L982 603 L982 603 Z M667 740 L474 670 L466 683 L610 783 Q626 794 634 794 Q642 794 650 782 L669 750 L667 740 Z " />
<glyph glyph-name="Wcircumflex" unicode="&#x174;" horiz-adv-x="855" d="M982 603 Q962 600 948 595.5 Q934 591 923.5 583.5 Q913 576 904.5 565 Q896 554 887 538 L577 -2 L533 -2 L506 405 L259 -2 L214 -2 L175 538 Q174 554 171 564.5 Q168 575 161 582 Q154 589 141.5 593.5 Q129 598 108 603 L115 625 Q121 625 133 624.5 Q145 624 160 623.5 Q175 623 190 622.5 Q205 622 217 622 Q243 622 273.5 622.5 Q304 623 327 625 L321 603 L265 589 L296 148 L500 486 L497 548 Q495 574 483 584.5 Q471 595 439 603 L446 625 Q452 625 464.5 624.5 Q477 624 492 623.5 Q507 623 522 622.5 Q537 622 547 622 Q557 622 571 622 Q585 622 600 622.5 Q615 623 629 623.5 Q643 624 651 625 L642 603 L586 589 L612 158 L860 588 L804 603 L809 625 Q817 625 829.5 624.5 Q842 624 855.5 623.5 Q869 623 882 622.5 Q895 622 903 622 Q911 622 923 622.5 Q935 623 947 623.5 Q959 624 970 624.5 Q981 625 988 625 L982 603 L982 603 Z M659 669 L577 740 L457 669 L445 680 L566 797 L614 797 L674 677 L659 669 Z " />
<glyph glyph-name="Wdieresis" unicode="&#x1e84;" horiz-adv-x="855" d="M982 603 Q962 600 948 595.5 Q934 591 923.5 583.5 Q913 576 904.5 565 Q896 554 887 538 L577 -2 L533 -2 L506 405 L259 -2 L214 -2 L175 538 Q174 554 171 564.5 Q168 575 161 582 Q154 589 141.5 593.5 Q129 598 108 603 L115 625 Q121 625 133 624.5 Q145 624 160 623.5 Q175 623 190 622.5 Q205 622 217 622 Q243 622 273.5 622.5 Q304 623 327 625 L321 603 L265 589 L296 148 L500 486 L497 548 Q495 574 483 584.5 Q471 595 439 603 L446 625 Q452 625 464.5 624.5 Q477 624 492 623.5 Q507 623 522 622.5 Q537 622 547 622 Q557 622 571 622 Q585 622 600 622.5 Q615 623 629 623.5 Q643 624 651 625 L642 603 L586 589 L612 158 L860 588 L804 603 L809 625 Q817 625 829.5 624.5 Q842 624 855.5 623.5 Q869 623 882 622.5 Q895 622 903 622 Q911 622 923 622.5 Q935 623 947 623.5 Q959 624 970 624.5 Q981 625 988 625 L982 603 L982 603 Z M487 687 Q470 687 460 697 Q450 707 450 722 Q450 746 467 762.5 Q484 779 507 779 Q524 779 534 769 Q544 759 544 744 Q544 720 527 703.5 Q510 687 487 687 Z M631 687 Q614 687 604 697 Q594 707 594 722 Q594 746 611 762.5 Q628 779 651 779 Q668 779 678 769 Q688 759 688 744 Q688 720 671 703.5 Q654 687 631 687 Z " />
<glyph glyph-name="Ygrave" unicode="&#x1ef2;" horiz-adv-x="541" d="M311 86 Q307 70 307 61 Q307 46 318.5 38 Q330 30 359 22 L353 0 Q343 0 329 0.5 Q315 1 300 1.5 Q285 2 270.5 2.5 Q256 3 245 3 Q221 3 188.5 2 Q156 1 134 0 L140 22 L203 42 L257 243 L184 541 Q180 556 175.5 566 Q171 576 163 583 Q155 590 143.5 594.5 Q132 599 115 603 L121 625 Q138 624 168.5 623 Q199 622 223 622 Q234 622 249.5 622 Q265 622 280 622.5 Q295 623 308 623.5 Q321 624 328 625 L321 603 L270 589 L338 298 L547 588 L499 603 L505 625 Q510 625 520.5 624.5 Q531 624 544 623.5 Q557 623 569.5 622.5 Q582 622 592 622 Q611 622 635.5 623 Q660 624 673 625 L667 603 Q648 601 635 597.5 Q622 594 611.5 587 Q601 580 591 569.5 Q581 559 569 542 L354 245 L311 86 Z M314 750 L343 782 Q353 794 363 794 Q372 794 387 779 L496 677 L486 664 L316 740 L314 750 Z " />
<glyph glyph-name="Yacute" unicode="&#xdd;" horiz-adv-x="541" d="M311 86 Q307 70 307 61 Q307 46 318.5 38 Q330 30 359 22 L353 0 Q343 0 329 0.5 Q315 1 300 1.5 Q285 2 270.5 2.5 Q256 3 245 3 Q221 3 188.5 2 Q156 1 134 0 L140 22 L203 42 L257 243 L184 541 Q180 556 175.5 566 Q171 576 163 583 Q155 590 143.5 594.5 Q132 599 115 603 L121 625 Q138 624 168.5 623 Q199 622 223 622 Q234 622 249.5 622 Q265 622 280 622.5 Q295 623 308 623.5 Q321 624 328 625 L321 603 L270 589 L338 298 L547 588 L499 603 L505 625 Q510 625 520.5 624.5 Q531 624 544 623.5 Q557 623 569.5 622.5 Q582 622 592 622 Q611 622 635.5 623 Q660 624 673 625 L667 603 Q648 601 635 597.5 Q622 594 611.5 587 Q601 580 591 569.5 Q581 559 569 542 L354 245 L311 86 Z M549 740 L356 670 L348 683 L492 783 Q508 794 516 794 Q524 794 532 782 L551 750 L549 740 Z " />
<glyph glyph-name="Ycircumflex" unicode="&#x176;" horiz-adv-x="541" d="M311 86 Q307 70 307 61 Q307 46 318.5 38 Q330 30 359 22 L353 0 Q343 0 329 0.5 Q315 1 300 1.5 Q285 2 270.5 2.5 Q256 3 245 3 Q221 3 188.5 2 Q156 1 134 0 L140 22 L203 42 L257 243 L184 541 Q180 556 175.5 566 Q171 576 163 583 Q155 590 143.5 594.5 Q132 599 115 603 L121 625 Q138 624 168.5 623 Q199 622 223 622 Q234 622 249.5 622 Q265 622 280 622.5 Q295 623 308 623.5 Q321 624 328 625 L321 603 L270 589 L338 298 L547 588 L499 603 L505 625 Q510 625 520.5 624.5 Q531 624 544 623.5 Q557 623 569.5 622.5 Q582 622 592 622 Q611 622 635.5 623 Q660 624 673 625 L667 603 Q648 601 635 597.5 Q622 594 611.5 587 Q601 580 591 569.5 Q581 559 569 542 L354 245 L311 86 Z M523 669 L441 740 L321 669 L309 680 L430 797 L478 797 L538 677 L523 669 Z " />
<glyph glyph-name="Ydieresis" unicode="&#x178;" horiz-adv-x="541" d="M311 86 Q307 70 307 61 Q307 46 318.5 38 Q330 30 359 22 L353 0 Q343 0 329 0.5 Q315 1 300 1.5 Q285 2 270.5 2.5 Q256 3 245 3 Q221 3 188.5 2 Q156 1 134 0 L140 22 L203 42 L257 243 L184 541 Q180 556 175.5 566 Q171 576 163 583 Q155 590 143.5 594.5 Q132 599 115 603 L121 625 Q138 624 168.5 623 Q199 622 223 622 Q234 622 249.5 622 Q265 622 280 622.5 Q295 623 308 623.5 Q321 624 328 625 L321 603 L270 589 L338 298 L547 588 L499 603 L505 625 Q510 625 520.5 624.5 Q531 624 544 623.5 Q557 623 569.5 622.5 Q582 622 592 622 Q611 622 635.5 623 Q660 624 673 625 L667 603 Q648 601 635 597.5 Q622 594 611.5 587 Q601 580 591 569.5 Q581 559 569 542 L354 245 L311 86 Z M355 687 Q338 687 328 697 Q318 707 318 722 Q318 746 335 762.5 Q352 779 375 779 Q392 779 402 769 Q412 759 412 744 Q412 720 395 703.5 Q378 687 355 687 Z M499 687 Q482 687 472 697 Q462 707 462 722 Q462 746 479 762.5 Q496 779 519 779 Q536 779 546 769 Q556 759 556 744 Q556 720 539 703.5 Q522 687 499 687 Z " />
<glyph glyph-name="Zacute" unicode="&#x179;" horiz-adv-x="535" d="M605 601 Q584 574 553 535.5 Q522 497 484.5 450.5 Q447 404 404 352.5 Q361 301 317 248 Q273 195 228.5 142 Q184 89 143 40 L313 40 Q347 40 370 47.5 Q393 55 409.5 69 Q426 83 438 103 Q450 123 462 149 L490 149 Q484 132 477.5 111.5 Q471 91 464.5 71 Q458 51 452.5 32.5 Q447 14 443 0 L34 0 L23 24 Q54 65 106.5 130 Q159 195 222 271.5 Q285 348 353 429.5 Q421 511 483 584 L257 584 L183 479 L155 479 Q159 491 164.5 509.5 Q170 528 176.5 549 Q183 570 189 590 Q195 610 199 625 L593 625 L605 601 Z M523 740 L330 670 L322 683 L466 783 Q482 794 490 794 Q498 794 506 782 L525 750 L523 740 Z " />
<glyph glyph-name="Zcaron" unicode="&#x17d;" horiz-adv-x="535" d="M605 601 Q584 574 553 535.5 Q522 497 484.5 450.5 Q447 404 404 352.5 Q361 301 317 248 Q273 195 228.5 142 Q184 89 143 40 L313 40 Q347 40 370 47.5 Q393 55 409.5 69 Q426 83 438 103 Q450 123 462 149 L490 149 Q484 132 477.5 111.5 Q471 91 464.5 71 Q458 51 452.5 32.5 Q447 14 443 0 L34 0 L23 24 Q54 65 106.5 130 Q159 195 222 271.5 Q285 348 353 429.5 Q421 511 483 584 L257 584 L183 479 L155 479 Q159 491 164.5 509.5 Q170 528 176.5 549 Q183 570 189 590 Q195 610 199 625 L593 625 L605 601 Z M329 802 L411 731 L532 802 L544 790 L422 673 L374 673 L315 793 L329 802 Z " />
<glyph glyph-name="Zdotaccent" unicode="&#x17b;" horiz-adv-x="535" d="M605 601 Q584 574 553 535.5 Q522 497 484.5 450.5 Q447 404 404 352.5 Q361 301 317 248 Q273 195 228.5 142 Q184 89 143 40 L313 40 Q347 40 370 47.5 Q393 55 409.5 69 Q426 83 438 103 Q450 123 462 149 L490 149 Q484 132 477.5 111.5 Q471 91 464.5 71 Q458 51 452.5 32.5 Q447 14 443 0 L34 0 L23 24 Q54 65 106.5 130 Q159 195 222 271.5 Q285 348 353 429.5 Q421 511 483 584 L257 584 L183 479 L155 479 Q159 491 164.5 509.5 Q170 528 176.5 549 Q183 570 189 590 Q195 610 199 625 L593 625 L605 601 Z M411 680 Q391 680 378.5 692.5 Q366 705 366 724 Q366 753 386.5 772.5 Q407 792 435 792 Q455 792 467 779.5 Q479 767 479 748 Q479 719 459 699.5 Q439 680 411 680 Z " />
<glyph glyph-name="agrave" unicode="&#xe0;" horiz-adv-x="493" d="M298 61 Q276 29 241 7 Q206 -15 166 -15 Q110 -15 77.5 25.5 Q45 66 45 138 Q45 191 65.5 248 Q86 305 123 352 Q160 399 212 429.5 Q264 460 327 460 Q380 460 417 428 L441 460 L487 449 L490 444 L394 91 Q389 73 389 63 Q389 45 407 45 Q422 45 445 54 L436 21 Q419 10 396.5 1 Q374 -8 353 -8 Q327 -8 312.5 6.5 Q298 21 298 47 L298 61 Z M296 117 Q313 146 326.5 182 Q340 218 353 265 L384 381 Q376 396 361.5 405 Q347 414 327 414 Q298 414 274.5 399.5 Q251 385 229 361 Q211 340 195 313.5 Q179 287 167 257 Q155 227 148.5 195.5 Q142 164 142 134 Q142 89 158 67 Q174 45 201 45 Q230 45 253 65 Q276 85 296 117 Z M269 594 L301 627 Q311 637 319 637 Q329 637 338 626 L444 508 L434 495 L272 583 L269 594 Z " />
<glyph glyph-name="aacute" unicode="&#xe1;" horiz-adv-x="493" d="M298 61 Q276 29 241 7 Q206 -15 166 -15 Q110 -15 77.5 25.5 Q45 66 45 138 Q45 191 65.5 248 Q86 305 123 352 Q160 399 212 429.5 Q264 460 327 460 Q380 460 417 428 L441 460 L487 449 L490 444 L394 91 Q389 73 389 63 Q389 45 407 45 Q422 45 445 54 L436 21 Q419 10 396.5 1 Q374 -8 353 -8 Q327 -8 312.5 6.5 Q298 21 298 47 L298 61 Z M296 117 Q313 146 326.5 182 Q340 218 353 265 L384 381 Q376 396 361.5 405 Q347 414 327 414 Q298 414 274.5 399.5 Q251 385 229 361 Q211 340 195 313.5 Q179 287 167 257 Q155 227 148.5 195.5 Q142 164 142 134 Q142 89 158 67 Q174 45 201 45 Q230 45 253 65 Q276 85 296 117 Z M457 583 L263 495 L255 509 L395 626 Q409 637 416 637 Q425 637 433 626 L458 594 L457 583 Z " />
<glyph glyph-name="acircumflex" unicode="&#xe2;" horiz-adv-x="493" d="M298 61 Q276 29 241 7 Q206 -15 166 -15 Q110 -15 77.5 25.5 Q45 66 45 138 Q45 191 65.5 248 Q86 305 123 352 Q160 399 212 429.5 Q264 460 327 460 Q380 460 417 428 L441 460 L487 449 L490 444 L394 91 Q389 73 389 63 Q389 45 407 45 Q422 45 445 54 L436 21 Q419 10 396.5 1 Q374 -8 353 -8 Q327 -8 312.5 6.5 Q298 21 298 47 L298 61 Z M296 117 Q313 146 326.5 182 Q340 218 353 265 L384 381 Q376 396 361.5 405 Q347 414 327 414 Q298 414 274.5 399.5 Q251 385 229 361 Q211 340 195 313.5 Q179 287 167 257 Q155 227 148.5 195.5 Q142 164 142 134 Q142 89 158 67 Q174 45 201 45 Q230 45 253 65 Q276 85 296 117 Z M440 502 L367 585 L250 501 L235 511 L357 642 L405 642 L457 507 L440 502 Z " />
<glyph glyph-name="atilde" unicode="&#xe3;" horiz-adv-x="493" d="M298 61 Q276 29 241 7 Q206 -15 166 -15 Q110 -15 77.5 25.5 Q45 66 45 138 Q45 191 65.5 248 Q86 305 123 352 Q160 399 212 429.5 Q264 460 327 460 Q380 460 417 428 L441 460 L487 449 L490 444 L394 91 Q389 73 389 63 Q389 45 407 45 Q422 45 445 54 L436 21 Q419 10 396.5 1 Q374 -8 353 -8 Q327 -8 312.5 6.5 Q298 21 298 47 L298 61 Z M296 117 Q313 146 326.5 182 Q340 218 353 265 L384 381 Q376 396 361.5 405 Q347 414 327 414 Q298 414 274.5 399.5 Q251 385 229 361 Q211 340 195 313.5 Q179 287 167 257 Q155 227 148.5 195.5 Q142 164 142 134 Q142 89 158 67 Q174 45 201 45 Q230 45 253 65 Q276 85 296 117 Z M395 522 Q380 522 367.5 527.5 Q355 533 343 540 Q331 547 319 552.5 Q307 558 294 558 Q279 558 265.5 550 Q252 542 243 522 L221 526 Q238 573 261 596.5 Q284 620 316 620 Q331 620 343.5 614.5 Q356 609 368 602 Q380 595 391.5 589.5 Q403 584 417 584 Q432 584 445.5 592 Q459 600 468 620 L490 616 Q473 569 450 545.5 Q427 522 395 522 Z " />
<glyph glyph-name="adieresis" unicode="&#xe4;" horiz-adv-x="493" d="M298 61 Q276 29 241 7 Q206 -15 166 -15 Q110 -15 77.5 25.5 Q45 66 45 138 Q45 191 65.5 248 Q86 305 123 352 Q160 399 212 429.5 Q264 460 327 460 Q380 460 417 428 L441 460 L487 449 L490 444 L394 91 Q389 73 389 63 Q389 45 407 45 Q422 45 445 54 L436 21 Q419 10 396.5 1 Q374 -8 353 -8 Q327 -8 312.5 6.5 Q298 21 298 47 L298 61 Z M296 117 Q313 146 326.5 182 Q340 218 353 265 L384 381 Q376 396 361.5 405 Q347 414 327 414 Q298 414 274.5 399.5 Q251 385 229 361 Q211 340 195 313.5 Q179 287 167 257 Q155 227 148.5 195.5 Q142 164 142 134 Q142 89 158 67 Q174 45 201 45 Q230 45 253 65 Q276 85 296 117 Z M273 520 Q256 520 246 530 Q236 540 236 555 Q236 579 253 595.5 Q270 612 293 612 Q310 612 320 602 Q330 592 330 577 Q330 553 313 536.5 Q296 520 273 520 Z M417 520 Q400 520 390 530 Q380 540 380 555 Q380 579 397 595.5 Q414 612 437 612 Q454 612 464 602 Q474 592 474 577 Q474 553 457 536.5 Q440 520 417 520 Z " />
<glyph glyph-name="amacron" unicode="&#x101;" horiz-adv-x="493" d="M298 61 Q276 29 241 7 Q206 -15 166 -15 Q110 -15 77.5 25.5 Q45 66 45 138 Q45 191 65.5 248 Q86 305 123 352 Q160 399 212 429.5 Q264 460 327 460 Q380 460 417 428 L441 460 L487 449 L490 444 L394 91 Q389 73 389 63 Q389 45 407 45 Q422 45 445 54 L436 21 Q419 10 396.5 1 Q374 -8 353 -8 Q327 -8 312.5 6.5 Q298 21 298 47 L298 61 Z M296 117 Q313 146 326.5 182 Q340 218 353 265 L384 381 Q376 396 361.5 405 Q347 414 327 414 Q298 414 274.5 399.5 Q251 385 229 361 Q211 340 195 313.5 Q179 287 167 257 Q155 227 148.5 195.5 Q142 164 142 134 Q142 89 158 67 Q174 45 201 45 Q230 45 253 65 Q276 85 296 117 Z M241 533 L254 581 L468 581 L455 533 L241 533 Z " />
<glyph glyph-name="abreve" unicode="&#x103;" horiz-adv-x="493" d="M298 61 Q276 29 241 7 Q206 -15 166 -15 Q110 -15 77.5 25.5 Q45 66 45 138 Q45 191 65.5 248 Q86 305 123 352 Q160 399 212 429.5 Q264 460 327 460 Q380 460 417 428 L441 460 L487 449 L490 444 L394 91 Q389 73 389 63 Q389 45 407 45 Q422 45 445 54 L436 21 Q419 10 396.5 1 Q374 -8 353 -8 Q327 -8 312.5 6.5 Q298 21 298 47 L298 61 Z M296 117 Q313 146 326.5 182 Q340 218 353 265 L384 381 Q376 396 361.5 405 Q347 414 327 414 Q298 414 274.5 399.5 Q251 385 229 361 Q211 340 195 313.5 Q179 287 167 257 Q155 227 148.5 195.5 Q142 164 142 134 Q142 89 158 67 Q174 45 201 45 Q230 45 253 65 Q276 85 296 117 Z M469 626 Q456 574 424.5 541 Q393 508 337 508 Q294 508 269.5 531.5 Q245 555 245 592 Q245 608 250 626 L276 626 Q276 597 293 580 Q310 563 345 563 Q380 563 406 580 Q432 597 443 626 L469 626 Z " />
<glyph glyph-name="acaron" unicode="&#x1ce;" horiz-adv-x="493" d="M298 61 Q276 29 241 7 Q206 -15 166 -15 Q110 -15 77.5 25.5 Q45 66 45 138 Q45 191 65.5 248 Q86 305 123 352 Q160 399 212 429.5 Q264 460 327 460 Q380 460 417 428 L441 460 L487 449 L490 444 L394 91 Q389 73 389 63 Q389 45 407 45 Q422 45 445 54 L436 21 Q419 10 396.5 1 Q374 -8 353 -8 Q327 -8 312.5 6.5 Q298 21 298 47 L298 61 Z M296 117 Q313 146 326.5 182 Q340 218 353 265 L384 381 Q376 396 361.5 405 Q347 414 327 414 Q298 414 274.5 399.5 Q251 385 229 361 Q211 340 195 313.5 Q179 287 167 257 Q155 227 148.5 195.5 Q142 164 142 134 Q142 89 158 67 Q174 45 201 45 Q230 45 253 65 Q276 85 296 117 Z M290 642 L364 558 L481 642 L495 632 L373 501 L326 501 L273 636 L290 642 Z " />
<glyph glyph-name="aring" unicode="&#xe5;" horiz-adv-x="493" d="M298 61 Q276 29 241 7 Q206 -15 166 -15 Q110 -15 77.5 25.5 Q45 66 45 138 Q45 191 65.5 248 Q86 305 123 352 Q160 399 212 429.5 Q264 460 327 460 Q380 460 417 428 L441 460 L487 449 L490 444 L394 91 Q389 73 389 63 Q389 45 407 45 Q422 45 445 54 L436 21 Q419 10 396.5 1 Q374 -8 353 -8 Q327 -8 312.5 6.5 Q298 21 298 47 L298 61 Z M296 117 Q313 146 326.5 182 Q340 218 353 265 L384 381 Q376 396 361.5 405 Q347 414 327 414 Q298 414 274.5 399.5 Q251 385 229 361 Q211 340 195 313.5 Q179 287 167 257 Q155 227 148.5 195.5 Q142 164 142 134 Q142 89 158 67 Q174 45 201 45 Q230 45 253 65 Q276 85 296 117 Z M348 543 Q372 543 386.5 561.5 Q401 580 401 605 Q401 622 392 631 Q383 640 369 640 Q345 640 330.5 621.5 Q316 603 316 578 Q316 561 325 552 Q334 543 348 543 Z M344 506 Q312 506 292.5 525.5 Q273 545 273 577 Q273 596 280 614 Q287 632 300.5 646 Q314 660 332 668.5 Q350 677 373 677 Q405 677 424.5 657.5 Q444 638 444 606 Q444 587 437 569 Q430 551 416.5 537 Q403 523 384.5 514.5 Q366 506 344 506 Z " />
<glyph glyph-name="aringacute" unicode="&#x1fb;" horiz-adv-x="493" d="M298 61 Q276 29 241 7 Q206 -15 166 -15 Q110 -15 77.5 25.5 Q45 66 45 138 Q45 191 65.5 248 Q86 305 123 352 Q160 399 212 429.5 Q264 460 327 460 Q380 460 417 428 L441 460 L487 449 L490 444 L394 91 Q389 73 389 63 Q389 45 407 45 Q422 45 445 54 L436 21 Q419 10 396.5 1 Q374 -8 353 -8 Q327 -8 312.5 6.5 Q298 21 298 47 L298 61 Z M296 117 Q313 146 326.5 182 Q340 218 353 265 L384 381 Q376 396 361.5 405 Q347 414 327 414 Q298 414 274.5 399.5 Q251 385 229 361 Q211 340 195 313.5 Q179 287 167 257 Q155 227 148.5 195.5 Q142 164 142 134 Q142 89 158 67 Q174 45 201 45 Q230 45 253 65 Q276 85 296 117 Z M344 526 Q368 526 382.5 544.5 Q397 563 397 588 Q397 605 388 614 Q379 623 365 623 Q341 623 326.5 604.5 Q312 586 312 561 Q312 544 321 535 Q330 526 344 526 Z M340 489 Q308 489 288.5 508.5 Q269 528 269 560 Q269 579 276 597 Q283 615 296.5 629 Q310 643 328 651.5 Q346 660 369 660 Q401 660 420.5 640.5 Q440 621 440 589 Q440 570 433 552 Q426 534 412.5 520 Q399 506 380.5 497.5 Q362 489 340 489 Z M497 758 L303 670 L295 684 L435 801 Q449 812 456 812 Q465 812 473 801 L498 769 L497 758 Z " />
<glyph glyph-name="aogonek" unicode="&#x105;" horiz-adv-x="493" d="M436 21 Q357 -22 324.5 -60.5 Q292 -99 292 -138 Q292 -163 305.5 -179 Q319 -195 348 -195 Q360 -195 373 -192 Q386 -189 395 -186 L404 -211 Q390 -219 370.5 -224 Q351 -229 331 -229 Q285 -229 253.5 -208 Q222 -187 222 -143 Q222 -122 231.5 -102 Q241 -82 256.5 -64.5 Q272 -47 292 -32 Q312 -17 333 -5 Q298 5 298 61 Q276 29 241 7 Q206 -15 166 -15 Q110 -15 77.5 25.5 Q45 66 45 138 Q45 191 65.5 248 Q86 305 123 352 Q160 399 212 429.5 Q264 460 327 460 Q380 460 417 428 L441 460 L487 449 L490 444 L394 91 Q389 73 389 63 Q389 45 407 45 Q422 45 445 54 L436 21 Z M384 381 Q376 396 361.5 405 Q347 414 327 414 Q298 414 274.5 399.5 Q251 385 229 361 Q211 340 195 313.5 Q179 287 167 257 Q155 227 148.5 195.5 Q142 164 142 134 Q142 89 158 67 Q174 45 201 45 Q230 45 253 65 Q276 85 296 117 Q313 146 326.5 182 Q340 218 353 265 L384 381 Z " />
<glyph glyph-name="ae" unicode="&#xe6;" horiz-adv-x="669" d="M330 418 Q290 418 255.5 390 Q221 362 195.5 320 Q170 278 155.5 228.5 Q141 179 141 136 Q141 44 208 44 Q227 44 250.5 52 Q274 60 303 78 Q294 103 294 137 Q294 208 322 272 Q350 336 393 381 Q371 418 330 418 Z M586 372 Q586 414 547 414 Q518 414 490 391.5 Q462 369 440.5 332 Q419 295 405 247.5 Q391 200 391 151 Q391 145 391 139.5 Q391 134 392 129 Q492 197 539 259 Q586 321 586 372 Z M436 -15 Q398 -15 368 0 Q338 15 320 41 Q285 18 247.5 1.5 Q210 -15 174 -15 Q114 -15 79.5 25 Q45 65 45 131 Q45 192 67.5 251 Q90 310 129 356.5 Q168 403 221 431.5 Q274 460 336 460 Q370 460 399.5 450.5 Q429 441 449 427 Q502 460 554 460 Q608 460 636 435 Q664 410 664 371 Q664 337 645.5 302 Q627 267 592.5 232 Q558 197 509.5 161.5 Q461 126 400 90 Q409 70 426 58 Q443 46 469 46 Q501 46 539 65.5 Q577 85 614 130 L635 109 Q598 52 544.5 18.5 Q491 -15 436 -15 Z " />
<glyph glyph-name="aeacute" unicode="&#x1fd;" horiz-adv-x="669" d="M330 418 Q290 418 255.5 390 Q221 362 195.5 320 Q170 278 155.5 228.5 Q141 179 141 136 Q141 44 208 44 Q227 44 250.5 52 Q274 60 303 78 Q294 103 294 137 Q294 208 322 272 Q350 336 393 381 Q371 418 330 418 Z M586 372 Q586 414 547 414 Q518 414 490 391.5 Q462 369 440.5 332 Q419 295 405 247.5 Q391 200 391 151 Q391 145 391 139.5 Q391 134 392 129 Q492 197 539 259 Q586 321 586 372 Z M436 -15 Q398 -15 368 0 Q338 15 320 41 Q285 18 247.5 1.5 Q210 -15 174 -15 Q114 -15 79.5 25 Q45 65 45 131 Q45 192 67.5 251 Q90 310 129 356.5 Q168 403 221 431.5 Q274 460 336 460 Q370 460 399.5 450.5 Q429 441 449 427 Q502 460 554 460 Q608 460 636 435 Q664 410 664 371 Q664 337 645.5 302 Q627 267 592.5 232 Q558 197 509.5 161.5 Q461 126 400 90 Q409 70 426 58 Q443 46 469 46 Q501 46 539 65.5 Q577 85 614 130 L635 109 Q598 52 544.5 18.5 Q491 -15 436 -15 Z M577 583 L383 495 L375 509 L515 626 Q529 637 536 637 Q545 637 553 626 L578 594 L577 583 Z " />
<glyph glyph-name="cacute" unicode="&#x107;" horiz-adv-x="427" d="M405 322 Q403 368 381 391 Q359 414 323 414 Q280 414 246.5 387 Q213 360 189.5 319.5 Q166 279 154 231.5 Q142 184 142 144 Q142 96 162.5 71 Q183 46 221 46 Q259 46 294 69 Q329 92 362 129 L384 108 Q347 53 295.5 19 Q244 -15 188 -15 Q118 -15 81.5 28 Q45 71 45 140 Q45 203 72.5 268.5 Q100 334 148 382 Q183 417 228.5 438.5 Q274 460 328 460 Q363 460 394 453 Q425 446 456 439 Q449 417 439.5 383.5 Q430 350 424 322 L405 322 Z M459 583 L265 495 L257 509 L397 626 Q411 637 418 637 Q427 637 435 626 L460 594 L459 583 Z " />
<glyph glyph-name="ccedilla" unicode="&#xe7;" horiz-adv-x="427" d="M45 140 Q45 203 72.5 268.5 Q100 334 148 382 Q183 417 228.5 438.5 Q274 460 328 460 Q363 460 394 453 Q425 446 456 439 Q449 417 439.5 383.5 Q430 350 424 322 L405 322 Q403 368 381 391 Q359 414 323 414 Q280 414 246.5 387 Q213 360 189.5 319.5 Q166 279 154 231.5 Q142 184 142 144 Q142 96 162.5 71 Q183 46 221 46 Q259 46 294 69 Q329 92 362 129 L384 108 Q349 57 302 24 Q255 -9 204 -14 L183 -53 Q216 -63 236 -76.5 Q256 -90 256 -117 Q256 -138 244 -158 Q232 -178 209.5 -193 Q187 -208 156 -218 Q125 -228 88 -229 L83 -205 Q137 -194 165.5 -171.5 Q194 -149 194 -123 Q194 -108 183 -100.5 Q172 -93 149 -85 Q135 -80 133.5 -73.5 Q132 -67 137 -58 L162 -13 Q105 -5 75 36 Q45 77 45 140 Z " />
<glyph glyph-name="ccircumflex" unicode="&#x109;" horiz-adv-x="427" d="M405 322 Q403 368 381 391 Q359 414 323 414 Q280 414 246.5 387 Q213 360 189.5 319.5 Q166 279 154 231.5 Q142 184 142 144 Q142 96 162.5 71 Q183 46 221 46 Q259 46 294 69 Q329 92 362 129 L384 108 Q347 53 295.5 19 Q244 -15 188 -15 Q118 -15 81.5 28 Q45 71 45 140 Q45 203 72.5 268.5 Q100 334 148 382 Q183 417 228.5 438.5 Q274 460 328 460 Q363 460 394 453 Q425 446 456 439 Q449 417 439.5 383.5 Q430 350 424 322 L405 322 Z M432 502 L359 585 L242 501 L227 511 L349 642 L397 642 L449 507 L432 502 Z " />
<glyph glyph-name="ccaron" unicode="&#x10d;" horiz-adv-x="427" d="M405 322 Q403 368 381 391 Q359 414 323 414 Q280 414 246.5 387 Q213 360 189.5 319.5 Q166 279 154 231.5 Q142 184 142 144 Q142 96 162.5 71 Q183 46 221 46 Q259 46 294 69 Q329 92 362 129 L384 108 Q347 53 295.5 19 Q244 -15 188 -15 Q118 -15 81.5 28 Q45 71 45 140 Q45 203 72.5 268.5 Q100 334 148 382 Q183 417 228.5 438.5 Q274 460 328 460 Q363 460 394 453 Q425 446 456 439 Q449 417 439.5 383.5 Q430 350 424 322 L405 322 Z M277 642 L351 558 L468 642 L482 632 L360 501 L313 501 L260 636 L277 642 Z " />
<glyph glyph-name="cdotaccent" unicode="&#x10b;" horiz-adv-x="427" d="M405 322 Q403 368 381 391 Q359 414 323 414 Q280 414 246.5 387 Q213 360 189.5 319.5 Q166 279 154 231.5 Q142 184 142 144 Q142 96 162.5 71 Q183 46 221 46 Q259 46 294 69 Q329 92 362 129 L384 108 Q347 53 295.5 19 Q244 -15 188 -15 Q118 -15 81.5 28 Q45 71 45 140 Q45 203 72.5 268.5 Q100 334 148 382 Q183 417 228.5 438.5 Q274 460 328 460 Q363 460 394 453 Q425 446 456 439 Q449 417 439.5 383.5 Q430 350 424 322 L405 322 Z M347 513 Q327 513 314.5 525.5 Q302 538 302 557 Q302 586 322.5 605.5 Q343 625 371 625 Q391 625 403 612.5 Q415 600 415 581 Q415 552 395 532.5 Q375 513 347 513 Z " />
<glyph glyph-name="dcaron" unicode="&#x10f;" horiz-adv-x="559" d="M296 117 Q313 146 326.5 182 Q340 218 353 265 L384 381 Q376 396 361.5 405 Q347 414 327 414 Q298 414 274.5 399.5 Q251 385 229 361 Q211 340 195 313.5 Q179 287 167 257 Q155 227 148.5 195.5 Q142 164 142 134 Q142 89 158 67 Q174 45 201 45 Q230 45 253 65 Q276 85 296 117 Z M402 665 Q452 665 489.5 666.5 Q527 668 546 671 L550 666 L394 91 Q389 73 389 63 Q389 45 407 45 Q422 45 445 54 L436 21 Q419 10 396.5 1 Q374 -8 353 -8 Q327 -8 312.5 6.5 Q298 21 298 47 L298 61 Q276 29 241 7 Q206 -15 166 -15 Q110 -15 77.5 25.5 Q45 66 45 138 Q45 191 65.5 248 Q86 305 122.5 352 Q159 399 211 429.5 Q263 460 326 460 Q368 460 400 439 L439 583 Q443 599 443 609 Q443 622 433.5 629 Q424 636 396 644 L402 665 Z M673 631 Q673 589 641.5 545.5 Q610 502 556 470 L545 486 Q576 512 594.5 538.5 Q613 565 613 585 Q613 594 608.5 599.5 Q604 605 598 610.5 Q592 616 587.5 621.5 Q583 627 583 636 Q583 653 599 666.5 Q615 680 635 680 Q655 680 664 665.5 Q673 651 673 631 Z " />
<glyph glyph-name="dcroat" unicode="&#x111;" horiz-adv-x="493" d="M402 665 Q452 665 489.5 666.5 Q527 668 546 671 L550 666 L523 566 L597 566 L587 528 L512 528 L394 91 Q389 73 389 63 Q389 45 407 45 Q422 45 445 54 L436 21 Q419 10 396.5 1 Q374 -8 353 -8 Q327 -8 312.5 6.5 Q298 21 298 47 L298 61 Q276 29 241 7 Q206 -15 166 -15 Q110 -15 77.5 25.5 Q45 66 45 138 Q45 191 65.5 248 Q86 305 122.5 352 Q159 399 211 429.5 Q263 460 326 460 Q368 460 400 439 L424 528 L282 528 L292 566 L434 566 L439 583 Q443 599 443 609 Q443 622 433.5 629 Q424 636 396 644 L402 665 Z M296 117 Q313 146 326.5 182 Q340 218 353 265 L384 381 Q376 396 361.5 405 Q347 414 327 414 Q298 414 274.5 399.5 Q251 385 229 361 Q211 340 195 313.5 Q179 287 167 257 Q155 227 148.5 195.5 Q142 164 142 134 Q142 89 158 67 Q174 45 201 45 Q230 45 253 65 Q276 85 296 117 Z " />
<glyph glyph-name="eth" unicode="&#xf0;" horiz-adv-x="458" d="M455 358 Q455 285 440 217.5 Q425 150 394.5 98.5 Q364 47 318 16 Q272 -15 209 -15 Q131 -15 89 33.5 Q47 82 47 162 Q47 218 66.5 270 Q86 322 119.5 362 Q153 402 197 426 Q241 450 290 450 Q324 450 354 439 Q350 463 344 487.5 Q338 512 330 535 L238 511 L229 550 L313 572 Q287 621 244 655 L261 681 Q336 647 381 589 L473 614 L482 575 L405 554 Q431 510 443 459.5 Q455 409 455 358 Z M358 395 Q332 403 310 403 Q271 403 240 380 Q209 357 187.5 320.5 Q166 284 154 237.5 Q142 191 142 144 Q142 123 145.5 102.5 Q149 82 157.5 66 Q166 50 180.5 40 Q195 30 217 30 Q246 30 272 53.5 Q298 77 317 121.5 Q336 166 347 230 Q358 294 358 375 L358 395 Z " />
</font>
</svg>
