<?xml version="1.0" encoding="UTF-8"?>
<svg xmlns="http://www.w3.org/2000/svg" xmlns:xlink="http://www.w3.org/1999/xlink" version="1.2" >
<font id="Cadillac Serif Web SemiBold Italic">
<font-face  font-family="Cadillac Serif Web" units-per-em="1000" ascent="700" descent="-300" font-style="italic" font-weight="600" font-stretch="normal" slope="-15" cap-height="625" x-height="444" underline-position="-75" underline-thickness="50" />
<missing-glyph  horiz-adv-x="535" d="M20 693 L515 693 L515 0 L20 0 L20 693 Z M436 644 L99 644 L268 391 L436 644 Z M466 94 L466 599 L297 347 L466 94 Z M436 50 L268 302 L99 50 L436 50 Z M70 94 L238 347 L70 599 L70 94 Z " />
<glyph glyph-name="null" d="" />
<glyph glyph-name="nonmarkingreturn" unicode="&#xd;" horiz-adv-x="172" d="" />
<glyph glyph-name="nbspace" unicode="&#xa0;" horiz-adv-x="172" d="" />
<glyph glyph-name="space" unicode="&#x20;" horiz-adv-x="172" d="" />
<glyph glyph-name="A" unicode="A" horiz-adv-x="633" d="M397 194 L206 194 L146 95 Q132 71 132 61 Q132 50 144 42.5 Q156 35 184 29 L176 0 Q156 1 127 2 Q98 3 79 3 Q57 3 26.5 2 Q-4 1 -22 0 L-14 29 L48 48 L403 625 L481 625 L533 121 Q535 98 538.5 83.5 Q542 69 549.5 59 Q557 49 570 42.5 Q583 36 605 29 L597 0 Q589 0 573.5 0.5 Q558 1 540 1.5 Q522 2 504 2.5 Q486 3 474 3 Q461 3 443.5 2.5 Q426 2 408 1.5 Q390 1 373 0.5 Q356 0 344 0 L352 29 L412 47 L397 194 Z M237 245 L392 245 L370 465 L237 245 Z " />
<glyph glyph-name="B" unicode="B" horiz-adv-x="590" d="M20 29 L82 49 L203 513 Q208 530 209.5 539 Q211 548 211 555 Q211 569 199 578.5 Q187 588 155 596 L163 625 L400 625 Q460 625 505.5 613 Q551 601 577 575 Q608 544 608 495 Q608 444 567.5 401 Q527 358 460 341 Q508 331 538.5 299 Q569 267 569 218 Q569 179 554 144 Q539 109 511 81 Q472 42 416.5 21 Q361 0 285 0 L12 0 L20 29 Z M225 106 Q221 90 221 81 Q221 67 235.5 58 Q250 49 281 49 Q318 49 347 66 Q376 83 396.5 109 Q417 135 427.5 165.5 Q438 196 438 224 Q438 263 416 285 Q401 300 376.5 306.5 Q352 313 317 313 L279 313 L225 106 Z M292 361 L317 361 Q359 361 391 372 Q423 383 444 403 Q464 422 474.5 446.5 Q485 471 485 498 Q485 531 465 551 Q439 576 375 576 L348 576 L292 361 Z " />
<glyph glyph-name="C" unicode="C" horiz-adv-x="562" d="M532 117 Q479 57 413.5 21 Q348 -15 281 -15 Q237 -15 200.5 0 Q164 15 137.5 43 Q111 71 96.5 112 Q82 153 82 205 Q82 286 110.5 364 Q139 442 189.5 503.5 Q240 565 309 602.5 Q378 640 459 640 Q506 640 547.5 630.5 Q589 621 629 613 Q624 597 619 576.5 Q614 556 608.5 534.5 Q603 513 598 492 Q593 471 590 455 L551 455 Q552 463 552 470 Q552 477 552 479 Q552 526 530.5 555.5 Q509 585 461 585 Q424 585 392 569 Q360 553 334 526 Q306 497 284 457.5 Q262 418 246.5 375 Q231 332 223 288.5 Q215 245 215 208 Q215 145 241 106.5 Q267 68 324 68 Q367 68 415.5 91.5 Q464 115 502 150 L532 117 Z " />
<glyph glyph-name="D" unicode="D" horiz-adv-x="646" d="M225 101 Q221 85 221 77 Q221 66 231 57.5 Q241 49 266 49 Q307 49 342.5 65.5 Q378 82 408 110 Q438 138 462 175.5 Q486 213 502.5 254 Q519 295 527.5 337.5 Q536 380 536 419 Q536 491 502 530 Q462 574 364 574 L349 574 L225 101 Z M375 625 Q539 625 612 552 Q667 497 667 402 Q667 364 658.5 324.5 Q650 285 634 247 Q618 209 593.5 173.5 Q569 138 538 108 Q487 59 419 29.5 Q351 0 260 0 L12 0 L20 29 L82 49 L203 513 Q208 530 209.5 539 Q211 548 211 555 Q211 569 199 578.5 Q187 588 155 596 L163 625 L375 625 Z " />
<glyph glyph-name="E" unicode="E" horiz-adv-x="554" d="M608 625 Q604 610 599.5 588.5 Q595 567 590.5 544.5 Q586 522 582.5 501 Q579 480 577 468 L537 468 L537 489 Q537 516 531.5 533.5 Q526 551 512.5 560.5 Q499 570 477 573.5 Q455 577 422 577 Q405 577 384.5 576.5 Q364 576 349 575 L289 347 L333 347 Q351 347 371 347.5 Q391 348 410 349.5 Q429 351 443.5 352.5 Q458 354 466 356 L444 291 Q438 292 424.5 293.5 Q411 295 393.5 296 Q376 297 357 297.5 Q338 298 321 298 L276 298 L226 104 Q223 92 223 84 Q223 66 241.5 57 Q260 48 308 48 Q343 48 367.5 53 Q392 58 410 70 Q428 82 442 102 Q456 122 470 153 L510 153 Q506 141 499.5 120 Q493 99 486.5 76.5 Q480 54 474.5 33 Q469 12 466 0 L12 0 L20 29 L82 49 L203 513 Q208 530 209.5 539 Q211 548 211 555 Q211 569 199 578.5 Q187 588 155 596 L163 625 L608 625 Z " />
<glyph glyph-name="F" unicode="F" horiz-adv-x="511" d="M228 112 Q223 95 221.5 86 Q220 77 220 70 Q220 55 234 46.5 Q248 38 286 29 L278 0 Q268 0 250 0.5 Q232 1 212 1.5 Q192 2 173.5 2.5 Q155 3 143 3 Q130 3 111.5 2.5 Q93 2 74 1.5 Q55 1 38 0.5 Q21 0 12 0 L20 29 L82 49 L203 513 Q208 530 209.5 539 Q211 548 211 555 Q211 569 199 578.5 Q187 588 155 596 L163 625 L605 625 Q601 610 596.5 588.5 Q592 567 587.5 544.5 Q583 522 579.5 501 Q576 480 574 468 L534 468 L534 489 Q534 516 528.5 533.5 Q523 551 509.5 560.5 Q496 570 474.5 573.5 Q453 577 420 577 Q403 577 383.5 576.5 Q364 576 349 575 L289 347 L330 347 Q348 347 368 347.5 Q388 348 407 349.5 Q426 351 440.5 352.5 Q455 354 463 356 L441 291 Q435 292 421.5 293.5 Q408 295 390.5 296 Q373 297 354 297.5 Q335 298 318 298 L277 298 L228 112 Z " />
<glyph glyph-name="G" unicode="G" horiz-adv-x="636" d="M392 265 L399 294 Q411 294 428 293.5 Q445 293 463.5 292.5 Q482 292 500 291.5 Q518 291 531 291 Q543 291 559.5 291 Q576 291 593.5 291.5 Q611 292 627 292.5 Q643 293 654 294 L647 265 Q628 260 615 255.5 Q602 251 594 244.5 Q586 238 580.5 228 Q575 218 571 202 L533 55 Q513 40 485.5 27 Q458 14 428 5 Q398 -4 367.5 -9.5 Q337 -15 311 -15 Q251 -15 208 2 Q165 19 137 49 Q109 79 96 120 Q83 161 83 209 Q83 291 112.5 368.5 Q142 446 194 506.5 Q246 567 315.5 603.5 Q385 640 466 640 Q492 640 514 637.5 Q536 635 557.5 631 Q579 627 601.5 622.5 Q624 618 650 614 Q638 572 627.5 530 Q617 488 610 454 L571 454 Q572 459 572 464.5 Q572 470 572 475 Q572 525 546 554.5 Q520 584 469 584 Q422 584 382 558 Q342 532 310 490 Q288 461 270.5 425.5 Q253 390 241 351.5 Q229 313 222.5 273 Q216 233 216 195 Q216 126 240.5 84 Q265 42 314 42 Q362 42 391.5 79.5 Q421 117 438 181 L455 246 L392 265 Z " />
<glyph glyph-name="H" unicode="H" horiz-adv-x="697" d="M594 112 Q589 95 587.5 86 Q586 77 586 70 Q586 56 598 46.5 Q610 37 642 29 L634 0 Q624 0 607.5 0.5 Q591 1 573 1.5 Q555 2 538 2.5 Q521 3 509 3 Q496 3 477.5 2.5 Q459 2 440 1.5 Q421 1 404 0.5 Q387 0 378 0 L386 29 L448 49 L512 295 L275 295 L228 112 Q223 95 221.5 86 Q220 77 220 70 Q220 56 232 46.5 Q244 37 276 29 L268 0 Q258 0 241.5 0.5 Q225 1 207 1.5 Q189 2 172 2.5 Q155 3 143 3 Q130 3 111.5 2.5 Q93 2 74 1.5 Q55 1 38 0.5 Q21 0 12 0 L20 29 L82 49 L203 513 Q208 530 209.5 539 Q211 548 211 555 Q211 569 199 578.5 Q187 588 155 596 L163 625 Q173 625 189.5 624.5 Q206 624 224 623.5 Q242 623 259 622.5 Q276 622 288 622 Q301 622 319.5 622.5 Q338 623 357 623.5 Q376 624 393 624.5 Q410 625 419 625 L411 596 L349 576 L290 350 L526 350 L569 513 Q574 530 575.5 539 Q577 548 577 555 Q577 569 565 578.5 Q553 588 521 596 L529 625 Q539 625 555.5 624.5 Q572 624 590 623.5 Q608 623 625 622.5 Q642 622 654 622 Q667 622 685.5 622.5 Q704 623 723 623.5 Q742 624 759 624.5 Q776 625 785 625 L777 596 L715 576 L594 112 Z " />
<glyph glyph-name="I" unicode="I" horiz-adv-x="337" d="M231 112 Q226 95 224.5 86 Q223 77 223 70 Q223 56 235 46.5 Q247 37 279 29 L271 0 Q261 0 244.5 0.5 Q228 1 210 1.5 Q192 2 175 2.5 Q158 3 146 3 Q133 3 114.5 2.5 Q96 2 77 1.5 Q58 1 41 0.5 Q24 0 15 0 L23 29 L85 49 L206 513 Q211 530 212.5 539 Q214 548 214 555 Q214 569 202 578.5 Q190 588 158 596 L166 625 Q176 625 192.5 624.5 Q209 624 227 623.5 Q245 623 262 622.5 Q279 622 291 622 Q304 622 322.5 622.5 Q341 623 360 623.5 Q379 624 396 624.5 Q413 625 422 625 L414 596 L352 576 L231 112 Z " />
<glyph glyph-name="J" unicode="J" horiz-adv-x="325" d="M200 513 Q205 530 206.5 539 Q208 548 208 555 Q208 569 196 578.5 Q184 588 152 596 L160 625 Q170 625 186.5 624.5 Q203 624 221 623.5 Q239 623 256 622.5 Q273 622 285 622 Q298 622 316.5 622.5 Q335 623 354 623.5 Q373 624 390 624.5 Q407 625 416 625 L408 596 L346 576 L230 132 Q211 60 186.5 1 Q162 -58 126.5 -102 Q91 -146 41 -175.5 Q-9 -205 -79 -219 L-91 -182 Q-55 -167 -28.5 -146 Q-2 -125 18.5 -94 Q39 -63 55.5 -20.5 Q72 22 87 80 L200 513 Z " />
<glyph glyph-name="K" unicode="K" horiz-adv-x="633" d="M284 330 L546 580 L497 596 L505 625 Q526 624 557.5 623 Q589 622 610 622 Q620 622 634 622.5 Q648 623 662 623.5 Q676 624 688.5 624.5 Q701 625 709 625 L701 596 Q680 594 664.5 590 Q649 586 635 579 Q621 572 606 560 Q591 548 571 530 L440 407 L530 94 Q536 72 545 63.5 Q554 55 570 55 Q580 55 592.5 58 Q605 61 613 65 L603 26 Q585 13 556 1.5 Q527 -10 500 -10 Q481 -10 464.5 -4 Q448 2 436 16 Q425 29 417 48 Q409 67 401 93 L338 312 L260 238 L228 112 Q223 95 221.5 86 Q220 77 220 70 Q220 56 232 46.5 Q244 37 276 29 L268 0 Q258 0 241.5 0.5 Q225 1 207 1.5 Q189 2 172 2.5 Q155 3 143 3 Q130 3 111.5 2.5 Q93 2 74 1.5 Q55 1 38 0.5 Q21 0 12 0 L20 29 L82 49 L203 513 Q208 530 209.5 539 Q211 548 211 555 Q211 569 199 578.5 Q187 588 155 596 L163 625 Q173 625 189.5 624.5 Q206 624 224 623.5 Q242 623 259 622.5 Q276 622 288 622 Q301 622 319.5 622.5 Q338 623 357 623.5 Q376 624 393 624.5 Q410 625 419 625 L411 596 L349 576 L284 330 Z " />
<glyph glyph-name="L" unicode="L" horiz-adv-x="513" d="M226 104 Q223 92 223 84 Q223 66 241.5 57 Q260 48 306 48 Q339 48 361.5 53 Q384 58 401 70 Q418 82 431.5 102.5 Q445 123 459 153 L499 153 Q495 141 488.5 120 Q482 99 475.5 76.5 Q469 54 463.5 33 Q458 12 455 0 L12 0 L20 29 L82 49 L203 513 Q208 530 209.5 539 Q211 548 211 555 Q211 569 199 578.5 Q187 588 155 596 L163 625 Q173 625 189.5 624.5 Q206 624 224 623.5 Q242 623 259 622.5 Q276 622 288 622 Q301 622 319.5 622.5 Q338 623 357 623.5 Q376 624 393 624.5 Q410 625 419 625 L411 596 L349 576 L226 104 Z " />
<glyph glyph-name="M" unicode="M" horiz-adv-x="840" d="M399 354 Q402 333 406 305.5 Q410 278 413.5 249.5 Q417 221 420 194 Q423 167 424 148 Q431 162 444.5 183.5 Q458 205 473.5 230 Q489 255 506 280.5 Q523 306 537 327 L735 625 L928 625 L920 596 L858 576 L737 112 Q732 95 730.5 86 Q729 77 729 70 Q729 56 741 46.5 Q753 37 785 29 L777 0 Q767 0 751 0.5 Q735 1 717.5 1.5 Q700 2 683 2.5 Q666 3 654 3 Q641 3 622.5 2.5 Q604 2 585 1.5 Q566 1 549 0.5 Q532 0 523 0 L531 29 L593 49 L660 306 Q666 327 672.5 351.5 Q679 376 686 401.5 Q693 427 700.5 451.5 Q708 476 714 496 Q702 477 686 452 Q670 427 652.5 400 Q635 373 616.5 345 Q598 317 582 292 L383 -3 L332 -3 L291 264 Q279 339 271 400 Q263 461 261 511 Q253 468 239.5 407 Q226 346 211 287 L165 112 Q160 95 158.5 86 Q157 77 157 70 Q157 56 169 46.5 Q181 37 213 29 L205 0 Q185 1 160.5 2 Q136 3 115 3 Q103 3 89 2.5 Q75 2 61 1.5 Q47 1 34 0.5 Q21 0 12 0 L20 29 L82 49 L203 513 Q208 530 209.5 539 Q211 548 211 555 Q211 569 199 578.5 Q187 588 155 596 L163 625 L354 625 L399 354 Z " />
<glyph glyph-name="N" unicode="N" horiz-adv-x="690" d="M323 625 L541 176 L630 513 Q635 530 636.5 539 Q638 548 638 555 Q638 569 626 578.5 Q614 588 582 596 L590 625 Q610 624 635 623 Q660 622 683 622 Q705 622 735 623 Q765 624 783 625 L775 596 L713 576 L562 -2 L491 -2 L260 472 L165 112 Q160 95 158.5 86 Q157 77 157 70 Q157 56 169 46.5 Q181 37 213 29 L205 0 Q185 1 159.5 2 Q134 3 113 3 Q90 3 60 2 Q30 1 12 0 L20 29 L82 49 L203 513 Q208 530 209.5 539 Q211 548 211 555 Q211 569 199 578.5 Q187 588 155 596 L163 625 L323 625 Z " />
<glyph glyph-name="O" unicode="O" horiz-adv-x="625" d="M644 420 Q644 376 633.5 327 Q623 278 603 229.5 Q583 181 553 137 Q523 93 483.5 59 Q444 25 395 5 Q346 -15 289 -15 Q244 -15 206 -1 Q168 13 140 41 Q112 69 96.5 110 Q81 151 81 205 Q81 249 91.5 298 Q102 347 122 395.5 Q142 444 172 488 Q202 532 241.5 566 Q281 600 329.5 620 Q378 640 436 640 Q481 640 519 626 Q557 612 585 584 Q613 556 628.5 515 Q644 474 644 420 Z M511 451 Q511 515 489 548.5 Q467 582 429 582 Q397 582 368.5 562 Q340 542 317 510 Q293 477 274 434.5 Q255 392 241.5 346.5 Q228 301 221 256 Q214 211 214 174 Q214 110 236 76.5 Q258 43 296 43 Q328 43 356.5 63 Q385 83 408 115 Q432 148 451 190.5 Q470 233 483.5 278.5 Q497 324 504 368.5 Q511 413 511 451 Z " />
<glyph glyph-name="P" unicode="P" horiz-adv-x="572" d="M228 112 Q223 95 221.5 86 Q220 77 220 70 Q220 56 232 46.5 Q244 37 276 29 L268 0 Q258 0 241.5 0.5 Q225 1 207 1.5 Q189 2 172 2.5 Q155 3 143 3 Q130 3 111.5 2.5 Q93 2 74 1.5 Q55 1 38 0.5 Q21 0 12 0 L20 29 L82 49 L203 513 Q208 530 209.5 539 Q211 548 211 555 Q211 569 199 578.5 Q187 588 155 596 L163 625 L394 625 Q462 625 509.5 610.5 Q557 596 583 570 Q601 552 610 528 Q619 504 619 477 Q619 427 595 385.5 Q571 344 529 314.5 Q487 285 430.5 268.5 Q374 252 308 252 L265 252 L228 112 Z M277 300 L293 300 Q340 300 376.5 317 Q413 334 438 360.5 Q463 387 476 419.5 Q489 452 489 483 Q489 521 467 545 Q437 576 368 576 L349 576 L277 300 Z " />
<glyph glyph-name="Q" unicode="Q" horiz-adv-x="625" d="M644 420 Q644 365 628 302.5 Q612 240 580.5 182 Q549 124 502.5 76.5 Q456 29 396 5 Q401 -77 464 -120.5 Q527 -164 656 -169 L647 -203 Q550 -203 474.5 -191.5 Q399 -180 347 -152 Q302 -128 278.5 -91.5 Q255 -55 247 -11 Q173 0 127 54.5 Q81 109 81 205 Q81 249 91.5 298 Q102 347 122 395.5 Q142 444 172 488 Q202 532 241.5 566 Q281 600 329.5 620 Q378 640 436 640 Q481 640 519 626 Q557 612 585 584 Q613 556 628.5 515 Q644 474 644 420 Z M511 451 Q511 515 489 548.5 Q467 582 429 582 Q397 582 368.5 562 Q340 542 317 510 Q293 477 274 434.5 Q255 392 241.5 346.5 Q228 301 221 256 Q214 211 214 174 Q214 110 236 76.5 Q258 43 296 43 Q328 43 356.5 63 Q385 83 408 115 Q432 148 451 190.5 Q470 233 483.5 278.5 Q497 324 504 368.5 Q511 413 511 451 Z " />
<glyph glyph-name="R" unicode="R" horiz-adv-x="629" d="M594 23 Q573 8 546.5 -1 Q520 -10 497 -10 Q455 -10 434.5 14 Q414 38 403 87 L382 185 Q376 210 369 226 Q362 242 350.5 251 Q339 260 323 263 Q307 266 285 266 L269 266 L228 112 Q223 95 221.5 86 Q220 77 220 70 Q220 56 232 46.5 Q244 37 276 29 L268 0 Q258 0 241.5 0.5 Q225 1 207 1.5 Q189 2 172 2.5 Q155 3 143 3 Q130 3 111.5 2.5 Q93 2 74 1.5 Q55 1 38 0.5 Q21 0 12 0 L20 29 L82 49 L203 513 Q208 530 209.5 539 Q211 548 211 555 Q211 569 199 578.5 Q187 588 155 596 L163 625 L389 625 Q528 625 584 569 Q619 534 619 483 Q619 419 572 370 Q525 321 445 298 Q469 284 482 261 Q495 238 504 198 L526 99 Q531 76 539 65 Q547 54 566 54 Q574 54 585 56.5 Q596 59 604 62 L594 23 Z M281 314 L294 314 Q339 314 375 329 Q411 344 436.5 368 Q462 392 475.5 423 Q489 454 489 487 Q489 508 483 523 Q477 538 466 549 Q452 563 428.5 569.5 Q405 576 373 576 L349 576 L281 314 Z " />
<glyph glyph-name="S" unicode="S" horiz-adv-x="517" d="M475 194 Q475 144 454.5 105 Q434 66 399.5 39.5 Q365 13 320 -1 Q275 -15 225 -15 Q177 -15 128.5 -4.5 Q80 6 48 22 Q58 57 68.5 96 Q79 135 87 170 L124 170 Q122 143 128 119 Q134 95 148 76.5 Q162 58 184 47.5 Q206 37 235 37 Q262 37 284 46 Q306 55 322 70.5 Q338 86 347 106.5 Q356 127 356 149 Q356 180 338 206 Q320 232 274 267 Q241 291 217.5 312 Q194 333 178.5 353 Q163 373 155.5 394.5 Q148 416 148 442 Q148 488 167 525 Q186 562 218.5 587.5 Q251 613 295 626.5 Q339 640 389 640 Q434 640 476 632 Q518 624 558 619 Q554 605 549 585 Q544 565 539 543.5 Q534 522 529.5 502 Q525 482 522 469 L486 469 Q488 520 463.5 553.5 Q439 587 385 587 Q334 587 300.5 558.5 Q267 530 267 487 Q267 456 284.5 429.5 Q302 403 349 369 Q414 321 444.5 282.5 Q475 244 475 194 Z " />
<glyph glyph-name="T" unicode="T" horiz-adv-x="594" d="M477 578 L356 112 Q351 95 349.5 86 Q348 77 348 70 Q348 56 360 46.5 Q372 37 404 29 L396 0 Q386 0 369.5 0.5 Q353 1 335 1.5 Q317 2 300 2.5 Q283 3 271 3 Q258 3 239.5 2.5 Q221 2 202 1.5 Q183 1 166 0.5 Q149 0 140 0 L148 29 L210 49 L348 578 L309 578 Q278 578 255.5 573.5 Q233 569 215 556.5 Q197 544 181.5 521.5 Q166 499 148 462 L106 462 Q110 477 117 498.5 Q124 520 131 543.5 Q138 567 144.5 588.5 Q151 610 155 625 L692 625 Q688 609 683 586.5 Q678 564 673.5 540.5 Q669 517 664.5 496 Q660 475 658 462 L618 462 Q619 502 614.5 525 Q610 548 598.5 560 Q587 572 567 575 Q547 578 517 578 L477 578 Z " />
<glyph glyph-name="U" unicode="U" horiz-adv-x="657" d="M255 252 Q246 219 242 195.5 Q238 172 238 153 Q238 112 264 81.5 Q290 51 346 51 Q384 51 414 65.5 Q444 80 466.5 107 Q489 134 505.5 172 Q522 210 534 256 L600 513 Q605 530 606.5 539 Q608 548 608 555 Q608 569 596 578.5 Q584 588 552 596 L560 625 Q580 624 605.5 623 Q631 622 654 622 Q676 622 705.5 623 Q735 624 753 625 L745 596 L683 576 L598 245 Q563 109 493.5 47 Q424 -15 314 -15 Q269 -15 231.5 -3.5 Q194 8 167 29.5 Q140 51 125 82 Q110 113 110 153 Q110 173 114 196.5 Q118 220 127 255 L195 513 Q200 530 201.5 539 Q203 548 203 555 Q203 569 191 578.5 Q179 588 147 596 L155 625 Q165 625 181.5 624.5 Q198 624 216 623.5 Q234 623 251 622.5 Q268 622 280 622 Q293 622 311.5 622.5 Q330 623 349 623.5 Q368 624 385 624.5 Q402 625 411 625 L403 596 L341 576 L255 252 Z " />
<glyph glyph-name="V" unicode="V" horiz-adv-x="599" d="M306 578 L349 171 L587 581 L535 596 L543 625 Q566 623 594 622.5 Q622 622 640 622 Q657 622 682.5 623 Q708 624 727 625 L719 596 Q701 594 688.5 590.5 Q676 587 666 580.5 Q656 574 647 563 Q638 552 628 535 L315 -1 L241 -1 L184 504 Q181 527 178 542 Q175 557 167.5 567 Q160 577 146.5 583.5 Q133 590 110 596 L118 625 Q126 625 142 624.5 Q158 624 176.5 623.5 Q195 623 213 622.5 Q231 622 243 622 Q256 622 273.5 622.5 Q291 623 309 623.5 Q327 624 344 624.5 Q361 625 373 625 L365 596 L306 578 Z " />
<glyph glyph-name="W" unicode="W" horiz-adv-x="899" d="M661 182 L887 581 L835 596 L843 625 Q866 623 894 622.5 Q922 622 940 622 Q957 622 982.5 623 Q1008 624 1027 625 L1019 596 Q1001 594 988 591 Q975 588 965 581 Q955 574 946.5 563 Q938 552 928 535 L625 -1 L554 -1 L529 374 L304 -1 L232 -1 L184 504 Q182 527 178.5 542 Q175 557 167.5 567 Q160 577 146.5 583.5 Q133 590 110 596 L118 625 Q126 625 142 624.5 Q158 624 176.5 623.5 Q195 623 213 622.5 Q231 622 243 622 Q256 622 273.5 622.5 Q291 623 309 623.5 Q327 624 344 624.5 Q361 625 373 625 L365 596 L304 577 L341 168 L522 475 L520 509 Q518 533 515 547.5 Q512 562 505 571 Q498 580 485.5 585 Q473 590 453 596 L461 625 Q469 625 483.5 624.5 Q498 624 515 623.5 Q532 623 548.5 622.5 Q565 622 577 622 Q590 622 606.5 622.5 Q623 623 640.5 623.5 Q658 624 674 624.5 Q690 625 702 625 L694 596 L635 577 L661 182 Z " />
<glyph glyph-name="X" unicode="X" horiz-adv-x="610" d="M395 400 L558 582 L512 596 L520 625 Q528 625 541 624.5 Q554 624 568 623.5 Q582 623 595.5 622.5 Q609 622 619 622 Q638 622 665 622.5 Q692 623 712 625 L704 596 Q685 594 670.5 590.5 Q656 587 643.5 580.5 Q631 574 618.5 563.5 Q606 553 591 536 L417 342 L508 97 Q515 79 522 67.5 Q529 56 539 49 Q549 42 561.5 37.5 Q574 33 591 29 L583 0 Q576 0 561 0.5 Q546 1 528 1.5 Q510 2 492 2.5 Q474 3 461 3 Q447 3 427.5 2.5 Q408 2 389.5 1.5 Q371 1 354.5 0.5 Q338 0 330 0 L338 29 L393 45 L319 245 L139 43 L185 29 L177 0 Q169 0 156 0.5 Q143 1 129 1.5 Q115 2 101.5 2.5 Q88 3 78 3 Q59 3 31.5 2.5 Q4 2 -16 0 L-8 29 Q11 31 25.5 34.5 Q40 38 53 44.5 Q66 51 78.5 61.5 Q91 72 106 89 L297 302 L214 528 Q207 546 200 557.5 Q193 569 183 576 Q173 583 160.5 587.5 Q148 592 131 596 L139 625 Q146 625 161 624.5 Q176 624 194.5 623.5 Q213 623 231 622.5 Q249 622 262 622 Q276 622 295 622.5 Q314 623 333 623.5 Q352 624 368 624.5 Q384 625 392 625 L384 596 L329 580 L395 400 Z " />
<glyph glyph-name="Y" unicode="Y" horiz-adv-x="566" d="M383 238 L349 112 Q344 95 342.5 86 Q341 77 341 70 Q341 56 353 46.5 Q365 37 397 29 L389 0 Q379 0 362.5 0.5 Q346 1 328 1.5 Q310 2 293 2.5 Q276 3 264 3 Q251 3 232.5 2.5 Q214 2 195 1.5 Q176 1 159 0.5 Q142 0 133 0 L141 29 L203 49 L251 236 L179 530 Q174 548 169 559 Q164 570 155.5 577 Q147 584 135.5 588.5 Q124 593 106 596 L113 625 Q120 625 136 624.5 Q152 624 170 623.5 Q188 623 205 622.5 Q222 622 232 622 Q244 622 262.5 622.5 Q281 623 300 623.5 Q319 624 335.5 624.5 Q352 625 360 625 L353 596 L299 579 L364 307 L557 581 L505 596 L513 625 Q536 623 563.5 622.5 Q591 622 609 622 Q626 622 654 623 Q682 624 701 625 L693 596 Q674 594 660.5 590.5 Q647 587 636 580 Q625 573 615 562.5 Q605 552 593 536 L383 238 Z " />
<glyph glyph-name="Z" unicode="Z" horiz-adv-x="550" d="M620 594 Q584 544 532 477.5 Q480 411 421 337.5 Q362 264 299.5 189.5 Q237 115 180 48 L314 48 Q354 48 381 56 Q408 64 428 83 Q442 96 453.5 114.5 Q465 133 477 159 L517 159 Q512 142 505.5 120.5 Q499 99 492.5 77 Q486 55 480.5 35 Q475 15 471 0 L41 0 L28 31 Q64 81 115 148 Q166 215 224.5 288 Q283 361 345 436 Q407 511 464 577 L262 577 L183 470 L145 470 Q149 482 155.5 502.5 Q162 523 168.5 545.5 Q175 568 181 589.5 Q187 611 191 625 L607 625 L620 594 Z " />
<glyph glyph-name="a" unicode="a" horiz-adv-x="516" d="M366 -9 Q335 -9 318 10.5 Q301 30 301 62 Q281 30 246.5 7.5 Q212 -15 174 -15 Q143 -15 119 -3 Q95 9 78.5 30.5 Q62 52 53 81 Q44 110 44 144 Q44 202 67 258.5 Q90 315 129 360 Q168 405 219 432.5 Q270 460 325 460 Q353 460 376.5 452.5 Q400 445 419 431 L441 460 L511 450 L518 442 L429 114 Q422 86 422 75 Q422 56 440 56 Q448 56 457.5 58.5 Q467 61 476 65 L466 26 Q445 12 418 1.5 Q391 -9 366 -9 Z M379 380 Q361 403 332 403 Q300 403 270.5 375.5 Q241 348 219 307 Q197 266 184 219.5 Q171 173 171 134 Q171 101 183 81 Q195 61 218 61 Q235 61 251 72 Q267 83 281 102 Q300 127 315.5 165 Q331 203 342 243 L379 380 Z " />
<glyph glyph-name="b" unicode="b" horiz-adv-x="510" d="M379 316 Q379 344 368.5 364 Q358 384 335 384 Q319 384 303.5 373.5 Q288 363 274 345 Q251 316 231.5 271.5 Q212 227 196 170 L168 65 Q176 54 189.5 48 Q203 42 217 42 Q248 42 277.5 70 Q307 98 329.5 139.5 Q352 181 365.5 228.5 Q379 276 379 316 Z M506 309 Q506 249 482.5 190.5 Q459 132 420 86.5 Q381 41 330.5 13 Q280 -15 226 -15 Q198 -15 172.5 -7 Q147 1 128 14 L106 -15 L36 -5 L29 3 L182 577 Q184 583 185 589 Q186 595 186 600 Q186 615 175 623 Q164 631 140 638 L147 665 Q171 665 196.5 665.5 Q222 666 245 666.5 Q268 667 287.5 668.5 Q307 670 320 672 L327 664 L296 549 Q283 500 267 452 Q251 404 235 362 L237 362 Q261 405 300 432.5 Q339 460 384 460 Q409 460 431.5 449.5 Q454 439 470.5 419.5 Q487 400 496.5 372 Q506 344 506 309 Z " />
<glyph glyph-name="c" unicode="c" horiz-adv-x="436" d="M400 306 Q402 346 387 374.5 Q372 403 334 403 Q299 403 269 378.5 Q239 354 217.5 317 Q196 280 184 236 Q172 192 172 153 Q172 111 190.5 88.5 Q209 66 247 66 Q276 66 310 82.5 Q344 99 374 128 L400 102 Q362 51 307 18 Q252 -15 194 -15 Q125 -15 84.5 29 Q44 73 44 147 Q44 178 51.5 210.5 Q59 243 73.5 275 Q88 307 108.5 336 Q129 365 155 389 Q190 421 236 440.5 Q282 460 336 460 Q367 460 403.5 452.5 Q440 445 472 438 Q468 426 463 409 Q458 392 453 373.5 Q448 355 443.5 337 Q439 319 436 306 L400 306 Z " />
<glyph glyph-name="d" unicode="d" horiz-adv-x="517" d="M367 -9 Q335 -9 318 10.5 Q301 30 301 62 Q281 30 246.5 7.5 Q212 -15 174 -15 Q143 -15 119 -3 Q95 9 78.5 30.5 Q62 52 53 81 Q44 110 44 144 Q44 202 67 258.5 Q90 315 129 360 Q168 405 219 432.5 Q270 460 325 460 Q366 460 398 443 L434 577 Q436 583 437 589 Q438 595 438 600 Q438 615 426.5 623 Q415 631 392 638 L399 665 Q423 665 448.5 665.5 Q474 666 497 666.5 Q520 667 539.5 668.5 Q559 670 572 672 L579 664 L430 114 Q423 86 423 75 Q423 56 441 56 Q449 56 458.5 58.5 Q468 61 477 65 L467 26 Q446 12 419 1.5 Q392 -9 367 -9 Z M171 134 Q171 101 183 81 Q195 61 218 61 Q236 61 252 72 Q268 83 282 102 Q301 127 316.5 165 Q332 203 343 243 L380 382 Q372 392 359 397.5 Q346 403 332 403 Q300 403 270.5 375.5 Q241 348 219 307 Q197 266 184 219.5 Q171 173 171 134 Z " />
<glyph glyph-name="e" unicode="e" horiz-adv-x="448" d="M414 106 Q397 81 373 59 Q349 37 321 20.5 Q293 4 263 -5.5 Q233 -15 203 -15 Q167 -15 138 -3.5 Q109 8 88 29.5 Q67 51 55.5 81 Q44 111 44 149 Q44 204 66 259.5 Q88 315 126 359.5 Q164 404 216 432 Q268 460 327 460 Q354 460 377.5 454 Q401 448 418.5 435.5 Q436 423 446.5 404.5 Q457 386 457 361 Q457 325 433.5 292.5 Q410 260 370.5 235 Q331 210 279.5 194.5 Q228 179 173 177 Q172 172 172 167.5 Q172 163 172 161 Q172 116 191 91 Q210 66 248 66 Q283 66 319.5 84.5 Q356 103 388 132 L414 106 Z M182 226 Q218 230 248.5 244 Q279 258 301.5 277.5 Q324 297 337 320 Q350 343 350 366 Q350 383 341 393.5 Q332 404 314 404 Q292 404 271.5 387.5 Q251 371 234 345.5 Q217 320 203.5 288.5 Q190 257 182 226 Z " />
<glyph glyph-name="f" unicode="f" horiz-adv-x="323" d="M97 -220 L-25 -220 L142 398 L75 398 L88 444 L155 444 Q169 494 193 539 Q217 584 249 617 Q278 646 316 663 Q354 680 399 680 Q454 680 486.5 661.5 Q519 643 519 622 Q519 610 513 598 Q507 586 497.5 576 Q488 566 476 559.5 Q464 553 452 553 Q436 553 427 565.5 Q418 578 410 593 Q402 608 393 620.5 Q384 633 369 633 Q355 633 344.5 622.5 Q334 612 323.5 589 Q313 566 301.5 530.5 Q290 495 276 444 L388 444 L367 398 L264 398 L97 -220 Z " />
<glyph glyph-name="g" unicode="g" horiz-adv-x="487" d="M248 130 Q213 130 186 137 Q173 126 173 113 Q173 99 188.5 91.5 Q204 84 248 71 Q293 57 325 44.5 Q357 32 377.5 17.5 Q398 3 408 -15 Q418 -33 418 -57 Q418 -92 396 -124 Q374 -156 335.5 -180.5 Q297 -205 246.5 -219.5 Q196 -234 139 -234 Q102 -234 68 -226.5 Q34 -219 8.5 -204.5 Q-17 -190 -32.5 -168.5 Q-48 -147 -48 -120 Q-48 -76 -10 -44 Q28 -12 86 8 Q65 29 65 58 Q65 86 86 111 Q107 136 141 155 Q112 172 95.5 199.5 Q79 227 79 265 Q79 305 97 341 Q115 377 146.5 403 Q178 429 219.5 444.5 Q261 460 308 460 Q346 460 379 449 Q397 487 423 514 Q449 541 481 540 Q501 540 515 528 Q529 516 529 493 Q529 480 523.5 465 Q518 450 511 437 Q503 444 492.5 448.5 Q482 453 471 453 Q456 453 443.5 446.5 Q431 440 420 431 Q446 414 461.5 386.5 Q477 359 477 324 Q477 284 459 248.5 Q441 213 409.5 187 Q378 161 336.5 145.5 Q295 130 248 130 Z M207 -48 Q184 -40 163 -33 Q142 -26 125 -18 Q101 -34 85.5 -56 Q70 -78 70 -106 Q70 -137 97 -156 Q124 -175 172 -175 Q201 -175 225.5 -169.5 Q250 -164 268 -154 Q286 -144 296 -132 Q306 -120 306 -106 Q306 -87 283.5 -76 Q261 -65 207 -48 Z M355 342 Q355 372 342.5 389 Q330 406 306 406 Q274 406 247 376 Q226 352 213.5 316 Q201 280 201 248 Q201 218 213.5 201 Q226 184 250 184 Q282 184 309 214 Q330 238 342.5 274 Q355 310 355 342 Z " />
<glyph glyph-name="h" unicode="h" horiz-adv-x="528" d="M439 77 Q439 56 458 56 Q465 56 474.5 58.5 Q484 61 493 65 L483 26 Q462 12 434 1.5 Q406 -9 382 -9 Q350 -9 333 9 Q316 27 316 59 Q316 69 318 82.5 Q320 96 324.5 115.5 Q329 135 337 162 Q345 189 357 227 Q370 268 376 292 Q382 316 382 332 Q382 350 372 361.5 Q362 373 343 373 Q326 373 310 364 Q294 355 280 339 Q245 301 221.5 239.5 Q198 178 179 109 L150 0 L28 0 L182 577 Q184 583 185 589 Q186 595 186 600 Q186 615 175 623 Q164 631 140 638 L147 665 Q171 665 196.5 665.5 Q222 666 245 666.5 Q268 667 287.5 668.5 Q307 670 320 672 L327 664 L296 549 Q281 494 264 439.5 Q247 385 231 343 L233 343 Q262 395 306.5 427.5 Q351 460 402 460 Q449 460 478 431 Q507 402 507 350 Q507 323 498 289 Q489 255 474 207 Q463 174 456 152 Q449 130 445.5 115.5 Q442 101 440.5 92 Q439 83 439 77 Z " />
<glyph glyph-name="i" unicode="i" horiz-adv-x="273" d="M56 59 Q56 73 59.5 91 Q63 109 69 132 L130 356 Q132 362 133 368 Q134 374 134 379 Q134 394 122.5 402 Q111 410 88 417 L95 444 Q119 444 144.5 444.5 Q170 445 193 445.5 Q216 446 235.5 447.5 Q255 449 268 451 L275 443 L186 114 Q179 86 179 75 Q179 56 197 56 Q205 56 214.5 58.5 Q224 61 233 65 L223 26 Q202 12 174 1.5 Q146 -9 122 -9 Q90 -9 73 9 Q56 27 56 59 Z M230 510 Q207 510 192 523.5 Q177 537 177 563 Q177 580 184 595.5 Q191 611 202.5 623 Q214 635 229 642 Q244 649 261 649 Q284 649 299 635.5 Q314 622 314 596 Q314 579 307 563.5 Q300 548 288.5 536 Q277 524 262 517 Q247 510 230 510 Z " />
<glyph glyph-name="j" unicode="j" horiz-adv-x="262" d="M159 23 Q141 -43 121 -82 Q101 -121 75 -149 Q44 -181 1 -200.5 Q-42 -220 -96 -228 L-103 -197 Q-56 -175 -29 -144 Q-8 -119 5.5 -86 Q19 -53 33 0 L128 356 Q130 362 131 368 Q132 374 132 379 Q132 394 120.5 402 Q109 410 86 417 L93 444 Q117 444 142.5 444.5 Q168 445 191 445.5 Q214 446 233.5 447.5 Q253 449 266 451 L273 443 L159 23 Z M228 510 Q205 510 190 523.5 Q175 537 175 563 Q175 580 182 595.5 Q189 611 200.5 623 Q212 635 227 642 Q242 649 259 649 Q282 649 297 635.5 Q312 622 312 596 Q312 579 305 563.5 Q298 548 286.5 536 Q275 524 260 517 Q245 510 228 510 Z " />
<glyph glyph-name="k" unicode="k" horiz-adv-x="489" d="M28 0 L184 577 Q186 583 187 589 Q188 595 188 600 Q188 615 176.5 623 Q165 631 142 638 L149 665 Q173 665 198.5 665.5 Q224 666 247 666.5 Q270 667 289.5 668.5 Q309 670 322 672 L329 664 L222 268 L279 309 Q327 343 353.5 373.5 Q380 404 395 441 L529 444 L529 432 L341 299 L390 98 Q395 78 402.5 67.5 Q410 57 428 57 Q436 57 447 59.5 Q458 62 466 65 L456 27 Q436 12 410 1.5 Q384 -9 361 -9 Q328 -9 308 11 Q287 32 275 84 L240 229 L204 204 L149 0 L28 0 Z " />
<glyph glyph-name="l" unicode="l" horiz-adv-x="266" d="M50 59 Q50 73 53.5 91 Q57 109 63 132 L184 577 Q186 583 187 589 Q188 595 188 600 Q188 615 176.5 623 Q165 631 142 638 L149 665 Q173 665 198.5 665.5 Q224 666 247 666.5 Q270 667 289.5 668.5 Q309 670 322 672 L329 664 L180 114 Q173 86 173 75 Q173 56 191 56 Q199 56 208.5 58.5 Q218 61 227 65 L217 26 Q196 12 168 1.5 Q140 -9 116 -9 Q84 -9 67 9 Q50 27 50 59 Z " />
<glyph glyph-name="m" unicode="m" horiz-adv-x="785" d="M696 77 Q696 56 715 56 Q722 56 731.5 58.5 Q741 61 750 65 L740 26 Q719 12 691 1.5 Q663 -9 639 -9 Q607 -9 590 9 Q573 27 573 59 Q573 69 575 82.5 Q577 96 581.5 115.5 Q586 135 594 162 Q602 189 614 227 Q627 268 633 292 Q639 316 639 332 Q639 350 630 361.5 Q621 373 602 373 Q566 373 535.5 331.5 Q505 290 479 221 Q458 164 443.5 106 Q429 48 426 0 L307 0 Q308 24 311.5 48 Q315 72 321 97.5 Q327 123 335 152 Q343 181 354 215 Q368 257 375.5 286 Q383 315 383 332 Q383 350 374 361.5 Q365 373 346 373 Q329 373 313.5 364 Q298 355 284 339 Q249 301 226 239.5 Q203 178 184 109 L155 0 L33 0 L128 356 Q130 362 131 368 Q132 374 132 379 Q132 394 121 402 Q110 410 86 417 L93 444 Q142 444 185 445.5 Q228 447 254 451 L261 443 L236 343 L238 343 Q267 395 310.5 427.5 Q354 460 405 460 Q448 460 475.5 435 Q503 410 507 365 Q536 408 575.5 434 Q615 460 661 460 Q708 460 736 431 Q764 402 764 350 Q764 323 755 289 Q746 255 731 207 Q720 174 713 152 Q706 130 702.5 115.5 Q699 101 697.5 92 Q696 83 696 77 Z " />
<glyph glyph-name="n" unicode="n" horiz-adv-x="533" d="M488 26 Q467 12 439 1.5 Q411 -9 387 -9 Q355 -9 338 9 Q321 27 321 59 Q321 69 323 82.5 Q325 96 329.5 115.5 Q334 135 342 162 Q350 189 362 227 Q375 268 381 292 Q387 316 387 332 Q387 350 377 361.5 Q367 373 348 373 Q331 373 315 364 Q299 355 285 339 Q250 301 226.5 239.5 Q203 178 184 109 L155 0 L33 0 L128 356 Q130 362 131 368 Q132 374 132 379 Q132 394 120.5 402 Q109 410 86 417 L93 444 Q142 444 185 445.5 Q228 447 254 451 L261 443 L236 343 L238 343 Q267 395 311.5 427.5 Q356 460 407 460 Q454 460 483 431 Q512 402 512 350 Q512 323 503 289 Q494 255 479 207 Q468 174 461 152 Q454 130 450.5 115.5 Q447 101 445.5 92.5 Q444 84 444 77 Q444 56 463 56 Q470 56 479.5 58.5 Q489 61 498 65 L488 26 Z " />
<glyph glyph-name="o" unicode="o" horiz-adv-x="491" d="M216 -15 Q175 -15 143 -2 Q111 11 89 34 Q67 57 55.5 89 Q44 121 44 159 Q44 214 64 267.5 Q84 321 120 364 Q156 407 205.5 433.5 Q255 460 315 460 Q356 460 388 447 Q420 434 442 411 Q464 388 475.5 356 Q487 324 487 286 Q487 231 467 177 Q447 123 411 80.5 Q375 38 325.5 11.5 Q276 -15 216 -15 Z M220 41 Q248 41 273.5 71.5 Q299 102 318 146.5 Q337 191 348 240 Q359 289 359 327 Q359 365 346.5 384.5 Q334 404 311 404 Q292 404 274.5 390 Q257 376 241.5 352.5 Q226 329 213 298.5 Q200 268 191 236.5 Q182 205 177 174 Q172 143 172 118 Q172 80 184.5 60.5 Q197 41 220 41 Z " />
<glyph glyph-name="p" unicode="p" horiz-adv-x="514" d="M231 -15 Q211 -15 192 -10 Q173 -5 156 3 L96 -220 L-27 -220 L128 356 Q130 362 131 368 Q132 374 132 379 Q132 394 120 402 Q108 410 85 417 L92 444 Q141 444 182 445.5 Q223 447 249 451 L255 443 L241 362 L243 362 Q267 407 306 433.5 Q345 460 390 460 Q418 460 440.5 448.5 Q463 437 478.5 416.5 Q494 396 502 368.5 Q510 341 510 309 Q510 247 487 189 Q464 131 425.5 86 Q387 41 336.5 13 Q286 -15 231 -15 Z M172 65 Q180 54 193.5 47.5 Q207 41 221 41 Q252 41 281 67 Q310 93 332.5 133.5 Q355 174 369 222.5 Q383 271 383 316 Q383 344 373 364 Q363 384 340 384 Q325 384 309.5 373.5 Q294 363 280 345 Q257 316 237 272 Q217 228 201 171 L172 65 Z " />
<glyph glyph-name="q" unicode="q" horiz-adv-x="507" d="M363 -132 Q361 -138 360 -144 Q359 -150 359 -155 Q359 -170 370 -178 Q381 -186 405 -193 L398 -220 Q374 -220 348.5 -220.5 Q323 -221 300 -221.5 Q277 -222 257.5 -223.5 Q238 -225 225 -227 L218 -219 L249 -104 Q260 -62 273 -19 Q286 24 300 60 Q277 26 243 5.5 Q209 -15 174 -15 Q143 -15 119 -3 Q95 9 78.5 30.5 Q62 52 53 81 Q44 110 44 144 Q44 202 67.5 258.5 Q91 315 130 360 Q169 405 220 432.5 Q271 460 326 460 Q354 460 377.5 452.5 Q401 445 420 431 L442 460 L512 450 L519 442 L363 -132 Z M380 380 Q362 403 332 403 Q300 403 270.5 375.5 Q241 348 219 307 Q197 266 184 219.5 Q171 173 171 134 Q171 101 183 81 Q195 61 218 61 Q235 61 251.5 72 Q268 83 282 102 Q301 127 316.5 165 Q332 203 343 243 L380 380 Z " />
<glyph glyph-name="r" unicode="r" horiz-adv-x="398" d="M236 336 Q268 393 311 426.5 Q354 460 396 460 Q420 460 433 448.5 Q446 437 446 417 Q446 403 441 390.5 Q436 378 427.5 368 Q419 358 408.5 352 Q398 346 387 346 Q372 346 361.5 354.5 Q351 363 334 363 Q312 363 291 342.5 Q270 322 250.5 287 Q231 252 214 206 Q197 160 184 109 L155 0 L33 0 L128 356 Q130 362 131 368 Q132 374 132 379 Q132 394 120.5 402 Q109 410 86 417 L93 444 Q142 444 185 445.5 Q228 447 254 451 L261 443 L234 336 L236 336 Z " />
<glyph glyph-name="s" unicode="s" horiz-adv-x="421" d="M91 138 Q91 97 115 67.5 Q139 38 184 38 Q220 38 244 56.5 Q268 75 268 100 Q268 122 248.5 137.5 Q229 153 202 169 Q182 181 163 193.5 Q144 206 129 221.5 Q114 237 105 256.5 Q96 276 96 302 Q96 335 110.5 363.5 Q125 392 151.5 413.5 Q178 435 214 447.5 Q250 460 292 460 Q324 460 364.5 453.5 Q405 447 437 443 Q434 433 429 416.5 Q424 400 419 382 Q414 364 410 347 Q406 330 403 319 L370 319 Q369 361 347.5 384 Q326 407 288 407 Q254 407 231.5 390 Q209 373 209 347 Q209 324 228.5 308.5 Q248 293 275 276 Q294 264 313 251.5 Q332 239 347 223.5 Q362 208 371.5 188.5 Q381 169 381 143 Q381 109 365.5 80 Q350 51 322 30 Q294 9 255.5 -3 Q217 -15 172 -15 Q137 -15 95.5 -7 Q54 1 24 13 Q28 24 32.5 41 Q37 58 42 76 Q47 94 51 110.5 Q55 127 57 138 L91 138 L91 138 Z " />
<glyph glyph-name="t" unicode="t" horiz-adv-x="342" d="M320 57 Q286 24 243 4.5 Q200 -15 158 -15 Q116 -15 88.5 8 Q61 31 61 77 Q61 93 64 112 Q67 131 76 163 L140 398 L73 398 L86 444 L153 444 L176 524 L298 567 L306 559 L275 444 L386 444 L365 398 L262 398 L190 134 Q186 120 184 109 Q182 98 182 89 Q182 55 218 55 Q237 55 259.5 64.5 Q282 74 301 88 L320 57 Z " />
<glyph glyph-name="u" unicode="u" horiz-adv-x="532" d="M534 444 L446 114 Q439 86 439 75 Q439 56 457 56 Q465 56 474.5 58.5 Q484 61 493 65 L483 26 Q462 12 434 1.5 Q406 -9 382 -9 Q350 -9 333 9 Q316 27 316 59 Q316 64 316.5 70 Q317 76 318 82 Q291 39 250.5 12 Q210 -15 165 -15 Q115 -15 87.5 15.5 Q60 46 60 96 Q60 115 64 137 Q68 159 78 195 L123 356 Q125 362 126 368 Q127 374 127 379 Q127 394 115.5 402 Q104 410 81 417 L88 444 Q137 444 185.5 445.5 Q234 447 260 451 L268 443 L201 200 Q190 162 187 143 Q184 124 184 113 Q184 95 193.5 83.5 Q203 72 222 72 Q253 72 283 105 Q299 123 313.5 148 Q328 173 340 203.5 Q352 234 363 267.5 Q374 301 383 336 L412 444 L534 444 Z " />
<glyph glyph-name="v" unicode="v" horiz-adv-x="460" d="M106 353 Q106 368 104.5 378 Q103 388 97 395 Q91 402 80 407 Q69 412 50 417 L57 444 Q103 444 148 445.5 Q193 447 217 450 L225 443 L223 100 Q289 167 328 257 Q367 347 372 448 L492 442 Q489 392 458.5 330.5 Q428 269 381.5 207.5 Q335 146 278 90 Q221 34 165 -5 L106 -5 L106 353 Z " />
<glyph glyph-name="w" unicode="w" horiz-adv-x="697" d="M225 104 Q254 134 279 171.5 Q304 209 322.5 252.5 Q341 296 351.5 344.5 Q362 393 362 445 L473 444 L474 98 Q542 170 575 261 Q608 352 611 448 L729 442 Q728 396 702 336 Q676 276 632.5 214.5 Q589 153 533 95 Q477 37 416 -5 L359 -5 L357 213 Q344 185 323.5 155 Q303 125 278 96.5 Q253 68 224.5 42 Q196 16 167 -5 L110 -5 L106 353 Q106 368 104.5 378 Q103 388 97 395 Q91 402 80 407 Q69 412 50 417 L57 444 Q103 444 148 445.5 Q193 447 217 450 L225 443 L225 104 Z " />
<glyph glyph-name="x" unicode="x" horiz-adv-x="480" d="M299 300 Q347 372 391.5 416 Q436 460 485 460 Q493 460 500 459 Q507 458 512 456 Q504 427 497 399 Q490 371 482 341 Q464 349 447 349 Q418 349 387 328 Q356 307 314 259 L380 86 Q387 68 394.5 60.5 Q402 53 415 53 Q424 53 434.5 56 Q445 59 453 63 L443 25 Q426 10 401.5 0.5 Q377 -9 354 -9 Q316 -9 295.5 12 Q275 33 259 74 L230 150 Q188 83 137 37 Q86 -9 34 -13 Q30 7 25 34 Q20 61 15 84 Q80 95 126.5 121 Q173 147 214 192 L154 351 Q148 368 142.5 379 Q137 390 129.5 397.5 Q122 405 111 409 Q100 413 82 417 L88 444 Q138 444 174.5 446 Q211 448 235 451 L244 445 L299 300 Z " />
<glyph glyph-name="y" unicode="y" horiz-adv-x="523" d="M241 -94 Q261 -68 276.5 -36.5 Q292 -5 303 36 L313 75 Q287 37 248.5 11 Q210 -15 166 -15 Q116 -15 88 15.5 Q60 46 60 96 Q60 115 64 137 Q68 159 78 195 L123 356 Q125 362 126 368 Q127 374 127 379 Q127 394 115.5 402 Q104 410 81 417 L88 444 Q137 444 185.5 445.5 Q234 447 260 451 L268 443 L201 200 Q190 162 187 143 Q184 124 184 113 Q184 95 193.5 83.5 Q203 72 222 72 Q253 72 283 105 Q299 123 313.5 148 Q328 173 340 203.5 Q352 234 363 267.5 Q374 301 383 336 L412 444 L534 444 L435 75 Q418 9 395 -37 Q372 -83 340 -118 Q255 -209 81 -228 L74 -195 Q130 -180 171 -155.5 Q212 -131 241 -94 Z " />
<glyph glyph-name="z" unicode="z" horiz-adv-x="452" d="M236 47 Q264 47 285.5 50.5 Q307 54 323.5 63.5 Q340 73 353 88.5 Q366 104 379 128 L410 128 Q402 99 391.5 62 Q381 25 376 0 L16 0 L7 12 Q39 69 117.5 163 Q196 257 328 397 L276 397 Q246 397 223.5 393.5 Q201 390 184 381.5 Q167 373 154 357.5 Q141 342 129 318 L97 318 Q106 347 115 381 Q124 415 131 444 L480 444 L488 432 Q456 375 377 281 Q298 187 166 47 L236 47 Z " />
<glyph glyph-name="ampersand" unicode="&#x26;" horiz-adv-x="662" d="M544 300 Q502 297 484.5 286 Q467 275 464 241 L432 239 Q427 264 427 285 Q427 344 458 367 Q489 390 553 394 Q580 395 597.5 399 Q615 403 626.5 410.5 Q638 418 644.5 429 Q651 440 656 456 L688 453 L685 423 Q679 363 658 335.5 Q637 308 592 303 Q593 297 593.5 291 Q594 285 594 278 Q594 219 572.5 166 Q551 113 512 73 Q473 33 419.5 9 Q366 -15 302 -15 Q256 -15 215 -2 Q174 11 143.5 36.5 Q113 62 95 99.5 Q77 137 77 185 Q77 225 91 258 Q105 291 129 316.5 Q153 342 184.5 359.5 Q216 377 252 386 Q228 400 213 424.5 Q198 449 198 478 Q198 517 216 547 Q234 577 265 597.5 Q296 618 335.5 629 Q375 640 419 640 Q460 640 502.5 631 Q545 622 577 608 Q574 601 569.5 585.5 Q565 570 559.5 552 Q554 534 548.5 516 Q543 498 539 485 L505 485 L505 501 Q505 538 484 562.5 Q463 587 421 587 Q397 587 377 578.5 Q357 570 342 556 Q327 542 318.5 523 Q310 504 310 482 Q310 447 334 423.5 Q358 400 409 398 L386 354 Q351 352 319 341 Q287 330 262.5 310 Q238 290 223.5 261 Q209 232 209 195 Q209 164 219.5 140 Q230 116 248.5 100 Q267 84 291.5 75.5 Q316 67 344 67 Q392 67 429 87 Q466 107 491.5 140 Q517 173 530.5 215 Q544 257 544 300 Z " />
<glyph glyph-name="at" unicode="&#x40;" horiz-adv-x="781" d="M565 264 Q560 248 558.5 238.5 Q557 229 557 221 Q557 210 563 201.5 Q569 193 583 193 Q602 193 621 209 Q640 225 655 252.5 Q670 280 679 316.5 Q688 353 688 393 Q688 436 674.5 473 Q661 510 635 536 Q609 562 571.5 577 Q534 592 487 592 Q422 592 367 564.5 Q312 537 271 491.5 Q230 446 207 386 Q184 326 184 261 Q184 210 199.5 167.5 Q215 125 244.5 95 Q274 65 318 48 Q362 31 419 31 Q485 31 550 52 Q615 73 669 111 L687 85 Q626 38 551.5 11 Q477 -16 397 -16 Q322 -16 262.5 4 Q203 24 161.5 60 Q120 96 98 147.5 Q76 199 76 262 Q76 335 106 403.5 Q136 472 190 524.5 Q244 577 320 608.5 Q396 640 488 640 Q555 640 608.5 621 Q662 602 699.5 568 Q737 534 757 488.5 Q777 443 777 389 Q777 341 760 297 Q743 253 714 219.5 Q685 186 646.5 166 Q608 146 564 146 Q524 146 500 162.5 Q476 179 470 205 Q452 176 423.5 158.5 Q395 141 359 141 Q312 141 283 171.5 Q254 202 254 256 Q254 301 271.5 341 Q289 381 318 411 Q347 441 385.5 459 Q424 477 466 477 Q505 477 533 457 L554 477 L617 468 L621 461 L565 264 Z M507 419 Q495 433 473 433 Q449 433 428 416 Q407 399 391.5 372.5 Q376 346 367 313.5 Q358 281 358 251 Q358 225 368 212.5 Q378 200 392 200 Q418 200 439.5 227.5 Q461 255 480 324 L507 419 Z " />
<glyph glyph-name="exclam" unicode="&#x21;" horiz-adv-x="271" d="M264 640 Q288 640 301.5 626 Q315 612 315 586 Q315 558 300 515 Q285 472 251 396 Q225 340 202 283 Q179 226 167 187 L130 187 Q137 229 140.5 288 Q144 347 151 409 Q158 468 169.5 520 Q181 572 203 604 Q214 621 229 630.5 Q244 640 264 640 Z M99 -15 Q75 -15 60.5 -1 Q46 13 46 35 Q46 51 53 65.5 Q60 80 71 91.5 Q82 103 97 109.5 Q112 116 129 116 Q153 116 167.5 102 Q182 88 182 66 Q182 50 175 35.5 Q168 21 157 9.5 Q146 -2 130.5 -8.5 Q115 -15 99 -15 Z " />
<glyph glyph-name="exclamdown" unicode="&#xa1;" horiz-adv-x="271" d="M57.0322 -194.922 Q33.0352 -194.922 19.5368 -180.924 Q6.03845 -166.925 6.03845 -140.928 Q6.03845 -112.932 21.0366 -69.9371 Q36.0348 -26.9424 70.0306 49.0483 Q96.0275 105.042 119.025 162.035 Q142.022 219.028 154.02 258.023 L191.016 258.023 Q184.017 216.028 180.517 157.035 Q177.018 98.0424 170.018 36.0499 Q163.019 -22.9429 151.521 -74.9365 Q140.022 -126.93 118.025 -158.926 Q107.026 -175.924 92.028 -185.423 Q77.0298 -194.922 57.0322 -194.922 Z M222.012 459.998 Q246.009 459.998 260.507 446 Q275.006 432.002 275.006 410.004 Q275.006 394.006 268.006 379.508 Q261.007 365.01 250.009 353.511 Q239.01 342.013 224.012 335.513 Q209.014 329.014 192.016 329.014 Q168.019 329.014 153.52 343.012 Q139.022 357.011 139.022 379.008 Q139.022 395.006 146.021 409.504 Q153.021 424.003 164.019 435.501 Q175.018 447 190.516 453.499 Q206.014 459.998 222.012 459.998 Z " />
<glyph glyph-name="question" unicode="&#x3f;" horiz-adv-x="433" d="M477 510 Q477 473 463 444.5 Q449 416 426.5 392 Q404 368 376 345.5 Q348 323 319.5 298.5 Q291 274 265 244.5 Q239 215 221 176 L175 176 Q186 229 213.5 271 Q241 313 269.5 350 Q298 387 320 421.5 Q342 456 342 495 Q342 526 325 546 Q308 566 272 566 Q241 566 208.5 549 Q176 532 150 503 L118 533 Q153 581 206 610.5 Q259 640 322 640 Q355 640 383.5 630 Q412 620 433 602.5 Q454 585 465.5 561 Q477 537 477 510 Z M151 -15 Q127 -15 112.5 -1 Q98 13 98 35 Q98 51 105 65.5 Q112 80 123 91.5 Q134 103 149 109.5 Q164 116 181 116 Q205 116 219.5 102 Q234 88 234 66 Q234 50 227 35.5 Q220 21 209 9.5 Q198 -2 182.5 -8.5 Q167 -15 151 -15 Z " />
<glyph glyph-name="questiondown" unicode="&#xbf;" horiz-adv-x="433" d="M22.0582 -64.9377 Q22.0582 -27.9423 36.0565 0.55426 Q50.0548 29.0508 72.5521 53.0479 Q95.0493 77.0449 123.046 99.5422 Q151.042 122.039 179.539 146.536 Q208.036 171.033 234.032 200.53 Q260.029 230.026 278.027 269.021 L324.021 269.021 Q313.023 216.028 285.526 174.033 Q258.029 132.038 229.533 95.0427 Q201.036 58.0472 179.039 23.5515 Q157.042 -10.9443 157.042 -49.9396 Q157.042 -80.9358 174.04 -100.933 Q191.038 -120.931 227.033 -120.931 Q258.029 -120.931 290.525 -103.933 Q323.021 -86.9351 349.018 -57.9386 L381.014 -87.9349 Q346.019 -135.929 293.025 -165.425 Q240.032 -194.922 177.039 -194.922 Q144.043 -194.922 115.547 -184.923 Q87.0503 -174.924 66.0529 -157.426 Q45.0554 -139.929 33.5568 -115.932 Q22.0582 -91.9344 22.0582 -64.9377 Z M348.018 459.998 Q372.016 459.998 386.514 446 Q401.012 432.002 401.012 410.004 Q401.012 394.006 394.013 379.508 Q387.014 365.01 376.015 353.511 Q365.016 342.013 350.018 335.513 Q335.02 329.014 318.022 329.014 Q294.025 329.014 279.527 343.012 Q265.029 357.011 265.029 379.008 Q265.029 395.006 272.028 409.504 Q279.027 424.003 290.026 435.501 Q301.024 447 316.522 453.499 Q332.02 459.998 348.018 459.998 Z " />
<glyph glyph-name="asterisk" unicode="&#x2a;" horiz-adv-x="392" d="M298 460 Q317 449 339.5 442.5 Q362 436 379 430 Q418 417 418 394 Q418 380 405.5 368 Q393 356 378 356 Q361 356 343 375 Q329 390 314 409.5 Q299 429 283 443 Q281 428 280.5 412.5 Q280 397 280 382 Q280 337 270 309 Q260 281 231 281 Q217 281 210 288 Q203 295 203 306 Q203 316 208 329.5 Q213 343 225 366 Q235 384 245 404 Q255 424 263 443 Q237 427 213.5 408.5 Q190 390 173 378 Q142 356 126 356 Q112 356 104 367 Q96 378 96 390 Q96 409 127 420 Q136 423 151.5 428 Q167 433 185.5 438 Q204 443 222.5 449 Q241 455 256 461 Q237 472 214.5 478.5 Q192 485 175 491 Q136 504 136 527 Q136 541 148.5 553 Q161 565 176 565 Q193 565 211 546 Q225 531 240 511.5 Q255 492 271 478 Q273 493 273.5 508.5 Q274 524 274 539 Q274 584 284 612 Q294 640 323 640 Q337 640 344 633 Q351 626 351 615 Q351 605 346 591.5 Q341 578 329 555 Q319 537 309 517 Q299 497 291 478 Q317 494 340.5 512.5 Q364 531 381 543 Q412 565 428 565 Q442 565 450 554 Q458 543 458 531 Q458 512 427 501 Q418 498 402.5 493 Q387 488 368.5 483 Q350 478 331.5 472 Q313 466 298 460 Z " />
<glyph glyph-name="period" unicode="&#x2e;" horiz-adv-x="213" d="M79 -15 Q55 -15 40.5 -1 Q26 13 26 35 Q26 51 33 65.5 Q40 80 51 91.5 Q62 103 77 109.5 Q92 116 109 116 Q133 116 147.5 102 Q162 88 162 66 Q162 50 155 35.5 Q148 21 137 9.5 Q126 -2 110.5 -8.5 Q95 -15 79 -15 Z " />
<glyph glyph-name="comma" unicode="&#x2c;" horiz-adv-x="213" d="M152 55 Q152 26 140 -2.5 Q128 -31 107.5 -56.5 Q87 -82 59 -104.5 Q31 -127 -1 -145 L-16 -121 Q20 -92 43 -63.5 Q66 -35 66 -12 Q66 -1 60 6.5 Q54 14 47 21.5 Q40 29 34 36.5 Q28 44 28 55 Q28 79 48.5 97.5 Q69 116 99 116 Q127 116 139.5 98 Q152 80 152 55 Z " />
<glyph glyph-name="colon" unicode="&#x3a;" horiz-adv-x="213" d="M79 -15 Q55 -15 40.5 -1 Q26 13 26 35 Q26 51 33 65.5 Q40 80 51 91.5 Q62 103 77 109.5 Q92 116 109 116 Q133 116 147.5 102 Q162 88 162 66 Q162 50 155 35.5 Q148 21 137 9.5 Q126 -2 110.5 -8.5 Q95 -15 79 -15 Z M155 270 Q131 270 116.5 284 Q102 298 102 320 Q102 336 109 350.5 Q116 365 127 376.5 Q138 388 153 394.5 Q168 401 185 401 Q209 401 223.5 387 Q238 373 238 351 Q238 335 231 320.5 Q224 306 213 294.5 Q202 283 186.5 276.5 Q171 270 155 270 Z " />
<glyph glyph-name="semicolon" unicode="&#x3b;" horiz-adv-x="213" d="M155 270 Q131 270 116.5 284 Q102 298 102 320 Q102 336 109 350.5 Q116 365 127 376.5 Q138 388 153 394.5 Q168 401 185 401 Q209 401 223.5 387 Q238 373 238 351 Q238 335 231 320.5 Q224 306 213 294.5 Q202 283 186.5 276.5 Q171 270 155 270 Z M156 55 Q156 26 144 -2.5 Q132 -31 111.5 -56.5 Q91 -82 63 -104.5 Q35 -127 3 -145 L-12 -121 Q24 -92 47 -63.5 Q70 -35 70 -12 Q70 -1 64 6.5 Q58 14 51 21.5 Q44 29 38 36.5 Q32 44 32 55 Q32 79 52.5 97.5 Q73 116 103 116 Q131 116 143.5 98 Q156 80 156 55 Z " />
<glyph glyph-name="ellipsis" unicode="&#x2026;" horiz-adv-x="639" d="M79 -15 Q55 -15 40.5 -1 Q26 13 26 35 Q26 51 33 65.5 Q40 80 51 91.5 Q62 103 77 109.5 Q92 116 109 116 Q133 116 147.5 102 Q162 88 162 66 Q162 50 155 35.5 Q148 21 137 9.5 Q126 -2 110.5 -8.5 Q95 -15 79 -15 Z M292 -15 Q268 -15 253.5 -1 Q239 13 239 35 Q239 51 246 65.5 Q253 80 264 91.5 Q275 103 290 109.5 Q305 116 322 116 Q346 116 360.5 102 Q375 88 375 66 Q375 50 368 35.5 Q361 21 350 9.5 Q339 -2 323.5 -8.5 Q308 -15 292 -15 Z M505 -15 Q481 -15 466.5 -1 Q452 13 452 35 Q452 51 459 65.5 Q466 80 477 91.5 Q488 103 503 109.5 Q518 116 535 116 Q559 116 573.5 102 Q588 88 588 66 Q588 50 581 35.5 Q574 21 563 9.5 Q552 -2 536.5 -8.5 Q521 -15 505 -15 Z " />
<glyph glyph-name="periodcentered" unicode="&#xb7;" horiz-adv-x="213" d="M111 159 Q87 159 72.5 173 Q58 187 58 209 Q58 225 65 239.5 Q72 254 83 265.5 Q94 277 109 283.5 Q124 290 141 290 Q165 290 179.5 276 Q194 262 194 240 Q194 224 187 209.5 Q180 195 169 183.5 Q158 172 142.5 165.5 Q127 159 111 159 Z " />
<glyph glyph-name="uni22C5" unicode="&#x22c5;" horiz-adv-x="213" d="M111 159 Q87 159 72.5 173 Q58 187 58 209 Q58 225 65 239.5 Q72 254 83 265.5 Q94 277 109 283.5 Q124 290 141 290 Q165 290 179.5 276 Q194 262 194 240 Q194 224 187 209.5 Q180 195 169 183.5 Q158 172 142.5 165.5 Q127 159 111 159 Z " />
<glyph glyph-name="bullet" unicode="&#x2022;" horiz-adv-x="322" d="M296 247 Q296 218 284.5 192.5 Q273 167 253.5 147.5 Q234 128 208 116.5 Q182 105 154 105 Q113 105 89 129.5 Q65 154 65 191 Q65 220 76.5 245.5 Q88 271 107.5 290.5 Q127 310 152.5 321.5 Q178 333 207 333 Q248 333 272 308.5 Q296 284 296 247 Z " />
<glyph glyph-name="slash" unicode="&#x2f;" horiz-adv-x="353" d="M74 -15 L14 -15 L380 640 L441 640 L74 -15 Z " />
<glyph glyph-name="parenleft" unicode="&#x28;" horiz-adv-x="323" d="M218 -143 Q161 -95 125 -20 Q89 55 89 152 Q89 239 117.5 328 Q146 417 195 498.5 Q244 580 310 649.5 Q376 719 452 767 L482 743 Q419 686 368.5 611 Q318 536 282.5 452.5 Q247 369 228 281.5 Q209 194 209 113 Q209 35 221 -22.5 Q233 -80 252 -118 L218 -143 L218 -143 Z " />
<glyph glyph-name="brokenbar" unicode="&#xa6;" horiz-adv-x="262" d="M157 340 L252 710 L312 710 L217 340 L157 340 Z M2 -265 L97 105 L156 105 L61 -265 L2 -265 Z " />
<glyph glyph-name="parenright" unicode="&#x29;" horiz-adv-x="323" d="M209 767 Q266 719 302 644 Q338 569 338 472 Q338 385 309.5 296 Q281 207 232 125.5 Q183 44 117 -25.5 Q51 -95 -25 -143 L-55 -119 Q8 -62 58.5 13 Q109 88 144.5 171.5 Q180 255 199 342.5 Q218 430 218 511 Q218 589 206 646.5 Q194 704 175 742 L209 767 Z " />
<glyph glyph-name="bracketleft" unicode="&#x5b;" horiz-adv-x="350" d="M30 -142 L264 767 L490 767 L478 719 L370 719 L159 -94 L267 -94 L256 -142 L30 -142 Z " />
<glyph glyph-name="backslash" unicode="&#x5c;" horiz-adv-x="343" d="M223 -15 L142 640 L195 640 L276 -15 L223 -15 Z " />
<glyph glyph-name="bracketright" unicode="&#x5d;" horiz-adv-x="350" d="M413 767 L180 -142 L-46 -142 L-35 -94 L73 -94 L284 719 L176 719 L188 767 L413 767 Z " />
<glyph glyph-name="braceleft" unicode="&#x7b;" horiz-adv-x="320" d="M240 -142 Q159 -138 108.5 -108.5 Q58 -79 58 -20 Q58 10 71.5 46 Q85 82 101.5 118 Q118 154 132 186.5 Q146 219 146 241 Q146 263 133.5 274.5 Q121 286 97 293 L107 330 Q131 336 147.5 349.5 Q164 363 176 386 Q188 409 195.5 443 Q203 477 208 524 Q214 587 229 632.5 Q244 678 273.5 707.5 Q303 737 351.5 751.5 Q400 766 474 766 L467 737 Q429 732 405.5 721.5 Q382 711 368 693 Q354 675 347.5 648 Q341 621 337 583 Q331 526 322.5 482.5 Q314 439 295.5 406.5 Q277 374 246 351 Q215 328 166 312 Q204 299 230 276 Q256 253 256 216 Q256 196 247 170 Q238 144 216 95 Q202 66 193 45 Q184 24 179 8 Q174 -8 171.5 -19.5 Q169 -31 169 -42 Q169 -100 247 -112 L240 -142 Z " />
<glyph glyph-name="bar" unicode="&#x7c;" horiz-adv-x="262" d="M2 -265 L252 710 L312 710 L61 -265 L2 -265 Z " />
<glyph glyph-name="braceright" unicode="&#x7d;" horiz-adv-x="320" d="M178 766 Q259 762 309.5 732.5 Q360 703 360 644 Q360 614 346 578 Q332 542 315.5 506 Q299 470 285.5 437.5 Q272 405 272 383 Q272 361 284.5 349.5 Q297 338 321 331 L311 294 Q287 288 270.5 274.5 Q254 261 242 238 Q230 215 222.5 181 Q215 147 210 100 Q204 37 189 -8.5 Q174 -54 144.5 -83.5 Q115 -113 66.5 -127.5 Q18 -142 -56 -142 L-49 -113 Q-12 -108 12 -97.5 Q36 -87 50 -69 Q64 -51 70.5 -24 Q77 3 81 41 Q87 98 95.5 141.5 Q104 185 122.5 217.5 Q141 250 171.5 273 Q202 296 252 312 Q214 325 188 348 Q162 371 162 408 Q162 418 164 429 Q166 440 170.5 454 Q175 468 183 486.5 Q191 505 202 529 Q215 558 224.5 579 Q234 600 239 616 Q244 632 246.5 643.5 Q249 655 249 666 Q249 724 171 736 L178 766 Z " />
<glyph glyph-name="hyphen" unicode="&#x2d;" horiz-adv-x="297" d="M51 258 L297 258 L282 196 L36 196 L51 258 Z " />
<glyph glyph-name="uni00AD" unicode="&#xad;" horiz-adv-x="297" d="M51 258 L297 258 L282 196 L36 196 L51 258 Z " />
<glyph glyph-name="endash" unicode="&#x2013;" horiz-adv-x="500" d="M36 258 L522 258 L507 196 L21 196 L36 258 Z " />
<glyph glyph-name="emdash" unicode="&#x2014;" horiz-adv-x="1000" d="M36 258 L1022 258 L1007 196 L21 196 L36 258 Z " />
<glyph glyph-name="underscore" unicode="&#x5f;" horiz-adv-x="500" d="M-33 -164 L-20 -115 L430 -115 L418 -164 L-33 -164 Z " />
<glyph glyph-name="dagger" unicode="&#x2020;" horiz-adv-x="449" d="M296 379 Q294 366 293 350 Q292 334 291.5 317 Q291 300 290.5 283 Q290 266 290 252 Q273 214 240.5 123 Q208 32 172 -105 L136 -105 Q171 29 187 122 Q203 215 205 253 Q220 283 238 318.5 Q256 354 264 379 Q248 378 230 373.5 Q212 369 194.5 364 Q177 359 160.5 355 Q144 351 130 351 Q108 351 96 361.5 Q84 372 84 390 Q84 413 103 426 Q122 439 149 439 Q165 439 180 435 Q195 431 210 425.5 Q225 420 240.5 415.5 Q256 411 271 411 Q275 427 275 449 Q275 469 273 488.5 Q271 508 271 526 Q271 574 289.5 607 Q308 640 345 640 Q366 640 376 628.5 Q386 617 386 600 Q386 580 378.5 560.5 Q371 541 355 513 Q341 489 326.5 464.5 Q312 440 304 411 Q320 412 338 416.5 Q356 421 373.5 426 Q391 431 407.5 435 Q424 439 438 439 Q460 439 472 428.5 Q484 418 484 400 Q484 377 465 364 Q446 351 419 351 Q403 351 388 355 Q373 359 357.5 364.5 Q342 370 327 374.5 Q312 379 296 379 Z " />
<glyph glyph-name="daggerdbl" unicode="&#x2021;" horiz-adv-x="425" d="M304 440 Q299 423 296.5 399.5 Q294 376 292 352 Q284 333 277 314.5 Q270 296 264 279 L228 279 Q233 302 234.5 320.5 Q236 339 237 353 Q245 373 255.5 396.5 Q266 420 272 440 Q260 440 246.5 437 Q233 434 220.5 430 Q208 426 195.5 422.5 Q183 419 172 419 Q157 419 147 426.5 Q137 434 137 449 Q137 466 150.5 476 Q164 486 184 486 Q195 486 206.5 482.5 Q218 479 229.5 475 Q241 471 253 467.5 Q265 464 277 464 Q280 475 281 486.5 Q282 498 282 509 Q282 522 281 534.5 Q280 547 280 558 Q280 590 296 615 Q312 640 337 640 Q354 640 363 630.5 Q372 621 372 607 Q372 591 364.5 575 Q357 559 347 541.5 Q337 524 326.5 505 Q316 486 309 464 Q321 464 334.5 467 Q348 470 360.5 474 Q373 478 385.5 481.5 Q398 485 409 485 Q424 485 434 477.5 Q444 470 444 455 Q444 438 430.5 428 Q417 418 397 418 Q386 418 374.5 421.5 Q363 425 351.5 429 Q340 433 328 436.5 Q316 440 304 440 Z M177 77 Q182 94 184.5 117.5 Q187 141 189 165 Q197 184 204 202.5 Q211 221 217 238 L253 238 Q248 215 246.5 196.5 Q245 178 244 164 Q236 144 225.5 120.5 Q215 97 209 77 Q221 77 234.5 80 Q248 83 260.5 87 Q273 91 285.5 94.5 Q298 98 309 98 Q324 98 334 90.5 Q344 83 344 68 Q344 51 330.5 41 Q317 31 297 31 Q286 31 274.5 34.5 Q263 38 251.5 42 Q240 46 228 49.5 Q216 53 204 53 Q201 42 200 30.5 Q199 19 199 8 Q199 -5 200 -17.5 Q201 -30 201 -41 Q201 -73 185 -98 Q169 -123 144 -123 Q127 -123 118 -113.5 Q109 -104 109 -90 Q109 -74 116.5 -58 Q124 -42 134 -24.5 Q144 -7 154.5 12 Q165 31 172 53 Q160 53 146.5 50 Q133 47 120.5 43 Q108 39 95.5 35.5 Q83 32 72 32 Q57 32 47 39.5 Q37 47 37 62 Q37 79 50.5 89 Q64 99 84 99 Q95 99 106.5 95.5 Q118 92 129.5 88 Q141 84 153 80.5 Q165 77 177 77 Z " />
<glyph glyph-name="section" unicode="&#xa7;" horiz-adv-x="448" d="M77 55 Q77 14 101 -15.5 Q125 -45 170 -45 Q206 -45 230 -27 Q254 -9 254 17 Q254 39 234.5 54.5 Q215 70 188 86 Q168 98 149 110.5 Q130 123 115 138.5 Q100 154 91 173.5 Q82 193 82 219 Q82 246 92.5 270.5 Q103 295 121.5 315 Q140 335 166 349.5 Q192 364 223 371 Q194 391 173.5 417 Q153 443 153 482 Q153 515 167.5 543.5 Q182 572 208.5 593.5 Q235 615 271 627.5 Q307 640 349 640 Q381 640 421.5 633.5 Q462 627 494 623 Q491 613 486 596.5 Q481 580 476 562 Q471 544 467 527 Q463 510 460 499 L427 499 Q426 541 404.5 564 Q383 587 345 587 Q311 587 288.5 570 Q266 553 266 527 Q266 504 285.5 488.5 Q305 473 332 456 Q351 444 370 431.5 Q389 419 404 403.5 Q419 388 428.5 368.5 Q438 349 438 323 Q438 268 398 228 Q358 188 294 172 Q323 152 345 126.5 Q367 101 367 60 Q367 26 351.5 -3 Q336 -32 308 -53 Q280 -74 241.5 -86 Q203 -98 158 -98 Q123 -98 81.5 -90 Q40 -82 10 -70 Q14 -59 18.5 -42 Q23 -25 28 -7 Q33 11 37 27.5 Q41 44 43 55 L77 55 Z M247 218 Q283 218 304.5 237.5 Q326 257 326 282 Q326 299 312 311.5 Q298 324 273 324 Q237 324 215.5 304.5 Q194 285 194 260 Q194 243 208 230.5 Q222 218 247 218 Z " />
<glyph glyph-name="paragraph" unicode="&#xb6;" horiz-adv-x="511" d="M591 596 L529 576 L352 -106 L279 -106 L456 572 L402 572 L226 -106 L153 -106 L257 293 Q188 295 149 330 Q110 365 110 422 Q110 465 127.5 501.5 Q145 538 177 564 Q212 593 264.5 609 Q317 625 381 625 L599 625 L591 596 Z " />
<glyph glyph-name="registered" unicode="&#xae;" horiz-adv-x="712" d="M730 314 Q730 245 705 185.5 Q680 126 636 82 Q592 38 533 13 Q474 -12 406 -12 Q338 -12 279 13 Q220 38 176 82 Q132 126 107 185.5 Q82 245 82 314 Q82 383 107 442.5 Q132 502 176 546 Q220 590 279 615 Q338 640 406 640 Q474 640 533 615 Q592 590 636 546 Q680 502 705 442.5 Q730 383 730 314 Z M669 314 Q669 372 649.5 422.5 Q630 473 594.5 510 Q559 547 511 568 Q463 589 406 589 Q349 589 301 568 Q253 547 217.5 510 Q182 473 162.5 422.5 Q143 372 143 314 Q143 256 162.5 205.5 Q182 155 217.5 118 Q253 81 301 60 Q349 39 406 39 Q463 39 511 60 Q559 81 594.5 118 Q630 155 649.5 205.5 Q669 256 669 314 Z M286 422 Q286 439 280.5 446.5 Q275 454 254 462 L254 476 L396 476 Q435 476 460 470 Q485 464 502 448 Q523 427 523 392 Q523 361 504 340.5 Q485 320 452 313 Q474 306 485.5 295 Q497 284 504 264 L519 222 Q527 199 537.5 188 Q548 177 566 172 L566 158 L448 158 Q448 170 446 182 Q444 194 438 211 L420 263 Q414 280 405.5 286.5 Q397 293 378 293 L369 293 L369 212 Q369 195 374.5 187.5 Q380 180 401 172 L401 158 Q395 158 384.5 158 Q374 158 363 158.5 Q352 159 341.5 159 Q331 159 325 159 Q305 159 284 158.5 Q263 158 255 158 L255 172 L286 183 L286 422 Z M369 318 L378 318 Q407 318 423 336.5 Q439 355 439 386 Q439 420 423 435 Q407 450 378 450 L369 450 L369 318 Z " />
<glyph glyph-name="copyright" unicode="&#xa9;" horiz-adv-x="712" d="M730 314 Q730 245 705 185.5 Q680 126 636 82 Q592 38 533 13 Q474 -12 406 -12 Q338 -12 279 13 Q220 38 176 82 Q132 126 107 185.5 Q82 245 82 314 Q82 383 107 442.5 Q132 502 176 546 Q220 590 279 615 Q338 640 406 640 Q474 640 533 615 Q592 590 636 546 Q680 502 705 442.5 Q730 383 730 314 Z M669 314 Q669 372 649.5 422.5 Q630 473 594.5 510 Q559 547 511 568 Q463 589 406 589 Q349 589 301 568 Q253 547 217.5 510 Q182 473 162.5 422.5 Q143 372 143 314 Q143 256 162.5 205.5 Q182 155 217.5 118 Q253 81 301 60 Q349 39 406 39 Q463 39 511 60 Q559 81 594.5 118 Q630 155 649.5 205.5 Q669 256 669 314 Z M526 212 Q506 183 474.5 165 Q443 147 402 147 Q329 147 291 192.5 Q253 238 253 311 Q253 387 296 433 Q339 479 419 479 Q447 479 471 475 Q495 471 516 469 Q516 459 516 446.5 Q516 434 516.5 421 Q517 408 517.5 396 Q518 384 518 377 L494 377 Q489 410 473 429.5 Q457 449 428 449 Q392 449 368 415.5 Q344 382 344 313 Q344 259 364.5 224.5 Q385 190 426 190 Q448 190 467.5 200 Q487 210 505 228 L526 212 Z " />
<glyph glyph-name="trademark" unicode="&#x2122;" horiz-adv-x="716" d="M262 401 Q260 393 260 388 Q260 380 266.5 376 Q273 372 290 368 L284 344 Q280 344 270.5 344.5 Q261 345 250 345 Q239 345 228.5 345 Q218 345 211 345 Q195 345 176.5 345 Q158 345 142 344 L148 368 L183 378 L240 595 L232 595 Q217 595 207.5 593.5 Q198 592 191 587 Q184 582 177.5 572.5 Q171 563 164 547 L134 547 Q136 553 139 563 Q142 573 145.5 584.5 Q149 596 152 607 Q155 618 157 625 L410 625 Q405 606 400 585 Q395 564 391 547 L363 547 Q363 563 361.5 572.5 Q360 582 355 587 Q350 592 340 593.5 Q330 595 313 595 L262 401 Z M450 401 Q448 393 448 388 Q448 380 454.5 376 Q461 372 478 368 L472 344 Q464 345 448 345 Q432 345 418 345 Q402 345 389.5 345 Q377 345 361 344 L367 368 L402 378 L452 568 Q454 576 454 581 Q454 589 447.5 593 Q441 597 424 601 L430 625 L555 625 L579 447 L699 625 L817 625 L811 601 L776 591 L727 401 Q725 393 725 388 Q725 380 731.5 376 Q738 372 755 368 L749 344 Q745 344 735 344.5 Q725 345 714 345 Q703 345 692 345 Q681 345 674 345 Q658 345 641 345 Q624 345 608 344 L614 368 L649 378 L692 549 L552 341 L525 341 L491 557 L450 401 Z " />
<glyph glyph-name="quotedblleft" unicode="&#x201c;" horiz-adv-x="371" d="M122 440 Q122 469 134 497.5 Q146 526 166.5 551.5 Q187 577 215 599.5 Q243 622 275 640 L290 616 Q254 587 231 558.5 Q208 530 208 507 Q208 496 214 488.5 Q220 481 227 473.5 Q234 466 240 458.5 Q246 451 246 440 Q246 416 225.5 397.5 Q205 379 175 379 Q147 379 134.5 397 Q122 415 122 440 Z M285 440 Q285 469 297 497.5 Q309 526 329.5 551.5 Q350 577 378 599.5 Q406 622 438 640 L453 616 Q417 587 394 558.5 Q371 530 371 507 Q371 496 377 488.5 Q383 481 390 473.5 Q397 466 403 458.5 Q409 451 409 440 Q409 416 388.5 397.5 Q368 379 338 379 Q310 379 297.5 397 Q285 415 285 440 Z " />
<glyph glyph-name="quotedblright" unicode="&#x201d;" horiz-adv-x="371" d="M441 579 Q441 550 429 521.5 Q417 493 396.5 467.5 Q376 442 348 419.5 Q320 397 288 379 L273 403 Q309 432 332 460.5 Q355 489 355 512 Q355 523 349 530.5 Q343 538 336 545.5 Q329 553 323 560.5 Q317 568 317 579 Q317 603 337.5 621.5 Q358 640 388 640 Q416 640 428.5 622 Q441 604 441 579 Z M278 579 Q278 550 266 521.5 Q254 493 233.5 467.5 Q213 442 185 419.5 Q157 397 125 379 L110 403 Q146 432 169 460.5 Q192 489 192 512 Q192 523 186 530.5 Q180 538 173 545.5 Q166 553 160 560.5 Q154 568 154 579 Q154 603 174.5 621.5 Q195 640 225 640 Q253 640 265.5 622 Q278 604 278 579 Z " />
<glyph glyph-name="quoteleft" unicode="&#x2018;" horiz-adv-x="208" d="M122 440 Q122 469 134 497.5 Q146 526 166.5 551.5 Q187 577 215 599.5 Q243 622 275 640 L290 616 Q254 587 231 558.5 Q208 530 208 507 Q208 496 214 488.5 Q220 481 227 473.5 Q234 466 240 458.5 Q246 451 246 440 Q246 416 225.5 397.5 Q205 379 175 379 Q147 379 134.5 397 Q122 415 122 440 Z " />
<glyph glyph-name="quoteright" unicode="&#x2019;" horiz-adv-x="208" d="M278 579 Q278 550 266 521.5 Q254 493 233.5 467.5 Q213 442 185 419.5 Q157 397 125 379 L110 403 Q146 432 169 460.5 Q192 489 192 512 Q192 523 186 530.5 Q180 538 173 545.5 Q166 553 160 560.5 Q154 568 154 579 Q154 603 174.5 621.5 Q195 640 225 640 Q253 640 265.5 622 Q278 604 278 579 Z " />
<glyph glyph-name="guillemotleft" unicode="&#xab;" horiz-adv-x="431" d="M318 43 L226 218 L407 391 L432 364 L324 218 L362 72 L318 43 Z M147 43 L54 218 L235 391 L260 364 L152 218 L190 72 L147 43 Z " />
<glyph glyph-name="guillemotright" unicode="&#xbb;" horiz-adv-x="431" d="M152 391 L244 216 L63 43 L38 70 L146 216 L108 362 L152 391 Z M323 391 L416 216 L235 43 L210 70 L318 216 L280 362 L323 391 Z " />
<glyph glyph-name="guilsinglleft" unicode="&#x2039;" horiz-adv-x="259" d="M147 43 L54 218 L235 391 L260 364 L152 218 L190 72 L147 43 Z " />
<glyph glyph-name="guilsinglright" unicode="&#x203a;" horiz-adv-x="259" d="M151 391 L244 216 L63 43 L38 70 L146 216 L108 362 L151 391 Z " />
<glyph glyph-name="quotesinglbase" unicode="&#x201a;" horiz-adv-x="208" d="M144 44 Q144 15 132 -13.5 Q120 -42 99.5 -67.5 Q79 -93 51 -115.5 Q23 -138 -9 -156 L-24 -132 Q12 -103 35 -74.5 Q58 -46 58 -23 Q58 -12 52 -4.5 Q46 3 39 10.5 Q32 18 26 25.5 Q20 33 20 44 Q20 68 40.5 86.5 Q61 105 91 105 Q119 105 131.5 87 Q144 69 144 44 Z " />
<glyph glyph-name="quotedblbase" unicode="&#x201e;" horiz-adv-x="371" d="M307 44 Q307 15 295 -13.5 Q283 -42 262.5 -67.5 Q242 -93 214 -115.5 Q186 -138 154 -156 L139 -132 Q175 -103 198 -74.5 Q221 -46 221 -23 Q221 -12 215 -4.5 Q209 3 202 10.5 Q195 18 189 25.5 Q183 33 183 44 Q183 68 203.5 86.5 Q224 105 254 105 Q282 105 294.5 87 Q307 69 307 44 Z M144 44 Q144 15 132 -13.5 Q120 -42 99.5 -67.5 Q79 -93 51 -115.5 Q23 -138 -9 -156 L-24 -132 Q12 -103 35 -74.5 Q58 -46 58 -23 Q58 -12 52 -4.5 Q46 3 39 10.5 Q32 18 26 25.5 Q20 33 20 44 Q20 68 40.5 86.5 Q61 105 91 105 Q119 105 131.5 87 Q144 69 144 44 Z " />
<glyph glyph-name="fi" unicode="&#xfb01;" horiz-adv-x="556" d="M97 -220 L-25 -220 L142 398 L75 398 L88 444 L155 444 Q171 497 195.5 540.5 Q220 584 253 615 Q286 646 328 663 Q370 680 421 680 Q448 680 474.5 675 Q501 670 522 661 Q543 652 556 639 Q569 626 569 610 Q569 599 563.5 587 Q558 575 549 565 Q540 555 528 548.5 Q516 542 503 542 Q486 542 475 556 Q464 570 453.5 587.5 Q443 605 430 619 Q417 633 396 633 Q359 633 331 587.5 Q303 542 276 444 L378 444 Q402 444 427.5 444.5 Q453 445 476 445.5 Q499 446 518.5 447.5 Q538 449 551 451 L558 443 L469 114 Q462 86 462 75 Q462 56 480 56 Q488 56 497.5 59 Q507 62 516 66 L506 27 Q485 13 457 2 Q429 -9 405 -9 Q373 -9 356 9 Q339 27 339 59 Q339 73 342.5 91 Q346 109 352 132 L409 343 Q414 363 414 372 Q414 387 405 392.5 Q396 398 372 398 L264 398 L97 -220 Z " />
<glyph glyph-name="fl" unicode="&#xfb02;" horiz-adv-x="561" d="M155 444 Q191 565 258.5 621.5 Q326 678 428 678 Q463 678 503.5 672 Q544 666 572 666 Q583 666 595.5 666.5 Q608 667 615 669 L623 662 L475 114 Q468 86 468 75 Q468 56 486 56 Q494 56 503.5 58.5 Q513 61 522 65 L512 26 Q491 12 463 1.5 Q435 -9 411 -9 Q379 -9 362 9 Q345 27 345 59 Q345 73 348.5 91 Q352 109 358 132 L490 616 Q461 629 426 629 Q372 629 337.5 586 Q303 543 276 444 L388 444 L367 398 L264 398 L97 -220 L-25 -220 L142 398 L75 398 L88 444 L155 444 Z " />
<glyph glyph-name="f_f" unicode="&#xfb00;" horiz-adv-x="613" d="M97 -220 L-25 -220 L142 398 L75 398 L88 444 L155 444 Q185 547 251.5 607 Q318 667 417 667 Q460 667 495.5 656.5 Q531 646 553 630 Q581 653 615 666.5 Q649 680 689 680 Q744 680 776.5 661.5 Q809 643 809 622 Q809 610 803 598 Q797 586 787.5 576 Q778 566 766 559.5 Q754 553 742 553 Q726 553 717 565.5 Q708 578 700 593 Q692 608 683 620.5 Q674 633 659 633 Q645 633 634.5 622.5 Q624 612 613.5 589 Q603 566 592 530.5 Q581 495 567 444 L679 444 L658 398 L555 398 L392 -205 L270 -205 L433 398 L264 398 L97 -220 Z M446 444 Q461 498 489 550 Q481 560 472.5 572.5 Q464 585 453.5 596 Q443 607 430 614 Q417 621 400 621 Q361 621 331.5 580 Q302 539 276 444 L446 444 Z " />
<glyph glyph-name="f_f_i" unicode="&#xfb03;" horiz-adv-x="847" d="M417 667 Q462 667 499 655.5 Q536 644 558 627 Q623 680 712 680 Q739 680 765.5 675 Q792 670 813 661 Q834 652 847 639 Q860 626 860 610 Q860 599 854.5 587 Q849 575 840 565 Q831 555 819 548.5 Q807 542 794 542 Q777 542 766 556 Q755 570 744.5 587.5 Q734 605 721 619 Q708 633 687 633 Q650 633 622 587.5 Q594 542 567 444 L669 444 Q693 444 718.5 444.5 Q744 445 767 445.5 Q790 446 809.5 447.5 Q829 449 842 451 L849 443 L760 114 Q753 86 753 75 Q753 56 771 56 Q779 56 788.5 59 Q798 62 807 66 L797 27 Q776 13 748 2 Q720 -9 696 -9 Q664 -9 647 9 Q630 27 630 59 Q630 73 633.5 91 Q637 109 643 132 L700 343 Q705 363 705 372 Q705 387 696 392.5 Q687 398 663 398 L555 398 L392 -205 L270 -205 L433 398 L264 398 L97 -220 L-25 -220 L142 398 L75 398 L88 444 L155 444 Q185 547 251.5 607 Q318 667 417 667 Z M446 444 Q462 500 490 548 Q482 558 473.5 570.5 Q465 583 454.5 594.5 Q444 606 430.5 613.5 Q417 621 400 621 Q361 621 331.5 580 Q302 539 276 444 L446 444 Z " />
<glyph glyph-name="f_f_l" unicode="&#xfb04;" horiz-adv-x="852" d="M417 667 Q462 667 499 655.5 Q536 644 558 627 Q624 678 719 678 Q754 678 794.5 672 Q835 666 863 666 Q874 666 886.5 666.5 Q899 667 906 669 L914 662 L766 114 Q759 86 759 75 Q759 56 777 56 Q785 56 794.5 58.5 Q804 61 813 65 L803 26 Q782 12 754 1.5 Q726 -9 702 -9 Q670 -9 653 9 Q636 27 636 59 Q636 73 639.5 91 Q643 109 649 132 L781 616 Q752 629 717 629 Q663 629 628.5 586 Q594 543 567 444 L679 444 L658 398 L555 398 L392 -205 L270 -205 L433 398 L264 398 L97 -220 L-25 -220 L142 398 L75 398 L88 444 L155 444 Q185 547 251.5 607 Q318 667 417 667 Z M446 444 Q464 503 490 548 Q482 558 473.5 571 Q465 584 454.5 595 Q444 606 430.5 613.5 Q417 621 400 621 Q361 621 331.5 580 Q302 539 276 444 L446 444 Z " />
<glyph glyph-name="grave" unicode="&#x60;" horiz-adv-x="277" d="M161 601 L193 639 Q205 653 217 653 Q225 653 232.5 648 Q240 643 252 629 L358 514 L344 495 L164 588 L161 601 Z " />
<glyph glyph-name="acute" unicode="&#xb4;" horiz-adv-x="277" d="M349 588 L132 495 L122 515 L276 639 Q287 648 293.5 651 Q300 654 306 654 Q316 654 327 639 L352 601 L349 588 Z " />
<glyph glyph-name="dieresis" unicode="&#xa8;" horiz-adv-x="277" d="M158 513 Q139 513 127 524.5 Q115 536 115 554 Q115 581 135.5 601 Q156 621 184 621 Q203 621 215 609.5 Q227 598 227 580 Q227 553 206.5 533 Q186 513 158 513 Z M318 513 Q299 513 287 524.5 Q275 536 275 554 Q275 581 295.5 601 Q316 621 344 621 Q363 621 375 609.5 Q387 598 387 580 Q387 553 366.5 533 Q346 513 318 513 Z " />
<glyph glyph-name="circumflex" unicode="&#x2c6;" horiz-adv-x="277" d="M345 501 L257 583 L133 500 L112 513 L242 650 L307 650 L367 508 L345 501 Z " />
<glyph glyph-name="tilde" unicode="&#x2dc;" horiz-adv-x="277" d="M392 619 Q372 565 343.5 541 Q315 517 283 517 Q266 517 252.5 522.5 Q239 528 226.5 534.5 Q214 541 201.5 546.5 Q189 552 175 552 Q143 552 121 517 L96 524 Q116 578 144.5 602 Q173 626 205 626 Q221 626 235 620.5 Q249 615 261.5 608.5 Q274 602 286.5 596.5 Q299 591 313 591 Q345 591 367 626 L392 619 Z " />
<glyph glyph-name="macron" unicode="&#xaf;" horiz-adv-x="277" d="M130 528 L144 585 L366 585 L351 528 L130 528 Z " />
<glyph glyph-name="breve" unicode="&#x2d8;" horiz-adv-x="277" d="M378 632 Q365 578 328 544 Q291 510 237 510 Q191 510 166.5 534 Q142 558 142 596 Q142 604 143 613.5 Q144 623 146 632 L179 632 Q179 570 247 570 Q279 570 306.5 586.5 Q334 603 346 632 L378 632 Z " />
<glyph glyph-name="dotaccent" unicode="&#x2d9;" horiz-adv-x="277" d="M230 508 Q207 508 193 522.5 Q179 537 179 559 Q179 590 202.5 613 Q226 636 257 636 Q281 636 295 621.5 Q309 607 309 585 Q309 554 285.5 531 Q262 508 230 508 Z " />
<glyph glyph-name="ring" unicode="&#x2da;" horiz-adv-x="277" d="M245 546 Q268 546 282 564 Q296 582 296 605 Q296 620 287 630 Q278 640 263 640 Q240 640 226 622 Q212 604 212 581 Q212 566 221 556 Q230 546 245 546 Z M241 504 Q204 504 184 526 Q164 548 164 577 Q164 599 172 618 Q180 637 194.5 651 Q209 665 227.5 673.5 Q246 682 267 682 Q304 682 324 660 Q344 638 344 609 Q344 587 336 568 Q328 549 313.5 534.5 Q299 520 280.5 512 Q262 504 241 504 Z " />
<glyph glyph-name="cedilla" unicode="&#xb8;" horiz-adv-x="277" d="M184 -112 Q184 -137 170.5 -159 Q157 -181 132 -197.5 Q107 -214 73 -223.5 Q39 -233 -1 -234 L-6 -202 Q42 -194 75 -172 Q108 -150 108 -118 Q108 -105 99.5 -98 Q91 -91 71 -85 Q52 -79 48 -72.5 Q44 -66 51 -54 L91 16 L145 16 L112 -44 Q146 -52 165 -67.5 Q184 -83 184 -112 Z " />
<glyph glyph-name="hungarumlaut" unicode="&#x2dd;" horiz-adv-x="277" d="M241 598 L64 494 L52 509 L174 641 Q191 658 202 658 Q210 658 214.5 653.5 Q219 649 223 644 L244 610 L241 598 Z M400 598 L223 494 L211 509 L333 641 Q350 658 361 658 Q369 658 373.5 653.5 Q378 649 382 644 L403 610 L400 598 Z " />
<glyph glyph-name="ogonek" unicode="&#x2db;" horiz-adv-x="277" d="M174 -209 Q160 -219 137 -226.5 Q114 -234 88 -234 Q44 -234 15.5 -211 Q-13 -188 -13 -146 Q-13 -118 2 -91.5 Q17 -65 42.5 -43 Q68 -21 102.5 -4.5 Q137 12 175 21 L185 2 Q131 -19 98.5 -57.5 Q66 -96 66 -138 Q66 -163 79 -176.5 Q92 -190 115 -190 Q129 -190 141 -187 Q153 -184 164 -179 L174 -209 Z " />
<glyph glyph-name="caron" unicode="&#x2c7;" horiz-adv-x="277" d="M158 649 L246 567 L370 650 L391 637 L261 500 L196 500 L136 642 L158 649 Z " />
<glyph glyph-name="commaaccent" unicode="&#xf6c3;" horiz-adv-x="277" d="M154 -103 Q154 -130 143.5 -155.5 Q133 -181 114.5 -204 Q96 -227 70.5 -247.5 Q45 -268 16 -284 L2 -261 Q35 -235 55.5 -210 Q76 -185 76 -164 Q76 -154 71 -147 Q66 -140 60 -133.5 Q54 -127 49 -120 Q44 -113 44 -103 Q44 -83 62 -66 Q80 -49 106 -49 Q130 -49 142 -65.5 Q154 -82 154 -103 Z " />
<glyph glyph-name="zero" unicode="0" horiz-adv-x="528" d="M559 446 Q559 397 548.5 344 Q538 291 518 240 Q498 189 469.5 142.5 Q441 96 405 61 Q369 26 326.5 5.5 Q284 -15 236 -15 Q195 -15 163.5 -1 Q132 13 111 38.5 Q90 64 79 100 Q68 136 68 179 Q68 227 78.5 280.5 Q89 334 109 385 Q129 436 157.5 482.5 Q186 529 222 564 Q258 599 300.5 619.5 Q343 640 391 640 Q473 640 516 586.5 Q559 533 559 446 Z M431 486 Q431 584 382 584 Q357 584 333.5 559.5 Q310 535 289 495.5 Q268 456 251 407 Q234 358 222 308.5 Q210 259 203 214 Q196 169 196 139 Q196 41 245 41 Q270 41 293.5 65.5 Q317 90 338 129.5 Q359 169 376 218 Q393 267 405 316.5 Q417 366 424 411 Q431 456 431 486 Z " />
<glyph glyph-name="one" unicode="1" horiz-adv-x="528" d="M374 0 Q354 2 318 2.5 Q282 3 249 3 Q230 3 209.5 2.5 Q189 2 169.5 1.5 Q150 1 133.5 0.5 Q117 0 107 0 L114 29 L189 49 L303 487 Q307 503 307 512 Q307 531 287 543 Q267 555 229 564 L236 593 Q262 594 289 597.5 Q316 601 340.5 606 Q365 611 386.5 617.5 Q408 624 423 632 L461 632 L321 89 Q317 73 317 67 Q317 54 331.5 45.5 Q346 37 381 29 L374 0 L374 0 Z " />
<glyph glyph-name="two" unicode="2" horiz-adv-x="528" d="M454 155 Q448 140 440.5 120 Q433 100 425.5 78.5 Q418 57 411.5 36.5 Q405 16 401 0 L48 0 L34 28 Q118 107 185.5 171.5 Q253 236 300 290.5 Q347 345 372 393 Q397 441 397 488 Q397 523 378 544.5 Q359 566 323 566 Q288 566 256.5 546 Q225 526 199 494 L160 522 Q196 576 252 608 Q308 640 376 640 Q445 640 485.5 602 Q526 564 526 499 Q526 438 494 385.5 Q462 333 412.5 285.5 Q363 238 303 192.5 Q243 147 188 100 L314 100 Q353 100 377 112 Q401 124 418 160 L454 155 Z " />
<glyph glyph-name="three" unicode="3" horiz-adv-x="528" d="M472 213 Q472 169 452 128 Q432 87 396.5 55 Q361 23 313 4 Q265 -15 209 -15 Q176 -15 148 -9.5 Q120 -4 99 6.5 Q78 17 66 31.5 Q54 46 54 64 Q54 77 59.5 88.5 Q65 100 73.5 108.5 Q82 117 92.5 122 Q103 127 114 127 Q131 127 139 112.5 Q147 98 155.5 81 Q164 64 176 49.5 Q188 35 212 35 Q237 35 260.5 49.5 Q284 64 302 89 Q320 114 331 147 Q342 180 342 216 Q342 268 312 290.5 Q282 313 225 316 L236 360 Q278 362 309 373.5 Q340 385 361 402.5 Q382 420 392 442 Q402 464 402 488 Q402 526 379.5 546 Q357 566 324 566 Q295 566 263.5 551 Q232 536 206 504 L167 530 Q202 584 258 612 Q314 640 375 640 Q407 640 434 631 Q461 622 481 605.5 Q501 589 512.5 565.5 Q524 542 524 513 Q524 482 513 455.5 Q502 429 482 407.5 Q462 386 434.5 370.5 Q407 355 374 346 Q421 328 446.5 295.5 Q472 263 472 213 Z " />
<glyph glyph-name="four" unicode="4" horiz-adv-x="528" d="M401 89 Q397 73 397 67 Q397 54 409.5 45.5 Q422 37 454 29 L447 0 Q427 2 395 2.5 Q363 3 330 3 Q292 3 254 2 Q216 1 195 0 L202 29 L270 48 L294 141 L57 141 L46 177 L457 625 L539 625 L434 216 L509 216 L489 141 L414 141 L401 89 Z M148 216 L314 216 L380 471 L148 216 Z " />
<glyph glyph-name="five" unicode="5" horiz-adv-x="528" d="M244 625 L545 625 L516 526 L274 526 L232 377 Q249 388 272.5 395 Q296 402 320 402 Q357 402 385.5 390.5 Q414 379 433.5 358.5 Q453 338 463.5 310.5 Q474 283 474 250 Q474 201 454.5 153.5 Q435 106 398.5 68.5 Q362 31 311 8 Q260 -15 197 -15 Q167 -15 140.5 -9 Q114 -3 93.5 7.5 Q73 18 61.5 32.5 Q50 47 50 64 Q50 76 55 87.5 Q60 99 68.5 107.5 Q77 116 88 121.5 Q99 127 110 127 Q126 127 134.5 112.5 Q143 98 151 81 Q159 64 170 49.5 Q181 35 204 35 Q237 35 263 58.5 Q289 82 307 116 Q325 150 334.5 189 Q344 228 344 260 Q344 304 326 324.5 Q308 345 279 345 Q257 345 235 335.5 Q213 326 194 310 L160 323 L244 625 Z " />
<glyph glyph-name="six" unicode="6" horiz-adv-x="528" d="M529 607 Q450 567 386.5 503 Q323 439 279 366 Q299 376 322.5 382 Q346 388 369 388 Q431 388 469.5 351 Q508 314 508 245 Q508 197 490 150.5 Q472 104 439 67.5 Q406 31 358.5 8 Q311 -15 252 -15 Q174 -15 125 31.5 Q76 78 76 162 Q76 229 107.5 300.5 Q139 372 196 437 Q253 502 333 555.5 Q413 609 510 640 L529 607 Z M327 330 Q289 330 246 303 Q225 255 213.5 209.5 Q202 164 202 122 Q202 85 216 62 Q230 39 260 39 Q288 39 311 62 Q334 85 350 118.5 Q366 152 374.5 189.5 Q383 227 383 256 Q383 291 369 310.5 Q355 330 327 330 Z " />
<glyph glyph-name="seven" unicode="7" horiz-adv-x="528" d="M595 602 L242 0 L96 0 L477 526 L306 526 Q283 526 266.5 523.5 Q250 521 236.5 514 Q223 507 212 494 Q201 481 190 461 L156 466 Q161 478 169 499 Q177 520 185 543.5 Q193 567 200 589 Q207 611 211 625 L580 625 L595 602 Z " />
<glyph glyph-name="eight" unicode="8" horiz-adv-x="528" d="M181 466 Q181 500 196 531.5 Q211 563 238.5 587 Q266 611 305 625 Q344 639 391 639 Q461 639 506 606 Q551 573 551 514 Q551 462 509 420 Q467 378 395 345 Q437 307 466 268 Q495 229 495 177 Q495 135 477 100 Q459 65 426.5 39 Q394 13 349 -1.5 Q304 -16 251 -16 Q210 -16 176 -5.5 Q142 5 116.5 24 Q91 43 77 70.5 Q63 98 63 131 Q63 164 76.5 192.5 Q90 221 113.5 245.5 Q137 270 169.5 289.5 Q202 309 240 324 Q214 352 197.5 387 Q181 422 181 466 Z M372 142 Q372 179 348.5 212 Q325 245 274 290 Q226 264 199 223.5 Q172 183 172 133 Q172 90 196.5 63 Q221 36 263 36 Q287 36 307 44.5 Q327 53 341.5 68 Q356 83 364 102 Q372 121 372 142 Z M361 379 Q400 402 427.5 437 Q455 472 455 517 Q455 551 436.5 570 Q418 589 388 589 Q350 589 326 562.5 Q302 536 302 497 Q302 462 318.5 434 Q335 406 361 379 Z " />
<glyph glyph-name="nine" unicode="9" horiz-adv-x="528" d="M97 18 Q176 58 239.5 122 Q303 186 347 259 Q327 249 303.5 243 Q280 237 257 237 Q195 237 156.5 274 Q118 311 118 380 Q118 428 136 474.5 Q154 521 187 557.5 Q220 594 267.5 617 Q315 640 374 640 Q452 640 501 593.5 Q550 547 550 463 Q550 396 518.5 324.5 Q487 253 430 188 Q373 123 293 69.5 Q213 16 116 -15 L97 18 Z M299 295 Q336 295 380 322 Q401 370 412.5 415.5 Q424 461 424 503 Q424 540 410 563 Q396 586 366 586 Q337 586 314.5 563 Q292 540 276 506.5 Q260 473 251.5 435.5 Q243 398 243 369 Q243 334 257 314.5 Q271 295 299 295 Z " />
<glyph glyph-name="dollar" unicode="&#x24;" horiz-adv-x="528" d="M486 186 Q486 145 467.5 109.5 Q449 74 417 47 Q385 20 341.5 4 Q298 -12 249 -14 L224 -110 L178 -116 L205 -12 Q176 -8 153 5 Q130 18 114 37.5 Q98 57 90 81.5 Q82 106 82 133 L129 138 Q134 94 155 68 Q176 42 218 36 L277 264 Q215 308 185 348 Q155 388 155 441 Q155 483 173.5 519.5 Q192 556 224.5 583 Q257 610 300 625 Q343 640 393 640 L416 729 L463 738 L436 634 Q487 625 517.5 590 Q548 555 547 494 L497 490 Q497 532 478 556 Q459 580 424 586 L365 362 Q393 341 415.5 321 Q438 301 453.5 280.5 Q469 260 477.5 237 Q486 214 486 186 Z M277 481 Q277 456 288.5 434.5 Q300 413 329 391 L380 588 Q335 583 306 553 Q277 523 277 481 Z M364 150 Q364 177 350.5 198 Q337 219 315 236 L262 37 Q306 45 335 75 Q364 105 364 150 Z " />
<glyph glyph-name="cent" unicode="&#xa2;" horiz-adv-x="528" d="M363 400 Q338 395 312.5 371 Q287 347 266.5 312 Q246 277 233 235 Q220 193 220 153 Q220 112 235.5 90 Q251 68 276 63 L363 400 Z M286 -69 L240 -77 L256 -15 Q179 -14 136.5 33 Q94 80 94 153 Q94 212 117.5 267 Q141 322 180 364.5 Q219 407 270 432.5 Q321 458 377 458 L392 514 L439 522 L422 454 Q464 443 490.5 408.5 Q517 374 523 327 L477 319 Q461 392 407 400 L320 63 Q349 70 379 88 Q409 106 432 128 L459 103 Q433 64 389.5 33.5 Q346 3 302 -8 L286 -69 Z " />
<glyph glyph-name="Euro" unicode="&#x20ac;" horiz-adv-x="528" d="M143 288 Q146 305 150 321 Q154 337 159 354 L89 354 L109 400 L176 400 Q197 450 227 493.5 Q257 537 294 569.5 Q331 602 374 621 Q417 640 464 640 Q516 640 553 613.5 Q590 587 611 544 L579 524 Q560 547 535 560.5 Q510 574 481 574 Q453 574 428 560.5 Q403 547 381.5 523 Q360 499 342 467.5 Q324 436 311 400 L485 400 L464 354 L297 354 Q292 337 288 321 Q284 305 281 288 L446 288 L425 242 L275 242 Q274 230 273.5 218 Q273 206 273 195 Q273 131 295.5 93 Q318 55 367 55 Q393 55 427 69.5 Q461 84 490 110 L515 82 Q478 36 426 10.5 Q374 -15 322 -15 Q279 -15 244.5 0 Q210 15 185.5 43 Q161 71 148 111 Q135 151 135 200 Q135 211 135.5 221 Q136 231 137 242 L50 242 L70 288 L143 288 Z " />
<glyph glyph-name="florin" unicode="&#x192;" horiz-adv-x="528" d="M-152 -102 Q-133 -125 -110 -136.5 Q-87 -148 -64 -148 Q-43 -148 -24.5 -138.5 Q-6 -129 12.5 -107 Q31 -85 50 -49.5 Q69 -14 91 38 L217 340 L129 340 L158 386 L236 386 Q290 512 360.5 576 Q431 640 516 640 Q565 640 597 620.5 Q629 601 629 576 Q629 565 622.5 554 Q616 543 606 534.5 Q596 526 584 520.5 Q572 515 561 515 Q546 515 539.5 527.5 Q533 540 528.5 554.5 Q524 569 518 581.5 Q512 594 496 594 Q462 594 430 540 Q398 486 356 386 L461 386 L430 340 L337 340 L223 67 Q197 4 168.5 -46.5 Q140 -97 108 -133 Q76 -169 39 -188 Q2 -207 -42 -207 Q-88 -207 -125 -185.5 Q-162 -164 -184 -132 L-152 -102 Z " />
<glyph glyph-name="sterling" unicode="&#xa3;" horiz-adv-x="528" d="M118 142 Q127 142 136.5 141 Q146 140 155 138 L176 220 L200 317 L120 317 L132 363 L212 363 L222 402 Q250 514 310 577 Q370 640 469 640 Q495 640 518 635 Q541 630 558 621 Q575 612 585 600 Q595 588 595 574 Q595 562 589.5 551.5 Q584 541 575.5 533 Q567 525 556.5 520 Q546 515 536 515 Q521 515 512.5 528 Q504 541 495.5 556 Q487 571 476.5 584 Q466 597 448 597 Q414 597 392 554 Q370 511 351 433 L334 363 L450 363 L429 317 L322 317 L296 211 Q288 181 278.5 153.5 Q269 126 257 103 Q284 92 311.5 83.5 Q339 75 368 75 Q405 75 433 87.5 Q461 100 495 132 L520 111 Q484 54 442 19.5 Q400 -15 348 -15 Q307 -15 275.5 3 Q244 21 218 44 Q167 -15 103 -15 Q65 -15 44.5 7.5 Q24 30 24 60 Q24 99 51.5 120.5 Q79 142 118 142 Z M95 37 Q109 37 119.5 50.5 Q130 64 142 98 Q127 103 116 103 Q95 103 82 92.5 Q69 82 69 65 Q69 53 76.5 45 Q84 37 95 37 Z " />
<glyph glyph-name="yen" unicode="&#xa5;" horiz-adv-x="528" d="M386 285 L493 285 L472 239 L362 239 L346 179 L464 179 L443 133 L333 133 L328 112 Q323 95 321.5 86 Q320 77 320 70 Q320 56 332 46.5 Q344 37 376 29 L368 0 Q358 0 341.5 0.5 Q325 1 307 1.5 Q289 2 272 2.5 Q255 3 243 3 Q230 3 211.5 2.5 Q193 2 174 1.5 Q155 1 138 0.5 Q121 0 112 0 L120 29 L182 49 L204 133 L80 133 L101 179 L216 179 L232 239 L109 239 L130 285 L228 285 L175 530 Q167 563 151.5 576 Q136 589 101 596 L108 625 Q115 625 131 624.5 Q147 624 165 623.5 Q183 623 200.5 622.5 Q218 622 228 622 Q240 622 258.5 622.5 Q277 623 296 623.5 Q315 624 331.5 624.5 Q348 625 356 625 L349 596 L295 579 L348 324 L519 581 L467 596 L475 625 Q498 623 525.5 622.5 Q553 622 571 622 Q588 622 613.5 623 Q639 624 658 625 L650 596 Q632 594 619.5 590.5 Q607 587 596.5 580.5 Q586 574 576 563.5 Q566 553 555 536 L386 285 Z " />
<glyph glyph-name="numbersign" unicode="&#x23;" horiz-adv-x="528" d="M558 445 L542 375 L451 375 L425 249 L516 249 L501 179 L409 179 L368 -16 L292 -16 L334 179 L238 179 L196 -16 L120 -16 L162 179 L70 179 L86 249 L177 249 L203 375 L112 375 L127 445 L218 445 L260 640 L336 640 L295 445 L390 445 L432 640 L507 640 L466 445 L558 445 Z M253 249 L349 249 L376 375 L279 375 L253 249 Z " />
<glyph glyph-name="percent" unicode="&#x25;" horiz-adv-x="808" d="M424 496 Q424 455 410.5 412 Q397 369 371.5 333.5 Q346 298 309.5 275.5 Q273 253 228 253 Q169 253 137 288.5 Q105 324 105 387 Q105 428 118.5 471 Q132 514 157.5 549.5 Q183 585 219.5 607.5 Q256 630 301 630 Q360 630 392 594.5 Q424 559 424 496 Z M329 535 Q329 562 321 577 Q313 592 297 592 Q275 592 257 564.5 Q239 537 226.5 498.5 Q214 460 207 418.5 Q200 377 200 348 Q200 321 208 306 Q216 291 232 291 Q253 291 271 318.5 Q289 346 302 384.5 Q315 423 322 464.5 Q329 506 329 535 Z M803 237 Q803 196 789.5 153 Q776 110 750.5 74.5 Q725 39 688.5 16.5 Q652 -6 607 -6 Q548 -6 516 29.5 Q484 65 484 128 Q484 169 497.5 212 Q511 255 536.5 290.5 Q562 326 598.5 348.5 Q635 371 680 371 Q739 371 771 335.5 Q803 300 803 237 Z M708 276 Q708 303 700 318 Q692 333 676 333 Q654 333 636 305.5 Q618 278 605.5 239.5 Q593 201 586 159.5 Q579 118 579 89 Q579 62 587 47 Q595 32 611 32 Q632 32 650 59.5 Q668 87 681 125.5 Q694 164 701 205.5 Q708 247 708 276 Z M205 -15 L144 -15 L703 640 L764 640 L205 -15 Z " />
<glyph glyph-name="perthousand" unicode="&#x2030;" horiz-adv-x="1158" d="M424 496 Q424 455 410.5 412 Q397 369 371.5 333.5 Q346 298 309.5 275.5 Q273 253 228 253 Q169 253 137 288.5 Q105 324 105 387 Q105 428 118.5 471 Q132 514 157.5 549.5 Q183 585 219.5 607.5 Q256 630 301 630 Q360 630 392 594.5 Q424 559 424 496 Z M329 535 Q329 562 321 577 Q313 592 297 592 Q275 592 257 564.5 Q239 537 226.5 498.5 Q214 460 207 418.5 Q200 377 200 348 Q200 321 208 306 Q216 291 232 291 Q253 291 271 318.5 Q289 346 302 384.5 Q315 423 322 464.5 Q329 506 329 535 Z M803 237 Q803 196 789.5 153 Q776 110 750.5 74.5 Q725 39 688.5 16.5 Q652 -6 607 -6 Q548 -6 516 29.5 Q484 65 484 128 Q484 169 497.5 212 Q511 255 536.5 290.5 Q562 326 598.5 348.5 Q635 371 680 371 Q739 371 771 335.5 Q803 300 803 237 Z M708 276 Q708 303 700 318 Q692 333 676 333 Q654 333 636 305.5 Q618 278 605.5 239.5 Q593 201 586 159.5 Q579 118 579 89 Q579 62 587 47 Q595 32 611 32 Q632 32 650 59.5 Q668 87 681 125.5 Q694 164 701 205.5 Q708 247 708 276 Z M1153 237 Q1153 196 1139.5 153 Q1126 110 1100.5 74.5 Q1075 39 1038.5 16.5 Q1002 -6 957 -6 Q898 -6 866 29.5 Q834 65 834 128 Q834 169 847.5 212 Q861 255 886.5 290.5 Q912 326 948.5 348.5 Q985 371 1030 371 Q1089 371 1121 335.5 Q1153 300 1153 237 Z M1058 276 Q1058 303 1050 318 Q1042 333 1026 333 Q1004 333 986 305.5 Q968 278 955.5 239.5 Q943 201 936 159.5 Q929 118 929 89 Q929 62 937 47 Q945 32 961 32 Q982 32 1000 59.5 Q1018 87 1031 125.5 Q1044 164 1051 205.5 Q1058 247 1058 276 Z M205 -15 L144 -15 L703 640 L764 640 L205 -15 Z " />
<glyph glyph-name="plus" unicode="&#x2b;" horiz-adv-x="450" d="M278 186 L244 53 L169 53 L204 186 L76 186 L95 260 L223 260 L257 393 L332 393 L297 260 L425 260 L406 186 L278 186 Z " />
<glyph glyph-name="minus" unicode="&#x2212;" horiz-adv-x="450" d="M425 260 L406 186 L76 186 L95 260 L425 260 Z " />
<glyph glyph-name="multiply" unicode="&#xd7;" horiz-adv-x="450" d="M305 74 L238 168 L122 74 L84 126 L200 220 L133 314 L198 366 L264 272 L380 366 L418 314 L303 220 L369 126 L305 74 Z " />
<glyph glyph-name="less" unicode="&#x3c;" horiz-adv-x="450" d="M77 189 L94 256 L468 427 L447 342 L183 223 L385 105 L365 26 L77 189 Z " />
<glyph glyph-name="divide" unicode="&#xf7;" horiz-adv-x="450" d="M425 260 L406 186 L76 186 L95 260 L425 260 Z M205 37 Q186 37 174.5 48.5 Q163 60 163 77 Q163 103 183 122.5 Q203 142 230 142 Q249 142 260.5 130.5 Q272 119 272 102 Q272 76 252 56.5 Q232 37 205 37 Z M277 304 Q258 304 246.5 315.5 Q235 327 235 344 Q235 370 255 389.5 Q275 409 302 409 Q321 409 332.5 397.5 Q344 386 344 369 Q344 343 324 323.5 Q304 304 277 304 Z " />
<glyph glyph-name="equal" unicode="&#x3d;" horiz-adv-x="450" d="M444 335 L425 261 L95 261 L114 335 L444 335 Z M405 183 L386 109 L56 109 L75 183 L405 183 Z " />
<glyph glyph-name="logicalnot" unicode="&#xac;" horiz-adv-x="450" d="M311 109 L351 261 L95 261 L114 335 L444 335 L386 109 L311 109 Z " />
<glyph glyph-name="greater" unicode="&#x3e;" horiz-adv-x="450" d="M424 256 L407 189 L33 18 L54 103 L318 222 L116 340 L136 419 L424 256 Z " />
<glyph glyph-name="notequal" unicode="&#x2260;" horiz-adv-x="450" d="M299 335 L356 416 L422 416 L365 335 L444 335 L425 261 L313 261 L259 183 L405 183 L386 109 L207 109 L151 29 L86 29 L142 109 L56 109 L75 183 L193 183 L248 261 L95 261 L114 335 L299 335 Z " />
<glyph glyph-name="approxequal" unicode="&#x2248;" horiz-adv-x="450" d="M452 354 Q432 301 399.5 268.5 Q367 236 322 236 Q300 236 283.5 244 Q267 252 252.5 261 Q238 270 223.5 278 Q209 286 191 286 Q150 286 122 236 L87 236 Q108 295 145 324 Q182 353 221 353 Q243 353 259 345.5 Q275 338 289.5 329.5 Q304 321 318 313.5 Q332 306 350 306 Q375 306 390.5 320 Q406 334 417 354 L452 354 Z M413 202 Q393 149 360.5 116.5 Q328 84 283 84 Q261 84 244.5 92 Q228 100 213.5 109 Q199 118 184.5 126 Q170 134 152 134 Q111 134 83 84 L48 84 Q69 143 106 172 Q143 201 182 201 Q204 201 220 193.5 Q236 186 250.5 177.5 Q265 169 279 161.5 Q293 154 311 154 Q336 154 351.5 168 Q367 182 378 202 L413 202 Z " />
<glyph glyph-name="plusminus" unicode="&#xb1;" horiz-adv-x="450" d="M297 271 L263 138 L188 138 L223 271 L95 271 L114 345 L242 345 L276 478 L351 478 L316 345 L444 345 L425 271 L297 271 Z M373 74 L354 0 L24 0 L43 74 L373 74 Z " />
<glyph glyph-name="lessequal" unicode="&#x2264;" horiz-adv-x="450" d="M373 74 L354 0 L24 0 L43 74 L373 74 Z M97 278 L114 345 L488 516 L467 431 L203 312 L405 194 L385 115 L97 278 Z " />
<glyph glyph-name="greaterequal" unicode="&#x2265;" horiz-adv-x="450" d="M444 345 L427 278 L53 107 L74 192 L338 311 L136 429 L156 508 L444 345 Z M373 74 L354 0 L24 0 L43 74 L373 74 Z " />
<glyph glyph-name="asciicircum" unicode="&#x5e;" horiz-adv-x="450" d="M371 342 L325 539 L175 342 L88 342 L312 625 L382 625 L458 342 L371 342 Z " />
<glyph glyph-name="asciitilde" unicode="&#x7e;" horiz-adv-x="450" d="M70 240 Q90 306 129 343 Q168 380 218 380 Q243 380 262.5 371 Q282 362 299.5 350.5 Q317 339 333 330 Q349 321 368 321 Q393 321 409.5 337.5 Q426 354 436 380 L479 380 Q459 314 420 277 Q381 240 331 240 Q306 240 286.5 249 Q267 258 249.5 269.5 Q232 281 216 290 Q200 299 181 299 Q156 299 139.5 282.5 Q123 266 113 240 L70 240 Z " />
<glyph glyph-name="lozenge" unicode="&#x25ca;" horiz-adv-x="551" d="M210 0 L92 316 L373 625 L436 625 L555 316 L273 0 L210 0 Z M256 72 L477 320 L389 552 L170 311 L256 72 Z " />
<glyph glyph-name="degree" unicode="&#xb0;" horiz-adv-x="326" d="M236 429 Q255 429 271 437 Q287 445 299 459 Q311 473 317.5 491.5 Q324 510 324 531 Q324 555 309.5 571.5 Q295 588 267 588 Q248 588 232 580 Q216 572 204 558 Q192 544 185.5 525.5 Q179 507 179 486 Q179 462 193.5 445.5 Q208 429 236 429 Z M231 377 Q202 377 180 385.5 Q158 394 144 409 Q130 424 123 444 Q116 464 116 486 Q116 517 128.5 545 Q141 573 162.5 594 Q184 615 212.5 627.5 Q241 640 272 640 Q301 640 322.5 631.5 Q344 623 358.5 608 Q373 593 380 573 Q387 553 387 531 Q387 499 374.5 471 Q362 443 340.5 422 Q319 401 290.5 389 Q262 377 231 377 Z " />
<glyph glyph-name="quotesingle" unicode="&#x27;" horiz-adv-x="183" d="M124 383 Q127 410 128.5 437 Q130 464 131 489.5 Q132 515 134.5 538 Q137 561 142 580 Q150 607 165 623.5 Q180 640 207 640 Q224 640 237 630 Q250 620 250 599 Q250 579 239 550 Q228 521 203 473 Q191 450 180.5 428 Q170 406 162 383 L124 383 L124 383 Z " />
<glyph glyph-name="quotedbl" unicode="&#x22;" horiz-adv-x="340" d="M124 383 Q127 410 128.5 437 Q130 464 131 489.5 Q132 515 134.5 538 Q137 561 142 580 Q150 607 165 623.5 Q180 640 207 640 Q224 640 237 630 Q250 620 250 599 Q250 579 239 550 Q228 521 203 473 Q191 450 180.5 428 Q170 406 162 383 L124 383 Z M281 383 Q284 410 285.5 437 Q287 464 288 489.5 Q289 515 291.5 538 Q294 561 299 580 Q307 607 322 623.5 Q337 640 364 640 Q381 640 394 630 Q407 620 407 599 Q407 579 396 550 Q385 521 360 473 Q348 450 337.5 428 Q327 406 319 383 L281 383 Z " />
<glyph glyph-name="radical" unicode="&#x221a;" horiz-adv-x="627" d="M230 444 Q279 444 298.5 431 Q318 418 323 378 L348 146 L594 550 Q606 571 618 585 Q630 599 644.5 608 Q659 617 676.5 621 Q694 625 717 625 L757 625 L745 579 L721 579 Q696 579 681 571 Q666 563 648 534 L322 -2 L252 -2 L206 353 Q202 381 193.5 389.5 Q185 398 157 398 L106 398 L119 444 L230 444 Z " />
<glyph glyph-name="currency" unicode="&#xa4;" horiz-adv-x="528" d="M272 114 Q226 114 188 133 L128 66 L60 66 L148 163 Q129 183 120 209 Q111 235 111 264 Q111 323 138 374 Q165 425 213 458 L172 553 L238 553 L265 487 Q307 505 354 505 Q400 505 438 486 L498 553 L566 553 L478 456 Q497 436 506 410 Q515 384 515 355 Q515 296 488 245 Q461 194 413 161 L454 66 L388 66 L361 132 Q319 114 272 114 Z M398 376 Q398 406 385.5 429.5 Q373 453 346 453 Q319 453 297 432 Q275 411 260 379.5 Q245 348 236.5 311.5 Q228 275 228 243 Q228 213 240.5 189.5 Q253 166 280 166 Q307 166 329 187 Q351 208 366 239.5 Q381 271 389.5 307.5 Q398 344 398 376 Z " />
<glyph glyph-name="infinity" unicode="&#x221e;" horiz-adv-x="698" d="M341 273 Q327 312 301.5 339 Q276 366 238 366 Q220 366 203.5 359.5 Q187 353 174 341.5 Q161 330 153 313.5 Q145 297 145 277 Q145 252 163 236 Q181 220 214 220 Q247 220 282.5 235 Q318 250 341 273 Z M446 326 Q460 287 485.5 260 Q511 233 549 233 Q567 233 583.5 239.5 Q600 246 613 257.5 Q626 269 634 285.5 Q642 302 642 322 Q642 347 624 363 Q606 379 573 379 Q540 379 504.5 364 Q469 349 446 326 Z M360 225 Q325 176 283.5 152 Q242 128 202 128 Q156 128 126 162 Q96 196 96 256 Q96 297 110.5 336 Q125 375 150.5 405 Q176 435 210.5 453 Q245 471 286 471 Q339 471 371.5 446.5 Q404 422 427 374 Q462 423 503.5 447 Q545 471 585 471 Q631 471 661 437 Q691 403 691 343 Q691 302 676.5 263 Q662 224 636.5 194 Q611 164 576.5 146 Q542 128 501 128 Q448 128 415.5 152.5 Q383 177 360 225 Z " />
<glyph glyph-name="uni00B5" unicode="&#xb5;" horiz-adv-x="532" d="M165 -15 Q137 -15 116.5 -5 Q96 5 82 22 Q78 2 75 -19.5 Q72 -41 69.5 -62 Q67 -83 63.5 -103 Q60 -123 56 -139 Q39 -200 -3 -200 Q-22 -200 -32 -187.5 Q-42 -175 -42 -154 Q-42 -132 -32.5 -108.5 Q-23 -85 -8 -51.5 Q7 -18 26 29 Q45 76 64 145 L123 356 Q125 362 126 368 Q127 374 127 379 Q127 394 115.5 402 Q104 410 81 417 L88 444 Q137 444 185.5 445.5 Q234 447 260 451 L268 443 L201 200 Q190 162 187 143 Q184 124 184 113 Q184 95 193.5 83.5 Q203 72 222 72 Q253 72 283 105 Q299 123 313.5 148 Q328 173 340 203.5 Q352 234 363 267.5 Q374 301 383 336 L412 444 L534 444 L446 114 Q439 86 439 75 Q439 56 457 56 Q465 56 474.5 58.5 Q484 61 493 65 L483 26 Q462 12 434 1.5 Q406 -9 382 -9 Q350 -9 333 9 Q316 27 316 59 Q316 64 316.5 70 Q317 76 318 82 Q291 39 250.5 12 Q210 -15 165 -15 Z " />
<glyph glyph-name="partialdiff" unicode="&#x2202;" horiz-adv-x="528" d="M299 396 Q325 396 348.5 388.5 Q372 381 389 370 Q386 443 360.5 504 Q335 565 281 607 L304 640 Q407 595 462 513 Q517 431 517 325 Q517 252 497.5 189.5 Q478 127 443 81.5 Q408 36 358 10.5 Q308 -15 247 -15 Q165 -15 120.5 29 Q76 73 76 145 Q76 201 98 252 Q120 303 157 338 Q185 365 221 380.5 Q257 396 299 396 Z M257 39 Q284 39 308 63 Q332 87 350 126 Q368 165 378.5 214 Q389 263 389 313 Q362 334 331 334 Q302 334 277.5 314 Q253 294 236 263 Q219 232 209.5 194.5 Q200 157 200 123 Q200 81 215.5 60 Q231 39 257 39 Z " />
<glyph glyph-name="summation" unicode="&#x2211;" horiz-adv-x="539" d="M-43 -75 L-48 -62 L313 304 L164 688 L175 700 L625 700 Q621 685 616 664 Q611 643 606 621 Q601 599 596.5 579.5 Q592 560 590 549 L561 549 L534 653 L306 653 L419 358 Q422 350 421 344 Q420 338 412 330 L111 24 L318 24 Q346 24 365.5 28 Q385 32 399.5 42 Q414 52 425 67.5 Q436 83 447 106 L480 106 Q474 88 465.5 63 Q457 38 449 12 Q441 -14 433.5 -37.5 Q426 -61 422 -75 L-43 -75 Z " />
<glyph glyph-name="product" unicode="&#x220f;" horiz-adv-x="711" d="M368 653 L207 38 Q202 21 200.5 12 Q199 3 199 -4 Q199 -18 211 -27.5 Q223 -37 255 -45 L247 -74 Q237 -74 220.5 -73.5 Q204 -73 186 -72.5 Q168 -72 151 -71.5 Q134 -71 122 -71 Q109 -71 90.5 -71.5 Q72 -72 53 -72.5 Q34 -73 17 -73.5 Q0 -74 -9 -74 L-1 -45 L61 -25 L222 588 Q227 605 228.5 614 Q230 623 230 630 Q230 644 218 653.5 Q206 663 174 671 L182 700 L822 700 L814 671 L750 651 L589 38 Q584 21 582.5 12 Q581 3 581 -4 Q581 -18 593 -27.5 Q605 -37 637 -45 L629 -74 Q619 -74 602.5 -73.5 Q586 -73 568 -72.5 Q550 -72 533 -71.5 Q516 -71 504 -71 Q491 -71 472.5 -71.5 Q454 -72 435 -72.5 Q416 -73 399 -73.5 Q382 -74 373 -74 L381 -45 L443 -25 L621 653 L368 653 Z " />
<glyph glyph-name="integral" unicode="&#x222b;" horiz-adv-x="383" d="M303 296 Q277 199 249.5 129 Q222 59 190.5 14 Q159 -31 122.5 -52.5 Q86 -74 42 -74 Q7 -74 -16 -59.5 Q-39 -45 -39 -25 Q-39 -5 -22 10.5 Q-5 26 11 26 Q23 26 30 18.5 Q37 11 43.5 2 Q50 -7 57.5 -14.5 Q65 -22 78 -22 Q96 -22 111 -5.5 Q126 11 135 43 Q142 68 145.5 99 Q149 130 152.5 165 Q156 200 162 239.5 Q168 279 179 321 Q204 418 231.5 488 Q259 558 290.5 603 Q322 648 359 669.5 Q396 691 440 691 Q475 691 498 676.5 Q521 662 521 642 Q521 622 504 606.5 Q487 591 471 591 Q459 591 452 598.5 Q445 606 438.5 615 Q432 624 424.5 631.5 Q417 639 404 639 Q386 639 371 622.5 Q356 606 347 574 Q340 549 336.5 518 Q333 487 329.5 452 Q326 417 320 377.5 Q314 338 303 296 Z " />
<glyph glyph-name="Ohm" unicode="&#x2126;" horiz-adv-x="726" d="M477 583 Q424 583 383 554 Q342 525 313 478 Q284 431 269 369.5 Q254 308 254 244 Q254 185 269.5 133.5 Q285 82 314 30 L301 0 L27 0 Q30 14 34.5 35 Q39 56 44 78.5 Q49 101 53.5 123 Q58 145 61 163 L95 163 Q95 160 94.5 152.5 Q94 145 94 140 Q94 111 110.5 100.5 Q127 90 172 90 L233 90 Q209 106 189 128.5 Q169 151 155 177 Q141 203 133 232.5 Q125 262 125 293 Q125 364 153 427 Q181 490 229.5 537.5 Q278 585 343 612.5 Q408 640 482 640 Q548 640 593 622.5 Q638 605 665.5 576 Q693 547 705.5 510 Q718 473 718 434 Q718 377 698.5 325.5 Q679 274 646 230 Q613 186 569 150.5 Q525 115 476 90 L526 90 Q552 90 570 93 Q588 96 601.5 104.5 Q615 113 626 127 Q637 141 648 163 L684 163 Q678 145 670.5 123 Q663 101 655.5 78.5 Q648 56 641.5 35 Q635 14 631 0 L358 0 L358 30 Q407 76 449 126 Q491 176 521.5 229 Q552 282 569 338 Q586 394 586 451 Q586 475 580.5 498.5 Q575 522 562 541 Q549 560 528.5 571.5 Q508 583 477 583 Z " />
<glyph glyph-name="Delta" unicode="&#x2206;" horiz-adv-x="590" d="M6 20 L395 625 L462 625 L540 20 L525 0 L11 0 L6 20 Z M355 461 L95 54 L406 54 L355 461 Z " />
<glyph glyph-name="litre" unicode="&#x2113;" horiz-adv-x="479" d="M272 161 Q268 144 265.5 129.5 Q263 115 263 101 Q263 49 322 49 Q342 49 363 53.5 Q384 58 399 64 L390 28 Q379 21 364 14 Q349 7 331.5 1 Q314 -5 295 -8.5 Q276 -12 257 -12 Q200 -12 168.5 15.5 Q137 43 137 91 Q137 108 140.5 129.5 Q144 151 150 173 Q130 164 110 156 Q90 148 70 140 L56 178 Q82 189 110.5 202.5 Q139 216 162 228 L200 387 Q229 509 285.5 574.5 Q342 640 422 640 Q451 640 471.5 631.5 Q492 623 504.5 609 Q517 595 523 576.5 Q529 558 529 539 Q529 496 509 455.5 Q489 415 456 378.5 Q423 342 380 308.5 Q337 275 292 247 L272 161 Z M435 557 Q435 591 411 591 Q389 591 375 563 Q361 535 347 478 L311 326 Q337 353 359.5 385 Q382 417 399 448 Q416 479 425.5 507.5 Q435 536 435 557 Z " />
<glyph glyph-name="estimated" unicode="&#x212e;" horiz-adv-x="788" d="M212 305 Q207 305 207 301 L207 122 Q207 111 216 102 Q258 56 315.5 30 Q373 4 437 4 Q509 4 569 33 Q629 62 673 113 L726 113 Q676 55 600.5 20 Q525 -15 436 -15 Q361 -15 295 11 Q229 37 179.5 81 Q130 125 101.5 184.5 Q73 244 73 312 Q73 380 101.5 439.5 Q130 499 179.5 543.5 Q229 588 295 614 Q361 640 436 640 Q512 640 578.5 614 Q645 588 694.5 543.5 Q744 499 772.5 439.5 Q801 380 801 312 L801 305 L212 305 Z M669 506 Q669 517 659 527 Q616 571 559.5 596 Q503 621 437 621 Q373 621 316 595 Q259 569 217 524 Q207 516 207 502 L207 326 Q207 321 212 321 L664 321 Q669 321 669 326 L669 506 Z " />
<glyph glyph-name="numero" unicode="&#x2116;" horiz-adv-x="1000" d="M701 183 L714 230 L971 230 L958 183 L701 183 Z M1032 463 Q1032 427 1018.5 391.5 Q1005 356 981.5 328.5 Q958 301 925.5 284 Q893 267 854 267 Q805 267 772.5 297 Q740 327 740 384 Q740 420 753.5 455.5 Q767 491 790.5 518.5 Q814 546 846.5 563 Q879 580 918 580 Q967 580 999.5 550 Q1032 520 1032 463 Z M947 485 Q947 509 938.5 524 Q930 539 913 539 Q893 539 876.5 520 Q860 501 848.5 473.5 Q837 446 831 415.5 Q825 385 825 362 Q825 338 833.5 323 Q842 308 859 308 Q879 308 895.5 327 Q912 346 923.5 373.5 Q935 401 941 431.5 Q947 462 947 485 Z M323 625 L541 176 L630 513 Q635 530 636.5 539 Q638 548 638 555 Q638 569 626 578.5 Q614 588 582 596 L590 625 Q610 624 635 623 Q660 622 683 622 Q705 622 735 623 Q765 624 783 625 L775 596 L713 576 L562 -2 L491 -2 L260 472 L165 112 Q160 95 158.5 86 Q157 77 157 70 Q157 56 169 46.5 Q181 37 213 29 L205 0 Q185 1 159.5 2 Q134 3 113 3 Q90 3 60 2 Q30 1 12 0 L20 29 L82 49 L203 513 Q208 530 209.5 539 Q211 548 211 555 Q211 569 199 578.5 Q187 588 155 596 L163 625 L323 625 Z " />
<glyph glyph-name="ordfeminine" unicode="&#xaa;" horiz-adv-x="350" d="M171 253 Q131 253 108 279.5 Q85 306 85 351 Q85 387 99 421.5 Q113 456 137.5 483 Q162 510 194.5 526.5 Q227 543 264 543 Q301 543 325 525 L341 540 L398 531 L346 332 Q342 316 342 310 Q342 297 357 297 Q362 297 368 298 Q374 299 379 301 L373 277 Q360 268 338.5 260.5 Q317 253 300 253 Q280 253 267.5 263 Q255 273 253 292 Q236 273 214 263 Q192 253 171 253 Z M299 491 Q294 497 286.5 501 Q279 505 270 505 Q250 505 233.5 489 Q217 473 204 449.5 Q191 426 184 399 Q177 372 177 350 Q177 330 184 317.5 Q191 305 207 305 Q226 305 243 327 Q263 353 280 418 L299 491 Z " />
<glyph glyph-name="ordmasculine" unicode="&#xba;" horiz-adv-x="336" d="M212 291 Q229 291 244 307 Q259 323 270 346.5 Q281 370 287.5 398 Q294 426 294 450 Q294 505 260 505 Q243 505 228 489 Q213 473 202 449.5 Q191 426 184.5 398 Q178 370 178 346 Q178 291 212 291 Z M208 253 Q151 253 118 283 Q85 313 85 364 Q85 402 99 435 Q113 468 137 492 Q161 516 193.5 529.5 Q226 543 264 543 Q321 543 354 513 Q387 483 387 432 Q387 394 373 361 Q359 328 335 304 Q311 280 278 266.5 Q245 253 208 253 Z " />
<glyph glyph-name="onesuperior" unicode="&#xb9;" horiz-adv-x="357" d="M350 369 Q337 370 311.5 370.5 Q286 371 259 371 Q247 371 231.5 371 Q216 371 201 370.5 Q186 370 173 369.5 Q160 369 154 369 L161 391 L215 403 L275 641 Q278 654 278 660 Q278 673 268 680 Q258 687 229 694 L236 716 Q281 717 313.5 722.5 Q346 728 366 737 L390 737 L315 443 Q311 427 311 420 Q311 409 320.5 402.5 Q330 396 356 391 L350 369 Z " />
<glyph glyph-name="twosuperior" unicode="&#xb2;" horiz-adv-x="357" d="M395 480 Q386 460 373.5 427 Q361 394 352 369 L121 369 L114 390 Q175 446 216 485.5 Q257 525 281 553.5 Q305 582 315 603 Q325 624 325 645 Q325 666 313 677 Q301 688 283 688 Q263 688 241.5 676 Q220 664 203 641 L179 659 Q202 696 239 718 Q276 740 322 740 Q367 740 395 716 Q423 692 423 650 Q423 614 402.5 586.5 Q382 559 352 534.5 Q322 510 288 487.5 Q254 465 227 440 L302 440 Q326 440 341.5 448 Q357 456 372 485 L395 480 Z " />
<glyph glyph-name="threesuperior" unicode="&#xb3;" horiz-adv-x="357" d="M191 669 Q217 705 253.5 722.5 Q290 740 328 740 Q373 740 400.5 719.5 Q428 699 428 662 Q428 627 403.5 602 Q379 577 342 565 Q371 554 386 536 Q401 518 401 490 Q401 465 388 442 Q375 419 352 401.5 Q329 384 297 373.5 Q265 363 227 363 Q178 363 150 378.5 Q122 394 122 417 Q122 434 136 447 Q150 460 165 460 Q176 460 182.5 450.5 Q189 441 194.5 430 Q200 419 208 409.5 Q216 400 230 400 Q245 400 258.5 408 Q272 416 281.5 429 Q291 442 297 458 Q303 474 303 490 Q303 546 227 546 L235 574 Q286 578 311.5 597 Q337 616 337 647 Q337 667 323.5 678 Q310 689 290 689 Q249 689 214 651 L191 669 Z " />
<glyph glyph-name="fraction" unicode="&#x2044;" horiz-adv-x="104" d="M-139 -15 L-200 -15 L359 640 L420 640 L-139 -15 Z " />
<glyph glyph-name="onehalf" unicode="&#xbd;" horiz-adv-x="808" d="M314 259 Q301 260 275.5 260.5 Q250 261 223 261 Q211 261 195.5 261 Q180 261 165 260.5 Q150 260 137 259.5 Q124 259 118 259 L125 281 L179 293 L239 531 Q242 544 242 550 Q242 563 232 570 Q222 577 193 584 L200 606 Q245 607 277.5 612.5 Q310 618 330 627 L354 627 L279 333 Q275 317 275 310 Q275 299 284.5 292.5 Q294 286 320 281 L314 259 Z M746 111 Q737 91 724.5 58 Q712 25 703 0 L472 0 L465 21 Q526 77 567 116.5 Q608 156 632 184.5 Q656 213 666 234 Q676 255 676 276 Q676 297 664 308 Q652 319 634 319 Q614 319 592.5 307 Q571 295 554 272 L530 290 Q553 327 590 349 Q627 371 673 371 Q718 371 746 347 Q774 323 774 281 Q774 245 753.5 217.5 Q733 190 703 165.5 Q673 141 639 118.5 Q605 96 578 71 L653 71 Q677 71 692.5 79 Q708 87 723 116 L746 111 Z M207 -15 L146 -15 L705 640 L766 640 L207 -15 Z " />
<glyph glyph-name="onequarter" unicode="&#xbc;" horiz-adv-x="808" d="M314 259 Q301 260 275.5 260.5 Q250 261 223 261 Q211 261 195.5 261 Q180 261 165 260.5 Q150 260 137 259.5 Q124 259 118 259 L125 281 L179 293 L239 531 Q242 544 242 550 Q242 563 232 570 Q222 577 193 584 L200 606 Q245 607 277.5 612.5 Q310 618 330 627 L354 627 L279 333 Q275 317 275 310 Q275 299 284.5 292.5 Q294 286 320 281 L314 259 Z M689 74 Q685 58 685 51 Q685 40 691.5 33.5 Q698 27 724 22 L718 0 Q705 1 682.5 1.5 Q660 2 633 2 Q621 2 607 2 Q593 2 579.5 1.5 Q566 1 554 0.5 Q542 0 536 0 L543 22 L589 34 L605 95 L460 95 L451 115 L696 366 L763 366 L706 140 L762 140 L750 95 L694 95 L689 74 Z M649 273 L519 140 L616 140 L649 273 Z M211 -15 L150 -15 L709 640 L770 640 L211 -15 Z " />
<glyph glyph-name="threequarters" unicode="&#xbe;" horiz-adv-x="808" d="M175 559 Q201 595 237.5 612.5 Q274 630 312 630 Q357 630 384.5 609.5 Q412 589 412 552 Q412 517 387.5 492 Q363 467 326 455 Q355 444 370 426 Q385 408 385 380 Q385 355 372 332 Q359 309 336 291.5 Q313 274 281 263.5 Q249 253 211 253 Q162 253 134 268.5 Q106 284 106 307 Q106 324 120 337 Q134 350 149 350 Q160 350 166.5 340.5 Q173 331 178.5 320 Q184 309 192 299.5 Q200 290 214 290 Q229 290 242.5 298 Q256 306 265.5 319 Q275 332 281 348 Q287 364 287 380 Q287 436 211 436 L219 464 Q270 468 295.5 487 Q321 506 321 537 Q321 557 307.5 568 Q294 579 274 579 Q233 579 198 541 L175 559 Z M707 74 Q703 58 703 51 Q703 40 709.5 33.5 Q716 27 742 22 L736 0 Q723 1 700.5 1.5 Q678 2 651 2 Q639 2 625 2 Q611 2 597.5 1.5 Q584 1 572 0.5 Q560 0 554 0 L561 22 L607 34 L623 95 L478 95 L469 115 L714 366 L781 366 L724 140 L780 140 L768 95 L712 95 L707 74 Z M667 273 L537 140 L634 140 L667 273 Z M233 -15 L172 -15 L731 640 L792 640 L233 -15 Z " />
<glyph glyph-name="Agrave" unicode="&#xc0;" horiz-adv-x="633" d="M397 194 L206 194 L146 95 Q132 71 132 61 Q132 50 144 42.5 Q156 35 184 29 L176 0 Q156 1 127 2 Q98 3 79 3 Q57 3 26.5 2 Q-4 1 -22 0 L-14 29 L48 48 L403 625 L481 625 L533 121 Q535 98 538.5 83.5 Q542 69 549.5 59 Q557 49 570 42.5 Q583 36 605 29 L597 0 Q589 0 573.5 0.5 Q558 1 540 1.5 Q522 2 504 2.5 Q486 3 474 3 Q461 3 443.5 2.5 Q426 2 408 1.5 Q390 1 373 0.5 Q356 0 344 0 L352 29 L412 47 L397 194 Z M237 245 L392 245 L370 465 L237 245 Z M363 750 L392 787 Q405 803 418 803 Q426 803 433 798 Q440 793 450 785 L566 679 L553 660 L365 738 L363 750 Z " />
<glyph glyph-name="Aacute" unicode="&#xc1;" horiz-adv-x="633" d="M397 194 L206 194 L146 95 Q132 71 132 61 Q132 50 144 42.5 Q156 35 184 29 L176 0 Q156 1 127 2 Q98 3 79 3 Q57 3 26.5 2 Q-4 1 -22 0 L-14 29 L48 48 L403 625 L481 625 L533 121 Q535 98 538.5 83.5 Q542 69 549.5 59 Q557 49 570 42.5 Q583 36 605 29 L597 0 Q589 0 573.5 0.5 Q558 1 540 1.5 Q522 2 504 2.5 Q486 3 474 3 Q461 3 443.5 2.5 Q426 2 408 1.5 Q390 1 373 0.5 Q356 0 344 0 L352 29 L412 47 L397 194 Z M237 245 L392 245 L370 465 L237 245 Z M568 739 L352 665 L343 683 L498 789 Q508 796 515.5 800 Q523 804 529 804 Q542 804 552 786 L571 751 L568 739 Z " />
<glyph glyph-name="Acircumflex" unicode="&#xc2;" horiz-adv-x="633" d="M397 194 L206 194 L146 95 Q132 71 132 61 Q132 50 144 42.5 Q156 35 184 29 L176 0 Q156 1 127 2 Q98 3 79 3 Q57 3 26.5 2 Q-4 1 -22 0 L-14 29 L48 48 L403 625 L481 625 L533 121 Q535 98 538.5 83.5 Q542 69 549.5 59 Q557 49 570 42.5 Q583 36 605 29 L597 0 Q589 0 573.5 0.5 Q558 1 540 1.5 Q522 2 504 2.5 Q486 3 474 3 Q461 3 443.5 2.5 Q426 2 408 1.5 Q390 1 373 0.5 Q356 0 344 0 L352 29 L412 47 L397 194 Z M237 245 L392 245 L370 465 L237 245 Z M559 663 L466 737 L337 663 L321 678 L449 802 L513 802 L578 675 L559 663 Z " />
<glyph glyph-name="Atilde" unicode="&#xc3;" horiz-adv-x="633" d="M397 194 L206 194 L146 95 Q132 71 132 61 Q132 50 144 42.5 Q156 35 184 29 L176 0 Q156 1 127 2 Q98 3 79 3 Q57 3 26.5 2 Q-4 1 -22 0 L-14 29 L48 48 L403 625 L481 625 L533 121 Q535 98 538.5 83.5 Q542 69 549.5 59 Q557 49 570 42.5 Q583 36 605 29 L597 0 Q589 0 573.5 0.5 Q558 1 540 1.5 Q522 2 504 2.5 Q486 3 474 3 Q461 3 443.5 2.5 Q426 2 408 1.5 Q390 1 373 0.5 Q356 0 344 0 L352 29 L412 47 L397 194 Z M237 245 L392 245 L370 465 L237 245 Z M499 681 Q482 681 468.5 686.5 Q455 692 442.5 698.5 Q430 705 417.5 710.5 Q405 716 391 716 Q359 716 338 684 L313 690 Q333 744 361.5 767 Q390 790 421 790 Q438 790 451.5 784.5 Q465 779 477.5 772.5 Q490 766 502.5 760.5 Q515 755 530 755 Q562 755 582 788 L608 781 Q587 728 559 704.5 Q531 681 499 681 Z " />
<glyph glyph-name="Adieresis" unicode="&#xc4;" horiz-adv-x="633" d="M397 194 L206 194 L146 95 Q132 71 132 61 Q132 50 144 42.5 Q156 35 184 29 L176 0 Q156 1 127 2 Q98 3 79 3 Q57 3 26.5 2 Q-4 1 -22 0 L-14 29 L48 48 L403 625 L481 625 L533 121 Q535 98 538.5 83.5 Q542 69 549.5 59 Q557 49 570 42.5 Q583 36 605 29 L597 0 Q589 0 573.5 0.5 Q558 1 540 1.5 Q522 2 504 2.5 Q486 3 474 3 Q461 3 443.5 2.5 Q426 2 408 1.5 Q390 1 373 0.5 Q356 0 344 0 L352 29 L412 47 L397 194 Z M237 245 L392 245 L370 465 L237 245 Z M369 683 Q350 683 338 694.5 Q326 706 326 724 Q326 751 346.5 771 Q367 791 395 791 Q414 791 426 779.5 Q438 768 438 750 Q438 723 417.5 703 Q397 683 369 683 Z M529 683 Q510 683 498 694.5 Q486 706 486 724 Q486 751 506.5 771 Q527 791 555 791 Q574 791 586 779.5 Q598 768 598 750 Q598 723 577.5 703 Q557 683 529 683 Z " />
<glyph glyph-name="Amacron" unicode="&#x100;" horiz-adv-x="633" d="M397 194 L206 194 L146 95 Q132 71 132 61 Q132 50 144 42.5 Q156 35 184 29 L176 0 Q156 1 127 2 Q98 3 79 3 Q57 3 26.5 2 Q-4 1 -22 0 L-14 29 L48 48 L403 625 L481 625 L533 121 Q535 98 538.5 83.5 Q542 69 549.5 59 Q557 49 570 42.5 Q583 36 605 29 L597 0 Q589 0 573.5 0.5 Q558 1 540 1.5 Q522 2 504 2.5 Q486 3 474 3 Q461 3 443.5 2.5 Q426 2 408 1.5 Q390 1 373 0.5 Q356 0 344 0 L352 29 L412 47 L397 194 Z M237 245 L392 245 L370 465 L237 245 Z M337 690 L352 748 L574 748 L559 690 L337 690 Z " />
<glyph glyph-name="Abreve" unicode="&#x102;" horiz-adv-x="633" d="M397 194 L206 194 L146 95 Q132 71 132 61 Q132 50 144 42.5 Q156 35 184 29 L176 0 Q156 1 127 2 Q98 3 79 3 Q57 3 26.5 2 Q-4 1 -22 0 L-14 29 L48 48 L403 625 L481 625 L533 121 Q535 98 538.5 83.5 Q542 69 549.5 59 Q557 49 570 42.5 Q583 36 605 29 L597 0 Q589 0 573.5 0.5 Q558 1 540 1.5 Q522 2 504 2.5 Q486 3 474 3 Q461 3 443.5 2.5 Q426 2 408 1.5 Q390 1 373 0.5 Q356 0 344 0 L352 29 L412 47 L397 194 Z M237 245 L392 245 L370 465 L237 245 Z M599 794 Q586 742 549 708.5 Q512 675 456 675 Q411 675 387 699 Q363 723 363 761 Q363 779 368 794 L400 794 Q398 767 417.5 751 Q437 735 469 735 Q500 735 527 750.5 Q554 766 567 794 L599 794 L599 794 Z " />
<glyph glyph-name="Acaron" unicode="&#x1cd;" horiz-adv-x="633" d="M397 194 L206 194 L146 95 Q132 71 132 61 Q132 50 144 42.5 Q156 35 184 29 L176 0 Q156 1 127 2 Q98 3 79 3 Q57 3 26.5 2 Q-4 1 -22 0 L-14 29 L48 48 L403 625 L481 625 L533 121 Q535 98 538.5 83.5 Q542 69 549.5 59 Q557 49 570 42.5 Q583 36 605 29 L597 0 Q589 0 573.5 0.5 Q558 1 540 1.5 Q522 2 504 2.5 Q486 3 474 3 Q461 3 443.5 2.5 Q426 2 408 1.5 Q390 1 373 0.5 Q356 0 344 0 L352 29 L412 47 L397 194 Z M237 245 L392 245 L370 465 L237 245 Z M371 811 L464 737 L593 811 L609 796 L481 672 L417 672 L352 799 L371 811 Z " />
<glyph glyph-name="Aring" unicode="&#xc5;" horiz-adv-x="633" d="M397 194 L206 194 L146 95 Q132 71 132 61 Q132 50 144 42.5 Q156 35 184 29 L176 0 Q156 1 127 2 Q98 3 79 3 Q57 3 26.5 2 Q-4 1 -22 0 L-14 29 L48 48 L403 625 L481 625 L533 121 Q535 98 538.5 83.5 Q542 69 549.5 59 Q557 49 570 42.5 Q583 36 605 29 L597 0 Q589 0 573.5 0.5 Q558 1 540 1.5 Q522 2 504 2.5 Q486 3 474 3 Q461 3 443.5 2.5 Q426 2 408 1.5 Q390 1 373 0.5 Q356 0 344 0 L352 29 L412 47 L397 194 Z M237 245 L392 245 L370 465 L237 245 Z M460 712 Q483 712 497 730 Q511 748 511 771 Q511 786 502 796 Q493 806 478 806 Q455 806 441 788 Q427 770 427 747 Q427 732 436 722 Q445 712 460 712 Z M456 670 Q419 670 399 692 Q379 714 379 743 Q379 765 387 784 Q395 803 409.5 817 Q424 831 442.5 839.5 Q461 848 482 848 Q519 848 539 826 Q559 804 559 775 Q559 753 551 734 Q543 715 528.5 700.5 Q514 686 495.5 678 Q477 670 456 670 Z " />
<glyph glyph-name="Aringacute" unicode="&#x1fa;" horiz-adv-x="633" d="M613 926 L396 833 L386 853 L540 977 Q551 986 557.5 989 Q564 992 570 992 Q580 992 591 977 L616 939 L613 926 Z M397 194 L206 194 L146 95 Q132 71 132 61 Q132 50 144 42.5 Q156 35 184 29 L176 0 Q156 1 127 2 Q98 3 79 3 Q57 3 26.5 2 Q-4 1 -22 0 L-14 29 L48 48 L403 625 L481 625 L533 121 Q535 98 538.5 83.5 Q542 69 549.5 59 Q557 49 570 42.5 Q583 36 605 29 L597 0 Q589 0 573.5 0.5 Q558 1 540 1.5 Q522 2 504 2.5 Q486 3 474 3 Q461 3 443.5 2.5 Q426 2 408 1.5 Q390 1 373 0.5 Q356 0 344 0 L352 29 L412 47 L397 194 Z M237 245 L392 245 L370 465 L237 245 Z M455 696 Q478 696 492 714 Q506 732 506 755 Q506 770 497 780 Q488 790 473 790 Q450 790 436 772 Q422 754 422 731 Q422 716 431 706 Q440 696 455 696 Z M451 654 Q414 654 394 676 Q374 698 374 727 Q374 749 382 768 Q390 787 404.5 801 Q419 815 437.5 823.5 Q456 832 477 832 Q514 832 534 810 Q554 788 554 759 Q554 737 546 718 Q538 699 523.5 684.5 Q509 670 490.5 662 Q472 654 451 654 Z " />
<glyph glyph-name="Aogonek" unicode="&#x104;" horiz-adv-x="633" d="M536 -209 Q522 -219 499 -226.5 Q476 -234 450 -234 Q406 -234 377.5 -211 Q349 -188 349 -146 Q349 -107 377 -66.5 Q405 -26 449 3 L344 0 L352 29 L412 47 L397 194 L206 194 L146 95 Q132 71 132 61 Q132 50 144 42.5 Q156 35 184 29 L176 0 Q156 1 127 2 Q98 3 79 3 Q57 3 26.5 2 Q-4 1 -22 0 L-14 29 L48 48 L403 625 L481 625 L533 121 Q535 98 538.5 83.5 Q542 69 549.5 59 Q557 49 570 42.5 Q583 36 605 29 L597 0 Q586 0 560.5 1 Q535 2 510 2 Q492 -11 477 -27.5 Q462 -44 451 -62 Q440 -80 434 -98.5 Q428 -117 428 -135 Q428 -162 441 -176 Q454 -190 477 -190 Q491 -190 503 -187 Q515 -184 526 -179 L536 -209 Z M237 245 L392 245 L370 465 L237 245 Z " />
<glyph glyph-name="AE" unicode="&#xc6;" horiz-adv-x="916" d="M444 49 L509 299 L344 299 L150 78 Q138 64 138 56 Q138 48 150 41 Q162 34 194 29 L186 0 Q170 1 141.5 1.5 Q113 2 90 2 Q63 2 29.5 1.5 Q-4 1 -22 0 L-14 29 L48 48 L491 551 Q503 564 503 572 Q503 580 490.5 585.5 Q478 591 449 596 L457 625 L970 625 Q966 610 961.5 588.5 Q957 567 952.5 544.5 Q948 522 944.5 501 Q941 480 939 468 L899 468 L899 489 Q899 516 893.5 533.5 Q888 551 874.5 560.5 Q861 570 839 573.5 Q817 577 784 577 Q767 577 746.5 576.5 Q726 576 711 575 L651 347 L695 347 Q713 347 733 347.5 Q753 348 772 349.5 Q791 351 805.5 352.5 Q820 354 828 356 L806 291 Q800 292 786.5 293.5 Q773 295 755.5 296 Q738 297 719 297.5 Q700 298 683 298 L638 298 L588 104 Q585 92 585 84 Q585 66 603.5 57 Q622 48 670 48 Q705 48 729.5 53 Q754 58 772 70 Q790 82 804 102 Q818 122 832 153 L872 153 Q868 141 861.5 120 Q855 99 848.5 76.5 Q842 54 836.5 33 Q831 12 828 0 L374 0 L382 29 L444 49 Z M385 346 L521 346 L579 567 L385 346 Z " />
<glyph glyph-name="AEacute" unicode="&#x1fc;" horiz-adv-x="916" d="M444 49 L509 299 L344 299 L150 78 Q138 64 138 56 Q138 48 150 41 Q162 34 194 29 L186 0 Q170 1 141.5 1.5 Q113 2 90 2 Q63 2 29.5 1.5 Q-4 1 -22 0 L-14 29 L48 48 L491 551 Q503 564 503 572 Q503 580 490.5 585.5 Q478 591 449 596 L457 625 L970 625 Q966 610 961.5 588.5 Q957 567 952.5 544.5 Q948 522 944.5 501 Q941 480 939 468 L899 468 L899 489 Q899 516 893.5 533.5 Q888 551 874.5 560.5 Q861 570 839 573.5 Q817 577 784 577 Q767 577 746.5 576.5 Q726 576 711 575 L651 347 L695 347 Q713 347 733 347.5 Q753 348 772 349.5 Q791 351 805.5 352.5 Q820 354 828 356 L806 291 Q800 292 786.5 293.5 Q773 295 755.5 296 Q738 297 719 297.5 Q700 298 683 298 L638 298 L588 104 Q585 92 585 84 Q585 66 603.5 57 Q622 48 670 48 Q705 48 729.5 53 Q754 58 772 70 Q790 82 804 102 Q818 122 832 153 L872 153 Q868 141 861.5 120 Q855 99 848.5 76.5 Q842 54 836.5 33 Q831 12 828 0 L374 0 L382 29 L444 49 Z M385 346 L521 346 L579 567 L385 346 Z M888 739 L672 665 L663 683 L818 789 Q828 796 835.5 800 Q843 804 849 804 Q862 804 872 786 L891 751 L888 739 Z " />
<glyph glyph-name="Cacute" unicode="&#x106;" horiz-adv-x="562" d="M532 117 Q479 57 413.5 21 Q348 -15 281 -15 Q237 -15 200.5 0 Q164 15 137.5 43 Q111 71 96.5 112 Q82 153 82 205 Q82 286 110.5 364 Q139 442 189.5 503.5 Q240 565 309 602.5 Q378 640 459 640 Q506 640 547.5 630.5 Q589 621 629 613 Q624 597 619 576.5 Q614 556 608.5 534.5 Q603 513 598 492 Q593 471 590 455 L551 455 Q552 463 552 470 Q552 477 552 479 Q552 526 530.5 555.5 Q509 585 461 585 Q424 585 392 569 Q360 553 334 526 Q306 497 284 457.5 Q262 418 246.5 375 Q231 332 223 288.5 Q215 245 215 208 Q215 145 241 106.5 Q267 68 324 68 Q367 68 415.5 91.5 Q464 115 502 150 L532 117 Z M591 739 L375 665 L366 683 L521 789 Q531 796 538.5 800 Q546 804 552 804 Q565 804 575 786 L594 751 L591 739 Z " />
<glyph glyph-name="Ccedilla" unicode="&#xc7;" horiz-adv-x="562" d="M364 -112 Q364 -137 350.5 -159 Q337 -181 312 -197.5 Q287 -214 253 -223.5 Q219 -233 179 -234 L174 -202 Q222 -194 255 -172 Q288 -150 288 -118 Q288 -105 279.5 -98 Q271 -91 251 -85 Q232 -79 228 -72.5 Q224 -66 231 -54 L254 -13 Q176 -5 129 51.5 Q82 108 82 205 Q82 286 110.5 364 Q139 442 189.5 503.5 Q240 565 309 602.5 Q378 640 459 640 Q506 640 547.5 630.5 Q589 621 629 613 Q624 597 619 576.5 Q614 556 608.5 534.5 Q603 513 598 492 Q593 471 590 455 L551 455 Q552 463 552 470 Q552 477 552 479 Q552 526 530.5 555.5 Q509 585 461 585 Q424 585 392 569 Q360 553 334 526 Q306 497 284 457.5 Q262 418 246.5 375 Q231 332 223 288.5 Q215 245 215 208 Q215 145 241 106.5 Q267 68 324 68 Q367 68 415.5 91.5 Q464 115 502 150 L532 117 Q484 63 426.5 28.5 Q369 -6 309 -13 L292 -44 Q326 -52 345 -67.5 Q364 -83 364 -112 Z " />
<glyph glyph-name="Ccircumflex" unicode="&#x108;" horiz-adv-x="562" d="M532 117 Q479 57 413.5 21 Q348 -15 281 -15 Q237 -15 200.5 0 Q164 15 137.5 43 Q111 71 96.5 112 Q82 153 82 205 Q82 286 110.5 364 Q139 442 189.5 503.5 Q240 565 309 602.5 Q378 640 459 640 Q506 640 547.5 630.5 Q589 621 629 613 Q624 597 619 576.5 Q614 556 608.5 534.5 Q603 513 598 492 Q593 471 590 455 L551 455 Q552 463 552 470 Q552 477 552 479 Q552 526 530.5 555.5 Q509 585 461 585 Q424 585 392 569 Q360 553 334 526 Q306 497 284 457.5 Q262 418 246.5 375 Q231 332 223 288.5 Q215 245 215 208 Q215 145 241 106.5 Q267 68 324 68 Q367 68 415.5 91.5 Q464 115 502 150 L532 117 Z M577 663 L484 737 L355 663 L339 678 L467 802 L531 802 L596 675 L577 663 Z " />
<glyph glyph-name="Ccaron" unicode="&#x10c;" horiz-adv-x="562" d="M532 117 Q479 57 413.5 21 Q348 -15 281 -15 Q237 -15 200.5 0 Q164 15 137.5 43 Q111 71 96.5 112 Q82 153 82 205 Q82 286 110.5 364 Q139 442 189.5 503.5 Q240 565 309 602.5 Q378 640 459 640 Q506 640 547.5 630.5 Q589 621 629 613 Q624 597 619 576.5 Q614 556 608.5 534.5 Q603 513 598 492 Q593 471 590 455 L551 455 Q552 463 552 470 Q552 477 552 479 Q552 526 530.5 555.5 Q509 585 461 585 Q424 585 392 569 Q360 553 334 526 Q306 497 284 457.5 Q262 418 246.5 375 Q231 332 223 288.5 Q215 245 215 208 Q215 145 241 106.5 Q267 68 324 68 Q367 68 415.5 91.5 Q464 115 502 150 L532 117 Z M394 811 L487 737 L616 811 L632 796 L504 672 L440 672 L375 799 L394 811 Z " />
<glyph glyph-name="Cdotaccent" unicode="&#x10a;" horiz-adv-x="562" d="M532 117 Q479 57 413.5 21 Q348 -15 281 -15 Q237 -15 200.5 0 Q164 15 137.5 43 Q111 71 96.5 112 Q82 153 82 205 Q82 286 110.5 364 Q139 442 189.5 503.5 Q240 565 309 602.5 Q378 640 459 640 Q506 640 547.5 630.5 Q589 621 629 613 Q624 597 619 576.5 Q614 556 608.5 534.5 Q603 513 598 492 Q593 471 590 455 L551 455 Q552 463 552 470 Q552 477 552 479 Q552 526 530.5 555.5 Q509 585 461 585 Q424 585 392 569 Q360 553 334 526 Q306 497 284 457.5 Q262 418 246.5 375 Q231 332 223 288.5 Q215 245 215 208 Q215 145 241 106.5 Q267 68 324 68 Q367 68 415.5 91.5 Q464 115 502 150 L532 117 Z M484 678 Q461 678 447 692.5 Q433 707 433 729 Q433 760 456.5 783 Q480 806 511 806 Q535 806 549 791.5 Q563 777 563 755 Q563 724 539.5 701 Q516 678 484 678 Z " />
<glyph glyph-name="Dcaron" unicode="&#x10e;" horiz-adv-x="646" d="M225 101 Q221 85 221 77 Q221 66 231 57.5 Q241 49 266 49 Q307 49 342.5 65.5 Q378 82 408 110 Q438 138 462 175.5 Q486 213 502.5 254 Q519 295 527.5 337.5 Q536 380 536 419 Q536 491 502 530 Q462 574 364 574 L349 574 L225 101 Z M375 625 Q539 625 612 552 Q667 497 667 402 Q667 364 658.5 324.5 Q650 285 634 247 Q618 209 593.5 173.5 Q569 138 538 108 Q487 59 419 29.5 Q351 0 260 0 L12 0 L20 29 L82 49 L203 513 Q208 530 209.5 539 Q211 548 211 555 Q211 569 199 578.5 Q187 588 155 596 L163 625 L375 625 Z M379 811 L472 737 L601 811 L617 796 L489 672 L425 672 L360 799 L379 811 Z " />
<glyph glyph-name="Dcroat" unicode="&#x110;" horiz-adv-x="656" d="M385 625 Q549 625 622 552 Q677 497 677 402 Q677 364 668.5 324.5 Q660 285 644 247 Q628 209 603.5 173.5 Q579 138 548 108 Q497 59 429 29.5 Q361 0 270 0 L22 0 L30 29 L92 49 L156 296 L71 296 L85 349 L170 349 L213 513 Q218 530 219.5 539 Q221 548 221 555 Q221 569 209 578.5 Q197 588 165 596 L173 625 L385 625 Z M300 349 L393 349 L379 296 L286 296 L235 101 Q231 85 231 77 Q231 66 241 57.5 Q251 49 276 49 Q317 49 352.5 65.5 Q388 82 418 110 Q448 138 472 175.5 Q496 213 512.5 254 Q529 295 537.5 337.5 Q546 380 546 419 Q546 491 512 530 Q472 574 374 574 L359 574 L300 349 Z " />
<glyph glyph-name="Eth" unicode="&#xd0;" horiz-adv-x="656" d="M385 625 Q549 625 622 552 Q677 497 677 402 Q677 364 668.5 324.5 Q660 285 644 247 Q628 209 603.5 173.5 Q579 138 548 108 Q497 59 429 29.5 Q361 0 270 0 L22 0 L30 29 L92 49 L156 296 L71 296 L85 349 L170 349 L213 513 Q218 530 219.5 539 Q221 548 221 555 Q221 569 209 578.5 Q197 588 165 596 L173 625 L385 625 Z M300 349 L393 349 L379 296 L286 296 L235 101 Q231 85 231 77 Q231 66 241 57.5 Q251 49 276 49 Q317 49 352.5 65.5 Q388 82 418 110 Q448 138 472 175.5 Q496 213 512.5 254 Q529 295 537.5 337.5 Q546 380 546 419 Q546 491 512 530 Q472 574 374 574 L359 574 L300 349 Z " />
<glyph glyph-name="Egrave" unicode="&#xc8;" horiz-adv-x="554" d="M608 625 Q604 610 599.5 588.5 Q595 567 590.5 544.5 Q586 522 582.5 501 Q579 480 577 468 L537 468 L537 489 Q537 516 531.5 533.5 Q526 551 512.5 560.5 Q499 570 477 573.5 Q455 577 422 577 Q405 577 384.5 576.5 Q364 576 349 575 L289 347 L333 347 Q351 347 371 347.5 Q391 348 410 349.5 Q429 351 443.5 352.5 Q458 354 466 356 L444 291 Q438 292 424.5 293.5 Q411 295 393.5 296 Q376 297 357 297.5 Q338 298 321 298 L276 298 L226 104 Q223 92 223 84 Q223 66 241.5 57 Q260 48 308 48 Q343 48 367.5 53 Q392 58 410 70 Q428 82 442 102 Q456 122 470 153 L510 153 Q506 141 499.5 120 Q493 99 486.5 76.5 Q480 54 474.5 33 Q469 12 466 0 L12 0 L20 29 L82 49 L203 513 Q208 530 209.5 539 Q211 548 211 555 Q211 569 199 578.5 Q187 588 155 596 L163 625 L608 625 Z M303 750 L332 787 Q345 803 358 803 Q366 803 373 798 Q380 793 390 785 L506 679 L493 660 L305 738 L303 750 Z " />
<glyph glyph-name="Eacute" unicode="&#xc9;" horiz-adv-x="554" d="M608 625 Q604 610 599.5 588.5 Q595 567 590.5 544.5 Q586 522 582.5 501 Q579 480 577 468 L537 468 L537 489 Q537 516 531.5 533.5 Q526 551 512.5 560.5 Q499 570 477 573.5 Q455 577 422 577 Q405 577 384.5 576.5 Q364 576 349 575 L289 347 L333 347 Q351 347 371 347.5 Q391 348 410 349.5 Q429 351 443.5 352.5 Q458 354 466 356 L444 291 Q438 292 424.5 293.5 Q411 295 393.5 296 Q376 297 357 297.5 Q338 298 321 298 L276 298 L226 104 Q223 92 223 84 Q223 66 241.5 57 Q260 48 308 48 Q343 48 367.5 53 Q392 58 410 70 Q428 82 442 102 Q456 122 470 153 L510 153 Q506 141 499.5 120 Q493 99 486.5 76.5 Q480 54 474.5 33 Q469 12 466 0 L12 0 L20 29 L82 49 L203 513 Q208 530 209.5 539 Q211 548 211 555 Q211 569 199 578.5 Q187 588 155 596 L163 625 L608 625 Z M534 739 L318 665 L309 683 L464 789 Q474 796 481.5 800 Q489 804 495 804 Q508 804 518 786 L537 751 L534 739 Z " />
<glyph glyph-name="Ecircumflex" unicode="&#xca;" horiz-adv-x="554" d="M608 625 Q604 610 599.5 588.5 Q595 567 590.5 544.5 Q586 522 582.5 501 Q579 480 577 468 L537 468 L537 489 Q537 516 531.5 533.5 Q526 551 512.5 560.5 Q499 570 477 573.5 Q455 577 422 577 Q405 577 384.5 576.5 Q364 576 349 575 L289 347 L333 347 Q351 347 371 347.5 Q391 348 410 349.5 Q429 351 443.5 352.5 Q458 354 466 356 L444 291 Q438 292 424.5 293.5 Q411 295 393.5 296 Q376 297 357 297.5 Q338 298 321 298 L276 298 L226 104 Q223 92 223 84 Q223 66 241.5 57 Q260 48 308 48 Q343 48 367.5 53 Q392 58 410 70 Q428 82 442 102 Q456 122 470 153 L510 153 Q506 141 499.5 120 Q493 99 486.5 76.5 Q480 54 474.5 33 Q469 12 466 0 L12 0 L20 29 L82 49 L203 513 Q208 530 209.5 539 Q211 548 211 555 Q211 569 199 578.5 Q187 588 155 596 L163 625 L608 625 Z M524 663 L431 737 L302 663 L286 678 L414 802 L478 802 L543 675 L524 663 Z " />
<glyph glyph-name="Ecaron" unicode="&#x11a;" horiz-adv-x="554" d="M608 625 Q604 610 599.5 588.5 Q595 567 590.5 544.5 Q586 522 582.5 501 Q579 480 577 468 L537 468 L537 489 Q537 516 531.5 533.5 Q526 551 512.5 560.5 Q499 570 477 573.5 Q455 577 422 577 Q405 577 384.5 576.5 Q364 576 349 575 L289 347 L333 347 Q351 347 371 347.5 Q391 348 410 349.5 Q429 351 443.5 352.5 Q458 354 466 356 L444 291 Q438 292 424.5 293.5 Q411 295 393.5 296 Q376 297 357 297.5 Q338 298 321 298 L276 298 L226 104 Q223 92 223 84 Q223 66 241.5 57 Q260 48 308 48 Q343 48 367.5 53 Q392 58 410 70 Q428 82 442 102 Q456 122 470 153 L510 153 Q506 141 499.5 120 Q493 99 486.5 76.5 Q480 54 474.5 33 Q469 12 466 0 L12 0 L20 29 L82 49 L203 513 Q208 530 209.5 539 Q211 548 211 555 Q211 569 199 578.5 Q187 588 155 596 L163 625 L608 625 Z M330 811 L423 737 L552 811 L568 796 L440 672 L376 672 L311 799 L330 811 Z " />
<glyph glyph-name="Edieresis" unicode="&#xcb;" horiz-adv-x="554" d="M608 625 Q604 610 599.5 588.5 Q595 567 590.5 544.5 Q586 522 582.5 501 Q579 480 577 468 L537 468 L537 489 Q537 516 531.5 533.5 Q526 551 512.5 560.5 Q499 570 477 573.5 Q455 577 422 577 Q405 577 384.5 576.5 Q364 576 349 575 L289 347 L333 347 Q351 347 371 347.5 Q391 348 410 349.5 Q429 351 443.5 352.5 Q458 354 466 356 L444 291 Q438 292 424.5 293.5 Q411 295 393.5 296 Q376 297 357 297.5 Q338 298 321 298 L276 298 L226 104 Q223 92 223 84 Q223 66 241.5 57 Q260 48 308 48 Q343 48 367.5 53 Q392 58 410 70 Q428 82 442 102 Q456 122 470 153 L510 153 Q506 141 499.5 120 Q493 99 486.5 76.5 Q480 54 474.5 33 Q469 12 466 0 L12 0 L20 29 L82 49 L203 513 Q208 530 209.5 539 Q211 548 211 555 Q211 569 199 578.5 Q187 588 155 596 L163 625 L608 625 Z M326 683 Q307 683 295 694.5 Q283 706 283 724 Q283 751 303.5 771 Q324 791 352 791 Q371 791 383 779.5 Q395 768 395 750 Q395 723 374.5 703 Q354 683 326 683 Z M486 683 Q467 683 455 694.5 Q443 706 443 724 Q443 751 463.5 771 Q484 791 512 791 Q531 791 543 779.5 Q555 768 555 750 Q555 723 534.5 703 Q514 683 486 683 Z " />
<glyph glyph-name="Emacron" unicode="&#x112;" horiz-adv-x="554" d="M608 625 Q604 610 599.5 588.5 Q595 567 590.5 544.5 Q586 522 582.5 501 Q579 480 577 468 L537 468 L537 489 Q537 516 531.5 533.5 Q526 551 512.5 560.5 Q499 570 477 573.5 Q455 577 422 577 Q405 577 384.5 576.5 Q364 576 349 575 L289 347 L333 347 Q351 347 371 347.5 Q391 348 410 349.5 Q429 351 443.5 352.5 Q458 354 466 356 L444 291 Q438 292 424.5 293.5 Q411 295 393.5 296 Q376 297 357 297.5 Q338 298 321 298 L276 298 L226 104 Q223 92 223 84 Q223 66 241.5 57 Q260 48 308 48 Q343 48 367.5 53 Q392 58 410 70 Q428 82 442 102 Q456 122 470 153 L510 153 Q506 141 499.5 120 Q493 99 486.5 76.5 Q480 54 474.5 33 Q469 12 466 0 L12 0 L20 29 L82 49 L203 513 Q208 530 209.5 539 Q211 548 211 555 Q211 569 199 578.5 Q187 588 155 596 L163 625 L608 625 Z M297 690 L312 748 L534 748 L519 690 L297 690 Z " />
<glyph glyph-name="Ebreve" unicode="&#x114;" horiz-adv-x="554" d="M608 625 Q604 610 599.5 588.5 Q595 567 590.5 544.5 Q586 522 582.5 501 Q579 480 577 468 L537 468 L537 489 Q537 516 531.5 533.5 Q526 551 512.5 560.5 Q499 570 477 573.5 Q455 577 422 577 Q405 577 384.5 576.5 Q364 576 349 575 L289 347 L333 347 Q351 347 371 347.5 Q391 348 410 349.5 Q429 351 443.5 352.5 Q458 354 466 356 L444 291 Q438 292 424.5 293.5 Q411 295 393.5 296 Q376 297 357 297.5 Q338 298 321 298 L276 298 L226 104 Q223 92 223 84 Q223 66 241.5 57 Q260 48 308 48 Q343 48 367.5 53 Q392 58 410 70 Q428 82 442 102 Q456 122 470 153 L510 153 Q506 141 499.5 120 Q493 99 486.5 76.5 Q480 54 474.5 33 Q469 12 466 0 L12 0 L20 29 L82 49 L203 513 Q208 530 209.5 539 Q211 548 211 555 Q211 569 199 578.5 Q187 588 155 596 L163 625 L608 625 Z M553 794 Q540 742 503 708.5 Q466 675 410 675 Q365 675 341 699 Q317 723 317 761 Q317 779 322 794 L354 794 Q352 767 371.5 751 Q391 735 423 735 Q454 735 481 750.5 Q508 766 521 794 L553 794 L553 794 Z " />
<glyph glyph-name="Edotaccent" unicode="&#x116;" horiz-adv-x="554" d="M608 625 Q604 610 599.5 588.5 Q595 567 590.5 544.5 Q586 522 582.5 501 Q579 480 577 468 L537 468 L537 489 Q537 516 531.5 533.5 Q526 551 512.5 560.5 Q499 570 477 573.5 Q455 577 422 577 Q405 577 384.5 576.5 Q364 576 349 575 L289 347 L333 347 Q351 347 371 347.5 Q391 348 410 349.5 Q429 351 443.5 352.5 Q458 354 466 356 L444 291 Q438 292 424.5 293.5 Q411 295 393.5 296 Q376 297 357 297.5 Q338 298 321 298 L276 298 L226 104 Q223 92 223 84 Q223 66 241.5 57 Q260 48 308 48 Q343 48 367.5 53 Q392 58 410 70 Q428 82 442 102 Q456 122 470 153 L510 153 Q506 141 499.5 120 Q493 99 486.5 76.5 Q480 54 474.5 33 Q469 12 466 0 L12 0 L20 29 L82 49 L203 513 Q208 530 209.5 539 Q211 548 211 555 Q211 569 199 578.5 Q187 588 155 596 L163 625 L608 625 Z M410 678 Q387 678 373 692.5 Q359 707 359 729 Q359 760 382.5 783 Q406 806 437 806 Q461 806 475 791.5 Q489 777 489 755 Q489 724 465.5 701 Q442 678 410 678 Z " />
<glyph glyph-name="Eogonek" unicode="&#x118;" horiz-adv-x="554" d="M408 -209 Q394 -219 371 -226.5 Q348 -234 322 -234 Q278 -234 249.5 -211 Q221 -188 221 -146 Q221 -106 251 -67 Q281 -28 329 0 L12 0 L20 29 L82 49 L203 513 Q208 530 209.5 539 Q211 548 211 555 Q211 569 199 578.5 Q187 588 155 596 L163 625 L608 625 Q604 610 599.5 588.5 Q595 567 590.5 544.5 Q586 522 582.5 501 Q579 480 577 468 L537 468 L537 489 Q537 516 531.5 533.5 Q526 551 512.5 560.5 Q499 570 477 573.5 Q455 577 422 577 Q405 577 384.5 576.5 Q364 576 349 575 L289 347 L333 347 Q351 347 371 347.5 Q391 348 410 349.5 Q429 351 443.5 352.5 Q458 354 466 356 L444 291 Q438 292 424.5 293.5 Q411 295 393.5 296 Q376 297 357 297.5 Q338 298 321 298 L276 298 L226 104 Q223 92 223 84 Q223 66 241.5 57 Q260 48 308 48 Q343 48 367.5 53 Q392 58 410 70 Q428 82 442 102 Q456 122 470 153 L510 153 Q506 141 499.5 120 Q493 99 486.5 76.5 Q480 54 474.5 33 Q469 12 466 0 L406 0 Q361 -23 330.5 -60 Q300 -97 300 -138 Q300 -163 313 -176.5 Q326 -190 349 -190 Q363 -190 375 -187 Q387 -184 398 -179 L408 -209 Z " />
<glyph glyph-name="Gcircumflex" unicode="&#x11c;" horiz-adv-x="636" d="M392 265 L399 294 Q411 294 428 293.5 Q445 293 463.5 292.5 Q482 292 500 291.5 Q518 291 531 291 Q543 291 559.5 291 Q576 291 593.5 291.5 Q611 292 627 292.5 Q643 293 654 294 L647 265 Q628 260 615 255.5 Q602 251 594 244.5 Q586 238 580.5 228 Q575 218 571 202 L533 55 Q513 40 485.5 27 Q458 14 428 5 Q398 -4 367.5 -9.5 Q337 -15 311 -15 Q251 -15 208 2 Q165 19 137 49 Q109 79 96 120 Q83 161 83 209 Q83 291 112.5 368.5 Q142 446 194 506.5 Q246 567 315.5 603.5 Q385 640 466 640 Q492 640 514 637.5 Q536 635 557.5 631 Q579 627 601.5 622.5 Q624 618 650 614 Q638 572 627.5 530 Q617 488 610 454 L571 454 Q572 459 572 464.5 Q572 470 572 475 Q572 525 546 554.5 Q520 584 469 584 Q422 584 382 558 Q342 532 310 490 Q288 461 270.5 425.5 Q253 390 241 351.5 Q229 313 222.5 273 Q216 233 216 195 Q216 126 240.5 84 Q265 42 314 42 Q362 42 391.5 79.5 Q421 117 438 181 L455 246 L392 265 Z M584 663 L491 737 L362 663 L346 678 L474 802 L538 802 L603 675 L584 663 Z " />
<glyph glyph-name="Gbreve" unicode="&#x11e;" horiz-adv-x="636" d="M392 265 L399 294 Q411 294 428 293.5 Q445 293 463.5 292.5 Q482 292 500 291.5 Q518 291 531 291 Q543 291 559.5 291 Q576 291 593.5 291.5 Q611 292 627 292.5 Q643 293 654 294 L647 265 Q628 260 615 255.5 Q602 251 594 244.5 Q586 238 580.5 228 Q575 218 571 202 L533 55 Q513 40 485.5 27 Q458 14 428 5 Q398 -4 367.5 -9.5 Q337 -15 311 -15 Q251 -15 208 2 Q165 19 137 49 Q109 79 96 120 Q83 161 83 209 Q83 291 112.5 368.5 Q142 446 194 506.5 Q246 567 315.5 603.5 Q385 640 466 640 Q492 640 514 637.5 Q536 635 557.5 631 Q579 627 601.5 622.5 Q624 618 650 614 Q638 572 627.5 530 Q617 488 610 454 L571 454 Q572 459 572 464.5 Q572 470 572 475 Q572 525 546 554.5 Q520 584 469 584 Q422 584 382 558 Q342 532 310 490 Q288 461 270.5 425.5 Q253 390 241 351.5 Q229 313 222.5 273 Q216 233 216 195 Q216 126 240.5 84 Q265 42 314 42 Q362 42 391.5 79.5 Q421 117 438 181 L455 246 L392 265 Z M628 794 Q615 742 578 708.5 Q541 675 485 675 Q440 675 416 699 Q392 723 392 761 Q392 779 397 794 L429 794 Q427 767 446.5 751 Q466 735 498 735 Q529 735 556 750.5 Q583 766 596 794 L628 794 L628 794 Z " />
<glyph glyph-name="Gdotaccent" unicode="&#x120;" horiz-adv-x="636" d="M392 265 L399 294 Q411 294 428 293.5 Q445 293 463.5 292.5 Q482 292 500 291.5 Q518 291 531 291 Q543 291 559.5 291 Q576 291 593.5 291.5 Q611 292 627 292.5 Q643 293 654 294 L647 265 Q628 260 615 255.5 Q602 251 594 244.5 Q586 238 580.5 228 Q575 218 571 202 L533 55 Q513 40 485.5 27 Q458 14 428 5 Q398 -4 367.5 -9.5 Q337 -15 311 -15 Q251 -15 208 2 Q165 19 137 49 Q109 79 96 120 Q83 161 83 209 Q83 291 112.5 368.5 Q142 446 194 506.5 Q246 567 315.5 603.5 Q385 640 466 640 Q492 640 514 637.5 Q536 635 557.5 631 Q579 627 601.5 622.5 Q624 618 650 614 Q638 572 627.5 530 Q617 488 610 454 L571 454 Q572 459 572 464.5 Q572 470 572 475 Q572 525 546 554.5 Q520 584 469 584 Q422 584 382 558 Q342 532 310 490 Q288 461 270.5 425.5 Q253 390 241 351.5 Q229 313 222.5 273 Q216 233 216 195 Q216 126 240.5 84 Q265 42 314 42 Q362 42 391.5 79.5 Q421 117 438 181 L455 246 L392 265 Z M484 678 Q461 678 447 692.5 Q433 707 433 729 Q433 760 456.5 783 Q480 806 511 806 Q535 806 549 791.5 Q563 777 563 755 Q563 724 539.5 701 Q516 678 484 678 Z " />
<glyph glyph-name="Gcommaaccent" unicode="&#x122;" horiz-adv-x="636" d="M392 265 L399 294 Q411 294 428 293.5 Q445 293 463.5 292.5 Q482 292 500 291.5 Q518 291 531 291 Q543 291 559.5 291 Q576 291 593.5 291.5 Q611 292 627 292.5 Q643 293 654 294 L647 265 Q628 260 615 255.5 Q602 251 594 244.5 Q586 238 580.5 228 Q575 218 571 202 L533 55 Q513 40 485.5 27 Q458 14 428 5 Q398 -4 367.5 -9.5 Q337 -15 311 -15 Q251 -15 208 2 Q165 19 137 49 Q109 79 96 120 Q83 161 83 209 Q83 291 112.5 368.5 Q142 446 194 506.5 Q246 567 315.5 603.5 Q385 640 466 640 Q492 640 514 637.5 Q536 635 557.5 631 Q579 627 601.5 622.5 Q624 618 650 614 Q638 572 627.5 530 Q617 488 610 454 L571 454 Q572 459 572 464.5 Q572 470 572 475 Q572 525 546 554.5 Q520 584 469 584 Q422 584 382 558 Q342 532 310 490 Q288 461 270.5 425.5 Q253 390 241 351.5 Q229 313 222.5 273 Q216 233 216 195 Q216 126 240.5 84 Q265 42 314 42 Q362 42 391.5 79.5 Q421 117 438 181 L455 246 L392 265 Z M347 -103 Q347 -130 336.5 -155.5 Q326 -181 307.5 -204 Q289 -227 263.5 -247.5 Q238 -268 209 -284 L195 -261 Q228 -235 248.5 -210 Q269 -185 269 -164 Q269 -154 264 -147 Q259 -140 253 -133.5 Q247 -127 242 -120 Q237 -113 237 -103 Q237 -83 255 -66 Q273 -49 299 -49 Q323 -49 335 -65.5 Q347 -82 347 -103 Z " />
<glyph glyph-name="Hcircumflex" unicode="&#x124;" horiz-adv-x="697" d="M594 112 Q589 95 587.5 86 Q586 77 586 70 Q586 56 598 46.5 Q610 37 642 29 L634 0 Q624 0 607.5 0.5 Q591 1 573 1.5 Q555 2 538 2.5 Q521 3 509 3 Q496 3 477.5 2.5 Q459 2 440 1.5 Q421 1 404 0.5 Q387 0 378 0 L386 29 L448 49 L512 295 L275 295 L228 112 Q223 95 221.5 86 Q220 77 220 70 Q220 56 232 46.5 Q244 37 276 29 L268 0 Q258 0 241.5 0.5 Q225 1 207 1.5 Q189 2 172 2.5 Q155 3 143 3 Q130 3 111.5 2.5 Q93 2 74 1.5 Q55 1 38 0.5 Q21 0 12 0 L20 29 L82 49 L203 513 Q208 530 209.5 539 Q211 548 211 555 Q211 569 199 578.5 Q187 588 155 596 L163 625 Q173 625 189.5 624.5 Q206 624 224 623.5 Q242 623 259 622.5 Q276 622 288 622 Q301 622 319.5 622.5 Q338 623 357 623.5 Q376 624 393 624.5 Q410 625 419 625 L411 596 L349 576 L290 350 L526 350 L569 513 Q574 530 575.5 539 Q577 548 577 555 Q577 569 565 578.5 Q553 588 521 596 L529 625 Q539 625 555.5 624.5 Q572 624 590 623.5 Q608 623 625 622.5 Q642 622 654 622 Q667 622 685.5 622.5 Q704 623 723 623.5 Q742 624 759 624.5 Q776 625 785 625 L777 596 L715 576 L594 112 Z M591 663 L498 737 L369 663 L353 678 L481 802 L545 802 L610 675 L591 663 Z " />
<glyph glyph-name="Hbar" unicode="&#x126;" horiz-adv-x="717" d="M705 500 L794 500 L780 447 L691 447 L604 112 Q599 95 597.5 86 Q596 77 596 70 Q596 56 608 46.5 Q620 37 652 29 L644 0 Q634 0 617.5 0.5 Q601 1 583 1.5 Q565 2 548 2.5 Q531 3 519 3 Q506 3 487.5 2.5 Q469 2 450 1.5 Q431 1 414 0.5 Q397 0 388 0 L396 29 L458 49 L522 295 L285 295 L238 112 Q233 95 231.5 86 Q230 77 230 70 Q230 56 242 46.5 Q254 37 286 29 L278 0 Q268 0 251.5 0.5 Q235 1 217 1.5 Q199 2 182 2.5 Q165 3 153 3 Q140 3 121.5 2.5 Q103 2 84 1.5 Q65 1 48 0.5 Q31 0 22 0 L30 29 L92 49 L196 447 L106 447 L120 500 L209 500 L213 513 Q218 530 219.5 539 Q221 548 221 555 Q221 569 209 578.5 Q197 588 165 596 L173 625 Q183 625 199.5 624.5 Q216 624 234 623.5 Q252 623 269 622.5 Q286 622 298 622 Q311 622 329.5 622.5 Q348 623 367 623.5 Q386 624 403 624.5 Q420 625 429 625 L421 596 L359 576 L339 500 L575 500 L579 513 Q584 530 585.5 539 Q587 548 587 555 Q587 569 575 578.5 Q563 588 531 596 L539 625 Q549 625 565.5 624.5 Q582 624 600 623.5 Q618 623 635 622.5 Q652 622 664 622 Q677 622 695.5 622.5 Q714 623 733 623.5 Q752 624 769 624.5 Q786 625 795 625 L787 596 L725 576 L705 500 Z M536 350 L562 447 L325 447 L300 350 L536 350 Z " />
<glyph glyph-name="Igrave" unicode="&#xcc;" horiz-adv-x="337" d="M231 112 Q226 95 224.5 86 Q223 77 223 70 Q223 56 235 46.5 Q247 37 279 29 L271 0 Q261 0 244.5 0.5 Q228 1 210 1.5 Q192 2 175 2.5 Q158 3 146 3 Q133 3 114.5 2.5 Q96 2 77 1.5 Q58 1 41 0.5 Q24 0 15 0 L23 29 L85 49 L206 513 Q211 530 212.5 539 Q214 548 214 555 Q214 569 202 578.5 Q190 588 158 596 L166 625 Q176 625 192.5 624.5 Q209 624 227 623.5 Q245 623 262 622.5 Q279 622 291 622 Q304 622 322.5 622.5 Q341 623 360 623.5 Q379 624 396 624.5 Q413 625 422 625 L414 596 L352 576 L231 112 Z M208 750 L237 787 Q250 803 263 803 Q271 803 278 798 Q285 793 295 785 L411 679 L398 660 L210 738 L208 750 Z " />
<glyph glyph-name="Iacute" unicode="&#xcd;" horiz-adv-x="337" d="M231 112 Q226 95 224.5 86 Q223 77 223 70 Q223 56 235 46.5 Q247 37 279 29 L271 0 Q261 0 244.5 0.5 Q228 1 210 1.5 Q192 2 175 2.5 Q158 3 146 3 Q133 3 114.5 2.5 Q96 2 77 1.5 Q58 1 41 0.5 Q24 0 15 0 L23 29 L85 49 L206 513 Q211 530 212.5 539 Q214 548 214 555 Q214 569 202 578.5 Q190 588 158 596 L166 625 Q176 625 192.5 624.5 Q209 624 227 623.5 Q245 623 262 622.5 Q279 622 291 622 Q304 622 322.5 622.5 Q341 623 360 623.5 Q379 624 396 624.5 Q413 625 422 625 L414 596 L352 576 L231 112 Z M422 739 L206 665 L197 683 L352 789 Q362 796 369.5 800 Q377 804 383 804 Q396 804 406 786 L425 751 L422 739 Z " />
<glyph glyph-name="Icircumflex" unicode="&#xce;" horiz-adv-x="337" d="M231 112 Q226 95 224.5 86 Q223 77 223 70 Q223 56 235 46.5 Q247 37 279 29 L271 0 Q261 0 244.5 0.5 Q228 1 210 1.5 Q192 2 175 2.5 Q158 3 146 3 Q133 3 114.5 2.5 Q96 2 77 1.5 Q58 1 41 0.5 Q24 0 15 0 L23 29 L85 49 L206 513 Q211 530 212.5 539 Q214 548 214 555 Q214 569 202 578.5 Q190 588 158 596 L166 625 Q176 625 192.5 624.5 Q209 624 227 623.5 Q245 623 262 622.5 Q279 622 291 622 Q304 622 322.5 622.5 Q341 623 360 623.5 Q379 624 396 624.5 Q413 625 422 625 L414 596 L352 576 L231 112 Z M406 663 L313 737 L184 663 L168 678 L296 802 L360 802 L425 675 L406 663 Z " />
<glyph glyph-name="Itilde" unicode="&#x128;" horiz-adv-x="337" d="M231 112 Q226 95 224.5 86 Q223 77 223 70 Q223 56 235 46.5 Q247 37 279 29 L271 0 Q261 0 244.5 0.5 Q228 1 210 1.5 Q192 2 175 2.5 Q158 3 146 3 Q133 3 114.5 2.5 Q96 2 77 1.5 Q58 1 41 0.5 Q24 0 15 0 L23 29 L85 49 L206 513 Q211 530 212.5 539 Q214 548 214 555 Q214 569 202 578.5 Q190 588 158 596 L166 625 Q176 625 192.5 624.5 Q209 624 227 623.5 Q245 623 262 622.5 Q279 622 291 622 Q304 622 322.5 622.5 Q341 623 360 623.5 Q379 624 396 624.5 Q413 625 422 625 L414 596 L352 576 L231 112 Z M346 681 Q329 681 315.5 686.5 Q302 692 289.5 698.5 Q277 705 264.5 710.5 Q252 716 238 716 Q206 716 185 684 L160 690 Q180 744 208.5 767 Q237 790 268 790 Q285 790 298.5 784.5 Q312 779 324.5 772.5 Q337 766 349.5 760.5 Q362 755 377 755 Q409 755 429 788 L455 781 Q434 728 406 704.5 Q378 681 346 681 Z " />
<glyph glyph-name="Idieresis" unicode="&#xcf;" horiz-adv-x="337" d="M231 112 Q226 95 224.5 86 Q223 77 223 70 Q223 56 235 46.5 Q247 37 279 29 L271 0 Q261 0 244.5 0.5 Q228 1 210 1.5 Q192 2 175 2.5 Q158 3 146 3 Q133 3 114.5 2.5 Q96 2 77 1.5 Q58 1 41 0.5 Q24 0 15 0 L23 29 L85 49 L206 513 Q211 530 212.5 539 Q214 548 214 555 Q214 569 202 578.5 Q190 588 158 596 L166 625 Q176 625 192.5 624.5 Q209 624 227 623.5 Q245 623 262 622.5 Q279 622 291 622 Q304 622 322.5 622.5 Q341 623 360 623.5 Q379 624 396 624.5 Q413 625 422 625 L414 596 L352 576 L231 112 Z M220 683 Q201 683 189 694.5 Q177 706 177 724 Q177 751 197.5 771 Q218 791 246 791 Q265 791 277 779.5 Q289 768 289 750 Q289 723 268.5 703 Q248 683 220 683 Z M380 683 Q361 683 349 694.5 Q337 706 337 724 Q337 751 357.5 771 Q378 791 406 791 Q425 791 437 779.5 Q449 768 449 750 Q449 723 428.5 703 Q408 683 380 683 Z " />
<glyph glyph-name="Imacron" unicode="&#x12a;" horiz-adv-x="337" d="M231 112 Q226 95 224.5 86 Q223 77 223 70 Q223 56 235 46.5 Q247 37 279 29 L271 0 Q261 0 244.5 0.5 Q228 1 210 1.5 Q192 2 175 2.5 Q158 3 146 3 Q133 3 114.5 2.5 Q96 2 77 1.5 Q58 1 41 0.5 Q24 0 15 0 L23 29 L85 49 L206 513 Q211 530 212.5 539 Q214 548 214 555 Q214 569 202 578.5 Q190 588 158 596 L166 625 Q176 625 192.5 624.5 Q209 624 227 623.5 Q245 623 262 622.5 Q279 622 291 622 Q304 622 322.5 622.5 Q341 623 360 623.5 Q379 624 396 624.5 Q413 625 422 625 L414 596 L352 576 L231 112 Z M193 690 L208 748 L430 748 L415 690 L193 690 Z " />
<glyph glyph-name="Ibreve" unicode="&#x12c;" horiz-adv-x="337" d="M231 112 Q226 95 224.5 86 Q223 77 223 70 Q223 56 235 46.5 Q247 37 279 29 L271 0 Q261 0 244.5 0.5 Q228 1 210 1.5 Q192 2 175 2.5 Q158 3 146 3 Q133 3 114.5 2.5 Q96 2 77 1.5 Q58 1 41 0.5 Q24 0 15 0 L23 29 L85 49 L206 513 Q211 530 212.5 539 Q214 548 214 555 Q214 569 202 578.5 Q190 588 158 596 L166 625 Q176 625 192.5 624.5 Q209 624 227 623.5 Q245 623 262 622.5 Q279 622 291 622 Q304 622 322.5 622.5 Q341 623 360 623.5 Q379 624 396 624.5 Q413 625 422 625 L414 596 L352 576 L231 112 Z M445 794 Q432 742 395 708.5 Q358 675 302 675 Q257 675 233 699 Q209 723 209 761 Q209 779 214 794 L246 794 Q244 767 263.5 751 Q283 735 315 735 Q346 735 373 750.5 Q400 766 413 794 L445 794 L445 794 Z " />
<glyph glyph-name="Idotaccent" unicode="&#x130;" horiz-adv-x="337" d="M231 112 Q226 95 224.5 86 Q223 77 223 70 Q223 56 235 46.5 Q247 37 279 29 L271 0 Q261 0 244.5 0.5 Q228 1 210 1.5 Q192 2 175 2.5 Q158 3 146 3 Q133 3 114.5 2.5 Q96 2 77 1.5 Q58 1 41 0.5 Q24 0 15 0 L23 29 L85 49 L206 513 Q211 530 212.5 539 Q214 548 214 555 Q214 569 202 578.5 Q190 588 158 596 L166 625 Q176 625 192.5 624.5 Q209 624 227 623.5 Q245 623 262 622.5 Q279 622 291 622 Q304 622 322.5 622.5 Q341 623 360 623.5 Q379 624 396 624.5 Q413 625 422 625 L414 596 L352 576 L231 112 Z M305 678 Q282 678 268 692.5 Q254 707 254 729 Q254 760 277.5 783 Q301 806 332 806 Q356 806 370 791.5 Q384 777 384 755 Q384 724 360.5 701 Q337 678 305 678 Z " />
<glyph glyph-name="Iogonek" unicode="&#x12e;" horiz-adv-x="337" d="M231 112 Q226 95 224.5 86 Q223 77 223 70 Q223 56 235 46.5 Q247 37 279 29 L271 0 Q257 0 229.5 1 Q202 2 177 3 Q142 -23 120 -61 Q98 -99 98 -135 Q98 -162 111 -176 Q124 -190 147 -190 Q161 -190 173 -187 Q185 -184 196 -179 L206 -209 Q192 -219 169 -226.5 Q146 -234 120 -234 Q76 -234 47.5 -210.5 Q19 -187 19 -144 Q19 -123 26.5 -102 Q34 -81 47 -62.5 Q60 -44 77.5 -27.5 Q95 -11 114 3 Q87 2 58 1 Q29 0 15 0 L23 29 L85 49 L206 513 Q211 530 212.5 539 Q214 548 214 555 Q214 569 202 578.5 Q190 588 158 596 L166 625 Q176 625 192.5 624.5 Q209 624 227 623.5 Q245 623 262 622.5 Q279 622 291 622 Q304 622 322.5 622.5 Q341 623 360 623.5 Q379 624 396 624.5 Q413 625 422 625 L414 596 L352 576 L231 112 Z " />
<glyph glyph-name="IJ" unicode="&#x132;" horiz-adv-x="662" d="M231 112 Q226 95 224.5 86 Q223 77 223 70 Q223 56 235 46.5 Q247 37 279 29 L271 0 Q261 0 244.5 0.5 Q228 1 210 1.5 Q192 2 175 2.5 Q158 3 146 3 Q133 3 114.5 2.5 Q96 2 77 1.5 Q58 1 41 0.5 Q24 0 15 0 L23 29 L85 49 L206 513 Q211 530 212.5 539 Q214 548 214 555 Q214 569 202 578.5 Q190 588 158 596 L166 625 Q176 625 192.5 624.5 Q209 624 227 623.5 Q245 623 262 622.5 Q279 622 291 622 Q304 622 322.5 622.5 Q341 623 360 623.5 Q379 624 396 624.5 Q413 625 422 625 L414 596 L352 576 L231 112 Z M537 513 Q542 530 543.5 539 Q545 548 545 555 Q545 569 533 578.5 Q521 588 489 596 L497 625 Q507 625 523.5 624.5 Q540 624 558 623.5 Q576 623 593 622.5 Q610 622 622 622 Q635 622 653.5 622.5 Q672 623 691 623.5 Q710 624 727 624.5 Q744 625 753 625 L745 596 L683 576 L567 132 Q548 60 523.5 1 Q499 -58 463.5 -102 Q428 -146 378 -175.5 Q328 -205 258 -219 L246 -182 Q282 -167 308.5 -146 Q335 -125 355.5 -94 Q376 -63 392.5 -20.5 Q409 22 424 80 L537 513 Z " />
<glyph glyph-name="Jcircumflex" unicode="&#x134;" horiz-adv-x="325" d="M200 513 Q205 530 206.5 539 Q208 548 208 555 Q208 569 196 578.5 Q184 588 152 596 L160 625 Q170 625 186.5 624.5 Q203 624 221 623.5 Q239 623 256 622.5 Q273 622 285 622 Q298 622 316.5 622.5 Q335 623 354 623.5 Q373 624 390 624.5 Q407 625 416 625 L408 596 L346 576 L230 132 Q211 60 186.5 1 Q162 -58 126.5 -102 Q91 -146 41 -175.5 Q-9 -205 -79 -219 L-91 -182 Q-55 -167 -28.5 -146 Q-2 -125 18.5 -94 Q39 -63 55.5 -20.5 Q72 22 87 80 L200 513 Z M400 663 L307 737 L178 663 L162 678 L290 802 L354 802 L419 675 L400 663 Z " />
<glyph glyph-name="Kcommaaccent" unicode="&#x136;" horiz-adv-x="633" d="M284 330 L546 580 L497 596 L505 625 Q526 624 557.5 623 Q589 622 610 622 Q620 622 634 622.5 Q648 623 662 623.5 Q676 624 688.5 624.5 Q701 625 709 625 L701 596 Q680 594 664.5 590 Q649 586 635 579 Q621 572 606 560 Q591 548 571 530 L440 407 L530 94 Q536 72 545 63.5 Q554 55 570 55 Q580 55 592.5 58 Q605 61 613 65 L603 26 Q585 13 556 1.5 Q527 -10 500 -10 Q481 -10 464.5 -4 Q448 2 436 16 Q425 29 417 48 Q409 67 401 93 L338 312 L260 238 L228 112 Q223 95 221.5 86 Q220 77 220 70 Q220 56 232 46.5 Q244 37 276 29 L268 0 Q258 0 241.5 0.5 Q225 1 207 1.5 Q189 2 172 2.5 Q155 3 143 3 Q130 3 111.5 2.5 Q93 2 74 1.5 Q55 1 38 0.5 Q21 0 12 0 L20 29 L82 49 L203 513 Q208 530 209.5 539 Q211 548 211 555 Q211 569 199 578.5 Q187 588 155 596 L163 625 Q173 625 189.5 624.5 Q206 624 224 623.5 Q242 623 259 622.5 Q276 622 288 622 Q301 622 319.5 622.5 Q338 623 357 623.5 Q376 624 393 624.5 Q410 625 419 625 L411 596 L349 576 L284 330 Z M362 -103 Q362 -130 351.5 -155.5 Q341 -181 322.5 -204 Q304 -227 278.5 -247.5 Q253 -268 224 -284 L210 -261 Q243 -235 263.5 -210 Q284 -185 284 -164 Q284 -154 279 -147 Q274 -140 268 -133.5 Q262 -127 257 -120 Q252 -113 252 -103 Q252 -83 270 -66 Q288 -49 314 -49 Q338 -49 350 -65.5 Q362 -82 362 -103 Z " />
<glyph glyph-name="Lacute" unicode="&#x139;" horiz-adv-x="513" d="M226 104 Q223 92 223 84 Q223 66 241.5 57 Q260 48 306 48 Q339 48 361.5 53 Q384 58 401 70 Q418 82 431.5 102.5 Q445 123 459 153 L499 153 Q495 141 488.5 120 Q482 99 475.5 76.5 Q469 54 463.5 33 Q458 12 455 0 L12 0 L20 29 L82 49 L203 513 Q208 530 209.5 539 Q211 548 211 555 Q211 569 199 578.5 Q187 588 155 596 L163 625 Q173 625 189.5 624.5 Q206 624 224 623.5 Q242 623 259 622.5 Q276 622 288 622 Q301 622 319.5 622.5 Q338 623 357 623.5 Q376 624 393 624.5 Q410 625 419 625 L411 596 L349 576 L226 104 Z M422 739 L206 665 L197 683 L352 789 Q362 796 369.5 800 Q377 804 383 804 Q396 804 406 786 L425 751 L422 739 Z " />
<glyph glyph-name="Lcaron" unicode="&#x13d;" horiz-adv-x="513" d="M226 104 Q223 92 223 84 Q223 66 241.5 57 Q260 48 306 48 Q339 48 361.5 53 Q384 58 401 70 Q418 82 431.5 102.5 Q445 123 459 153 L499 153 Q495 141 488.5 120 Q482 99 475.5 76.5 Q469 54 463.5 33 Q458 12 455 0 L12 0 L20 29 L82 49 L203 513 Q208 530 209.5 539 Q211 548 211 555 Q211 569 199 578.5 Q187 588 155 596 L163 625 Q173 625 189.5 624.5 Q206 624 224 623.5 Q242 623 259 622.5 Q276 622 288 622 Q301 622 319.5 622.5 Q338 623 357 623.5 Q376 624 393 624.5 Q410 625 419 625 L411 596 L349 576 L226 104 Z M566 586 Q566 559 555.5 533.5 Q545 508 526.5 485 Q508 462 482.5 441.5 Q457 421 428 405 L414 428 Q447 454 467.5 479 Q488 504 488 525 Q488 535 483 542 Q478 549 472 555.5 Q466 562 461 569 Q456 576 456 586 Q456 606 474 623 Q492 640 518 640 Q542 640 554 623.5 Q566 607 566 586 Z " />
<glyph glyph-name="Lcommaaccent" unicode="&#x13b;" horiz-adv-x="513" d="M226 104 Q223 92 223 84 Q223 66 241.5 57 Q260 48 306 48 Q339 48 361.5 53 Q384 58 401 70 Q418 82 431.5 102.5 Q445 123 459 153 L499 153 Q495 141 488.5 120 Q482 99 475.5 76.5 Q469 54 463.5 33 Q458 12 455 0 L12 0 L20 29 L82 49 L203 513 Q208 530 209.5 539 Q211 548 211 555 Q211 569 199 578.5 Q187 588 155 596 L163 625 Q173 625 189.5 624.5 Q206 624 224 623.5 Q242 623 259 622.5 Q276 622 288 622 Q301 622 319.5 622.5 Q338 623 357 623.5 Q376 624 393 624.5 Q410 625 419 625 L411 596 L349 576 L226 104 Z M303 -103 Q303 -130 292.5 -155.5 Q282 -181 263.5 -204 Q245 -227 219.5 -247.5 Q194 -268 165 -284 L151 -261 Q184 -235 204.5 -210 Q225 -185 225 -164 Q225 -154 220 -147 Q215 -140 209 -133.5 Q203 -127 198 -120 Q193 -113 193 -103 Q193 -83 211 -66 Q229 -49 255 -49 Q279 -49 291 -65.5 Q303 -82 303 -103 Z " />
<glyph glyph-name="Lslash" unicode="&#x141;" horiz-adv-x="523" d="M305 368 L438 434 L462 386 L287 300 L236 104 Q233 92 233 84 Q233 66 251.5 57 Q270 48 316 48 Q349 48 371.5 53 Q394 58 411 70 Q428 82 441.5 102.5 Q455 123 469 153 L509 153 Q505 141 498.5 120 Q492 99 485.5 76.5 Q479 54 473.5 33 Q468 12 465 0 L22 0 L30 29 L92 49 L138 227 L55 186 L31 234 L156 295 L213 513 Q218 530 219.5 539 Q221 548 221 555 Q221 569 209 578.5 Q197 588 165 596 L173 625 Q183 625 199.5 624.5 Q216 624 234 623.5 Q252 623 269 622.5 Q286 622 298 622 Q311 622 329.5 622.5 Q348 623 367 623.5 Q386 624 403 624.5 Q420 625 429 625 L421 596 L359 576 L305 368 Z " />
<glyph glyph-name="Ldot" unicode="&#x13f;" horiz-adv-x="513" d="M226 104 Q223 92 223 84 Q223 66 241.5 57 Q260 48 306 48 Q339 48 361.5 53 Q384 58 401 70 Q418 82 431.5 102.5 Q445 123 459 153 L499 153 Q495 141 488.5 120 Q482 99 475.5 76.5 Q469 54 463.5 33 Q458 12 455 0 L12 0 L20 29 L82 49 L203 513 Q208 530 209.5 539 Q211 548 211 555 Q211 569 199 578.5 Q187 588 155 596 L163 625 Q173 625 189.5 624.5 Q206 624 224 623.5 Q242 623 259 622.5 Q276 622 288 622 Q301 622 319.5 622.5 Q338 623 357 623.5 Q376 624 393 624.5 Q410 625 419 625 L411 596 L349 576 L226 104 Z M462 268 Q439 268 425 282.5 Q411 297 411 319 Q411 350 434.5 373 Q458 396 489 396 Q513 396 527 381.5 Q541 367 541 345 Q541 314 517.5 291 Q494 268 462 268 Z " />
<glyph glyph-name="Nacute" unicode="&#x143;" horiz-adv-x="690" d="M323 625 L541 176 L630 513 Q635 530 636.5 539 Q638 548 638 555 Q638 569 626 578.5 Q614 588 582 596 L590 625 Q610 624 635 623 Q660 622 683 622 Q705 622 735 623 Q765 624 783 625 L775 596 L713 576 L562 -2 L491 -2 L260 472 L165 112 Q160 95 158.5 86 Q157 77 157 70 Q157 56 169 46.5 Q181 37 213 29 L205 0 Q185 1 159.5 2 Q134 3 113 3 Q90 3 60 2 Q30 1 12 0 L20 29 L82 49 L203 513 Q208 530 209.5 539 Q211 548 211 555 Q211 569 199 578.5 Q187 588 155 596 L163 625 L323 625 Z M623 739 L407 665 L398 683 L553 789 Q563 796 570.5 800 Q578 804 584 804 Q597 804 607 786 L626 751 L623 739 Z " />
<glyph glyph-name="Ncaron" unicode="&#x147;" horiz-adv-x="690" d="M323 625 L541 176 L630 513 Q635 530 636.5 539 Q638 548 638 555 Q638 569 626 578.5 Q614 588 582 596 L590 625 Q610 624 635 623 Q660 622 683 622 Q705 622 735 623 Q765 624 783 625 L775 596 L713 576 L562 -2 L491 -2 L260 472 L165 112 Q160 95 158.5 86 Q157 77 157 70 Q157 56 169 46.5 Q181 37 213 29 L205 0 Q185 1 159.5 2 Q134 3 113 3 Q90 3 60 2 Q30 1 12 0 L20 29 L82 49 L203 513 Q208 530 209.5 539 Q211 548 211 555 Q211 569 199 578.5 Q187 588 155 596 L163 625 L323 625 Z M401 811 L494 737 L623 811 L639 796 L511 672 L447 672 L382 799 L401 811 Z " />
<glyph glyph-name="Ntilde" unicode="&#xd1;" horiz-adv-x="690" d="M323 625 L541 176 L630 513 Q635 530 636.5 539 Q638 548 638 555 Q638 569 626 578.5 Q614 588 582 596 L590 625 Q610 624 635 623 Q660 622 683 622 Q705 622 735 623 Q765 624 783 625 L775 596 L713 576 L562 -2 L491 -2 L260 472 L165 112 Q160 95 158.5 86 Q157 77 157 70 Q157 56 169 46.5 Q181 37 213 29 L205 0 Q185 1 159.5 2 Q134 3 113 3 Q90 3 60 2 Q30 1 12 0 L20 29 L82 49 L203 513 Q208 530 209.5 539 Q211 548 211 555 Q211 569 199 578.5 Q187 588 155 596 L163 625 L323 625 Z M532 681 Q515 681 501.5 686.5 Q488 692 475.5 698.5 Q463 705 450.5 710.5 Q438 716 424 716 Q392 716 371 684 L346 690 Q366 744 394.5 767 Q423 790 454 790 Q471 790 484.5 784.5 Q498 779 510.5 772.5 Q523 766 535.5 760.5 Q548 755 563 755 Q595 755 615 788 L641 781 Q620 728 592 704.5 Q564 681 532 681 Z " />
<glyph glyph-name="Ncommaaccent" unicode="&#x145;" horiz-adv-x="690" d="M323 625 L541 176 L630 513 Q635 530 636.5 539 Q638 548 638 555 Q638 569 626 578.5 Q614 588 582 596 L590 625 Q610 624 635 623 Q660 622 683 622 Q705 622 735 623 Q765 624 783 625 L775 596 L713 576 L562 -2 L491 -2 L260 472 L165 112 Q160 95 158.5 86 Q157 77 157 70 Q157 56 169 46.5 Q181 37 213 29 L205 0 Q185 1 159.5 2 Q134 3 113 3 Q90 3 60 2 Q30 1 12 0 L20 29 L82 49 L203 513 Q208 530 209.5 539 Q211 548 211 555 Q211 569 199 578.5 Q187 588 155 596 L163 625 L323 625 Z M381 -103 Q381 -130 370.5 -155.5 Q360 -181 341.5 -204 Q323 -227 297.5 -247.5 Q272 -268 243 -284 L229 -261 Q262 -235 282.5 -210 Q303 -185 303 -164 Q303 -154 298 -147 Q293 -140 287 -133.5 Q281 -127 276 -120 Q271 -113 271 -103 Q271 -83 289 -66 Q307 -49 333 -49 Q357 -49 369 -65.5 Q381 -82 381 -103 Z " />
<glyph glyph-name="Eng" unicode="&#x14a;" horiz-adv-x="690" d="M393 -83 Q421 -83 445.5 -65.5 Q470 -48 491 -4 L260 472 L165 112 Q160 95 158.5 86 Q157 77 157 70 Q157 56 169 46.5 Q181 37 213 29 L205 0 Q185 1 159.5 2 Q134 3 113 3 Q90 3 60 2 Q30 1 12 0 L20 29 L82 49 L203 513 Q208 530 209.5 539 Q211 548 211 555 Q211 569 199 578.5 Q187 588 155 596 L163 625 L323 625 L541 176 L630 513 Q635 530 636.5 539 Q638 548 638 555 Q638 569 626 578.5 Q614 588 582 596 L590 625 Q610 624 635 623 Q660 622 683 622 Q705 622 735 623 Q765 624 783 625 L775 596 L713 576 L585 85 Q568 22 549 -28 Q530 -78 504 -113 Q478 -148 444.5 -166.5 Q411 -185 366 -185 Q343 -185 320.5 -179.5 Q298 -174 283 -166 Q273 -161 272 -155 Q271 -149 273 -142 L303 -61 L316 -57 Q335 -69 354 -76 Q373 -83 393 -83 Z " />
<glyph glyph-name="Ograve" unicode="&#xd2;" horiz-adv-x="625" d="M644 420 Q644 376 633.5 327 Q623 278 603 229.5 Q583 181 553 137 Q523 93 483.5 59 Q444 25 395 5 Q346 -15 289 -15 Q244 -15 206 -1 Q168 13 140 41 Q112 69 96.5 110 Q81 151 81 205 Q81 249 91.5 298 Q102 347 122 395.5 Q142 444 172 488 Q202 532 241.5 566 Q281 600 329.5 620 Q378 640 436 640 Q481 640 519 626 Q557 612 585 584 Q613 556 628.5 515 Q644 474 644 420 Z M511 451 Q511 515 489 548.5 Q467 582 429 582 Q397 582 368.5 562 Q340 542 317 510 Q293 477 274 434.5 Q255 392 241.5 346.5 Q228 301 221 256 Q214 211 214 174 Q214 110 236 76.5 Q258 43 296 43 Q328 43 356.5 63 Q385 83 408 115 Q432 148 451 190.5 Q470 233 483.5 278.5 Q497 324 504 368.5 Q511 413 511 451 Z M365 750 L394 787 Q407 803 420 803 Q428 803 435 798 Q442 793 452 785 L568 679 L555 660 L367 738 L365 750 Z " />
<glyph glyph-name="Oacute" unicode="&#xd3;" horiz-adv-x="625" d="M644 420 Q644 376 633.5 327 Q623 278 603 229.5 Q583 181 553 137 Q523 93 483.5 59 Q444 25 395 5 Q346 -15 289 -15 Q244 -15 206 -1 Q168 13 140 41 Q112 69 96.5 110 Q81 151 81 205 Q81 249 91.5 298 Q102 347 122 395.5 Q142 444 172 488 Q202 532 241.5 566 Q281 600 329.5 620 Q378 640 436 640 Q481 640 519 626 Q557 612 585 584 Q613 556 628.5 515 Q644 474 644 420 Z M511 451 Q511 515 489 548.5 Q467 582 429 582 Q397 582 368.5 562 Q340 542 317 510 Q293 477 274 434.5 Q255 392 241.5 346.5 Q228 301 221 256 Q214 211 214 174 Q214 110 236 76.5 Q258 43 296 43 Q328 43 356.5 63 Q385 83 408 115 Q432 148 451 190.5 Q470 233 483.5 278.5 Q497 324 504 368.5 Q511 413 511 451 Z M573 739 L357 665 L348 683 L503 789 Q513 796 520.5 800 Q528 804 534 804 Q547 804 557 786 L576 751 L573 739 Z " />
<glyph glyph-name="Ocircumflex" unicode="&#xd4;" horiz-adv-x="625" d="M644 420 Q644 376 633.5 327 Q623 278 603 229.5 Q583 181 553 137 Q523 93 483.5 59 Q444 25 395 5 Q346 -15 289 -15 Q244 -15 206 -1 Q168 13 140 41 Q112 69 96.5 110 Q81 151 81 205 Q81 249 91.5 298 Q102 347 122 395.5 Q142 444 172 488 Q202 532 241.5 566 Q281 600 329.5 620 Q378 640 436 640 Q481 640 519 626 Q557 612 585 584 Q613 556 628.5 515 Q644 474 644 420 Z M511 451 Q511 515 489 548.5 Q467 582 429 582 Q397 582 368.5 562 Q340 542 317 510 Q293 477 274 434.5 Q255 392 241.5 346.5 Q228 301 221 256 Q214 211 214 174 Q214 110 236 76.5 Q258 43 296 43 Q328 43 356.5 63 Q385 83 408 115 Q432 148 451 190.5 Q470 233 483.5 278.5 Q497 324 504 368.5 Q511 413 511 451 Z M550 663 L457 737 L328 663 L312 678 L440 802 L504 802 L569 675 L550 663 Z " />
<glyph glyph-name="Otilde" unicode="&#xd5;" horiz-adv-x="625" d="M644 420 Q644 376 633.5 327 Q623 278 603 229.5 Q583 181 553 137 Q523 93 483.5 59 Q444 25 395 5 Q346 -15 289 -15 Q244 -15 206 -1 Q168 13 140 41 Q112 69 96.5 110 Q81 151 81 205 Q81 249 91.5 298 Q102 347 122 395.5 Q142 444 172 488 Q202 532 241.5 566 Q281 600 329.5 620 Q378 640 436 640 Q481 640 519 626 Q557 612 585 584 Q613 556 628.5 515 Q644 474 644 420 Z M511 451 Q511 515 489 548.5 Q467 582 429 582 Q397 582 368.5 562 Q340 542 317 510 Q293 477 274 434.5 Q255 392 241.5 346.5 Q228 301 221 256 Q214 211 214 174 Q214 110 236 76.5 Q258 43 296 43 Q328 43 356.5 63 Q385 83 408 115 Q432 148 451 190.5 Q470 233 483.5 278.5 Q497 324 504 368.5 Q511 413 511 451 Z M497 681 Q480 681 466.5 686.5 Q453 692 440.5 698.5 Q428 705 415.5 710.5 Q403 716 389 716 Q357 716 336 684 L311 690 Q331 744 359.5 767 Q388 790 419 790 Q436 790 449.5 784.5 Q463 779 475.5 772.5 Q488 766 500.5 760.5 Q513 755 528 755 Q560 755 580 788 L606 781 Q585 728 557 704.5 Q529 681 497 681 Z " />
<glyph glyph-name="Odieresis" unicode="&#xd6;" horiz-adv-x="625" d="M644 420 Q644 376 633.5 327 Q623 278 603 229.5 Q583 181 553 137 Q523 93 483.5 59 Q444 25 395 5 Q346 -15 289 -15 Q244 -15 206 -1 Q168 13 140 41 Q112 69 96.5 110 Q81 151 81 205 Q81 249 91.5 298 Q102 347 122 395.5 Q142 444 172 488 Q202 532 241.5 566 Q281 600 329.5 620 Q378 640 436 640 Q481 640 519 626 Q557 612 585 584 Q613 556 628.5 515 Q644 474 644 420 Z M511 451 Q511 515 489 548.5 Q467 582 429 582 Q397 582 368.5 562 Q340 542 317 510 Q293 477 274 434.5 Q255 392 241.5 346.5 Q228 301 221 256 Q214 211 214 174 Q214 110 236 76.5 Q258 43 296 43 Q328 43 356.5 63 Q385 83 408 115 Q432 148 451 190.5 Q470 233 483.5 278.5 Q497 324 504 368.5 Q511 413 511 451 Z M368 683 Q349 683 337 694.5 Q325 706 325 724 Q325 751 345.5 771 Q366 791 394 791 Q413 791 425 779.5 Q437 768 437 750 Q437 723 416.5 703 Q396 683 368 683 Z M528 683 Q509 683 497 694.5 Q485 706 485 724 Q485 751 505.5 771 Q526 791 554 791 Q573 791 585 779.5 Q597 768 597 750 Q597 723 576.5 703 Q556 683 528 683 Z " />
<glyph glyph-name="Omacron" unicode="&#x14c;" horiz-adv-x="625" d="M644 420 Q644 376 633.5 327 Q623 278 603 229.5 Q583 181 553 137 Q523 93 483.5 59 Q444 25 395 5 Q346 -15 289 -15 Q244 -15 206 -1 Q168 13 140 41 Q112 69 96.5 110 Q81 151 81 205 Q81 249 91.5 298 Q102 347 122 395.5 Q142 444 172 488 Q202 532 241.5 566 Q281 600 329.5 620 Q378 640 436 640 Q481 640 519 626 Q557 612 585 584 Q613 556 628.5 515 Q644 474 644 420 Z M511 451 Q511 515 489 548.5 Q467 582 429 582 Q397 582 368.5 562 Q340 542 317 510 Q293 477 274 434.5 Q255 392 241.5 346.5 Q228 301 221 256 Q214 211 214 174 Q214 110 236 76.5 Q258 43 296 43 Q328 43 356.5 63 Q385 83 408 115 Q432 148 451 190.5 Q470 233 483.5 278.5 Q497 324 504 368.5 Q511 413 511 451 Z M341 690 L356 748 L578 748 L563 690 L341 690 Z " />
<glyph glyph-name="Obreve" unicode="&#x14e;" horiz-adv-x="625" d="M644 420 Q644 376 633.5 327 Q623 278 603 229.5 Q583 181 553 137 Q523 93 483.5 59 Q444 25 395 5 Q346 -15 289 -15 Q244 -15 206 -1 Q168 13 140 41 Q112 69 96.5 110 Q81 151 81 205 Q81 249 91.5 298 Q102 347 122 395.5 Q142 444 172 488 Q202 532 241.5 566 Q281 600 329.5 620 Q378 640 436 640 Q481 640 519 626 Q557 612 585 584 Q613 556 628.5 515 Q644 474 644 420 Z M511 451 Q511 515 489 548.5 Q467 582 429 582 Q397 582 368.5 562 Q340 542 317 510 Q293 477 274 434.5 Q255 392 241.5 346.5 Q228 301 221 256 Q214 211 214 174 Q214 110 236 76.5 Q258 43 296 43 Q328 43 356.5 63 Q385 83 408 115 Q432 148 451 190.5 Q470 233 483.5 278.5 Q497 324 504 368.5 Q511 413 511 451 Z M591 794 Q578 742 541 708.5 Q504 675 448 675 Q403 675 379 699 Q355 723 355 761 Q355 779 360 794 L392 794 Q390 767 409.5 751 Q429 735 461 735 Q492 735 519 750.5 Q546 766 559 794 L591 794 L591 794 Z " />
<glyph glyph-name="Ohungarumlaut" unicode="&#x150;" horiz-adv-x="625" d="M644 420 Q644 376 633.5 327 Q623 278 603 229.5 Q583 181 553 137 Q523 93 483.5 59 Q444 25 395 5 Q346 -15 289 -15 Q244 -15 206 -1 Q168 13 140 41 Q112 69 96.5 110 Q81 151 81 205 Q81 249 91.5 298 Q102 347 122 395.5 Q142 444 172 488 Q202 532 241.5 566 Q281 600 329.5 620 Q378 640 436 640 Q481 640 519 626 Q557 612 585 584 Q613 556 628.5 515 Q644 474 644 420 Z M511 451 Q511 515 489 548.5 Q467 582 429 582 Q397 582 368.5 562 Q340 542 317 510 Q293 477 274 434.5 Q255 392 241.5 346.5 Q228 301 221 256 Q214 211 214 174 Q214 110 236 76.5 Q258 43 296 43 Q328 43 356.5 63 Q385 83 408 115 Q432 148 451 190.5 Q470 233 483.5 278.5 Q497 324 504 368.5 Q511 413 511 451 Z M481 752 L298 671 L289 687 L417 793 Q425 800 432 804 Q439 808 447 808 Q455 808 459.5 803.5 Q464 799 469 791 L484 763 L481 752 Z M645 752 L462 671 L453 687 L581 793 Q589 800 596 804 Q603 808 611 808 Q619 808 623.5 803.5 Q628 799 633 791 L648 763 L645 752 Z " />
<glyph glyph-name="Oslash" unicode="&#xd8;" horiz-adv-x="625" d="M644 420 Q644 376 633.5 327 Q623 278 603 229.5 Q583 181 553 137 Q523 93 483.5 59 Q444 25 395 5 Q346 -15 289 -15 Q246 -15 207 -1 L164 -77 L111 -77 L166 19 Q126 46 103.5 92.5 Q81 139 81 205 Q81 249 91.5 298 Q102 347 122 395.5 Q142 444 172 488 Q202 532 241.5 566 Q281 600 329.5 620 Q378 640 436 640 Q476 640 511 628 L553 702 L606 702 L553 609 Q595 583 619.5 535.5 Q644 488 644 420 Z M511 451 Q511 490 502 519 L244 65 Q265 43 296 43 Q328 43 356.5 63 Q385 83 408 115 Q432 148 451 190.5 Q470 233 483.5 278.5 Q497 324 504 368.5 Q511 413 511 451 Z M214 174 Q214 140 220 115 L475 565 Q455 582 429 582 Q397 582 368.5 562 Q340 542 317 510 Q293 477 274 434.5 Q255 392 241.5 346.5 Q228 301 221 256 Q214 211 214 174 Z " />
<glyph glyph-name="Oslashacute" unicode="&#x1fe;" horiz-adv-x="625" d="M644 420 Q644 376 633.5 327 Q623 278 603 229.5 Q583 181 553 137 Q523 93 483.5 59 Q444 25 395 5 Q346 -15 289 -15 Q246 -15 207 -1 L164 -77 L111 -77 L166 19 Q126 46 103.5 92.5 Q81 139 81 205 Q81 249 91.5 298 Q102 347 122 395.5 Q142 444 172 488 Q202 532 241.5 566 Q281 600 329.5 620 Q378 640 436 640 Q476 640 511 628 L553 702 L606 702 L553 609 Q595 583 619.5 535.5 Q644 488 644 420 Z M511 451 Q511 490 502 519 L244 65 Q265 43 296 43 Q328 43 356.5 63 Q385 83 408 115 Q432 148 451 190.5 Q470 233 483.5 278.5 Q497 324 504 368.5 Q511 413 511 451 Z M214 174 Q214 140 220 115 L475 565 Q455 582 429 582 Q397 582 368.5 562 Q340 542 317 510 Q293 477 274 434.5 Q255 392 241.5 346.5 Q228 301 221 256 Q214 211 214 174 Z M558 739 L342 665 L333 683 L488 789 Q498 796 505.5 800 Q513 804 519 804 Q532 804 542 786 L561 751 L558 739 Z " />
<glyph glyph-name="OE" unicode="&#x152;" horiz-adv-x="879" d="M530 0 Q486 0 454.5 -2 Q423 -4 397 -6.5 Q371 -9 348.5 -11 Q326 -13 300 -13 Q254 -13 214 0.5 Q174 14 144 42 Q114 70 97 113.5 Q80 157 80 216 Q80 299 112.5 381.5 Q145 464 204 527 Q251 578 315 608 Q379 638 453 638 Q478 638 501.5 636 Q525 634 551.5 631.5 Q578 629 608.5 627 Q639 625 678 625 L933 625 Q929 610 924.5 588.5 Q920 567 915.5 544.5 Q911 522 907.5 501 Q904 480 902 468 L862 468 L862 489 Q862 516 856.5 533.5 Q851 551 837.5 560.5 Q824 570 802 573.5 Q780 577 747 577 Q730 577 709.5 576.5 Q689 576 674 575 L614 347 L658 347 Q676 347 696 347.5 Q716 348 735 349.5 Q754 351 768.5 352.5 Q783 354 791 356 L769 291 Q763 292 749.5 293.5 Q736 295 718.5 296 Q701 297 682 297.5 Q663 298 646 298 L601 298 L551 104 Q548 92 548 84 Q548 66 566.5 57 Q585 48 633 48 Q668 48 692.5 53 Q717 58 735 70 Q753 82 767 102 Q781 122 795 153 L835 153 Q831 141 824.5 120 Q818 99 811.5 76.5 Q805 54 799.5 33 Q794 12 791 0 L530 0 Z M517 468 Q528 507 528 529 Q528 554 507 567.5 Q486 581 449 581 Q401 581 358 550 Q315 519 280 453 Q247 391 229.5 320 Q212 249 212 186 Q212 120 236.5 82 Q261 44 318 44 Q368 44 397 82.5 Q426 121 442 181 L517 468 Z " />
<glyph glyph-name="Thorn" unicode="&#xde;" horiz-adv-x="585" d="M329 501 L366 501 Q434 501 481.5 486.5 Q529 472 555 446 Q573 428 582 404 Q591 380 591 353 Q591 303 567 261.5 Q543 220 501 190.5 Q459 161 402 144.5 Q345 128 280 128 L232 128 L228 112 Q223 95 221.5 86 Q220 77 220 70 Q220 56 232 46.5 Q244 37 276 29 L268 0 Q258 0 241.5 0.5 Q225 1 207 1.5 Q189 2 172 2.5 Q155 3 143 3 Q130 3 111.5 2.5 Q93 2 74 1.5 Q55 1 38 0.5 Q21 0 12 0 L20 29 L82 49 L203 513 Q208 530 209.5 539 Q211 548 211 555 Q211 569 199 578.5 Q187 588 155 596 L163 625 Q173 625 189.5 624.5 Q206 624 224 623.5 Q242 623 259 622.5 Q276 622 288 622 Q301 622 319.5 622.5 Q338 623 357 623.5 Q376 624 393 624.5 Q410 625 419 625 L411 596 L349 576 L329 501 Z M316 452 L244 176 L265 176 Q312 176 348.5 193 Q385 210 410 236.5 Q435 263 448 295.5 Q461 328 461 359 Q461 397 439 421 Q409 452 340 452 L316 452 Z " />
<glyph glyph-name="Racute" unicode="&#x154;" horiz-adv-x="629" d="M594 23 Q573 8 546.5 -1 Q520 -10 497 -10 Q455 -10 434.5 14 Q414 38 403 87 L382 185 Q376 210 369 226 Q362 242 350.5 251 Q339 260 323 263 Q307 266 285 266 L269 266 L228 112 Q223 95 221.5 86 Q220 77 220 70 Q220 56 232 46.5 Q244 37 276 29 L268 0 Q258 0 241.5 0.5 Q225 1 207 1.5 Q189 2 172 2.5 Q155 3 143 3 Q130 3 111.5 2.5 Q93 2 74 1.5 Q55 1 38 0.5 Q21 0 12 0 L20 29 L82 49 L203 513 Q208 530 209.5 539 Q211 548 211 555 Q211 569 199 578.5 Q187 588 155 596 L163 625 L389 625 Q528 625 584 569 Q619 534 619 483 Q619 419 572 370 Q525 321 445 298 Q469 284 482 261 Q495 238 504 198 L526 99 Q531 76 539 65 Q547 54 566 54 Q574 54 585 56.5 Q596 59 604 62 L594 23 Z M281 314 L294 314 Q339 314 375 329 Q411 344 436.5 368 Q462 392 475.5 423 Q489 454 489 487 Q489 508 483 523 Q477 538 466 549 Q452 563 428.5 569.5 Q405 576 373 576 L349 576 L281 314 Z M557 739 L341 665 L332 683 L487 789 Q497 796 504.5 800 Q512 804 518 804 Q531 804 541 786 L560 751 L557 739 Z " />
<glyph glyph-name="Rcaron" unicode="&#x158;" horiz-adv-x="629" d="M594 23 Q573 8 546.5 -1 Q520 -10 497 -10 Q455 -10 434.5 14 Q414 38 403 87 L382 185 Q376 210 369 226 Q362 242 350.5 251 Q339 260 323 263 Q307 266 285 266 L269 266 L228 112 Q223 95 221.5 86 Q220 77 220 70 Q220 56 232 46.5 Q244 37 276 29 L268 0 Q258 0 241.5 0.5 Q225 1 207 1.5 Q189 2 172 2.5 Q155 3 143 3 Q130 3 111.5 2.5 Q93 2 74 1.5 Q55 1 38 0.5 Q21 0 12 0 L20 29 L82 49 L203 513 Q208 530 209.5 539 Q211 548 211 555 Q211 569 199 578.5 Q187 588 155 596 L163 625 L389 625 Q528 625 584 569 Q619 534 619 483 Q619 419 572 370 Q525 321 445 298 Q469 284 482 261 Q495 238 504 198 L526 99 Q531 76 539 65 Q547 54 566 54 Q574 54 585 56.5 Q596 59 604 62 L594 23 Z M281 314 L294 314 Q339 314 375 329 Q411 344 436.5 368 Q462 392 475.5 423 Q489 454 489 487 Q489 508 483 523 Q477 538 466 549 Q452 563 428.5 569.5 Q405 576 373 576 L349 576 L281 314 Z M354 811 L447 737 L576 811 L592 796 L464 672 L400 672 L335 799 L354 811 Z " />
<glyph glyph-name="Rcommaaccent" unicode="&#x156;" horiz-adv-x="629" d="M594 23 Q573 8 546.5 -1 Q520 -10 497 -10 Q455 -10 434.5 14 Q414 38 403 87 L382 185 Q376 210 369 226 Q362 242 350.5 251 Q339 260 323 263 Q307 266 285 266 L269 266 L228 112 Q223 95 221.5 86 Q220 77 220 70 Q220 56 232 46.5 Q244 37 276 29 L268 0 Q258 0 241.5 0.5 Q225 1 207 1.5 Q189 2 172 2.5 Q155 3 143 3 Q130 3 111.5 2.5 Q93 2 74 1.5 Q55 1 38 0.5 Q21 0 12 0 L20 29 L82 49 L203 513 Q208 530 209.5 539 Q211 548 211 555 Q211 569 199 578.5 Q187 588 155 596 L163 625 L389 625 Q528 625 584 569 Q619 534 619 483 Q619 419 572 370 Q525 321 445 298 Q469 284 482 261 Q495 238 504 198 L526 99 Q531 76 539 65 Q547 54 566 54 Q574 54 585 56.5 Q596 59 604 62 L594 23 Z M281 314 L294 314 Q339 314 375 329 Q411 344 436.5 368 Q462 392 475.5 423 Q489 454 489 487 Q489 508 483 523 Q477 538 466 549 Q452 563 428.5 569.5 Q405 576 373 576 L349 576 L281 314 Z M368 -103 Q368 -130 357.5 -155.5 Q347 -181 328.5 -204 Q310 -227 284.5 -247.5 Q259 -268 230 -284 L216 -261 Q249 -235 269.5 -210 Q290 -185 290 -164 Q290 -154 285 -147 Q280 -140 274 -133.5 Q268 -127 263 -120 Q258 -113 258 -103 Q258 -83 276 -66 Q294 -49 320 -49 Q344 -49 356 -65.5 Q368 -82 368 -103 Z " />
<glyph glyph-name="Sacute" unicode="&#x15a;" horiz-adv-x="517" d="M475 194 Q475 144 454.5 105 Q434 66 399.5 39.5 Q365 13 320 -1 Q275 -15 225 -15 Q177 -15 128.5 -4.5 Q80 6 48 22 Q58 57 68.5 96 Q79 135 87 170 L124 170 Q122 143 128 119 Q134 95 148 76.5 Q162 58 184 47.5 Q206 37 235 37 Q262 37 284 46 Q306 55 322 70.5 Q338 86 347 106.5 Q356 127 356 149 Q356 180 338 206 Q320 232 274 267 Q241 291 217.5 312 Q194 333 178.5 353 Q163 373 155.5 394.5 Q148 416 148 442 Q148 488 167 525 Q186 562 218.5 587.5 Q251 613 295 626.5 Q339 640 389 640 Q434 640 476 632 Q518 624 558 619 Q554 605 549 585 Q544 565 539 543.5 Q534 522 529.5 502 Q525 482 522 469 L486 469 Q488 520 463.5 553.5 Q439 587 385 587 Q334 587 300.5 558.5 Q267 530 267 487 Q267 456 284.5 429.5 Q302 403 349 369 Q414 321 444.5 282.5 Q475 244 475 194 Z M508 739 L292 665 L283 683 L438 789 Q448 796 455.5 800 Q463 804 469 804 Q482 804 492 786 L511 751 L508 739 Z " />
<glyph glyph-name="Scircumflex" unicode="&#x15c;" horiz-adv-x="517" d="M475 194 Q475 144 454.5 105 Q434 66 399.5 39.5 Q365 13 320 -1 Q275 -15 225 -15 Q177 -15 128.5 -4.5 Q80 6 48 22 Q58 57 68.5 96 Q79 135 87 170 L124 170 Q122 143 128 119 Q134 95 148 76.5 Q162 58 184 47.5 Q206 37 235 37 Q262 37 284 46 Q306 55 322 70.5 Q338 86 347 106.5 Q356 127 356 149 Q356 180 338 206 Q320 232 274 267 Q241 291 217.5 312 Q194 333 178.5 353 Q163 373 155.5 394.5 Q148 416 148 442 Q148 488 167 525 Q186 562 218.5 587.5 Q251 613 295 626.5 Q339 640 389 640 Q434 640 476 632 Q518 624 558 619 Q554 605 549 585 Q544 565 539 543.5 Q534 522 529.5 502 Q525 482 522 469 L486 469 Q488 520 463.5 553.5 Q439 587 385 587 Q334 587 300.5 558.5 Q267 530 267 487 Q267 456 284.5 429.5 Q302 403 349 369 Q414 321 444.5 282.5 Q475 244 475 194 Z M506 663 L413 737 L284 663 L268 678 L396 802 L460 802 L525 675 L506 663 Z " />
<glyph glyph-name="Scaron" unicode="&#x160;" horiz-adv-x="517" d="M475 194 Q475 144 454.5 105 Q434 66 399.5 39.5 Q365 13 320 -1 Q275 -15 225 -15 Q177 -15 128.5 -4.5 Q80 6 48 22 Q58 57 68.5 96 Q79 135 87 170 L124 170 Q122 143 128 119 Q134 95 148 76.5 Q162 58 184 47.5 Q206 37 235 37 Q262 37 284 46 Q306 55 322 70.5 Q338 86 347 106.5 Q356 127 356 149 Q356 180 338 206 Q320 232 274 267 Q241 291 217.5 312 Q194 333 178.5 353 Q163 373 155.5 394.5 Q148 416 148 442 Q148 488 167 525 Q186 562 218.5 587.5 Q251 613 295 626.5 Q339 640 389 640 Q434 640 476 632 Q518 624 558 619 Q554 605 549 585 Q544 565 539 543.5 Q534 522 529.5 502 Q525 482 522 469 L486 469 Q488 520 463.5 553.5 Q439 587 385 587 Q334 587 300.5 558.5 Q267 530 267 487 Q267 456 284.5 429.5 Q302 403 349 369 Q414 321 444.5 282.5 Q475 244 475 194 Z M320 811 L413 737 L542 811 L558 796 L430 672 L366 672 L301 799 L320 811 Z " />
<glyph glyph-name="Scedilla" unicode="&#x15e;" horiz-adv-x="517" d="M298 -112 Q298 -137 284.5 -159 Q271 -181 246 -197.5 Q221 -214 187 -223.5 Q153 -233 113 -234 L108 -202 Q156 -194 189 -172 Q222 -150 222 -118 Q222 -105 213.5 -98 Q205 -91 185 -85 Q166 -79 162 -72.5 Q158 -66 165 -54 L188 -13 Q148 -9 111 0 Q74 9 48 22 Q58 57 68.5 96 Q79 135 87 170 L124 170 Q122 143 128 119 Q134 95 148 76.5 Q162 58 184 47.5 Q206 37 235 37 Q262 37 284 46 Q306 55 322 70.5 Q338 86 347 106.5 Q356 127 356 149 Q356 180 338 205.5 Q320 231 274 266 Q241 290 217.5 311 Q194 332 178.5 352.5 Q163 373 155.5 394.5 Q148 416 148 442 Q148 488 167 525 Q186 562 218.5 587.5 Q251 613 295 626.5 Q339 640 389 640 Q434 640 476 632 Q518 624 558 619 Q554 605 549 585 Q544 565 539 543.5 Q534 522 529.5 502 Q525 482 522 469 L486 469 Q488 520 463.5 553.5 Q439 587 385 587 Q334 587 300.5 558.5 Q267 530 267 487 Q267 456 284.5 430 Q302 404 349 370 Q414 322 444.5 283 Q475 244 475 194 Q475 146 456.5 108 Q438 70 406 44 Q374 18 331.5 3 Q289 -12 242 -14 L226 -44 Q260 -52 279 -67.5 Q298 -83 298 -112 Z " />
<glyph glyph-name="Scommaaccent" unicode="&#x218;" horiz-adv-x="517" d="M475 194 Q475 144 454.5 105 Q434 66 399.5 39.5 Q365 13 320 -1 Q275 -15 225 -15 Q177 -15 128.5 -4.5 Q80 6 48 22 Q58 57 68.5 96 Q79 135 87 170 L124 170 Q122 143 128 119 Q134 95 148 76.5 Q162 58 184 47.5 Q206 37 235 37 Q262 37 284 46 Q306 55 322 70.5 Q338 86 347 106.5 Q356 127 356 149 Q356 180 338 206 Q320 232 274 267 Q241 291 217.5 312 Q194 333 178.5 353 Q163 373 155.5 394.5 Q148 416 148 442 Q148 488 167 525 Q186 562 218.5 587.5 Q251 613 295 626.5 Q339 640 389 640 Q434 640 476 632 Q518 624 558 619 Q554 605 549 585 Q544 565 539 543.5 Q534 522 529.5 502 Q525 482 522 469 L486 469 Q488 520 463.5 553.5 Q439 587 385 587 Q334 587 300.5 558.5 Q267 530 267 487 Q267 456 284.5 429.5 Q302 403 349 369 Q414 321 444.5 282.5 Q475 244 475 194 Z M267 -103 Q267 -130 256.5 -155.5 Q246 -181 227.5 -204 Q209 -227 183.5 -247.5 Q158 -268 129 -284 L115 -261 Q148 -235 168.5 -210 Q189 -185 189 -164 Q189 -154 184 -147 Q179 -140 173 -133.5 Q167 -127 162 -120 Q157 -113 157 -103 Q157 -83 175 -66 Q193 -49 219 -49 Q243 -49 255 -65.5 Q267 -82 267 -103 Z " />
<glyph glyph-name="Tcaron" unicode="&#x164;" horiz-adv-x="594" d="M477 578 L356 112 Q351 95 349.5 86 Q348 77 348 70 Q348 56 360 46.5 Q372 37 404 29 L396 0 Q386 0 369.5 0.5 Q353 1 335 1.5 Q317 2 300 2.5 Q283 3 271 3 Q258 3 239.5 2.5 Q221 2 202 1.5 Q183 1 166 0.5 Q149 0 140 0 L148 29 L210 49 L348 578 L309 578 Q278 578 255.5 573.5 Q233 569 215 556.5 Q197 544 181.5 521.5 Q166 499 148 462 L106 462 Q110 477 117 498.5 Q124 520 131 543.5 Q138 567 144.5 588.5 Q151 610 155 625 L692 625 Q688 609 683 586.5 Q678 564 673.5 540.5 Q669 517 664.5 496 Q660 475 658 462 L618 462 Q619 502 614.5 525 Q610 548 598.5 560 Q587 572 567 575 Q547 578 517 578 L477 578 Z M352 811 L445 737 L574 811 L590 796 L462 672 L398 672 L333 799 L352 811 Z " />
<glyph glyph-name="Tcommaaccent" unicode="&#x162;" horiz-adv-x="594" d="M477 578 L356 112 Q351 95 349.5 86 Q348 77 348 70 Q348 56 360 46.5 Q372 37 404 29 L396 0 Q386 0 369.5 0.5 Q353 1 335 1.5 Q317 2 300 2.5 Q283 3 271 3 Q258 3 239.5 2.5 Q221 2 202 1.5 Q183 1 166 0.5 Q149 0 140 0 L148 29 L210 49 L348 578 L309 578 Q278 578 255.5 573.5 Q233 569 215 556.5 Q197 544 181.5 521.5 Q166 499 148 462 L106 462 Q110 477 117 498.5 Q124 520 131 543.5 Q138 567 144.5 588.5 Q151 610 155 625 L692 625 Q688 609 683 586.5 Q678 564 673.5 540.5 Q669 517 664.5 496 Q660 475 658 462 L618 462 Q619 502 614.5 525 Q610 548 598.5 560 Q587 572 567 575 Q547 578 517 578 L477 578 Z M300 -103 Q300 -130 289.5 -155.5 Q279 -181 260.5 -204 Q242 -227 216.5 -247.5 Q191 -268 162 -284 L148 -261 Q181 -235 201.5 -210 Q222 -185 222 -164 Q222 -154 217 -147 Q212 -140 206 -133.5 Q200 -127 195 -120 Q190 -113 190 -103 Q190 -83 208 -66 Q226 -49 252 -49 Q276 -49 288 -65.5 Q300 -82 300 -103 Z " />
<glyph glyph-name="uni021A" unicode="&#x21a;" horiz-adv-x="594" d="M477 578 L356 112 Q351 95 349.5 86 Q348 77 348 70 Q348 56 360 46.5 Q372 37 404 29 L396 0 Q386 0 369.5 0.5 Q353 1 335 1.5 Q317 2 300 2.5 Q283 3 271 3 Q258 3 239.5 2.5 Q221 2 202 1.5 Q183 1 166 0.5 Q149 0 140 0 L148 29 L210 49 L348 578 L309 578 Q278 578 255.5 573.5 Q233 569 215 556.5 Q197 544 181.5 521.5 Q166 499 148 462 L106 462 Q110 477 117 498.5 Q124 520 131 543.5 Q138 567 144.5 588.5 Q151 610 155 625 L692 625 Q688 609 683 586.5 Q678 564 673.5 540.5 Q669 517 664.5 496 Q660 475 658 462 L618 462 Q619 502 614.5 525 Q610 548 598.5 560 Q587 572 567 575 Q547 578 517 578 L477 578 Z M300 -103 Q300 -130 289.5 -155.5 Q279 -181 260.5 -204 Q242 -227 216.5 -247.5 Q191 -268 162 -284 L148 -261 Q181 -235 201.5 -210 Q222 -185 222 -164 Q222 -154 217 -147 Q212 -140 206 -133.5 Q200 -127 195 -120 Q190 -113 190 -103 Q190 -83 208 -66 Q226 -49 252 -49 Q276 -49 288 -65.5 Q300 -82 300 -103 Z " />
<glyph glyph-name="Tbar" unicode="&#x166;" horiz-adv-x="594" d="M477 578 L413 334 L525 334 L511 281 L400 281 L356 112 Q351 95 349.5 86 Q348 77 348 70 Q348 56 360 46.5 Q372 37 404 29 L396 0 Q386 0 369.5 0.5 Q353 1 335 1.5 Q317 2 300 2.5 Q283 3 271 3 Q258 3 239.5 2.5 Q221 2 202 1.5 Q183 1 166 0.5 Q149 0 140 0 L148 29 L210 49 L270 281 L159 281 L173 334 L284 334 L348 578 L309 578 Q278 578 255.5 573.5 Q233 569 215 556.5 Q197 544 181.5 521.5 Q166 499 148 462 L106 462 Q110 477 117 498.5 Q124 520 131 543.5 Q138 567 144.5 588.5 Q151 610 155 625 L692 625 Q688 609 683 586.5 Q678 564 673.5 540.5 Q669 517 664.5 496 Q660 475 658 462 L618 462 Q619 502 614.5 525 Q610 548 598.5 560 Q587 572 567 575 Q547 578 517 578 L477 578 Z " />
<glyph glyph-name="Ugrave" unicode="&#xd9;" horiz-adv-x="657" d="M255 252 Q246 219 242 195.5 Q238 172 238 153 Q238 112 264 81.5 Q290 51 346 51 Q384 51 414 65.5 Q444 80 466.5 107 Q489 134 505.5 172 Q522 210 534 256 L600 513 Q605 530 606.5 539 Q608 548 608 555 Q608 569 596 578.5 Q584 588 552 596 L560 625 Q580 624 605.5 623 Q631 622 654 622 Q676 622 705.5 623 Q735 624 753 625 L745 596 L683 576 L598 245 Q563 109 493.5 47 Q424 -15 314 -15 Q269 -15 231.5 -3.5 Q194 8 167 29.5 Q140 51 125 82 Q110 113 110 153 Q110 173 114 196.5 Q118 220 127 255 L195 513 Q200 530 201.5 539 Q203 548 203 555 Q203 569 191 578.5 Q179 588 147 596 L155 625 Q165 625 181.5 624.5 Q198 624 216 623.5 Q234 623 251 622.5 Q268 622 280 622 Q293 622 311.5 622.5 Q330 623 349 623.5 Q368 624 385 624.5 Q402 625 411 625 L403 596 L341 576 L255 252 Z M375 750 L404 787 Q417 803 430 803 Q438 803 445 798 Q452 793 462 785 L578 679 L565 660 L377 738 L375 750 Z " />
<glyph glyph-name="Uacute" unicode="&#xda;" horiz-adv-x="657" d="M255 252 Q246 219 242 195.5 Q238 172 238 153 Q238 112 264 81.5 Q290 51 346 51 Q384 51 414 65.5 Q444 80 466.5 107 Q489 134 505.5 172 Q522 210 534 256 L600 513 Q605 530 606.5 539 Q608 548 608 555 Q608 569 596 578.5 Q584 588 552 596 L560 625 Q580 624 605.5 623 Q631 622 654 622 Q676 622 705.5 623 Q735 624 753 625 L745 596 L683 576 L598 245 Q563 109 493.5 47 Q424 -15 314 -15 Q269 -15 231.5 -3.5 Q194 8 167 29.5 Q140 51 125 82 Q110 113 110 153 Q110 173 114 196.5 Q118 220 127 255 L195 513 Q200 530 201.5 539 Q203 548 203 555 Q203 569 191 578.5 Q179 588 147 596 L155 625 Q165 625 181.5 624.5 Q198 624 216 623.5 Q234 623 251 622.5 Q268 622 280 622 Q293 622 311.5 622.5 Q330 623 349 623.5 Q368 624 385 624.5 Q402 625 411 625 L403 596 L341 576 L255 252 Z M607 739 L391 665 L382 683 L537 789 Q547 796 554.5 800 Q562 804 568 804 Q581 804 591 786 L610 751 L607 739 Z " />
<glyph glyph-name="Ucircumflex" unicode="&#xdb;" horiz-adv-x="657" d="M255 252 Q246 219 242 195.5 Q238 172 238 153 Q238 112 264 81.5 Q290 51 346 51 Q384 51 414 65.5 Q444 80 466.5 107 Q489 134 505.5 172 Q522 210 534 256 L600 513 Q605 530 606.5 539 Q608 548 608 555 Q608 569 596 578.5 Q584 588 552 596 L560 625 Q580 624 605.5 623 Q631 622 654 622 Q676 622 705.5 623 Q735 624 753 625 L745 596 L683 576 L598 245 Q563 109 493.5 47 Q424 -15 314 -15 Q269 -15 231.5 -3.5 Q194 8 167 29.5 Q140 51 125 82 Q110 113 110 153 Q110 173 114 196.5 Q118 220 127 255 L195 513 Q200 530 201.5 539 Q203 548 203 555 Q203 569 191 578.5 Q179 588 147 596 L155 625 Q165 625 181.5 624.5 Q198 624 216 623.5 Q234 623 251 622.5 Q268 622 280 622 Q293 622 311.5 622.5 Q330 623 349 623.5 Q368 624 385 624.5 Q402 625 411 625 L403 596 L341 576 L255 252 Z M599 663 L506 737 L377 663 L361 678 L489 802 L553 802 L618 675 L599 663 Z " />
<glyph glyph-name="Utilde" unicode="&#x168;" horiz-adv-x="657" d="M255 252 Q246 219 242 195.5 Q238 172 238 153 Q238 112 264 81.5 Q290 51 346 51 Q384 51 414 65.5 Q444 80 466.5 107 Q489 134 505.5 172 Q522 210 534 256 L600 513 Q605 530 606.5 539 Q608 548 608 555 Q608 569 596 578.5 Q584 588 552 596 L560 625 Q580 624 605.5 623 Q631 622 654 622 Q676 622 705.5 623 Q735 624 753 625 L745 596 L683 576 L598 245 Q563 109 493.5 47 Q424 -15 314 -15 Q269 -15 231.5 -3.5 Q194 8 167 29.5 Q140 51 125 82 Q110 113 110 153 Q110 173 114 196.5 Q118 220 127 255 L195 513 Q200 530 201.5 539 Q203 548 203 555 Q203 569 191 578.5 Q179 588 147 596 L155 625 Q165 625 181.5 624.5 Q198 624 216 623.5 Q234 623 251 622.5 Q268 622 280 622 Q293 622 311.5 622.5 Q330 623 349 623.5 Q368 624 385 624.5 Q402 625 411 625 L403 596 L341 576 L255 252 Z M532 681 Q515 681 501.5 686.5 Q488 692 475.5 698.5 Q463 705 450.5 710.5 Q438 716 424 716 Q392 716 371 684 L346 690 Q366 744 394.5 767 Q423 790 454 790 Q471 790 484.5 784.5 Q498 779 510.5 772.5 Q523 766 535.5 760.5 Q548 755 563 755 Q595 755 615 788 L641 781 Q620 728 592 704.5 Q564 681 532 681 Z " />
<glyph glyph-name="Udieresis" unicode="&#xdc;" horiz-adv-x="657" d="M255 252 Q246 219 242 195.5 Q238 172 238 153 Q238 112 264 81.5 Q290 51 346 51 Q384 51 414 65.5 Q444 80 466.5 107 Q489 134 505.5 172 Q522 210 534 256 L600 513 Q605 530 606.5 539 Q608 548 608 555 Q608 569 596 578.5 Q584 588 552 596 L560 625 Q580 624 605.5 623 Q631 622 654 622 Q676 622 705.5 623 Q735 624 753 625 L745 596 L683 576 L598 245 Q563 109 493.5 47 Q424 -15 314 -15 Q269 -15 231.5 -3.5 Q194 8 167 29.5 Q140 51 125 82 Q110 113 110 153 Q110 173 114 196.5 Q118 220 127 255 L195 513 Q200 530 201.5 539 Q203 548 203 555 Q203 569 191 578.5 Q179 588 147 596 L155 625 Q165 625 181.5 624.5 Q198 624 216 623.5 Q234 623 251 622.5 Q268 622 280 622 Q293 622 311.5 622.5 Q330 623 349 623.5 Q368 624 385 624.5 Q402 625 411 625 L403 596 L341 576 L255 252 Z M414 683 Q395 683 383 694.5 Q371 706 371 724 Q371 751 391.5 771 Q412 791 440 791 Q459 791 471 779.5 Q483 768 483 750 Q483 723 462.5 703 Q442 683 414 683 Z M574 683 Q555 683 543 694.5 Q531 706 531 724 Q531 751 551.5 771 Q572 791 600 791 Q619 791 631 779.5 Q643 768 643 750 Q643 723 622.5 703 Q602 683 574 683 Z " />
<glyph glyph-name="Umacron" unicode="&#x16a;" horiz-adv-x="657" d="M255 252 Q246 219 242 195.5 Q238 172 238 153 Q238 112 264 81.5 Q290 51 346 51 Q384 51 414 65.5 Q444 80 466.5 107 Q489 134 505.5 172 Q522 210 534 256 L600 513 Q605 530 606.5 539 Q608 548 608 555 Q608 569 596 578.5 Q584 588 552 596 L560 625 Q580 624 605.5 623 Q631 622 654 622 Q676 622 705.5 623 Q735 624 753 625 L745 596 L683 576 L598 245 Q563 109 493.5 47 Q424 -15 314 -15 Q269 -15 231.5 -3.5 Q194 8 167 29.5 Q140 51 125 82 Q110 113 110 153 Q110 173 114 196.5 Q118 220 127 255 L195 513 Q200 530 201.5 539 Q203 548 203 555 Q203 569 191 578.5 Q179 588 147 596 L155 625 Q165 625 181.5 624.5 Q198 624 216 623.5 Q234 623 251 622.5 Q268 622 280 622 Q293 622 311.5 622.5 Q330 623 349 623.5 Q368 624 385 624.5 Q402 625 411 625 L403 596 L341 576 L255 252 Z M379 690 L394 748 L616 748 L601 690 L379 690 Z " />
<glyph glyph-name="Ubreve" unicode="&#x16c;" horiz-adv-x="657" d="M255 252 Q246 219 242 195.5 Q238 172 238 153 Q238 112 264 81.5 Q290 51 346 51 Q384 51 414 65.5 Q444 80 466.5 107 Q489 134 505.5 172 Q522 210 534 256 L600 513 Q605 530 606.5 539 Q608 548 608 555 Q608 569 596 578.5 Q584 588 552 596 L560 625 Q580 624 605.5 623 Q631 622 654 622 Q676 622 705.5 623 Q735 624 753 625 L745 596 L683 576 L598 245 Q563 109 493.5 47 Q424 -15 314 -15 Q269 -15 231.5 -3.5 Q194 8 167 29.5 Q140 51 125 82 Q110 113 110 153 Q110 173 114 196.5 Q118 220 127 255 L195 513 Q200 530 201.5 539 Q203 548 203 555 Q203 569 191 578.5 Q179 588 147 596 L155 625 Q165 625 181.5 624.5 Q198 624 216 623.5 Q234 623 251 622.5 Q268 622 280 622 Q293 622 311.5 622.5 Q330 623 349 623.5 Q368 624 385 624.5 Q402 625 411 625 L403 596 L341 576 L255 252 Z M636 794 Q623 742 586 708.5 Q549 675 493 675 Q448 675 424 699 Q400 723 400 761 Q400 779 405 794 L437 794 Q435 767 454.5 751 Q474 735 506 735 Q537 735 564 750.5 Q591 766 604 794 L636 794 L636 794 Z " />
<glyph glyph-name="Uring" unicode="&#x16e;" horiz-adv-x="657" d="M255 252 Q246 219 242 195.5 Q238 172 238 153 Q238 112 264 81.5 Q290 51 346 51 Q384 51 414 65.5 Q444 80 466.5 107 Q489 134 505.5 172 Q522 210 534 256 L600 513 Q605 530 606.5 539 Q608 548 608 555 Q608 569 596 578.5 Q584 588 552 596 L560 625 Q580 624 605.5 623 Q631 622 654 622 Q676 622 705.5 623 Q735 624 753 625 L745 596 L683 576 L598 245 Q563 109 493.5 47 Q424 -15 314 -15 Q269 -15 231.5 -3.5 Q194 8 167 29.5 Q140 51 125 82 Q110 113 110 153 Q110 173 114 196.5 Q118 220 127 255 L195 513 Q200 530 201.5 539 Q203 548 203 555 Q203 569 191 578.5 Q179 588 147 596 L155 625 Q165 625 181.5 624.5 Q198 624 216 623.5 Q234 623 251 622.5 Q268 622 280 622 Q293 622 311.5 622.5 Q330 623 349 623.5 Q368 624 385 624.5 Q402 625 411 625 L403 596 L341 576 L255 252 Z M506 712 Q529 712 543 730 Q557 748 557 771 Q557 786 548 796 Q539 806 524 806 Q501 806 487 788 Q473 770 473 747 Q473 732 482 722 Q491 712 506 712 Z M502 670 Q465 670 445 692 Q425 714 425 743 Q425 765 433 784 Q441 803 455.5 817 Q470 831 488.5 839.5 Q507 848 528 848 Q565 848 585 826 Q605 804 605 775 Q605 753 597 734 Q589 715 574.5 700.5 Q560 686 541.5 678 Q523 670 502 670 Z " />
<glyph glyph-name="Uhungarumlaut" unicode="&#x170;" horiz-adv-x="657" d="M255 252 Q246 219 242 195.5 Q238 172 238 153 Q238 112 264 81.5 Q290 51 346 51 Q384 51 414 65.5 Q444 80 466.5 107 Q489 134 505.5 172 Q522 210 534 256 L600 513 Q605 530 606.5 539 Q608 548 608 555 Q608 569 596 578.5 Q584 588 552 596 L560 625 Q580 624 605.5 623 Q631 622 654 622 Q676 622 705.5 623 Q735 624 753 625 L745 596 L683 576 L598 245 Q563 109 493.5 47 Q424 -15 314 -15 Q269 -15 231.5 -3.5 Q194 8 167 29.5 Q140 51 125 82 Q110 113 110 153 Q110 173 114 196.5 Q118 220 127 255 L195 513 Q200 530 201.5 539 Q203 548 203 555 Q203 569 191 578.5 Q179 588 147 596 L155 625 Q165 625 181.5 624.5 Q198 624 216 623.5 Q234 623 251 622.5 Q268 622 280 622 Q293 622 311.5 622.5 Q330 623 349 623.5 Q368 624 385 624.5 Q402 625 411 625 L403 596 L341 576 L255 252 Z M510 752 L327 671 L318 687 L446 793 Q454 800 461 804 Q468 808 476 808 Q484 808 488.5 803.5 Q493 799 498 791 L513 763 L510 752 Z M674 752 L491 671 L482 687 L610 793 Q618 800 625 804 Q632 808 640 808 Q648 808 652.5 803.5 Q657 799 662 791 L677 763 L674 752 Z " />
<glyph glyph-name="Uogonek" unicode="&#x172;" horiz-adv-x="657" d="M407 -209 Q393 -219 370 -226.5 Q347 -234 321 -234 Q276 -234 247 -210 Q218 -186 218 -146 Q218 -106 247 -73 Q276 -40 318 -15 L314 -15 Q269 -15 231.5 -3.5 Q194 8 167 29.5 Q140 51 125 82 Q110 113 110 153 Q110 173 114 196.5 Q118 220 127 255 L195 513 Q200 530 201.5 539 Q203 548 203 555 Q203 569 191 578.5 Q179 588 147 596 L155 625 Q165 625 181.5 624.5 Q198 624 216 623.5 Q234 623 251 622.5 Q268 622 280 622 Q293 622 311.5 622.5 Q330 623 349 623.5 Q368 624 385 624.5 Q402 625 411 625 L403 596 L341 576 L255 252 Q246 219 242 195.5 Q238 172 238 153 Q238 112 264 81.5 Q290 51 346 51 Q384 51 414 65.5 Q444 80 466.5 107 Q489 134 505.5 172 Q522 210 534 256 L600 513 Q605 530 606.5 539 Q608 548 608 555 Q608 569 596 578.5 Q584 588 552 596 L560 625 Q580 624 605.5 623 Q631 622 654 622 Q676 622 705.5 623 Q735 624 753 625 L745 596 L683 576 L598 245 Q581 181 558 136.5 Q535 92 503 60 Q479 36 444.5 14.5 Q410 -7 377.5 -30 Q345 -53 322 -79 Q299 -105 299 -138 Q299 -162 312.5 -176 Q326 -190 350 -190 Q364 -190 375 -187 Q386 -184 397 -179 L407 -209 Z " />
<glyph glyph-name="Wgrave" unicode="&#x1e80;" horiz-adv-x="899" d="M661 182 L887 581 L835 596 L843 625 Q866 623 894 622.5 Q922 622 940 622 Q957 622 982.5 623 Q1008 624 1027 625 L1019 596 Q1001 594 988 591 Q975 588 965 581 Q955 574 946.5 563 Q938 552 928 535 L625 -1 L554 -1 L529 374 L304 -1 L232 -1 L184 504 Q182 527 178.5 542 Q175 557 167.5 567 Q160 577 146.5 583.5 Q133 590 110 596 L118 625 Q126 625 142 624.5 Q158 624 176.5 623.5 Q195 623 213 622.5 Q231 622 243 622 Q256 622 273.5 622.5 Q291 623 309 623.5 Q327 624 344 624.5 Q361 625 373 625 L365 596 L304 577 L341 168 L522 475 L520 509 Q518 533 515 547.5 Q512 562 505 571 Q498 580 485.5 585 Q473 590 453 596 L461 625 Q469 625 483.5 624.5 Q498 624 515 623.5 Q532 623 548.5 622.5 Q565 622 577 622 Q590 622 606.5 622.5 Q623 623 640.5 623.5 Q658 624 674 624.5 Q690 625 702 625 L694 596 L635 577 L661 182 Z M500 750 L529 787 Q542 803 555 803 Q563 803 570 798 Q577 793 587 785 L703 679 L690 660 L502 738 L500 750 Z " />
<glyph glyph-name="Wacute" unicode="&#x1e82;" horiz-adv-x="899" d="M661 182 L887 581 L835 596 L843 625 Q866 623 894 622.5 Q922 622 940 622 Q957 622 982.5 623 Q1008 624 1027 625 L1019 596 Q1001 594 988 591 Q975 588 965 581 Q955 574 946.5 563 Q938 552 928 535 L625 -1 L554 -1 L529 374 L304 -1 L232 -1 L184 504 Q182 527 178.5 542 Q175 557 167.5 567 Q160 577 146.5 583.5 Q133 590 110 596 L118 625 Q126 625 142 624.5 Q158 624 176.5 623.5 Q195 623 213 622.5 Q231 622 243 622 Q256 622 273.5 622.5 Q291 623 309 623.5 Q327 624 344 624.5 Q361 625 373 625 L365 596 L304 577 L341 168 L522 475 L520 509 Q518 533 515 547.5 Q512 562 505 571 Q498 580 485.5 585 Q473 590 453 596 L461 625 Q469 625 483.5 624.5 Q498 624 515 623.5 Q532 623 548.5 622.5 Q565 622 577 622 Q590 622 606.5 622.5 Q623 623 640.5 623.5 Q658 624 674 624.5 Q690 625 702 625 L694 596 L635 577 L661 182 Z M712 739 L496 665 L487 683 L642 789 Q652 796 659.5 800 Q667 804 673 804 Q686 804 696 786 L715 751 L712 739 Z " />
<glyph glyph-name="Wcircumflex" unicode="&#x174;" horiz-adv-x="899" d="M661 182 L887 581 L835 596 L843 625 Q866 623 894 622.5 Q922 622 940 622 Q957 622 982.5 623 Q1008 624 1027 625 L1019 596 Q1001 594 988 591 Q975 588 965 581 Q955 574 946.5 563 Q938 552 928 535 L625 -1 L554 -1 L529 374 L304 -1 L232 -1 L184 504 Q182 527 178.5 542 Q175 557 167.5 567 Q160 577 146.5 583.5 Q133 590 110 596 L118 625 Q126 625 142 624.5 Q158 624 176.5 623.5 Q195 623 213 622.5 Q231 622 243 622 Q256 622 273.5 622.5 Q291 623 309 623.5 Q327 624 344 624.5 Q361 625 373 625 L365 596 L304 577 L341 168 L522 475 L520 509 Q518 533 515 547.5 Q512 562 505 571 Q498 580 485.5 585 Q473 590 453 596 L461 625 Q469 625 483.5 624.5 Q498 624 515 623.5 Q532 623 548.5 622.5 Q565 622 577 622 Q590 622 606.5 622.5 Q623 623 640.5 623.5 Q658 624 674 624.5 Q690 625 702 625 L694 596 L635 577 L661 182 Z M701 663 L608 737 L479 663 L463 678 L591 802 L655 802 L720 675 L701 663 Z " />
<glyph glyph-name="Wdieresis" unicode="&#x1e84;" horiz-adv-x="899" d="M661 182 L887 581 L835 596 L843 625 Q866 623 894 622.5 Q922 622 940 622 Q957 622 982.5 623 Q1008 624 1027 625 L1019 596 Q1001 594 988 591 Q975 588 965 581 Q955 574 946.5 563 Q938 552 928 535 L625 -1 L554 -1 L529 374 L304 -1 L232 -1 L184 504 Q182 527 178.5 542 Q175 557 167.5 567 Q160 577 146.5 583.5 Q133 590 110 596 L118 625 Q126 625 142 624.5 Q158 624 176.5 623.5 Q195 623 213 622.5 Q231 622 243 622 Q256 622 273.5 622.5 Q291 623 309 623.5 Q327 624 344 624.5 Q361 625 373 625 L365 596 L304 577 L341 168 L522 475 L520 509 Q518 533 515 547.5 Q512 562 505 571 Q498 580 485.5 585 Q473 590 453 596 L461 625 Q469 625 483.5 624.5 Q498 624 515 623.5 Q532 623 548.5 622.5 Q565 622 577 622 Q590 622 606.5 622.5 Q623 623 640.5 623.5 Q658 624 674 624.5 Q690 625 702 625 L694 596 L635 577 L661 182 Z M510 683 Q491 683 479 694.5 Q467 706 467 724 Q467 751 487.5 771 Q508 791 536 791 Q555 791 567 779.5 Q579 768 579 750 Q579 723 558.5 703 Q538 683 510 683 Z M670 683 Q651 683 639 694.5 Q627 706 627 724 Q627 751 647.5 771 Q668 791 696 791 Q715 791 727 779.5 Q739 768 739 750 Q739 723 718.5 703 Q698 683 670 683 Z " />
<glyph glyph-name="Ygrave" unicode="&#x1ef2;" horiz-adv-x="566" d="M383 238 L349 112 Q344 95 342.5 86 Q341 77 341 70 Q341 56 353 46.5 Q365 37 397 29 L389 0 Q379 0 362.5 0.5 Q346 1 328 1.5 Q310 2 293 2.5 Q276 3 264 3 Q251 3 232.5 2.5 Q214 2 195 1.5 Q176 1 159 0.5 Q142 0 133 0 L141 29 L203 49 L251 236 L179 530 Q174 548 169 559 Q164 570 155.5 577 Q147 584 135.5 588.5 Q124 593 106 596 L113 625 Q120 625 136 624.5 Q152 624 170 623.5 Q188 623 205 622.5 Q222 622 232 622 Q244 622 262.5 622.5 Q281 623 300 623.5 Q319 624 335.5 624.5 Q352 625 360 625 L353 596 L299 579 L364 307 L557 581 L505 596 L513 625 Q536 623 563.5 622.5 Q591 622 609 622 Q626 622 654 623 Q682 624 701 625 L693 596 Q674 594 660.5 590.5 Q647 587 636 580 Q625 573 615 562.5 Q605 552 593 536 L383 238 Z M323 750 L352 787 Q365 803 378 803 Q386 803 393 798 Q400 793 410 785 L526 679 L513 660 L325 738 L323 750 Z " />
<glyph glyph-name="Yacute" unicode="&#xdd;" horiz-adv-x="566" d="M383 238 L349 112 Q344 95 342.5 86 Q341 77 341 70 Q341 56 353 46.5 Q365 37 397 29 L389 0 Q379 0 362.5 0.5 Q346 1 328 1.5 Q310 2 293 2.5 Q276 3 264 3 Q251 3 232.5 2.5 Q214 2 195 1.5 Q176 1 159 0.5 Q142 0 133 0 L141 29 L203 49 L251 236 L179 530 Q174 548 169 559 Q164 570 155.5 577 Q147 584 135.5 588.5 Q124 593 106 596 L113 625 Q120 625 136 624.5 Q152 624 170 623.5 Q188 623 205 622.5 Q222 622 232 622 Q244 622 262.5 622.5 Q281 623 300 623.5 Q319 624 335.5 624.5 Q352 625 360 625 L353 596 L299 579 L364 307 L557 581 L505 596 L513 625 Q536 623 563.5 622.5 Q591 622 609 622 Q626 622 654 623 Q682 624 701 625 L693 596 Q674 594 660.5 590.5 Q647 587 636 580 Q625 573 615 562.5 Q605 552 593 536 L383 238 Z M552 739 L336 665 L327 683 L482 789 Q492 796 499.5 800 Q507 804 513 804 Q526 804 536 786 L555 751 L552 739 Z " />
<glyph glyph-name="Ycircumflex" unicode="&#x176;" horiz-adv-x="566" d="M383 238 L349 112 Q344 95 342.5 86 Q341 77 341 70 Q341 56 353 46.5 Q365 37 397 29 L389 0 Q379 0 362.5 0.5 Q346 1 328 1.5 Q310 2 293 2.5 Q276 3 264 3 Q251 3 232.5 2.5 Q214 2 195 1.5 Q176 1 159 0.5 Q142 0 133 0 L141 29 L203 49 L251 236 L179 530 Q174 548 169 559 Q164 570 155.5 577 Q147 584 135.5 588.5 Q124 593 106 596 L113 625 Q120 625 136 624.5 Q152 624 170 623.5 Q188 623 205 622.5 Q222 622 232 622 Q244 622 262.5 622.5 Q281 623 300 623.5 Q319 624 335.5 624.5 Q352 625 360 625 L353 596 L299 579 L364 307 L557 581 L505 596 L513 625 Q536 623 563.5 622.5 Q591 622 609 622 Q626 622 654 623 Q682 624 701 625 L693 596 Q674 594 660.5 590.5 Q647 587 636 580 Q625 573 615 562.5 Q605 552 593 536 L383 238 Z M545 663 L452 737 L323 663 L307 678 L435 802 L499 802 L564 675 L545 663 Z " />
<glyph glyph-name="Ydieresis" unicode="&#x178;" horiz-adv-x="563" d="M383 238 L349 112 Q344 95 342.5 86 Q341 77 341 70 Q341 56 353 46.5 Q365 37 397 29 L389 0 Q379 0 362.5 0.5 Q346 1 328 1.5 Q310 2 293 2.5 Q276 3 264 3 Q251 3 232.5 2.5 Q214 2 195 1.5 Q176 1 159 0.5 Q142 0 133 0 L141 29 L203 49 L251 236 L179 530 Q174 548 169 559 Q164 570 155.5 577 Q147 584 135.5 588.5 Q124 593 106 596 L113 625 Q120 625 136 624.5 Q152 624 170 623.5 Q188 623 205 622.5 Q222 622 232 622 Q244 622 262.5 622.5 Q281 623 300 623.5 Q319 624 335.5 624.5 Q352 625 360 625 L353 596 L299 579 L364 307 L557 581 L505 596 L513 625 Q536 623 563.5 622.5 Q591 622 609 622 Q626 622 654 623 Q682 624 701 625 L693 596 Q674 594 660.5 590.5 Q647 587 636 580 Q625 573 615 562.5 Q605 552 593 536 L383 238 Z M368 683 Q349 683 337 694.5 Q325 706 325 724 Q325 751 345.5 771 Q366 791 394 791 Q413 791 425 779.5 Q437 768 437 750 Q437 723 416.5 703 Q396 683 368 683 Z M528 683 Q509 683 497 694.5 Q485 706 485 724 Q485 751 505.5 771 Q526 791 554 791 Q573 791 585 779.5 Q597 768 597 750 Q597 723 576.5 703 Q556 683 528 683 Z " />
<glyph glyph-name="Zacute" unicode="&#x179;" horiz-adv-x="550" d="M620 594 Q584 544 532 477.5 Q480 411 421 337.5 Q362 264 299.5 189.5 Q237 115 180 48 L314 48 Q354 48 381 56 Q408 64 428 83 Q442 96 453.5 114.5 Q465 133 477 159 L517 159 Q512 142 505.5 120.5 Q499 99 492.5 77 Q486 55 480.5 35 Q475 15 471 0 L41 0 L28 31 Q64 81 115 148 Q166 215 224.5 288 Q283 361 345 436 Q407 511 464 577 L262 577 L183 470 L145 470 Q149 482 155.5 502.5 Q162 523 168.5 545.5 Q175 568 181 589.5 Q187 611 191 625 L607 625 L620 594 Z M539 739 L323 665 L314 683 L469 789 Q479 796 486.5 800 Q494 804 500 804 Q513 804 523 786 L542 751 L539 739 Z " />
<glyph glyph-name="Zcaron" unicode="&#x17d;" horiz-adv-x="550" d="M620 594 Q584 544 532 477.5 Q480 411 421 337.5 Q362 264 299.5 189.5 Q237 115 180 48 L314 48 Q354 48 381 56 Q408 64 428 83 Q442 96 453.5 114.5 Q465 133 477 159 L517 159 Q512 142 505.5 120.5 Q499 99 492.5 77 Q486 55 480.5 35 Q475 15 471 0 L41 0 L28 31 Q64 81 115 148 Q166 215 224.5 288 Q283 361 345 436 Q407 511 464 577 L262 577 L183 470 L145 470 Q149 482 155.5 502.5 Q162 523 168.5 545.5 Q175 568 181 589.5 Q187 611 191 625 L607 625 L620 594 Z M330 811 L423 737 L552 811 L568 796 L440 672 L376 672 L311 799 L330 811 Z " />
<glyph glyph-name="Zdotaccent" unicode="&#x17b;" horiz-adv-x="550" d="M620 594 Q584 544 532 477.5 Q480 411 421 337.5 Q362 264 299.5 189.5 Q237 115 180 48 L314 48 Q354 48 381 56 Q408 64 428 83 Q442 96 453.5 114.5 Q465 133 477 159 L517 159 Q512 142 505.5 120.5 Q499 99 492.5 77 Q486 55 480.5 35 Q475 15 471 0 L41 0 L28 31 Q64 81 115 148 Q166 215 224.5 288 Q283 361 345 436 Q407 511 464 577 L262 577 L183 470 L145 470 Q149 482 155.5 502.5 Q162 523 168.5 545.5 Q175 568 181 589.5 Q187 611 191 625 L607 625 L620 594 Z M405 678 Q382 678 368 692.5 Q354 707 354 729 Q354 760 377.5 783 Q401 806 432 806 Q456 806 470 791.5 Q484 777 484 755 Q484 724 460.5 701 Q437 678 405 678 Z " />
<glyph glyph-name="agrave" unicode="&#xe0;" horiz-adv-x="516" d="M366 -9 Q335 -9 318 10.5 Q301 30 301 62 Q281 30 246.5 7.5 Q212 -15 174 -15 Q143 -15 119 -3 Q95 9 78.5 30.5 Q62 52 53 81 Q44 110 44 144 Q44 202 67 258.5 Q90 315 129 360 Q168 405 219 432.5 Q270 460 325 460 Q353 460 376.5 452.5 Q400 445 419 431 L441 460 L511 450 L518 442 L429 114 Q422 86 422 75 Q422 56 440 56 Q448 56 457.5 58.5 Q467 61 476 65 L466 26 Q445 12 418 1.5 Q391 -9 366 -9 Z M379 380 Q361 403 332 403 Q300 403 270.5 375.5 Q241 348 219 307 Q197 266 184 219.5 Q171 173 171 134 Q171 101 183 81 Q195 61 218 61 Q235 61 251 72 Q267 83 281 102 Q300 127 315.5 165 Q331 203 342 243 L379 380 Z M261 601 L293 639 Q305 653 317 653 Q325 653 332.5 648 Q340 643 352 629 L458 514 L444 495 L264 588 L261 601 Z " />
<glyph glyph-name="aacute" unicode="&#xe1;" horiz-adv-x="516" d="M366 -9 Q335 -9 318 10.5 Q301 30 301 62 Q281 30 246.5 7.5 Q212 -15 174 -15 Q143 -15 119 -3 Q95 9 78.5 30.5 Q62 52 53 81 Q44 110 44 144 Q44 202 67 258.5 Q90 315 129 360 Q168 405 219 432.5 Q270 460 325 460 Q353 460 376.5 452.5 Q400 445 419 431 L441 460 L511 450 L518 442 L429 114 Q422 86 422 75 Q422 56 440 56 Q448 56 457.5 58.5 Q467 61 476 65 L466 26 Q445 12 418 1.5 Q391 -9 366 -9 Z M379 380 Q361 403 332 403 Q300 403 270.5 375.5 Q241 348 219 307 Q197 266 184 219.5 Q171 173 171 134 Q171 101 183 81 Q195 61 218 61 Q235 61 251 72 Q267 83 281 102 Q300 127 315.5 165 Q331 203 342 243 L379 380 Z M476 588 L259 495 L249 515 L403 639 Q414 648 420.5 651 Q427 654 433 654 Q443 654 454 639 L479 601 L476 588 Z " />
<glyph glyph-name="acircumflex" unicode="&#xe2;" horiz-adv-x="516" d="M366 -9 Q335 -9 318 10.5 Q301 30 301 62 Q281 30 246.5 7.5 Q212 -15 174 -15 Q143 -15 119 -3 Q95 9 78.5 30.5 Q62 52 53 81 Q44 110 44 144 Q44 202 67 258.5 Q90 315 129 360 Q168 405 219 432.5 Q270 460 325 460 Q353 460 376.5 452.5 Q400 445 419 431 L441 460 L511 450 L518 442 L429 114 Q422 86 422 75 Q422 56 440 56 Q448 56 457.5 58.5 Q467 61 476 65 L466 26 Q445 12 418 1.5 Q391 -9 366 -9 Z M379 380 Q361 403 332 403 Q300 403 270.5 375.5 Q241 348 219 307 Q197 266 184 219.5 Q171 173 171 134 Q171 101 183 81 Q195 61 218 61 Q235 61 251 72 Q267 83 281 102 Q300 127 315.5 165 Q331 203 342 243 L379 380 Z M449 501 L361 583 L237 500 L216 513 L346 650 L411 650 L471 508 L449 501 Z " />
<glyph glyph-name="atilde" unicode="&#xe3;" horiz-adv-x="516" d="M366 -9 Q335 -9 318 10.5 Q301 30 301 62 Q281 30 246.5 7.5 Q212 -15 174 -15 Q143 -15 119 -3 Q95 9 78.5 30.5 Q62 52 53 81 Q44 110 44 144 Q44 202 67 258.5 Q90 315 129 360 Q168 405 219 432.5 Q270 460 325 460 Q353 460 376.5 452.5 Q400 445 419 431 L441 460 L511 450 L518 442 L429 114 Q422 86 422 75 Q422 56 440 56 Q448 56 457.5 58.5 Q467 61 476 65 L466 26 Q445 12 418 1.5 Q391 -9 366 -9 Z M379 380 Q361 403 332 403 Q300 403 270.5 375.5 Q241 348 219 307 Q197 266 184 219.5 Q171 173 171 134 Q171 101 183 81 Q195 61 218 61 Q235 61 251 72 Q267 83 281 102 Q300 127 315.5 165 Q331 203 342 243 L379 380 Z M512 619 Q492 565 463.5 541 Q435 517 403 517 Q386 517 372.5 522.5 Q359 528 346.5 534.5 Q334 541 321.5 546.5 Q309 552 295 552 Q263 552 241 517 L216 524 Q236 578 264.5 602 Q293 626 325 626 Q341 626 355 620.5 Q369 615 381.5 608.5 Q394 602 406.5 596.5 Q419 591 433 591 Q465 591 487 626 L512 619 Z " />
<glyph glyph-name="adieresis" unicode="&#xe4;" horiz-adv-x="516" d="M366 -9 Q335 -9 318 10.5 Q301 30 301 62 Q281 30 246.5 7.5 Q212 -15 174 -15 Q143 -15 119 -3 Q95 9 78.5 30.5 Q62 52 53 81 Q44 110 44 144 Q44 202 67 258.5 Q90 315 129 360 Q168 405 219 432.5 Q270 460 325 460 Q353 460 376.5 452.5 Q400 445 419 431 L441 460 L511 450 L518 442 L429 114 Q422 86 422 75 Q422 56 440 56 Q448 56 457.5 58.5 Q467 61 476 65 L466 26 Q445 12 418 1.5 Q391 -9 366 -9 Z M379 380 Q361 403 332 403 Q300 403 270.5 375.5 Q241 348 219 307 Q197 266 184 219.5 Q171 173 171 134 Q171 101 183 81 Q195 61 218 61 Q235 61 251 72 Q267 83 281 102 Q300 127 315.5 165 Q331 203 342 243 L379 380 Z M266 513 Q247 513 235 524.5 Q223 536 223 554 Q223 581 243.5 601 Q264 621 292 621 Q311 621 323 609.5 Q335 598 335 580 Q335 553 314.5 533 Q294 513 266 513 Z M426 513 Q407 513 395 524.5 Q383 536 383 554 Q383 581 403.5 601 Q424 621 452 621 Q471 621 483 609.5 Q495 598 495 580 Q495 553 474.5 533 Q454 513 426 513 Z " />
<glyph glyph-name="amacron" unicode="&#x101;" horiz-adv-x="516" d="M366 -9 Q335 -9 318 10.5 Q301 30 301 62 Q281 30 246.5 7.5 Q212 -15 174 -15 Q143 -15 119 -3 Q95 9 78.5 30.5 Q62 52 53 81 Q44 110 44 144 Q44 202 67 258.5 Q90 315 129 360 Q168 405 219 432.5 Q270 460 325 460 Q353 460 376.5 452.5 Q400 445 419 431 L441 460 L511 450 L518 442 L429 114 Q422 86 422 75 Q422 56 440 56 Q448 56 457.5 58.5 Q467 61 476 65 L466 26 Q445 12 418 1.5 Q391 -9 366 -9 Z M379 380 Q361 403 332 403 Q300 403 270.5 375.5 Q241 348 219 307 Q197 266 184 219.5 Q171 173 171 134 Q171 101 183 81 Q195 61 218 61 Q235 61 251 72 Q267 83 281 102 Q300 127 315.5 165 Q331 203 342 243 L379 380 Z M239 528 L253 585 L475 585 L460 528 L239 528 Z " />
<glyph glyph-name="abreve" unicode="&#x103;" horiz-adv-x="516" d="M366 -9 Q335 -9 318 10.5 Q301 30 301 62 Q281 30 246.5 7.5 Q212 -15 174 -15 Q143 -15 119 -3 Q95 9 78.5 30.5 Q62 52 53 81 Q44 110 44 144 Q44 202 67 258.5 Q90 315 129 360 Q168 405 219 432.5 Q270 460 325 460 Q353 460 376.5 452.5 Q400 445 419 431 L441 460 L511 450 L518 442 L429 114 Q422 86 422 75 Q422 56 440 56 Q448 56 457.5 58.5 Q467 61 476 65 L466 26 Q445 12 418 1.5 Q391 -9 366 -9 Z M379 380 Q361 403 332 403 Q300 403 270.5 375.5 Q241 348 219 307 Q197 266 184 219.5 Q171 173 171 134 Q171 101 183 81 Q195 61 218 61 Q235 61 251 72 Q267 83 281 102 Q300 127 315.5 165 Q331 203 342 243 L379 380 Z M489 632 Q476 578 439 544 Q402 510 348 510 Q302 510 277.5 534 Q253 558 253 596 Q253 604 254 613.5 Q255 623 257 632 L290 632 Q290 570 358 570 Q390 570 417.5 586.5 Q445 603 457 632 L489 632 Z " />
<glyph glyph-name="acaron" unicode="&#x1ce;" horiz-adv-x="516" d="M366 -9 Q335 -9 318 10.5 Q301 30 301 62 Q281 30 246.5 7.5 Q212 -15 174 -15 Q143 -15 119 -3 Q95 9 78.5 30.5 Q62 52 53 81 Q44 110 44 144 Q44 202 67 258.5 Q90 315 129 360 Q168 405 219 432.5 Q270 460 325 460 Q353 460 376.5 452.5 Q400 445 419 431 L441 460 L511 450 L518 442 L429 114 Q422 86 422 75 Q422 56 440 56 Q448 56 457.5 58.5 Q467 61 476 65 L466 26 Q445 12 418 1.5 Q391 -9 366 -9 Z M379 380 Q361 403 332 403 Q300 403 270.5 375.5 Q241 348 219 307 Q197 266 184 219.5 Q171 173 171 134 Q171 101 183 81 Q195 61 218 61 Q235 61 251 72 Q267 83 281 102 Q300 127 315.5 165 Q331 203 342 243 L379 380 Z M286 649 L374 567 L498 650 L519 637 L389 500 L324 500 L264 642 L286 649 Z " />
<glyph glyph-name="aring" unicode="&#xe5;" horiz-adv-x="516" d="M366 -9 Q335 -9 318 10.5 Q301 30 301 62 Q281 30 246.5 7.5 Q212 -15 174 -15 Q143 -15 119 -3 Q95 9 78.5 30.5 Q62 52 53 81 Q44 110 44 144 Q44 202 67 258.5 Q90 315 129 360 Q168 405 219 432.5 Q270 460 325 460 Q353 460 376.5 452.5 Q400 445 419 431 L441 460 L511 450 L518 442 L429 114 Q422 86 422 75 Q422 56 440 56 Q448 56 457.5 58.5 Q467 61 476 65 L466 26 Q445 12 418 1.5 Q391 -9 366 -9 Z M379 380 Q361 403 332 403 Q300 403 270.5 375.5 Q241 348 219 307 Q197 266 184 219.5 Q171 173 171 134 Q171 101 183 81 Q195 61 218 61 Q235 61 251 72 Q267 83 281 102 Q300 127 315.5 165 Q331 203 342 243 L379 380 Z M356 546 Q379 546 393 564 Q407 582 407 605 Q407 620 398 630 Q389 640 374 640 Q351 640 337 622 Q323 604 323 581 Q323 566 332 556 Q341 546 356 546 Z M352 504 Q315 504 295 526 Q275 548 275 577 Q275 599 283 618 Q291 637 305.5 651 Q320 665 338.5 673.5 Q357 682 378 682 Q415 682 435 660 Q455 638 455 609 Q455 587 447 568 Q439 549 424.5 534.5 Q410 520 391.5 512 Q373 504 352 504 Z " />
<glyph glyph-name="aringacute" unicode="&#x1fb;" horiz-adv-x="516" d="M518 773 L301 680 L291 700 L445 824 Q456 833 462.5 836 Q469 839 475 839 Q485 839 496 824 L521 786 L518 773 Z M366 -9 Q335 -9 318 10.5 Q301 30 301 62 Q281 30 246.5 7.5 Q212 -15 174 -15 Q143 -15 119 -3 Q95 9 78.5 30.5 Q62 52 53 81 Q44 110 44 144 Q44 202 67 258.5 Q90 315 129 360 Q168 405 219 432.5 Q270 460 325 460 Q353 460 376.5 452.5 Q400 445 419 431 L441 460 L511 450 L518 442 L429 114 Q422 86 422 75 Q422 56 440 56 Q448 56 457.5 58.5 Q467 61 476 65 L466 26 Q445 12 418 1.5 Q391 -9 366 -9 Z M379 380 Q361 403 332 403 Q300 403 270.5 375.5 Q241 348 219 307 Q197 266 184 219.5 Q171 173 171 134 Q171 101 183 81 Q195 61 218 61 Q235 61 251 72 Q267 83 281 102 Q300 127 315.5 165 Q331 203 342 243 L379 380 Z M351 532 Q374 532 388 550 Q402 568 402 591 Q402 606 393 616 Q384 626 369 626 Q346 626 332 608 Q318 590 318 567 Q318 552 327 542 Q336 532 351 532 Z M347 490 Q310 490 290 512 Q270 534 270 563 Q270 585 278 604 Q286 623 300.5 637 Q315 651 333.5 659.5 Q352 668 373 668 Q410 668 430 646 Q450 624 450 595 Q450 573 442 554 Q434 535 419.5 520.5 Q405 506 386.5 498 Q368 490 347 490 Z " />
</font>
</svg>
