<?xml version="1.0" encoding="UTF-8"?>
<svg xmlns="http://www.w3.org/2000/svg" xmlns:xlink="http://www.w3.org/1999/xlink" version="1.2" >
<font id="Cadillac Serif Web">
<font-face  font-family="Cadillac Serif Web" units-per-em="1000" ascent="700" descent="-300" font-style="normal" font-weight="400" font-stretch="normal" cap-height="625" x-height="444" underline-position="-123" underline-thickness="20" />
<missing-glyph  horiz-adv-x="535" d="M20 693 L515 693 L515 0 L20 0 L20 693 Z M436 644 L99 644 L268 391 L436 644 Z M466 94 L466 599 L297 347 L466 94 Z M436 50 L268 302 L99 50 L436 50 Z M70 94 L238 347 L70 599 L70 94 Z " />
<glyph glyph-name="null" d="" />
<glyph glyph-name="nonmarkingreturn" unicode="&#xd;" horiz-adv-x="184" d="" />
<glyph glyph-name="nbspace" unicode="&#xa0;" horiz-adv-x="184" d="" />
<glyph glyph-name="space" unicode="&#x20;" horiz-adv-x="184" d="" />
<glyph glyph-name="A" unicode="A" horiz-adv-x="631" d="M619 0 Q610 0 595.5 0.5 Q581 1 565 1.5 Q549 2 533.5 2.5 Q518 3 507 3 Q495 3 479 2.5 Q463 2 446.5 1.5 Q430 1 415 0.5 Q400 0 390 0 L390 20 L459 40 L388 224 L197 224 L139 74 Q137 69 136 65 Q135 61 135 56 Q135 45 144 40 Q153 35 167 30 Q189 23 207 20 L207 0 Q189 0 162.5 1.5 Q136 3 114 3 Q102 3 88 2.5 Q74 2 59.5 1.5 Q45 1 31.5 0.5 Q18 0 8 0 L8 20 L74 40 L300 625 L329 625 L542 76 Q551 53 560 44 Q569 35 586 30 L619 20 L619 0 Z M291 474 L210 261 L374 261 L291 474 Z " />
<glyph glyph-name="B" unicode="B" horiz-adv-x="556" d="M277 625 Q399 625 448 577 Q483 544 483 490 Q483 436 452.5 398 Q422 360 366 343 Q438 329 478 287.5 Q518 246 518 180 Q518 141 504.5 109 Q491 77 468 54 Q439 25 398.5 12.5 Q358 0 304 0 L46 0 L46 20 L110 40 L110 546 Q110 577 93.5 587.5 Q77 598 42 605 L42 625 L277 625 Z M202 80 Q202 56 219 47.5 Q236 39 287 39 Q344 39 380 72.5 Q416 106 416 181 Q416 246 382 279 Q362 299 331 308 Q300 317 251 317 L202 317 L202 80 Z M388 474 Q388 530 362 557 Q347 572 321.5 579.5 Q296 587 255 587 L202 587 L202 357 L264 357 Q325 357 359 392 Q388 423 388 474 Z " />
<glyph glyph-name="C" unicode="C" horiz-adv-x="572" d="M539 110 Q505 56 448 20.5 Q391 -15 314 -15 Q249 -15 198 9 Q147 33 112 76.5 Q77 120 58.5 180.5 Q40 241 40 314 Q40 392 63.5 453 Q87 514 127 555.5 Q167 597 220.5 618.5 Q274 640 333 640 Q387 640 430 631.5 Q473 623 506 620 Q507 606 508 584 Q509 562 510 538 Q511 514 512.5 492 Q514 470 516 457 L492 457 Q486 495 471.5 521.5 Q457 548 436.5 564.5 Q416 581 391 588.5 Q366 596 339 596 Q295 596 259 575.5 Q223 555 197.5 518 Q172 481 158 429 Q144 377 144 314 Q144 247 159 196 Q174 145 199.5 110.5 Q225 76 260 58 Q295 40 335 40 Q399 40 440.5 67 Q482 94 510 132 L539 110 L539 110 Z " />
<glyph glyph-name="D" unicode="D" horiz-adv-x="647" d="M249 625 Q426 625 517 547.5 Q608 470 608 309 Q608 254 592 194.5 Q576 135 536 87 Q503 48 446 24 Q389 0 304 0 L46 0 L46 20 L109 40 L109 551 Q109 579 93.5 588.5 Q78 598 42 605 L42 625 L249 625 Z M202 81 Q202 58 220 49 Q238 40 287 40 Q345 40 386.5 61 Q428 82 454.5 119 Q481 156 493 204.5 Q505 253 505 309 Q505 374 492 425 Q479 476 449 511 Q419 546 371 564.5 Q323 583 254 583 L202 583 L202 81 Z " />
<glyph glyph-name="E" unicode="E" horiz-adv-x="545" d="M110 551 Q110 579 94.5 588.5 Q79 598 42 605 L42 625 L476 625 Q476 611 477.5 591 Q479 571 480.5 549.5 Q482 528 483.5 508.5 Q485 489 487 477 L463 477 Q458 504 448 527.5 Q438 551 422 562 Q405 574 376.5 580.5 Q348 587 296 587 Q279 587 259.5 587 Q240 587 202 585 L202 341 L270 341 Q279 341 297.5 341.5 Q316 342 335.5 343 Q355 344 371.5 345 Q388 346 392 348 L387 297 Q382 298 366 299 Q350 300 331.5 301 Q313 302 295 302.5 Q277 303 270 303 L202 303 L202 79 Q202 53 223.5 46 Q245 39 303 39 Q338 39 361.5 40.5 Q385 42 400 44.5 Q415 47 424.5 50.5 Q434 54 440 59 Q457 71 467 93 Q477 115 485 147 L505 147 Q504 134 503 114 Q502 94 501 72.5 Q500 51 499.5 31.5 Q499 12 499 0 L46 0 L46 20 L110 40 L110 551 Z " />
<glyph glyph-name="F" unicode="F" horiz-adv-x="517" d="M110 551 Q110 579 94.5 588.5 Q79 598 42 605 L42 625 L476 625 Q477 608 478 588.5 Q479 569 480.5 549 Q482 529 483.5 510.5 Q485 492 487 477 L463 477 Q456 501 450 522 Q444 543 424 560 Q401 579 364 583 Q327 587 293 587 Q264 587 243 586.5 Q222 586 202 585 L202 341 L270 341 Q279 341 297.5 341.5 Q316 342 335.5 343 Q355 344 371.5 345 Q388 346 392 348 L387 297 Q382 298 366 299 Q350 300 331.5 301 Q313 302 295 302.5 Q277 303 270 303 L202 303 L202 75 Q202 52 210.5 43.5 Q219 35 233 30 Q243 27 255.5 24.5 Q268 22 275 20 L275 0 Q266 0 251 0.5 Q236 1 219.5 1.5 Q203 2 187 2.5 Q171 3 160 3 Q148 3 133 2.5 Q118 2 102.5 1.5 Q87 1 73 0.5 Q59 0 49 0 L49 20 L110 40 L110 551 Z " />
<glyph glyph-name="G" unicode="G" horiz-adv-x="654" d="M392 275 Q401 275 415.5 274.5 Q430 274 446.5 273.5 Q463 273 478.5 272.5 Q494 272 505 272 Q517 272 532.5 272.5 Q548 273 563.5 273.5 Q579 274 593.5 274.5 Q608 275 618 275 L618 255 Q585 248 567.5 234.5 Q550 221 550 184 L550 35 Q532 26 507.5 17 Q483 8 455.5 1 Q428 -6 398 -10.5 Q368 -15 340 -15 Q275 -15 221.5 4.5 Q168 24 130 61 Q86 104 63 168 Q40 232 40 316 Q40 386 63.5 445.5 Q87 505 129 548 Q171 591 229.5 615.5 Q288 640 358 640 Q406 640 452.5 631 Q499 622 529 618 Q530 586 533 540.5 Q536 495 540 457 L515 457 Q506 531 465.5 563.5 Q425 596 356 596 Q313 596 274.5 577.5 Q236 559 207 524 Q178 489 161 437 Q144 385 144 318 Q144 240 161.5 185 Q179 130 208 95.5 Q237 61 274.5 45 Q312 29 352 29 Q405 29 432 48.5 Q459 68 459 113 L459 234 L392 255 L392 275 Z " />
<glyph glyph-name="H" unicode="H" horiz-adv-x="706" d="M664 0 Q655 0 641.5 0.5 Q628 1 613 1.5 Q598 2 583.5 2.5 Q569 3 558 3 Q546 3 530 2.5 Q514 2 497.5 1.5 Q481 1 466 0.5 Q451 0 441 0 L441 20 L505 40 L505 299 L202 299 L202 76 Q202 53 209 44 Q216 35 230 30 Q240 27 251 24.5 Q262 22 269 20 L269 0 Q260 0 246 0.5 Q232 1 216.5 1.5 Q201 2 186 2.5 Q171 3 160 3 Q148 3 132.5 2.5 Q117 2 101 1.5 Q85 1 70.5 0.5 Q56 0 46 0 L46 20 L110 40 L110 547 Q110 570 103 579.5 Q96 589 82 594 Q72 597 60.5 600 Q49 603 42 605 L42 625 Q51 625 65 624.5 Q79 624 94 623.5 Q109 623 123.5 622.5 Q138 622 149 622 Q161 622 176.5 622.5 Q192 623 208 623.5 Q224 624 238.5 624.5 Q253 625 263 625 L263 605 L202 584 L202 342 L505 342 L505 547 Q505 570 498 579.5 Q491 589 477 594 Q467 597 455.5 600 Q444 603 437 605 L437 625 Q446 625 460 624.5 Q474 624 489 623.5 Q504 623 518.5 622.5 Q533 622 544 622 Q556 622 571.5 622.5 Q587 623 603 623.5 Q619 624 633.5 624.5 Q648 625 658 625 L658 605 L597 584 L597 76 Q597 53 604 44 Q611 35 625 30 Q635 27 646 24.5 Q657 22 664 20 L664 0 L664 0 Z " />
<glyph glyph-name="I" unicode="I" horiz-adv-x="317" d="M272 0 Q263 0 249 0.5 Q235 1 219.5 1.5 Q204 2 189 2.5 Q174 3 163 3 Q151 3 135.5 2.5 Q120 2 104 1.5 Q88 1 73.5 0.5 Q59 0 49 0 L49 20 L113 40 L113 547 Q113 570 106 579.5 Q99 589 85 594 Q75 597 63.5 600 Q52 603 45 605 L45 625 Q54 625 68 624.5 Q82 624 97 623.5 Q112 623 126.5 622.5 Q141 622 152 622 Q164 622 179.5 622.5 Q195 623 211 623.5 Q227 624 241.5 624.5 Q256 625 266 625 L266 605 L205 584 L205 76 Q205 53 212 44 Q219 35 233 30 Q243 27 254 24.5 Q265 22 272 20 L272 0 L272 0 Z " />
<glyph glyph-name="J" unicode="J" horiz-adv-x="303" d="M201 584 L201 85 Q201 35 194.5 -13.5 Q188 -62 167.5 -102.5 Q147 -143 109.5 -173 Q72 -203 10 -217 L0 -188 Q32 -175 53 -153 Q74 -131 86.5 -98.5 Q99 -66 104 -22 Q109 22 109 80 L109 547 Q109 565 103.5 575 Q98 585 89 590.5 Q80 596 67.5 598.5 Q55 601 41 605 L41 625 Q68 625 94.5 623.5 Q121 622 148 622 Q177 622 205 623.5 Q233 625 262 625 L262 605 L201 584 Z " />
<glyph glyph-name="K" unicode="K" horiz-adv-x="592" d="M413 0 Q413 22 406.5 37.5 Q400 53 389 70 L247 301 L202 245 L202 76 Q202 53 209 43.5 Q216 34 230 30 L269 20 L269 0 Q260 0 245.5 0.5 Q231 1 215.5 1.5 Q200 2 184.5 2.5 Q169 3 158 3 Q146 3 131 2.5 Q116 2 100 1.5 Q84 1 70 0.5 Q56 0 46 0 L46 20 L110 40 L110 547 Q110 570 103 580 Q96 590 82 595 Q72 598 60.5 600.5 Q49 603 42 605 L42 625 Q51 625 65.5 624.5 Q80 624 96 623.5 Q112 623 127.5 622.5 Q143 622 154 622 Q166 622 180.5 622.5 Q195 623 210 623.5 Q225 624 239 624.5 Q253 625 263 625 L263 605 L202 584 L202 311 L432 590 L371 605 L371 625 Q381 625 395 624 Q409 623 424 622.5 Q439 622 452.5 621.5 Q466 621 476 621 Q488 621 502 621.5 Q516 622 529.5 622.5 Q543 623 554 624 Q565 625 572 625 L572 605 Q545 601 527 596 Q509 591 494.5 583 Q480 575 468 563.5 Q456 552 443 536 L307 373 L466 118 Q482 91 495 73.5 Q508 56 520.5 45.5 Q533 35 547.5 29 Q562 23 582 20 L582 0 L413 0 Z " />
<glyph glyph-name="L" unicode="L" horiz-adv-x="515" d="M496 147 Q495 133 493.5 113.5 Q492 94 491 73 Q490 52 489.5 32.5 Q489 13 489 0 L46 0 L46 20 L110 40 L110 547 Q110 570 103 579.5 Q96 589 82 594 Q72 597 60.5 600 Q49 603 42 605 L42 625 Q51 625 65 624.5 Q79 624 94 623.5 Q109 623 123.5 622.5 Q138 622 149 622 Q161 622 176.5 622.5 Q192 623 208 623.5 Q224 624 238.5 624.5 Q253 625 263 625 L263 605 L202 584 L202 79 Q202 53 224 46 Q246 39 304 39 Q339 39 362 40 Q385 41 399 43 Q413 45 421.5 48.5 Q430 52 436 58 Q449 69 458.5 92 Q468 115 476 147 L496 147 L496 147 Z " />
<glyph glyph-name="M" unicode="M" horiz-adv-x="838" d="M796 0 Q787 0 773 0.5 Q759 1 743.5 1.5 Q728 2 713 2.5 Q698 3 687 3 Q675 3 660 2.5 Q645 2 629 1.5 Q613 1 599 0.5 Q585 0 575 0 L575 20 L637 40 L637 506 L411 -4 L389 -4 L163 505 L163 76 Q163 53 171 43.5 Q179 34 193 30 L230 20 L230 0 Q212 0 187 1.5 Q162 3 140 3 Q117 3 91.5 1.5 Q66 0 46 0 L46 20 L110 40 L110 547 Q110 570 101.5 579.5 Q93 589 79 594 Q69 598 59 600.5 Q49 603 42 605 L42 625 L208 625 L420 144 L635 625 L790 625 L790 605 L729 584 L729 76 Q729 53 736 44 Q743 35 757 30 Q767 27 778 24.5 Q789 22 796 20 L796 0 L796 0 Z " />
<glyph glyph-name="N" unicode="N" horiz-adv-x="703" d="M601 584 L601 -4 L558 -4 L163 503 L163 76 Q163 53 170.5 44 Q178 35 192 30 Q202 27 212.5 24.5 Q223 22 230 20 L230 0 Q212 0 187 1.5 Q162 3 140 3 Q117 3 90.5 1.5 Q64 0 44 0 L44 20 L110 40 L110 548 Q110 572 101.5 580.5 Q93 589 79 594 Q70 597 58 600 Q46 603 39 605 L39 625 L182 625 L549 154 L549 550 Q549 573 542.5 581 Q536 589 520 594 Q511 597 499.5 600 Q488 603 481 605 L481 625 Q499 625 525 623.5 Q551 622 573 622 Q596 622 619.5 623.5 Q643 625 663 625 L663 605 L601 584 Z " />
<glyph glyph-name="O" unicode="O" horiz-adv-x="626" d="M586 313 Q586 250 569 191 Q552 132 518 86 Q484 40 432.5 12.5 Q381 -15 312 -15 Q243 -15 191.5 12.5 Q140 40 106.5 86 Q73 132 56.5 191 Q40 250 40 313 Q40 376 57 435 Q74 494 108 539.5 Q142 585 193.5 612.5 Q245 640 314 640 Q383 640 434.5 612.5 Q486 585 519.5 539.5 Q553 494 569.5 435 Q586 376 586 313 Z M482 313 Q482 352 475 401.5 Q468 451 449 494 Q430 537 397.5 566.5 Q365 596 314 596 Q263 596 230 566.5 Q197 537 178 494 Q159 451 151.5 401.5 Q144 352 144 313 Q144 274 151 224.5 Q158 175 177 131.5 Q196 88 228.5 58.5 Q261 29 312 29 Q363 29 396 58.5 Q429 88 448 131.5 Q467 175 474.5 224.5 Q482 274 482 313 Z " />
<glyph glyph-name="P" unicode="P" horiz-adv-x="533" d="M202 295 L234 295 Q282 295 311 305.5 Q340 316 359 334 Q379 354 388 382.5 Q397 411 397 444 Q397 480 388 505.5 Q379 531 362 548 Q342 568 313 576 Q284 584 244 584 L202 584 L202 295 Z M275 0 Q248 0 217.5 1.5 Q187 3 160 3 Q131 3 103 1.5 Q75 0 46 0 L46 20 L110 40 L110 547 Q110 564 104.5 574 Q99 584 90 590 Q81 596 68.5 599 Q56 602 42 605 L42 625 L254 625 Q282 625 311 622.5 Q340 620 363 614 Q427 597 463.5 555 Q500 513 500 444 Q500 404 485 370 Q470 336 439 310 Q409 285 364 270.5 Q319 256 256 256 L202 256 L202 75 Q202 52 210.5 43.5 Q219 35 233 30 Q243 27 255.5 24.5 Q268 22 275 20 L275 0 Z " />
<glyph glyph-name="Q" unicode="Q" horiz-adv-x="627" d="M753 -202 Q657 -202 584.5 -188 Q512 -174 459.5 -149.5 Q407 -125 372 -90.5 Q337 -56 315 -15 Q246 -15 194 12.5 Q142 40 108 85.5 Q74 131 57 190 Q40 249 40 312 Q40 375 57 434 Q74 493 108 539 Q142 585 193.5 612.5 Q245 640 314 640 Q383 640 434.5 611.5 Q486 583 520 536.5 Q554 490 570.5 430.5 Q587 371 587 308 Q587 263 580 220.5 Q573 178 555 139.5 Q537 101 506.5 68 Q476 35 429 9 Q460 -82 543 -126.5 Q626 -171 753 -179 L753 -202 Z M482 312 Q482 351 475 400.5 Q468 450 449.5 493.5 Q431 537 398 566.5 Q365 596 314 596 Q263 596 230 566.5 Q197 537 178 493.5 Q159 450 151.5 401 Q144 352 144 312 Q144 272 151.5 223 Q159 174 178 130.5 Q197 87 230 57.5 Q263 28 314 28 Q365 28 398 57.5 Q431 87 449.5 130.5 Q468 174 475 223.5 Q482 273 482 312 Z " />
<glyph glyph-name="R" unicode="R" horiz-adv-x="603" d="M430 0 Q430 8 429 14.5 Q428 21 426 29 Q424 37 419.5 48 Q415 59 408 75 L354 195 Q343 220 334 235 Q325 250 314.5 258 Q304 266 288.5 269 Q273 272 249 272 L202 272 L202 76 Q202 61 205 52 Q208 43 215.5 37.5 Q223 32 236 28 Q249 24 269 20 L269 0 Q242 0 214.5 1.5 Q187 3 160 3 Q131 3 103 1.5 Q75 0 46 0 L46 20 L110 40 L110 547 Q110 565 104.5 575 Q99 585 90 590.5 Q81 596 68.5 599 Q56 602 42 605 L42 625 L246 625 Q313 625 363.5 614 Q414 603 447 574 Q470 554 483 525 Q496 496 496 456 Q496 404 464 362.5 Q432 321 362 301 Q393 293 410 277.5 Q427 262 443 226 L497 106 Q507 82 517.5 67 Q528 52 540 42.5 Q552 33 566.5 28 Q581 23 599 20 L599 0 L430 0 Z M393 450 Q393 514 364 546 Q344 567 314 575.5 Q284 584 240 584 L202 584 L202 310 L223 310 Q311 310 354 350 Q393 387 393 450 Z " />
<glyph glyph-name="S" unicode="S" horiz-adv-x="504" d="M93 160 Q100 97 135 61.5 Q170 26 227 26 Q287 26 319 60.5 Q351 95 351 148 Q351 185 330 210 Q309 235 277.5 255.5 Q246 276 209.5 294.5 Q173 313 141.5 337 Q110 361 89 394.5 Q68 428 68 478 Q68 514 83 544 Q98 574 124.5 595 Q151 616 187.5 628 Q224 640 267 640 Q304 640 343.5 634 Q383 628 411 626 Q411 614 412 594.5 Q413 575 414 553.5 Q415 532 416.5 511.5 Q418 491 420 477 L395 477 Q387 535 354.5 566.5 Q322 598 271 598 Q248 598 227.5 591 Q207 584 191.5 571 Q176 558 166.5 538.5 Q157 519 157 494 Q157 459 178 435 Q199 411 231 391.5 Q263 372 299.5 353 Q336 334 368 309 Q400 284 421 249 Q442 214 442 162 Q442 126 428 94 Q414 62 387.5 38 Q361 14 322.5 -0.5 Q284 -15 236 -15 Q192 -15 146 -7.5 Q100 0 70 11 L70 160 L93 160 Z " />
<glyph glyph-name="T" unicode="T" horiz-adv-x="566" d="M524 477 Q513 515 506 532.5 Q499 550 487 562 Q473 576 446 581.5 Q419 587 383 587 L329 587 L329 76 Q329 53 336 44 Q343 35 357 30 Q367 27 378 24.5 Q389 22 396 20 L396 0 Q387 0 373 0.5 Q359 1 344 1.5 Q329 2 314 2.5 Q299 3 288 3 Q276 3 260.5 2.5 Q245 2 228.5 1.5 Q212 1 197.5 0.5 Q183 0 173 0 L173 20 L237 40 L237 587 L183 587 Q147 587 120 581.5 Q93 576 79 562 Q67 550 60 532.5 Q53 515 42 477 L20 477 Q21 490 22 508.5 Q23 527 24 548 Q25 569 26 589 Q27 609 27 625 L539 625 Q539 609 540 589 Q541 569 542 548 Q543 527 544 508.5 Q545 490 546 477 L524 477 Z " />
<glyph glyph-name="U" unicode="U" horiz-adv-x="644" d="M551 244 Q551 174 536.5 126.5 Q522 79 492 47 Q435 -15 326 -15 Q272 -15 232 -1 Q192 13 165 39 Q130 72 114 119.5 Q98 167 98 232 L98 548 Q98 571 91 580.5 Q84 590 70 595 Q60 598 48.5 601 Q37 604 30 606 L30 625 Q39 625 53 624.5 Q67 624 82 623.5 Q97 623 111.5 622.5 Q126 622 137 622 Q149 622 164.5 622.5 Q180 623 196 623.5 Q212 624 226.5 624.5 Q241 625 251 625 L251 606 L190 585 L190 244 Q190 184 200 146 Q210 108 230 82 Q247 59 275.5 46 Q304 33 343 33 Q384 33 413.5 48.5 Q443 64 461 90 Q480 117 489.5 156.5 Q499 196 499 252 L499 548 Q499 571 490.5 580.5 Q482 590 468 595 Q458 599 448.5 601.5 Q439 604 432 606 L432 625 Q450 625 475 623.5 Q500 622 522 622 Q545 622 568.5 623.5 Q592 625 612 625 L612 606 L551 585 L551 244 Z " />
<glyph glyph-name="V" unicode="V" horiz-adv-x="607" d="M607 606 Q584 603 569.5 599 Q555 595 546 588.5 Q537 582 531.5 571 Q526 560 520 544 L331 -2 L294 -2 L76 552 Q65 579 48.5 589 Q32 599 0 607 L0 625 Q6 625 19.5 624.5 Q33 624 48.5 623.5 Q64 623 79 622.5 Q94 622 102 622 Q112 622 128.5 622.5 Q145 623 162 623.5 Q179 624 194.5 624.5 Q210 625 218 625 L218 607 L159 591 L331 141 L486 591 L426 606 L426 625 Q448 624 467 623 Q484 622 500.5 622 Q517 622 526 622 Q534 622 545 622.5 Q556 623 567.5 623.5 Q579 624 589.5 624.5 Q600 625 607 625 L607 606 L607 606 Z " />
<glyph glyph-name="W" unicode="W" horiz-adv-x="915" d="M915 606 Q892 603 877.5 599 Q863 595 854 588 Q845 581 839 570.5 Q833 560 828 544 L649 -2 L609 -2 L465 415 L312 -2 L273 -2 L75 552 Q70 567 64 576 Q58 585 49.5 590.5 Q41 596 29 599.5 Q17 603 0 607 L0 625 Q6 625 20 624.5 Q34 624 50 623.5 Q66 623 81.5 622.5 Q97 622 105 622 Q115 622 130.5 622.5 Q146 623 162.5 623.5 Q179 624 193.5 624.5 Q208 625 216 625 L216 607 L155 591 L314 146 L438 484 L415 552 Q410 565 404.5 574 Q399 583 390.5 589 Q382 595 370.5 599 Q359 603 344 607 L344 625 Q350 625 363.5 624.5 Q377 624 393 623.5 Q409 623 424 622.5 Q439 622 447 622 Q457 622 472.5 622.5 Q488 623 504 623.5 Q520 624 534 624.5 Q548 625 556 625 L556 607 L493 591 L647 148 L792 591 L731 606 L731 625 Q752 624 770 623 Q786 622 802 622 Q818 622 827 622 Q835 622 847 622.5 Q859 623 872 623.5 Q885 624 896.5 624.5 Q908 625 915 625 L915 606 L915 606 Z " />
<glyph glyph-name="X" unicode="X" horiz-adv-x="612" d="M606 0 Q603 0 577 2 Q551 4 507 4 Q485 4 463 3.5 Q441 3 422.5 2 Q404 1 392 0.5 Q380 0 378 0 L378 18 L436 34 L291 259 L150 33 L213 17 L213 0 Q211 0 200 0.5 Q189 1 173 2 Q157 3 140.5 3.5 Q124 4 112 4 Q102 4 86.5 3.5 Q71 3 56 2 Q41 1 29 0.5 Q17 0 16 0 L16 17 Q39 21 55 25.5 Q71 30 82.5 35.5 Q94 41 102 49 Q110 57 117 68 L262 300 L87 553 Q71 576 52.5 589 Q34 602 5 608 L5 625 Q6 625 17 624.5 Q28 624 43.5 623.5 Q59 623 76.5 622.5 Q94 622 108 622 Q122 622 142 622.5 Q162 623 180.5 623.5 Q199 624 212 624.5 Q225 625 227 625 L227 608 L173 592 L313 378 L443 595 L391 609 L391 625 Q392 625 403 624.5 Q414 624 430 623.5 Q446 623 464 622.5 Q482 622 496 622 Q506 622 518.5 622.5 Q531 623 543 623.5 Q555 624 563 624.5 Q571 625 572 625 L572 609 Q551 606 535.5 602.5 Q520 599 509 593 Q498 587 489 577 Q480 567 471 552 L343 335 L523 72 Q539 49 558.5 37.5 Q578 26 606 18 L606 0 L606 0 Z " />
<glyph glyph-name="Y" unicode="Y" horiz-adv-x="563" d="M561 607 Q539 604 525.5 598.5 Q512 593 503 585.5 Q494 578 488 567.5 Q482 557 476 544 L332 246 L332 76 Q332 53 339 44 Q346 35 360 30 Q370 27 381 24.5 Q392 22 399 20 L399 0 Q390 0 376 0.5 Q362 1 346.5 1.5 Q331 2 316 2.5 Q301 3 290 3 Q278 3 262.5 2.5 Q247 2 231 1.5 Q215 1 200.5 0.5 Q186 0 176 0 L176 20 L240 40 L240 245 L76 553 Q63 578 46 589 Q29 600 2 608 L2 625 Q8 625 21 624.5 Q34 624 49.5 623.5 Q65 623 79.5 622.5 Q94 622 102 622 Q112 622 129 622.5 Q146 623 164 623.5 Q182 624 197.5 624.5 Q213 625 221 625 L221 608 L159 592 L311 307 L448 591 L390 607 L390 625 Q409 624 427 623 Q442 622 457.5 622 Q473 622 482 622 Q490 622 501 622.5 Q512 623 523 623.5 Q534 624 544 624.5 Q554 625 561 625 L561 607 L561 607 Z " />
<glyph glyph-name="Z" unicode="Z" horiz-adv-x="555" d="M503 147 Q501 129 500 109.5 Q499 90 498 70.5 Q497 51 496.5 32.5 Q496 14 496 0 L54 0 L54 36 L389 587 L137 587 L86 482 L66 482 Q67 493 68 511.5 Q69 530 69.5 550 Q70 570 70.5 590 Q71 610 71 625 L497 625 L497 590 L160 38 L363 38 Q422 38 447 66.5 Q472 95 481 147 L503 147 L503 147 Z " />
<glyph glyph-name="a" unicode="a" horiz-adv-x="466" d="M444 19 Q430 5 409.5 -3.5 Q389 -12 369 -12 Q348 -12 328.5 -2.5 Q309 7 302 30 Q285 13 255 -1 Q225 -15 189 -15 Q160 -15 134.5 -6 Q109 3 90 20.5 Q71 38 59.5 63 Q48 88 48 121 Q48 164 68 193.5 Q88 223 121.5 241.5 Q155 260 200 268 Q245 276 295 276 L295 317 Q295 368 275 390.5 Q255 413 217 413 Q177 413 149 388.5 Q121 364 104 318 L66 333 Q85 387 127.5 423.5 Q170 460 243 460 Q284 460 317 444.5 Q350 429 367 394 Q378 373 380 345.5 Q382 318 382 287 L382 75 Q382 58 387.5 45.5 Q393 33 413 33 Q428 33 444 40 L444 19 Z M295 242 L287 242 Q219 242 179 214 Q139 186 139 129 Q139 78 162.5 55 Q186 32 218 32 Q241 32 261 41 Q281 50 295 64 L295 242 Z " />
<glyph glyph-name="b" unicode="b" horiz-adv-x="509" d="M470 225 Q470 168 452.5 119 Q435 70 399 38 Q371 13 332 -1 Q293 -15 247 -15 Q205 -15 158 -4 Q111 7 74 26 L74 586 Q74 604 70.5 614 Q67 624 60 630 Q53 636 42 639 Q31 642 16 647 L16 665 Q52 665 88.5 664.5 Q125 664 161 669 L161 398 Q187 430 223.5 445 Q260 460 292 460 Q330 460 357 449 Q384 438 405 419 Q442 387 456 335 Q470 283 470 225 Z M378 225 Q378 407 269 407 Q238 407 209.5 390 Q181 373 161 349 L161 66 Q175 49 199 39 Q223 29 247 29 Q288 29 313.5 47 Q339 65 353.5 93 Q368 121 373 156 Q378 191 378 225 Z " />
<glyph glyph-name="c" unicode="c" horiz-adv-x="435" d="M407 87 Q398 69 382 50.5 Q366 32 344.5 17.5 Q323 3 295.5 -6 Q268 -15 236 -15 Q191 -15 154 2 Q117 19 90.5 49.5 Q64 80 49.5 124 Q35 168 35 222 Q35 278 52 322.5 Q69 367 98.5 397.5 Q128 428 168.5 444 Q209 460 257 460 Q292 460 323 454.5 Q354 449 380 447 Q380 422 381.5 381 Q383 340 385 306 L363 306 Q361 329 354.5 348.5 Q348 368 335 384 Q321 401 300.5 410 Q280 419 254 419 Q193 419 160 367.5 Q127 316 127 225 Q127 132 165 85 Q203 38 262 38 Q303 38 334 59.5 Q365 81 382 110 L407 87 L407 87 Z " />
<glyph glyph-name="d" unicode="d" horiz-adv-x="523" d="M507 19 Q494 5 474 -3.5 Q454 -12 432 -12 Q406 -12 384.5 1.5 Q363 15 355 44 Q334 18 299.5 1.5 Q265 -15 220 -15 Q173 -15 138.5 5 Q104 25 81.5 57 Q59 89 48 130.5 Q37 172 37 215 Q37 267 51.5 312 Q66 357 93 390 Q120 423 158 441.5 Q196 460 243 460 Q272 460 300.5 449 Q329 438 349 419 L349 589 Q349 602 348 611 Q347 620 341 626 Q335 632 323.5 636.5 Q312 641 291 647 L291 665 L353 665 Q374 665 394.5 666 Q415 667 436 669 L436 82 Q436 59 446.5 46 Q457 33 475 33 Q486 33 494 35.5 Q502 38 507 40 L507 19 Z M349 373 Q332 389 308 398.5 Q284 408 260 408 Q223 408 198 391 Q173 374 157.5 348 Q142 322 135.5 290 Q129 258 129 227 Q129 198 135 165 Q141 132 155.5 104.5 Q170 77 193.5 59 Q217 41 252 41 Q282 41 305.5 52 Q329 63 349 85 L349 373 Z " />
<glyph glyph-name="e" unicode="e" horiz-adv-x="450" d="M404 87 Q381 45 335.5 15 Q290 -15 230 -15 Q178 -15 141 6 Q104 27 80.5 60.5 Q57 94 46 136.5 Q35 179 35 223 Q35 276 49 319.5 Q63 363 89 394.5 Q115 426 151.5 443 Q188 460 233 460 Q271 460 303 447 Q335 434 358.5 409 Q382 384 395 348 Q408 312 408 266 Q408 259 408 252.5 Q408 246 407 238 L126 238 Q126 139 161 88.5 Q196 38 257 38 Q301 38 331 60.5 Q361 83 378 110 L404 87 Z M321 274 Q320 343 296 380.5 Q272 418 229 418 Q207 418 189 407 Q171 396 158.5 377 Q146 358 138 331.5 Q130 305 128 274 L321 274 Z " />
<glyph glyph-name="f" unicode="f" horiz-adv-x="326" d="M142 3 Q118 3 91 1.5 Q64 0 40 0 L40 18 L97 38 L97 408 L29 408 L29 444 L97 444 Q97 506 106 549.5 Q115 593 145 629 Q165 652 195 666 Q225 680 263 680 Q278 680 296.5 676.5 Q315 673 332 666.5 Q349 660 360.5 649.5 Q372 639 372 624 Q372 607 361.5 589 Q351 571 335 571 Q324 571 313 582 Q306 590 299.5 601 Q293 612 284.5 622 Q276 632 266 639 Q256 646 241 646 Q218 646 206.5 627.5 Q195 609 190 584.5 Q185 560 184.5 534 Q184 508 184 493 L184 444 L301 444 L293 408 L184 408 L184 74 Q184 48 197 38 Q210 28 249 18 L249 0 Q223 0 195.5 1.5 Q168 3 142 3 Z " />
<glyph glyph-name="g" unicode="g" horiz-adv-x="472" d="M425 401 Q412 401 397 402 Q382 403 372 405 Q391 385 402.5 358 Q414 331 414 299 Q414 261 399.5 231 Q385 201 360.5 180.5 Q336 160 302.5 149.5 Q269 139 232 139 Q206 139 182.5 143.5 Q159 148 139 158 Q131 146 131 129 Q131 104 154.5 93 Q178 82 213.5 77 Q249 72 290 68 Q331 64 366.5 51.5 Q402 39 425.5 14 Q449 -11 449 -57 Q449 -102 428.5 -135.5 Q408 -169 375 -191 Q342 -213 301.5 -224 Q261 -235 221 -235 Q189 -235 155 -228 Q121 -221 93 -206 Q65 -191 47 -167 Q29 -143 29 -110 Q29 -65 59 -33.5 Q89 -2 128 13 Q103 27 87 47.5 Q71 68 71 99 Q71 122 82 141.5 Q93 161 109 174 Q82 194 66.5 225 Q51 256 51 298 Q51 337 65.5 367 Q80 397 104.5 417.5 Q129 438 162 449 Q195 460 232 460 Q279 460 322 441 Q335 442 353 443.5 Q371 445 389.5 447 Q408 449 425.5 451.5 Q443 454 456 456 L456 401 L425 401 Z M391 -90 Q391 -60 368 -46 Q345 -32 311 -25 Q277 -18 237 -14.5 Q197 -11 164 -2 Q139 -16 125.5 -41.5 Q112 -67 112 -95 Q112 -143 144.5 -166.5 Q177 -190 240 -190 Q270 -190 301.5 -181 Q333 -172 355 -155 Q372 -142 381.5 -126 Q391 -110 391 -90 Z M327 299 Q327 321 322 342.5 Q317 364 306 381.5 Q295 399 277 409.5 Q259 420 232 420 Q206 420 188 409.5 Q170 399 159 381.5 Q148 364 143 342.5 Q138 321 138 299 Q138 277 142.5 255.5 Q147 234 158 216.5 Q169 199 187 188.5 Q205 178 232 178 Q259 178 277 188.5 Q295 199 306 216.5 Q317 234 322 255.5 Q327 277 327 299 Z " />
<glyph glyph-name="h" unicode="h" horiz-adv-x="545" d="M520 0 Q494 2 470.5 2.5 Q447 3 421 3 Q397 3 370 2 Q343 1 318 0 L318 18 L375 38 L375 280 Q375 321 370.5 343 Q366 365 354 379 Q334 403 297 403 Q260 403 229.5 385 Q199 367 173 336 L173 74 Q173 54 179 43.5 Q185 33 199 28 Q207 25 216.5 22.5 Q226 20 231 18 L231 0 Q205 2 182 2.5 Q159 3 133 3 Q109 3 81.5 2 Q54 1 29 0 L29 18 L86 38 L86 589 Q86 611 79.5 620.5 Q73 630 59 636 Q51 640 43.5 642.5 Q36 645 28 647 L28 665 Q79 665 114.5 666 Q150 667 173 670 L173 385 Q202 417 241.5 438.5 Q281 460 324 460 Q358 460 387 447 Q416 434 435 408 Q454 382 458 349.5 Q462 317 462 282 L462 74 Q462 54 468 43.5 Q474 33 488 28 Q496 25 505.5 22.5 Q515 20 520 18 L520 0 L520 0 Z " />
<glyph glyph-name="i" unicode="i" horiz-adv-x="265" d="M128 526 Q108 526 92.5 540.5 Q77 555 77 577 Q77 599 92.5 613.5 Q108 628 128 628 Q148 628 163.5 613.5 Q179 599 179 577 Q179 555 163.5 540.5 Q148 526 128 526 Z M236 0 Q210 2 187 2.5 Q164 3 138 3 Q114 3 86.5 2 Q59 1 34 0 L34 18 L91 38 L91 368 Q91 390 84.5 399.5 Q78 409 64 415 Q56 419 48.5 421.5 Q41 424 33 426 L33 444 Q84 444 119.5 445 Q155 446 178 449 L178 74 Q178 54 184 43.5 Q190 33 204 28 Q212 25 221.5 22.5 Q231 20 236 18 L236 0 Z " />
<glyph glyph-name="j" unicode="j" horiz-adv-x="249" d="M170 -43 Q170 -85 155.5 -118 Q141 -151 117.5 -175 Q94 -199 64.5 -214 Q35 -229 5 -235 L-3 -206 Q36 -192 59.5 -151 Q83 -110 83 -35 L83 368 Q83 390 76.5 399.5 Q70 409 56 415 Q48 419 40.5 421.5 Q33 424 25 426 L25 444 Q76 444 111.5 445 Q147 446 170 449 L170 -43 Z M120 526 Q100 526 84.5 540.5 Q69 555 69 577 Q69 599 84.5 613.5 Q100 628 120 628 Q140 628 155.5 613.5 Q171 599 171 577 Q171 555 155.5 540.5 Q140 526 120 526 Z " />
<glyph glyph-name="k" unicode="k" horiz-adv-x="491" d="M348 414 L307 426 L307 444 Q327 442 346 442 Q365 442 385 442 Q405 442 423.5 442 Q442 442 463 444 L463 426 Q439 424 417 415.5 Q395 407 369 386 L269 305 L399 89 Q414 64 429 48.5 Q444 33 470 25 L495 18 L495 0 L401 0 Q375 0 360 8 Q345 16 330 41 L205 252 L173 226 L173 74 Q173 54 179 43.5 Q185 33 199 28 Q207 25 216.5 22.5 Q226 20 231 18 L231 0 Q205 2 182 2.5 Q159 3 133 3 Q109 3 81.5 2 Q54 1 29 0 L29 18 L86 38 L86 590 Q86 612 79.5 621.5 Q73 631 59 637 Q51 641 43 643 Q35 645 27 647 L27 665 Q78 665 114 665.5 Q150 666 173 669 L173 271 L348 414 Z " />
<glyph glyph-name="l" unicode="l" horiz-adv-x="258" d="M231 0 Q205 2 182 2.5 Q159 3 133 3 Q109 3 81.5 2 Q54 1 29 0 L29 18 L86 38 L86 590 Q86 612 79 621.5 Q72 631 58 637 Q50 641 43 643 Q36 645 28 647 L28 665 Q79 665 114.5 665.5 Q150 666 173 669 L173 74 Q173 54 179 43.5 Q185 33 199 28 Q207 25 216.5 22.5 Q226 20 231 18 L231 0 L231 0 Z " />
<glyph glyph-name="m" unicode="m" horiz-adv-x="825" d="M655 280 Q655 321 651 343 Q647 365 635 379 Q615 403 578 403 Q516 403 458 337 Q458 334 458.5 327 Q459 320 459 312 Q459 304 459 297 Q459 290 459 287 L459 74 Q459 36 485 28 Q493 25 503 22 Q513 19 517 18 L517 0 Q488 1 467 2 Q446 3 420 3 Q396 3 367 2 Q338 1 315 0 L315 18 L372 38 L372 280 Q372 321 368 343 Q364 365 352 379 Q332 403 296 403 Q237 403 177 338 L177 74 Q177 54 183 43.5 Q189 33 203 28 Q211 25 220.5 22.5 Q230 20 235 18 L235 0 Q209 2 186 2.5 Q163 3 137 3 Q113 3 85.5 2 Q58 1 33 0 L33 18 L90 38 L90 368 Q90 390 83.5 399.5 Q77 409 63 415 Q55 419 47.5 421.5 Q40 424 32 426 L32 444 Q83 444 118.5 445 Q154 446 177 449 L177 388 Q215 426 251 443 Q287 460 324 460 Q367 460 400.5 440.5 Q434 421 449 379 Q484 414 520.5 437 Q557 460 608 460 Q661 460 698 430.5 Q735 401 741 337 Q741 334 741.5 327 Q742 320 742 312 Q742 304 742 297 Q742 290 742 287 L742 74 Q742 36 768 28 Q776 25 786 22 Q796 19 800 18 L800 0 Q771 1 750 2 Q729 3 703 3 Q679 3 650 2 Q621 1 598 0 L598 18 L655 38 L655 280 Z " />
<glyph glyph-name="n" unicode="n" horiz-adv-x="549" d="M524 0 Q498 2 474.5 2.5 Q451 3 425 3 Q401 3 374 2 Q347 1 322 0 L322 18 L379 38 L379 280 Q379 321 374.5 343 Q370 365 358 379 Q338 403 301 403 Q264 403 233.5 385 Q203 367 177 336 L177 74 Q177 54 183 43.5 Q189 33 203 28 Q211 25 220.5 22.5 Q230 20 235 18 L235 0 Q209 2 186 2.5 Q163 3 137 3 Q113 3 85.5 2 Q58 1 33 0 L33 18 L90 38 L90 368 Q90 390 83.5 399.5 Q77 409 63 415 Q55 419 47.5 421.5 Q40 424 32 426 L32 444 Q83 444 118.5 445 Q154 446 177 449 L177 385 Q206 417 245.5 438.5 Q285 460 328 460 Q362 460 391 447 Q420 434 439 408 Q458 382 462 349.5 Q466 317 466 282 L466 74 Q466 54 472 43.5 Q478 33 492 28 Q500 25 509.5 22.5 Q519 20 524 18 L524 0 L524 0 Z " />
<glyph glyph-name="o" unicode="o" horiz-adv-x="500" d="M465 221 Q465 171 450.5 128 Q436 85 408.5 53 Q381 21 340.5 3 Q300 -15 249 -15 Q198 -15 158 3 Q118 21 90.5 53 Q63 85 49 128 Q35 171 35 221 Q35 271 49.5 314.5 Q64 358 91.5 390.5 Q119 423 159.5 441.5 Q200 460 251 460 Q302 460 342 441.5 Q382 423 409.5 390.5 Q437 358 451 314.5 Q465 271 465 221 Z M373 222 Q373 252 368 286.5 Q363 321 349.5 350.5 Q336 380 312 399 Q288 418 251 418 Q214 418 190 399 Q166 380 152 350.5 Q138 321 132.5 286.5 Q127 252 127 222 Q127 192 132 157.5 Q137 123 150.5 94 Q164 65 188 46 Q212 27 249 27 Q286 27 310 46 Q334 65 348 94 Q362 123 367.5 157.5 Q373 192 373 222 Z " />
<glyph glyph-name="p" unicode="p" horiz-adv-x="518" d="M388 227 Q388 312 359 359.5 Q330 407 277 407 Q222 407 170 352 L170 70 Q189 54 213 44.5 Q237 35 261 35 Q325 35 356.5 88 Q388 141 388 227 Z M128 -217 Q102 -217 77 -218 Q52 -219 26 -220 L26 -202 L83 -181 L83 368 Q83 384 79 393.5 Q75 403 67.5 409 Q60 415 49 418.5 Q38 422 25 426 L25 444 Q61 444 97.5 444 Q134 444 170 449 L170 400 Q193 425 226.5 442.5 Q260 460 297 460 Q345 460 380 440.5 Q415 421 437 388.5 Q459 356 469.5 314 Q480 272 480 227 Q480 185 468.5 141.5 Q457 98 432.5 63.5 Q408 29 368.5 7 Q329 -15 274 -15 Q245 -15 217.5 -4.5 Q190 6 170 22 L170 -146 Q170 -159 173 -167.5 Q176 -176 183.5 -182 Q191 -188 204.5 -192.5 Q218 -197 238 -202 L238 -220 Q212 -220 183 -218.5 Q154 -217 128 -217 Z " />
<glyph glyph-name="q" unicode="q" horiz-adv-x="509" d="M348 392 Q335 402 314 409.5 Q293 417 271 417 Q230 417 203 399 Q176 381 160 353 Q144 325 137.5 290 Q131 255 131 221 Q131 130 161 85 Q191 40 244 40 Q275 40 304 58 Q333 76 348 98 L348 392 Z M348 47 Q323 17 287.5 1 Q252 -15 220 -15 Q169 -15 134.5 4 Q100 23 79 55 Q58 87 48.5 129 Q39 171 39 217 Q39 270 55.5 314.5 Q72 359 102.5 391.5 Q133 424 176 442 Q219 460 273 460 Q315 460 356.5 448.5 Q398 437 435 418 L435 -144 Q435 -166 441.5 -175.5 Q448 -185 462 -191 Q470 -195 477.5 -197.5 Q485 -200 493 -202 L493 -220 Q442 -220 406.5 -221 Q371 -222 348 -225 L348 47 Z " />
<glyph glyph-name="r" unicode="r" horiz-adv-x="356" d="M349 416 Q349 399 336 383.5 Q323 368 311 368 Q302 368 295.5 372.5 Q289 377 282.5 383 Q276 389 269 393.5 Q262 398 252 398 Q231 398 212.5 383.5 Q194 369 177 343 L177 74 Q177 48 190 38 Q203 28 242 18 L242 0 Q216 0 189 1.5 Q162 3 136 3 Q112 3 85 1.5 Q58 0 34 0 L34 18 L90 38 L90 368 Q90 381 88.5 389.5 Q87 398 81 404.5 Q75 411 63.5 416 Q52 421 32 426 L32 444 Q68 444 104.5 444 Q141 444 177 449 L177 388 Q197 416 225.5 438 Q254 460 285 460 Q309 460 329 448 Q349 436 349 416 Z " />
<glyph glyph-name="s" unicode="s" horiz-adv-x="400" d="M352 126 Q352 91 338.5 65 Q325 39 302.5 21 Q280 3 250 -6 Q220 -15 187 -15 Q173 -15 155.5 -13 Q138 -11 120 -7.5 Q102 -4 85 0.5 Q68 5 55 11 L55 127 L75 127 Q81 85 111 54 Q141 23 192 23 Q227 23 251 40.5 Q275 58 275 93 Q275 122 258.5 140.5 Q242 159 217.5 173 Q193 187 164 199 Q135 211 110.5 227.5 Q86 244 69.5 268 Q53 292 53 330 Q53 361 66.5 385.5 Q80 410 102.5 426.5 Q125 443 153 451.5 Q181 460 210 460 Q243 460 271 454 Q299 448 323 445 Q323 414 324.5 382 Q326 350 328 325 L308 325 Q300 373 277.5 398 Q255 423 211 423 Q172 423 151.5 405 Q131 387 131 358 Q131 333 147.5 316.5 Q164 300 188.5 287 Q213 274 241.5 261 Q270 248 294.5 230.5 Q319 213 335.5 188 Q352 163 352 126 Z " />
<glyph glyph-name="t" unicode="t" horiz-adv-x="331" d="M313 53 Q293 25 261.5 5 Q230 -15 188 -15 Q143 -15 114 12.5 Q85 40 85 105 L85 408 L18 408 L18 444 L85 444 L85 545 L172 573 L172 444 L292 444 L284 408 L172 408 L172 119 Q172 78 183.5 56.5 Q195 35 225 35 Q245 35 262 46.5 Q279 58 290 74 L313 53 L313 53 Z " />
<glyph glyph-name="u" unicode="u" horiz-adv-x="534" d="M518 19 Q504 5 484.5 -3.5 Q465 -12 442 -12 Q410 -12 389 6 Q368 24 363 59 Q335 28 294.5 6.5 Q254 -15 211 -15 Q177 -15 147.5 -2.5 Q118 10 99 36 Q80 62 76.5 94 Q73 126 73 161 L73 369 Q73 389 67 399.5 Q61 410 47 415 L15 426 L15 444 Q34 444 55 444 Q76 444 95.5 445 Q115 446 132 447 Q149 448 160 450 L160 164 Q160 123 165 101.5 Q170 80 182 66 Q202 41 238 41 Q255 41 272 46.5 Q289 52 305 61 Q321 70 335.5 84 Q350 98 360 110 L360 369 Q360 389 354 399.5 Q348 410 334 415 L302 426 L302 444 Q344 444 384 445 Q424 446 447 450 L447 84 Q447 59 457.5 46 Q468 33 486 33 Q504 33 518 40 L518 19 L518 19 Z " />
<glyph glyph-name="v" unicode="v" horiz-adv-x="470" d="M476 426 Q458 423 446 419.5 Q434 416 426 410 Q418 404 412.5 396 Q407 388 402 376 L254 0 L220 0 L64 372 Q59 385 53 393 Q47 401 38.5 407 Q30 413 18 417 Q6 421 -10 426 L-10 444 Q-4 444 9 443.5 Q22 443 37 442.5 Q52 442 66.5 441.5 Q81 441 89 441 Q99 441 114 441.5 Q129 442 144.5 442.5 Q160 443 173.5 443.5 Q187 444 195 444 L195 426 L143 411 L260 118 L376 413 L325 426 L325 444 Q341 443 356 442 Q369 441 382.5 441 Q396 441 405 441 Q422 441 442 442.5 Q462 444 476 444 L476 426 L476 426 Z " />
<glyph glyph-name="w" unicode="w" horiz-adv-x="685" d="M691 427 Q672 424 659.5 420 Q647 416 638.5 410 Q630 404 624.5 394.5 Q619 385 614 370 L500 0 L463 0 L353 305 L244 0 L208 0 L60 372 Q49 398 34 408 Q19 418 -10 426 L-10 444 Q-9 444 0 443.5 Q9 443 22.5 442.5 Q36 442 52 441.5 Q68 441 83 441 Q98 441 116 441.5 Q134 442 150 442.5 Q166 443 177 443.5 Q188 444 189 444 L189 426 L135 411 L251 127 L331 353 L324 372 Q314 399 299.5 408.5 Q285 418 260 426 L260 444 Q261 444 269.5 443.5 Q278 443 290.5 442.5 Q303 442 318 441.5 Q333 441 346 441 Q359 441 377 441.5 Q395 442 412 442.5 Q429 443 441 443.5 Q453 444 454 444 L454 426 L397 415 L501 130 L587 413 L534 427 L534 444 Q535 444 544 443.5 Q553 443 566 442.5 Q579 442 592.5 441.5 Q606 441 617 441 Q627 441 640 441.5 Q653 442 664 442.5 Q675 443 682.5 443.5 Q690 444 691 444 L691 427 L691 427 Z " />
<glyph glyph-name="x" unicode="x" horiz-adv-x="473" d="M476 0 Q474 0 452 1.5 Q430 3 385 3 Q362 3 340.5 2.5 Q319 2 302 1.5 Q285 1 274 0.5 Q263 0 262 0 L262 17 L318 34 L222 172 L132 33 L187 18 L187 0 Q186 0 175.5 0.5 Q165 1 150.5 1.5 Q136 2 119.5 2.5 Q103 3 91 3 Q81 3 67.5 2.5 Q54 2 41.5 1.5 Q29 1 20 0.5 Q11 0 10 0 L10 18 Q49 25 70.5 35 Q92 45 107 68 L197 204 L82 372 Q64 398 46.5 408.5 Q29 419 0 426 L0 444 Q1 444 10.5 443.5 Q20 443 34 442.5 Q48 442 64 441.5 Q80 441 95 441 Q110 441 128.5 441.5 Q147 442 164 442.5 Q181 443 193 443.5 Q205 444 206 444 L206 426 L158 411 L247 282 L334 414 L282 425 L282 444 Q283 444 292 443.5 Q301 443 314.5 442.5 Q328 442 344 441.5 Q360 441 375 441 Q385 441 397.5 441.5 Q410 442 421.5 442.5 Q433 443 440.5 443.5 Q448 444 450 444 L450 425 Q429 423 415 420 Q401 417 390 410.5 Q379 404 370 394.5 Q361 385 352 371 L271 249 L392 72 Q401 59 409.5 50.5 Q418 42 427.5 36 Q437 30 448.5 26 Q460 22 476 18 L476 0 Z " />
<glyph glyph-name="y" unicode="y" horiz-adv-x="475" d="M483 427 Q448 422 431.5 412.5 Q415 403 405 376 L214 -131 Q206 -151 196.5 -170 Q187 -189 174 -203.5 Q161 -218 144 -226.5 Q127 -235 104 -235 Q78 -235 64.5 -221.5 Q51 -208 51 -193 Q51 -178 58.5 -168.5 Q66 -159 80 -159 Q88 -159 97 -161 Q106 -163 114 -163 Q143 -163 157 -150 Q171 -137 185 -102 L223 1 L63 372 Q52 398 35.5 408.5 Q19 419 -11 426 L-11 444 Q-10 444 0.5 443.5 Q11 443 26 442.5 Q41 442 58 441.5 Q75 441 88 441 Q101 441 120 441.5 Q139 442 157 442.5 Q175 443 188 443.5 Q201 444 203 444 L203 426 L144 411 L268 121 L377 413 L323 427 L323 444 Q324 444 334 443.5 Q344 443 358.5 442.5 Q373 442 388 441.5 Q403 441 413 441 Q423 441 434.5 441.5 Q446 442 456.5 442.5 Q467 443 474 443.5 Q481 444 483 444 L483 427 L483 427 Z " />
<glyph glyph-name="z" unicode="z" horiz-adv-x="425" d="M140 34 L270 34 Q293 34 308 38.5 Q323 43 333 53 Q343 63 349 79.5 Q355 96 361 120 L380 120 Q379 89 378.5 55.5 Q378 22 378 0 L40 0 L40 28 L279 410 L112 410 L72 324 L55 324 Q57 353 57 384.5 Q57 416 57 444 L381 444 L381 418 L140 34 Z " />
<glyph glyph-name="ampersand" unicode="&#x26;" horiz-adv-x="663" d="M655 21 Q635 5 612 -5 Q589 -15 562 -15 Q526 -15 497 3 Q468 21 431 62 Q392 24 343 4.5 Q294 -15 241 -15 Q199 -15 162 -1 Q125 13 97.5 37 Q70 61 54.5 93.5 Q39 126 39 164 Q39 219 73.5 262 Q108 305 184 344 Q150 385 133.5 421.5 Q117 458 117 496 Q117 527 129 553 Q141 579 162 598.5 Q183 618 211.5 629 Q240 640 273 640 Q301 640 327 631 Q353 622 372.5 605.5 Q392 589 403.5 566.5 Q415 544 415 517 Q415 474 386 434 Q357 394 287 352 L456 159 Q473 191 483.5 232.5 Q494 274 497 322 L433 345 L433 366 Q451 364 476 363.5 Q501 363 524 363 Q544 363 567 363.5 Q590 364 609 366 L609 345 Q587 340 573 335.5 Q559 331 550.5 324 Q542 317 538 307 Q534 297 531 282 Q523 232 511.5 195.5 Q500 159 483 129 L518 90 Q549 54 567 41.5 Q585 29 606 29 Q630 29 655 42 L655 21 Z M210 316 Q168 289 150 254 Q132 219 132 177 Q132 147 142 122 Q152 97 170 78 Q188 59 214 48.5 Q240 38 272 38 Q307 38 341 51.5 Q375 65 404 92 L210 316 Z M263 380 Q305 407 327.5 439.5 Q350 472 350 516 Q350 551 329.5 576.5 Q309 602 272 602 Q237 602 215 577 Q193 552 193 513 Q193 498 196.5 484 Q200 470 208 454.5 Q216 439 229.5 421 Q243 403 263 380 Z " />
<glyph glyph-name="at" unicode="&#x40;" horiz-adv-x="760" d="M509 267 Q505 253 502.5 241.5 Q500 230 500 218 Q500 204 507.5 193.5 Q515 183 533 183 Q555 183 575 200 Q595 217 610.5 246.5 Q626 276 635.5 315.5 Q645 355 645 399 Q645 444 632 481.5 Q619 519 593.5 546 Q568 573 530 588 Q492 603 443 603 Q381 603 324 574.5 Q267 546 224 498.5 Q181 451 155.5 389 Q130 327 130 259 Q130 206 145 162.5 Q160 119 189.5 88 Q219 57 263.5 39.5 Q308 22 367 22 Q433 22 496 44.5 Q559 67 611 104 L625 84 Q566 40 494.5 12.5 Q423 -15 341 -15 Q275 -15 219.5 3.5 Q164 22 126 57 Q87 92 65.5 142 Q44 192 44 256 Q44 333 73 402.5 Q102 472 155.5 525 Q209 578 283 609 Q357 640 447 640 Q511 640 561.5 622 Q612 604 647 571.5 Q682 539 700 494.5 Q718 450 718 397 Q718 348 702.5 303 Q687 258 660 223 Q633 188 596.5 167 Q560 146 518 146 Q480 146 456 164 Q432 182 430 211 Q410 178 378.5 156.5 Q347 135 307 135 Q267 135 237.5 162.5 Q208 190 208 244 Q208 292 227.5 335 Q247 378 278.5 411 Q310 444 349.5 463 Q389 482 428 482 Q448 482 468 476 Q488 470 503 457 L521 482 L569 473 L571 470 L509 267 Z M479 423 Q463 444 432 444 Q404 444 378.5 425.5 Q353 407 334 377.5 Q315 348 304 312.5 Q293 277 293 244 Q293 215 305 198.5 Q317 182 337 182 Q354 182 371 191.5 Q388 201 406 227 Q431 265 452 334 L479 423 Z " />
<glyph glyph-name="exclam" unicode="&#x21;" horiz-adv-x="230" d="M126 165 L103 165 L69 570 Q67 599 76.5 619.5 Q86 640 115 640 Q142 640 151.5 619.5 Q161 599 159 570 L126 165 Z M167 36 Q167 14 152 -0.5 Q137 -15 115 -15 Q93 -15 78 -0.5 Q63 14 63 36 Q63 58 78 72.5 Q93 87 115 87 Q137 87 152 72.5 Q167 58 167 36 Z " />
<glyph glyph-name="exclamdown" unicode="&#xa1;" horiz-adv-x="224" d="M156 -125 Q158 -154 148.5 -174.5 Q139 -195 112 -195 Q83 -195 73.5 -174.5 Q64 -154 66 -125 L100 280 L123 280 L156 -125 Z M164 409 Q164 387 149 372.5 Q134 358 112 358 Q90 358 75 372.5 Q60 387 60 409 Q60 431 75 445.5 Q90 460 112 460 Q134 460 149 445.5 Q164 431 164 409 Z " />
<glyph glyph-name="question" unicode="&#x3f;" horiz-adv-x="369" d="M329 487 Q329 457 319.5 432 Q310 407 294.5 383.5 Q279 360 260.5 336 Q242 312 224 284 Q206 256 191.5 222.5 Q177 189 169 146 L139 146 Q143 200 159 244.5 Q175 289 193 329 Q211 369 225 406.5 Q239 444 239 484 Q239 534 215.5 561.5 Q192 589 154 589 Q122 589 94 571.5 Q66 554 46 527 L21 546 Q47 591 86.5 615.5 Q126 640 176 640 Q208 640 236 629.5 Q264 619 284.5 599.5 Q305 580 317 551.5 Q329 523 329 487 Z M206 36 Q206 14 191 -0.5 Q176 -15 154 -15 Q132 -15 117 -0.5 Q102 14 102 36 Q102 58 117 72.5 Q132 87 154 87 Q176 87 191 72.5 Q206 58 206 36 Z " />
<glyph glyph-name="questiondown" unicode="&#xbf;" horiz-adv-x="369" d="M40.0402 -41.9406 Q40.0402 -11.9442 49.539 13.0527 Q59.0378 38.0497 74.5359 61.5468 Q90.0341 85.0439 108.532 109.041 Q127.03 133.038 145.027 161.035 Q163.025 189.031 177.523 222.527 Q192.022 256.023 200.021 299.018 L230.017 299.018 Q226.017 245.024 210.019 200.53 Q194.021 156.035 176.024 116.04 Q158.026 76.045 144.027 38.5496 Q130.029 1.0542 130.029 -38.9409 Q130.029 -88.9348 153.526 -116.431 Q177.023 -143.928 215.019 -143.928 Q247.015 -143.928 275.011 -126.43 Q303.008 -108.932 323.006 -81.9357 L348.003 -100.933 Q322.006 -145.928 282.511 -170.425 Q243.015 -194.922 193.021 -194.922 Q161.025 -194.922 133.029 -184.423 Q105.032 -173.924 84.5347 -154.427 Q64.0372 -134.929 52.0387 -106.433 Q40.0402 -77.9362 40.0402 -41.9406 Z M163.025 409.004 Q163.025 431.002 178.023 445.5 Q193.021 459.998 215.019 459.998 Q237.016 459.998 252.014 445.5 Q267.012 431.002 267.012 409.004 Q267.012 387.007 252.014 372.509 Q237.016 358.011 215.019 358.011 Q193.021 358.011 178.023 372.509 Q163.025 387.007 163.025 409.004 Z " />
<glyph glyph-name="asterisk" unicode="&#x2a;" horiz-adv-x="378" d="M338 384 Q330 370 318 368.5 Q306 367 292 375 Q284 379 274 388.5 Q264 398 252 409 Q240 420 226 432.5 Q212 445 197 455 Q198 436 201.5 418 Q205 400 209 384 Q213 368 216 355 Q219 342 219 333 Q219 317 210.5 307.5 Q202 298 188 298 Q172 298 165 307.5 Q158 317 158 333 Q158 342 161 355 Q164 368 168 384 Q172 400 175.5 418 Q179 436 180 454 Q165 444 151 432 Q137 420 125 408.5 Q113 397 103 388 Q93 379 86 375 Q72 367 60 368.5 Q48 370 40 384 Q33 396 37.5 408 Q42 420 56 428 Q71 436 104.5 444.5 Q138 453 172 470 Q139 486 105.5 494.5 Q72 503 57 511 Q43 519 38 530 Q33 541 41 555 Q48 567 60.5 569.5 Q73 572 87 564 Q94 560 104 551 Q114 542 125.5 531 Q137 520 151 508 Q165 496 180 486 Q177 522 167.5 555 Q158 588 158 605 Q158 621 165 630.5 Q172 640 188 640 Q202 640 210.5 630.5 Q219 621 219 605 Q219 596 216 583 Q213 570 209.5 554 Q206 538 202 520 Q198 502 197 484 Q212 494 226 506.5 Q240 519 252 530.5 Q264 542 273.5 551 Q283 560 291 564 Q305 572 317.5 569.5 Q330 567 337 555 Q345 541 340 530 Q335 519 321 511 Q306 503 272.5 494.5 Q239 486 206 470 Q240 453 273.5 444.5 Q307 436 322 428 Q336 420 340.5 408 Q345 396 338 384 Z " />
<glyph glyph-name="period" unicode="&#x2e;" horiz-adv-x="206" d="M155 36 Q155 14 140 -0.5 Q125 -15 103 -15 Q81 -15 66 -0.5 Q51 14 51 36 Q51 58 66 72.5 Q81 87 103 87 Q125 87 140 72.5 Q155 58 155 36 Z " />
<glyph glyph-name="comma" unicode="&#x2c;" horiz-adv-x="206" d="M154 12 Q154 -36 132.5 -74.5 Q111 -113 69 -137 L57 -119 Q75 -105 91 -85 Q107 -65 107 -39 Q107 -19 98 -8 Q89 3 77.5 11 Q66 19 57 26.5 Q48 34 48 48 Q48 65 60.5 75.5 Q73 86 93 86 Q119 86 136.5 65 Q154 44 154 12 Z " />
<glyph glyph-name="colon" unicode="&#x3a;" horiz-adv-x="206" d="M155 309 Q155 287 140 272.5 Q125 258 103 258 Q81 258 66 272.5 Q51 287 51 309 Q51 330 66 345 Q81 360 103 360 Q125 360 140 345 Q155 330 155 309 Z M155 36 Q155 15 140 0 Q125 -15 103 -15 Q81 -15 66 0 Q51 15 51 36 Q51 58 66 72.5 Q81 87 103 87 Q125 87 140 72.5 Q155 58 155 36 Z " />
<glyph glyph-name="semicolon" unicode="&#x3b;" horiz-adv-x="206" d="M155 309 Q155 287 140 272.5 Q125 258 103 258 Q81 258 66 272.5 Q51 287 51 309 Q51 330 66 345 Q81 360 103 360 Q125 360 140 345 Q155 330 155 309 Z M159 12 Q159 -36 137.5 -74.5 Q116 -113 74 -137 L62 -119 Q80 -105 96 -85 Q112 -65 112 -39 Q112 -19 103 -8 Q94 3 82.5 11 Q71 19 62 26.5 Q53 34 53 48 Q53 65 65.5 75.5 Q78 86 98 86 Q124 86 141.5 65 Q159 44 159 12 Z " />
<glyph glyph-name="ellipsis" unicode="&#x2026;" horiz-adv-x="618" d="M155 36 Q155 14 140 -0.5 Q125 -15 103 -15 Q81 -15 66 -0.5 Q51 14 51 36 Q51 58 66 72.5 Q81 87 103 87 Q125 87 140 72.5 Q155 58 155 36 Z M361 36 Q361 14 346 -0.5 Q331 -15 309 -15 Q287 -15 272 -0.5 Q257 14 257 36 Q257 58 272 72.5 Q287 87 309 87 Q331 87 346 72.5 Q361 58 361 36 Z M567 36 Q567 14 552 -0.5 Q537 -15 515 -15 Q493 -15 478 -0.5 Q463 14 463 36 Q463 58 478 72.5 Q493 87 515 87 Q537 87 552 72.5 Q567 58 567 36 Z " />
<glyph glyph-name="periodcentered" unicode="&#xb7;" horiz-adv-x="206" d="M155 221 Q155 199 140 184.5 Q125 170 103 170 Q81 170 66 184.5 Q51 199 51 221 Q51 243 66 257.5 Q81 272 103 272 Q125 272 140 257.5 Q155 243 155 221 Z " />
<glyph glyph-name="uni22C5" unicode="&#x22c5;" horiz-adv-x="206" d="M155 221 Q155 199 140 184.5 Q125 170 103 170 Q81 170 66 184.5 Q51 199 51 221 Q51 243 66 257.5 Q81 272 103 272 Q125 272 140 257.5 Q155 243 155 221 Z " />
<glyph glyph-name="bullet" unicode="&#x2022;" horiz-adv-x="304" d="M152 117 Q106 117 75 146 Q44 175 44 221 Q44 267 75 296 Q106 325 152 325 Q198 325 229 296 Q260 267 260 221 Q260 175 229 146 Q198 117 152 117 Z " />
<glyph glyph-name="slash" unicode="&#x2f;" horiz-adv-x="327" d="M88 -15 L37 -15 L239 640 L290 640 L88 -15 Z " />
<glyph glyph-name="parenleft" unicode="&#x28;" horiz-adv-x="308" d="M278 -142 Q238 -117 202 -70.5 Q166 -24 139 36.5 Q112 97 96 168 Q80 239 80 313 Q80 387 96 458 Q112 529 139 589 Q166 649 202 695.5 Q238 742 278 767 L314 767 Q278 740 250.5 691 Q223 642 204 580 Q185 518 175.5 448.5 Q166 379 166 312 Q166 245 175.5 176 Q185 107 204 45 Q223 -17 250.5 -66 Q278 -115 314 -142 L278 -142 Z " />
<glyph glyph-name="brokenbar" unicode="&#xa6;" horiz-adv-x="277" d="M110 347 L110 710 L167 710 L167 347 L110 347 Z M110 -265 L110 98 L167 98 L167 -265 L110 -265 Z " />
<glyph glyph-name="parenright" unicode="&#x29;" horiz-adv-x="308" d="M-6 -142 Q30 -115 57.5 -66 Q85 -17 104 45 Q123 107 132.5 176 Q142 245 142 312 Q142 379 132.5 448.5 Q123 518 104 580 Q85 642 57.5 691 Q30 740 -6 767 L30 767 Q70 742 106 695.5 Q142 649 169 589 Q196 529 212 458 Q228 387 228 313 Q228 239 212 168 Q196 97 169 36.5 Q142 -24 106 -70.5 Q70 -117 30 -142 L-6 -142 Z " />
<glyph glyph-name="bracketleft" unicode="&#x5b;" horiz-adv-x="299" d="M94 -142 L94 767 L279 767 L279 730 L170 730 L170 -105 L279 -105 L279 -142 L94 -142 Z " />
<glyph glyph-name="backslash" unicode="&#x5c;" horiz-adv-x="327" d="M37 640 L88 640 L290 -15 L239 -15 L37 640 Z " />
<glyph glyph-name="bracketright" unicode="&#x5d;" horiz-adv-x="299" d="M20 -142 L20 -105 L129 -105 L129 730 L20 730 L20 767 L205 767 L205 -142 L20 -142 Z " />
<glyph glyph-name="braceleft" unicode="&#x7b;" horiz-adv-x="284" d="M48 325 Q86 333 103 360 Q120 387 114 425 L91 563 Q89 576 87 590.5 Q85 605 85 616 Q85 649 98.5 675.5 Q112 702 135.5 721.5 Q159 741 192 752.5 Q225 764 264 767 L264 748 Q213 740 189 719.5 Q165 699 165 657 Q165 646 166 632 Q167 618 170 598 L189 480 Q191 471 192 461 Q193 451 193 442 Q193 406 169 369 Q145 332 90 312 Q145 292 169 255 Q193 218 193 182 Q193 173 192 163 Q191 153 189 144 L170 26 Q167 6 166 -8 Q165 -22 165 -33 Q165 -75 189 -95 Q213 -115 264 -123 L264 -142 Q225 -139 192 -127.5 Q159 -116 135.5 -97 Q112 -78 98.5 -51.5 Q85 -25 85 8 Q85 19 87 33.5 Q89 48 91 61 L114 199 Q120 237 103 264 Q86 291 48 299 L48 325 Z " />
<glyph glyph-name="bar" unicode="&#x7c;" horiz-adv-x="277" d="M110 -265 L110 710 L167 710 L167 -265 L110 -265 Z " />
<glyph glyph-name="braceright" unicode="&#x7d;" horiz-adv-x="284" d="M236 299 Q198 291 181 264 Q164 237 170 199 L193 61 Q195 48 197 33.5 Q199 19 199 8 Q199 -25 185.5 -51.5 Q172 -78 148.5 -97 Q125 -116 92 -127.5 Q59 -139 20 -142 L20 -123 Q71 -115 95 -95 Q119 -75 119 -33 Q119 -22 118 -8 Q117 6 114 26 L95 144 Q93 153 92 163 Q91 173 91 182 Q91 200 96.5 219 Q102 238 114.5 255 Q127 272 146.5 287 Q166 302 194 312 Q166 322 146.5 337 Q127 352 114.5 369 Q102 386 96.5 405 Q91 424 91 442 Q91 451 92 461 Q93 471 95 480 L114 598 Q117 618 118 632 Q119 646 119 657 Q119 699 95 719.5 Q71 740 20 748 L20 767 Q59 764 92 752.5 Q125 741 148.5 721.5 Q172 702 185.5 675.5 Q199 649 199 616 Q199 605 197 590.5 Q195 576 193 563 L170 425 Q164 387 181 360 Q198 333 236 325 L236 299 Z " />
<glyph glyph-name="hyphen" unicode="&#x2d;" horiz-adv-x="319" d="M40 209 L40 254 L279 254 L279 209 L40 209 Z " />
<glyph glyph-name="uni00AD" unicode="&#xad;" horiz-adv-x="319" d="M40 209 L40 254 L279 254 L279 209 L40 209 Z " />
<glyph glyph-name="endash" unicode="&#x2013;" horiz-adv-x="500" d="M0 209 L0 254 L500 254 L500 209 L0 209 Z " />
<glyph glyph-name="emdash" unicode="&#x2014;" horiz-adv-x="1000" d="M0 209 L0 254 L1000 254 L1000 209 L0 209 Z " />
<glyph glyph-name="underscore" unicode="&#x5f;" horiz-adv-x="500" d="M24 -149 L24 -108 L476 -108 L476 -149 L24 -149 Z " />
<glyph glyph-name="dagger" unicode="&#x2020;" horiz-adv-x="434" d="M400 401 Q400 380 385.5 373.5 Q371 367 353 367 Q340 367 326.5 370.5 Q313 374 297.5 378.5 Q282 383 265 387.5 Q248 392 228 393 Q228 364 234.5 334.5 Q241 305 248 270 Q244 251 240.5 216 Q237 181 234 132 Q231 83 229.5 23 Q228 -37 228 -106 L205 -106 Q205 -39 203.5 21.5 Q202 82 199 131 Q196 180 192.5 216 Q189 252 185 271 Q191 304 198 335.5 Q205 367 205 393 Q185 392 168 387.5 Q151 383 136 378.5 Q121 374 107.5 370.5 Q94 367 81 367 Q63 367 48.5 373.5 Q34 380 34 401 Q34 421 49 427.5 Q64 434 81 434 Q92 434 105.5 430.5 Q119 427 134 422.5 Q149 418 166.5 414 Q184 410 204 409 Q204 435 198.5 459 Q193 483 187 504.5 Q181 526 176 545 Q171 564 171 581 Q171 604 180.5 622 Q190 640 216 640 Q242 640 250.5 621.5 Q259 603 259 581 Q259 566 254.5 547 Q250 528 244 506 Q238 484 233 459.5 Q228 435 228 409 Q248 410 265.5 414 Q283 418 298.5 422.5 Q314 427 327.5 430.5 Q341 434 353 434 Q370 434 385 427.5 Q400 421 400 401 Z " />
<glyph glyph-name="daggerdbl" unicode="&#x2021;" horiz-adv-x="371" d="M337 445 Q337 428 325 421.5 Q313 415 298 415 Q277 415 253 424.5 Q229 434 197 436 Q197 424 197.5 416 Q198 408 199 400 Q200 392 200.5 382.5 Q201 373 201 358 Q201 344 200.5 336 Q200 328 199 321 Q198 314 197.5 307 Q197 300 197 288 L172 288 Q172 300 171.5 309 Q171 318 170.5 325.5 Q170 333 169.5 341 Q169 349 169 359 Q169 373 169.5 383 Q170 393 170.5 401 Q171 409 171.5 417 Q172 425 172 436 Q140 434 117 424.5 Q94 415 73 415 Q58 415 46 421.5 Q34 428 34 445 Q34 462 46.5 468 Q59 474 73 474 Q92 474 115.5 464.5 Q139 455 171 453 Q171 474 166.5 493.5 Q162 513 157.5 530 Q153 547 149 562.5 Q145 578 145 592 Q145 611 154 625.5 Q163 640 184 640 Q205 640 213.5 625 Q222 610 222 592 Q222 580 218 564.5 Q214 549 209.5 531.5 Q205 514 201 494 Q197 474 197 453 Q229 455 254 464.5 Q279 474 298 474 Q312 474 324.5 468 Q337 462 337 445 Z M337 89 Q337 72 324.5 66 Q312 60 298 60 Q279 60 254 69.5 Q229 79 197 81 Q197 60 201 40 Q205 20 209.5 2.5 Q214 -15 218 -30.5 Q222 -46 222 -58 Q222 -76 213.5 -91 Q205 -106 184 -106 Q163 -106 154 -91.5 Q145 -77 145 -58 Q145 -44 149 -28.5 Q153 -13 157.5 4 Q162 21 166.5 40.5 Q171 60 171 81 Q139 79 115.5 69.5 Q92 60 73 60 Q59 60 46.5 66 Q34 72 34 89 Q34 106 46 112.5 Q58 119 73 119 Q94 119 117 109.5 Q140 100 172 98 Q172 108 171.5 116.5 Q171 125 170.5 133 Q170 141 169.5 151 Q169 161 169 175 Q169 185 169.5 193 Q170 201 170.5 208.5 Q171 216 171.5 225 Q172 234 172 246 L197 246 Q197 234 197.5 227 Q198 220 199 213 Q200 206 200.5 198 Q201 190 201 176 Q201 161 200.5 151.5 Q200 142 199 134 Q198 126 197.5 118 Q197 110 197 98 Q229 100 253 109.5 Q277 119 298 119 Q313 119 325 112.5 Q337 106 337 89 Z " />
<glyph glyph-name="section" unicode="&#xa7;" horiz-adv-x="427" d="M359 50 Q359 15 346 -11 Q333 -37 311.5 -55 Q290 -73 260.5 -82 Q231 -91 198 -91 Q166 -91 132 -83.5 Q98 -76 69 -65 Q69 -42 68.5 -9 Q68 24 66 51 L85 51 Q91 9 120.5 -22 Q150 -53 201 -53 Q234 -53 260 -34.5 Q286 -16 286 24 Q286 54 270 73 Q254 92 229.5 106.5 Q205 121 177 133 Q149 145 124.5 161 Q100 177 84 199 Q68 221 68 255 Q68 300 96 332.5 Q124 365 175 378 Q115 406 91.5 437.5 Q68 469 68 510 Q68 540 80 564 Q92 588 112.5 605 Q133 622 161 631 Q189 640 221 640 Q250 640 281 633.5 Q312 627 336 625 Q336 613 336 597.5 Q336 582 336.5 566 Q337 550 337.5 534.5 Q338 519 339 507 L320 507 Q312 555 289 580 Q266 605 222 605 Q189 605 165.5 585 Q142 565 142 532 Q142 505 158 487 Q174 469 198 455.5 Q222 442 250.5 429.5 Q279 417 303 401 Q327 385 343 362.5 Q359 340 359 306 Q359 256 335 224 Q311 192 270 177 Q321 151 340 121.5 Q359 92 359 50 Z M225 204 Q259 204 278.5 224 Q298 244 298 273 Q298 291 290.5 306 Q283 321 270.5 331.5 Q258 342 242.5 347.5 Q227 353 212 353 Q178 353 158.5 333 Q139 313 139 284 Q139 266 146.5 251 Q154 236 166.5 225.5 Q179 215 194.5 209.5 Q210 204 225 204 Z " />
<glyph glyph-name="paragraph" unicode="&#xb6;" horiz-adv-x="510" d="M465 605 L394 581 L394 -106 L347 -106 L347 581 L284 581 L284 -106 L237 -106 L237 298 Q196 298 161 309.5 Q126 321 100 342 Q74 363 59 393 Q44 423 44 461 Q44 492 56.5 521.5 Q69 551 93.5 574 Q118 597 154 611 Q190 625 237 625 L465 625 L465 605 Z " />
<glyph glyph-name="registered" unicode="&#xae;" horiz-adv-x="718" d="M418 147 Q418 156 415 170 Q412 184 406 199 L387 249 Q379 270 367 276 Q355 282 333 282 L317 282 L317 194 Q317 178 322.5 171.5 Q328 165 351 160 L351 147 Q335 147 321 147.5 Q307 148 290 148 Q273 148 255 147.5 Q237 147 220 147 L220 160 L253 170 L253 424 Q253 440 246.5 445.5 Q240 451 215 456 L215 470 L343 470 Q406 470 440 448 Q474 426 474 380 Q474 350 456 329.5 Q438 309 409 298 Q423 294 433.5 284.5 Q444 275 452 255 L470 208 Q475 195 479.5 187 Q484 179 489.5 174 Q495 169 502.5 166 Q510 163 521 160 L521 147 L418 147 Z M317 305 L329 305 Q370 305 389.5 323.5 Q409 342 409 376 Q409 412 388 428 Q367 444 323 444 L317 444 L317 305 Z M684 312 Q684 244 658.5 184.5 Q633 125 589 80.5 Q545 36 486 10.5 Q427 -15 359 -15 Q291 -15 232 10.5 Q173 36 129 80.5 Q85 125 59.5 184.5 Q34 244 34 312 Q34 380 59.5 439.5 Q85 499 129 543.5 Q173 588 232 614 Q291 640 359 640 Q427 640 486 614 Q545 588 589 543.5 Q633 499 658.5 439.5 Q684 380 684 312 Z M631 312 Q631 370 610 421.5 Q589 473 552.5 512 Q516 551 466.5 574 Q417 597 359 597 Q301 597 251.5 574 Q202 551 165.5 512 Q129 473 108 421.5 Q87 370 87 312 Q87 254 108 202.5 Q129 151 165.5 112 Q202 73 251.5 50.5 Q301 28 359 28 Q417 28 466.5 50.5 Q516 73 552.5 112 Q589 151 610 202.5 Q631 254 631 312 Z " />
<glyph glyph-name="copyright" unicode="&#xa9;" horiz-adv-x="718" d="M479 208 Q458 177 427.5 158 Q397 139 355 139 Q292 139 255 183.5 Q218 228 218 307 Q218 389 260 434 Q301 478 374 478 Q401 478 420.5 474 Q440 470 464 467 Q464 442 464.5 418.5 Q465 395 466 374 L449 374 Q445 406 427.5 427.5 Q410 449 375 449 Q330 449 307.5 412.5 Q285 376 285 313 Q285 250 307 214.5 Q329 179 374 179 Q424 179 463 223 L479 208 Z M684 312 Q684 244 658.5 184.5 Q633 125 589 80.5 Q545 36 486 10.5 Q427 -15 359 -15 Q291 -15 232 10.5 Q173 36 129 80.5 Q85 125 59.5 184.5 Q34 244 34 312 Q34 380 59.5 439.5 Q85 499 129 543.5 Q173 588 232 614 Q291 640 359 640 Q427 640 486 614 Q545 588 589 543.5 Q633 499 658.5 439.5 Q684 380 684 312 Z M631 312 Q631 370 610 421.5 Q589 473 552.5 512 Q516 551 466.5 574 Q417 597 359 597 Q301 597 251.5 574 Q202 551 165.5 512 Q129 473 108 421.5 Q87 370 87 312 Q87 254 108 202.5 Q129 151 165.5 112 Q202 73 251.5 50.5 Q301 28 359 28 Q417 28 466.5 50.5 Q516 73 552.5 112 Q589 151 610 202.5 Q631 254 631 312 Z " />
<glyph glyph-name="trademark" unicode="&#x2122;" horiz-adv-x="704" d="M677 344 Q673 344 665 344 Q657 344 648.5 344.5 Q640 345 632 345 Q624 345 619 345 Q613 345 603.5 345 Q594 345 584 344.5 Q574 344 564.5 344 Q555 344 551 344 L551 361 L586 370 L586 571 L480 341 L464 341 L359 580 L359 386 Q359 374 368 369.5 Q377 365 396 361 L396 344 Q388 344 373 344.5 Q358 345 348 345 Q343 345 334.5 345 Q326 345 317.5 344.5 Q309 344 301 344 Q293 344 289 344 L289 361 L325 370 L325 580 Q325 595 315 600 Q305 605 288 607 L288 625 L398 625 L484 430 L575 625 L675 625 L675 607 L640 597 L640 386 Q640 374 649 369.5 Q658 365 677 361 L677 344 Z M246 542 Q240 560 235 571 Q230 582 222.5 588 Q215 594 202.5 595.5 Q190 597 170 597 L170 386 Q170 374 178 370 Q186 366 206 361 L206 344 Q202 344 193.5 344 Q185 344 175 344.5 Q165 345 155.5 345 Q146 345 142 345 Q136 345 127.5 345 Q119 345 109.5 344.5 Q100 344 92 344 Q84 344 80 344 L80 361 L116 370 L116 597 Q96 597 83.5 595.5 Q71 594 63.5 588 Q56 582 51 571 Q46 560 40 542 L20 542 Q20 548 21 559 Q22 570 22.5 582 Q23 594 23.5 606 Q24 618 24 625 L262 625 Q262 618 262.5 606 Q263 594 263.5 582 Q264 570 264.5 559 Q265 548 265 542 L246 542 Z " />
<glyph glyph-name="quotedblleft" unicode="&#x201c;" horiz-adv-x="300" d="M162 491 Q162 539 183.5 577.5 Q205 616 247 640 L259 622 Q241 608 225 588 Q209 568 209 542 Q209 522 218 511 Q227 500 238.5 492 Q250 484 259 476 Q268 468 268 455 Q268 438 255.5 427.5 Q243 417 223 417 Q197 417 179.5 438 Q162 459 162 491 Z M33 491 Q33 539 54.5 577.5 Q76 616 118 640 L130 622 Q112 608 96 588 Q80 568 80 542 Q80 522 89 511 Q98 500 109.5 492 Q121 484 130 476 Q139 468 139 455 Q139 438 126.5 427.5 Q114 417 94 417 Q68 417 50.5 438 Q33 459 33 491 Z " />
<glyph glyph-name="quotedblright" unicode="&#x201d;" horiz-adv-x="300" d="M138 566 Q138 518 116.5 479.5 Q95 441 53 417 L41 435 Q59 449 75 469 Q91 489 91 515 Q91 535 82 546 Q73 557 61.5 565 Q50 573 41 580.5 Q32 588 32 602 Q32 619 44.5 629.5 Q57 640 77 640 Q103 640 120.5 619 Q138 598 138 566 Z M267 566 Q267 518 245.5 479.5 Q224 441 182 417 L170 435 Q188 449 204 469 Q220 489 220 515 Q220 535 211 546 Q202 557 190.5 565 Q179 573 170 580.5 Q161 588 161 602 Q161 619 173.5 629.5 Q186 640 206 640 Q232 640 249.5 619 Q267 598 267 566 Z " />
<glyph glyph-name="quoteleft" unicode="&#x2018;" horiz-adv-x="171" d="M33 491 Q33 539 54.5 577.5 Q76 616 118 640 L130 622 Q112 608 96 588 Q80 568 80 542 Q80 522 89 511 Q98 500 109.5 492 Q121 484 130 476 Q139 468 139 455 Q139 438 126.5 427.5 Q114 417 94 417 Q68 417 50.5 438 Q33 459 33 491 Z " />
<glyph glyph-name="quoteright" unicode="&#x2019;" horiz-adv-x="171" d="M138 566 Q138 518 116.5 479.5 Q95 441 53 417 L41 435 Q59 449 75 469 Q91 489 91 515 Q91 535 82 546 Q73 557 61.5 565 Q50 573 41 580.5 Q32 588 32 602 Q32 619 44.5 629.5 Q57 640 77 640 Q103 640 120.5 619 Q138 598 138 566 Z " />
<glyph glyph-name="guillemotleft" unicode="&#xab;" horiz-adv-x="392" d="M323 59 L196 217 L323 374 L343 356 L267 216 L346 77 L323 59 Z M175 59 L48 217 L175 374 L195 356 L119 216 L198 77 L175 59 Z " />
<glyph glyph-name="guillemotright" unicode="&#xbb;" horiz-adv-x="392" d="M217 59 L194 77 L273 216 L197 356 L217 374 L344 217 L217 59 Z M69 59 L46 77 L125 216 L49 356 L69 374 L196 217 L69 59 Z " />
<glyph glyph-name="guilsinglleft" unicode="&#x2039;" horiz-adv-x="244" d="M175 59 L48 217 L175 374 L195 356 L119 216 L198 77 L175 59 Z " />
<glyph glyph-name="guilsinglright" unicode="&#x203a;" horiz-adv-x="244" d="M69 59 L46 77 L125 216 L49 356 L69 374 L196 217 L69 59 Z " />
<glyph glyph-name="quotesinglbase" unicode="&#x201a;" horiz-adv-x="171" d="M138 11 Q138 -37 116.5 -75.5 Q95 -114 53 -138 L41 -120 Q59 -106 75 -86 Q91 -66 91 -40 Q91 -20 82 -9 Q73 2 61.5 10 Q50 18 41 25.5 Q32 33 32 47 Q32 64 44.5 74.5 Q57 85 77 85 Q103 85 120.5 64 Q138 43 138 11 Z " />
<glyph glyph-name="quotedblbase" unicode="&#x201e;" horiz-adv-x="300" d="M138 11 Q138 -37 116.5 -75.5 Q95 -114 53 -138 L41 -120 Q59 -106 75 -86 Q91 -66 91 -40 Q91 -20 82 -9 Q73 2 61.5 10 Q50 18 41 25.5 Q32 33 32 47 Q32 64 44.5 74.5 Q57 85 77 85 Q103 85 120.5 64 Q138 43 138 11 Z M267 11 Q267 -37 245.5 -75.5 Q224 -114 182 -138 L170 -120 Q188 -106 204 -86 Q220 -66 220 -40 Q220 -20 211 -9 Q202 2 190.5 10 Q179 18 170 25.5 Q161 33 161 47 Q161 64 173.5 74.5 Q186 85 206 85 Q232 85 249.5 64 Q267 43 267 11 Z " />
<glyph glyph-name="fi" unicode="&#xfb01;" horiz-adv-x="555" d="M97 467 Q97 552 132 605 Q156 640 194 660 Q232 680 281 680 Q311 680 337.5 673.5 Q364 667 384 656.5 Q404 646 415.5 633 Q427 620 427 608 Q427 590 414 574 Q401 558 385 558 Q376 558 369 564 Q362 570 350 587 Q328 619 310.5 632 Q293 645 269 645 Q223 645 203.5 606.5 Q184 568 184 497 L184 444 L343 444 Q385 444 416 445.5 Q447 447 468 449 L468 74 Q468 54 474 43.5 Q480 33 494 28 Q502 25 511.5 22.5 Q521 20 526 18 L526 0 Q500 2 477 2.5 Q454 3 428 3 Q404 3 376.5 2 Q349 1 324 0 L324 18 L381 38 L381 368 Q381 408 345 408 L184 408 L184 74 Q184 61 185.5 52.5 Q187 44 193 38 Q199 32 210.5 27.5 Q222 23 242 18 L242 0 Q217 0 192.5 1.5 Q168 3 142 3 Q118 3 91 1.5 Q64 0 40 0 L40 18 L97 38 L97 408 L29 408 L29 444 L97 444 L97 467 Z " />
<glyph glyph-name="fl" unicode="&#xfb02;" horiz-adv-x="565" d="M536 0 Q510 2 487 2.5 Q464 3 438 3 Q414 3 386.5 2 Q359 1 334 0 L334 18 L391 38 L391 619 Q376 629 352 636.5 Q328 644 302 644 Q244 644 213 597 Q199 576 191.5 545.5 Q184 515 184 469 L184 444 L294 444 L288 408 L184 408 L184 74 Q184 61 185.5 52.5 Q187 44 193 38 Q199 32 210.5 27.5 Q222 23 242 18 L242 0 Q217 0 192.5 1.5 Q168 3 142 3 Q118 3 91 1.5 Q64 0 40 0 L40 18 L97 38 L97 408 L29 408 L29 444 L97 444 Q97 503 112 547.5 Q127 592 153 621.5 Q179 651 214.5 665.5 Q250 680 292 680 Q331 680 374.5 674.5 Q418 669 450 669 Q457 669 463.5 669 Q470 669 478 670 L478 74 Q478 54 484 43.5 Q490 33 504 28 Q512 25 521.5 22.5 Q531 20 536 18 L536 0 L536 0 Z " />
<glyph glyph-name="f_f" unicode="&#xfb00;" horiz-adv-x="610" d="M97 444 Q97 506 106 549.5 Q115 593 145 629 Q165 652 195 666 Q225 680 263 680 Q278 680 296.5 676.5 Q315 673 332 666.5 Q349 660 360.5 649.5 Q372 639 372 624 Q372 607 360.5 591 Q349 575 337 573 Q324 572 313 584 Q306 592 299.5 602.5 Q293 613 284.5 623 Q276 633 266 639.5 Q256 646 241 646 Q218 646 206.5 627.5 Q195 609 190 584.5 Q185 560 184.5 534 Q184 508 184 493 L184 444 L381 444 Q381 506 390 549.5 Q399 593 429 629 Q449 652 479 666 Q509 680 547 680 Q562 680 580.5 676.5 Q599 673 616 666.5 Q633 660 644.5 649.5 Q656 639 656 624 Q656 607 644.5 591 Q633 575 621 573 Q608 572 597 584 Q590 592 583.5 602.5 Q577 613 568.5 623 Q560 633 550 639.5 Q540 646 525 646 Q502 646 490.5 627.5 Q479 609 474 584.5 Q469 560 468.5 534 Q468 508 468 493 L468 444 L575 444 L567 408 L468 408 L468 74 Q468 61 469.5 52.5 Q471 44 477 38 Q483 32 494.5 27.5 Q506 23 526 18 L526 0 Q501 0 476.5 1.5 Q452 3 426 3 Q402 3 375 1.5 Q348 0 324 0 L324 18 L381 38 L381 408 L184 408 L184 74 Q184 61 185.5 52.5 Q187 44 193 38 Q199 32 210.5 27.5 Q222 23 242 18 L242 0 Q217 0 192.5 1.5 Q168 3 142 3 Q118 3 91 1.5 Q64 0 40 0 L40 18 L97 38 L97 408 L29 408 L29 444 L97 444 Z " />
<glyph glyph-name="f_f_i" unicode="&#xfb03;" horiz-adv-x="839" d="M97 462 Q97 515 111 554.5 Q125 594 151 620 Q204 673 291 673 Q339 673 375.5 659.5 Q412 646 432 626 Q456 652 489.5 666 Q523 680 565 680 Q595 680 621.5 673.5 Q648 667 668 656.5 Q688 646 699.5 633 Q711 620 711 608 Q711 590 698 574 Q685 558 669 558 Q660 558 653 564 Q646 570 634 587 Q612 619 594.5 632 Q577 645 553 645 Q507 645 487.5 606.5 Q468 568 468 497 L468 444 L627 444 Q669 444 700 445.5 Q731 447 752 449 L752 74 Q752 54 758 43.5 Q764 33 778 28 Q786 25 795.5 22.5 Q805 20 810 18 L810 0 Q784 2 761 2.5 Q738 3 712 3 Q688 3 660.5 2 Q633 1 608 0 L608 18 L665 38 L665 368 Q665 408 629 408 L468 408 L468 74 Q468 61 469.5 52.5 Q471 44 477 38 Q483 32 494.5 27.5 Q506 23 526 18 L526 0 Q501 0 476.5 1.5 Q452 3 426 3 Q402 3 375 1.5 Q348 0 324 0 L324 18 L381 38 L381 408 L184 408 L184 74 Q184 61 185.5 52.5 Q187 44 193 38 Q199 32 210.5 27.5 Q222 23 242 18 L242 0 Q217 0 192.5 1.5 Q168 3 142 3 Q118 3 91 1.5 Q64 0 40 0 L40 18 L97 38 L97 408 L29 408 L29 444 L97 444 L97 462 Z M381 467 Q381 521 394 560 Q374 595 346 616.5 Q318 638 285 638 Q184 638 184 491 L184 444 L381 444 L381 467 Z " />
<glyph glyph-name="f_f_l" unicode="&#xfb04;" horiz-adv-x="849" d="M97 462 Q97 515 111 554.5 Q125 594 151 620 Q204 673 291 673 Q342 673 380 657.5 Q418 642 437 621 Q490 680 576 680 Q615 680 658.5 674.5 Q702 669 734 669 Q741 669 747.5 669 Q754 669 762 670 L762 74 Q762 54 768 43.5 Q774 33 788 28 Q796 25 805.5 22.5 Q815 20 820 18 L820 0 Q794 2 771 2.5 Q748 3 722 3 Q698 3 670.5 2 Q643 1 618 0 L618 18 L675 38 L675 619 Q660 629 636 636.5 Q612 644 586 644 Q528 644 497 597 Q483 576 475.5 545.5 Q468 515 468 469 L468 444 L583 444 L575 408 L468 408 L468 74 Q468 61 469.5 52.5 Q471 44 477 38 Q483 32 494.5 27.5 Q506 23 526 18 L526 0 Q501 0 476.5 1.5 Q452 3 426 3 Q402 3 375 1.5 Q348 0 324 0 L324 18 L381 38 L381 408 L184 408 L184 74 Q184 61 185.5 52.5 Q187 44 193 38 Q199 32 210.5 27.5 Q222 23 242 18 L242 0 Q217 0 192.5 1.5 Q168 3 142 3 Q118 3 91 1.5 Q64 0 40 0 L40 18 L97 38 L97 408 L29 408 L29 444 L97 444 L97 462 Z M381 444 Q381 505 398 553 Q378 591 349 614.5 Q320 638 285 638 Q184 638 184 491 L184 444 L381 444 Z " />
<glyph glyph-name="grave" unicode="&#x60;" horiz-adv-x="265" d="M44 592 L78 626 Q85 633 92 633 Q99 633 109 623 L229 502 L220 491 L44 582 L44 592 Z " />
<glyph glyph-name="acute" unicode="&#xb4;" horiz-adv-x="265" d="M221 582 L45 491 L36 502 L156 623 Q166 633 173 633 Q180 633 187 626 L221 592 L221 582 Z " />
<glyph glyph-name="dieresis" unicode="&#xa8;" horiz-adv-x="265" d="M257 577 Q257 558 243 544 Q229 530 209 530 Q190 530 176 544 Q162 558 162 577 Q162 596 176 609.5 Q190 623 209 623 Q229 623 243 609.5 Q257 596 257 577 Z M102 577 Q102 558 88 544 Q74 530 55 530 Q35 530 21 544 Q7 558 7 577 Q7 596 21 609.5 Q35 623 55 623 Q74 623 88 609.5 Q102 596 102 577 Z " />
<glyph glyph-name="circumflex" unicode="&#x2c6;" horiz-adv-x="265" d="M230 503 L133 582 L36 503 L22 512 L110 640 L155 640 L244 512 L230 503 Z " />
<glyph glyph-name="tilde" unicode="&#x2dc;" horiz-adv-x="265" d="M186 529 Q171 529 155.5 535 Q140 541 125 547.5 Q110 554 95 560 Q80 566 66 566 Q37 566 26 529 L7 531 Q12 584 31.5 604.5 Q51 625 79 625 Q94 625 109.5 619 Q125 613 140 606.5 Q155 600 170 594 Q185 588 199 588 Q228 588 239 625 L258 623 Q253 570 233.5 549.5 Q214 529 186 529 Z " />
<glyph glyph-name="macron" unicode="&#xaf;" horiz-adv-x="265" d="M20 532 L20 578 L245 578 L245 532 L20 532 Z " />
<glyph glyph-name="breve" unicode="&#x2d8;" horiz-adv-x="265" d="M132 515 Q80 515 52 546 Q24 577 24 629 L46 629 Q49 597 73.5 583.5 Q98 570 132 570 Q166 570 190.5 583.5 Q215 597 218 629 L240 629 Q240 577 212 546 Q184 515 132 515 Z " />
<glyph glyph-name="dotaccent" unicode="&#x2d9;" horiz-adv-x="265" d="M186 574 Q186 552 170.5 535.5 Q155 519 133 519 Q111 519 95 535.5 Q79 552 79 574 Q79 596 95 611 Q111 626 133 626 Q155 626 170.5 611 Q186 596 186 574 Z " />
<glyph glyph-name="ring" unicode="&#x2da;" horiz-adv-x="265" d="M215 580 Q215 545 191 521 Q167 497 132 497 Q97 497 73 520.5 Q49 544 49 579 Q49 614 73 638 Q97 662 132 662 Q167 662 191 638.5 Q215 615 215 580 Z M175 580 Q175 602 162.5 614.5 Q150 627 132 627 Q114 627 101.5 614 Q89 601 89 579 Q89 557 101.5 544.5 Q114 532 132 532 Q150 532 162.5 545 Q175 558 175 580 Z " />
<glyph glyph-name="cedilla" unicode="&#xb8;" horiz-adv-x="265" d="M220 -130 Q220 -148 209.5 -166 Q199 -184 178 -198.5 Q157 -213 126.5 -222 Q96 -231 56 -231 L50 -207 Q98 -203 127 -183.5 Q156 -164 156 -130 Q156 -108 140.5 -97 Q125 -86 96 -82 Q85 -80 82.5 -76.5 Q80 -73 82 -65 L108 16 L150 16 L130 -49 Q170 -56 195 -77.5 Q220 -99 220 -130 Z " />
<glyph glyph-name="hungarumlaut" unicode="&#x2dd;" horiz-adv-x="265" d="M273 596 L138 499 L128 509 L215 631 Q222 641 231 641 Q238 641 245 634 L273 605 L273 596 Z M139 596 L4 499 L-6 509 L81 631 Q88 641 97 641 Q104 641 111 634 L139 605 L139 596 Z " />
<glyph glyph-name="ogonek" unicode="&#x2db;" horiz-adv-x="265" d="M227 -203 Q211 -211 190 -216.5 Q169 -222 147 -222 Q98 -222 68 -197.5 Q38 -173 38 -128 Q38 -104 50 -81.5 Q62 -59 82.5 -39 Q103 -19 130 -3.5 Q157 12 187 23 L199 16 Q156 -10 129 -47.5 Q102 -85 102 -125 Q102 -157 120 -172.5 Q138 -188 165 -188 Q179 -188 193.5 -185.5 Q208 -183 221 -179 L227 -203 Z " />
<glyph glyph-name="caron" unicode="&#x2c7;" horiz-adv-x="265" d="M244 630 L155 502 L110 502 L22 630 L36 639 L133 560 L230 639 L244 630 Z " />
<glyph glyph-name="commaaccent" unicode="&#xf6c3;" horiz-adv-x="265" d="M180 -120 Q180 -138 176.5 -156.5 Q173 -175 164.5 -192.5 Q156 -210 141.5 -225.5 Q127 -241 104 -253 L95 -239 Q112 -228 124 -208.5 Q136 -189 136 -166 Q136 -147 128 -137.5 Q120 -128 110 -121 Q100 -114 92 -107 Q84 -100 84 -86 Q84 -71 95.5 -61 Q107 -51 125 -51 Q138 -51 148.5 -57.5 Q159 -64 166 -74 Q173 -84 176.5 -96 Q180 -108 180 -120 Z " />
<glyph glyph-name="zero" unicode="0" horiz-adv-x="492" d="M448 312 Q448 258 437 200.5 Q426 143 402 95 Q378 47 339.5 16 Q301 -15 246 -15 Q191 -15 152.5 16 Q114 47 90 95 Q66 143 55 200.5 Q44 258 44 312 Q44 366 55 424 Q66 482 90 530 Q114 578 152.5 609 Q191 640 246 640 Q301 640 339.5 609 Q378 578 402 530 Q426 482 437 424 Q448 366 448 312 Z M357 312 Q357 329 356 356.5 Q355 384 351.5 416 Q348 448 341 480 Q334 512 321.5 538 Q309 564 290.5 580.5 Q272 597 246 597 Q220 597 201.5 580.5 Q183 564 170.5 538 Q158 512 151 480 Q144 448 140.5 416 Q137 384 136 356.5 Q135 329 135 312 Q135 295 136 267.5 Q137 240 140.5 208.5 Q144 177 151 144.5 Q158 112 170.5 86.5 Q183 61 201.5 44.5 Q220 28 246 28 Q272 28 290.5 44.5 Q309 61 321.5 86.5 Q334 112 341 144.5 Q348 177 351.5 208.5 Q355 240 356 267.5 Q357 295 357 312 Z " />
<glyph glyph-name="one" unicode="1" horiz-adv-x="492" d="M361 0 Q335 2 305.5 2.5 Q276 3 250 3 Q226 3 193.5 2 Q161 1 136 0 L136 19 L207 39 L207 518 Q207 545 190 559 Q169 575 129 584 L129 604 Q171 606 207.5 613 Q244 620 270 634 L292 634 L292 78 Q292 58 299 46.5 Q306 35 323 29 Q331 26 343 23 Q355 20 361 19 L361 0 L361 0 Z " />
<glyph glyph-name="two" unicode="2" horiz-adv-x="492" d="M421 129 Q412 99 404 65.5 Q396 32 391 0 L74 0 L74 35 Q113 90 155 139.5 Q197 189 231 238 Q265 287 287 338 Q309 389 309 447 Q309 489 301 516 Q293 543 279.5 558.5 Q266 574 248.5 580.5 Q231 587 213 587 Q147 587 112 510 L74 527 Q88 559 107 580.5 Q126 602 148.5 615.5 Q171 629 195.5 634.5 Q220 640 244 640 Q272 640 300.5 631 Q329 622 352.5 601 Q376 580 390.5 544.5 Q405 509 405 456 Q405 401 381 354 Q357 307 320 261.5 Q283 216 238 169.5 Q193 123 150 70 L314 70 Q349 70 369 84.5 Q389 99 402 134 L421 129 L421 129 Z " />
<glyph glyph-name="three" unicode="3" horiz-adv-x="492" d="M414 176 Q414 135 399 100 Q384 65 357 39.5 Q330 14 293 -0.5 Q256 -15 213 -15 Q186 -15 160.5 -10 Q135 -5 116 4 Q97 13 85.5 26 Q74 39 74 55 Q74 73 86 87.5 Q98 102 112 102 Q125 102 132.5 89.5 Q140 77 149.5 61.5 Q159 46 173.5 33.5 Q188 21 214 21 Q243 21 263.5 33.5 Q284 46 297.5 66.5 Q311 87 317.5 113 Q324 139 324 166 Q324 206 312 235.5 Q300 265 278.5 284.5 Q257 304 228 314 Q199 324 165 324 L165 361 Q192 363 216.5 374 Q241 385 260 402.5 Q279 420 290 444 Q301 468 301 497 Q301 540 278 566 Q255 592 217 592 Q185 592 162 574 Q139 556 127 528 L89 544 Q99 570 116 588.5 Q133 607 154 618.5 Q175 630 197.5 635 Q220 640 242 640 Q269 640 295.5 632 Q322 624 343 607 Q364 590 377 562 Q390 534 390 494 Q390 468 380.5 444.5 Q371 421 354.5 401.5 Q338 382 316 369 Q294 356 270 352 Q302 348 328.5 332.5 Q355 317 374 293.5 Q393 270 403.5 240 Q414 210 414 176 Z " />
<glyph glyph-name="four" unicode="4" horiz-adv-x="492" d="M370 77 Q370 57 377 45.5 Q384 34 401 28 Q409 25 419 22.5 Q429 20 434 18 L434 0 Q408 2 380 2.5 Q352 3 326 3 Q302 3 276 2 Q250 1 225 0 L225 18 L283 38 L283 149 L31 149 L31 183 L326 625 L370 625 L370 208 L453 208 L453 149 L370 149 L370 77 Z M283 491 L95 208 L283 208 L283 491 Z " />
<glyph glyph-name="five" unicode="5" horiz-adv-x="492" d="M415 193 Q415 146 399.5 107.5 Q384 69 356.5 42 Q329 15 291.5 0 Q254 -15 211 -15 Q196 -15 173.5 -12 Q151 -9 131 -1 Q111 7 96.5 20 Q82 33 82 54 Q82 71 94 87 Q106 103 124 103 Q139 103 145.5 90 Q152 77 159 62 Q166 47 177.5 34 Q189 21 213 21 Q240 21 261 35 Q282 49 296 72 Q310 95 317.5 124 Q325 153 325 184 Q325 218 319.5 247.5 Q314 277 301.5 299 Q289 321 269.5 334 Q250 347 222 347 Q201 347 182.5 341 Q164 335 148 324 L114 331 L124 625 L404 625 L391 553 L168 553 L162 372 Q177 380 200.5 385.5 Q224 391 249 391 Q289 391 320 376.5 Q351 362 372 336 Q393 310 404 273.5 Q415 237 415 193 Z " />
<glyph glyph-name="six" unicode="6" horiz-adv-x="492" d="M437 185 Q437 143 424 106.5 Q411 70 386.5 43 Q362 16 327 0.5 Q292 -15 249 -15 Q201 -15 165.5 4 Q130 23 106 54.5 Q82 86 70.5 127 Q59 168 59 212 Q59 277 79 342.5 Q99 408 136 465.5 Q173 523 225 569 Q277 615 341 640 L351 616 Q279 568 234.5 498.5 Q190 429 167 345 Q190 366 219 377.5 Q248 389 277 389 Q316 389 346 371 Q376 353 396 324.5 Q416 296 426.5 259 Q437 222 437 185 Z M349 173 Q349 197 345 226.5 Q341 256 330 281.5 Q319 307 300 324 Q281 341 250 341 Q223 341 199 327.5 Q175 314 156 296 Q152 275 150 248.5 Q148 222 148 201 Q148 162 155 129 Q162 96 175 72 Q188 48 206.5 34.5 Q225 21 249 21 Q281 21 300.5 36 Q320 51 331 74 Q342 97 345.5 123.5 Q349 150 349 173 Z " />
<glyph glyph-name="seven" unicode="7" horiz-adv-x="492" d="M237 0 L149 0 L362 555 L189 555 Q145 555 122.5 539 Q100 523 83 481 L64 487 Q68 499 72 517.5 Q76 536 80 556 Q84 576 86.5 594.5 Q89 613 90 625 L418 625 L434 604 L237 0 Z " />
<glyph glyph-name="eight" unicode="8" horiz-adv-x="492" d="M439 168 Q439 132 426.5 99 Q414 66 389 40.5 Q364 15 328 0 Q292 -15 246 -15 Q210 -15 175.5 -4.5 Q141 6 113.5 27 Q86 48 69 80.5 Q52 113 52 157 Q52 188 62.5 214 Q73 240 90.5 261.5 Q108 283 131 299.5 Q154 316 179 328 Q139 354 110 394.5 Q81 435 81 486 Q81 522 95 551 Q109 580 132 599.5 Q155 619 185 629.5 Q215 640 247 640 Q320 640 364.5 601.5 Q409 563 409 498 Q409 456 384 416 Q359 376 301 352 Q327 336 351.5 318 Q376 300 395.5 278 Q415 256 427 229 Q439 202 439 168 Z M330 502 Q330 550 307.5 575 Q285 600 247 600 Q206 600 184 576 Q162 552 162 513 Q162 489 171.5 468 Q181 447 196 429.5 Q211 412 230 397.5 Q249 383 269 372 Q298 390 314 425 Q330 460 330 502 Z M358 142 Q358 171 344 196 Q330 221 308.5 241.5 Q287 262 261.5 278.5 Q236 295 212 308 Q200 300 186.5 287.5 Q173 275 161.5 257 Q150 239 142.5 215 Q135 191 135 161 Q135 132 143 107 Q151 82 166 63.5 Q181 45 201.5 34.5 Q222 24 248 24 Q296 24 327 55 Q358 86 358 142 Z " />
<glyph glyph-name="nine" unicode="9" horiz-adv-x="492" d="M60 440 Q60 482 73 518.5 Q86 555 110.5 582 Q135 609 170 624.5 Q205 640 248 640 Q296 640 331.5 621 Q367 602 391 570.5 Q415 539 426.5 498 Q438 457 438 413 Q438 348 418 282.5 Q398 217 361 159 Q324 101 272 55.5 Q220 10 156 -15 L146 9 Q218 57 262.5 126.5 Q307 196 330 280 Q307 259 278 247.5 Q249 236 220 236 Q181 236 151 254 Q121 272 101 300.5 Q81 329 70.5 365.5 Q60 402 60 440 Z M148 452 Q148 428 152 398.5 Q156 369 167 343.5 Q178 318 197 301 Q216 284 247 284 Q274 284 298 297.5 Q322 311 341 329 Q345 350 347 376.5 Q349 403 349 424 Q349 463 342 496 Q335 529 322 553 Q309 577 290.5 590.5 Q272 604 248 604 Q216 604 196.5 589 Q177 574 166 551 Q155 528 151.5 501.5 Q148 475 148 452 Z " />
<glyph glyph-name="dollar" unicode="&#x24;" horiz-adv-x="492" d="M109 156 Q113 124 125.5 100.5 Q138 77 155.5 61.5 Q173 46 192.5 37.5 Q212 29 229 28 L229 279 Q187 300 154.5 320 Q122 340 100 362.5 Q78 385 66.5 411.5 Q55 438 55 473 Q55 544 101.5 588.5 Q148 633 229 639 L229 728 L268 728 L268 639 Q331 634 372.5 593.5 Q414 553 423 484 L375 473 Q370 523 341.5 555 Q313 587 268 594 L268 363 Q299 348 330 332 Q361 316 386 293.5 Q411 271 426.5 241 Q442 211 442 169 Q442 138 431 107.5 Q420 77 398.5 52 Q377 27 344 9.5 Q311 -8 268 -13 L268 -104 L229 -104 L229 -15 Q204 -14 176.5 -4 Q149 6 125 25.5 Q101 45 83 74.5 Q65 104 61 144 L109 156 Z M229 595 Q185 590 162 563.5 Q139 537 139 495 Q139 455 166 429.5 Q193 404 229 384 L229 595 Z M351 141 Q351 185 326 212 Q301 239 268 258 L268 31 Q306 41 328.5 69.5 Q351 98 351 141 Z " />
<glyph glyph-name="cent" unicode="&#xa2;" horiz-adv-x="492" d="M260 -80 L260 -15 Q216 -14 180.5 3.5 Q145 21 119 52 Q93 83 79 126 Q65 169 65 222 Q65 275 79 318 Q93 361 119 392 Q145 423 180.5 440.5 Q216 458 260 460 L260 526 L301 526 L301 457 Q352 448 386 419 Q420 390 437 358 L412 336 Q395 364 367 384 Q339 404 301 407 L301 38 Q339 40 367 60.5 Q395 81 412 109 L437 87 Q420 55 386 26 Q352 -3 301 -12 L301 -80 L260 -80 Z M157 222 Q157 143 185.5 98 Q214 53 260 42 L260 403 Q214 391 185.5 346 Q157 301 157 222 Z " />
<glyph glyph-name="Euro" unicode="&#x20ac;" horiz-adv-x="492" d="M179 289 L366 289 L359 248 L182 248 Q192 140 232 89.5 Q272 39 330 39 Q372 39 403 58 Q434 77 458 115 L483 97 Q458 47 415 16 Q372 -15 310 -15 Q215 -15 158.5 52 Q102 119 91 248 L17 248 L24 289 L88 289 L88 343 L17 343 L24 384 L92 384 Q99 444 119 491.5 Q139 539 168.5 572 Q198 605 236 622.5 Q274 640 318 640 Q374 640 417.5 613 Q461 586 487 539 L462 521 Q432 559 403 573 Q374 587 342 587 Q285 587 240.5 537 Q196 487 183 384 L366 384 L359 343 L179 343 L179 289 Z " />
<glyph glyph-name="florin" unicode="&#x192;" horiz-adv-x="492" d="M520 583 Q520 566 509 550.5 Q498 535 486 533 Q473 532 462 544 Q455 552 448.5 562 Q442 572 433.5 581 Q425 590 415 596.5 Q405 603 390 603 Q356 603 324.5 547.5 Q293 492 274 371 L381 371 L363 330 L268 330 L235 117 Q223 41 204.5 -19.5 Q186 -80 158 -122 Q130 -164 92.5 -186.5 Q55 -209 4 -209 Q-33 -209 -68 -192.5 Q-103 -176 -122 -135 L-89 -115 Q-75 -145 -51.5 -157.5 Q-28 -170 -5 -170 Q49 -170 82 -115 Q115 -60 131 34 L181 330 L88 330 L106 371 L184 371 Q187 390 192.5 411.5 Q198 433 205 453 Q212 473 219 490.5 Q226 508 232 520 Q265 581 311 610 Q357 639 412 639 Q463 639 491.5 620.5 Q520 602 520 583 Z " />
<glyph glyph-name="sterling" unicode="&#xa3;" horiz-adv-x="492" d="M470 84 Q452 39 424.5 12 Q397 -15 351 -15 Q315 -15 284 0 Q253 15 213 52 Q198 21 172 3 Q146 -15 109 -15 Q74 -15 51 4.5 Q28 24 28 57 Q28 90 51 110.5 Q74 131 109 131 Q120 131 131 129.5 Q142 128 150 124 Q151 135 151 185.5 Q151 236 151 317 L73 317 L73 358 L151 358 L151 406 Q151 521 196 580.5 Q241 640 333 640 Q345 640 364.5 637 Q384 634 403 627.5 Q422 621 436 610.5 Q450 600 450 584 Q450 569 441 552.5 Q432 536 415 536 Q403 536 392.5 546.5 Q382 557 371 569.5 Q360 582 346 592.5 Q332 603 313 603 Q278 603 258 565 Q238 527 238 449 L238 358 L354 358 L345 317 L238 317 Q238 293 238 263.5 Q238 234 237 204.5 Q236 175 234 147 Q232 119 229 97 Q263 74 296 62 Q329 50 358 50 Q387 50 410 62.5 Q433 75 450 98 L470 84 Z M148 90 Q143 95 132 98 Q121 101 110 101 Q88 101 77 89 Q66 77 66 60 Q66 41 77 30.5 Q88 20 105 20 Q128 20 138 39 Q148 58 148 90 Z " />
<glyph glyph-name="yen" unicode="&#xa5;" horiz-adv-x="492" d="M297 162 L297 76 Q297 53 304 44 Q311 35 325 30 Q333 28 344.5 25 Q356 22 364 20 L364 0 Q355 0 341 0.5 Q327 1 311.5 1.5 Q296 2 281 2.5 Q266 3 255 3 Q243 3 227.5 2.5 Q212 2 196 1.5 Q180 1 165.5 0.5 Q151 0 141 0 L141 20 L205 40 L205 162 L67 162 L74 203 L205 203 L205 249 L67 249 L74 290 L198 290 L68 553 Q61 568 55 577 Q49 586 41.5 592 Q34 598 24.5 601.5 Q15 605 0 608 L0 625 Q6 625 19.5 624.5 Q33 624 49 623.5 Q65 623 80 622.5 Q95 622 103 622 Q113 622 127.5 622.5 Q142 623 157 623.5 Q172 624 185.5 624.5 Q199 625 207 625 L207 608 L151 592 L279 336 L393 591 L341 607 L341 625 Q358 624 374 623 Q388 622 402.5 622 Q417 622 426 622 Q443 622 464.5 623.5 Q486 625 500 625 L500 607 Q482 605 470 601 Q458 597 449.5 589.5 Q441 582 434.5 571 Q428 560 421 544 L308 290 L428 290 L421 249 L297 249 L297 203 L428 203 L421 162 L297 162 Z " />
<glyph glyph-name="numbersign" unicode="&#x23;" horiz-adv-x="492" d="M488 443 L475 390 L373 390 L340 233 L443 233 L431 180 L329 180 L289 -15 L230 -15 L270 180 L166 180 L126 -15 L67 -15 L107 180 L4 180 L17 233 L118 233 L151 390 L49 390 L61 443 L163 443 L205 640 L263 640 L222 443 L326 443 L368 640 L426 640 L385 443 L488 443 Z M177 233 L281 233 L314 390 L210 390 L177 233 Z " />
<glyph glyph-name="percent" unicode="&#x25;" horiz-adv-x="760" d="M174 284 Q189 284 199 297 Q209 310 216 331.5 Q223 353 226 381.5 Q229 410 229 442 Q229 473 226 502 Q223 531 216 552.5 Q209 574 199 587 Q189 600 174 600 Q159 600 149 587 Q139 574 132 552.5 Q125 531 122 502 Q119 473 119 442 Q119 410 122 381.5 Q125 353 132 331.5 Q139 310 149 297 Q159 284 174 284 Z M174 254 Q117 254 81 303.5 Q45 353 45 442 Q45 531 81 580.5 Q117 630 174 630 Q231 630 267 580.5 Q303 531 303 442 Q303 353 267 303.5 Q231 254 174 254 Z M586 15 Q601 15 611 28 Q621 41 628 62.5 Q635 84 638 112.5 Q641 141 641 173 Q641 204 638 233 Q635 262 628 283.5 Q621 305 611 318 Q601 331 586 331 Q571 331 561 318 Q551 305 544 283.5 Q537 262 534 233 Q531 204 531 173 Q531 141 534 112.5 Q537 84 544 62.5 Q551 41 561 28 Q571 15 586 15 Z M586 -15 Q529 -15 493 34.5 Q457 84 457 173 Q457 262 493 311.5 Q529 361 586 361 Q643 361 679 311.5 Q715 262 715 173 Q715 84 679 34.5 Q643 -15 586 -15 Z M228 -15 L180 -15 L537 640 L585 640 L228 -15 Z " />
<glyph glyph-name="perthousand" unicode="&#x2030;" horiz-adv-x="1067" d="M893 15 Q908 15 918 28 Q928 41 935 62.5 Q942 84 945 112.5 Q948 141 948 173 Q948 204 945 233 Q942 262 935 283.5 Q928 305 918 318 Q908 331 893 331 Q878 331 868 318 Q858 305 851 283.5 Q844 262 841 233 Q838 204 838 173 Q838 141 841 112.5 Q844 84 851 62.5 Q858 41 868 28 Q878 15 893 15 Z M893 -15 Q836 -15 800 34.5 Q764 84 764 173 Q764 262 800 311.5 Q836 361 893 361 Q950 361 986 311.5 Q1022 262 1022 173 Q1022 84 986 34.5 Q950 -15 893 -15 Z M174 284 Q189 284 199 297 Q209 310 216 331.5 Q223 353 226 381.5 Q229 410 229 442 Q229 473 226 502 Q223 531 216 552.5 Q209 574 199 587 Q189 600 174 600 Q159 600 149 587 Q139 574 132 552.5 Q125 531 122 502 Q119 473 119 442 Q119 410 122 381.5 Q125 353 132 331.5 Q139 310 149 297 Q159 284 174 284 Z M174 254 Q117 254 81 303.5 Q45 353 45 442 Q45 531 81 580.5 Q117 630 174 630 Q231 630 267 580.5 Q303 531 303 442 Q303 353 267 303.5 Q231 254 174 254 Z M586 15 Q601 15 611 28 Q621 41 628 62.5 Q635 84 638 112.5 Q641 141 641 173 Q641 204 638 233 Q635 262 628 283.5 Q621 305 611 318 Q601 331 586 331 Q571 331 561 318 Q551 305 544 283.5 Q537 262 534 233 Q531 204 531 173 Q531 141 534 112.5 Q537 84 544 62.5 Q551 41 561 28 Q571 15 586 15 Z M586 -15 Q529 -15 493 34.5 Q457 84 457 173 Q457 262 493 311.5 Q529 361 586 361 Q643 361 679 311.5 Q715 262 715 173 Q715 84 679 34.5 Q643 -15 586 -15 Z M228 -15 L180 -15 L537 640 L585 640 L228 -15 Z " />
<glyph glyph-name="plus" unicode="&#x2b;" horiz-adv-x="440" d="M244 198 L244 56 L195 56 L195 198 L53 198 L53 247 L195 247 L195 389 L244 389 L244 247 L386 247 L386 198 L244 198 Z " />
<glyph glyph-name="minus" unicode="&#x2212;" horiz-adv-x="440" d="M386 247 L386 198 L53 198 L53 247 L386 247 Z " />
<glyph glyph-name="multiply" unicode="&#xd7;" horiz-adv-x="440" d="M320 86 L220 186 L120 86 L85 121 L185 221 L85 321 L120 356 L220 256 L320 356 L355 321 L255 221 L355 121 L320 86 Z " />
<glyph glyph-name="less" unicode="&#x3c;" horiz-adv-x="440" d="M53 192 L53 254 L386 416 L386 362 L107 223 L386 86 L386 32 L53 192 Z " />
<glyph glyph-name="divide" unicode="&#xf7;" horiz-adv-x="440" d="M266 353 Q266 336 253.5 323.5 Q241 311 224 311 Q207 311 194.5 323.5 Q182 336 182 353 Q182 370 194.5 382 Q207 394 224 394 Q241 394 253.5 382 Q266 370 266 353 Z M53 198 L53 247 L386 247 L386 198 L53 198 Z M266 94 Q266 77 253.5 64.5 Q241 52 224 52 Q207 52 194.5 64.5 Q182 77 182 94 Q182 111 194.5 123 Q207 135 224 135 Q241 135 253.5 123 Q266 111 266 94 Z " />
<glyph glyph-name="equal" unicode="&#x3d;" horiz-adv-x="440" d="M53 271 L53 320 L386 320 L386 271 L53 271 Z M53 123 L53 172 L386 172 L386 123 L53 123 Z " />
<glyph glyph-name="logicalnot" unicode="&#xac;" horiz-adv-x="440" d="M337 123 L337 271 L53 271 L53 320 L386 320 L386 123 L337 123 Z " />
<glyph glyph-name="greater" unicode="&#x3e;" horiz-adv-x="440" d="M53 32 L53 86 L332 223 L53 362 L53 416 L386 254 L386 192 L53 32 Z " />
<glyph glyph-name="notequal" unicode="&#x2260;" horiz-adv-x="440" d="M199 124 L149 23 L90 23 L140 124 L53 124 L53 173 L164 173 L214 272 L53 272 L53 321 L238 321 L289 423 L348 423 L297 321 L386 321 L386 272 L273 272 L223 173 L386 173 L386 124 L199 124 Z " />
<glyph glyph-name="approxequal" unicode="&#x2248;" horiz-adv-x="440" d="M401 357 Q396 332 389 310.5 Q382 289 370 273 Q358 257 340 248 Q322 239 296 239 Q271 239 250.5 248.5 Q230 258 211 269 Q192 280 172 289.5 Q152 299 129 299 Q99 299 84.5 283.5 Q70 268 61 239 L38 239 Q43 299 72 327 Q101 355 145 355 Q172 355 192.5 346.5 Q213 338 232 327.5 Q251 317 269 308.5 Q287 300 310 300 Q328 300 340 304.5 Q352 309 359 316.5 Q366 324 370.5 334.5 Q375 345 378 357 L401 357 Z M401 209 Q396 184 389 162.5 Q382 141 370 125 Q358 109 340 100 Q322 91 296 91 Q271 91 250.5 100.5 Q230 110 211 121 Q192 132 172 141.5 Q152 151 129 151 Q99 151 84.5 135.5 Q70 120 61 91 L38 91 Q43 151 72 179 Q101 207 145 207 Q172 207 192.5 198.5 Q213 190 232 179.5 Q251 169 269 160.5 Q287 152 310 152 Q328 152 340 156.5 Q352 161 359 168.5 Q366 176 370.5 186.5 Q375 197 378 209 L401 209 Z " />
<glyph glyph-name="plusminus" unicode="&#xb1;" horiz-adv-x="440" d="M244 265 L244 123 L195 123 L195 265 L53 265 L53 314 L195 314 L195 456 L244 456 L244 314 L386 314 L386 265 L244 265 Z M53 0 L53 49 L386 49 L386 0 L53 0 Z " />
<glyph glyph-name="lessequal" unicode="&#x2264;" horiz-adv-x="440" d="M53 259 L53 321 L386 483 L386 429 L107 290 L386 153 L386 99 L53 259 Z M53 0 L53 49 L386 49 L386 0 L53 0 Z " />
<glyph glyph-name="greaterequal" unicode="&#x2265;" horiz-adv-x="440" d="M53 99 L53 153 L332 290 L53 429 L53 483 L386 321 L386 259 L53 99 Z M53 0 L53 49 L386 49 L386 0 L53 0 Z " />
<glyph glyph-name="asciicircum" unicode="&#x5e;" horiz-adv-x="440" d="M338 345 L220 554 L101 345 L38 345 L198 625 L242 625 L401 345 L338 345 Z " />
<glyph glyph-name="asciitilde" unicode="&#x7e;" horiz-adv-x="440" d="M401 359 Q396 334 389 312.5 Q382 291 370 275 Q358 259 340 250 Q322 241 296 241 Q271 241 250.5 250.5 Q230 260 211 271 Q192 282 172 291.5 Q152 301 129 301 Q99 301 84.5 285.5 Q70 270 61 241 L38 241 Q43 301 72 329 Q101 357 145 357 Q172 357 192.5 348.5 Q213 340 232 329.5 Q251 319 269 310.5 Q287 302 310 302 Q328 302 340 306.5 Q352 311 359 318.5 Q366 326 370.5 336.5 Q375 347 378 359 L401 359 L401 359 Z " />
<glyph glyph-name="lozenge" unicode="&#x25ca;" horiz-adv-x="571" d="M254 0 L54 316 L254 625 L317 625 L517 316 L317 0 L254 0 Z M285 570 L122 316 L285 55 L449 316 L285 570 Z " />
<glyph glyph-name="degree" unicode="&#xb0;" horiz-adv-x="312" d="M156 436 Q191 436 211.5 460 Q232 484 232 519 Q232 554 211.5 578 Q191 602 156 602 Q121 602 100.5 578 Q80 554 80 519 Q80 484 100.5 460 Q121 436 156 436 Z M156 395 Q99 395 64.5 429.5 Q30 464 30 519 Q30 574 64.5 608.5 Q99 643 156 643 Q213 643 247.5 608.5 Q282 574 282 519 Q282 464 247.5 429.5 Q213 395 156 395 Z " />
<glyph glyph-name="quotesingle" unicode="&#x27;" horiz-adv-x="158" d="M123 583 Q123 566 118.5 543.5 Q114 521 108 496 Q102 471 96 445 Q90 419 88 395 L70 395 Q68 419 62 444.5 Q56 470 50 495 Q44 520 39.5 542.5 Q35 565 35 583 Q35 606 44 623 Q53 640 79 640 Q105 640 114 623 Q123 606 123 583 Z " />
<glyph glyph-name="quotedbl" unicode="&#x22;" horiz-adv-x="298" d="M123 583 Q123 566 118.5 543.5 Q114 521 108 496 Q102 471 96 445 Q90 419 88 395 L70 395 Q68 419 62 444.5 Q56 470 50 495 Q44 520 39.5 542.5 Q35 565 35 583 Q35 606 44 623 Q53 640 79 640 Q105 640 114 623 Q123 606 123 583 Z M263 583 Q263 566 258.5 543.5 Q254 521 248 496 Q242 471 236 445 Q230 419 228 395 L210 395 Q208 419 202 444.5 Q196 470 190 495 Q184 520 179.5 542.5 Q175 565 175 583 Q175 606 184 623 Q193 640 219 640 Q245 640 254 623 Q263 606 263 583 Z " />
<glyph glyph-name="radical" unicode="&#x221a;" horiz-adv-x="613" d="M146 444 Q170 444 187.5 441.5 Q205 439 217.5 432 Q230 425 239 412 Q248 399 256 378 L342 146 L484 551 Q497 591 517.5 608 Q538 625 585 625 L611 625 L611 589 L587 589 Q561 589 548.5 578.5 Q536 568 528 544 L339 -2 L311 -2 L172 353 Q166 369 160.5 379.5 Q155 390 148 396.5 Q141 403 131 405.5 Q121 408 105 408 L48 408 L48 444 L146 444 Z " />
<glyph glyph-name="currency" unicode="&#xa4;" horiz-adv-x="492" d="M249 124 Q200 124 162 143 L122 82 L61 82 L122 173 Q98 199 85.5 234 Q73 269 73 311 Q73 353 85.5 388.5 Q98 424 124 450 L61 547 L122 547 L166 480 Q184 488 204.5 493 Q225 498 249 498 Q271 498 290 494 Q309 490 326 482 L369 547 L430 547 L369 454 Q396 428 410.5 391.5 Q425 355 425 311 Q425 268 411 232 Q397 196 371 170 L430 82 L369 82 L329 141 Q293 124 249 124 Z M249 163 Q277 163 296.5 176.5 Q316 190 327 211.5 Q338 233 343 259 Q348 285 348 310 Q348 336 343 362.5 Q338 389 327 410.5 Q316 432 296.5 445.5 Q277 459 249 459 Q220 459 201 445.5 Q182 432 171 410.5 Q160 389 155 362.5 Q150 336 150 310 Q150 285 155 259 Q160 233 171 211.5 Q182 190 201 176.5 Q220 163 249 163 Z " />
<glyph glyph-name="infinity" unicode="&#x221e;" horiz-adv-x="697" d="M191 199 Q230 199 264 214.5 Q298 230 315 258 Q304 277 290 295 Q276 313 259.5 327 Q243 341 223 349.5 Q203 358 180 358 Q142 358 119.5 337 Q97 316 97 277 Q97 240 121 219.5 Q145 199 191 199 Z M506 362 Q467 362 433 346.5 Q399 331 382 303 Q393 284 407 266 Q421 248 437.5 234 Q454 220 474 211.5 Q494 203 517 203 Q555 203 577.5 224 Q600 245 600 284 Q600 320 576 341 Q552 362 506 362 Z M334 228 Q311 172 272.5 147.5 Q234 123 194 123 Q132 123 95.5 165.5 Q59 208 59 277 Q59 307 68.5 336 Q78 365 97 387.5 Q116 410 142.5 423.5 Q169 437 204 437 Q256 437 293 410.5 Q330 384 363 333 Q386 389 424.5 413 Q463 437 503 437 Q565 437 601.5 395 Q638 353 638 284 Q638 254 628.5 225 Q619 196 600 173.5 Q581 151 554 137 Q527 123 493 123 Q441 123 404 150 Q367 177 334 228 Z " />
<glyph glyph-name="uni00B5" unicode="&#xb5;" horiz-adv-x="537" d="M521 19 Q507 5 487.5 -3.5 Q468 -12 445 -12 Q413 -12 392 6 Q371 24 366 59 Q338 28 297 6.5 Q256 -15 213 -15 Q182 -15 155 -4.5 Q128 6 109 26 Q114 -21 120 -57.5 Q126 -94 128 -130 Q130 -158 123 -179 Q116 -200 88 -200 Q62 -200 55 -180 Q48 -160 50 -130 Q51 -104 55 -77 Q59 -50 63 -18 Q67 14 70.5 52.5 Q74 91 75 140 L75 369 Q75 389 69 399.5 Q63 410 49 415 L17 426 L17 444 Q36 444 57 444 Q78 444 97.5 445 Q117 446 134 447 Q151 448 162 450 L162 163 Q162 122 167 100.5 Q172 79 184 65 Q204 40 240 40 Q257 40 274 45.5 Q291 51 307 60 Q323 69 338 83 Q353 97 363 109 L363 369 Q363 389 357 399.5 Q351 410 337 415 L305 426 L305 444 Q347 444 387 445 Q427 446 450 450 L450 84 Q450 59 460.5 46 Q471 33 489 33 Q507 33 521 40 L521 19 L521 19 Z " />
<glyph glyph-name="partialdiff" unicode="&#x2202;" horiz-adv-x="492" d="M55 185 Q55 221 65.5 257 Q76 293 96 322.5 Q116 352 146 370.5 Q176 389 215 389 Q244 389 273 377.5 Q302 366 325 345 Q302 429 257.5 498.5 Q213 568 141 616 L151 640 Q215 615 267 569 Q319 523 356 465.5 Q393 408 413 342.5 Q433 277 433 212 Q433 168 421.5 127 Q410 86 386 54.5 Q362 23 326.5 4 Q291 -15 243 -15 Q200 -15 165 0.5 Q130 16 105.5 43 Q81 70 68 106.5 Q55 143 55 185 Z M143 173 Q143 150 146.5 123.5 Q150 97 161 74 Q172 51 191.5 36 Q211 21 243 21 Q267 21 285.5 34.5 Q304 48 317 72 Q330 96 337 129 Q344 162 344 201 Q344 222 342 248.5 Q340 275 336 296 Q317 314 293 327.5 Q269 341 242 341 Q211 341 192 324 Q173 307 162 281.5 Q151 256 147 226.5 Q143 197 143 173 Z " />
<glyph glyph-name="summation" unicode="&#x2211;" horiz-adv-x="526" d="M15 -75 L10 -67 L275 303 L25 692 L30 699 L462 699 Q462 684 462.5 664 Q463 644 463.5 624 Q464 604 465 585.5 Q466 567 467 556 L449 556 L394 666 L146 666 L345 359 Q351 350 351 343.5 Q351 337 344 327 L110 2 L332 2 Q364 2 384.5 6 Q405 10 418 20 Q431 30 438.5 47.5 Q446 65 452 91 L472 91 Q470 73 468.5 50.5 Q467 28 465.5 4.5 Q464 -19 463 -40 Q462 -61 462 -75 L15 -75 Z " />
<glyph glyph-name="product" unicode="&#x220f;" horiz-adv-x="662" d="M473 666 L190 666 L190 2 Q190 -21 197 -30 Q204 -39 218 -44 Q228 -47 239 -49.5 Q250 -52 257 -54 L257 -74 Q248 -74 234 -73.5 Q220 -73 204.5 -72.5 Q189 -72 174 -71.5 Q159 -71 148 -71 Q136 -71 120.5 -71.5 Q105 -72 89 -72.5 Q73 -73 58.5 -73.5 Q44 -74 34 -74 L34 -54 L98 -34 L98 622 Q98 645 91 655 Q84 665 70 669 L30 680 L30 700 L626 700 L626 680 L565 659 L565 2 Q565 -21 572 -30 Q579 -39 593 -44 Q603 -47 614 -49.5 Q625 -52 632 -54 L632 -74 Q623 -74 609.5 -73.5 Q596 -73 581 -72.5 Q566 -72 551.5 -71.5 Q537 -71 526 -71 Q514 -71 498 -71.5 Q482 -72 465.5 -72.5 Q449 -73 434 -73.5 Q419 -74 409 -74 L409 -54 L473 -34 L473 666 Z " />
<glyph glyph-name="integral" unicode="&#x222b;" horiz-adv-x="385" d="M236 199 Q236 59 200 -8 Q164 -75 95 -75 Q60 -75 35 -59.5 Q10 -44 10 -26 Q10 -11 21 1.5 Q32 14 43 14 Q53 14 60 5.5 Q67 -3 73.5 -13.5 Q80 -24 89 -32.5 Q98 -41 113 -41 Q134 -41 147 -23.5 Q160 -6 160 26 Q160 42 158.5 66.5 Q157 91 154.5 119 Q152 147 150.5 175.5 Q149 204 149 227 L149 427 Q149 567 185 634 Q221 701 290 701 Q325 701 350 685.5 Q375 670 375 652 Q375 637 364 624.5 Q353 612 342 612 Q331 612 324.5 620.5 Q318 629 311.5 639.5 Q305 650 296 658.5 Q287 667 272 667 Q251 667 238 649 Q225 631 225 600 Q225 584 226.5 559.5 Q228 535 230.5 507 Q233 479 234.5 450.5 Q236 422 236 399 L236 199 Z " />
<glyph glyph-name="Ohm" unicode="&#x2126;" horiz-adv-x="708" d="M354 598 Q307 598 272.5 578 Q238 558 214.5 524 Q191 490 179.5 444.5 Q168 399 168 348 Q168 298 177.5 255 Q187 212 206 171 Q225 130 254.5 90 Q284 50 324 8 L319 0 L42 0 Q42 14 41 35 Q40 56 38.5 79.5 Q37 103 35 125.5 Q33 148 32 166 L52 166 Q58 140 62 122 Q66 104 75.5 93 Q85 82 102.5 77.5 Q120 73 152 73 L226 73 Q195 95 166.5 124.5 Q138 154 116 190 Q94 226 81 268.5 Q68 311 68 358 Q68 412 87.5 463 Q107 514 143.5 553.5 Q180 593 233 616.5 Q286 640 354 640 Q421 640 474.5 616.5 Q528 593 564.5 553.5 Q601 514 620.5 463 Q640 412 640 358 Q640 311 626.5 268.5 Q613 226 591 190 Q569 154 540.5 124.5 Q512 95 482 73 L556 73 Q588 73 605.5 77.5 Q623 82 632.5 93 Q642 104 646 122 Q650 140 656 166 L676 166 Q674 148 672.5 125.5 Q671 103 669.5 79.5 Q668 56 667 35 Q666 14 666 0 L389 0 L384 8 Q424 50 453.5 90 Q483 130 502 171 Q521 212 530.5 255 Q540 298 540 348 Q540 399 528.5 444.5 Q517 490 493.5 524 Q470 558 435 578 Q400 598 354 598 Z " />
<glyph glyph-name="Delta" unicode="&#x2206;" horiz-adv-x="558" d="M24 9 L258 625 L297 625 L534 9 L528 0 L28 0 L24 9 Z M258 474 L94 44 L424 44 L258 474 Z " />
<glyph glyph-name="litre" unicode="&#x2113;" horiz-adv-x="423" d="M230 148 Q230 110 236 88.5 Q242 67 254 54 Q275 33 308 33 Q329 33 348 38 Q367 43 381 50 L381 29 Q364 15 334.5 1.5 Q305 -12 270 -12 Q243 -12 219 -3 Q195 6 178 25 Q161 43 152 71 Q143 99 143 138 L143 228 Q125 216 106.5 205 Q88 194 70 183 L58 205 Q81 220 102 235.5 Q123 251 143 266 L143 421 Q143 483 155 525 Q167 567 189 594 Q207 617 231.5 628.5 Q256 640 283 640 Q331 640 354.5 610 Q378 580 378 535 Q378 473 336 411.5 Q294 350 230 295 L230 148 Z M312 543 Q312 570 305 588 Q298 606 281 606 Q258 606 244 570.5 Q230 535 230 451 L230 348 Q271 396 291.5 443.5 Q312 491 312 543 Z " />
<glyph glyph-name="estimated" unicode="&#x212e;" horiz-adv-x="788" d="M169 305 Q164 305 164 301 L164 122 Q164 111 173 102 Q215 56 272.5 30 Q330 4 394 4 Q466 4 526 33 Q586 62 630 113 L683 113 Q633 55 557.5 20 Q482 -15 393 -15 Q318 -15 252 11 Q186 37 136.5 81 Q87 125 58.5 184.5 Q30 244 30 312 Q30 380 58.5 439.5 Q87 499 136.5 543.5 Q186 588 252 614 Q318 640 393 640 Q469 640 535.5 614 Q602 588 651.5 543.5 Q701 499 729.5 439.5 Q758 380 758 312 L758 305 L169 305 Z M626 506 Q626 517 616 527 Q573 571 516.5 596 Q460 621 394 621 Q330 621 273 595 Q216 569 174 524 Q164 516 164 502 L164 326 Q164 321 169 321 L621 321 Q626 321 626 326 L626 506 Z " />
<glyph glyph-name="numero" unicode="&#x2116;" horiz-adv-x="995" d="M809 306 Q844 306 862.5 337 Q881 368 881 425 Q881 482 862.5 513 Q844 544 809 544 Q774 544 755.5 513 Q737 482 737 425 Q737 368 755.5 337 Q774 306 809 306 Z M601 584 L601 -4 L558 -4 L163 502 L163 76 Q163 53 170.5 44 Q178 35 192 30 Q202 27 212.5 24.5 Q223 22 230 20 L230 0 Q212 0 187 1.5 Q162 3 140 3 Q117 3 90.5 1.5 Q64 0 44 0 L44 20 L110 40 L110 548 Q110 572 101.5 580.5 Q93 589 79 594 Q70 597 58 600 Q46 603 39 605 L39 625 L182 625 L549 155 L549 550 Q549 573 542.5 581 Q536 589 520 594 Q511 597 499.5 600 Q488 603 481 605 L481 625 Q499 625 525 623.5 Q551 622 573 622 Q596 622 619.5 623.5 Q643 625 663 625 L663 605 L601 584 Z M809 270 Q776 270 750 282 Q724 294 706 315 Q688 336 678.5 364.5 Q669 393 669 425 Q669 457 678.5 485.5 Q688 514 706 535 Q724 556 750 568 Q776 580 809 580 Q842 580 868 568 Q894 556 912 535 Q930 514 939.5 485.5 Q949 457 949 425 Q949 393 939.5 364.5 Q930 336 912 315 Q894 294 868 282 Q842 270 809 270 Z M689 196 L689 231 L927 231 L927 196 L689 196 Z " />
<glyph glyph-name="ordfeminine" unicode="&#xaa;" horiz-adv-x="314" d="M296 274 Q288 266 274.5 261 Q261 256 246 256 Q224 256 212 265 Q200 274 198 288 Q164 254 119 254 Q75 254 50 279 Q28 303 28 339 Q28 364 40 382 Q52 400 72 411.5 Q92 423 118.5 428.5 Q145 434 174 434 L194 434 L194 442 Q194 478 181 491 Q169 503 146 503 Q120 503 101 490.5 Q82 478 71 457 L45 470 Q59 502 87 522 Q115 542 157 542 Q208 542 235 515 Q249 500 254 479.5 Q259 459 259 433 L259 314 Q259 303 263 296.5 Q267 290 278 290 Q288 290 296 294 L296 274 Z M194 409 L180 409 Q142 409 120 392.5 Q98 376 98 343 Q98 317 111 304 Q124 291 144 291 Q159 291 172 297.5 Q185 304 194 315 L194 409 Z " />
<glyph glyph-name="ordmasculine" unicode="&#xba;" horiz-adv-x="322" d="M161 287 Q193 287 210.5 316.5 Q228 346 228 398 Q228 450 210.5 480 Q193 510 161 510 Q129 510 111.5 480 Q94 450 94 398 Q94 346 111.5 316.5 Q129 287 161 287 Z M161 254 Q98 254 60 293 Q22 332 22 398 Q22 464 60 503 Q98 542 161 542 Q224 542 262 503 Q300 464 300 398 Q300 332 262 293 Q224 254 161 254 Z " />
<glyph glyph-name="onesuperior" unicode="&#xb9;" horiz-adv-x="314" d="M249 369 Q243 369 231.5 369.5 Q220 370 207.5 370 Q195 370 182.5 370 Q170 370 162 370 Q152 370 139.5 370 Q127 370 115 369.5 Q103 369 93 369 Q83 369 79 369 L79 386 L129 398 L129 674 Q129 684 126 688.5 Q123 693 112 696 L75 704 L75 721 Q101 721 130 725.5 Q159 730 173 738 L196 738 L196 410 Q196 401 200 397.5 Q204 394 214 392 L249 386 L249 369 Z " />
<glyph glyph-name="twosuperior" unicode="&#xb2;" horiz-adv-x="314" d="M268 462 Q263 444 257 419.5 Q251 395 246 369 L48 369 L48 398 Q65 423 89 450 Q113 477 135.5 506 Q158 535 173.5 565.5 Q189 596 189 628 Q189 670 173.5 685.5 Q158 701 140 701 Q121 701 104 688 Q87 675 76 653 L48 666 Q65 703 93 721.5 Q121 740 156 740 Q173 740 191.5 734.5 Q210 729 225.5 716 Q241 703 251 681.5 Q261 660 261 629 Q261 596 244.5 569 Q228 542 204.5 518.5 Q181 495 154.5 472.5 Q128 450 109 425 L196 425 Q222 425 232 434 Q243 443 250 462 L268 462 Z " />
<glyph glyph-name="threesuperior" unicode="&#xb3;" horiz-adv-x="314" d="M269 476 Q269 456 260.5 436 Q252 416 236 400 Q220 384 196.5 374 Q173 364 143 364 Q104 364 79 377 Q54 390 54 411 Q54 424 63 434 Q72 444 84 444 Q93 444 99 436 Q105 428 110.5 418.5 Q116 409 123.5 401 Q131 393 144 393 Q157 393 167.5 400 Q178 407 184.5 418.5 Q191 430 194.5 443.5 Q198 457 198 470 Q198 513 170.5 533 Q143 553 106 553 L106 576 Q136 579 160.5 601 Q185 623 185 655 Q185 701 142 701 Q123 701 107.5 690 Q92 679 83 662 L57 672 Q70 704 97.5 722 Q125 740 157 740 Q174 740 191.5 735 Q209 730 222.5 719.5 Q236 709 244.5 693 Q253 677 253 655 Q253 629 233.5 608.5 Q214 588 183 576 Q221 567 245 540.5 Q269 514 269 476 Z " />
<glyph glyph-name="fraction" unicode="&#x2044;" horiz-adv-x="86" d="M-112 -15 L-158 -15 L199 640 L245 640 L-112 -15 Z " />
<glyph glyph-name="onehalf" unicode="&#xbd;" horiz-adv-x="760" d="M688 93 Q683 75 677 50.5 Q671 26 666 0 L468 0 L468 29 Q485 54 509 81 Q533 108 555.5 137 Q578 166 593.5 196.5 Q609 227 609 259 Q609 301 593.5 316.5 Q578 332 560 332 Q541 332 524 319 Q507 306 496 284 L468 297 Q485 334 513 352.5 Q541 371 576 371 Q593 371 611.5 365.5 Q630 360 645.5 347 Q661 334 671 312.5 Q681 291 681 260 Q681 227 664.5 200 Q648 173 624.5 149.5 Q601 126 574.5 103.5 Q548 81 529 56 L616 56 Q642 56 652 65 Q663 74 670 93 L688 93 Z M236 259 Q230 259 218.5 259.5 Q207 260 194.5 260 Q182 260 169.5 260 Q157 260 149 260 Q139 260 126.5 260 Q114 260 102 259.5 Q90 259 80 259 Q70 259 66 259 L66 276 L116 288 L116 564 Q116 574 113 578.5 Q110 583 99 586 L62 594 L62 611 Q88 611 117 615.5 Q146 620 160 628 L183 628 L183 300 Q183 291 187 287.5 Q191 284 201 282 L236 276 L236 259 Z M218 -15 L172 -15 L529 640 L575 640 L218 -15 Z " />
<glyph glyph-name="onequarter" unicode="&#xbc;" horiz-adv-x="760" d="M637 42 Q637 32 640.5 28.5 Q644 25 655 23 L680 17 L680 0 Q667 1 644 1 Q621 1 604 1 Q584 1 560 0.5 Q536 0 527 0 L527 17 L571 29 L571 95 L424 95 L424 114 L600 368 L637 368 L637 136 L691 136 L691 95 L637 95 L637 42 Z M571 276 L474 136 L571 136 L571 276 Z M240 259 Q234 259 222.5 259.5 Q211 260 198.5 260 Q186 260 173.5 260 Q161 260 153 260 Q143 260 130.5 260 Q118 260 106 259.5 Q94 259 84 259 Q74 259 70 259 L70 276 L120 288 L120 564 Q120 574 117 578.5 Q114 583 103 586 L66 594 L66 611 Q92 611 121 615.5 Q150 620 164 628 L187 628 L187 300 Q187 291 191 287.5 Q195 284 205 282 L240 276 L240 259 Z M222 -15 L176 -15 L533 640 L579 640 L222 -15 Z " />
<glyph glyph-name="threequarters" unicode="&#xbe;" horiz-adv-x="760" d="M658 42 Q658 32 661.5 28.5 Q665 25 676 23 L701 17 L701 0 Q688 1 665 1 Q642 1 625 1 Q605 1 581 0.5 Q557 0 548 0 L548 17 L592 29 L592 95 L445 95 L445 114 L621 368 L658 368 L658 136 L712 136 L712 95 L658 95 L658 42 Z M592 276 L495 136 L592 136 L592 276 Z M273 366 Q273 346 264.5 326 Q256 306 240 290 Q224 274 200.5 264 Q177 254 147 254 Q108 254 83 267 Q58 280 58 301 Q58 314 67 324 Q76 334 88 334 Q97 334 103 326 Q109 318 114.5 308.5 Q120 299 127.5 291 Q135 283 148 283 Q161 283 171.5 290 Q182 297 188.5 308.5 Q195 320 198.5 333.5 Q202 347 202 360 Q202 403 174.5 423 Q147 443 110 443 L110 466 Q140 469 164.5 491 Q189 513 189 545 Q189 591 146 591 Q127 591 111.5 580 Q96 569 87 552 L61 562 Q74 594 101.5 612 Q129 630 161 630 Q178 630 195.5 625 Q213 620 226.5 609.5 Q240 599 248.5 583 Q257 567 257 545 Q257 519 237.5 498.5 Q218 478 187 466 Q225 457 249 430.5 Q273 404 273 366 Z M243 -15 L197 -15 L554 640 L600 640 L243 -15 Z " />
<glyph glyph-name="Agrave" unicode="&#xc0;" horiz-adv-x="631" d="M619 0 Q610 0 595.5 0.5 Q581 1 565 1.5 Q549 2 533.5 2.5 Q518 3 507 3 Q495 3 479 2.5 Q463 2 446.5 1.5 Q430 1 415 0.5 Q400 0 390 0 L390 20 L459 40 L388 224 L197 224 L139 74 Q137 69 136 65 Q135 61 135 56 Q135 45 144 40 Q153 35 167 30 Q189 23 207 20 L207 0 Q189 0 162.5 1.5 Q136 3 114 3 Q102 3 88 2.5 Q74 2 59.5 1.5 Q45 1 31.5 0.5 Q18 0 8 0 L8 20 L74 40 L300 625 L329 625 L542 76 Q551 53 560 44 Q569 35 586 30 L619 20 L619 0 Z M291 474 L210 261 L374 261 L291 474 Z M216 750 L248 782 Q256 790 263 790 Q270 790 281 781 L416 673 L410 661 L216 740 L216 750 Z " />
<glyph glyph-name="Aacute" unicode="&#xc1;" horiz-adv-x="631" d="M619 0 Q610 0 595.5 0.5 Q581 1 565 1.5 Q549 2 533.5 2.5 Q518 3 507 3 Q495 3 479 2.5 Q463 2 446.5 1.5 Q430 1 415 0.5 Q400 0 390 0 L390 20 L459 40 L388 224 L197 224 L139 74 Q137 69 136 65 Q135 61 135 56 Q135 45 144 40 Q153 35 167 30 Q189 23 207 20 L207 0 Q189 0 162.5 1.5 Q136 3 114 3 Q102 3 88 2.5 Q74 2 59.5 1.5 Q45 1 31.5 0.5 Q18 0 8 0 L8 20 L74 40 L300 625 L329 625 L542 76 Q551 53 560 44 Q569 35 586 30 L619 20 L619 0 Z M291 474 L210 261 L374 261 L291 474 Z M409 740 L215 661 L209 673 L344 781 Q354 790 362 790 Q369 790 377 782 L409 750 L409 740 Z " />
<glyph glyph-name="Acircumflex" unicode="&#xc2;" horiz-adv-x="631" d="M619 0 Q610 0 595.5 0.5 Q581 1 565 1.5 Q549 2 533.5 2.5 Q518 3 507 3 Q495 3 479 2.5 Q463 2 446.5 1.5 Q430 1 415 0.5 Q400 0 390 0 L390 20 L459 40 L388 224 L197 224 L139 74 Q137 69 136 65 Q135 61 135 56 Q135 45 144 40 Q153 35 167 30 Q189 23 207 20 L207 0 Q189 0 162.5 1.5 Q136 3 114 3 Q102 3 88 2.5 Q74 2 59.5 1.5 Q45 1 31.5 0.5 Q18 0 8 0 L8 20 L74 40 L300 625 L329 625 L542 76 Q551 53 560 44 Q569 35 586 30 L619 20 L619 0 Z M291 474 L210 261 L374 261 L291 474 Z M417 673 L312 735 L207 673 L196 683 L289 791 L334 791 L428 683 L417 673 Z " />
<glyph glyph-name="Atilde" unicode="&#xc3;" horiz-adv-x="631" d="M619 0 Q610 0 595.5 0.5 Q581 1 565 1.5 Q549 2 533.5 2.5 Q518 3 507 3 Q495 3 479 2.5 Q463 2 446.5 1.5 Q430 1 415 0.5 Q400 0 390 0 L390 20 L459 40 L388 224 L197 224 L139 74 Q137 69 136 65 Q135 61 135 56 Q135 45 144 40 Q153 35 167 30 Q189 23 207 20 L207 0 Q189 0 162.5 1.5 Q136 3 114 3 Q102 3 88 2.5 Q74 2 59.5 1.5 Q45 1 31.5 0.5 Q18 0 8 0 L8 20 L74 40 L300 625 L329 625 L542 76 Q551 53 560 44 Q569 35 586 30 L619 20 L619 0 Z M291 474 L210 261 L374 261 L291 474 Z M367 697 Q352 697 336.5 702 Q321 707 306 713.5 Q291 720 276 725 Q261 730 247 730 Q232 730 222.5 723 Q213 716 207 699 L188 701 Q193 753 213 771 Q233 789 260 789 Q275 789 290.5 784 Q306 779 321 772.5 Q336 766 351 761 Q366 756 380 756 Q395 756 404.5 763 Q414 770 420 787 L439 785 Q434 733 414 715 Q394 697 367 697 Z " />
<glyph glyph-name="Adieresis" unicode="&#xc4;" horiz-adv-x="631" d="M619 0 Q610 0 595.5 0.5 Q581 1 565 1.5 Q549 2 533.5 2.5 Q518 3 507 3 Q495 3 479 2.5 Q463 2 446.5 1.5 Q430 1 415 0.5 Q400 0 390 0 L390 20 L459 40 L388 224 L197 224 L139 74 Q137 69 136 65 Q135 61 135 56 Q135 45 144 40 Q153 35 167 30 Q189 23 207 20 L207 0 Q189 0 162.5 1.5 Q136 3 114 3 Q102 3 88 2.5 Q74 2 59.5 1.5 Q45 1 31.5 0.5 Q18 0 8 0 L8 20 L74 40 L300 625 L329 625 L542 76 Q551 53 560 44 Q569 35 586 30 L619 20 L619 0 Z M291 474 L210 261 L374 261 L291 474 Z M434 738 Q434 719 420 705 Q406 691 386 691 Q367 691 353 705 Q339 719 339 738 Q339 757 353 770.5 Q367 784 386 784 Q406 784 420 770.5 Q434 757 434 738 Z M279 738 Q279 719 265 705 Q251 691 232 691 Q212 691 198 705 Q184 719 184 738 Q184 757 198 770.5 Q212 784 232 784 Q251 784 265 770.5 Q279 757 279 738 Z " />
<glyph glyph-name="Amacron" unicode="&#x100;" horiz-adv-x="631" d="M619 0 Q610 0 595.5 0.5 Q581 1 565 1.5 Q549 2 533.5 2.5 Q518 3 507 3 Q495 3 479 2.5 Q463 2 446.5 1.5 Q430 1 415 0.5 Q400 0 390 0 L390 20 L459 40 L388 224 L197 224 L139 74 Q137 69 136 65 Q135 61 135 56 Q135 45 144 40 Q153 35 167 30 Q189 23 207 20 L207 0 Q189 0 162.5 1.5 Q136 3 114 3 Q102 3 88 2.5 Q74 2 59.5 1.5 Q45 1 31.5 0.5 Q18 0 8 0 L8 20 L74 40 L300 625 L329 625 L542 76 Q551 53 560 44 Q569 35 586 30 L619 20 L619 0 Z M291 474 L210 261 L374 261 L291 474 Z M201 700 L201 746 L426 746 L426 700 L201 700 Z " />
<glyph glyph-name="Abreve" unicode="&#x102;" horiz-adv-x="631" d="M619 0 Q610 0 595.5 0.5 Q581 1 565 1.5 Q549 2 533.5 2.5 Q518 3 507 3 Q495 3 479 2.5 Q463 2 446.5 1.5 Q430 1 415 0.5 Q400 0 390 0 L390 20 L459 40 L388 224 L197 224 L139 74 Q137 69 136 65 Q135 61 135 56 Q135 45 144 40 Q153 35 167 30 Q189 23 207 20 L207 0 Q189 0 162.5 1.5 Q136 3 114 3 Q102 3 88 2.5 Q74 2 59.5 1.5 Q45 1 31.5 0.5 Q18 0 8 0 L8 20 L74 40 L300 625 L329 625 L542 76 Q551 53 560 44 Q569 35 586 30 L619 20 L619 0 Z M291 474 L210 261 L374 261 L291 474 Z M314 676 Q262 676 233.5 704 Q205 732 205 784 L227 784 Q230 754 256 742.5 Q282 731 314 731 Q346 731 372 742.5 Q398 754 401 784 L423 784 Q423 732 394.5 704 Q366 676 314 676 Z " />
<glyph glyph-name="Acaron" unicode="&#x1cd;" horiz-adv-x="631" d="M619 0 Q610 0 595.5 0.5 Q581 1 565 1.5 Q549 2 533.5 2.5 Q518 3 507 3 Q495 3 479 2.5 Q463 2 446.5 1.5 Q430 1 415 0.5 Q400 0 390 0 L390 20 L459 40 L388 224 L197 224 L139 74 Q137 69 136 65 Q135 61 135 56 Q135 45 144 40 Q153 35 167 30 Q189 23 207 20 L207 0 Q189 0 162.5 1.5 Q136 3 114 3 Q102 3 88 2.5 Q74 2 59.5 1.5 Q45 1 31.5 0.5 Q18 0 8 0 L8 20 L74 40 L300 625 L329 625 L542 76 Q551 53 560 44 Q569 35 586 30 L619 20 L619 0 Z M291 474 L210 261 L374 261 L291 474 Z M430 781 L336 673 L291 673 L198 781 L209 791 L314 729 L419 791 L430 781 Z " />
<glyph glyph-name="Aring" unicode="&#xc5;" horiz-adv-x="631" d="M619 0 Q610 0 595.5 0.5 Q581 1 565 1.5 Q549 2 533.5 2.5 Q518 3 507 3 Q495 3 479 2.5 Q463 2 446.5 1.5 Q430 1 415 0.5 Q400 0 390 0 L390 20 L459 40 L388 224 L197 224 L139 74 Q137 69 136 65 Q135 61 135 56 Q135 45 144 40 Q153 35 167 30 Q189 23 207 20 L207 0 Q189 0 162.5 1.5 Q136 3 114 3 Q102 3 88 2.5 Q74 2 59.5 1.5 Q45 1 31.5 0.5 Q18 0 8 0 L8 20 L74 40 L300 625 L329 625 L542 76 Q551 53 560 44 Q569 35 586 30 L619 20 L619 0 Z M291 474 L210 261 L374 261 L291 474 Z M394 751 Q394 716 370 692 Q346 668 311 668 Q276 668 252 691.5 Q228 715 228 750 Q228 785 252 809 Q276 833 311 833 Q346 833 370 809.5 Q394 786 394 751 Z M354 751 Q354 773 341.5 785.5 Q329 798 311 798 Q293 798 280.5 785 Q268 772 268 750 Q268 728 280.5 715.5 Q293 703 311 703 Q329 703 341.5 716 Q354 729 354 751 Z " />
<glyph glyph-name="Aringacute" unicode="&#x1fa;" horiz-adv-x="631" d="M619 0 Q610 0 595.5 0.5 Q581 1 565 1.5 Q549 2 533.5 2.5 Q518 3 507 3 Q495 3 479 2.5 Q463 2 446.5 1.5 Q430 1 415 0.5 Q400 0 390 0 L390 20 L459 40 L388 224 L197 224 L139 74 Q137 69 136 65 Q135 61 135 56 Q135 45 144 40 Q153 35 167 30 Q189 23 207 20 L207 0 Q189 0 162.5 1.5 Q136 3 114 3 Q102 3 88 2.5 Q74 2 59.5 1.5 Q45 1 31.5 0.5 Q18 0 8 0 L8 20 L74 40 L300 625 L329 625 L542 76 Q551 53 560 44 Q569 35 586 30 L619 20 L619 0 Z M291 474 L210 261 L374 261 L291 474 Z M397 741 Q397 706 373 682 Q349 658 314 658 Q279 658 255 681.5 Q231 705 231 740 Q231 775 255 799 Q279 823 314 823 Q349 823 373 799.5 Q397 776 397 741 Z M357 741 Q357 763 344.5 775.5 Q332 788 314 788 Q296 788 283.5 775 Q271 762 271 740 Q271 718 283.5 705.5 Q296 693 314 693 Q332 693 344.5 706 Q357 719 357 741 Z M402 921 L226 830 L217 841 L337 962 Q347 972 354 972 Q361 972 368 965 L402 931 L402 921 Z " />
<glyph glyph-name="Aogonek" unicode="&#x104;" horiz-adv-x="631" d="M597 -203 Q581 -211 560 -216.5 Q539 -222 517 -222 Q468 -222 438 -197.5 Q408 -173 408 -128 Q408 -92 432.5 -57.5 Q457 -23 491 3 Q466 2 436.5 1 Q407 0 390 0 L390 20 L459 40 L388 224 L197 224 L139 74 Q137 69 136 65 Q135 61 135 56 Q135 45 144 40 Q153 35 167 30 Q178 27 188.5 24.5 Q199 22 207 20 L207 0 Q189 0 162.5 1.5 Q136 3 114 3 Q102 3 88 2.5 Q74 2 59.5 1.5 Q45 1 31.5 0.5 Q18 0 8 0 L8 20 L74 40 L301 625 L329 625 L540 76 Q549 53 559 43.5 Q569 34 586 29 L619 20 L619 0 Q605 0 580 1 Q555 2 532 3 Q506 -26 489 -57 Q472 -88 472 -123 Q472 -157 490 -172.5 Q508 -188 535 -188 Q549 -188 563.5 -185.5 Q578 -183 591 -179 L597 -203 Z M291 474 L210 261 L375 261 L291 474 Z " />
<glyph glyph-name="AE" unicode="&#xc6;" horiz-adv-x="848" d="M808 147 Q806 132 805 112 Q804 92 803 72 Q802 52 801.5 32.5 Q801 13 801 0 L349 0 L349 20 L413 40 L413 304 L257 304 L129 74 Q124 64 124 56 Q124 45 132.5 39 Q141 33 155 30 L195 20 L195 0 Q177 0 150.5 1.5 Q124 3 102 3 Q90 3 74.5 2.5 Q59 2 42.5 1.5 Q26 1 11 0.5 Q-4 0 -14 0 L-14 20 L56 41 L338 548 Q346 562 346 572 Q346 586 331 594 Q316 602 281 605 L281 625 L779 625 Q781 582 786.5 540 Q792 498 796 477 L770 477 Q762 507 750 529.5 Q738 552 722 563 Q705 575 677 581.5 Q649 588 596 588 L505 588 L505 341 L573 341 Q582 341 600.5 341.5 Q619 342 638.5 343 Q658 344 674.5 345 Q691 346 695 348 L690 298 Q685 299 669 300 Q653 301 634.5 302 Q616 303 598 303.5 Q580 304 573 304 L505 304 L505 78 Q505 52 527.5 45 Q550 38 608 38 Q643 38 666 39.5 Q689 41 704 43.5 Q719 46 728 49.5 Q737 53 743 58 Q760 70 769 92.5 Q778 115 786 147 L808 147 Z M413 584 L277 341 L413 341 L413 584 Z " />
<glyph glyph-name="AEacute" unicode="&#x1fc;" horiz-adv-x="848" d="M808 147 Q806 132 805 112 Q804 92 803 72 Q802 52 801.5 32.5 Q801 13 801 0 L349 0 L349 20 L413 40 L413 304 L257 304 L129 74 Q124 64 124 56 Q124 45 132.5 39 Q141 33 155 30 L195 20 L195 0 Q177 0 150.5 1.5 Q124 3 102 3 Q90 3 74.5 2.5 Q59 2 42.5 1.5 Q26 1 11 0.5 Q-4 0 -14 0 L-14 20 L56 41 L338 548 Q346 562 346 572 Q346 586 331 594 Q316 602 281 605 L281 625 L779 625 Q781 582 786.5 540 Q792 498 796 477 L770 477 Q762 507 750 529.5 Q738 552 722 563 Q705 575 677 581.5 Q649 588 596 588 L505 588 L505 341 L573 341 Q582 341 600.5 341.5 Q619 342 638.5 343 Q658 344 674.5 345 Q691 346 695 348 L690 298 Q685 299 669 300 Q653 301 634.5 302 Q616 303 598 303.5 Q580 304 573 304 L505 304 L505 78 Q505 52 527.5 45 Q550 38 608 38 Q643 38 666 39.5 Q689 41 704 43.5 Q719 46 728 49.5 Q737 53 743 58 Q760 70 769 92.5 Q778 115 786 147 L808 147 Z M413 584 L277 341 L413 341 L413 584 Z M650 740 L456 661 L450 673 L585 781 Q595 790 603 790 Q610 790 618 782 L650 750 L650 740 Z " />
<glyph glyph-name="Cacute" unicode="&#x106;" horiz-adv-x="572" d="M539 110 Q505 56 448 20.5 Q391 -15 314 -15 Q249 -15 198 9 Q147 33 112 76.5 Q77 120 58.5 180.5 Q40 241 40 314 Q40 392 63.5 453 Q87 514 127 555.5 Q167 597 220.5 618.5 Q274 640 333 640 Q387 640 430 631.5 Q473 623 506 620 Q507 606 508 584 Q509 562 510 538 Q511 514 512.5 492 Q514 470 516 457 L492 457 Q486 495 471.5 521.5 Q457 548 436.5 564.5 Q416 581 391 588.5 Q366 596 339 596 Q295 596 259 575.5 Q223 555 197.5 518 Q172 481 158 429 Q144 377 144 314 Q144 247 159 196 Q174 145 199.5 110.5 Q225 76 260 58 Q295 40 335 40 Q399 40 440.5 67 Q482 94 510 132 L539 110 L539 110 Z M424 740 L230 661 L224 673 L359 781 Q369 790 377 790 Q384 790 392 782 L424 750 L424 740 Z " />
<glyph glyph-name="Ccedilla" unicode="&#xc7;" horiz-adv-x="572" d="M408 -130 Q408 -148 397.5 -166 Q387 -184 366 -198.5 Q345 -213 314.5 -222 Q284 -231 244 -231 L238 -207 Q286 -203 315 -183.5 Q344 -164 344 -130 Q344 -108 328.5 -97 Q313 -86 284 -82 Q273 -80 270.5 -76.5 Q268 -73 270 -65 L286 -14 Q227 -9 181.5 17 Q136 43 104.5 86 Q73 129 56.5 187 Q40 245 40 314 Q40 392 63.5 453 Q87 514 127 555.5 Q167 597 220 618.5 Q273 640 333 640 Q387 640 430 631.5 Q473 623 506 620 Q507 606 508 584 Q509 562 510 538 Q511 514 512.5 492 Q514 470 516 457 L492 457 Q486 495 471.5 521.5 Q457 548 436.5 564.5 Q416 581 391 588.5 Q366 596 339 596 Q295 596 259 575.5 Q223 555 197.5 518 Q172 481 158 429 Q144 377 144 314 Q144 247 159 196 Q174 145 199.5 110.5 Q225 76 260 58 Q295 40 335 40 Q399 40 440.5 67 Q482 94 510 132 L539 110 Q507 58 453.5 24 Q400 -10 328 -14 L318 -49 Q358 -56 383 -77.5 Q408 -99 408 -130 Z " />
<glyph glyph-name="Ccircumflex" unicode="&#x108;" horiz-adv-x="572" d="M539 110 Q505 56 448 20.5 Q391 -15 314 -15 Q249 -15 198 9 Q147 33 112 76.5 Q77 120 58.5 180.5 Q40 241 40 314 Q40 392 63.5 453 Q87 514 127 555.5 Q167 597 220.5 618.5 Q274 640 333 640 Q387 640 430 631.5 Q473 623 506 620 Q507 606 508 584 Q509 562 510 538 Q511 514 512.5 492 Q514 470 516 457 L492 457 Q486 495 471.5 521.5 Q457 548 436.5 564.5 Q416 581 391 588.5 Q366 596 339 596 Q295 596 259 575.5 Q223 555 197.5 518 Q172 481 158 429 Q144 377 144 314 Q144 247 159 196 Q174 145 199.5 110.5 Q225 76 260 58 Q295 40 335 40 Q399 40 440.5 67 Q482 94 510 132 L539 110 L539 110 Z M437 673 L332 735 L227 673 L216 683 L309 791 L354 791 L448 683 L437 673 Z " />
<glyph glyph-name="Ccaron" unicode="&#x10c;" horiz-adv-x="572" d="M539 110 Q505 56 448 20.5 Q391 -15 314 -15 Q249 -15 198 9 Q147 33 112 76.5 Q77 120 58.5 180.5 Q40 241 40 314 Q40 392 63.5 453 Q87 514 127 555.5 Q167 597 220.5 618.5 Q274 640 333 640 Q387 640 430 631.5 Q473 623 506 620 Q507 606 508 584 Q509 562 510 538 Q511 514 512.5 492 Q514 470 516 457 L492 457 Q486 495 471.5 521.5 Q457 548 436.5 564.5 Q416 581 391 588.5 Q366 596 339 596 Q295 596 259 575.5 Q223 555 197.5 518 Q172 481 158 429 Q144 377 144 314 Q144 247 159 196 Q174 145 199.5 110.5 Q225 76 260 58 Q295 40 335 40 Q399 40 440.5 67 Q482 94 510 132 L539 110 L539 110 Z M453 781 L359 673 L314 673 L221 781 L232 791 L337 729 L442 791 L453 781 Z " />
<glyph glyph-name="Cdotaccent" unicode="&#x10a;" horiz-adv-x="572" d="M539 110 Q505 56 448 20.5 Q391 -15 314 -15 Q249 -15 198 9 Q147 33 112 76.5 Q77 120 58.5 180.5 Q40 241 40 314 Q40 392 63.5 453 Q87 514 127 555.5 Q167 597 220.5 618.5 Q274 640 333 640 Q387 640 430 631.5 Q473 623 506 620 Q507 606 508 584 Q509 562 510 538 Q511 514 512.5 492 Q514 470 516 457 L492 457 Q486 495 471.5 521.5 Q457 548 436.5 564.5 Q416 581 391 588.5 Q366 596 339 596 Q295 596 259 575.5 Q223 555 197.5 518 Q172 481 158 429 Q144 377 144 314 Q144 247 159 196 Q174 145 199.5 110.5 Q225 76 260 58 Q295 40 335 40 Q399 40 440.5 67 Q482 94 510 132 L539 110 L539 110 Z M387 746 Q387 724 371.5 707.5 Q356 691 334 691 Q312 691 296 707.5 Q280 724 280 746 Q280 768 296 783 Q312 798 334 798 Q356 798 371.5 783 Q387 768 387 746 Z " />
<glyph glyph-name="Dcaron" unicode="&#x10e;" horiz-adv-x="647" d="M249 625 Q426 625 517 547.5 Q608 470 608 309 Q608 254 592 194.5 Q576 135 536 87 Q503 48 446 24 Q389 0 304 0 L46 0 L46 20 L109 40 L109 551 Q109 579 93.5 588.5 Q78 598 42 605 L42 625 L249 625 Z M202 81 Q202 58 220 49 Q238 40 287 40 Q345 40 386.5 61 Q428 82 454.5 119 Q481 156 493 204.5 Q505 253 505 309 Q505 374 492 425 Q479 476 449 511 Q419 546 371 564.5 Q323 583 254 583 L202 583 L202 81 Z M438 811 L349 683 L304 683 L216 811 L230 820 L327 741 L424 820 L438 811 Z " />
<glyph glyph-name="Dcroat" unicode="&#x110;" horiz-adv-x="647" d="M249 625 Q426 625 517 547.5 Q608 470 608 309 Q608 254 592 194.5 Q576 135 536 87 Q503 48 446 24 Q389 0 304 0 L46 0 L46 20 L109 40 L109 299 L41 299 L41 342 L109 342 L109 551 Q109 579 93.5 588.5 Q78 598 42 605 L42 625 L249 625 Z M202 342 L310 342 L310 299 L202 299 L202 81 Q202 58 220 49 Q238 40 287 40 Q345 40 386.5 61 Q428 82 454.5 119 Q481 156 493 204.5 Q505 253 505 309 Q505 374 492 425 Q479 476 449 511 Q419 546 371 564.5 Q323 583 254 583 L202 583 L202 342 Z " />
<glyph glyph-name="Eth" unicode="&#xd0;" horiz-adv-x="647" d="M249 625 Q426 625 517 547.5 Q608 470 608 309 Q608 254 592 194.5 Q576 135 536 87 Q503 48 446 24 Q389 0 304 0 L46 0 L46 20 L109 40 L109 299 L41 299 L41 342 L109 342 L109 551 Q109 579 93.5 588.5 Q78 598 42 605 L42 625 L249 625 Z M202 342 L310 342 L310 299 L202 299 L202 81 Q202 58 220 49 Q238 40 287 40 Q345 40 386.5 61 Q428 82 454.5 119 Q481 156 493 204.5 Q505 253 505 309 Q505 374 492 425 Q479 476 449 511 Q419 546 371 564.5 Q323 583 254 583 L202 583 L202 342 Z " />
<glyph glyph-name="Egrave" unicode="&#xc8;" horiz-adv-x="545" d="M110 551 Q110 579 94.5 588.5 Q79 598 42 605 L42 625 L476 625 Q476 611 477.5 591 Q479 571 480.5 549.5 Q482 528 483.5 508.5 Q485 489 487 477 L463 477 Q458 504 448 527.5 Q438 551 422 562 Q405 574 376.5 580.5 Q348 587 296 587 Q279 587 259.5 587 Q240 587 202 585 L202 341 L270 341 Q279 341 297.5 341.5 Q316 342 335.5 343 Q355 344 371.5 345 Q388 346 392 348 L387 297 Q382 298 366 299 Q350 300 331.5 301 Q313 302 295 302.5 Q277 303 270 303 L202 303 L202 79 Q202 53 223.5 46 Q245 39 303 39 Q338 39 361.5 40.5 Q385 42 400 44.5 Q415 47 424.5 50.5 Q434 54 440 59 Q457 71 467 93 Q477 115 485 147 L505 147 Q504 134 503 114 Q502 94 501 72.5 Q500 51 499.5 31.5 Q499 12 499 0 L46 0 L46 20 L110 40 L110 551 Z M176 750 L208 782 Q216 790 223 790 Q230 790 241 781 L376 673 L370 661 L176 740 L176 750 Z " />
<glyph glyph-name="Eacute" unicode="&#xc9;" horiz-adv-x="545" d="M110 551 Q110 579 94.5 588.5 Q79 598 42 605 L42 625 L476 625 Q476 611 477.5 591 Q479 571 480.5 549.5 Q482 528 483.5 508.5 Q485 489 487 477 L463 477 Q458 504 448 527.5 Q438 551 422 562 Q405 574 376.5 580.5 Q348 587 296 587 Q279 587 259.5 587 Q240 587 202 585 L202 341 L270 341 Q279 341 297.5 341.5 Q316 342 335.5 343 Q355 344 371.5 345 Q388 346 392 348 L387 297 Q382 298 366 299 Q350 300 331.5 301 Q313 302 295 302.5 Q277 303 270 303 L202 303 L202 79 Q202 53 223.5 46 Q245 39 303 39 Q338 39 361.5 40.5 Q385 42 400 44.5 Q415 47 424.5 50.5 Q434 54 440 59 Q457 71 467 93 Q477 115 485 147 L505 147 Q504 134 503 114 Q502 94 501 72.5 Q500 51 499.5 31.5 Q499 12 499 0 L46 0 L46 20 L110 40 L110 551 Z M389 740 L195 661 L189 673 L324 781 Q334 790 342 790 Q349 790 357 782 L389 750 L389 740 Z " />
<glyph glyph-name="Ecircumflex" unicode="&#xca;" horiz-adv-x="545" d="M110 551 Q110 579 94.5 588.5 Q79 598 42 605 L42 625 L476 625 Q476 611 477.5 591 Q479 571 480.5 549.5 Q482 528 483.5 508.5 Q485 489 487 477 L463 477 Q458 504 448 527.5 Q438 551 422 562 Q405 574 376.5 580.5 Q348 587 296 587 Q279 587 259.5 587 Q240 587 202 585 L202 341 L270 341 Q279 341 297.5 341.5 Q316 342 335.5 343 Q355 344 371.5 345 Q388 346 392 348 L387 297 Q382 298 366 299 Q350 300 331.5 301 Q313 302 295 302.5 Q277 303 270 303 L202 303 L202 79 Q202 53 223.5 46 Q245 39 303 39 Q338 39 361.5 40.5 Q385 42 400 44.5 Q415 47 424.5 50.5 Q434 54 440 59 Q457 71 467 93 Q477 115 485 147 L505 147 Q504 134 503 114 Q502 94 501 72.5 Q500 51 499.5 31.5 Q499 12 499 0 L46 0 L46 20 L110 40 L110 551 Z M390 673 L285 735 L180 673 L169 683 L262 791 L307 791 L401 683 L390 673 Z " />
<glyph glyph-name="Ecaron" unicode="&#x11a;" horiz-adv-x="545" d="M110 551 Q110 579 94.5 588.5 Q79 598 42 605 L42 625 L476 625 Q476 611 477.5 591 Q479 571 480.5 549.5 Q482 528 483.5 508.5 Q485 489 487 477 L463 477 Q458 504 448 527.5 Q438 551 422 562 Q405 574 376.5 580.5 Q348 587 296 587 Q279 587 259.5 587 Q240 587 202 585 L202 341 L270 341 Q279 341 297.5 341.5 Q316 342 335.5 343 Q355 344 371.5 345 Q388 346 392 348 L387 297 Q382 298 366 299 Q350 300 331.5 301 Q313 302 295 302.5 Q277 303 270 303 L202 303 L202 79 Q202 53 223.5 46 Q245 39 303 39 Q338 39 361.5 40.5 Q385 42 400 44.5 Q415 47 424.5 50.5 Q434 54 440 59 Q457 71 467 93 Q477 115 485 147 L505 147 Q504 134 503 114 Q502 94 501 72.5 Q500 51 499.5 31.5 Q499 12 499 0 L46 0 L46 20 L110 40 L110 551 Z M413 781 L319 673 L274 673 L181 781 L192 791 L297 729 L402 791 L413 781 Z " />
<glyph glyph-name="Edieresis" unicode="&#xcb;" horiz-adv-x="545" d="M110 551 Q110 579 94.5 588.5 Q79 598 42 605 L42 625 L476 625 Q476 611 477.5 591 Q479 571 480.5 549.5 Q482 528 483.5 508.5 Q485 489 487 477 L463 477 Q458 504 448 527.5 Q438 551 422 562 Q405 574 376.5 580.5 Q348 587 296 587 Q279 587 259.5 587 Q240 587 202 585 L202 341 L270 341 Q279 341 297.5 341.5 Q316 342 335.5 343 Q355 344 371.5 345 Q388 346 392 348 L387 297 Q382 298 366 299 Q350 300 331.5 301 Q313 302 295 302.5 Q277 303 270 303 L202 303 L202 79 Q202 53 223.5 46 Q245 39 303 39 Q338 39 361.5 40.5 Q385 42 400 44.5 Q415 47 424.5 50.5 Q434 54 440 59 Q457 71 467 93 Q477 115 485 147 L505 147 Q504 134 503 114 Q502 94 501 72.5 Q500 51 499.5 31.5 Q499 12 499 0 L46 0 L46 20 L110 40 L110 551 Z M407 738 Q407 719 393 705 Q379 691 359 691 Q340 691 326 705 Q312 719 312 738 Q312 757 326 770.5 Q340 784 359 784 Q379 784 393 770.5 Q407 757 407 738 Z M252 738 Q252 719 238 705 Q224 691 205 691 Q185 691 171 705 Q157 719 157 738 Q157 757 171 770.5 Q185 784 205 784 Q224 784 238 770.5 Q252 757 252 738 Z " />
<glyph glyph-name="Emacron" unicode="&#x112;" horiz-adv-x="545" d="M110 551 Q110 579 94.5 588.5 Q79 598 42 605 L42 625 L476 625 Q476 611 477.5 591 Q479 571 480.5 549.5 Q482 528 483.5 508.5 Q485 489 487 477 L463 477 Q458 504 448 527.5 Q438 551 422 562 Q405 574 376.5 580.5 Q348 587 296 587 Q279 587 259.5 587 Q240 587 202 585 L202 341 L270 341 Q279 341 297.5 341.5 Q316 342 335.5 343 Q355 344 371.5 345 Q388 346 392 348 L387 297 Q382 298 366 299 Q350 300 331.5 301 Q313 302 295 302.5 Q277 303 270 303 L202 303 L202 79 Q202 53 223.5 46 Q245 39 303 39 Q338 39 361.5 40.5 Q385 42 400 44.5 Q415 47 424.5 50.5 Q434 54 440 59 Q457 71 467 93 Q477 115 485 147 L505 147 Q504 134 503 114 Q502 94 501 72.5 Q500 51 499.5 31.5 Q499 12 499 0 L46 0 L46 20 L110 40 L110 551 Z M164 700 L164 746 L389 746 L389 700 L164 700 Z " />
<glyph glyph-name="Ebreve" unicode="&#x114;" horiz-adv-x="545" d="M110 551 Q110 579 94.5 588.5 Q79 598 42 605 L42 625 L476 625 Q476 611 477.5 591 Q479 571 480.5 549.5 Q482 528 483.5 508.5 Q485 489 487 477 L463 477 Q458 504 448 527.5 Q438 551 422 562 Q405 574 376.5 580.5 Q348 587 296 587 Q279 587 259.5 587 Q240 587 202 585 L202 341 L270 341 Q279 341 297.5 341.5 Q316 342 335.5 343 Q355 344 371.5 345 Q388 346 392 348 L387 297 Q382 298 366 299 Q350 300 331.5 301 Q313 302 295 302.5 Q277 303 270 303 L202 303 L202 79 Q202 53 223.5 46 Q245 39 303 39 Q338 39 361.5 40.5 Q385 42 400 44.5 Q415 47 424.5 50.5 Q434 54 440 59 Q457 71 467 93 Q477 115 485 147 L505 147 Q504 134 503 114 Q502 94 501 72.5 Q500 51 499.5 31.5 Q499 12 499 0 L46 0 L46 20 L110 40 L110 551 Z M277 676 Q225 676 196.5 704 Q168 732 168 784 L190 784 Q193 754 219 742.5 Q245 731 277 731 Q309 731 335 742.5 Q361 754 364 784 L386 784 Q386 732 357.5 704 Q329 676 277 676 Z " />
<glyph glyph-name="Edotaccent" unicode="&#x116;" horiz-adv-x="545" d="M110 551 Q110 579 94.5 588.5 Q79 598 42 605 L42 625 L476 625 Q476 611 477.5 591 Q479 571 480.5 549.5 Q482 528 483.5 508.5 Q485 489 487 477 L463 477 Q458 504 448 527.5 Q438 551 422 562 Q405 574 376.5 580.5 Q348 587 296 587 Q279 587 259.5 587 Q240 587 202 585 L202 341 L270 341 Q279 341 297.5 341.5 Q316 342 335.5 343 Q355 344 371.5 345 Q388 346 392 348 L387 297 Q382 298 366 299 Q350 300 331.5 301 Q313 302 295 302.5 Q277 303 270 303 L202 303 L202 79 Q202 53 223.5 46 Q245 39 303 39 Q338 39 361.5 40.5 Q385 42 400 44.5 Q415 47 424.5 50.5 Q434 54 440 59 Q457 71 467 93 Q477 115 485 147 L505 147 Q504 134 503 114 Q502 94 501 72.5 Q500 51 499.5 31.5 Q499 12 499 0 L46 0 L46 20 L110 40 L110 551 Z M335 746 Q335 724 319.5 707.5 Q304 691 282 691 Q260 691 244 707.5 Q228 724 228 746 Q228 768 244 783 Q260 798 282 798 Q304 798 319.5 783 Q335 768 335 746 Z " />
<glyph glyph-name="Eogonek" unicode="&#x118;" horiz-adv-x="545" d="M497 -203 Q481 -211 460 -216.5 Q439 -222 417 -222 Q368 -222 338 -197.5 Q308 -173 308 -128 Q308 -93 331.5 -59.5 Q355 -26 391 0 L46 0 L46 20 L110 40 L110 551 Q110 579 94.5 588.5 Q79 598 42 605 L42 625 L476 625 Q476 611 477.5 591 Q479 571 480.5 549.5 Q482 528 483.5 508.5 Q485 489 487 477 L463 477 Q458 504 448 527.5 Q438 551 422 562 Q405 574 376.5 581 Q348 588 296 587 L276 587 Q265 587 247 586.5 Q229 586 202 585 L202 341 L270 341 Q279 341 297.5 341.5 Q316 342 335.5 343 Q355 344 371.5 345 Q388 346 392 348 L387 297 Q382 298 366 299 Q350 300 331.5 301 Q313 302 295 302.5 Q277 303 270 303 L202 303 L202 79 Q202 53 224.5 46 Q247 39 305 39 Q340 39 363 40.5 Q386 42 401 44.5 Q416 47 425 50.5 Q434 54 440 59 Q457 71 466 93 Q475 115 483 147 L505 147 Q504 134 503 114 Q502 94 501 72.5 Q500 51 499.5 31.5 Q499 12 499 0 L433 0 Q405 -26 388.5 -60 Q372 -94 372 -125 Q372 -157 390 -172.5 Q408 -188 435 -188 Q449 -188 463.5 -185.5 Q478 -183 491 -179 L497 -203 Z " />
<glyph glyph-name="Gcircumflex" unicode="&#x11c;" horiz-adv-x="654" d="M392 275 Q401 275 415.5 274.5 Q430 274 446.5 273.5 Q463 273 478.5 272.5 Q494 272 505 272 Q517 272 532.5 272.5 Q548 273 563.5 273.5 Q579 274 593.5 274.5 Q608 275 618 275 L618 255 Q585 248 567.5 234.5 Q550 221 550 184 L550 35 Q532 26 507.5 17 Q483 8 455.5 1 Q428 -6 398 -10.5 Q368 -15 340 -15 Q275 -15 221.5 4.5 Q168 24 130 61 Q86 104 63 168 Q40 232 40 316 Q40 386 63.5 445.5 Q87 505 129 548 Q171 591 229.5 615.5 Q288 640 358 640 Q406 640 452.5 631 Q499 622 529 618 Q530 586 533 540.5 Q536 495 540 457 L515 457 Q506 531 465.5 563.5 Q425 596 356 596 Q313 596 274.5 577.5 Q236 559 207 524 Q178 489 161 437 Q144 385 144 318 Q144 240 161.5 185 Q179 130 208 95.5 Q237 61 274.5 45 Q312 29 352 29 Q405 29 432 48.5 Q459 68 459 113 L459 234 L392 255 L392 275 Z M444 673 L339 735 L234 673 L223 683 L316 791 L361 791 L455 683 L444 673 Z " />
<glyph glyph-name="Gbreve" unicode="&#x11e;" horiz-adv-x="654" d="M392 275 Q401 275 415.5 274.5 Q430 274 446.5 273.5 Q463 273 478.5 272.5 Q494 272 505 272 Q517 272 532.5 272.5 Q548 273 563.5 273.5 Q579 274 593.5 274.5 Q608 275 618 275 L618 255 Q585 248 567.5 234.5 Q550 221 550 184 L550 35 Q532 26 507.5 17 Q483 8 455.5 1 Q428 -6 398 -10.5 Q368 -15 340 -15 Q275 -15 221.5 4.5 Q168 24 130 61 Q86 104 63 168 Q40 232 40 316 Q40 386 63.5 445.5 Q87 505 129 548 Q171 591 229.5 615.5 Q288 640 358 640 Q406 640 452.5 631 Q499 622 529 618 Q530 586 533 540.5 Q536 495 540 457 L515 457 Q506 531 465.5 563.5 Q425 596 356 596 Q313 596 274.5 577.5 Q236 559 207 524 Q178 489 161 437 Q144 385 144 318 Q144 240 161.5 185 Q179 130 208 95.5 Q237 61 274.5 45 Q312 29 352 29 Q405 29 432 48.5 Q459 68 459 113 L459 234 L392 255 L392 275 Z M344 676 Q292 676 263.5 704 Q235 732 235 784 L257 784 Q260 754 286 742.5 Q312 731 344 731 Q376 731 402 742.5 Q428 754 431 784 L453 784 Q453 732 424.5 704 Q396 676 344 676 Z " />
<glyph glyph-name="Gdotaccent" unicode="&#x120;" horiz-adv-x="654" d="M392 275 Q401 275 415.5 274.5 Q430 274 446.5 273.5 Q463 273 478.5 272.5 Q494 272 505 272 Q517 272 532.5 272.5 Q548 273 563.5 273.5 Q579 274 593.5 274.5 Q608 275 618 275 L618 255 Q585 248 567.5 234.5 Q550 221 550 184 L550 35 Q532 26 507.5 17 Q483 8 455.5 1 Q428 -6 398 -10.5 Q368 -15 340 -15 Q275 -15 221.5 4.5 Q168 24 130 61 Q86 104 63 168 Q40 232 40 316 Q40 386 63.5 445.5 Q87 505 129 548 Q171 591 229.5 615.5 Q288 640 358 640 Q406 640 452.5 631 Q499 622 529 618 Q530 586 533 540.5 Q536 495 540 457 L515 457 Q506 531 465.5 563.5 Q425 596 356 596 Q313 596 274.5 577.5 Q236 559 207 524 Q178 489 161 437 Q144 385 144 318 Q144 240 161.5 185 Q179 130 208 95.5 Q237 61 274.5 45 Q312 29 352 29 Q405 29 432 48.5 Q459 68 459 113 L459 234 L392 255 L392 275 Z M405 746 Q405 724 389.5 707.5 Q374 691 352 691 Q330 691 314 707.5 Q298 724 298 746 Q298 768 314 783 Q330 798 352 798 Q374 798 389.5 783 Q405 768 405 746 Z " />
<glyph glyph-name="Gcommaaccent" unicode="&#x122;" horiz-adv-x="654" d="M392 275 Q401 275 415.5 274.5 Q430 274 446.5 273.5 Q463 273 478.5 272.5 Q494 272 505 272 Q517 272 532.5 272.5 Q548 273 563.5 273.5 Q579 274 593.5 274.5 Q608 275 618 275 L618 255 Q585 248 567.5 234.5 Q550 221 550 184 L550 35 Q532 26 507.5 17 Q483 8 455.5 1 Q428 -6 398 -10.5 Q368 -15 340 -15 Q275 -15 221.5 4.5 Q168 24 130 61 Q86 104 63 168 Q40 232 40 316 Q40 386 63.5 445.5 Q87 505 129 548 Q171 591 229.5 615.5 Q288 640 358 640 Q406 640 452.5 631 Q499 622 529 618 Q530 586 533 540.5 Q536 495 540 457 L515 457 Q506 531 465.5 563.5 Q425 596 356 596 Q313 596 274.5 577.5 Q236 559 207 524 Q178 489 161 437 Q144 385 144 318 Q144 240 161.5 185 Q179 130 208 95.5 Q237 61 274.5 45 Q312 29 352 29 Q405 29 432 48.5 Q459 68 459 113 L459 234 L392 255 L392 275 Z M394 -120 Q394 -138 390.5 -156.5 Q387 -175 378.5 -192.5 Q370 -210 355.5 -225.5 Q341 -241 318 -253 L309 -239 Q326 -228 338 -208.5 Q350 -189 350 -166 Q350 -147 342 -137.5 Q334 -128 324 -121 Q314 -114 306 -107 Q298 -100 298 -86 Q298 -71 309.5 -61 Q321 -51 339 -51 Q352 -51 362.5 -57.5 Q373 -64 380 -74 Q387 -84 390.5 -96 Q394 -108 394 -120 Z " />
<glyph glyph-name="Hcircumflex" unicode="&#x124;" horiz-adv-x="706" d="M664 0 Q655 0 641.5 0.5 Q628 1 613 1.5 Q598 2 583.5 2.5 Q569 3 558 3 Q546 3 530 2.5 Q514 2 497.5 1.5 Q481 1 466 0.5 Q451 0 441 0 L441 20 L505 40 L505 299 L202 299 L202 76 Q202 53 209 44 Q216 35 230 30 Q240 27 251 24.5 Q262 22 269 20 L269 0 Q260 0 246 0.5 Q232 1 216.5 1.5 Q201 2 186 2.5 Q171 3 160 3 Q148 3 132.5 2.5 Q117 2 101 1.5 Q85 1 70.5 0.5 Q56 0 46 0 L46 20 L110 40 L110 547 Q110 570 103 579.5 Q96 589 82 594 Q72 597 60.5 600 Q49 603 42 605 L42 625 Q51 625 65 624.5 Q79 624 94 623.5 Q109 623 123.5 622.5 Q138 622 149 622 Q161 622 176.5 622.5 Q192 623 208 623.5 Q224 624 238.5 624.5 Q253 625 263 625 L263 605 L202 584 L202 342 L505 342 L505 547 Q505 570 498 579.5 Q491 589 477 594 Q467 597 455.5 600 Q444 603 437 605 L437 625 Q446 625 460 624.5 Q474 624 489 623.5 Q504 623 518.5 622.5 Q533 622 544 622 Q556 622 571.5 622.5 Q587 623 603 623.5 Q619 624 633.5 624.5 Q648 625 658 625 L658 605 L597 584 L597 76 Q597 53 604 44 Q611 35 625 30 Q635 27 646 24.5 Q657 22 664 20 L664 0 L664 0 Z M458 673 L353 735 L248 673 L237 683 L330 791 L375 791 L469 683 L458 673 Z " />
<glyph glyph-name="Hbar" unicode="&#x126;" horiz-adv-x="706" d="M597 452 L597 76 Q597 53 604 44 Q611 35 625 30 Q635 27 646 24.5 Q657 22 664 20 L664 0 Q655 0 641.5 0.5 Q628 1 613 1.5 Q598 2 583.5 2.5 Q569 3 558 3 Q546 3 530 2.5 Q514 2 497.5 1.5 Q481 1 466 0.5 Q451 0 441 0 L441 20 L505 40 L505 299 L202 299 L202 76 Q202 53 209 44 Q216 35 230 30 Q240 27 251 24.5 Q262 22 269 20 L269 0 Q260 0 246 0.5 Q232 1 216.5 1.5 Q201 2 186 2.5 Q171 3 160 3 Q148 3 132.5 2.5 Q117 2 101 1.5 Q85 1 70.5 0.5 Q56 0 46 0 L46 20 L110 40 L110 452 L28 452 L28 493 L110 493 L110 547 Q110 570 103 579.5 Q96 589 82 594 L42 605 L42 625 Q51 625 65 624.5 Q79 624 94 623.5 Q109 623 123.5 622.5 Q138 622 149 622 Q161 622 176.5 622.5 Q192 623 208 623.5 Q224 624 238.5 624.5 Q253 625 263 625 L263 605 L202 584 L202 493 L505 493 L505 547 Q505 570 498 579.5 Q491 589 477 594 L437 605 L437 625 Q446 625 460 624.5 Q474 624 489 623.5 Q504 623 518.5 622.5 Q533 622 544 622 Q556 622 571.5 622.5 Q587 623 603 623.5 Q619 624 633.5 624.5 Q648 625 658 625 L658 605 L597 584 L597 493 L679 493 L679 452 L597 452 Z M505 342 L505 452 L202 452 L202 342 L505 342 Z " />
<glyph glyph-name="Igrave" unicode="&#xcc;" horiz-adv-x="317" d="M272 0 Q263 0 249 0.5 Q235 1 219.5 1.5 Q204 2 189 2.5 Q174 3 163 3 Q151 3 135.5 2.5 Q120 2 104 1.5 Q88 1 73.5 0.5 Q59 0 49 0 L49 20 L113 40 L113 547 Q113 570 106 579.5 Q99 589 85 594 Q75 597 63.5 600 Q52 603 45 605 L45 625 Q54 625 68 624.5 Q82 624 97 623.5 Q112 623 126.5 622.5 Q141 622 152 622 Q164 622 179.5 622.5 Q195 623 211 623.5 Q227 624 241.5 624.5 Q256 625 266 625 L266 605 L205 584 L205 76 Q205 53 212 44 Q219 35 233 30 Q243 27 254 24.5 Q265 22 272 20 L272 0 L272 0 Z M60 750 L92 782 Q100 790 107 790 Q114 790 125 781 L260 673 L254 661 L60 740 L60 750 Z " />
<glyph glyph-name="Iacute" unicode="&#xcd;" horiz-adv-x="317" d="M272 0 Q263 0 249 0.5 Q235 1 219.5 1.5 Q204 2 189 2.5 Q174 3 163 3 Q151 3 135.5 2.5 Q120 2 104 1.5 Q88 1 73.5 0.5 Q59 0 49 0 L49 20 L113 40 L113 547 Q113 570 106 579.5 Q99 589 85 594 Q75 597 63.5 600 Q52 603 45 605 L45 625 Q54 625 68 624.5 Q82 624 97 623.5 Q112 623 126.5 622.5 Q141 622 152 622 Q164 622 179.5 622.5 Q195 623 211 623.5 Q227 624 241.5 624.5 Q256 625 266 625 L266 605 L205 584 L205 76 Q205 53 212 44 Q219 35 233 30 Q243 27 254 24.5 Q265 22 272 20 L272 0 L272 0 Z M250 740 L56 661 L50 673 L185 781 Q195 790 203 790 Q210 790 218 782 L250 750 L250 740 Z " />
<glyph glyph-name="Icircumflex" unicode="&#xce;" horiz-adv-x="317" d="M272 0 Q263 0 249 0.5 Q235 1 219.5 1.5 Q204 2 189 2.5 Q174 3 163 3 Q151 3 135.5 2.5 Q120 2 104 1.5 Q88 1 73.5 0.5 Q59 0 49 0 L49 20 L113 40 L113 547 Q113 570 106 579.5 Q99 589 85 594 Q75 597 63.5 600 Q52 603 45 605 L45 625 Q54 625 68 624.5 Q82 624 97 623.5 Q112 623 126.5 622.5 Q141 622 152 622 Q164 622 179.5 622.5 Q195 623 211 623.5 Q227 624 241.5 624.5 Q256 625 266 625 L266 605 L205 584 L205 76 Q205 53 212 44 Q219 35 233 30 Q243 27 254 24.5 Q265 22 272 20 L272 0 L272 0 Z M263 673 L158 735 L53 673 L42 683 L135 791 L180 791 L274 683 L263 673 Z " />
<glyph glyph-name="Itilde" unicode="&#x128;" horiz-adv-x="317" d="M272 0 Q263 0 249 0.5 Q235 1 219.5 1.5 Q204 2 189 2.5 Q174 3 163 3 Q151 3 135.5 2.5 Q120 2 104 1.5 Q88 1 73.5 0.5 Q59 0 49 0 L49 20 L113 40 L113 547 Q113 570 106 579.5 Q99 589 85 594 Q75 597 63.5 600 Q52 603 45 605 L45 625 Q54 625 68 624.5 Q82 624 97 623.5 Q112 623 126.5 622.5 Q141 622 152 622 Q164 622 179.5 622.5 Q195 623 211 623.5 Q227 624 241.5 624.5 Q256 625 266 625 L266 605 L205 584 L205 76 Q205 53 212 44 Q219 35 233 30 Q243 27 254 24.5 Q265 22 272 20 L272 0 L272 0 Z M212 697 Q197 697 181.5 702 Q166 707 151 713.5 Q136 720 121 725 Q106 730 92 730 Q77 730 67.5 723 Q58 716 52 699 L33 701 Q38 753 58 771 Q78 789 105 789 Q120 789 135.5 784 Q151 779 166 772.5 Q181 766 196 761 Q211 756 225 756 Q240 756 249.5 763 Q259 770 265 787 L284 785 Q279 733 259 715 Q239 697 212 697 Z " />
<glyph glyph-name="Idieresis" unicode="&#xcf;" horiz-adv-x="317" d="M272 0 Q263 0 249 0.5 Q235 1 219.5 1.5 Q204 2 189 2.5 Q174 3 163 3 Q151 3 135.5 2.5 Q120 2 104 1.5 Q88 1 73.5 0.5 Q59 0 49 0 L49 20 L113 40 L113 547 Q113 570 106 579.5 Q99 589 85 594 Q75 597 63.5 600 Q52 603 45 605 L45 625 Q54 625 68 624.5 Q82 624 97 623.5 Q112 623 126.5 622.5 Q141 622 152 622 Q164 622 179.5 622.5 Q195 623 211 623.5 Q227 624 241.5 624.5 Q256 625 266 625 L266 605 L205 584 L205 76 Q205 53 212 44 Q219 35 233 30 Q243 27 254 24.5 Q265 22 272 20 L272 0 L272 0 Z M283 738 Q283 719 269 705 Q255 691 235 691 Q216 691 202 705 Q188 719 188 738 Q188 757 202 770.5 Q216 784 235 784 Q255 784 269 770.5 Q283 757 283 738 Z M128 738 Q128 719 114 705 Q100 691 81 691 Q61 691 47 705 Q33 719 33 738 Q33 757 47 770.5 Q61 784 81 784 Q100 784 114 770.5 Q128 757 128 738 Z " />
<glyph glyph-name="Imacron" unicode="&#x12a;" horiz-adv-x="317" d="M272 0 Q263 0 249 0.5 Q235 1 219.5 1.5 Q204 2 189 2.5 Q174 3 163 3 Q151 3 135.5 2.5 Q120 2 104 1.5 Q88 1 73.5 0.5 Q59 0 49 0 L49 20 L113 40 L113 547 Q113 570 106 579.5 Q99 589 85 594 Q75 597 63.5 600 Q52 603 45 605 L45 625 Q54 625 68 624.5 Q82 624 97 623.5 Q112 623 126.5 622.5 Q141 622 152 622 Q164 622 179.5 622.5 Q195 623 211 623.5 Q227 624 241.5 624.5 Q256 625 266 625 L266 605 L205 584 L205 76 Q205 53 212 44 Q219 35 233 30 Q243 27 254 24.5 Q265 22 272 20 L272 0 L272 0 Z M46 700 L46 746 L271 746 L271 700 L46 700 Z " />
<glyph glyph-name="Ibreve" unicode="&#x12c;" horiz-adv-x="317" d="M272 0 Q263 0 249 0.5 Q235 1 219.5 1.5 Q204 2 189 2.5 Q174 3 163 3 Q151 3 135.5 2.5 Q120 2 104 1.5 Q88 1 73.5 0.5 Q59 0 49 0 L49 20 L113 40 L113 547 Q113 570 106 579.5 Q99 589 85 594 Q75 597 63.5 600 Q52 603 45 605 L45 625 Q54 625 68 624.5 Q82 624 97 623.5 Q112 623 126.5 622.5 Q141 622 152 622 Q164 622 179.5 622.5 Q195 623 211 623.5 Q227 624 241.5 624.5 Q256 625 266 625 L266 605 L205 584 L205 76 Q205 53 212 44 Q219 35 233 30 Q243 27 254 24.5 Q265 22 272 20 L272 0 L272 0 Z M158 676 Q106 676 77.5 704 Q49 732 49 784 L71 784 Q74 754 100 742.5 Q126 731 158 731 Q190 731 216 742.5 Q242 754 245 784 L267 784 Q267 732 238.5 704 Q210 676 158 676 Z " />
<glyph glyph-name="Idotaccent" unicode="&#x130;" horiz-adv-x="317" d="M272 0 Q263 0 249 0.5 Q235 1 219.5 1.5 Q204 2 189 2.5 Q174 3 163 3 Q151 3 135.5 2.5 Q120 2 104 1.5 Q88 1 73.5 0.5 Q59 0 49 0 L49 20 L113 40 L113 547 Q113 570 106 579.5 Q99 589 85 594 Q75 597 63.5 600 Q52 603 45 605 L45 625 Q54 625 68 624.5 Q82 624 97 623.5 Q112 623 126.5 622.5 Q141 622 152 622 Q164 622 179.5 622.5 Q195 623 211 623.5 Q227 624 241.5 624.5 Q256 625 266 625 L266 605 L205 584 L205 76 Q205 53 212 44 Q219 35 233 30 Q243 27 254 24.5 Q265 22 272 20 L272 0 L272 0 Z M212 746 Q212 724 196.5 707.5 Q181 691 159 691 Q137 691 121 707.5 Q105 724 105 746 Q105 768 121 783 Q137 798 159 798 Q181 798 196.5 783 Q212 768 212 746 Z " />
<glyph glyph-name="Iogonek" unicode="&#x12e;" horiz-adv-x="317" d="M256 -203 Q240 -211 219 -216.5 Q198 -222 176 -222 Q127 -222 97 -197.5 Q67 -173 67 -128 Q67 -93 89 -58 Q111 -23 146 3 Q122 2 94 1 Q66 0 49 0 L49 20 L113 40 L113 547 Q113 570 106 579.5 Q99 589 85 594 L45 605 L45 625 Q54 625 68 624.5 Q82 624 97 623.5 Q112 623 126.5 622.5 Q141 622 152 622 Q164 622 179.5 622.5 Q195 623 211 623.5 Q227 624 241.5 624.5 Q256 625 266 625 L266 605 L205 584 L205 76 Q205 53 212 44 Q219 35 233 30 Q243 27 254 24.5 Q265 22 272 20 L272 0 Q258 0 233 1 Q208 2 185 3 Q158 -25 144.5 -59 Q131 -93 131 -125 Q131 -157 149 -172.5 Q167 -188 194 -188 Q208 -188 222.5 -185.5 Q237 -183 250 -179 L256 -203 Z " />
<glyph glyph-name="IJ" unicode="&#x132;" horiz-adv-x="626" d="M272 0 Q263 0 249 0.5 Q235 1 219.5 1.5 Q204 2 189 2.5 Q174 3 163 3 Q151 3 135.5 2.5 Q120 2 104 1.5 Q88 1 73.5 0.5 Q59 0 49 0 L49 20 L113 40 L113 547 Q113 570 106 579.5 Q99 589 85 594 Q75 597 63.5 600 Q52 603 45 605 L45 625 Q54 625 68 624.5 Q82 624 97 623.5 Q112 623 126.5 622.5 Q141 622 152 622 Q164 622 179.5 622.5 Q195 623 211 623.5 Q227 624 241.5 624.5 Q256 625 266 625 L266 605 L205 584 L205 76 Q205 53 212 44 Q219 35 233 30 Q243 27 254 24.5 Q265 22 272 20 L272 0 L272 0 Z M518 584 L518 85 Q518 35 511.5 -13.5 Q505 -62 484.5 -102.5 Q464 -143 426.5 -173 Q389 -203 327 -217 L317 -188 Q349 -175 370 -153 Q391 -131 403.5 -98.5 Q416 -66 421 -22 Q426 22 426 80 L426 547 Q426 565 420.5 575 Q415 585 406 590.5 Q397 596 384.5 598.5 Q372 601 358 605 L358 625 Q385 625 411.5 623.5 Q438 622 465 622 Q494 622 522 623.5 Q550 625 579 625 L579 605 L518 584 Z " />
<glyph glyph-name="Jcircumflex" unicode="&#x134;" horiz-adv-x="309" d="M201 584 L201 85 Q201 35 194.5 -13.5 Q188 -62 167.5 -102.5 Q147 -143 109.5 -173 Q72 -203 10 -217 L0 -188 Q32 -175 53 -153 Q74 -131 86.5 -98.5 Q99 -66 104 -22 Q109 22 109 80 L109 547 Q109 565 103.5 575 Q98 585 89 590.5 Q80 596 67.5 598.5 Q55 601 41 605 L41 625 Q68 625 94.5 623.5 Q121 622 148 622 Q177 622 205 623.5 Q233 625 262 625 L262 605 L201 584 Z M259 673 L154 735 L49 673 L38 683 L131 791 L176 791 L270 683 L259 673 Z " />
<glyph glyph-name="Kcommaaccent" unicode="&#x136;" horiz-adv-x="592" d="M413 0 Q413 22 406.5 37.5 Q400 53 389 70 L247 301 L202 245 L202 76 Q202 53 209 43.5 Q216 34 230 30 L269 20 L269 0 Q260 0 245.5 0.5 Q231 1 215.5 1.5 Q200 2 184.5 2.5 Q169 3 158 3 Q146 3 131 2.5 Q116 2 100 1.5 Q84 1 70 0.5 Q56 0 46 0 L46 20 L110 40 L110 547 Q110 570 103 580 Q96 590 82 595 Q72 598 60.5 600.5 Q49 603 42 605 L42 625 Q51 625 65.5 624.5 Q80 624 96 623.5 Q112 623 127.5 622.5 Q143 622 154 622 Q166 622 180.5 622.5 Q195 623 210 623.5 Q225 624 239 624.5 Q253 625 263 625 L263 605 L202 584 L202 311 L432 590 L371 605 L371 625 Q381 625 395 624 Q409 623 424 622.5 Q439 622 452.5 621.5 Q466 621 476 621 Q488 621 502 621.5 Q516 622 529.5 622.5 Q543 623 554 624 Q565 625 572 625 L572 605 Q545 601 527 596 Q509 591 494.5 583 Q480 575 468 563.5 Q456 552 443 536 L307 373 L466 118 Q482 91 495 73.5 Q508 56 520.5 45.5 Q533 35 547.5 29 Q562 23 582 20 L582 0 L413 0 Z M371 -120 Q371 -138 367.5 -156.5 Q364 -175 355.5 -192.5 Q347 -210 332.5 -225.5 Q318 -241 295 -253 L286 -239 Q303 -228 315 -208.5 Q327 -189 327 -166 Q327 -147 319 -137.5 Q311 -128 301 -121 Q291 -114 283 -107 Q275 -100 275 -86 Q275 -71 286.5 -61 Q298 -51 316 -51 Q329 -51 339.5 -57.5 Q350 -64 357 -74 Q364 -84 367.5 -96 Q371 -108 371 -120 Z " />
<glyph glyph-name="Lacute" unicode="&#x139;" horiz-adv-x="515" d="M496 147 Q495 133 493.5 113.5 Q492 94 491 73 Q490 52 489.5 32.5 Q489 13 489 0 L46 0 L46 20 L110 40 L110 547 Q110 570 103 579.5 Q96 589 82 594 Q72 597 60.5 600 Q49 603 42 605 L42 625 Q51 625 65 624.5 Q79 624 94 623.5 Q109 623 123.5 622.5 Q138 622 149 622 Q161 622 176.5 622.5 Q192 623 208 623.5 Q224 624 238.5 624.5 Q253 625 263 625 L263 605 L202 584 L202 79 Q202 53 224 46 Q246 39 304 39 Q339 39 362 40 Q385 41 399 43 Q413 45 421.5 48.5 Q430 52 436 58 Q449 69 458.5 92 Q468 115 476 147 L496 147 L496 147 Z M253 740 L59 661 L53 673 L188 781 Q198 790 206 790 Q213 790 221 782 L253 750 L253 740 Z " />
<glyph glyph-name="Lcaron" unicode="&#x13d;" horiz-adv-x="515" d="M496 147 Q495 133 493.5 113.5 Q492 94 491 73 Q490 52 489.5 32.5 Q489 13 489 0 L46 0 L46 20 L110 40 L110 547 Q110 570 103 579.5 Q96 589 82 594 Q72 597 60.5 600 Q49 603 42 605 L42 625 Q51 625 65 624.5 Q79 624 94 623.5 Q109 623 123.5 622.5 Q138 622 149 622 Q161 622 176.5 622.5 Q192 623 208 623.5 Q224 624 238.5 624.5 Q253 625 263 625 L263 605 L202 584 L202 79 Q202 53 224 46 Q246 39 304 39 Q339 39 362 40 Q385 41 399 43 Q413 45 421.5 48.5 Q430 52 436 58 Q449 69 458.5 92 Q468 115 476 147 L496 147 L496 147 Z M400 583 Q400 565 396.5 546.5 Q393 528 384.5 510.5 Q376 493 361.5 477.5 Q347 462 324 450 L315 464 Q332 475 344 494.5 Q356 514 356 537 Q356 556 348 565.5 Q340 575 330 582 Q320 589 312 596 Q304 603 304 617 Q304 632 315.5 642 Q327 652 345 652 Q358 652 368.5 645.5 Q379 639 386 629 Q393 619 396.5 607 Q400 595 400 583 Z " />
<glyph glyph-name="Lcommaaccent" unicode="&#x13b;" horiz-adv-x="515" d="M496 147 Q495 133 493.5 113.5 Q492 94 491 73 Q490 52 489.5 32.5 Q489 13 489 0 L46 0 L46 20 L110 40 L110 547 Q110 570 103 579.5 Q96 589 82 594 Q72 597 60.5 600 Q49 603 42 605 L42 625 Q51 625 65 624.5 Q79 624 94 623.5 Q109 623 123.5 622.5 Q138 622 149 622 Q161 622 176.5 622.5 Q192 623 208 623.5 Q224 624 238.5 624.5 Q253 625 263 625 L263 605 L202 584 L202 79 Q202 53 224 46 Q246 39 304 39 Q339 39 362 40 Q385 41 399 43 Q413 45 421.5 48.5 Q430 52 436 58 Q449 69 458.5 92 Q468 115 476 147 L496 147 L496 147 Z M353 -120 Q353 -138 349.5 -156.5 Q346 -175 337.5 -192.5 Q329 -210 314.5 -225.5 Q300 -241 277 -253 L268 -239 Q285 -228 297 -208.5 Q309 -189 309 -166 Q309 -147 301 -137.5 Q293 -128 283 -121 Q273 -114 265 -107 Q257 -100 257 -86 Q257 -71 268.5 -61 Q280 -51 298 -51 Q311 -51 321.5 -57.5 Q332 -64 339 -74 Q346 -84 349.5 -96 Q353 -108 353 -120 Z " />
<glyph glyph-name="Lslash" unicode="&#x141;" horiz-adv-x="515" d="M110 295 L110 547 Q110 570 103 579.5 Q96 589 82 594 L42 605 L42 625 Q51 625 65 624.5 Q79 624 94 623.5 Q109 623 123.5 622.5 Q138 622 149 622 Q161 622 176.5 622.5 Q192 623 208 623.5 Q224 624 238.5 624.5 Q253 625 263 625 L263 605 L202 584 L202 354 L338 443 L361 407 L202 304 L202 79 Q202 53 224 46 Q246 39 304 39 Q339 39 362 40 Q385 41 399 43 Q413 45 421.5 48.5 Q430 52 436 58 Q449 69 457.5 92 Q466 115 474 147 L496 147 Q495 133 493.5 113.5 Q492 94 491 73 Q490 52 489.5 32.5 Q489 13 489 0 L46 0 L46 20 L110 40 L110 244 L54 208 L31 244 L110 295 Z " />
<glyph glyph-name="Ldot" unicode="&#x13f;" horiz-adv-x="515" d="M496 147 Q495 133 493.5 113.5 Q492 94 491 73 Q490 52 489.5 32.5 Q489 13 489 0 L46 0 L46 20 L110 40 L110 547 Q110 570 103 579.5 Q96 589 82 594 Q72 597 60.5 600 Q49 603 42 605 L42 625 Q51 625 65 624.5 Q79 624 94 623.5 Q109 623 123.5 622.5 Q138 622 149 622 Q161 622 176.5 622.5 Q192 623 208 623.5 Q224 624 238.5 624.5 Q253 625 263 625 L263 605 L202 584 L202 79 Q202 53 224 46 Q246 39 304 39 Q339 39 362 40 Q385 41 399 43 Q413 45 421.5 48.5 Q430 52 436 58 Q449 69 458.5 92 Q468 115 476 147 L496 147 L496 147 Z M462 312 Q462 290 446.5 273.5 Q431 257 409 257 Q387 257 371 273.5 Q355 290 355 312 Q355 334 371 349 Q387 364 409 364 Q431 364 446.5 349 Q462 334 462 312 Z " />
<glyph glyph-name="Nacute" unicode="&#x143;" horiz-adv-x="703" d="M601 584 L601 -4 L558 -4 L163 503 L163 76 Q163 53 170.5 44 Q178 35 192 30 Q202 27 212.5 24.5 Q223 22 230 20 L230 0 Q212 0 187 1.5 Q162 3 140 3 Q117 3 90.5 1.5 Q64 0 44 0 L44 20 L110 40 L110 548 Q110 572 101.5 580.5 Q93 589 79 594 Q70 597 58 600 Q46 603 39 605 L39 625 L182 625 L549 154 L549 550 Q549 573 542.5 581 Q536 589 520 594 Q511 597 499.5 600 Q488 603 481 605 L481 625 Q499 625 525 623.5 Q551 622 573 622 Q596 622 619.5 623.5 Q643 625 663 625 L663 605 L601 584 Z M448 740 L254 661 L248 673 L383 781 Q393 790 401 790 Q408 790 416 782 L448 750 L448 740 Z " />
<glyph glyph-name="Ncaron" unicode="&#x147;" horiz-adv-x="703" d="M601 584 L601 -4 L558 -4 L163 503 L163 76 Q163 53 170.5 44 Q178 35 192 30 Q202 27 212.5 24.5 Q223 22 230 20 L230 0 Q212 0 187 1.5 Q162 3 140 3 Q117 3 90.5 1.5 Q64 0 44 0 L44 20 L110 40 L110 548 Q110 572 101.5 580.5 Q93 589 79 594 Q70 597 58 600 Q46 603 39 605 L39 625 L182 625 L549 154 L549 550 Q549 573 542.5 581 Q536 589 520 594 Q511 597 499.5 600 Q488 603 481 605 L481 625 Q499 625 525 623.5 Q551 622 573 622 Q596 622 619.5 623.5 Q643 625 663 625 L663 605 L601 584 Z M467 781 L373 673 L328 673 L235 781 L246 791 L351 729 L456 791 L467 781 Z " />
<glyph glyph-name="Ntilde" unicode="&#xd1;" horiz-adv-x="703" d="M601 584 L601 -4 L558 -4 L163 503 L163 76 Q163 53 170.5 44 Q178 35 192 30 Q202 27 212.5 24.5 Q223 22 230 20 L230 0 Q212 0 187 1.5 Q162 3 140 3 Q117 3 90.5 1.5 Q64 0 44 0 L44 20 L110 40 L110 548 Q110 572 101.5 580.5 Q93 589 79 594 Q70 597 58 600 Q46 603 39 605 L39 625 L182 625 L549 154 L549 550 Q549 573 542.5 581 Q536 589 520 594 Q511 597 499.5 600 Q488 603 481 605 L481 625 Q499 625 525 623.5 Q551 622 573 622 Q596 622 619.5 623.5 Q643 625 663 625 L663 605 L601 584 Z M405 697 Q390 697 374.5 702 Q359 707 344 713.5 Q329 720 314 725 Q299 730 285 730 Q270 730 260.5 723 Q251 716 245 699 L226 701 Q231 753 251 771 Q271 789 298 789 Q313 789 328.5 784 Q344 779 359 772.5 Q374 766 389 761 Q404 756 418 756 Q433 756 442.5 763 Q452 770 458 787 L477 785 Q472 733 452 715 Q432 697 405 697 Z " />
<glyph glyph-name="Ncommaaccent" unicode="&#x145;" horiz-adv-x="703" d="M601 584 L601 -4 L558 -4 L163 503 L163 76 Q163 53 170.5 44 Q178 35 192 30 Q202 27 212.5 24.5 Q223 22 230 20 L230 0 Q212 0 187 1.5 Q162 3 140 3 Q117 3 90.5 1.5 Q64 0 44 0 L44 20 L110 40 L110 548 Q110 572 101.5 580.5 Q93 589 79 594 Q70 597 58 600 Q46 603 39 605 L39 625 L182 625 L549 154 L549 550 Q549 573 542.5 581 Q536 589 520 594 Q511 597 499.5 600 Q488 603 481 605 L481 625 Q499 625 525 623.5 Q551 622 573 622 Q596 622 619.5 623.5 Q643 625 663 625 L663 605 L601 584 Z M399 -120 Q399 -138 395.5 -156.5 Q392 -175 383.5 -192.5 Q375 -210 360.5 -225.5 Q346 -241 323 -253 L314 -239 Q331 -228 343 -208.5 Q355 -189 355 -166 Q355 -147 347 -137.5 Q339 -128 329 -121 Q319 -114 311 -107 Q303 -100 303 -86 Q303 -71 314.5 -61 Q326 -51 344 -51 Q357 -51 367.5 -57.5 Q378 -64 385 -74 Q392 -84 395.5 -96 Q399 -108 399 -120 Z " />
<glyph glyph-name="Eng" unicode="&#x14a;" horiz-adv-x="703" d="M485 -92 Q517 -92 533 -67 Q549 -42 549 5 L163 502 L163 76 Q163 53 170.5 44 Q178 35 192 30 Q202 27 212.5 24.5 Q223 22 230 20 L230 0 Q212 0 187 1.5 Q162 3 140 3 Q117 3 90.5 1.5 Q64 0 44 0 L44 20 L110 40 L110 548 Q110 572 101.5 580.5 Q93 589 79 594 Q70 597 58 600 Q46 603 39 605 L39 625 L182 625 L549 155 L549 550 Q549 573 542.5 581 Q536 589 520 594 Q511 597 499.5 600 Q488 603 481 605 L481 625 Q499 625 525 623.5 Q551 622 573 622 Q596 622 619.5 623.5 Q643 625 663 625 L663 605 L601 584 L601 7 Q601 -31 594.5 -63 Q588 -95 574 -118.5 Q560 -142 536.5 -155.5 Q513 -169 479 -169 Q459 -169 438 -163.5 Q417 -158 402 -150 Q394 -146 395 -135 L403 -75 L411 -72 Q434 -83 451 -87.5 Q468 -92 485 -92 Z " />
<glyph glyph-name="Ograve" unicode="&#xd2;" horiz-adv-x="626" d="M586 313 Q586 250 569 191 Q552 132 518 86 Q484 40 432.5 12.5 Q381 -15 312 -15 Q243 -15 191.5 12.5 Q140 40 106.5 86 Q73 132 56.5 191 Q40 250 40 313 Q40 376 57 435 Q74 494 108 539.5 Q142 585 193.5 612.5 Q245 640 314 640 Q383 640 434.5 612.5 Q486 585 519.5 539.5 Q553 494 569.5 435 Q586 376 586 313 Z M482 313 Q482 352 475 401.5 Q468 451 449 494 Q430 537 397.5 566.5 Q365 596 314 596 Q263 596 230 566.5 Q197 537 178 494 Q159 451 151.5 401.5 Q144 352 144 313 Q144 274 151 224.5 Q158 175 177 131.5 Q196 88 228.5 58.5 Q261 29 312 29 Q363 29 396 58.5 Q429 88 448 131.5 Q467 175 474.5 224.5 Q482 274 482 313 Z M218 750 L250 782 Q258 790 265 790 Q272 790 283 781 L418 673 L412 661 L218 740 L218 750 Z " />
<glyph glyph-name="Oacute" unicode="&#xd3;" horiz-adv-x="626" d="M586 313 Q586 250 569 191 Q552 132 518 86 Q484 40 432.5 12.5 Q381 -15 312 -15 Q243 -15 191.5 12.5 Q140 40 106.5 86 Q73 132 56.5 191 Q40 250 40 313 Q40 376 57 435 Q74 494 108 539.5 Q142 585 193.5 612.5 Q245 640 314 640 Q383 640 434.5 612.5 Q486 585 519.5 539.5 Q553 494 569.5 435 Q586 376 586 313 Z M482 313 Q482 352 475 401.5 Q468 451 449 494 Q430 537 397.5 566.5 Q365 596 314 596 Q263 596 230 566.5 Q197 537 178 494 Q159 451 151.5 401.5 Q144 352 144 313 Q144 274 151 224.5 Q158 175 177 131.5 Q196 88 228.5 58.5 Q261 29 312 29 Q363 29 396 58.5 Q429 88 448 131.5 Q467 175 474.5 224.5 Q482 274 482 313 Z M409 740 L215 661 L209 673 L344 781 Q354 790 362 790 Q369 790 377 782 L409 750 L409 740 Z " />
<glyph glyph-name="Ocircumflex" unicode="&#xd4;" horiz-adv-x="626" d="M586 313 Q586 250 569 191 Q552 132 518 86 Q484 40 432.5 12.5 Q381 -15 312 -15 Q243 -15 191.5 12.5 Q140 40 106.5 86 Q73 132 56.5 191 Q40 250 40 313 Q40 376 57 435 Q74 494 108 539.5 Q142 585 193.5 612.5 Q245 640 314 640 Q383 640 434.5 612.5 Q486 585 519.5 539.5 Q553 494 569.5 435 Q586 376 586 313 Z M482 313 Q482 352 475 401.5 Q468 451 449 494 Q430 537 397.5 566.5 Q365 596 314 596 Q263 596 230 566.5 Q197 537 178 494 Q159 451 151.5 401.5 Q144 352 144 313 Q144 274 151 224.5 Q158 175 177 131.5 Q196 88 228.5 58.5 Q261 29 312 29 Q363 29 396 58.5 Q429 88 448 131.5 Q467 175 474.5 224.5 Q482 274 482 313 Z M418 673 L313 735 L208 673 L197 683 L290 791 L335 791 L429 683 L418 673 Z " />
<glyph glyph-name="Otilde" unicode="&#xd5;" horiz-adv-x="626" d="M586 313 Q586 250 569 191 Q552 132 518 86 Q484 40 432.5 12.5 Q381 -15 312 -15 Q243 -15 191.5 12.5 Q140 40 106.5 86 Q73 132 56.5 191 Q40 250 40 313 Q40 376 57 435 Q74 494 108 539.5 Q142 585 193.5 612.5 Q245 640 314 640 Q383 640 434.5 612.5 Q486 585 519.5 539.5 Q553 494 569.5 435 Q586 376 586 313 Z M482 313 Q482 352 475 401.5 Q468 451 449 494 Q430 537 397.5 566.5 Q365 596 314 596 Q263 596 230 566.5 Q197 537 178 494 Q159 451 151.5 401.5 Q144 352 144 313 Q144 274 151 224.5 Q158 175 177 131.5 Q196 88 228.5 58.5 Q261 29 312 29 Q363 29 396 58.5 Q429 88 448 131.5 Q467 175 474.5 224.5 Q482 274 482 313 Z M366 697 Q351 697 335.5 702 Q320 707 305 713.5 Q290 720 275 725 Q260 730 246 730 Q231 730 221.5 723 Q212 716 206 699 L187 701 Q192 753 212 771 Q232 789 259 789 Q274 789 289.5 784 Q305 779 320 772.5 Q335 766 350 761 Q365 756 379 756 Q394 756 403.5 763 Q413 770 419 787 L438 785 Q433 733 413 715 Q393 697 366 697 Z " />
<glyph glyph-name="Odieresis" unicode="&#xd6;" horiz-adv-x="626" d="M586 313 Q586 250 569 191 Q552 132 518 86 Q484 40 432.5 12.5 Q381 -15 312 -15 Q243 -15 191.5 12.5 Q140 40 106.5 86 Q73 132 56.5 191 Q40 250 40 313 Q40 376 57 435 Q74 494 108 539.5 Q142 585 193.5 612.5 Q245 640 314 640 Q383 640 434.5 612.5 Q486 585 519.5 539.5 Q553 494 569.5 435 Q586 376 586 313 Z M482 313 Q482 352 475 401.5 Q468 451 449 494 Q430 537 397.5 566.5 Q365 596 314 596 Q263 596 230 566.5 Q197 537 178 494 Q159 451 151.5 401.5 Q144 352 144 313 Q144 274 151 224.5 Q158 175 177 131.5 Q196 88 228.5 58.5 Q261 29 312 29 Q363 29 396 58.5 Q429 88 448 131.5 Q467 175 474.5 224.5 Q482 274 482 313 Z M438 738 Q438 719 424 705 Q410 691 390 691 Q371 691 357 705 Q343 719 343 738 Q343 757 357 770.5 Q371 784 390 784 Q410 784 424 770.5 Q438 757 438 738 Z M283 738 Q283 719 269 705 Q255 691 236 691 Q216 691 202 705 Q188 719 188 738 Q188 757 202 770.5 Q216 784 236 784 Q255 784 269 770.5 Q283 757 283 738 Z " />
<glyph glyph-name="Omacron" unicode="&#x14c;" horiz-adv-x="626" d="M586 313 Q586 250 569 191 Q552 132 518 86 Q484 40 432.5 12.5 Q381 -15 312 -15 Q243 -15 191.5 12.5 Q140 40 106.5 86 Q73 132 56.5 191 Q40 250 40 313 Q40 376 57 435 Q74 494 108 539.5 Q142 585 193.5 612.5 Q245 640 314 640 Q383 640 434.5 612.5 Q486 585 519.5 539.5 Q553 494 569.5 435 Q586 376 586 313 Z M482 313 Q482 352 475 401.5 Q468 451 449 494 Q430 537 397.5 566.5 Q365 596 314 596 Q263 596 230 566.5 Q197 537 178 494 Q159 451 151.5 401.5 Q144 352 144 313 Q144 274 151 224.5 Q158 175 177 131.5 Q196 88 228.5 58.5 Q261 29 312 29 Q363 29 396 58.5 Q429 88 448 131.5 Q467 175 474.5 224.5 Q482 274 482 313 Z M200 700 L200 746 L425 746 L425 700 L200 700 Z " />
<glyph glyph-name="Obreve" unicode="&#x14e;" horiz-adv-x="626" d="M586 313 Q586 250 569 191 Q552 132 518 86 Q484 40 432.5 12.5 Q381 -15 312 -15 Q243 -15 191.5 12.5 Q140 40 106.5 86 Q73 132 56.5 191 Q40 250 40 313 Q40 376 57 435 Q74 494 108 539.5 Q142 585 193.5 612.5 Q245 640 314 640 Q383 640 434.5 612.5 Q486 585 519.5 539.5 Q553 494 569.5 435 Q586 376 586 313 Z M482 313 Q482 352 475 401.5 Q468 451 449 494 Q430 537 397.5 566.5 Q365 596 314 596 Q263 596 230 566.5 Q197 537 178 494 Q159 451 151.5 401.5 Q144 352 144 313 Q144 274 151 224.5 Q158 175 177 131.5 Q196 88 228.5 58.5 Q261 29 312 29 Q363 29 396 58.5 Q429 88 448 131.5 Q467 175 474.5 224.5 Q482 274 482 313 Z M313 676 Q261 676 232.5 704 Q204 732 204 784 L226 784 Q229 754 255 742.5 Q281 731 313 731 Q345 731 371 742.5 Q397 754 400 784 L422 784 Q422 732 393.5 704 Q365 676 313 676 Z " />
<glyph glyph-name="Ohungarumlaut" unicode="&#x150;" horiz-adv-x="626" d="M586 313 Q586 250 569 191 Q552 132 518 86 Q484 40 432.5 12.5 Q381 -15 312 -15 Q243 -15 191.5 12.5 Q140 40 106.5 86 Q73 132 56.5 191 Q40 250 40 313 Q40 376 57 435 Q74 494 108 539.5 Q142 585 193.5 612.5 Q245 640 314 640 Q383 640 434.5 612.5 Q486 585 519.5 539.5 Q553 494 569.5 435 Q586 376 586 313 Z M482 313 Q482 352 475 401.5 Q468 451 449 494 Q430 537 397.5 566.5 Q365 596 314 596 Q263 596 230 566.5 Q197 537 178 494 Q159 451 151.5 401.5 Q144 352 144 313 Q144 274 151 224.5 Q158 175 177 131.5 Q196 88 228.5 58.5 Q261 29 312 29 Q363 29 396 58.5 Q429 88 448 131.5 Q467 175 474.5 224.5 Q482 274 482 313 Z M318 740 L161 665 L154 675 L253 781 Q263 791 270 791 Q277 791 286 782 L318 750 L318 740 Z M472 740 L315 665 L308 675 L407 781 Q417 791 424 791 Q431 791 440 782 L472 750 L472 740 Z " />
<glyph glyph-name="Oslash" unicode="&#xd8;" horiz-adv-x="626" d="M586 313 Q586 250 569 191 Q552 132 518 86 Q484 40 432.5 12.5 Q381 -15 312 -15 Q276 -15 245 -7.5 Q214 0 188 14 L159 -45 L106 -45 L148 41 Q93 88 66.5 160 Q40 232 40 313 Q40 376 57 435 Q74 494 108 539.5 Q142 585 193.5 612.5 Q245 640 314 640 Q348 640 377 633 Q406 626 431 614 L459 670 L512 670 L472 588 Q501 565 522.5 535 Q544 505 558 469 Q572 433 579 393.5 Q586 354 586 313 Z M482 313 Q482 335 479.5 361.5 Q477 388 472 415 Q467 442 458.5 468.5 Q450 495 437 518 L216 70 Q234 51 257.5 40 Q281 29 312 29 Q363 29 396 58.5 Q429 88 448 131.5 Q467 175 474.5 224.5 Q482 274 482 313 Z M144 313 Q144 291 146 266 Q148 241 153 215 Q158 189 165.5 163 Q173 137 185 115 L405 560 Q387 577 365 586.5 Q343 596 314 596 Q263 596 230 566.5 Q197 537 178 494 Q159 451 151.5 401.5 Q144 352 144 313 Z " />
<glyph glyph-name="Oslashacute" unicode="&#x1fe;" horiz-adv-x="626" d="M586 313 Q586 250 569 191 Q552 132 518 86 Q484 40 432.5 12.5 Q381 -15 312 -15 Q276 -15 245 -7.5 Q214 0 188 14 L159 -45 L106 -45 L148 41 Q93 88 66.5 160 Q40 232 40 313 Q40 376 57 435 Q74 494 108 539.5 Q142 585 193.5 612.5 Q245 640 314 640 Q348 640 377 633 Q406 626 431 614 L459 670 L512 670 L472 588 Q501 565 522.5 535 Q544 505 558 469 Q572 433 579 393.5 Q586 354 586 313 Z M482 313 Q482 335 479.5 361.5 Q477 388 472 415 Q467 442 458.5 468.5 Q450 495 437 518 L216 70 Q234 51 257.5 40 Q281 29 312 29 Q363 29 396 58.5 Q429 88 448 131.5 Q467 175 474.5 224.5 Q482 274 482 313 Z M144 313 Q144 291 146 266 Q148 241 153 215 Q158 189 165.5 163 Q173 137 185 115 L405 560 Q387 577 365 586.5 Q343 596 314 596 Q263 596 230 566.5 Q197 537 178 494 Q159 451 151.5 401.5 Q144 352 144 313 Z M409 740 L215 661 L209 673 L344 781 Q354 790 362 790 Q369 790 377 782 L409 750 L409 740 Z " />
<glyph glyph-name="OE" unicode="&#x152;" horiz-adv-x="875" d="M561 0 Q525 0 494.5 -2.5 Q464 -5 436.5 -7.5 Q409 -10 382.5 -12.5 Q356 -15 328 -15 Q261 -15 207 9.5 Q153 34 115.5 78 Q78 122 58 182 Q38 242 38 313 Q38 384 58 444 Q78 504 115.5 547.5 Q153 591 207 615.5 Q261 640 328 640 Q356 640 382.5 637.5 Q409 635 436.5 632.5 Q464 630 494.5 627.5 Q525 625 561 625 L806 625 Q808 582 813.5 540 Q819 498 823 477 L797 477 Q789 507 777 529.5 Q765 552 749 563 Q732 575 704 582.5 Q676 590 623 588 Q607 587 591 587 Q577 587 561.5 586.5 Q546 586 532 586 L532 341 L600 341 Q609 341 627.5 341.5 Q646 342 665.5 343 Q685 344 701.5 345 Q718 346 722 348 L717 298 Q712 299 696 300 Q680 301 661.5 302 Q643 303 625 303.5 Q607 304 600 304 L532 304 L532 78 Q532 52 554.5 45 Q577 38 635 38 Q670 38 693 39.5 Q716 41 731 43.5 Q746 46 755 49.5 Q764 53 770 58 Q787 70 796 92.5 Q805 115 813 147 L835 147 Q833 132 832 112 Q831 92 830 72 Q829 52 828.5 32.5 Q828 13 828 0 L561 0 Z M440 508 Q440 537 434.5 553 Q429 569 415 579 Q401 589 379 593 Q357 597 332 597 Q276 597 239 570.5 Q202 544 180 500 Q160 461 151 412.5 Q142 364 142 313 Q142 262 151 213 Q160 164 180 125 Q202 81 239 54.5 Q276 28 332 28 Q357 28 379 32 Q401 36 415 46 Q429 56 434.5 72 Q440 88 440 117 L440 508 Z " />
<glyph glyph-name="Thorn" unicode="&#xde;" horiz-adv-x="543" d="M269 0 Q260 0 246 0.5 Q232 1 216.5 1.5 Q201 2 186 2.5 Q171 3 160 3 Q148 3 132.5 2.5 Q117 2 101 1.5 Q85 1 70.5 0.5 Q56 0 46 0 L46 20 L110 40 L110 547 Q110 570 103 579.5 Q96 589 82 594 L42 605 L42 625 Q51 625 65 624.5 Q79 624 94 623.5 Q109 623 123.5 622.5 Q138 622 149 622 Q161 622 176.5 622.5 Q192 623 208 623.5 Q224 624 238.5 624.5 Q253 625 263 625 L263 605 L202 584 L202 500 L255 500 Q283 500 312 497.5 Q341 495 364 489 Q428 472 464.5 430 Q501 388 501 319 Q501 280 486 246 Q471 212 441.5 186.5 Q412 161 367 146.5 Q322 132 262 132 L202 132 L202 76 Q202 53 209 44 Q216 35 230 30 Q240 27 251 24.5 Q262 22 269 20 L269 0 Z M202 460 L202 169 L240 169 Q284 169 314 180 Q344 191 362.5 210.5 Q381 230 389 256.5 Q397 283 397 315 Q397 357 384.5 385 Q372 413 351.5 429.5 Q331 446 304 453 Q277 460 249 460 L202 460 Z " />
<glyph glyph-name="Racute" unicode="&#x154;" horiz-adv-x="603" d="M430 0 Q430 8 429 14.5 Q428 21 426 29 Q424 37 419.5 48 Q415 59 408 75 L354 195 Q343 220 334 235 Q325 250 314.5 258 Q304 266 288.5 269 Q273 272 249 272 L202 272 L202 76 Q202 61 205 52 Q208 43 215.5 37.5 Q223 32 236 28 Q249 24 269 20 L269 0 Q242 0 214.5 1.5 Q187 3 160 3 Q131 3 103 1.5 Q75 0 46 0 L46 20 L110 40 L110 547 Q110 565 104.5 575 Q99 585 90 590.5 Q81 596 68.5 599 Q56 602 42 605 L42 625 L246 625 Q313 625 363.5 614 Q414 603 447 574 Q470 554 483 525 Q496 496 496 456 Q496 404 464 362.5 Q432 321 362 301 Q393 293 410 277.5 Q427 262 443 226 L497 106 Q507 82 517.5 67 Q528 52 540 42.5 Q552 33 566.5 28 Q581 23 599 20 L599 0 L430 0 Z M393 450 Q393 514 364 546 Q344 567 314 575.5 Q284 584 240 584 L202 584 L202 310 L223 310 Q311 310 354 350 Q393 387 393 450 Z M394 740 L200 661 L194 673 L329 781 Q339 790 347 790 Q354 790 362 782 L394 750 L394 740 Z " />
<glyph glyph-name="Rcaron" unicode="&#x158;" horiz-adv-x="603" d="M430 0 Q430 8 429 14.5 Q428 21 426 29 Q424 37 419.5 48 Q415 59 408 75 L354 195 Q343 220 334 235 Q325 250 314.5 258 Q304 266 288.5 269 Q273 272 249 272 L202 272 L202 76 Q202 61 205 52 Q208 43 215.5 37.5 Q223 32 236 28 Q249 24 269 20 L269 0 Q242 0 214.5 1.5 Q187 3 160 3 Q131 3 103 1.5 Q75 0 46 0 L46 20 L110 40 L110 547 Q110 565 104.5 575 Q99 585 90 590.5 Q81 596 68.5 599 Q56 602 42 605 L42 625 L246 625 Q313 625 363.5 614 Q414 603 447 574 Q470 554 483 525 Q496 496 496 456 Q496 404 464 362.5 Q432 321 362 301 Q393 293 410 277.5 Q427 262 443 226 L497 106 Q507 82 517.5 67 Q528 52 540 42.5 Q552 33 566.5 28 Q581 23 599 20 L599 0 L430 0 Z M393 450 Q393 514 364 546 Q344 567 314 575.5 Q284 584 240 584 L202 584 L202 310 L223 310 Q311 310 354 350 Q393 387 393 450 Z M401 781 L307 673 L262 673 L169 781 L180 791 L285 729 L390 791 L401 781 Z " />
<glyph glyph-name="Rcommaaccent" unicode="&#x156;" horiz-adv-x="603" d="M430 0 Q430 8 429 14.5 Q428 21 426 29 Q424 37 419.5 48 Q415 59 408 75 L354 195 Q343 220 334 235 Q325 250 314.5 258 Q304 266 288.5 269 Q273 272 249 272 L202 272 L202 76 Q202 61 205 52 Q208 43 215.5 37.5 Q223 32 236 28 Q249 24 269 20 L269 0 Q242 0 214.5 1.5 Q187 3 160 3 Q131 3 103 1.5 Q75 0 46 0 L46 20 L110 40 L110 547 Q110 565 104.5 575 Q99 585 90 590.5 Q81 596 68.5 599 Q56 602 42 605 L42 625 L246 625 Q313 625 363.5 614 Q414 603 447 574 Q470 554 483 525 Q496 496 496 456 Q496 404 464 362.5 Q432 321 362 301 Q393 293 410 277.5 Q427 262 443 226 L497 106 Q507 82 517.5 67 Q528 52 540 42.5 Q552 33 566.5 28 Q581 23 599 20 L599 0 L430 0 Z M393 450 Q393 514 364 546 Q344 567 314 575.5 Q284 584 240 584 L202 584 L202 310 L223 310 Q311 310 354 350 Q393 387 393 450 Z M377 -120 Q377 -138 373.5 -156.5 Q370 -175 361.5 -192.5 Q353 -210 338.5 -225.5 Q324 -241 301 -253 L292 -239 Q309 -228 321 -208.5 Q333 -189 333 -166 Q333 -147 325 -137.5 Q317 -128 307 -121 Q297 -114 289 -107 Q281 -100 281 -86 Q281 -71 292.5 -61 Q304 -51 322 -51 Q335 -51 345.5 -57.5 Q356 -64 363 -74 Q370 -84 373.5 -96 Q377 -108 377 -120 Z " />
<glyph glyph-name="Sacute" unicode="&#x15a;" horiz-adv-x="504" d="M93 160 Q100 97 135 61.5 Q170 26 227 26 Q287 26 319 60.5 Q351 95 351 148 Q351 185 330 210 Q309 235 277.5 255.5 Q246 276 209.5 294.5 Q173 313 141.5 337 Q110 361 89 394.5 Q68 428 68 478 Q68 514 83 544 Q98 574 124.5 595 Q151 616 187.5 628 Q224 640 267 640 Q304 640 343.5 634 Q383 628 411 626 Q411 614 412 594.5 Q413 575 414 553.5 Q415 532 416.5 511.5 Q418 491 420 477 L395 477 Q387 535 354.5 566.5 Q322 598 271 598 Q248 598 227.5 591 Q207 584 191.5 571 Q176 558 166.5 538.5 Q157 519 157 494 Q157 459 178 435 Q199 411 231 391.5 Q263 372 299.5 353 Q336 334 368 309 Q400 284 421 249 Q442 214 442 162 Q442 126 428 94 Q414 62 387.5 38 Q361 14 322.5 -0.5 Q284 -15 236 -15 Q192 -15 146 -7.5 Q100 0 70 11 L70 160 L93 160 Z M359 740 L165 661 L159 673 L294 781 Q304 790 312 790 Q319 790 327 782 L359 750 L359 740 Z " />
<glyph glyph-name="Scircumflex" unicode="&#x15c;" horiz-adv-x="504" d="M93 160 Q100 97 135 61.5 Q170 26 227 26 Q287 26 319 60.5 Q351 95 351 148 Q351 185 330 210 Q309 235 277.5 255.5 Q246 276 209.5 294.5 Q173 313 141.5 337 Q110 361 89 394.5 Q68 428 68 478 Q68 514 83 544 Q98 574 124.5 595 Q151 616 187.5 628 Q224 640 267 640 Q304 640 343.5 634 Q383 628 411 626 Q411 614 412 594.5 Q413 575 414 553.5 Q415 532 416.5 511.5 Q418 491 420 477 L395 477 Q387 535 354.5 566.5 Q322 598 271 598 Q248 598 227.5 591 Q207 584 191.5 571 Q176 558 166.5 538.5 Q157 519 157 494 Q157 459 178 435 Q199 411 231 391.5 Q263 372 299.5 353 Q336 334 368 309 Q400 284 421 249 Q442 214 442 162 Q442 126 428 94 Q414 62 387.5 38 Q361 14 322.5 -0.5 Q284 -15 236 -15 Q192 -15 146 -7.5 Q100 0 70 11 L70 160 L93 160 Z M366 673 L261 735 L156 673 L145 683 L238 791 L283 791 L377 683 L366 673 Z " />
<glyph glyph-name="Scaron" unicode="&#x160;" horiz-adv-x="504" d="M93 160 Q100 97 135 61.5 Q170 26 227 26 Q287 26 319 60.5 Q351 95 351 148 Q351 185 330 210 Q309 235 277.5 255.5 Q246 276 209.5 294.5 Q173 313 141.5 337 Q110 361 89 394.5 Q68 428 68 478 Q68 514 83 544 Q98 574 124.5 595 Q151 616 187.5 628 Q224 640 267 640 Q304 640 343.5 634 Q383 628 411 626 Q411 614 412 594.5 Q413 575 414 553.5 Q415 532 416.5 511.5 Q418 491 420 477 L395 477 Q387 535 354.5 566.5 Q322 598 271 598 Q248 598 227.5 591 Q207 584 191.5 571 Q176 558 166.5 538.5 Q157 519 157 494 Q157 459 178 435 Q199 411 231 391.5 Q263 372 299.5 353 Q336 334 368 309 Q400 284 421 249 Q442 214 442 162 Q442 126 428 94 Q414 62 387.5 38 Q361 14 322.5 -0.5 Q284 -15 236 -15 Q192 -15 146 -7.5 Q100 0 70 11 L70 160 L93 160 Z M379 781 L285 673 L240 673 L147 781 L158 791 L263 729 L368 791 L379 781 Z " />
<glyph glyph-name="Scedilla" unicode="&#x15e;" horiz-adv-x="504" d="M93 160 Q100 97 135 61.5 Q170 26 227 26 Q287 26 319 60.5 Q351 95 351 148 Q351 185 330 210 Q309 235 277.5 255.5 Q246 276 209.5 294.5 Q173 313 141.5 337 Q110 361 89 394.5 Q68 428 68 478 Q68 514 83 544 Q98 574 124.5 595 Q151 616 187.5 628 Q224 640 267 640 Q304 640 343.5 634 Q383 628 411 626 Q411 614 412 594.5 Q413 575 414 553.5 Q415 532 416.5 511.5 Q418 491 420 477 L395 477 Q387 535 354.5 566.5 Q322 598 271 598 Q248 598 227.5 591 Q207 584 191.5 571 Q176 558 166.5 538.5 Q157 519 157 494 Q157 459 178 435 Q199 411 231 391.5 Q263 372 299.5 353 Q336 334 368 309 Q400 284 421 249 Q442 214 442 162 Q442 129 429.5 98.5 Q417 68 394 44.5 Q371 21 337.5 5.5 Q304 -10 261 -14 L250 -49 Q290 -56 315 -77.5 Q340 -99 340 -130 Q340 -148 329.5 -166 Q319 -184 298 -198.5 Q277 -213 246.5 -222 Q216 -231 176 -231 L170 -207 Q218 -203 247 -183.5 Q276 -164 276 -130 Q276 -108 260.5 -97 Q245 -86 216 -82 Q205 -80 202.5 -76.5 Q200 -73 202 -65 L218 -14 Q177 -12 137 -5 Q97 2 70 11 L70 160 L93 160 Z " />
<glyph glyph-name="Scommaaccent" unicode="&#x218;" horiz-adv-x="504" d="M93 160 Q100 97 135 61.5 Q170 26 227 26 Q287 26 319 60.5 Q351 95 351 148 Q351 185 330 210 Q309 235 277.5 255.5 Q246 276 209.5 294.5 Q173 313 141.5 337 Q110 361 89 394.5 Q68 428 68 478 Q68 514 83 544 Q98 574 124.5 595 Q151 616 187.5 628 Q224 640 267 640 Q304 640 343.5 634 Q383 628 411 626 Q411 614 412 594.5 Q413 575 414 553.5 Q415 532 416.5 511.5 Q418 491 420 477 L395 477 Q387 535 354.5 566.5 Q322 598 271 598 Q248 598 227.5 591 Q207 584 191.5 571 Q176 558 166.5 538.5 Q157 519 157 494 Q157 459 178 435 Q199 411 231 391.5 Q263 372 299.5 353 Q336 334 368 309 Q400 284 421 249 Q442 214 442 162 Q442 126 428 94 Q414 62 387.5 38 Q361 14 322.5 -0.5 Q284 -15 236 -15 Q192 -15 146 -7.5 Q100 0 70 11 L70 160 L93 160 Z M297 -120 Q297 -138 293.5 -156.5 Q290 -175 281.5 -192.5 Q273 -210 258.5 -225.5 Q244 -241 221 -253 L212 -239 Q229 -228 241 -208.5 Q253 -189 253 -166 Q253 -147 245 -137.5 Q237 -128 227 -121 Q217 -114 209 -107 Q201 -100 201 -86 Q201 -71 212.5 -61 Q224 -51 242 -51 Q255 -51 265.5 -57.5 Q276 -64 283 -74 Q290 -84 293.5 -96 Q297 -108 297 -120 Z " />
<glyph glyph-name="Tcaron" unicode="&#x164;" horiz-adv-x="566" d="M524 477 Q513 515 506 532.5 Q499 550 487 562 Q473 576 446 581.5 Q419 587 383 587 L329 587 L329 76 Q329 53 336 44 Q343 35 357 30 Q367 27 378 24.5 Q389 22 396 20 L396 0 Q387 0 373 0.5 Q359 1 344 1.5 Q329 2 314 2.5 Q299 3 288 3 Q276 3 260.5 2.5 Q245 2 228.5 1.5 Q212 1 197.5 0.5 Q183 0 173 0 L173 20 L237 40 L237 587 L183 587 Q147 587 120 581.5 Q93 576 79 562 Q67 550 60 532.5 Q53 515 42 477 L20 477 Q21 490 22 508.5 Q23 527 24 548 Q25 569 26 589 Q27 609 27 625 L539 625 Q539 609 540 589 Q541 569 542 548 Q543 527 544 508.5 Q545 490 546 477 L524 477 Z M399 781 L305 673 L260 673 L167 781 L178 791 L283 729 L388 791 L399 781 Z " />
<glyph glyph-name="Tcommaaccent" unicode="&#x162;" horiz-adv-x="566" d="M524 477 Q513 515 506 532.5 Q499 550 487 562 Q473 576 446 581.5 Q419 587 383 587 L329 587 L329 76 Q329 53 336 44 Q343 35 357 30 Q367 27 378 24.5 Q389 22 396 20 L396 0 Q387 0 373 0.5 Q359 1 344 1.5 Q329 2 314 2.5 Q299 3 288 3 Q276 3 260.5 2.5 Q245 2 228.5 1.5 Q212 1 197.5 0.5 Q183 0 173 0 L173 20 L237 40 L237 587 L183 587 Q147 587 120 581.5 Q93 576 79 562 Q67 550 60 532.5 Q53 515 42 477 L20 477 Q21 490 22 508.5 Q23 527 24 548 Q25 569 26 589 Q27 609 27 625 L539 625 Q539 609 540 589 Q541 569 542 548 Q543 527 544 508.5 Q545 490 546 477 L524 477 Z M331 -120 Q331 -138 327.5 -156.5 Q324 -175 315.5 -192.5 Q307 -210 292.5 -225.5 Q278 -241 255 -253 L246 -239 Q263 -228 275 -208.5 Q287 -189 287 -166 Q287 -147 279 -137.5 Q271 -128 261 -121 Q251 -114 243 -107 Q235 -100 235 -86 Q235 -71 246.5 -61 Q258 -51 276 -51 Q289 -51 299.5 -57.5 Q310 -64 317 -74 Q324 -84 327.5 -96 Q331 -108 331 -120 Z " />
<glyph glyph-name="uni021A" unicode="&#x21a;" horiz-adv-x="566" d="M524 477 Q513 515 506 532.5 Q499 550 487 562 Q473 576 446 581.5 Q419 587 383 587 L329 587 L329 76 Q329 53 336 44 Q343 35 357 30 Q367 27 378 24.5 Q389 22 396 20 L396 0 Q387 0 373 0.5 Q359 1 344 1.5 Q329 2 314 2.5 Q299 3 288 3 Q276 3 260.5 2.5 Q245 2 228.5 1.5 Q212 1 197.5 0.5 Q183 0 173 0 L173 20 L237 40 L237 587 L183 587 Q147 587 120 581.5 Q93 576 79 562 Q67 550 60 532.5 Q53 515 42 477 L20 477 Q21 490 22 508.5 Q23 527 24 548 Q25 569 26 589 Q27 609 27 625 L539 625 Q539 609 540 589 Q541 569 542 548 Q543 527 544 508.5 Q545 490 546 477 L524 477 Z M331 -120 Q331 -138 327.5 -156.5 Q324 -175 315.5 -192.5 Q307 -210 292.5 -225.5 Q278 -241 255 -253 L246 -239 Q263 -228 275 -208.5 Q287 -189 287 -166 Q287 -147 279 -137.5 Q271 -128 261 -121 Q251 -114 243 -107 Q235 -100 235 -86 Q235 -71 246.5 -61 Q258 -51 276 -51 Q289 -51 299.5 -57.5 Q310 -64 317 -74 Q324 -84 327.5 -96 Q331 -108 331 -120 Z " />
<glyph glyph-name="Tbar" unicode="&#x166;" horiz-adv-x="566" d="M524 477 Q513 515 506 532.5 Q499 550 487 562 Q473 576 446 581.5 Q419 587 383 587 L329 587 L329 341 L455 341 L455 300 L329 300 L329 76 Q329 53 336 44 Q343 35 357 30 Q367 27 378 24.5 Q389 22 396 20 L396 0 Q387 0 373 0.5 Q359 1 344 1.5 Q329 2 314 2.5 Q299 3 288 3 Q276 3 260.5 2.5 Q245 2 228.5 1.5 Q212 1 197.5 0.5 Q183 0 173 0 L173 20 L237 40 L237 300 L111 300 L111 341 L237 341 L237 587 L183 587 Q147 587 120 581.5 Q93 576 79 562 Q67 550 60 532.5 Q53 515 42 477 L20 477 Q21 490 22 508.5 Q23 527 24 548 Q25 569 26 589 Q27 609 27 625 L539 625 Q539 609 540 589 Q541 569 542 548 Q543 527 544 508.5 Q545 490 546 477 L524 477 Z " />
<glyph glyph-name="Ugrave" unicode="&#xd9;" horiz-adv-x="644" d="M551 244 Q551 174 536.5 126.5 Q522 79 492 47 Q435 -15 326 -15 Q272 -15 232 -1 Q192 13 165 39 Q130 72 114 119.5 Q98 167 98 232 L98 548 Q98 571 91 580.5 Q84 590 70 595 Q60 598 48.5 601 Q37 604 30 606 L30 625 Q39 625 53 624.5 Q67 624 82 623.5 Q97 623 111.5 622.5 Q126 622 137 622 Q149 622 164.5 622.5 Q180 623 196 623.5 Q212 624 226.5 624.5 Q241 625 251 625 L251 606 L190 585 L190 244 Q190 184 200 146 Q210 108 230 82 Q247 59 275.5 46 Q304 33 343 33 Q384 33 413.5 48.5 Q443 64 461 90 Q480 117 489.5 156.5 Q499 196 499 252 L499 548 Q499 571 490.5 580.5 Q482 590 468 595 Q458 599 448.5 601.5 Q439 604 432 606 L432 625 Q450 625 475 623.5 Q500 622 522 622 Q545 622 568.5 623.5 Q592 625 612 625 L612 606 L551 585 L551 244 Z M235 750 L267 782 Q275 790 282 790 Q289 790 300 781 L435 673 L429 661 L235 740 L235 750 Z " />
<glyph glyph-name="Uacute" unicode="&#xda;" horiz-adv-x="644" d="M551 244 Q551 174 536.5 126.5 Q522 79 492 47 Q435 -15 326 -15 Q272 -15 232 -1 Q192 13 165 39 Q130 72 114 119.5 Q98 167 98 232 L98 548 Q98 571 91 580.5 Q84 590 70 595 Q60 598 48.5 601 Q37 604 30 606 L30 625 Q39 625 53 624.5 Q67 624 82 623.5 Q97 623 111.5 622.5 Q126 622 137 622 Q149 622 164.5 622.5 Q180 623 196 623.5 Q212 624 226.5 624.5 Q241 625 251 625 L251 606 L190 585 L190 244 Q190 184 200 146 Q210 108 230 82 Q247 59 275.5 46 Q304 33 343 33 Q384 33 413.5 48.5 Q443 64 461 90 Q480 117 489.5 156.5 Q499 196 499 252 L499 548 Q499 571 490.5 580.5 Q482 590 468 595 Q458 599 448.5 601.5 Q439 604 432 606 L432 625 Q450 625 475 623.5 Q500 622 522 622 Q545 622 568.5 623.5 Q592 625 612 625 L612 606 L551 585 L551 244 Z M447 740 L253 661 L247 673 L382 781 Q392 790 400 790 Q407 790 415 782 L447 750 L447 740 Z " />
<glyph glyph-name="Ucircumflex" unicode="&#xdb;" horiz-adv-x="644" d="M551 244 Q551 174 536.5 126.5 Q522 79 492 47 Q435 -15 326 -15 Q272 -15 232 -1 Q192 13 165 39 Q130 72 114 119.5 Q98 167 98 232 L98 548 Q98 571 91 580.5 Q84 590 70 595 Q60 598 48.5 601 Q37 604 30 606 L30 625 Q39 625 53 624.5 Q67 624 82 623.5 Q97 623 111.5 622.5 Q126 622 137 622 Q149 622 164.5 622.5 Q180 623 196 623.5 Q212 624 226.5 624.5 Q241 625 251 625 L251 606 L190 585 L190 244 Q190 184 200 146 Q210 108 230 82 Q247 59 275.5 46 Q304 33 343 33 Q384 33 413.5 48.5 Q443 64 461 90 Q480 117 489.5 156.5 Q499 196 499 252 L499 548 Q499 571 490.5 580.5 Q482 590 468 595 Q458 599 448.5 601.5 Q439 604 432 606 L432 625 Q450 625 475 623.5 Q500 622 522 622 Q545 622 568.5 623.5 Q592 625 612 625 L612 606 L551 585 L551 244 Z M445 673 L340 735 L235 673 L224 683 L317 791 L362 791 L456 683 L445 673 Z " />
<glyph glyph-name="Utilde" unicode="&#x168;" horiz-adv-x="644" d="M551 244 Q551 174 536.5 126.5 Q522 79 492 47 Q435 -15 326 -15 Q272 -15 232 -1 Q192 13 165 39 Q130 72 114 119.5 Q98 167 98 232 L98 548 Q98 571 91 580.5 Q84 590 70 595 Q60 598 48.5 601 Q37 604 30 606 L30 625 Q39 625 53 624.5 Q67 624 82 623.5 Q97 623 111.5 622.5 Q126 622 137 622 Q149 622 164.5 622.5 Q180 623 196 623.5 Q212 624 226.5 624.5 Q241 625 251 625 L251 606 L190 585 L190 244 Q190 184 200 146 Q210 108 230 82 Q247 59 275.5 46 Q304 33 343 33 Q384 33 413.5 48.5 Q443 64 461 90 Q480 117 489.5 156.5 Q499 196 499 252 L499 548 Q499 571 490.5 580.5 Q482 590 468 595 Q458 599 448.5 601.5 Q439 604 432 606 L432 625 Q450 625 475 623.5 Q500 622 522 622 Q545 622 568.5 623.5 Q592 625 612 625 L612 606 L551 585 L551 244 Z M394 697 Q379 697 363.5 702 Q348 707 333 713.5 Q318 720 303 725 Q288 730 274 730 Q259 730 249.5 723 Q240 716 234 699 L215 701 Q220 753 240 771 Q260 789 287 789 Q302 789 317.5 784 Q333 779 348 772.5 Q363 766 378 761 Q393 756 407 756 Q422 756 431.5 763 Q441 770 447 787 L466 785 Q461 733 441 715 Q421 697 394 697 Z " />
<glyph glyph-name="Udieresis" unicode="&#xdc;" horiz-adv-x="644" d="M551 244 Q551 174 536.5 126.5 Q522 79 492 47 Q435 -15 326 -15 Q272 -15 232 -1 Q192 13 165 39 Q130 72 114 119.5 Q98 167 98 232 L98 548 Q98 571 91 580.5 Q84 590 70 595 Q60 598 48.5 601 Q37 604 30 606 L30 625 Q39 625 53 624.5 Q67 624 82 623.5 Q97 623 111.5 622.5 Q126 622 137 622 Q149 622 164.5 622.5 Q180 623 196 623.5 Q212 624 226.5 624.5 Q241 625 251 625 L251 606 L190 585 L190 244 Q190 184 200 146 Q210 108 230 82 Q247 59 275.5 46 Q304 33 343 33 Q384 33 413.5 48.5 Q443 64 461 90 Q480 117 489.5 156.5 Q499 196 499 252 L499 548 Q499 571 490.5 580.5 Q482 590 468 595 Q458 599 448.5 601.5 Q439 604 432 606 L432 625 Q450 625 475 623.5 Q500 622 522 622 Q545 622 568.5 623.5 Q592 625 612 625 L612 606 L551 585 L551 244 Z M462 738 Q462 719 448 705 Q434 691 414 691 Q395 691 381 705 Q367 719 367 738 Q367 757 381 770.5 Q395 784 414 784 Q434 784 448 770.5 Q462 757 462 738 Z M307 738 Q307 719 293 705 Q279 691 260 691 Q240 691 226 705 Q212 719 212 738 Q212 757 226 770.5 Q240 784 260 784 Q279 784 293 770.5 Q307 757 307 738 Z " />
<glyph glyph-name="Umacron" unicode="&#x16a;" horiz-adv-x="644" d="M551 244 Q551 174 536.5 126.5 Q522 79 492 47 Q435 -15 326 -15 Q272 -15 232 -1 Q192 13 165 39 Q130 72 114 119.5 Q98 167 98 232 L98 548 Q98 571 91 580.5 Q84 590 70 595 Q60 598 48.5 601 Q37 604 30 606 L30 625 Q39 625 53 624.5 Q67 624 82 623.5 Q97 623 111.5 622.5 Q126 622 137 622 Q149 622 164.5 622.5 Q180 623 196 623.5 Q212 624 226.5 624.5 Q241 625 251 625 L251 606 L190 585 L190 244 Q190 184 200 146 Q210 108 230 82 Q247 59 275.5 46 Q304 33 343 33 Q384 33 413.5 48.5 Q443 64 461 90 Q480 117 489.5 156.5 Q499 196 499 252 L499 548 Q499 571 490.5 580.5 Q482 590 468 595 Q458 599 448.5 601.5 Q439 604 432 606 L432 625 Q450 625 475 623.5 Q500 622 522 622 Q545 622 568.5 623.5 Q592 625 612 625 L612 606 L551 585 L551 244 Z M227 700 L227 746 L452 746 L452 700 L227 700 Z " />
<glyph glyph-name="Ubreve" unicode="&#x16c;" horiz-adv-x="644" d="M551 244 Q551 174 536.5 126.5 Q522 79 492 47 Q435 -15 326 -15 Q272 -15 232 -1 Q192 13 165 39 Q130 72 114 119.5 Q98 167 98 232 L98 548 Q98 571 91 580.5 Q84 590 70 595 Q60 598 48.5 601 Q37 604 30 606 L30 625 Q39 625 53 624.5 Q67 624 82 623.5 Q97 623 111.5 622.5 Q126 622 137 622 Q149 622 164.5 622.5 Q180 623 196 623.5 Q212 624 226.5 624.5 Q241 625 251 625 L251 606 L190 585 L190 244 Q190 184 200 146 Q210 108 230 82 Q247 59 275.5 46 Q304 33 343 33 Q384 33 413.5 48.5 Q443 64 461 90 Q480 117 489.5 156.5 Q499 196 499 252 L499 548 Q499 571 490.5 580.5 Q482 590 468 595 Q458 599 448.5 601.5 Q439 604 432 606 L432 625 Q450 625 475 623.5 Q500 622 522 622 Q545 622 568.5 623.5 Q592 625 612 625 L612 606 L551 585 L551 244 Z M344 676 Q292 676 263.5 704 Q235 732 235 784 L257 784 Q260 754 286 742.5 Q312 731 344 731 Q376 731 402 742.5 Q428 754 431 784 L453 784 Q453 732 424.5 704 Q396 676 344 676 Z " />
<glyph glyph-name="Uring" unicode="&#x16e;" horiz-adv-x="644" d="M551 244 Q551 174 536.5 126.5 Q522 79 492 47 Q435 -15 326 -15 Q272 -15 232 -1 Q192 13 165 39 Q130 72 114 119.5 Q98 167 98 232 L98 548 Q98 571 91 580.5 Q84 590 70 595 Q60 598 48.5 601 Q37 604 30 606 L30 625 Q39 625 53 624.5 Q67 624 82 623.5 Q97 623 111.5 622.5 Q126 622 137 622 Q149 622 164.5 622.5 Q180 623 196 623.5 Q212 624 226.5 624.5 Q241 625 251 625 L251 606 L190 585 L190 244 Q190 184 200 146 Q210 108 230 82 Q247 59 275.5 46 Q304 33 343 33 Q384 33 413.5 48.5 Q443 64 461 90 Q480 117 489.5 156.5 Q499 196 499 252 L499 548 Q499 571 490.5 580.5 Q482 590 468 595 Q458 599 448.5 601.5 Q439 604 432 606 L432 625 Q450 625 475 623.5 Q500 622 522 622 Q545 622 568.5 623.5 Q592 625 612 625 L612 606 L551 585 L551 244 Z M433 751 Q433 716 409 692 Q385 668 350 668 Q315 668 291 691.5 Q267 715 267 750 Q267 785 291 809 Q315 833 350 833 Q385 833 409 809.5 Q433 786 433 751 Z M393 751 Q393 773 380.5 785.5 Q368 798 350 798 Q332 798 319.5 785 Q307 772 307 750 Q307 728 319.5 715.5 Q332 703 350 703 Q368 703 380.5 716 Q393 729 393 751 Z " />
<glyph glyph-name="Uhungarumlaut" unicode="&#x170;" horiz-adv-x="644" d="M551 244 Q551 174 536.5 126.5 Q522 79 492 47 Q435 -15 326 -15 Q272 -15 232 -1 Q192 13 165 39 Q130 72 114 119.5 Q98 167 98 232 L98 548 Q98 571 91 580.5 Q84 590 70 595 Q60 598 48.5 601 Q37 604 30 606 L30 625 Q39 625 53 624.5 Q67 624 82 623.5 Q97 623 111.5 622.5 Q126 622 137 622 Q149 622 164.5 622.5 Q180 623 196 623.5 Q212 624 226.5 624.5 Q241 625 251 625 L251 606 L190 585 L190 244 Q190 184 200 146 Q210 108 230 82 Q247 59 275.5 46 Q304 33 343 33 Q384 33 413.5 48.5 Q443 64 461 90 Q480 117 489.5 156.5 Q499 196 499 252 L499 548 Q499 571 490.5 580.5 Q482 590 468 595 Q458 599 448.5 601.5 Q439 604 432 606 L432 625 Q450 625 475 623.5 Q500 622 522 622 Q545 622 568.5 623.5 Q592 625 612 625 L612 606 L551 585 L551 244 Z M355 740 L198 665 L191 675 L290 781 Q300 791 307 791 Q314 791 323 782 L355 750 L355 740 Z M509 740 L352 665 L345 675 L444 781 Q454 791 461 791 Q468 791 477 782 L509 750 L509 740 Z " />
<glyph glyph-name="Uogonek" unicode="&#x172;" horiz-adv-x="644" d="M551 251 Q551 188 538.5 142 Q526 96 502 63 Q480 34 453 16 Q426 -2 401 -27 Q380 -50 368.5 -74.5 Q357 -99 357 -125 Q357 -157 375 -172.5 Q393 -188 420 -188 Q434 -188 448.5 -185.5 Q463 -183 476 -179 L482 -203 Q466 -211 445 -216.5 Q424 -222 402 -222 Q353 -222 323 -197.5 Q293 -173 293 -128 Q293 -95 314.5 -65 Q336 -35 371 -12 Q350 -15 326 -15 Q272 -15 232 -1 Q192 13 165 39 Q130 72 114 119.5 Q98 167 98 232 L98 548 Q98 571 91 580.5 Q84 590 70 595 Q60 598 48.5 601 Q37 604 30 606 L30 625 Q39 625 53 624.5 Q67 624 82 623.5 Q97 623 111.5 622.5 Q126 622 137 622 Q149 622 164.5 622.5 Q180 623 196 623.5 Q212 624 226.5 624.5 Q241 625 251 625 L251 606 L190 585 L190 244 Q190 184 200 146 Q210 108 230 82 Q247 59 275.5 46 Q304 33 343 33 Q384 33 413.5 48.5 Q443 64 461 90 Q480 117 489.5 156.5 Q499 196 499 252 L499 548 Q499 571 490.5 580.5 Q482 590 468 595 Q458 599 448.5 601.5 Q439 604 432 606 L432 625 Q450 625 475 623.5 Q500 622 522 622 Q545 622 568.5 623.5 Q592 625 612 625 L612 606 L551 585 L551 251 Z " />
<glyph glyph-name="Wgrave" unicode="&#x1e80;" horiz-adv-x="915" d="M915 606 Q892 603 877.5 599 Q863 595 854 588 Q845 581 839 570.5 Q833 560 828 544 L649 -2 L609 -2 L465 415 L312 -2 L273 -2 L75 552 Q70 567 64 576 Q58 585 49.5 590.5 Q41 596 29 599.5 Q17 603 0 607 L0 625 Q6 625 20 624.5 Q34 624 50 623.5 Q66 623 81.5 622.5 Q97 622 105 622 Q115 622 130.5 622.5 Q146 623 162.5 623.5 Q179 624 193.5 624.5 Q208 625 216 625 L216 607 L155 591 L314 146 L438 484 L415 552 Q410 565 404.5 574 Q399 583 390.5 589 Q382 595 370.5 599 Q359 603 344 607 L344 625 Q350 625 363.5 624.5 Q377 624 393 623.5 Q409 623 424 622.5 Q439 622 447 622 Q457 622 472.5 622.5 Q488 623 504 623.5 Q520 624 534 624.5 Q548 625 556 625 L556 607 L493 591 L647 148 L792 591 L731 606 L731 625 Q752 624 770 623 Q786 622 802 622 Q818 622 827 622 Q835 622 847 622.5 Q859 623 872 623.5 Q885 624 896.5 624.5 Q908 625 915 625 L915 606 L915 606 Z M361 750 L393 782 Q401 790 408 790 Q415 790 426 781 L561 673 L555 661 L361 740 L361 750 Z " />
<glyph glyph-name="Wacute" unicode="&#x1e82;" horiz-adv-x="915" d="M915 606 Q892 603 877.5 599 Q863 595 854 588 Q845 581 839 570.5 Q833 560 828 544 L649 -2 L609 -2 L465 415 L312 -2 L273 -2 L75 552 Q70 567 64 576 Q58 585 49.5 590.5 Q41 596 29 599.5 Q17 603 0 607 L0 625 Q6 625 20 624.5 Q34 624 50 623.5 Q66 623 81.5 622.5 Q97 622 105 622 Q115 622 130.5 622.5 Q146 623 162.5 623.5 Q179 624 193.5 624.5 Q208 625 216 625 L216 607 L155 591 L314 146 L438 484 L415 552 Q410 565 404.5 574 Q399 583 390.5 589 Q382 595 370.5 599 Q359 603 344 607 L344 625 Q350 625 363.5 624.5 Q377 624 393 623.5 Q409 623 424 622.5 Q439 622 447 622 Q457 622 472.5 622.5 Q488 623 504 623.5 Q520 624 534 624.5 Q548 625 556 625 L556 607 L493 591 L647 148 L792 591 L731 606 L731 625 Q752 624 770 623 Q786 622 802 622 Q818 622 827 622 Q835 622 847 622.5 Q859 623 872 623.5 Q885 624 896.5 624.5 Q908 625 915 625 L915 606 L915 606 Z M554 740 L360 661 L354 673 L489 781 Q499 790 507 790 Q514 790 522 782 L554 750 L554 740 Z " />
<glyph glyph-name="Wcircumflex" unicode="&#x174;" horiz-adv-x="915" d="M915 606 Q892 603 877.5 599 Q863 595 854 588 Q845 581 839 570.5 Q833 560 828 544 L649 -2 L609 -2 L465 415 L312 -2 L273 -2 L75 552 Q70 567 64 576 Q58 585 49.5 590.5 Q41 596 29 599.5 Q17 603 0 607 L0 625 Q6 625 20 624.5 Q34 624 50 623.5 Q66 623 81.5 622.5 Q97 622 105 622 Q115 622 130.5 622.5 Q146 623 162.5 623.5 Q179 624 193.5 624.5 Q208 625 216 625 L216 607 L155 591 L314 146 L438 484 L415 552 Q410 565 404.5 574 Q399 583 390.5 589 Q382 595 370.5 599 Q359 603 344 607 L344 625 Q350 625 363.5 624.5 Q377 624 393 623.5 Q409 623 424 622.5 Q439 622 447 622 Q457 622 472.5 622.5 Q488 623 504 623.5 Q520 624 534 624.5 Q548 625 556 625 L556 607 L493 591 L647 148 L792 591 L731 606 L731 625 Q752 624 770 623 Q786 622 802 622 Q818 622 827 622 Q835 622 847 622.5 Q859 623 872 623.5 Q885 624 896.5 624.5 Q908 625 915 625 L915 606 L915 606 Z M562 673 L457 735 L352 673 L341 683 L434 791 L479 791 L573 683 L562 673 Z " />
<glyph glyph-name="Wdieresis" unicode="&#x1e84;" horiz-adv-x="915" d="M915 606 Q892 603 877.5 599 Q863 595 854 588 Q845 581 839 570.5 Q833 560 828 544 L649 -2 L609 -2 L465 415 L312 -2 L273 -2 L75 552 Q70 567 64 576 Q58 585 49.5 590.5 Q41 596 29 599.5 Q17 603 0 607 L0 625 Q6 625 20 624.5 Q34 624 50 623.5 Q66 623 81.5 622.5 Q97 622 105 622 Q115 622 130.5 622.5 Q146 623 162.5 623.5 Q179 624 193.5 624.5 Q208 625 216 625 L216 607 L155 591 L314 146 L438 484 L415 552 Q410 565 404.5 574 Q399 583 390.5 589 Q382 595 370.5 599 Q359 603 344 607 L344 625 Q350 625 363.5 624.5 Q377 624 393 623.5 Q409 623 424 622.5 Q439 622 447 622 Q457 622 472.5 622.5 Q488 623 504 623.5 Q520 624 534 624.5 Q548 625 556 625 L556 607 L493 591 L647 148 L792 591 L731 606 L731 625 Q752 624 770 623 Q786 622 802 622 Q818 622 827 622 Q835 622 847 622.5 Q859 623 872 623.5 Q885 624 896.5 624.5 Q908 625 915 625 L915 606 L915 606 Z M582 738 Q582 719 568 705 Q554 691 534 691 Q515 691 501 705 Q487 719 487 738 Q487 757 501 770.5 Q515 784 534 784 Q554 784 568 770.5 Q582 757 582 738 Z M427 738 Q427 719 413 705 Q399 691 380 691 Q360 691 346 705 Q332 719 332 738 Q332 757 346 770.5 Q360 784 380 784 Q399 784 413 770.5 Q427 757 427 738 Z " />
<glyph glyph-name="Ygrave" unicode="&#x1ef2;" horiz-adv-x="563" d="M561 607 Q539 604 525.5 598.5 Q512 593 503 585.5 Q494 578 488 567.5 Q482 557 476 544 L332 246 L332 76 Q332 53 339 44 Q346 35 360 30 Q370 27 381 24.5 Q392 22 399 20 L399 0 Q390 0 376 0.5 Q362 1 346.5 1.5 Q331 2 316 2.5 Q301 3 290 3 Q278 3 262.5 2.5 Q247 2 231 1.5 Q215 1 200.5 0.5 Q186 0 176 0 L176 20 L240 40 L240 245 L76 553 Q63 578 46 589 Q29 600 2 608 L2 625 Q8 625 21 624.5 Q34 624 49.5 623.5 Q65 623 79.5 622.5 Q94 622 102 622 Q112 622 129 622.5 Q146 623 164 623.5 Q182 624 197.5 624.5 Q213 625 221 625 L221 608 L159 592 L311 307 L448 591 L390 607 L390 625 Q409 624 427 623 Q442 622 457.5 622 Q473 622 482 622 Q490 622 501 622.5 Q512 623 523 623.5 Q534 624 544 624.5 Q554 625 561 625 L561 607 L561 607 Z M194 750 L226 782 Q234 790 241 790 Q248 790 259 781 L394 673 L388 661 L194 740 L194 750 Z " />
<glyph glyph-name="Yacute" unicode="&#xdd;" horiz-adv-x="563" d="M561 607 Q539 604 525.5 598.5 Q512 593 503 585.5 Q494 578 488 567.5 Q482 557 476 544 L332 246 L332 76 Q332 53 339 44 Q346 35 360 30 Q370 27 381 24.5 Q392 22 399 20 L399 0 Q390 0 376 0.5 Q362 1 346.5 1.5 Q331 2 316 2.5 Q301 3 290 3 Q278 3 262.5 2.5 Q247 2 231 1.5 Q215 1 200.5 0.5 Q186 0 176 0 L176 20 L240 40 L240 245 L76 553 Q63 578 46 589 Q29 600 2 608 L2 625 Q8 625 21 624.5 Q34 624 49.5 623.5 Q65 623 79.5 622.5 Q94 622 102 622 Q112 622 129 622.5 Q146 623 164 623.5 Q182 624 197.5 624.5 Q213 625 221 625 L221 608 L159 592 L311 307 L448 591 L390 607 L390 625 Q409 624 427 623 Q442 622 457.5 622 Q473 622 482 622 Q490 622 501 622.5 Q512 623 523 623.5 Q534 624 544 624.5 Q554 625 561 625 L561 607 L561 607 Z M400 740 L206 661 L200 673 L335 781 Q345 790 353 790 Q360 790 368 782 L400 750 L400 740 Z " />
<glyph glyph-name="Ycircumflex" unicode="&#x176;" horiz-adv-x="563" d="M561 607 Q539 604 525.5 598.5 Q512 593 503 585.5 Q494 578 488 567.5 Q482 557 476 544 L332 246 L332 76 Q332 53 339 44 Q346 35 360 30 Q370 27 381 24.5 Q392 22 399 20 L399 0 Q390 0 376 0.5 Q362 1 346.5 1.5 Q331 2 316 2.5 Q301 3 290 3 Q278 3 262.5 2.5 Q247 2 231 1.5 Q215 1 200.5 0.5 Q186 0 176 0 L176 20 L240 40 L240 245 L76 553 Q63 578 46 589 Q29 600 2 608 L2 625 Q8 625 21 624.5 Q34 624 49.5 623.5 Q65 623 79.5 622.5 Q94 622 102 622 Q112 622 129 622.5 Q146 623 164 623.5 Q182 624 197.5 624.5 Q213 625 221 625 L221 608 L159 592 L311 307 L448 591 L390 607 L390 625 Q409 624 427 623 Q442 622 457.5 622 Q473 622 482 622 Q490 622 501 622.5 Q512 623 523 623.5 Q534 624 544 624.5 Q554 625 561 625 L561 607 L561 607 Z M415 673 L310 735 L205 673 L194 683 L287 791 L332 791 L426 683 L415 673 Z " />
<glyph glyph-name="Ydieresis" unicode="&#x178;" horiz-adv-x="563" d="M561 607 Q539 604 525.5 598.5 Q512 593 503 585.5 Q494 578 488 567.5 Q482 557 476 544 L332 246 L332 76 Q332 53 339 44 Q346 35 360 30 Q370 27 381 24.5 Q392 22 399 20 L399 0 Q390 0 376 0.5 Q362 1 346.5 1.5 Q331 2 316 2.5 Q301 3 290 3 Q278 3 262.5 2.5 Q247 2 231 1.5 Q215 1 200.5 0.5 Q186 0 176 0 L176 20 L240 40 L240 245 L76 553 Q63 578 46 589 Q29 600 2 608 L2 625 Q8 625 21 624.5 Q34 624 49.5 623.5 Q65 623 79.5 622.5 Q94 622 102 622 Q112 622 129 622.5 Q146 623 164 623.5 Q182 624 197.5 624.5 Q213 625 221 625 L221 608 L159 592 L311 307 L448 591 L390 607 L390 625 Q409 624 427 623 Q442 622 457.5 622 Q473 622 482 622 Q490 622 501 622.5 Q512 623 523 623.5 Q534 624 544 624.5 Q554 625 561 625 L561 607 L561 607 Z M430 738 Q430 719 416 705 Q402 691 382 691 Q363 691 349 705 Q335 719 335 738 Q335 757 349 770.5 Q363 784 382 784 Q402 784 416 770.5 Q430 757 430 738 Z M275 738 Q275 719 261 705 Q247 691 228 691 Q208 691 194 705 Q180 719 180 738 Q180 757 194 770.5 Q208 784 228 784 Q247 784 261 770.5 Q275 757 275 738 Z " />
<glyph glyph-name="Zacute" unicode="&#x179;" horiz-adv-x="555" d="M503 147 Q501 129 500 109.5 Q499 90 498 70.5 Q497 51 496.5 32.5 Q496 14 496 0 L54 0 L54 36 L389 587 L137 587 L86 482 L66 482 Q67 493 68 511.5 Q69 530 69.5 550 Q70 570 70.5 590 Q71 610 71 625 L497 625 L497 590 L160 38 L363 38 Q422 38 447 66.5 Q472 95 481 147 L503 147 L503 147 Z M387 740 L193 661 L187 673 L322 781 Q332 790 340 790 Q347 790 355 782 L387 750 L387 740 Z " />
<glyph glyph-name="Zcaron" unicode="&#x17d;" horiz-adv-x="555" d="M503 147 Q501 129 500 109.5 Q499 90 498 70.5 Q497 51 496.5 32.5 Q496 14 496 0 L54 0 L54 36 L389 587 L137 587 L86 482 L66 482 Q67 493 68 511.5 Q69 530 69.5 550 Q70 570 70.5 590 Q71 610 71 625 L497 625 L497 590 L160 38 L363 38 Q422 38 447 66.5 Q472 95 481 147 L503 147 L503 147 Z M399 781 L305 673 L260 673 L167 781 L178 791 L283 729 L388 791 L399 781 Z " />
<glyph glyph-name="Zdotaccent" unicode="&#x17b;" horiz-adv-x="555" d="M503 147 Q501 129 500 109.5 Q499 90 498 70.5 Q497 51 496.5 32.5 Q496 14 496 0 L54 0 L54 36 L389 587 L137 587 L86 482 L66 482 Q67 493 68 511.5 Q69 530 69.5 550 Q70 570 70.5 590 Q71 610 71 625 L497 625 L497 590 L160 38 L363 38 Q422 38 447 66.5 Q472 95 481 147 L503 147 L503 147 Z M340 746 Q340 724 324.5 707.5 Q309 691 287 691 Q265 691 249 707.5 Q233 724 233 746 Q233 768 249 783 Q265 798 287 798 Q309 798 324.5 783 Q340 768 340 746 Z " />
<glyph glyph-name="agrave" unicode="&#xe0;" horiz-adv-x="466" d="M444 19 Q430 5 409.5 -3.5 Q389 -12 369 -12 Q348 -12 328.5 -2.5 Q309 7 302 30 Q285 13 255 -1 Q225 -15 189 -15 Q160 -15 134.5 -6 Q109 3 90 20.5 Q71 38 59.5 63 Q48 88 48 121 Q48 164 68 193.5 Q88 223 121.5 241.5 Q155 260 200 268 Q245 276 295 276 L295 317 Q295 368 275 390.5 Q255 413 217 413 Q177 413 149 388.5 Q121 364 104 318 L66 333 Q85 387 127.5 423.5 Q170 460 243 460 Q284 460 317 444.5 Q350 429 367 394 Q378 373 380 345.5 Q382 318 382 287 L382 75 Q382 58 387.5 45.5 Q393 33 413 33 Q428 33 444 40 L444 19 Z M295 242 L287 242 Q219 242 179 214 Q139 186 139 129 Q139 78 162.5 55 Q186 32 218 32 Q241 32 261 41 Q281 50 295 64 L295 242 Z M144 592 L178 626 Q185 633 192 633 Q199 633 209 623 L329 502 L320 491 L144 582 L144 592 Z " />
<glyph glyph-name="aacute" unicode="&#xe1;" horiz-adv-x="466" d="M444 19 Q430 5 409.5 -3.5 Q389 -12 369 -12 Q348 -12 328.5 -2.5 Q309 7 302 30 Q285 13 255 -1 Q225 -15 189 -15 Q160 -15 134.5 -6 Q109 3 90 20.5 Q71 38 59.5 63 Q48 88 48 121 Q48 164 68 193.5 Q88 223 121.5 241.5 Q155 260 200 268 Q245 276 295 276 L295 317 Q295 368 275 390.5 Q255 413 217 413 Q177 413 149 388.5 Q121 364 104 318 L66 333 Q85 387 127.5 423.5 Q170 460 243 460 Q284 460 317 444.5 Q350 429 367 394 Q378 373 380 345.5 Q382 318 382 287 L382 75 Q382 58 387.5 45.5 Q393 33 413 33 Q428 33 444 40 L444 19 Z M295 242 L287 242 Q219 242 179 214 Q139 186 139 129 Q139 78 162.5 55 Q186 32 218 32 Q241 32 261 41 Q281 50 295 64 L295 242 Z M330 582 L154 491 L145 502 L265 623 Q275 633 282 633 Q289 633 296 626 L330 592 L330 582 Z " />
<glyph glyph-name="acircumflex" unicode="&#xe2;" horiz-adv-x="466" d="M444 19 Q430 5 409.5 -3.5 Q389 -12 369 -12 Q348 -12 328.5 -2.5 Q309 7 302 30 Q285 13 255 -1 Q225 -15 189 -15 Q160 -15 134.5 -6 Q109 3 90 20.5 Q71 38 59.5 63 Q48 88 48 121 Q48 164 68 193.5 Q88 223 121.5 241.5 Q155 260 200 268 Q245 276 295 276 L295 317 Q295 368 275 390.5 Q255 413 217 413 Q177 413 149 388.5 Q121 364 104 318 L66 333 Q85 387 127.5 423.5 Q170 460 243 460 Q284 460 317 444.5 Q350 429 367 394 Q378 373 380 345.5 Q382 318 382 287 L382 75 Q382 58 387.5 45.5 Q393 33 413 33 Q428 33 444 40 L444 19 Z M295 242 L287 242 Q219 242 179 214 Q139 186 139 129 Q139 78 162.5 55 Q186 32 218 32 Q241 32 261 41 Q281 50 295 64 L295 242 Z M333 503 L236 582 L139 503 L125 512 L213 640 L258 640 L347 512 L333 503 Z " />
<glyph glyph-name="atilde" unicode="&#xe3;" horiz-adv-x="466" d="M444 19 Q430 5 409.5 -3.5 Q389 -12 369 -12 Q348 -12 328.5 -2.5 Q309 7 302 30 Q285 13 255 -1 Q225 -15 189 -15 Q160 -15 134.5 -6 Q109 3 90 20.5 Q71 38 59.5 63 Q48 88 48 121 Q48 164 68 193.5 Q88 223 121.5 241.5 Q155 260 200 268 Q245 276 295 276 L295 317 Q295 368 275 390.5 Q255 413 217 413 Q177 413 149 388.5 Q121 364 104 318 L66 333 Q85 387 127.5 423.5 Q170 460 243 460 Q284 460 317 444.5 Q350 429 367 394 Q378 373 380 345.5 Q382 318 382 287 L382 75 Q382 58 387.5 45.5 Q393 33 413 33 Q428 33 444 40 L444 19 Z M295 242 L287 242 Q219 242 179 214 Q139 186 139 129 Q139 78 162.5 55 Q186 32 218 32 Q241 32 261 41 Q281 50 295 64 L295 242 Z M288 529 Q273 529 257.5 535 Q242 541 227 547.5 Q212 554 197 560 Q182 566 168 566 Q139 566 128 529 L109 531 Q114 584 133.5 604.5 Q153 625 181 625 Q196 625 211.5 619 Q227 613 242 606.5 Q257 600 272 594 Q287 588 301 588 Q330 588 341 625 L360 623 Q355 570 335.5 549.5 Q316 529 288 529 Z " />
<glyph glyph-name="adieresis" unicode="&#xe4;" horiz-adv-x="466" d="M444 19 Q430 5 409.5 -3.5 Q389 -12 369 -12 Q348 -12 328.5 -2.5 Q309 7 302 30 Q285 13 255 -1 Q225 -15 189 -15 Q160 -15 134.5 -6 Q109 3 90 20.5 Q71 38 59.5 63 Q48 88 48 121 Q48 164 68 193.5 Q88 223 121.5 241.5 Q155 260 200 268 Q245 276 295 276 L295 317 Q295 368 275 390.5 Q255 413 217 413 Q177 413 149 388.5 Q121 364 104 318 L66 333 Q85 387 127.5 423.5 Q170 460 243 460 Q284 460 317 444.5 Q350 429 367 394 Q378 373 380 345.5 Q382 318 382 287 L382 75 Q382 58 387.5 45.5 Q393 33 413 33 Q428 33 444 40 L444 19 Z M295 242 L287 242 Q219 242 179 214 Q139 186 139 129 Q139 78 162.5 55 Q186 32 218 32 Q241 32 261 41 Q281 50 295 64 L295 242 Z M359 577 Q359 558 345 544 Q331 530 311 530 Q292 530 278 544 Q264 558 264 577 Q264 596 278 609.5 Q292 623 311 623 Q331 623 345 609.5 Q359 596 359 577 Z M204 577 Q204 558 190 544 Q176 530 157 530 Q137 530 123 544 Q109 558 109 577 Q109 596 123 609.5 Q137 623 157 623 Q176 623 190 609.5 Q204 596 204 577 Z " />
<glyph glyph-name="amacron" unicode="&#x101;" horiz-adv-x="466" d="M444 19 Q430 5 409.5 -3.5 Q389 -12 369 -12 Q348 -12 328.5 -2.5 Q309 7 302 30 Q285 13 255 -1 Q225 -15 189 -15 Q160 -15 134.5 -6 Q109 3 90 20.5 Q71 38 59.5 63 Q48 88 48 121 Q48 164 68 193.5 Q88 223 121.5 241.5 Q155 260 200 268 Q245 276 295 276 L295 317 Q295 368 275 390.5 Q255 413 217 413 Q177 413 149 388.5 Q121 364 104 318 L66 333 Q85 387 127.5 423.5 Q170 460 243 460 Q284 460 317 444.5 Q350 429 367 394 Q378 373 380 345.5 Q382 318 382 287 L382 75 Q382 58 387.5 45.5 Q393 33 413 33 Q428 33 444 40 L444 19 Z M295 242 L287 242 Q219 242 179 214 Q139 186 139 129 Q139 78 162.5 55 Q186 32 218 32 Q241 32 261 41 Q281 50 295 64 L295 242 Z M122 532 L122 578 L347 578 L347 532 L122 532 Z " />
<glyph glyph-name="abreve" unicode="&#x103;" horiz-adv-x="466" d="M444 19 Q430 5 409.5 -3.5 Q389 -12 369 -12 Q348 -12 328.5 -2.5 Q309 7 302 30 Q285 13 255 -1 Q225 -15 189 -15 Q160 -15 134.5 -6 Q109 3 90 20.5 Q71 38 59.5 63 Q48 88 48 121 Q48 164 68 193.5 Q88 223 121.5 241.5 Q155 260 200 268 Q245 276 295 276 L295 317 Q295 368 275 390.5 Q255 413 217 413 Q177 413 149 388.5 Q121 364 104 318 L66 333 Q85 387 127.5 423.5 Q170 460 243 460 Q284 460 317 444.5 Q350 429 367 394 Q378 373 380 345.5 Q382 318 382 287 L382 75 Q382 58 387.5 45.5 Q393 33 413 33 Q428 33 444 40 L444 19 Z M295 242 L287 242 Q219 242 179 214 Q139 186 139 129 Q139 78 162.5 55 Q186 32 218 32 Q241 32 261 41 Q281 50 295 64 L295 242 Z M234 515 Q182 515 154 546 Q126 577 126 629 L148 629 Q151 597 175.5 583.5 Q200 570 234 570 Q268 570 292.5 583.5 Q317 597 320 629 L342 629 Q342 577 314 546 Q286 515 234 515 Z " />
<glyph glyph-name="acaron" unicode="&#x1ce;" horiz-adv-x="466" d="M444 19 Q430 5 409.5 -3.5 Q389 -12 369 -12 Q348 -12 328.5 -2.5 Q309 7 302 30 Q285 13 255 -1 Q225 -15 189 -15 Q160 -15 134.5 -6 Q109 3 90 20.5 Q71 38 59.5 63 Q48 88 48 121 Q48 164 68 193.5 Q88 223 121.5 241.5 Q155 260 200 268 Q245 276 295 276 L295 317 Q295 368 275 390.5 Q255 413 217 413 Q177 413 149 388.5 Q121 364 104 318 L66 333 Q85 387 127.5 423.5 Q170 460 243 460 Q284 460 317 444.5 Q350 429 367 394 Q378 373 380 345.5 Q382 318 382 287 L382 75 Q382 58 387.5 45.5 Q393 33 413 33 Q428 33 444 40 L444 19 Z M295 242 L287 242 Q219 242 179 214 Q139 186 139 129 Q139 78 162.5 55 Q186 32 218 32 Q241 32 261 41 Q281 50 295 64 L295 242 Z M346 630 L257 502 L212 502 L124 630 L138 639 L235 560 L332 639 L346 630 Z " />
<glyph glyph-name="aring" unicode="&#xe5;" horiz-adv-x="466" d="M444 19 Q430 5 409.5 -3.5 Q389 -12 369 -12 Q348 -12 328.5 -2.5 Q309 7 302 30 Q285 13 255 -1 Q225 -15 189 -15 Q160 -15 134.5 -6 Q109 3 90 20.5 Q71 38 59.5 63 Q48 88 48 121 Q48 164 68 193.5 Q88 223 121.5 241.5 Q155 260 200 268 Q245 276 295 276 L295 317 Q295 368 275 390.5 Q255 413 217 413 Q177 413 149 388.5 Q121 364 104 318 L66 333 Q85 387 127.5 423.5 Q170 460 243 460 Q284 460 317 444.5 Q350 429 367 394 Q378 373 380 345.5 Q382 318 382 287 L382 75 Q382 58 387.5 45.5 Q393 33 413 33 Q428 33 444 40 L444 19 Z M295 242 L287 242 Q219 242 179 214 Q139 186 139 129 Q139 78 162.5 55 Q186 32 218 32 Q241 32 261 41 Q281 50 295 64 L295 242 Z M320 580 Q320 545 296 521 Q272 497 237 497 Q202 497 178 520.5 Q154 544 154 579 Q154 614 178 638 Q202 662 237 662 Q272 662 296 638.5 Q320 615 320 580 Z M280 580 Q280 602 267.5 614.5 Q255 627 237 627 Q219 627 206.5 614 Q194 601 194 579 Q194 557 206.5 544.5 Q219 532 237 532 Q255 532 267.5 545 Q280 558 280 580 Z " />
<glyph glyph-name="aringacute" unicode="&#x1fb;" horiz-adv-x="466" d="M444 19 Q430 5 409.5 -3.5 Q389 -12 369 -12 Q348 -12 328.5 -2.5 Q309 7 302 30 Q285 13 255 -1 Q225 -15 189 -15 Q160 -15 134.5 -6 Q109 3 90 20.5 Q71 38 59.5 63 Q48 88 48 121 Q48 164 68 193.5 Q88 223 121.5 241.5 Q155 260 200 268 Q245 276 295 276 L295 317 Q295 368 275 390.5 Q255 413 217 413 Q177 413 149 388.5 Q121 364 104 318 L66 333 Q85 387 127.5 423.5 Q170 460 243 460 Q284 460 317 444.5 Q350 429 367 394 Q378 373 380 345.5 Q382 318 382 287 L382 75 Q382 58 387.5 45.5 Q393 33 413 33 Q428 33 444 40 L444 19 Z M295 242 L287 242 Q219 242 179 214 Q139 186 139 129 Q139 78 162.5 55 Q186 32 218 32 Q241 32 261 41 Q281 50 295 64 L295 242 Z M317 576 Q317 541 293 517 Q269 493 234 493 Q199 493 175 516.5 Q151 540 151 575 Q151 610 175 634 Q199 658 234 658 Q269 658 293 634.5 Q317 611 317 576 Z M277 576 Q277 598 264.5 610.5 Q252 623 234 623 Q216 623 203.5 610 Q191 597 191 575 Q191 553 203.5 540.5 Q216 528 234 528 Q252 528 264.5 541 Q277 554 277 576 Z M323 755 L147 664 L138 675 L258 796 Q268 806 275 806 Q282 806 289 799 L323 765 L323 755 Z " />
<glyph glyph-name="aogonek" unicode="&#x105;" horiz-adv-x="466" d="M441 -203 Q425 -211 404 -216.5 Q383 -222 361 -222 Q312 -222 282 -197.5 Q252 -173 252 -128 Q252 -90 280 -60 Q308 -30 355 -9 Q336 -7 321.5 3 Q307 13 302 30 Q285 13 255 -1 Q225 -15 189 -15 Q160 -15 134.5 -6 Q109 3 90 20.5 Q71 38 59.5 63 Q48 88 48 121 Q48 164 68 193.5 Q88 223 121.5 241.5 Q155 260 200 268 Q245 276 295 276 L295 317 Q295 368 275 390.5 Q255 413 217 413 Q177 413 149 388.5 Q121 364 104 318 L66 333 Q85 387 127.5 423.5 Q170 460 243 460 Q284 460 317 444.5 Q350 429 367 394 Q378 373 380 345.5 Q382 318 382 287 L382 75 Q382 58 387.5 45.5 Q393 33 413 33 Q428 33 444 40 L444 19 Q379 -27 347.5 -58 Q316 -89 316 -125 Q316 -157 334 -172.5 Q352 -188 379 -188 Q393 -188 407.5 -185.5 Q422 -183 435 -179 L441 -203 Z M295 242 L287 242 Q219 242 179 214 Q139 186 139 129 Q139 78 162.5 55 Q186 32 218 32 Q241 32 261 41 Q281 50 295 64 L295 242 Z " />
<glyph glyph-name="ae" unicode="&#xe6;" horiz-adv-x="708" d="M662 87 Q639 45 593.5 15 Q548 -15 488 -15 Q440 -15 402 4 Q364 23 344 52 Q335 42 320 30.5 Q305 19 285.5 9 Q266 -1 241.5 -8 Q217 -15 189 -15 Q160 -15 134.5 -6 Q109 3 90 20.5 Q71 38 59.5 63 Q48 88 48 121 Q48 164 68 193.5 Q88 223 121.5 241.5 Q155 260 200 268 Q245 276 295 276 L295 305 Q295 359 274 386 Q253 413 217 413 Q177 413 149 388.5 Q121 364 104 318 L66 333 Q85 387 127.5 423.5 Q170 460 243 460 Q284 460 314.5 443 Q345 426 361 397 Q382 426 415 443 Q448 460 490 460 Q531 460 564.5 445 Q598 430 620.5 401.5 Q643 373 654 331.5 Q665 290 661 238 L385 238 Q387 185 398 147 Q409 109 426.5 85 Q444 61 467 49.5 Q490 38 515 38 Q559 38 589 60 Q619 82 636 109 L662 87 Z M575 274 Q574 343 551.5 380.5 Q529 418 486 418 Q464 418 446.5 407 Q429 396 416.5 377 Q404 358 396.5 331.5 Q389 305 387 274 L575 274 Z M325 85 Q318 98 312.5 115.5 Q307 133 303 152.5 Q299 172 297 192 Q295 212 295 230 L295 242 L287 242 Q219 242 179 214 Q139 186 139 129 Q139 103 147 85 Q155 67 167 55 Q179 43 194 37.5 Q209 32 223 32 Q254 32 275.5 44 Q297 56 325 85 Z " />
<glyph glyph-name="aeacute" unicode="&#x1fd;" horiz-adv-x="708" d="M662 87 Q639 45 593.5 15 Q548 -15 488 -15 Q440 -15 402 4 Q364 23 344 52 Q335 42 320 30.5 Q305 19 285.5 9 Q266 -1 241.5 -8 Q217 -15 189 -15 Q160 -15 134.5 -6 Q109 3 90 20.5 Q71 38 59.5 63 Q48 88 48 121 Q48 164 68 193.5 Q88 223 121.5 241.5 Q155 260 200 268 Q245 276 295 276 L295 305 Q295 359 274 386 Q253 413 217 413 Q177 413 149 388.5 Q121 364 104 318 L66 333 Q85 387 127.5 423.5 Q170 460 243 460 Q284 460 314.5 443 Q345 426 361 397 Q382 426 415 443 Q448 460 490 460 Q531 460 564.5 445 Q598 430 620.5 401.5 Q643 373 654 331.5 Q665 290 661 238 L385 238 Q387 185 398 147 Q409 109 426.5 85 Q444 61 467 49.5 Q490 38 515 38 Q559 38 589 60 Q619 82 636 109 L662 87 Z M575 274 Q574 343 551.5 380.5 Q529 418 486 418 Q464 418 446.5 407 Q429 396 416.5 377 Q404 358 396.5 331.5 Q389 305 387 274 L575 274 Z M325 85 Q318 98 312.5 115.5 Q307 133 303 152.5 Q299 172 297 192 Q295 212 295 230 L295 242 L287 242 Q219 242 179 214 Q139 186 139 129 Q139 103 147 85 Q155 67 167 55 Q179 43 194 37.5 Q209 32 223 32 Q254 32 275.5 44 Q297 56 325 85 Z M457 582 L281 491 L272 502 L392 623 Q402 633 409 633 Q416 633 423 626 L457 592 L457 582 Z " />
<glyph glyph-name="cacute" unicode="&#x107;" horiz-adv-x="435" d="M407 87 Q398 69 382 50.5 Q366 32 344.5 17.5 Q323 3 295.5 -6 Q268 -15 236 -15 Q191 -15 154 2 Q117 19 90.5 49.5 Q64 80 49.5 124 Q35 168 35 222 Q35 278 52 322.5 Q69 367 98.5 397.5 Q128 428 168.5 444 Q209 460 257 460 Q292 460 323 454.5 Q354 449 380 447 Q380 422 381.5 381 Q383 340 385 306 L363 306 Q361 329 354.5 348.5 Q348 368 335 384 Q321 401 300.5 410 Q280 419 254 419 Q193 419 160 367.5 Q127 316 127 225 Q127 132 165 85 Q203 38 262 38 Q303 38 334 59.5 Q365 81 382 110 L407 87 L407 87 Z M338 582 L162 491 L153 502 L273 623 Q283 633 290 633 Q297 633 304 626 L338 592 L338 582 Z " />
<glyph glyph-name="ccedilla" unicode="&#xe7;" horiz-adv-x="435" d="M254 419 Q193 419 160 367.5 Q127 316 127 225 Q127 132 165 85 Q203 38 262 38 Q303 38 334 59 Q365 80 382 109 L407 87 Q398 69 383.5 52 Q369 35 349 21 Q329 7 304 -2.5 Q279 -12 249 -14 L239 -49 Q279 -56 304 -77.5 Q329 -99 329 -130 Q329 -148 318.5 -166 Q308 -184 287 -198.5 Q266 -213 235.5 -222 Q205 -231 165 -231 L159 -207 Q207 -203 236 -183.5 Q265 -164 265 -130 Q265 -108 249.5 -97 Q234 -86 205 -82 Q194 -80 191.5 -76.5 Q189 -73 191 -65 L207 -13 Q129 -3 82 59.5 Q35 122 35 222 Q35 278 52 322.5 Q69 367 98.5 397.5 Q128 428 168.5 444 Q209 460 257 460 Q292 460 323 454.5 Q354 449 380 447 Q380 422 381.5 381 Q383 340 385 306 L363 306 Q361 329 354.5 348.5 Q348 368 335 384 Q321 401 300.5 410 Q280 419 254 419 Z " />
</font>
</svg>
