<?xml version="1.0" standalone="no"?>
<!DOCTYPE svg PUBLIC "-//W3C//DTD SVG 1.1//EN" "http://www.w3.org/Graphics/SVG/1.1/DTD/svg11.dtd" >
<svg xmlns="http://www.w3.org/2000/svg" xmlns:xlink="http://www.w3.org/1999/xlink" version="1.1">
<metadata></metadata>
<defs>
<font id="merriweatherbold_italic" horiz-adv-x="0" >
<font-face units-per-em="2048" ascent="1638" descent="-410" />
<missing-glyph horiz-adv-x="485" />
<glyph unicode="&#xfb01;" horiz-adv-x="1362" d="M-229 -495l55 176q5 -2 24 -9.5t43.5 -15t50 -13t43.5 -5.5q49 0 79 57t44 160l138 1143h-132l18 89l142 63l15 87q16 93 55.5 172t97.5 137t131.5 91t158.5 33q41 0 84.5 -4.5t83.5 -21.5l-61 -173q-9 7 -22 15.5t-30 16t-38.5 12t-47.5 4.5q-39 0 -65 -15.5 t-43.5 -46.5t-28.5 -76.5t-20 -106.5l-16 -119h233l-19 -157h-235l-125 -1023q-13 -102 -47 -190.5t-89 -154.5t-130 -104.5t-170 -38.5q-27 0 -53.5 1.5t-50 4t-42.5 6t-31 6.5zM806 1031l18 81l374 51l52 -24l-134 -932q-11 -76 29 -76q17 0 39 12t60 45l30 -63 q-8 -11 -30.5 -35t-57 -48.5t-81 -43t-101.5 -18.5q-84 0 -126.5 36t-34.5 105q7 60 19 147.5t27.5 198t34 240t38.5 273.5zM1003 1507q1 35 15 65.5t37 53.5t53.5 36.5t65.5 13.5q34 0 62 -11.5t47 -31t28.5 -44t8.5 -51.5q-1 -35 -13.5 -67t-35.5 -56t-55.5 -38t-73.5 -14 q-29 0 -54.5 12t-44.5 32t-30 46t-10 54z" />
<glyph unicode="&#xfb02;" horiz-adv-x="1328" d="M-229 -495l55 176q5 -2 24 -9.5t43.5 -15t50 -13t43.5 -5.5q49 0 79 57t44 160l138 1143h-132l18 89l142 63l15 87q16 93 55.5 172t97.5 137t131.5 91t158.5 33q41 0 84.5 -4.5t83.5 -21.5l-61 -173q-9 7 -22 15.5t-30 16t-38.5 12t-47.5 4.5q-39 0 -65 -15.5 t-43.5 -46.5t-28.5 -76.5t-20 -106.5l-16 -119h233l-19 -157h-235l-125 -1023q-13 -102 -47 -190.5t-89 -154.5t-130 -104.5t-170 -38.5q-27 0 -53.5 1.5t-50 4t-42.5 6t-31 6.5zM820 115q0 16 2.5 39t4.5 38l177 1290l-127 43l20 83l334 42l50 -27l-193 -1416 q-5 -35 1.5 -55.5t26.5 -20.5q15 0 36.5 10.5t63.5 45.5l29 -62q-7 -11 -29 -35t-55.5 -48.5t-78 -43t-97.5 -18.5q-35 0 -65 7.5t-52 23.5t-35 42t-13 62z" />
<glyph unicode="&#xfb03;" horiz-adv-x="2069" d="M-229 -495l55 176q5 -2 24 -9.5t43.5 -15t50 -13t43.5 -5.5q49 0 79 57t44 160l138 1143h-132l18 89l142 63l15 87q16 93 55.5 172t97.5 137t131.5 91t158.5 33q41 0 84.5 -4.5t83.5 -21.5l-61 -173q-9 7 -22 15.5t-30 16t-38.5 12t-47.5 4.5q-39 0 -65 -15.5 t-43.5 -46.5t-28.5 -76.5t-20 -106.5l-16 -119h233l-19 -157h-235l-125 -1023q-13 -102 -47 -190.5t-89 -154.5t-130 -104.5t-170 -38.5q-27 0 -53.5 1.5t-50 4t-42.5 6t-31 6.5zM478 -495l55 176q5 -2 24 -9.5t43.5 -15t50 -13t43.5 -5.5q49 0 79 57t44 160l138 1143h-132 l18 89l142 63l15 87q16 93 55.5 172t97.5 137t131.5 91t158.5 33q41 0 84.5 -4.5t83.5 -21.5l-61 -173q-9 7 -22 15.5t-30 16t-38.5 12t-47.5 4.5q-39 0 -65 -15.5t-43.5 -46.5t-28.5 -76.5t-20 -106.5l-16 -119h233l-19 -157h-235l-125 -1023q-13 -102 -47 -190.5 t-89 -154.5t-130 -104.5t-170 -38.5q-27 0 -53.5 1.5t-50 4t-42.5 6t-31 6.5zM1513 1031l18 81l374 51l52 -24l-134 -932q-11 -76 29 -76q17 0 39 12t60 45l30 -63q-8 -11 -30.5 -35t-57 -48.5t-81 -43t-101.5 -18.5q-84 0 -126.5 36t-34.5 105q7 60 19 147.5t27.5 198 t34 240t38.5 273.5zM1710 1507q1 35 15 65.5t37 53.5t53.5 36.5t65.5 13.5q34 0 62 -11.5t47 -31t28.5 -44t8.5 -51.5q-1 -35 -13.5 -67t-35.5 -56t-55.5 -38t-73.5 -14q-29 0 -54.5 12t-44.5 32t-30 46t-10 54z" />
<glyph unicode="&#xfb04;" horiz-adv-x="2035" d="M-229 -495l55 176q5 -2 24 -9.5t43.5 -15t50 -13t43.5 -5.5q49 0 79 57t44 160l138 1143h-132l18 89l142 63l15 87q16 93 55.5 172t97.5 137t131.5 91t158.5 33q41 0 84.5 -4.5t83.5 -21.5l-61 -173q-9 7 -22 15.5t-30 16t-38.5 12t-47.5 4.5q-39 0 -65 -15.5 t-43.5 -46.5t-28.5 -76.5t-20 -106.5l-16 -119h233l-19 -157h-235l-125 -1023q-13 -102 -47 -190.5t-89 -154.5t-130 -104.5t-170 -38.5q-27 0 -53.5 1.5t-50 4t-42.5 6t-31 6.5zM478 -495l55 176q5 -2 24 -9.5t43.5 -15t50 -13t43.5 -5.5q49 0 79 57t44 160l138 1143h-132 l18 89l142 63l15 87q16 93 55.5 172t97.5 137t131.5 91t158.5 33q41 0 84.5 -4.5t83.5 -21.5l-61 -173q-9 7 -22 15.5t-30 16t-38.5 12t-47.5 4.5q-39 0 -65 -15.5t-43.5 -46.5t-28.5 -76.5t-20 -106.5l-16 -119h233l-19 -157h-235l-125 -1023q-13 -102 -47 -190.5 t-89 -154.5t-130 -104.5t-170 -38.5q-27 0 -53.5 1.5t-50 4t-42.5 6t-31 6.5zM1527 115q0 16 2.5 39t4.5 38l177 1290l-127 43l20 83l334 42l50 -27l-193 -1416q-5 -35 1.5 -55.5t26.5 -20.5q15 0 36.5 10.5t63.5 45.5l29 -62q-7 -11 -29 -35t-55.5 -48.5t-78 -43 t-97.5 -18.5q-35 0 -65 7.5t-52 23.5t-35 42t-13 62z" />
<glyph />
<glyph horiz-adv-x="682" />
<glyph />
<glyph />
<glyph />
<glyph />
<glyph />
<glyph />
<glyph />
<glyph />
<glyph unicode="&#x9;" />
<glyph unicode="&#xa;" />
<glyph />
<glyph />
<glyph />
<glyph />
<glyph />
<glyph />
<glyph />
<glyph />
<glyph />
<glyph />
<glyph />
<glyph />
<glyph unicode=" "  horiz-adv-x="485" />
<glyph unicode="&#x09;" horiz-adv-x="485" />
<glyph unicode="&#xa0;" horiz-adv-x="485" />
<glyph unicode="!" horiz-adv-x="701" d="M123 122q2 39 19.5 71t43.5 55t58 35.5t63 12.5q36 0 62 -12t42.5 -31.5t23.5 -45.5t6 -54q-2 -42 -20 -74.5t-45 -54.5t-59.5 -33.5t-65.5 -11.5q-27 0 -51 10.5t-42 29t-27.5 45t-7.5 58.5zM248 508l131 1270h290l-250 -1270h-171z" />
<glyph unicode="&#x22;" horiz-adv-x="1057" d="M224 966l79 721h257l-166 -721h-170zM723 966l79 721h257l-166 -721h-170z" />
<glyph unicode="#" horiz-adv-x="1405" d="M111 365l16 154h210l55 355h-207l12 151h217l53 332h195l-51 -332h281l56 332h195l-54 -332h217l-12 -151h-227l-56 -355h213l-16 -154h-224l-57 -365h-190l51 365h-282l-62 -365h-192l58 365h-199zM533 519h282l55 355h-281z" />
<glyph unicode="$" horiz-adv-x="1205" d="M63 70l54 298h165l15 -197q43 -32 101 -54.5t128 -22.5q61 0 112 16t88 46.5t58.5 74.5t24.5 99q2 54 -16 97.5t-52.5 82t-84.5 74t-111 74.5q-64 40 -124.5 85.5t-107.5 99.5t-75.5 120t-28.5 147q0 96 35.5 173.5t98 133t147.5 89t184 41.5l29 182h181l-30 -184 q103 -10 170.5 -31.5t102.5 -43.5l-51 -273h-153l-31 180q-38 27 -88.5 41.5t-106.5 14.5q-47 0 -89.5 -13.5t-75 -40.5t-52.5 -67.5t-22 -95.5q-2 -58 17.5 -105t56.5 -88t89.5 -78.5t116.5 -76.5q62 -38 121 -80.5t105 -94t74 -114.5t28 -142q0 -92 -32.5 -170.5 t-94 -138.5t-150.5 -98.5t-202 -48.5l-34 -211h-180l34 211q-62 5 -118 15.5t-101.5 23t-78 25.5t-46.5 25z" />
<glyph unicode="%" horiz-adv-x="1911" d="M180 1055q0 79 31.5 156.5t88 138t134 98t169.5 37.5q77 0 133 -22.5t92.5 -63t54 -95.5t17.5 -119q0 -82 -30.5 -162t-86.5 -143t-134.5 -101.5t-175.5 -38.5q-71 0 -126 24.5t-92 67t-56 100t-19 123.5zM381 0l947 1530h189l-947 -1530h-189zM381 1057q0 -47 7 -85 t21.5 -66t37.5 -43t55 -15q49 0 85 34t58.5 84.5t33.5 107.5t11 103q0 93 -27.5 147t-87.5 54q-50 0 -86.5 -32.5t-60.5 -81t-35.5 -104.5t-11.5 -103zM1027 376q0 79 31.5 156.5t88 138t134 98t169.5 37.5q77 0 133 -22.5t92.5 -63t54 -95.5t17.5 -119q0 -82 -30.5 -162 t-86.5 -143t-134.5 -101.5t-175.5 -38.5q-71 0 -126 24.5t-92 67t-56 100t-19 123.5zM1228 378q0 -47 7 -85t21.5 -66t37.5 -43t55 -15q49 0 85 34t58.5 84.5t33.5 107.5t11 103q0 93 -27.5 147t-87.5 54q-50 0 -86.5 -32.5t-60.5 -81t-35.5 -104.5t-11.5 -103z" />
<glyph unicode="&#x26;" horiz-adv-x="1673" d="M60 354q0 84 30 148.5t81 115t118 89.5t141 74q-17 41 -32.5 86t-27 91t-18 90t-6.5 83q0 100 38 179t105 134.5t158 85t197 29.5q103 0 175 -24t117.5 -64.5t66.5 -93t21 -109.5q0 -94 -44.5 -164.5t-116 -126.5t-160.5 -102.5t-179 -91.5q48 -85 93 -155.5t91.5 -131 t95.5 -114t105 -104.5l3 -4q68 99 68 253q0 32 -2.5 60t-6.5 52q-9 1 -18 1h-18q-48 0 -89 -12t-63 -26v180q7 7 19.5 15.5t31.5 16t45 12.5t59 5q28 0 54.5 -3t53.5 -7t56.5 -7t64.5 -3q40 0 69.5 7t50.5 25t34.5 48.5t20.5 76.5h95q10 -69 4 -133t-29 -112.5t-64 -77.5 t-101 -29q-11 0 -21.5 0.5t-21.5 1.5q1 -11 1.5 -22.5t0.5 -24.5q0 -121 -48.5 -219t-131.5 -172q27 -20 50 -31q21 -9 46 -16t51 -11.5t52 -6.5t47 -1l-6 -105q-56 -18 -108.5 -23.5t-123.5 -5.5q-139 0 -241 61q-87 -34 -181.5 -51t-191.5 -17q-114 0 -216 24t-178.5 71.5 t-121 119t-44.5 166.5zM335 377q0 -69 25 -121.5t68 -87t101 -52t124 -17.5q135 0 234 27q-70 65 -124 128.5t-99 128t-85 131t-82 137.5q-72 -53 -117 -119.5t-45 -154.5zM606 1177q0 -84 20 -157t43 -129q61 31 115 65.5t94 77t63.5 95.5t23.5 120q0 34 -6 69t-21 63.5 t-41.5 46.5t-68.5 18q-58 0 -100 -21t-69 -57t-40 -85t-13 -106z" />
<glyph unicode="'" horiz-adv-x="558" d="M219 966l79 721h257l-166 -721h-170z" />
<glyph unicode="(" horiz-adv-x="869" d="M190 505q0 103 15 219q19 147 66.5 276.5t108.5 240t130 200t132 155t113 106.5t75 54l107 -74q-21 -14 -59 -49.5t-84.5 -93t-97.5 -135t-97.5 -174t-85 -211t-59.5 -246.5q-9 -63 -14.5 -134t-5.5 -127q0 -110 14 -206t36.5 -177t51 -146t57 -114t54.5 -81.5t44 -47.5 l-123 -74h-17q-18 12 -52 43.5t-74.5 82t-82 120.5t-75.5 159t-55.5 197.5t-21.5 236.5z" />
<glyph unicode=")" horiz-adv-x="874" d="M-60 -254q21 14 59 49.5t84.5 93t97.5 135t97.5 174t85 211t59.5 246.5q9 63 14.5 134t5.5 127q0 110 -14 206t-36.5 177t-51 146t-57 114t-54.5 81.5t-44 47.5l123 74h17q18 -12 52 -43.5t74.5 -82t82 -120.5t75.5 -159t55.5 -197.5t21.5 -236.5q0 -103 -15 -219 q-19 -147 -66.5 -276.5t-108.5 -240t-130 -200t-132 -155t-113 -106.5t-75 -54z" />
<glyph unicode="*" horiz-adv-x="1366" d="M250 988l333 134l87 29l-79 28l-309 135l128 185l254 -211l61 -57l-9 88l-7 344l222 -1l-80 -345l-24 -84l71 56l300 211l86 -187l-333 -134l-87 -30l79 -28l309 -134l-128 -185l-254 210l-62 60l9 -90l7 -345l-222 1l79 346l25 85l-70 -58l-300 -211z" />
<glyph unicode="+" horiz-adv-x="1346" d="M250 683l18 178h221l138 -11l13 165l27 230h198l-26 -230l-29 -164l115 10h240l-18 -178h-250l-112 7q-2 -42 -5 -82t-5 -82l-28 -241h-199l27 241l26 164l-141 -7h-210z" />
<glyph unicode="," horiz-adv-x="541" d="M-27 -432l3 21q42 18 79.5 53.5t66 79.5t45 93.5t16.5 96.5q0 33 -8.5 63.5t-23 53.5t-33.5 36.5t-41 12.5l7 59l124 143q59 -14 98 -44.5t62 -69.5t32.5 -83.5t9.5 -86.5q0 -84 -28 -160.5t-78.5 -142t-121 -117.5t-155.5 -87z" />
<glyph unicode="-" horiz-adv-x="1276" d="M240 683l18 178h847l-18 -178h-847z" />
<glyph unicode="." horiz-adv-x="541" d="M74 122q2 39 18 71t40.5 55t55 35.5t61.5 12.5q36 0 62 -12t42.5 -31.5t23.5 -45.5t6 -54q-2 -42 -19 -74.5t-43 -54.5t-58 -33.5t-65 -11.5q-27 0 -50.5 10.5t-40.5 29t-26 45t-7 58.5z" />
<glyph unicode="/" horiz-adv-x="854" d="M-127 -362l861 1959h204l-863 -1959h-202z" />
<glyph unicode="0" horiz-adv-x="1278" d="M97 450q0 151 49 281t135 226t202 150.5t251 54.5q126 0 213 -34t141 -95.5t78.5 -147t24.5 -188.5q0 -141 -45.5 -270t-128.5 -227.5t-199.5 -157t-258.5 -58.5q-125 0 -212.5 37.5t-143 101t-81 148t-25.5 179.5zM378 466q0 -75 11.5 -142t36 -118t63 -81t92.5 -31 q59 -4 106.5 18.5t84.5 64.5t63 100t43 124.5t25 137t8 138.5q0 84 -11.5 153t-36 118.5t-63 77t-93.5 27.5q-66 1 -116 -26.5t-86.5 -73.5t-61 -106.5t-39 -126t-20.5 -131.5t-6 -123z" />
<glyph unicode="1" horiz-adv-x="930" d="M86 0l10 97l200 27l107 778q-58 -14 -119 -27.5t-127 -24.5l-17 110q52 12 113 34.5t120.5 50.5t113.5 59t94 58l124 -28l-142 -1009l211 -28l-10 -97h-678z" />
<glyph unicode="2" horiz-adv-x="1249" d="M60 108q91 49 178.5 103t166.5 111t145.5 115.5t115 117t75.5 115.5t27 111q0 45 -11 83t-34 66.5t-58.5 44.5t-85.5 16q-52 0 -102 -14.5t-96 -38t-86.5 -53.5t-71.5 -62l-64 109q32 38 80 78.5t110 74.5t138 55.5t164 21.5q111 0 188 -30t125 -78t69 -108t21 -120 q0 -69 -27.5 -135t-76 -128.5t-114.5 -121.5t-142.5 -112.5t-160 -101.5t-166.5 -89l538 41l124 174l124 -41l-100 -312h-968z" />
<glyph unicode="3" horiz-adv-x="1104" d="M22 -321l18 136q16 -3 35 -5.5t37.5 -4t35.5 -2.5t30 -1q108 0 196.5 25.5t151 72t96.5 111t34 141.5q0 49 -15 90.5t-48 71t-85.5 44.5t-127.5 11l-126 -32l18 145q67 13 138.5 44t130.5 75.5t97 102t38 125.5q0 36 -12 65.5t-33.5 51t-53 33.5t-70.5 12 q-50 0 -94.5 -9.5t-84 -26.5t-76 -40t-69.5 -50l-52 113q25 27 71 59t107 59.5t135 46.5t156 19q69 0 133 -18t112.5 -53.5t77.5 -89t29 -125.5q0 -68 -29 -129t-78 -112t-114 -90t-137 -63q91 -2 156 -27t107 -67t61.5 -97.5t19.5 -117.5q0 -122 -59 -217t-159.5 -160.5 t-233.5 -100t-282 -34.5q-44 0 -93 5t-89 13z" />
<glyph unicode="4" horiz-adv-x="1264" d="M1 89q91 137 174.5 272.5t166.5 277.5t169 294t182 323h202l82 -89l-637 -948l-61 -82l416 28l51 376l248 58l-52 -427l217 15l-24 -187h-220l-47 -375h-244l49 375h-621z" />
<glyph unicode="5" horiz-adv-x="1116" d="M41 -329l19 117q20 -5 45.5 -8t48.5 -3q120 0 217.5 33.5t166 89.5t106 129t37.5 153q0 127 -67 193.5t-202 66.5q-66 0 -122.5 -15.5t-111.5 -37.5l-55 42l176 715h537l22 16h193l-56 -206h-500l-110 -396q35 11 92 19.5t125 8.5q82 0 150.5 -24.5t117.5 -72t76 -116.5 t27 -157q0 -87 -29.5 -163t-82 -139t-125 -112.5t-159.5 -83.5t-184.5 -52t-199.5 -18q-16 0 -37 1.5t-42.5 4.5t-41 7t-31.5 8z" />
<glyph unicode="6" horiz-adv-x="1238" d="M115 499q0 121 30 238t85 224.5t133.5 203.5t175.5 175t210 138t238 93l41 -109q-105 -36 -197 -97.5t-168 -141t-132.5 -172t-89.5 -191.5q22 23 54.5 45.5t73.5 40t90.5 28.5t106.5 11q91 0 157 -30.5t108.5 -82t63 -120.5t20.5 -146q0 -79 -19 -155.5t-54 -146 t-85.5 -129t-114.5 -103t-139 -68t-160 -24.5q-101 0 -180.5 34.5t-134.5 101t-84 163t-29 220.5zM377 450q0 -74 10 -137.5t34 -110.5t65 -73.5t103 -26.5q48 0 86.5 20t67.5 54t49.5 79t33.5 95t19 101.5t6 99.5q0 75 -13 128t-35.5 87t-53 50t-66.5 16q-57 0 -102 -16 t-79.5 -39t-59 -48.5t-38.5 -45.5q-14 -64 -20.5 -121.5t-6.5 -111.5z" />
<glyph unicode="7" horiz-adv-x="1096" d="M72 775l78 371h907l32 -43l-605 -1433l-273 81l634 1243l-491 -17l-99 -206z" />
<glyph unicode="8" horiz-adv-x="1255" d="M112 354q0 75 29 142.5t77 126t111 108t132 87.5q-40 33 -75.5 71.5t-61.5 83t-41.5 95.5t-15.5 108q0 91 35.5 163.5t99 123.5t152.5 78.5t196 27.5q85 0 160 -22.5t130 -65t87 -105t32 -141.5q0 -71 -27 -132t-72 -113.5t-103 -96.5t-120 -80q55 -38 103.5 -83.5 t85.5 -97t58.5 -109t21.5 -120.5q0 -100 -46 -178.5t-121.5 -133t-172 -83t-198.5 -28.5q-80 0 -161 20.5t-146.5 65t-107 115.5t-41.5 173zM356 373q0 -53 15 -102.5t44.5 -88.5t73 -62.5t99.5 -23.5q53 0 100.5 17.5t83 51t56.5 81.5t21 109q0 55 -20.5 105.5t-57.5 97.5 t-88 91t-111 87q-46 -26 -85 -63t-68 -83.5t-45.5 -101t-17.5 -115.5zM514 1212q0 -46 15 -88t42 -81t65 -74.5t84 -68.5q44 23 82.5 56t67.5 75t45.5 93.5t16.5 110.5q0 61 -17 103.5t-44.5 69.5t-63.5 39.5t-73 12.5q-47 0 -87 -16.5t-69.5 -48t-46.5 -77.5t-17 -106z" />
<glyph unicode="9" horiz-adv-x="1247" d="M113 542q0 77 18 153t52.5 145t84.5 127.5t113.5 102t139.5 68t164 24.5q100 0 179.5 -32.5t135 -96t84.5 -157t29 -216.5q0 -127 -31 -249.5t-87 -234t-135.5 -209.5t-176 -177t-208 -136t-232.5 -85l-44 111q114 39 208 101t168.5 139t129 167t90.5 186 q-23 -23 -51.5 -44.5t-65.5 -38.5t-84.5 -27.5t-109.5 -10.5q-102 0 -173 33.5t-115 88.5t-63.5 125t-19.5 143zM377 599q0 -78 13 -133.5t36 -91t53.5 -52.5t65.5 -17q58 0 103 16t79 40t58 50.5t40 47.5q14 57 20 120t6 120q0 66 -9.5 128t-33.5 109.5t-65.5 76 t-104.5 28.5q-48 0 -86 -20t-67 -54.5t-49.5 -79t-33.5 -94t-19 -99.5t-6 -95z" />
<glyph unicode=":" horiz-adv-x="541" d="M65 122q2 39 18 71t40.5 55t55 35.5t61.5 12.5q36 0 62 -12t42.5 -31.5t23.5 -45.5t6 -54q-2 -42 -19 -74.5t-43 -54.5t-58 -33.5t-65 -11.5q-27 0 -50.5 10.5t-40.5 29t-26 45t-7 58.5zM163 931q2 39 18 71t40.5 55t55 35.5t61.5 12.5q36 0 62 -12t42.5 -31.5 t23.5 -45.5t6 -54q-2 -42 -19 -74.5t-43 -54.5t-58 -33.5t-65 -11.5q-27 0 -50.5 10.5t-40.5 29t-26 45t-7 58.5z" />
<glyph unicode=";" horiz-adv-x="541" d="M-27 -432l3 21q42 18 79.5 53.5t66 79.5t45 93.5t16.5 96.5q0 33 -8.5 63.5t-23 53.5t-33.5 36.5t-41 12.5l7 59l124 143q59 -14 98 -44.5t62 -69.5t32.5 -83.5t9.5 -86.5q0 -84 -28 -160.5t-78.5 -142t-121 -117.5t-155.5 -87zM164 931q2 39 18 71t40.5 55t55 35.5 t61.5 12.5q36 0 62 -12t42.5 -31.5t23.5 -45.5t6 -54q-2 -42 -19 -74.5t-43 -54.5t-58 -33.5t-65 -11.5q-27 0 -50.5 10.5t-40.5 29t-26 45t-7 58.5z" />
<glyph unicode="&#x3c;" horiz-adv-x="1368" d="M195 686l16 128l1009 510l-28 -227l-739 -348l657 -354l-25 -219z" />
<glyph unicode="=" horiz-adv-x="1063" d="M78 324l21 177h815l-21 -177h-815zM150 843l20 177h815l-20 -177h-815z" />
<glyph unicode="&#x3e;" horiz-adv-x="1368" d="M250 179l28 227l739 348l-657 354l25 219l890 -510l-16 -128z" />
<glyph unicode="?" horiz-adv-x="986" d="M235 1580l44 180q11 11 39 22.5t63 20.5t73 14.5t70 5.5q142 0 235.5 -37.5t149 -98t78 -137t22.5 -153.5q0 -92 -23 -160.5t-60.5 -120t-85.5 -89.5t-98.5 -69t-99.5 -58.5t-88 -58t-63.5 -67t-27.5 -86.5q-1 -26 2.5 -50t8.5 -46t11 -40t9 -31l-150 -49l-15 1 q-17 17 -31 43t-24 58t-15.5 68t-5.5 73q0 50 22.5 92t61 79t90 70.5t110.5 67.5q85 46 146 91t87 87q8 21 13.5 49t6.5 52q1 70 -25 129t-74 102t-114.5 67.5t-145.5 24.5q-45 0 -99 -12.5t-97 -33.5zM292 113q0 40 17.5 73.5t44.5 58t60 38t64 13.5q34 0 59 -10.5 t41.5 -28.5t24.5 -41.5t8 -48.5q0 -45 -18 -80t-46 -59t-62.5 -36.5t-67.5 -12.5q-26 0 -48.5 10t-39.5 28t-27 42.5t-10 53.5z" />
<glyph unicode="@" horiz-adv-x="1969" d="M88 336q0 183 43 345t119 298t181 244t228 182.5t260.5 114.5t278.5 40q153 0 280 -44.5t218.5 -128.5t142.5 -204.5t51 -271.5q0 -141 -25.5 -263t-69.5 -222.5t-103.5 -178.5t-128 -131.5t-142.5 -81.5t-146 -28q-34 0 -55 15t-32.5 42t-15.5 64.5t-4 82.5q0 18 2 43.5 t6.5 56t10.5 64.5t14 68q-34 -80 -78 -158t-94.5 -139.5t-106 -99.5t-110.5 -38q-56 0 -111 25.5t-98 78.5t-69 134.5t-25 192.5q1 76 17 155t48 153.5t79.5 139.5t111 114t142.5 77t174 28q21 0 49 -3.5t57.5 -11t57.5 -18.5t49 -26l185 40q-15 -57 -31 -141t-31 -176.5 t-27.5 -185.5t-19.5 -168q-4 -39 -4.5 -69t0 -54t1.5 -42.5t1 -33.5q0 -27 6 -37t14 -10q42 0 82.5 27.5t77 75t67 111.5t53 137.5t35 153t12.5 157.5q0 107 -24.5 191.5t-67 148.5t-100 109.5t-125 74.5t-141 42t-147.5 13q-131 0 -244 -40t-206 -110.5t-164.5 -166.5 t-120.5 -207.5t-74.5 -233.5t-25.5 -244q0 -185 54 -316t145.5 -214t212.5 -121.5t254 -38.5q43 0 93.5 5.5t98.5 14t89.5 20t66.5 23.5l37 -97q-35 -26 -80.5 -47.5t-99.5 -37t-115 -24t-125 -8.5q-170 0 -319 46t-260 140.5t-175 239.5t-64 343zM724 447q0 -46 7 -90.5 t22 -80t39 -57t58 -21.5q31 0 70 35.5t79.5 93.5t80.5 131.5t72.5 149t55 147.5t29.5 126q-11 19 -31.5 34.5t-45.5 26.5t-50.5 17.5t-46.5 6.5q-63 0 -112.5 -22t-87 -60t-64 -88.5t-43.5 -108t-24.5 -119.5t-7.5 -121z" />
<glyph unicode="A" horiz-adv-x="1359" d="M-141 0l9 96l139 29l680 1405h273l250 -1402l158 -32l-6 -96h-589l6 96l146 29l-45 301h-531l-136 -300l168 -30l-7 -96h-515zM410 562h450l-92 615l-10 153z" />
<glyph unicode="B" horiz-adv-x="1343" d="M4 0l9 96l144 30l164 1274l-139 25l13 105h288q79 1 157.5 8.5t165.5 7.5q132 0 219.5 -28t140.5 -74t76 -105t25 -121v-14q0 -154 -84 -250q-88 -100 -253 -147q74 -4 134.5 -29.5t103.5 -67.5t66.5 -97t24.5 -118v-5q1 -134 -49 -230q-50 -98 -143 -159.5t-222.5 -89.5 t-286.5 -28q-33 0 -70.5 2.5t-76 6t-75 6t-66.5 2.5h-266zM424 127q17 -5 41 -9t49 -6.5t48 -4t39 -1.5q88 0 157.5 20.5t117.5 64t72 111.5q22 61 22 144v21q-2 64 -19.5 112t-53 80t-90.5 47.5t-131 15.5q-69 0 -109 -2t-68 -4zM517 855q30 -2 59 -2l15 1h76 q70 0 132 19.5t108.5 60.5t72.5 105q24 59 24 140v13q-4 115 -65 173.5t-195 58.5q-11 0 -30 -0.5t-41 -2t-44 -4t-40 -5.5z" />
<glyph unicode="C" horiz-adv-x="1281" d="M77 632v13q0 203 59 367q61 170 170 288.5t258.5 183t324.5 64.5q75 0 131 -5t97.5 -12t72 -15.5t56.5 -14.5l36 -10l-65 -384h-185l-31 285q-29 14 -66 23t-86 9q-88 0 -157.5 -35t-122.5 -94.5t-90.5 -137.5t-60.5 -163.5t-33 -173.5q-8 -73 -8 -140v-27 q3 -113 21 -209.5t55 -168t94.5 -112t138.5 -40.5q26 0 59 3.5t66.5 13t64 27t52.5 45.5q7 8 17.5 34.5t22 58.5t21 62t13.5 44h161l-41 -308q-27 -16 -70 -36.5t-103 -39t-138.5 -31t-175.5 -12.5q-101 0 -181.5 25t-142 69.5t-106 105.5t-72.5 133t-42 152t-14 163z" />
<glyph unicode="D" horiz-adv-x="1472" d="M-8 0l11 96l153 30l165 1274l-138 25l11 105h307q75 1 153 8.5t158 7.5q167 0 283.5 -46.5t190 -130t107 -198t34.5 -249.5v-15q0 -195 -51 -361q-53 -172 -159 -298q-105 -126 -263 -196q-153 -68 -354 -68h-11q-18 0 -46.5 2.5t-47.5 4.5q-18 1 -44.5 3t-55.5 3 t-57.5 2t-50.5 1h-295zM432 134q18 -6 43.5 -11t52 -9t52 -6t45.5 -2q94 3 169 38.5t132 93.5t97.5 134.5t66.5 163.5q24 87 36 179q11 85 11 167v14q-1 143 -23 243.5t-67 164t-114.5 92.5t-166.5 29q-25 0 -51 -2t-49 -5.5t-42 -7.5t-30 -8z" />
<glyph unicode="E" horiz-adv-x="1279" d="M-9 0l12 96l155 30l162 1274l-139 25l11 105h1023l-22 -340h-164l-41 206l-390 20l-72 -548l441 15l-18 -187l-439 21l-80 -591l510 30l118 252l158 -23l-79 -385h-1146z" />
<glyph unicode="F" horiz-adv-x="1189" d="M5 0l9 97l144 29l162 1274l-139 25l13 105h1053l-34 -346h-171l-24 212l-421 19l-71 -558l476 23l-19 -197l-473 28l-77 -584l298 -30l-8 -97h-718z" />
<glyph unicode="G" horiz-adv-x="1396" d="M81 627v27q0 189 51 348q56 170 159.5 291t250.5 188t327 67q85 0 149.5 -6t114 -15t86.5 -19t67 -18l50 -11l-62 -326h-187l-15 220q-36 23 -87.5 37t-125.5 14q-94 0 -167 -32.5t-127.5 -89t-91.5 -132t-60 -161t-33 -177.5q-8 -82 -8 -162v-17q1 -104 18.5 -200.5 t55 -171t96 -119t140.5 -44.5q75 0 140 10.5t119 41.5l53 420l-218 17l16 131h496l-85 -649q-31 -3 -73.5 -12t-85.5 -21q-41 -11 -88 -24t-100.5 -23.5t-112.5 -17.5t-124 -7q-95 0 -171.5 25t-135.5 69.5t-102 105t-71 132t-42.5 151t-15.5 160.5z" />
<glyph unicode="H" horiz-adv-x="1593" d="M5 0l10 96l143 30l163 1274l-139 25l13 105h579l-11 -105l-167 -25l-71 -551h603l71 551l-163 25l11 105h585l-12 -105l-146 -25l-163 -1273l154 -31l-10 -96h-607l11 97l177 30l74 582h-603l-74 -583l165 -29l-8 -97h-585z" />
<glyph unicode="I" horiz-adv-x="745" d="M6 0l11 96l149 30l163 1274l-140 25l12 105h577l-11 -105l-163 -25l-163 -1274l166 -29l-7 -97h-594z" />
<glyph unicode="J" horiz-adv-x="740" d="M-178 -247q75 22 133.5 58.5t100.5 81t68.5 94.5t36.5 99q30 146 53.5 308.5t43.5 331.5t38 340t37 334l-147 25l14 105h575l-11 -105l-161 -24q-18 -154 -35 -305.5t-33.5 -291t-31.5 -262t-28 -218.5t-24 -160.5t-19 -88.5q-32 -95 -90.5 -167.5t-134 -124 t-163.5 -83.5t-178 -45z" />
<glyph unicode="K" horiz-adv-x="1419" d="M-1 0l12 96l147 30l163 1274l-139 25l13 105h579l-12 -105l-166 -25l-89 -695l617 695l-131 25l11 105h467l-11 -105l-120 -24l-505 -531q24 -38 56.5 -94t66 -115.5t63.5 -115l50 -92.5q39 -74 69 -128.5t54 -92.5t42.5 -61t35.5 -32l129 -39l-13 -100h-353 q-21 3 -39.5 21.5t-38.5 53.5t-43.5 86.5t-54.5 119.5q-19 42 -43 95t-50 108.5t-52 109t-49 97.5l-185 -194l-47 -371l165 -29l-8 -97h-591z" />
<glyph unicode="L" horiz-adv-x="1225" d="M5 0l10 97l143 29l163 1274l-140 25l13 105h598l-11 -105l-185 -25l-164 -1277l409 15l163 389l149 -23l-90 -504h-1058z" />
<glyph unicode="M" horiz-adv-x="1970" d="M-69 0l11 97l171 29l316 1274l-177 25l14 105h562l140 -955l18 -169l53 169q14 33 35.5 84t48 114.5t57 135t61.5 144.5t61.5 144.5t57 134.5t48 114t35.5 84h518l-12 -105l-175 -25l-32 -1273l178 -30l-8 -97h-631l9 98l172 28l55 885l18 370l-128 -322l-459 -1062 l-139 -15l-169 1053l-49 347l-74 -357l-198 -899l198 -29l-10 -97h-576z" />
<glyph unicode="N" horiz-adv-x="1531" d="M1 0l8 96l142 29l178 1275l-158 25l16 105h448l424 -1053l69 -212l136 1136l-156 24l12 105h476l-10 -105l-135 -25l-207 -1400h-273l-435 1062l-67 218l-123 -1154l172 -29l-9 -97h-508z" />
<glyph unicode="O" horiz-adv-x="1443" d="M81 629v11q-1 118 21 230q22 117 67 219t110.5 187t149.5 146t186.5 94.5t220.5 33.5q141 0 244 -53t170.5 -142.5t101 -207.5t34.5 -249v-11q0 -116 -20 -226q-21 -115 -63 -217t-105.5 -187.5t-146.5 -147t-186.5 -95.5t-225.5 -34q-136 0 -239.5 47t-174 132.5 t-107 205t-37.5 264.5zM374 680q1 -119 15 -224t47 -184t89.5 -125t142.5 -46q100 0 180 59t136 164q56 104 84 245q28 136 27 293v11q-1 132 -19 234.5t-54 173.5t-90 108t-127 37q-65 0 -122.5 -28t-106 -78t-86.5 -119.5t-64 -152.5q-26 -82 -40 -176q-13 -87 -12 -179 v-13z" />
<glyph unicode="P" horiz-adv-x="1274" d="M4 0l10 96l143 30l165 1274l-141 25l13 105h285q40 0 76 2.5t71 6t70 6t74 2.5q134 0 230.5 -25t159.5 -75.5t94 -125t33 -173.5v-22q0 -132 -44 -240q-48 -116 -135.5 -195t-210 -120.5t-268.5 -41.5q-57 0 -89.5 1t-55.5 3l-48 -407l237 -29l-8 -97h-661zM500 666 q38 -8 72.5 -9.5t65.5 -1.5q94 1 164 35t116 96q45 64 68 152q24 92 24 202q0 144 -64 215q-63 69 -199 69h-11q-29 0 -66.5 -3.5t-71.5 -11.5z" />
<glyph unicode="Q" horiz-adv-x="1444" d="M79 629v11q0 118 21 230q23 117 67.5 219t110 187t149.5 146t186.5 94.5t220.5 33.5q141 0 244 -53t170.5 -142.5t101 -207.5t34.5 -249v-8q0 -163 -38 -312q-40 -153 -119 -275.5t-196 -205t-271 -107.5q1 -59 26.5 -93t66 -51.5t91.5 -22t104 -4.5q19 0 49 2.5t64 8 t67.5 13t60.5 17.5l2 -161q-19 -15 -51.5 -32t-75 -31t-95 -23.5t-111.5 -9.5q-88 0 -162 24t-124.5 71.5t-72.5 118.5q-12 40 -12 87q0 37 7 78q-125 7 -220.5 56.5t-160.5 134.5t-99 200.5t-35 255.5zM372 680q1 -119 15 -224t47 -184t89.5 -125t142.5 -46q100 0 180 59 t135.5 163.5t84.5 245.5q27 136 27 293v11q-1 132 -19 234.5t-54 173.5t-90 108t-127 37q-65 0 -122.5 -28t-106 -78t-86.5 -119.5t-64 -152.5t-40 -176q-12 -88 -12 -179v-13z" />
<glyph unicode="R" horiz-adv-x="1399" d="M14 0l9 96l135 30l163 1274l-139 25l12 105h249q43 0 80 2.5t75.5 5.5t80 5.5t93.5 2.5q133 0 229.5 -23.5t159.5 -70t93 -114.5t31 -157v-7q0 -82 -21 -154q-22 -76 -66 -137.5t-108.5 -108t-148.5 -74.5q25 -21 48 -57t42 -77.5t35 -83t28 -73.5q34 -86 61 -145t55 -95 t62 -51.5t83 -15.5l-7 -103l-321 2h-1q-27 1 -60 61q-34 62 -79 185q-23 67 -48.5 139t-52 132t-54 101t-55.5 48q-36 -1 -70 -1h-116l-64 -540l184 -29l-7 -97h-590zM508 795q15 -1 41 -2t54 -1t52.5 -0.5t36.5 0.5q81 3 141.5 31t100.5 78.5t59 122.5q16 62 16 138v24 q-2 59 -18.5 103.5t-50.5 74.5t-87.5 45t-129.5 15q-10 0 -26.5 -1t-35 -3.5t-37.5 -5t-34 -5.5z" />
<glyph unicode="S" horiz-adv-x="1126" d="M35 70l50 298h161l18 -201q40 -29 95 -48.5t122 -19.5q61 0 112.5 14.5t89 42.5t59.5 69.5t24 96.5v6q0 52 -16 94q-16 44 -48.5 84t-80.5 76.5t-108 75.5q-63 40 -123 86.5t-106.5 101.5t-74.5 120.5t-29 145.5v5q0 101 39 181q40 82 109.5 137.5t165 85t205.5 29.5 q76 0 138 -7.5t109.5 -19t82 -25.5t56.5 -28l-50 -282h-148l-29 187q-35 26 -81.5 39.5t-103.5 13.5q-50 0 -92.5 -12t-74 -37t-50 -64t-19.5 -94v-6q-1 -55 17 -99q18 -48 53.5 -89.5t86 -79.5t113.5 -78q61 -39 119 -82.5t103 -95.5t72 -115t28 -140v-5q-1 -96 -37 -178 q-38 -84 -109 -145.5t-174 -96t-234 -34.5q-77 0 -148.5 9.5t-130.5 23.5t-101.5 30t-59.5 30z" />
<glyph unicode="T" horiz-adv-x="1343" d="M92 1048l78 482h1255l-60 -481l-145 -8l-23 342l-277 26l-173 -1283l266 -26l-8 -100h-791l11 100l247 26l172 1283l-281 -27l-120 -333z" />
<glyph unicode="U" horiz-adv-x="1413" d="M109 1425l13 105h593l-10 -104l-174 -26l-101 -783q-6 -58 -10 -108t-4 -89q1 -76 18 -136t50 -101.5t82 -63.5t114 -22q88 0 155 36t114.5 104t78 166t45.5 223l104 774l-151 25l11 105h458l-13 -105l-126 -24l-101 -774q-23 -177 -73 -300t-127.5 -200t-182.5 -112 t-238 -35t-227 33t-154 92.5t-87.5 142t-28.5 180.5v31q1 25 1 49q2 40 6 85l104 808z" />
<glyph unicode="V" horiz-adv-x="1235" d="M26 1425l12 105h567l-10 -105l-157 -25l130 -920l24 -244l85 244l411 920l-162 25l10 105h492l-14 -105l-137 -24l-643 -1411l-247 -6l-235 1416z" />
<glyph unicode="W" horiz-adv-x="1887" d="M5 1425l13 105h551l-10 -105l-141 -25l117 -927l29 -237l65 203l327 829l-13 134l-139 23l10 105h560l-15 -105l-144 -24l99 -928l9 -237l77 218l393 945l-178 26l10 105h508l-13 -105l-139 -25l-620 -1410h-261l-102 977l-384 -977h-262l-215 1410z" />
<glyph unicode="X" horiz-adv-x="1342" d="M-69 0l11 97l118 29l489 633l-303 640l-129 26l10 105h589l-10 -105l-144 -24l185 -476l317 475l-137 25l9 105h496l-10 -105l-137 -24l-470 -608l329 -667l140 -29l-9 -97h-614l8 97l154 29l-203 492l-333 -492l150 -30l-9 -96h-497z" />
<glyph unicode="Y" horiz-adv-x="1227" d="M30 1425l11 105h586l-14 -105l-171 -25l200 -527l45 -124l62 111l317 540l-146 25l10 105h473l-13 -105l-113 -24l-521 -803l-61 -472l229 -29l-9 -97h-713l10 97l213 29l60 472l-348 802z" />
<glyph unicode="Z" horiz-adv-x="1220" d="M-33 89l844 1172l146 148l-500 -12l-122 -259l-146 23l53 369h989l28 -86l-838 -1175l-133 -147l562 24l155 292l144 -31l-91 -407h-1060z" />
<glyph unicode="[" horiz-adv-x="864" d="M145 -68q0 26 0.5 53t3.5 57q2 34 10.5 106t21.5 167.5t29 209t33 231t34 232.5t32 215t26 177.5t17 120.5q9 72 30.5 120.5t55 77.5t79.5 41.5t105 12.5q33 0 77.5 -7.5t85.5 -16.5q48 -11 97 -23l-16 -105h-275l-223 -1656h32.5t48.5 -0.5t56.5 -0.5t56.5 -0.5 t48.5 -0.5h32.5l-13 -107q-34 -10 -65.5 -18.5t-64 -15t-67.5 -10t-76 -3.5q-47 0 -86 7t-67 23.5t-43.5 44t-15.5 68.5z" />
<glyph unicode="\" horiz-adv-x="854" d="M76 1597h201l577 -1959h-202z" />
<glyph unicode="]" horiz-adv-x="864" d="M18 -150l16 105h275l223 1656h-32.5t-48.5 0.5t-56.5 0.5t-56.5 0.5t-48.5 0.5h-32.5l13 107q34 10 65.5 18.5t64 15t67.5 10t76 3.5q47 0 86 -7t67 -23.5t43.5 -44t15.5 -68.5q0 -26 -0.5 -53t-3.5 -57q-2 -34 -10.5 -106t-21.5 -167.5t-29 -209t-33 -231t-34 -232.5 t-32 -215t-26 -177.5t-17 -120.5q-9 -72 -30.5 -120.5t-55 -77.5t-79.5 -41.5t-105 -12.5q-33 0 -77.5 7.5t-85.5 16.5q-48 11 -97 23z" />
<glyph unicode="^" horiz-adv-x="1364" d="M157 510l516 1021h227l267 -1021h-210l-197 742l-388 -742h-215z" />
<glyph unicode="_" horiz-adv-x="1335" d="M-111 -338l20 151h1378l-20 -151h-1378z" />
<glyph unicode="`" horiz-adv-x="541" d="M25 1571l178 172l288 -432l-80 -65q-21 9 -53 28.5t-69.5 46.5t-77.5 59t-76 65t-65 65.5t-45 60.5z" />
<glyph unicode="a" horiz-adv-x="1194" d="M72 407q0 87 19.5 177t57.5 174t94.5 157.5t130.5 128.5t165.5 87t199.5 32q27 0 56 -3.5t57.5 -8.5t55.5 -12.5t49 -14.5l135 39l-130 -956q-5 -41 6.5 -58.5t28.5 -17.5q14 0 34.5 9t55.5 37l30 -63q-7 -11 -28.5 -33.5t-54 -45t-75.5 -39t-94 -16.5q-69 0 -110 33 q-38 31 -38 93v9l-2 3q-24 -27 -55.5 -51.5t-69.5 -44t-82.5 -31t-94.5 -11.5q-89 0 -153.5 33t-106 90.5t-61.5 135.5t-20 168zM347 425q0 -136 41.5 -211.5t113.5 -75.5q31 0 60 9.5t55.5 25t50 36t42.5 42.5l102 765q-44 16 -101 16q-66 0 -118.5 -27.5t-93 -73.5 t-69.5 -107t-47.5 -128.5t-27 -137t-8.5 -133.5z" />
<glyph unicode="b" horiz-adv-x="1190" d="M93 -20l192 1504l-99 43l21 84l301 39l52 -27l-78 -590q24 25 55 48.5t67.5 41.5t79 29t90.5 11q87 0 151 -30.5t106.5 -87t63.5 -136.5t21 -179q0 -91 -20 -181.5t-59 -174t-96 -155.5t-130.5 -125t-162.5 -83.5t-192 -30.5q-31 0 -63.5 4t-64.5 10t-61 14t-52 16z M362 132q26 -12 56 -17t66 -5q64 0 115.5 26.5t91 71.5t68.5 105.5t47.5 128.5t27.5 140t9 141q0 62 -10 114t-30 89t-49 57.5t-67 20.5q-35 0 -68 -12t-62 -32t-54 -45t-44 -51z" />
<glyph unicode="c" horiz-adv-x="923" d="M73 440v9q0 77 16 157q17 85 51 165t85.5 151.5t120 125t154.5 84.5t190 31q29 0 61 -3t63.5 -8t61 -13.5t52.5 -18.5l-72 -253q-21 13 -49 37.5t-58 48t-60.5 41t-57.5 17.5q-52 0 -103.5 -39.5t-91.5 -111.5q-42 -72 -66 -174q-23 -94 -22 -207v-19q1 -84 14 -144 t37 -98t59 -56t80 -18q42 0 77 8.5t66.5 24t60.5 38t60 50.5l51 -92q-20 -27 -56 -60.5t-87.5 -63t-117.5 -49.5t-146 -20q-87 0 -155.5 30t-116.5 88.5t-74 144.5t-27 197z" />
<glyph unicode="d" horiz-adv-x="1217" d="M72 407q0 87 18.5 177t56 174t93 157.5t129 128.5t165 87t200.5 32q29 0 59.5 -4t60.5 -10l50 333l-140 43l20 83l348 42l55 -27l-205 -1415q-5 -36 1.5 -56.5t26.5 -20.5q14 0 33.5 9t55.5 37l30 -62q-8 -10 -28.5 -32t-53 -45t-75 -40.5t-94.5 -17.5q-78 0 -113.5 40 t-34.5 124q-23 -30 -55 -59.5t-72.5 -52.5t-89 -37.5t-104.5 -14.5q-89 0 -152.5 33t-104.5 90.5t-60.5 135.5t-19.5 168zM345 420q0 -136 40 -209t111 -73q35 0 68 12.5t62.5 33t54 46t43.5 51.5l109 725q-27 14 -59 20t-67 6q-66 0 -118.5 -27.5t-93 -74.5t-69 -108.5 t-46.5 -129.5t-26.5 -138t-8.5 -134z" />
<glyph unicode="e" horiz-adv-x="1050" d="M74 430q1 100 23 193.5t61.5 175t95.5 148.5t124.5 115t148 74.5t166.5 26.5q79 0 136.5 -19t94.5 -53q38 -33 56 -79q20 -48 20 -104q0 -78 -30 -140q-32 -64 -85 -114t-121 -86.5t-140 -60t-141.5 -36t-124.5 -13.5q-1 -14 -1 -28q1 -48 9 -92q10 -58 34 -102.5 t63.5 -70.5t95.5 -26q97 0 176.5 42.5t142.5 108.5l55 -93q-21 -31 -60.5 -69t-96 -71t-128 -55t-155.5 -22q-113 0 -193 38t-130.5 101t-73.5 144q-22 78 -22 160v7zM360 573q35 2 76.5 12t84 29t81.5 45.5t69.5 61.5t48.5 77q17 40 17 88v5q-2 74 -29 109.5t-75 35.5 q-45 0 -81.5 -22t-65.5 -58.5t-50.5 -84.5t-37 -99.5t-25 -103t-13.5 -95.5z" />
<glyph unicode="f" horiz-adv-x="705" d="M-230 -495l55 176q5 -2 24 -9.5t43.5 -15t50 -13t43.5 -5.5q49 0 79 57t44 160l138 1143h-132l18 89l142 63l15 87q16 93 55.5 172t97.5 137t131.5 91t158.5 33q41 0 84.5 -4.5t83.5 -21.5l-61 -173q-9 7 -22 15.5t-30 16t-38.5 12t-47.5 4.5q-39 0 -65 -15.5 t-43.5 -46.5t-28.5 -76.5t-20 -106.5l-16 -119h233l-19 -157h-235l-125 -1023q-13 -102 -47 -190.5t-89 -154.5t-130 -104.5t-170 -38.5q-27 0 -53.5 1.5t-50 4t-42.5 6t-31 6.5z" />
<glyph unicode="g" horiz-adv-x="1186" d="M72 407q0 87 19.5 177t57.5 174t94.5 157.5t130.5 128.5t165.5 87t199.5 32q63 0 125.5 -14t106.5 -30l141 44l-180 -1240q-12 -83 -43 -148t-75.5 -113.5t-100 -82t-116 -54t-123 -29.5t-120.5 -9q-35 0 -71.5 3.5t-69.5 9.5t-60 13t-42 14l50 200q14 -9 42.5 -22 t65.5 -25t79 -21t83 -9q57 0 97 7.5t67 29.5t43 62.5t25 105.5l34 243q-25 -24 -55 -45t-66 -37.5t-76.5 -26t-86.5 -9.5q-89 0 -153.5 33t-106 90.5t-61.5 135.5t-20 168zM347 420q0 -136 41 -209t112 -73q33 0 64 11t59 28.5t52.5 40.5t44.5 47l109 745q-26 12 -56 17 t-62 5q-66 0 -118.5 -27.5t-93 -74.5t-69.5 -108.5t-47.5 -129.5t-27 -138t-8.5 -134z" />
<glyph unicode="h" horiz-adv-x="1268" d="M95 0l186 1482l-122 43l16 83l338 42l53 -27l-90 -707q36 53 80 98t94.5 78t106.5 52t116 19q55 0 100 -15.5t77.5 -51t50.5 -93.5t18 -142q0 -30 -5 -73.5t-12.5 -92.5t-16.5 -98.5t-16 -91.5q-6 -38 -13.5 -78.5t-13.5 -80.5t-11 -78.5t-6 -71.5q-1 -36 7.5 -50.5 t22.5 -14.5q8 0 17 2t20.5 8t26.5 16t35 25l29 -63q-7 -11 -29 -34t-57.5 -46.5t-82.5 -41.5t-103 -18q-49 0 -81 11t-50.5 30.5t-25.5 47.5t-6 63q1 28 5.5 64.5t11 77.5t14.5 84.5t16 85.5t17 92t16.5 102t12.5 104t5 97q0 48 -7.5 76.5t-20 44.5t-30.5 21t-39 5 q-35 0 -74 -19.5t-78 -53.5t-76.5 -79t-67.5 -97l-94 -736h-264z" />
<glyph unicode="i" horiz-adv-x="655" d="M99 1031l18 81l374 51l52 -24l-134 -932q-2 -16 -2 -29q0 -47 31 -47q17 0 39 12t60 45l30 -63q-8 -11 -30.5 -35t-57 -48.5t-81 -43t-101.5 -18.5q-85 0 -127 36q-36 30 -35 84q0 10 1 21q7 60 19 147.5t27.5 198t34 240t38.5 273.5zM296 1507q1 35 15 65.5t37 53.5 t53.5 36.5t65.5 13.5q34 0 62 -11.5t47 -31t28.5 -44t8.5 -51.5q-1 -35 -13.5 -67t-35.5 -56t-55.5 -38t-73.5 -14q-29 0 -54.5 12t-44.5 32t-30 46t-10 54z" />
<glyph unicode="j" horiz-adv-x="650" d="M-230 -486l37 101q7 -3 17.5 -5t21 -3.5t20 -2.5t13.5 -1q72 0 120 38.5t78.5 103t47.5 148t27 172.5l101 915l-161 51l20 81l381 51l50 -24l-134 -1139q-15 -129 -59 -227t-108.5 -163.5t-145.5 -99t-170 -33.5q-54 0 -95.5 9t-60.5 28zM291 1507q1 35 15 65.5t37 53.5 t53.5 36.5t65.5 13.5q34 0 62 -11.5t47 -31t28.5 -44t8.5 -51.5q-1 -35 -13.5 -67t-35.5 -56t-55.5 -38t-73.5 -14q-29 0 -54.5 12t-44.5 32t-30 46t-10 54z" />
<glyph unicode="k" horiz-adv-x="1118" d="M84 0l194 1482l-122 43l16 83l338 42l53 -27l-215 -1623h-264zM437 610l3 1h-3q44 30 84.5 56t79 57t77 69t78.5 92q30 40 40 78.5t13 78.5q3 34 18 57t36.5 37.5t47 20.5t48.5 6q54 0 85.5 -32.5t32.5 -80.5v-5q-1 -37 -13 -68q-14 -33 -33 -62q-31 -43 -75.5 -83 t-94.5 -75.5t-101.5 -65.5t-95.5 -52l226 -394q26 -44 57 -68.5t54 -24.5q19 0 51 13t63 39l34 -66q-15 -21 -43.5 -48t-68 -51.5t-87.5 -41.5t-101 -17q-64 0 -107 29t-69 86z" />
<glyph unicode="l" horiz-adv-x="621" d="M113 115q0 16 2.5 39t4.5 38l177 1290l-127 43l20 83l334 42l50 -27l-193 -1416q-5 -35 1.5 -55.5t26.5 -20.5q15 0 36.5 10.5t63.5 45.5l29 -62q-7 -11 -29 -35t-55.5 -48.5t-78 -43t-97.5 -18.5q-35 0 -65 7.5t-52 23.5t-35 42t-13 62z" />
<glyph unicode="m" horiz-adv-x="1918" d="M106 0l131 962l-103 60l17 89l307 52l51 -24l-18 -209q36 49 79.5 91.5t93 74t103 49.5t109.5 18q51 0 93 -12.5t74 -41.5t52 -75.5t26 -114.5q36 53 80.5 98t95 77.5t106.5 50.5t115 18q54 0 99 -16.5t77.5 -52.5t51 -93.5t18.5 -139.5q0 -29 -5 -72t-12 -92 t-15.5 -98.5t-15.5 -92.5q-13 -78 -26 -159.5t-16 -149.5q-1 -36 7.5 -51t22.5 -15q8 0 17 2.5t20.5 8.5t26.5 17t35 28l30 -62q-8 -11 -30 -35t-57 -49t-81.5 -43.5t-102.5 -18.5q-49 0 -80.5 11.5t-49.5 32t-25 48t-6 59.5q1 29 5 66t10 78.5t13.5 85.5t15.5 87 q7 41 15 90.5t15 101t11.5 102.5t4.5 96q0 48 -7 76.5t-18.5 44.5t-28 21t-36.5 5q-33 0 -69.5 -16.5t-73 -46t-72 -70t-65.5 -88.5q-5 -63 -12.5 -130.5t-15.5 -127.5l-62 -505h-266l57 443q6 42 12.5 92t11.5 101q4 52 8 103q3 40 3 76v20q0 51 -6.5 80.5t-19 45t-31.5 20 t-44 4.5q-32 0 -70 -18t-76 -49.5t-75 -74t-67 -91.5l-103 -752h-259z" />
<glyph unicode="n" horiz-adv-x="1279" d="M107 0l130 963l-102 59l17 89l308 52l50 -24l-18 -208q37 50 81 92.5t94 73.5t104.5 48.5t111.5 17.5q55 0 100 -15.5t77.5 -51t50.5 -93.5t18 -142q0 -30 -5 -73.5t-12.5 -92.5t-16.5 -98.5t-16 -91.5q-7 -38 -14 -78.5t-13.5 -80.5t-11 -78.5t-5.5 -71.5 q-1 -36 7.5 -50.5t22.5 -14.5q15 0 34.5 9t54.5 37l29 -63q-7 -10 -28.5 -32.5t-55 -45t-79 -40t-99.5 -17.5q-49 0 -81 11.5t-50.5 32t-25.5 48t-6 60.5q1 28 5.5 64.5t11 77.5t14.5 84.5t16 85.5q7 42 16.5 92t17 102t12.5 104t5 97q0 48 -6.5 76.5t-19 44.5t-30.5 21 t-41 5q-33 0 -71.5 -18.5t-77 -51t-75.5 -76.5t-67 -94l-102 -745h-259z" />
<glyph unicode="o" horiz-adv-x="1170" d="M74 439v19q0 132 38 254q42 130 120.5 230.5t189.5 160.5t248 60q101 0 178.5 -31t130.5 -90t81 -144.5t31 -194.5v-19q1 -84 -15 -166q-18 -90 -54 -170.5t-89 -148t-120 -116t-147.5 -76t-171.5 -27.5q-101 0 -178 31t-130 89.5t-81 144t-31 194.5zM356 438 q4 -168 45.5 -250.5t132.5 -82.5q51 0 91.5 26.5t71.5 71.5t52.5 105t34.5 126q14 66 19 136q4 58 4 113v22q-3 167 -45 247.5t-127 80.5q-51 0 -92 -26.5t-72.5 -71t-54 -104t-36.5 -125.5q-14 -68 -20 -136q-4 -51 -4 -100v-32z" />
<glyph unicode="p" horiz-adv-x="1195" d="M23 -520l202 1502l-114 50l19 79l327 52l50 -24l-14 -102q24 25 54 48t65.5 40t76.5 27.5t88 10.5q87 0 151.5 -30.5t107 -87t64 -136.5t21.5 -179q0 -91 -20.5 -181.5t-59.5 -174t-96 -155.5t-129.5 -125t-161 -83.5t-189.5 -30.5q-29 0 -58.5 3.5t-58.5 8.5l-71 -512 h-254zM368 134q26 -14 57 -19t69 -5q63 0 113.5 26.5t89.5 71.5t67 105.5t46.5 128.5t27 140t8.5 141q0 62 -10 114t-30 89t-49 57.5t-67 20.5q-35 0 -66.5 -11.5t-59 -31t-51 -44t-42.5 -49.5z" />
<glyph unicode="q" horiz-adv-x="1191" d="M72 407q0 87 18.5 177t56 174t93 157.5t129 128.5t165 87t200.5 32q29 0 60.5 -4t62.5 -10t59 -14t50 -16l1 1l128 28l-191 -1441q-2 -13 -1 -26.5t5 -24t11 -17t16 -6.5q17 0 39 12t60 44l29 -63q-7 -11 -29.5 -35t-58 -48t-83 -42.5t-103.5 -18.5q-44 0 -75 11.5 t-50 31.5t-27 48t-6 61l65 471q-24 -25 -54.5 -47.5t-66.5 -40t-77.5 -27.5t-88.5 -10q-89 0 -152.5 33t-104.5 90.5t-60.5 135.5t-19.5 168zM345 420q0 -136 40 -209t111 -73q34 0 66 12t60.5 31t53 43.5t43.5 49.5l102 737q-25 11 -53.5 16t-60.5 5q-66 0 -118.5 -27.5 t-93 -74.5t-69 -108.5t-46.5 -129.5t-26.5 -138t-8.5 -134z" />
<glyph unicode="r" horiz-adv-x="840" d="M108 0l127 962l-104 60l18 89l285 52l50 -24v-250q16 45 44.5 93t69.5 88.5t94.5 66.5t119.5 26q21 0 39.5 -5t26.5 -12l-57 -282q-12 10 -42 16t-63 6t-66.5 -7.5t-65.5 -25t-62.5 -46.5t-57.5 -71l-97 -736h-259z" />
<glyph unicode="s" horiz-adv-x="879" d="M25 44l42 176q16 -13 43.5 -29.5t62 -31t76 -24.5t86.5 -10q29 0 60.5 5t57.5 19.5t43 40.5t17 68q0 36 -14 66t-38 57.5t-56.5 53t-69.5 52.5q-30 22 -65.5 54.5t-66 75.5t-50.5 97t-20 119q0 80 34 141.5t92 103.5t135.5 63.5t164.5 21.5q40 0 81 -3.5t76 -9t62 -12 t39 -12.5l-40 -187q-7 9 -25.5 24t-46 29t-64 24.5t-80.5 10.5q-32 0 -61.5 -6.5t-53.5 -21.5t-39.5 -39t-18.5 -59v-11q0 -29 9 -55q11 -31 33.5 -60t55 -57.5t71.5 -57.5q39 -30 77.5 -64.5t68.5 -77t48.5 -94t18.5 -114.5q0 -86 -36.5 -148t-97.5 -102.5t-140 -60 t-163 -19.5q-47 0 -95.5 6t-91.5 15t-75 20.5t-46 22.5z" />
<glyph unicode="t" horiz-adv-x="730" d="M114 1005l22 98l123 47q19 19 39.5 49.5t39.5 66.5t36.5 75t31.5 75h142l-34 -261h235l-21 -150h-233l-83 -615q-7 -53 -11.5 -92t-4.5 -66q0 -48 17 -67.5t62 -19.5q19 0 43 5.5t49 15.5t48 22.5t40 26.5l22 -79q-20 -23 -55.5 -50.5t-83 -51t-104 -39t-118.5 -15.5 q-37 0 -71 8.5t-60 29.5t-41.5 55.5t-15.5 85.5q0 5 0.5 13.5t2 28t5.5 54t12 90.5l86 660h-120z" />
<glyph unicode="u" horiz-adv-x="1242" d="M115 1032l17 89l323 42l50 -24l-69 -550q-11 -90 -22.5 -167.5t-11.5 -137.5q0 -44 8 -73t23 -46.5t37 -24.5t51 -7q32 0 63.5 9.5t60.5 25t55 36t47 43.5l122 908h259l-126 -947q-2 -15 -2 -27q0 -49 33 -49q8 0 16.5 2.5t20 9t26.5 17.5t36 28l29 -63q-7 -12 -29.5 -36 t-57 -48t-79.5 -42.5t-97 -18.5q-86 1 -122 43q-27 32 -28 80q0 15 3 31q-26 -29 -59.5 -56.5t-75.5 -49.5t-93 -35.5t-113 -13.5q-51 0 -100 13t-87.5 44t-62 82t-23.5 126q0 34 3.5 76.5t9 88.5t12.5 94t13 93l53 365z" />
<glyph unicode="v" horiz-adv-x="1070" d="M6 1043q6 9 26 28.5t50.5 40t70 36t85.5 15.5q83 0 120.5 -35.5t46.5 -101.5l86 -621l21 -200l94 148q34 59 65 116.5t56 117.5t43 124.5t26 139.5q2 25 -2.5 49.5t-11 48.5t-12 47t-5.5 44q0 57 33.5 90t93.5 33q44 0 73 -16t46 -44.5t24 -66.5t7 -81q0 -46 -13 -100 t-36 -111.5t-53.5 -116.5t-64.5 -116.5t-68.5 -110t-66.5 -97.5l-245 -312l-172 -12l-68 376l-110 590q-6 31 -16 43t-25 13q-17 1 -35 -8t-34 -20z" />
<glyph unicode="w" horiz-adv-x="1720" d="M6 1043q6 9 26.5 29t51.5 40t71 35.5t85 15.5q83 0 121 -35t47 -102l71 -636l18 -198l82 225l271 738h226l90 -782l23 -181l100 166q19 32 44.5 84t49.5 115.5t41.5 135.5t20.5 144q1 32 -3.5 59.5t-10.5 52.5t-11 47.5t-5 43.5q0 57 33.5 90t93.5 33q44 0 72.5 -15.5 t45 -43.5t23.5 -67.5t7 -86.5q0 -46 -13 -100.5t-36 -113t-53.5 -119t-63.5 -118t-66.5 -110.5t-62.5 -97l-200 -300l-213 -11l-53 374l-36 325l-3 141l-49 -141l-145 -355l-150 -331l-226 -14l-69 375l-104 590q-6 31 -16.5 43t-25.5 13q-20 1 -36.5 -8t-32.5 -20z" />
<glyph unicode="x" horiz-adv-x="1019" d="M-61 0l447 587l-174 352q-15 29 -29.5 49t-34.5 20t-37 -6t-45 -26l-37 69q6 9 28.5 28.5t57 39.5t79.5 35t98 15q73 0 110 -27t54 -77l100 -297l256 393h259l-444 -581l178 -341q7 -14 16 -29.5t18.5 -28.5t20 -21.5t20.5 -8.5q15 0 37.5 9t63.5 43l40 -69 q-6 -11 -29.5 -35t-61 -49.5t-88.5 -44.5t-111 -19q-36 0 -61.5 7.5t-43.5 21.5t-29.5 33t-20.5 43l-116 318l-258 -403h-263z" />
<glyph unicode="y" horiz-adv-x="1078" d="M-123 -476l49 187q9 -6 29.5 -17t50 -22t65.5 -19t76 -8q39 0 79.5 14.5t81 49t81 90.5t80.5 139h-128l-190 1007q-8 31 -16.5 43.5t-24.5 12.5q-12 0 -30.5 -6t-48.5 -32l-29 70q7 10 28.5 31.5t54 43.5t74 38.5t86.5 16.5q42 0 71.5 -9.5t48.5 -27.5t29.5 -43.5 t16.5 -56.5q6 -33 15 -92.5t19.5 -133l22 -154t21.5 -154t18.5 -133t13.5 -92.5l19 -216l110 220q34 75 61.5 142t48 132t33.5 132t19 141v14q0 30 -4 52q-4 28 -11 52t-12.5 48t-5.5 56q0 57 34 90t94 33q42 0 70.5 -14.5t46.5 -41t25.5 -64t7.5 -83.5q0 -77 -22 -161.5 t-55.5 -169t-73.5 -166.5t-77 -153q-73 -145 -126 -246t-93.5 -172t-72 -119t-60.5 -86q-25 -36 -60 -71.5t-81.5 -64t-105.5 -46t-132 -17.5q-30 0 -63.5 4t-63.5 9.5t-55 11.5t-39 11z" />
<glyph unicode="z" horiz-adv-x="1035" d="M-12 39l644 790l118 102l-346 1q-38 0 -69 -12t-54.5 -33t-37.5 -49.5t-18 -61.5h-76q-2 23 -2 56.5t2 71t7 76t14 71.5t22 57t31 34q12 7 37.5 14t63.5 7t86 -2.5t99.5 -6.5t104.5 -8.5t102.5 -8.5t92 -6.5t73.5 -2.5q29 0 59.5 8t52.5 25l2 2l55 -60l-649 -805 l-105 -93h375q38 0 70 12.5t56 34.5t39 51.5t20 63.5h73q2 -23 2 -56v-11q0 -28 -2 -60q-2 -38 -7.5 -75.5t-14.5 -71t-22 -59t-31 -37.5q-13 -9 -38.5 -14.5t-63.5 -5.5t-88.5 2.5t-106.5 6t-114 8t-111.5 8t-99 6t-75.5 2.5q-10 0 -23.5 -1.5t-27 -4.5t-27 -8.5 t-23.5 -13.5l-4 -5z" />
<glyph unicode="{" horiz-adv-x="1034" d="M129 714l18 124q49 12 101 28.5t91 36.5q27 14 44.5 30t20.5 33l81 532q12 74 34 123t56 77.5t80 40t105 11.5q33 0 77.5 -7.5t85.5 -16.5q48 -11 97 -23q-4 -24 -8 -44l-6 -34t-3 -24h-276l-96 -631q-6 -41 -32 -70t-66 -54q-11 -7 -34.5 -18.5t-48.5 -22.5 q-29 -13 -62 -29q45 -23 82.5 -46t59.5 -46q23 -23 34.5 -50.5t6.5 -58.5l-95 -630h275q-2 -6 -4 -23t-4 -36q-3 -22 -6 -47q-34 -10 -66 -18.5t-64.5 -15t-68 -10t-76.5 -3.5q-47 0 -85.5 7t-66 23.5t-42 44t-14.5 68.5q0 5 4 35.5t10.5 77t14.5 104t17 116.5 q20 138 46 311q0 17 -14 34t-38 33q-32 22 -76 39.5t-89 28.5z" />
<glyph unicode="|" horiz-adv-x="854" d="M350 -186v1966h193v-1966h-193z" />
<glyph unicode="}" horiz-adv-x="1034" d="M30 -157q4 24 8 44l6 34t3 24h276l96 631q6 41 32 70t66 54q11 7 34.5 18.5t48.5 22.5q29 13 62 29q-45 23 -82.5 46t-59.5 46q-23 23 -34.5 50.5t-6.5 58.5l95 630h-275q2 6 4 23t4 36q3 22 6 47q34 10 66 18.5t64.5 15t68 10t76.5 3.5q47 0 85.5 -7t66 -23.5t42 -44 t14.5 -68.5q0 -5 -4 -35.5t-10.5 -77t-14.5 -104t-17 -116.5q-20 -138 -46 -311q0 -17 14 -34t38 -33q32 -22 76 -39.5t89 -28.5l-18 -124q-49 -12 -101 -28.5t-91 -36.5q-27 -14 -44.5 -30t-20.5 -33l-81 -532q-12 -74 -34 -123t-56 -77.5t-80 -40t-105 -11.5 q-33 0 -77.5 7.5t-85.5 16.5q-48 11 -97 23z" />
<glyph unicode="~" horiz-adv-x="1137" d="M130 862q12 36 41 73.5t70.5 67.5t92.5 49.5t108 19.5q42 0 76 -12t63.5 -30t55.5 -39t51 -39t50.5 -30t55.5 -12q67 0 114.5 29.5t82.5 82.5l88 -96q-11 -41 -40.5 -80t-72 -70.5t-95 -50.5t-109.5 -19q-43 0 -78 12.5t-64.5 31t-55.5 40t-51.5 40t-51.5 31t-56 12.5 q-60 0 -111 -27t-86 -80z" />
<glyph />
<glyph unicode="&#xa1;" horiz-adv-x="701" d="M64 -434l250 1270h171l-131 -1270h-290zM292 1191q2 42 20 74.5t45 54.5t59.5 33.5t65.5 11.5q27 0 51 -10.5t42 -29t27.5 -45t7.5 -58.5q-2 -39 -19.5 -71t-43.5 -55t-58 -35.5t-63 -12.5q-36 0 -62 12t-42.5 31.5t-23.5 45.5t-6 54z" />
<glyph unicode="&#xa2;" horiz-adv-x="1056" d="M127 440q-1 72 12 147t40 148t68 140t95.5 121.5t122.5 94.5t150 58l49 209h150l-47 -196q55 -2 114 -12.5t101 -29.5l-72 -253q-21 13 -49 37.5t-58 48t-60.5 41t-57.5 17.5q-52 0 -103.5 -39.5t-92 -112t-65 -174t-22.5 -225.5q1 -84 14 -144t37 -98t59 -56t80 -18 q42 0 77 8.5t66.5 24t60.5 38t60 50.5l51 -92q-18 -25 -50 -55.5t-77 -58t-102.5 -49t-126.5 -27.5l-36 -198h-150l38 206q-131 31 -203 144.5t-73 304.5z" />
<glyph unicode="&#xa3;" horiz-adv-x="1382" d="M-52 70q2 27 23.5 54.5t56.5 49.5t80 36t95 14q13 19 26.5 47t25 59.5t20 64.5t13.5 63l46 276h-161l18 156h170l19 112q11 73 38 143.5t66.5 133t91 115t112.5 91t129.5 59.5t143.5 21q42 0 82 -4t77 -14t68.5 -27.5t56.5 -43.5l-108 -189q-4 9 -21.5 30t-47.5 42.5 t-72.5 38.5t-95.5 17q-34 0 -71 -15t-70.5 -55t-62 -110t-46.5 -180q-1 -7 -4 -23t-6.5 -38t-8.5 -48.5t-11 -55.5h284l-17 -156h-296q-7 -37 -11 -64t-6 -36q-15 -93 -39.5 -162.5t-51.5 -121t-53.5 -89.5t-46.5 -68q42 -9 87 -21.5t92 -23t95 -18t96 -7.5q94 0 155 17 t97 46.5t50 69t14 84.5q0 25 -8.5 49.5t-21.5 45.5t-28.5 37.5t-29.5 27.5l172 154q31 -22 60.5 -54.5t52 -73t36 -87t13.5 -97.5q0 -65 -24.5 -129.5t-83 -116.5t-155 -84t-240.5 -32q-79 0 -150 11.5t-136.5 29t-127 37t-122.5 35.5q-17 -19 -43.5 -39t-58 -36.5 t-66.5 -27t-69 -10.5q-19 0 -36.5 4.5t-30.5 15t-19.5 28t-4.5 42.5z" />
<glyph unicode="&#xa4;" horiz-adv-x="1540" d="M215 1135l127 128l203 -204q51 32 111 50.5t126 18.5q69 0 131.5 -20t115.5 -56l199 198l127 -128l-200 -200q32 -51 49.5 -109.5t17.5 -122.5q0 -67 -19 -127.5t-53 -112.5l203 -202l-128 -127l-202 202q-52 -34 -113 -52.5t-128 -18.5q-65 0 -124 17t-110 49l-202 -202 l-128 127l200 200q-36 53 -56 115.5t-20 131.5q0 68 19.5 129.5t54.5 114.5zM533 690q0 -53 19.5 -100.5t53 -83t79 -56t97.5 -20.5t97 20.5t79 56t53.5 83t19.5 100.5q0 54 -19.5 101.5t-53.5 83t-79 56t-97 20.5t-97.5 -20.5t-79 -56t-53 -83t-19.5 -101.5z" />
<glyph unicode="&#xa5;" horiz-adv-x="1483" d="M182 1436l13 106h590l-13 -106l-178 -21l184 -405l48 -126l80 130l262 405l-129 17l13 106h511l-13 -105l-133 -28l-420 -552h288l-16 -141h-372l-25 -201h373l-16 -139h-374l-30 -249l256 -30l-9 -97h-742l10 97l248 30l30 249h-384l16 139h384l25 201h-386l16 141h306 l-297 557z" />
<glyph unicode="&#xa6;" horiz-adv-x="854" d="M350 -186v879h193v-879h-193zM350 901v879h193v-879h-193z" />
<glyph unicode="&#xa7;" horiz-adv-x="1194" d="M53 -106l48 340h146l31 -216q36 -39 102 -57t142 -18q41 0 85.5 11t82.5 35t64.5 63.5t30.5 97.5q3 47 -24 82.5t-73 65t-105.5 56.5t-122 56t-121.5 63.5t-104.5 80t-71.5 104.5t-22 137q5 86 44.5 158.5t94.5 129.5q-35 42 -54.5 94t-14.5 119q4 64 29 117t64.5 94.5 t90 73t107 52t115.5 30.5t114 10q78 0 143 -7t116 -18t87.5 -24t56.5 -26l-46 -315h-142l-41 208q-26 26 -75 42.5t-121 15.5q-36 0 -79.5 -7t-82 -26.5t-66.5 -55.5t-32 -94q-3 -54 23.5 -94t72 -72t104.5 -59.5t120.5 -56t120.5 -62t104 -78t70.5 -103t20.5 -137.5 q-5 -94 -41.5 -170t-88.5 -133q33 -42 51 -92t14 -114q-4 -62 -27.5 -114t-61 -94.5t-87.5 -74.5t-106.5 -54t-117.5 -33t-121 -11q-69 0 -140 7.5t-132.5 19.5t-108 26t-65.5 27zM366 868q-3 -47 17 -83.5t55.5 -66.5t83.5 -55.5t101 -50.5t107.5 -51.5t104.5 -57.5 q14 24 22 50.5t10 54.5q3 48 -16 86.5t-54 69.5t-82 57.5t-99.5 51.5t-107.5 51t-104 57q-15 -25 -25.5 -53t-12.5 -60z" />
<glyph unicode="&#xa8;" horiz-adv-x="809" d="M39 1507q1 34 13.5 65t33.5 54t50 36.5t64 13.5q32 0 57.5 -11.5t43 -31t27 -44t8.5 -51.5q-1 -35 -13 -67t-33.5 -56t-52 -38t-69.5 -14q-27 0 -51 12t-41.5 32t-27.5 46t-9 54zM475 1507q1 34 13.5 65t33.5 54t50 36.5t64 13.5q32 0 57.5 -11.5t43 -31t27 -44 t8.5 -51.5q-1 -35 -13 -67t-33.5 -56t-52 -38t-69.5 -14q-27 0 -51 12t-41.5 32t-27.5 46t-9 54z" />
<glyph unicode="&#xa9;" horiz-adv-x="1768" d="M168 806q0 106 27.5 203.5t77.5 182.5t120 154.5t155 119t182.5 76.5t202.5 27t203 -27t183 -76.5t155 -119t120 -154.5t77.5 -182.5t27.5 -203.5t-27.5 -204t-77.5 -182.5t-120 -154.5t-155 -119.5t-183 -76.5t-203 -27t-202.5 27t-182.5 76.5t-155 119.5t-120 154.5 t-77.5 182.5t-27.5 204zM297 806q0 -89 22.5 -172t63.5 -155t98.5 -131t128.5 -101.5t152.5 -65.5t170.5 -23t171 23t153 65.5t128.5 101.5t98.5 131t63.5 155t22.5 172t-22.5 171.5t-63.5 154.5t-98.5 131.5t-128.5 101.5t-153 65.5t-171 23.5t-170.5 -23.5t-152.5 -65.5 t-128.5 -101.5t-98.5 -131.5t-63.5 -154.5t-22.5 -171.5zM542 802q-1 90 28 171t84 141.5t134.5 96.5t180.5 36q34 0 69 -3t66.5 -8t57.5 -12t41 -15v-220h-89l-49 120q-22 20 -54.5 29.5t-72.5 9.5q-45 0 -84.5 -19.5t-68.5 -56t-46.5 -90t-17.5 -121.5q-1 -105 20.5 -176 t56 -114.5t77 -62.5t84.5 -19q72 0 129.5 18t90.5 37l34 -86q-21 -18 -53 -34.5t-70.5 -29t-81.5 -20.5t-88 -8q-90 0 -160 34.5t-118.5 94t-74 138.5t-25.5 169z" />
<glyph unicode="&#xaa;" horiz-adv-x="854" d="M69 1040q0 63 18 127.5t51.5 124t81 111.5t106.5 90.5t127.5 61t144.5 22.5q45 0 91.5 -8.5t80.5 -19.5l125 37l-119 -680q-3 -25 0.5 -39.5t11.5 -14.5t20.5 3.5t35.5 16.5l28 -47q-4 -6 -24.5 -19.5t-50 -27.5t-63.5 -24.5t-66 -10.5q-57 0 -86.5 35.5t-20.5 90.5 q-19 -23 -42.5 -45.5t-54 -40.5t-69 -29t-87.5 -11q-58 0 -102.5 20.5t-75 59t-46 93.5t-15.5 124zM303 1055q0 -90 24 -137t86 -47q19 0 39 6t39.5 16.5t37.5 23.5t33 27l86 498q-36 33 -75 33q-73 0 -124.5 -38.5t-83.5 -99t-47 -135t-15 -147.5z" />
<glyph unicode="&#xab;" horiz-adv-x="1878" d="M209 530l22 160l712 401l48 -145l-485 -336l394 -331l-85 -132zM884 530l22 160l712 401l48 -145l-485 -336l394 -331l-85 -132z" />
<glyph unicode="&#xac;" horiz-adv-x="1370" d="M211 711l17 152h970l-62 -541h-197l45 389h-773z" />
<glyph unicode="&#xad;" horiz-adv-x="1706" />
<glyph unicode="&#xae;" horiz-adv-x="1768" d="M168 806q0 106 27.5 203.5t77.5 182.5t120 154.5t155 119t182.5 76.5t202.5 27t203 -27t183 -76.5t155 -119t120 -154.5t77.5 -182.5t27.5 -203.5t-27.5 -204t-77.5 -182.5t-120 -154.5t-155 -119.5t-183 -76.5t-203 -27t-202.5 27t-182.5 76.5t-155 119.5t-120 154.5 t-77.5 182.5t-27.5 204zM297 806q0 -89 22.5 -172t63.5 -155t98.5 -131t128.5 -101.5t152.5 -65.5t170.5 -23t171 23t153 65.5t128.5 101.5t98.5 131t63.5 155t22.5 172t-22.5 171.5t-63.5 154.5t-98.5 131.5t-128.5 101.5t-153 65.5t-171 23.5t-170.5 -23.5t-152.5 -65.5 t-128.5 -101.5t-98.5 -131.5t-63.5 -154.5t-22.5 -171.5zM567 375v74l83 20v665l-83 22v84h149q27 -1 46.5 -0.5t43.5 1t58 2t90 2.5q79 0 139.5 -16.5t101.5 -47t62 -73t23 -94.5q0 -40 -7.5 -79t-31 -73.5t-68 -62.5t-118.5 -47q49 -28 79.5 -68.5t53 -82t43 -78.5 t50.5 -58q14 -7 27.5 -9.5t29.5 -2.5v-78h-185q-20 0 -35 18.5t-30 48.5t-31.5 68.5t-39 78.5t-52.5 78t-72 68h-78v-266l97 -20v-74h-345zM815 843q26 -5 60 -6.5t72 -1.5q36 0 64 12.5t47.5 34t29.5 50t10 61.5q0 39 -12.5 67t-35 46t-54 26t-69.5 8h-27.5t-25 -0.5 t-26.5 -3t-33 -6.5v-287z" />
<glyph unicode="&#xaf;" horiz-adv-x="614" d="M26 1415l2 179h540l-2 -179h-540z" />
<glyph unicode="&#xb0;" horiz-adv-x="928" d="M193 1278q1 71 28 132t73.5 105.5t110 70t138.5 25.5q72 0 133 -26.5t105.5 -71.5t69.5 -105.5t24 -129.5q-1 -72 -28 -133t-74.5 -105.5t-111 -69.5t-138.5 -25q-72 0 -133 26.5t-105 71.5t-68.5 105.5t-23.5 129.5zM351 1278q-1 -40 12.5 -75.5t38 -61.5t57.5 -41.5 t71 -15.5q40 0 74 14.5t59 40.5t39.5 61.5t14.5 77.5q1 40 -13 75.5t-38 61.5t-57.5 41.5t-71.5 15.5q-40 0 -74 -14.5t-58.5 -40.5t-38.5 -61.5t-15 -77.5z" />
<glyph unicode="&#xb1;" horiz-adv-x="1350" d="M180 15l17 165h859l-17 -165h-859zM249 683l18 178h220l139 -11l13 165l27 230h198l-26 -230l-29 -164l115 10h240l-18 -178h-250l-112 7q-2 -42 -5.5 -82t-5.5 -82l-27 -241h-199l27 241l26 164l-141 -7h-210z" />
<glyph unicode="&#xb2;" horiz-adv-x="1163" d="M175 733q40 22 100.5 60t128 86t135.5 104.5t122.5 116.5t88.5 122t34 121q0 33 -12.5 60t-35.5 46t-55 29.5t-71 10.5q-81 0 -159 -37t-142 -106l-75 104q22 30 67 66t103.5 67t127 52t138.5 22q100 1 167.5 -22.5t108.5 -61.5t58 -84.5t17 -91.5q0 -90 -39 -170.5 t-109.5 -155.5t-167.5 -147.5t-213 -145.5l428 35l90 135l103 -29l-90 -282h-803z" />
<glyph unicode="&#xb3;" horiz-adv-x="1071" d="M170 620l17 128q26 -13 59 -23t67 -16t66 -9t56 -3q49 0 101.5 10.5t96 36t72 67t29.5 104.5q1 35 -11.5 60t-35.5 41.5t-56 24.5t-72 9l-189 -45l25 149q55 10 114.5 29.5t109.5 50t84 74.5t38 103q3 45 -35.5 73t-120.5 27q-66 -1 -137.5 -26t-131.5 -68l-41 117 q40 30 87 53t97 38.5t102 24t103 8.5q82 0 143.5 -16.5t102 -46.5t60.5 -72t19 -93q-1 -56 -22.5 -100.5t-59 -79t-89 -61t-112.5 -46.5q82 0 135 -23t83 -57.5t41.5 -75t10.5 -75.5q-2 -92 -49.5 -160.5t-123 -113.5t-168.5 -67.5t-185 -22.5q-27 0 -63 4.5t-74.5 13.5 t-76 22.5t-66.5 31.5z" />
<glyph unicode="&#xb4;" horiz-adv-x="559" d="M50 1312l317 431l167 -177q-9 -17 -34.5 -44.5t-60.5 -60t-77 -66.5t-84 -64.5t-81 -54.5t-69 -35z" />
<glyph unicode="&#xb5;" horiz-adv-x="1364" d="M81 -372l108 730q9 71 20.5 140t22.5 139.5t21 144t17 151.5q1 37 -8.5 52t-23.5 15q-15 0 -32 -7.5t-39 -21.5l-30 66q7 8 27 27.5t52 40t76.5 36.5t101.5 16q33 0 61 -6.5t48 -21.5t30.5 -40t8.5 -61q-5 -80 -17.5 -169.5t-26.5 -177.5q-7 -44 -14.5 -86t-13.5 -84.5 t-9.5 -86t-3.5 -90.5q0 -56 10 -92.5t27.5 -58.5t41 -30.5t50.5 -8.5q37 0 69.5 13.5t60.5 34t51.5 45t43.5 46.5l115 865h260l-125 -940q-10 -76 31 -76q16 0 37.5 11.5t41.5 25.5l30 -63q-8 -13 -29.5 -34t-54 -41.5t-73.5 -35t-87 -14.5q-30 0 -56 5.5t-44 20.5t-26.5 42 t-3.5 69q-20 -20 -46.5 -44t-62.5 -45t-82 -35t-105 -14q-47 0 -93 14t-72 40l-60 -406h-225z" />
<glyph unicode="&#xb6;" horiz-adv-x="1364" d="M110 1095q-1 111 33 199t107.5 149.5t188.5 94.5t276 33q63 0 111 -2.5t92 -6t90.5 -6.5t106.5 -4h278l-11 -103l-167 -33q-18 -155 -39 -319.5t-43 -330.5t-43 -330t-39 -320l145 -30l-9 -86h-386l175 1414h-194l-177 -1414h-409l8 87l185 30l80 609q-78 1 -143.5 28 t-113 75.5t-74.5 116t-28 149.5z" />
<glyph unicode="&#xb7;" horiz-adv-x="701" d="M189 768q2 39 18 71t40.5 55t55 35.5t61.5 12.5q36 0 62 -12t42.5 -31.5t23.5 -45.5t6 -54q-2 -42 -19 -74.5t-43 -54.5t-58 -33.5t-65 -11.5q-27 0 -50.5 10.5t-40.5 29t-26 45t-7 58.5z" />
<glyph unicode="&#xb8;" horiz-adv-x="479" d="M-16 -446l35 142q13 -7 32.5 -11t42.5 -4q34 0 64.5 9t54 30t38.5 56t19 87q5 60 0 101.5t-10 65.5l67 4l68 -4q10 -15 18.5 -41.5t14 -60t7.5 -70t0 -70.5q-9 -140 -77.5 -201t-205.5 -61q-20 0 -45.5 2t-50 6t-44.5 9t-28 11z" />
<glyph unicode="&#xb9;" horiz-adv-x="1020" d="M242 636l11 98l216 26l84 625l-241 -47l-9 108q30 9 68.5 24t80 34t83 39.5t77 39.5t62.5 35.5t40 26.5l94 -21l-119 -864l220 -27l-11 -97h-656z" />
<glyph unicode="&#xba;" horiz-adv-x="854" d="M73 1085q0 121 43 215.5t111 159t152.5 97.5t167.5 32q82 -1 146 -27.5t107 -73.5t65.5 -112t22.5 -142q0 -122 -41 -215.5t-107.5 -157.5t-152 -96.5t-174.5 -31.5q-75 1 -137.5 26t-107.5 71t-70 110.5t-25 144.5zM302 1103q0 -60 9.5 -108t26 -81.5t38.5 -52t48 -18.5 q70 -1 115 32.5t71.5 87.5t36.5 120.5t10 132.5q0 60 -9 109.5t-26 85.5t-42 55.5t-56 19.5q-43 0 -76 -17.5t-58 -46.5t-41.5 -67.5t-27 -81t-15 -86.5t-4.5 -84z" />
<glyph unicode="&#xbb;" horiz-adv-x="1878" d="M116 292l485 336l-394 331l85 132l606 -383l-22 -160l-712 -401zM792 292l485 336l-394 331l85 132l606 -383l-22 -160l-712 -401z" />
<glyph unicode="&#xbc;" horiz-adv-x="2560" d="M273 636l11 98l216 26l84 625l-241 -47l-9 108q30 9 68.5 24t80 34t83 39.5t77 39.5t62.5 35.5t40 26.5l94 -21l-119 -864l220 -27l-11 -97h-656zM796 0l681 1530h189l-681 -1530h-189zM1352 257l590 857l123 1l108 -104l-483 -608l-103 -113l343 20l35 252l225 23 l-36 -262l227 14l-20 -175h-229l-45 -337h-225l47 337h-520z" />
<glyph unicode="&#xbd;" horiz-adv-x="2560" d="M273 636l11 98l216 26l84 625l-241 -47l-9 108q30 9 68.5 24t80 34t83 39.5t77 39.5t62.5 35.5t40 26.5l94 -21l-119 -864l220 -27l-11 -97h-656zM796 0l681 1530h189l-681 -1530h-189zM1410 19q40 22 100.5 60t128 86t135.5 104.5t122.5 116.5t88.5 122t34 121 q0 33 -12.5 60t-35.5 46t-55 29.5t-71 10.5q-81 0 -159 -37t-142 -106l-75 104q22 30 67 66t103.5 67t127 52t138.5 22q100 1 167.5 -22.5t108.5 -61.5t58 -84.5t17 -91.5q0 -90 -39 -170.5t-109.5 -155.5t-167.5 -147.5t-213 -145.5l428 35l90 135l103 -29l-90 -282h-803z " />
<glyph unicode="&#xbe;" horiz-adv-x="2568" d="M212 620l17 128q26 -13 59 -23t67 -16t66 -9t56 -3q49 0 101.5 10.5t96 36t72 67t29.5 104.5q1 35 -11.5 60t-35.5 41.5t-56 24.5t-72 9l-189 -45l25 149q55 10 114.5 29.5t109.5 50t84 74.5t38 103q3 45 -35.5 73t-120.5 27q-66 -1 -137.5 -26t-131.5 -68l-41 117 q40 30 87 53t97 38.5t102 24t103 8.5q82 0 143.5 -16.5t102 -46.5t60.5 -72t19 -93q-1 -56 -22.5 -100.5t-59 -79t-89 -61t-112.5 -46.5q82 0 135 -23t83 -57.5t41.5 -75t10.5 -75.5q-2 -92 -49.5 -160.5t-123 -113.5t-168.5 -67.5t-185 -22.5q-27 0 -63 4.5t-74.5 13.5 t-76 22.5t-66.5 31.5zM824 0l681 1530h189l-681 -1530h-189zM1352 257l590 857l123 1l108 -104l-483 -608l-103 -113l343 20l35 252l225 23l-36 -262l227 14l-20 -175h-229l-45 -337h-225l47 337h-520z" />
<glyph unicode="&#xbf;" horiz-adv-x="1021" d="M73 4q0 94 24.5 163t64.5 120.5t91.5 90t105 71.5t105 64.5t92.5 69t66.5 85.5t26.5 113q0 32 -10 63t-13 49l158 53l15 -1q13 -15 25 -38t21 -51t14 -59.5t5 -62.5q0 -57 -26.5 -105t-70.5 -90t-101.5 -79t-118.5 -73q-85 -46 -146 -91t-87 -87q-8 -21 -13.5 -47 t-6.5 -50q-2 -70 24.5 -129.5t74.5 -102.5t114.5 -67.5t145.5 -24.5q45 0 98 12.5t96 33.5l-42 -180q-11 -11 -36.5 -22.5t-58 -20.5t-68.5 -14.5t-67 -5.5q-142 0 -238 35.5t-154.5 93.5t-84 132.5t-25.5 151.5zM481 1248q0 43 17.5 77.5t44.5 59t60.5 37.5t65.5 13 q30 0 54.5 -10.5t41.5 -28.5t26 -42.5t9 -51.5q0 -42 -18 -76t-46 -58t-62 -36.5t-66 -12.5q-59 0 -93 36.5t-34 92.5z" />
<glyph unicode="&#xc0;" horiz-adv-x="1359" d="M-141 0l9 96l139 29l680 1405h273l250 -1402l158 -32l-6 -96h-589l6 96l146 29l-45 301h-531l-136 -300l168 -30l-7 -96h-515zM410 562h450l-92 615l-10 153zM490 1846l160 161l270 -342l-86 -73q-36 13 -87 39.5t-101.5 61t-93.5 74t-62 79.5z" />
<glyph unicode="&#xc1;" horiz-adv-x="1359" d="M-141 0l9 96l139 29l680 1405h273l250 -1402l158 -32l-6 -96h-589l6 96l146 29l-45 301h-531l-136 -300l168 -30l-7 -96h-515zM410 562h450l-92 615l-10 153zM744 1665l276 342l155 -161q-20 -40 -63 -79.5t-94 -74t-102.5 -61t-87.5 -39.5z" />
<glyph unicode="&#xc2;" horiz-adv-x="1359" d="M-141 0l9 96l139 29l680 1405h273l250 -1402l158 -32l-6 -96h-589l6 96l146 29l-45 301h-531l-136 -300l168 -30l-7 -96h-515zM410 562h450l-92 615l-10 153zM476 1665l336 342h178l211 -342l-96 -59l-221 218l-324 -217z" />
<glyph unicode="&#xc3;" horiz-adv-x="1359" d="M-141 0l9 96l139 29l680 1405h273l250 -1402l158 -32l-6 -96h-589l6 96l146 29l-45 301h-531l-136 -300l168 -30l-7 -96h-515zM410 562h450l-92 615l-10 153zM497 1801q16 32 43 62.5t60.5 54t72 38t76.5 14.5q36 0 63.5 -10.5t49 -27t40 -35t36 -35t36.5 -27t43 -10.5 q28 0 50 9.5t40 25t33.5 34t29.5 36.5l73 -111q-13 -35 -38.5 -68t-59 -58t-73 -40t-80.5 -15q-43 0 -72.5 10.5t-51.5 26.5t-39 34.5t-35 35t-38.5 27t-49.5 11.5q-20 0 -40 -7.5t-39 -20t-36.5 -28t-31.5 -30.5z" />
<glyph unicode="&#xc4;" horiz-adv-x="1359" d="M-141 0l9 96l139 29l680 1405h273l250 -1402l158 -32l-6 -96h-589l6 96l146 29l-45 301h-531l-136 -300l168 -30l-7 -96h-515zM410 562h450l-92 615l-10 153zM475 1812q1 35 13.5 64.5t33.5 50.5t49 33t59 12q32 0 57 -10t42 -27.5t25.5 -41t7.5 -50.5q-1 -35 -12.5 -65 t-33 -52t-51 -34.5t-66.5 -12.5q-27 0 -50 10.5t-40 28.5t-26 42t-8 52zM909 1812q0 35 13 64.5t34.5 50.5t50 33t59.5 12q32 0 57 -10t42 -27.5t25.5 -41t7.5 -50.5q-1 -35 -13 -65t-33 -52t-51 -34.5t-67 -12.5q-27 0 -50 10t-39.5 28t-26 42.5t-9.5 52.5z" />
<glyph unicode="&#xc5;" horiz-adv-x="1359" d="M-141 0l9 96l139 29l665 1375q-79 26 -119 84.5t-35 146.5q4 78 40.5 131t90 85.5t116.5 46t120 13.5q68 0 122.5 -16t92.5 -47t57 -76.5t16 -104.5q-3 -53 -20.5 -95t-45 -74t-64 -55t-78.5 -37l245 -1374l158 -32l-6 -96h-589l6 96l146 29l-45 301h-531l-136 -300 l168 -30l-7 -96h-515zM410 562h450l-92 615l-10 153zM685 1742q-2 -32 9 -59.5t31 -47.5t47.5 -31.5t57.5 -11.5q33 0 64 6t55 23.5t39 47.5t18 77q2 34 -8 61.5t-29.5 47t-46.5 30t-58 10.5q-33 0 -64 -7t-56 -25t-40.5 -47.5t-18.5 -73.5z" />
<glyph unicode="&#xc6;" horiz-adv-x="1947" d="M-163 0l11 96l156 30l736 1275l-314 24l15 105h1441l-22 -329h-159l-41 195l-374 20l-69 -548l419 15l-17 -187l-418 21l-76 -591l496 30l107 241l158 -23l-68 -374h-1134l12 96l155 30l39 320h-473l-170 -320l189 -30l-7 -96h-592zM489 582h417l99 815l-82 2z" />
<glyph unicode="&#xc7;" horiz-adv-x="1287" d="M77 632q-2 210 59 379.5t170 288.5t258.5 183.5t324.5 64.5q75 0 131 -5t97.5 -12t72 -15.5t56.5 -14.5l36 -10l-65 -384h-185l-31 285q-29 14 -66 23t-86 9q-88 0 -157.5 -35t-122.5 -94.5t-90.5 -137.5t-60.5 -163.5t-33 -173.5t-8 -167q3 -113 21 -209.5t55 -168 t94.5 -112t138.5 -40.5q26 0 59 3.5t66.5 13t64 27t52.5 45.5q7 8 17.5 34.5t22 58.5t21 62t13.5 44h161l-41 -308q-23 -13 -56.5 -29.5t-78.5 -33t-101.5 -30t-126.5 -20.5q12 -39 17.5 -94t3.5 -106q-9 -140 -77.5 -201t-205.5 -61q-20 0 -45.5 2t-50 6t-44.5 9t-28 11 l35 142q13 -7 32.5 -11t42.5 -4q34 0 64.5 9t54 30t38.5 56t19 87q4 71 -2 120q-145 4 -246.5 60t-165.5 146t-93.5 204.5t-30.5 236.5z" />
<glyph unicode="&#xc8;" horiz-adv-x="1274" d="M-13 0l12 96l155 30l162 1274l-139 25l11 105h1023l-22 -340h-164l-41 206l-390 20l-72 -548l441 15l-18 -187l-439 21l-80 -591l510 30l118 252l158 -23l-79 -385h-1146zM462 1846l160 161l270 -342l-86 -73q-36 13 -87 39.5t-101.5 61t-93.5 74t-62 79.5z" />
<glyph unicode="&#xc9;" horiz-adv-x="1274" d="M-13 0l12 96l155 30l162 1274l-139 25l11 105h1023l-22 -340h-164l-41 206l-390 20l-72 -548l441 15l-18 -187l-439 21l-80 -591l510 30l118 252l158 -23l-79 -385h-1146zM716 1665l276 342l155 -161q-20 -40 -63 -79.5t-94 -74t-102.5 -61t-87.5 -39.5z" />
<glyph unicode="&#xca;" horiz-adv-x="1274" d="M-13 0l12 96l155 30l162 1274l-139 25l11 105h1023l-22 -340h-164l-41 206l-390 20l-72 -548l441 15l-18 -187l-439 21l-80 -591l510 30l118 252l158 -23l-79 -385h-1146zM448 1665l336 342h178l211 -342l-96 -59l-221 218l-324 -217z" />
<glyph unicode="&#xcb;" horiz-adv-x="1274" d="M-13 0l12 96l155 30l162 1274l-139 25l11 105h1023l-22 -340h-164l-41 206l-390 20l-72 -548l441 15l-18 -187l-439 21l-80 -591l510 30l118 252l158 -23l-79 -385h-1146zM447 1812q1 35 13.5 64.5t33.5 50.5t49 33t59 12q32 0 57 -10t42 -27.5t25.5 -41t7.5 -50.5 q-1 -35 -12.5 -65t-33 -52t-51 -34.5t-66.5 -12.5q-27 0 -50 10.5t-40 28.5t-26 42t-8 52zM881 1812q0 35 13 64.5t34.5 50.5t50 33t59.5 12q32 0 57 -10t42 -27.5t25.5 -41t7.5 -50.5q-1 -35 -13 -65t-33 -52t-51 -34.5t-67 -12.5q-27 0 -50 10t-39.5 28t-26 42.5 t-9.5 52.5z" />
<glyph unicode="&#xcc;" horiz-adv-x="745" d="M6 0l11 96l149 30l163 1274l-140 25l12 105h577l-11 -105l-163 -25l-163 -1274l166 -29l-7 -97h-594zM194 1846l160 161l270 -342l-86 -73q-36 13 -87 39.5t-101.5 61t-93.5 74t-62 79.5z" />
<glyph unicode="&#xcd;" horiz-adv-x="745" d="M6 0l11 96l149 30l163 1274l-140 25l12 105h577l-11 -105l-163 -25l-163 -1274l166 -29l-7 -97h-594zM448 1665l276 342l155 -161q-20 -40 -63 -79.5t-94 -74t-102.5 -61t-87.5 -39.5z" />
<glyph unicode="&#xce;" horiz-adv-x="745" d="M6 0l11 96l149 30l163 1274l-140 25l12 105h577l-11 -105l-163 -25l-163 -1274l166 -29l-7 -97h-594zM180 1665l336 342h178l211 -342l-96 -59l-221 218l-324 -217z" />
<glyph unicode="&#xcf;" horiz-adv-x="745" d="M6 0l11 96l149 30l163 1274l-140 25l12 105h577l-11 -105l-163 -25l-163 -1274l166 -29l-7 -97h-594zM179 1812q1 35 13.5 64.5t33.5 50.5t49 33t59 12q32 0 57 -10t42 -27.5t25.5 -41t7.5 -50.5q-1 -35 -12.5 -65t-33 -52t-51 -34.5t-66.5 -12.5q-27 0 -50 10.5 t-40 28.5t-26 42t-8 52zM613 1812q0 35 13 64.5t34.5 50.5t50 33t59.5 12q32 0 57 -10t42 -27.5t25.5 -41t7.5 -50.5q-1 -35 -13 -65t-33 -52t-51 -34.5t-67 -12.5q-27 0 -50 10t-39.5 28t-26 42.5t-9.5 52.5z" />
<glyph unicode="&#xd0;" horiz-adv-x="1467" d="M-13 2l11 96l153 30l75 584h-142l21 150h141l70 540l-138 25l11 105h307q75 1 153 8.5t158 7.5q167 0 283.5 -46.5t190 -130t107 -198t34.5 -249.5q2 -203 -51 -375.5t-159 -298.5t-263.5 -196t-364.5 -68q-18 0 -46.5 2.5t-47.5 4.5q-18 1 -44.5 3t-55.5 3t-57.5 2 t-50.5 1h-295zM427 136q18 -6 43.5 -11t52 -9t52 -6t45.5 -2q94 3 169 38.5t132 93.5t97.5 134.5t66 163.5t37 179t10.5 181q-1 143 -23 243.5t-67 164t-114.5 92.5t-166.5 29q-25 0 -51 -2t-49 -5.5t-42 -7.5t-30 -8l-70 -542h345l-21 -150h-343z" />
<glyph unicode="&#xd1;" horiz-adv-x="1531" d="M1 0l8 96l142 29l178 1275l-158 25l16 105h448l424 -1053l69 -212l136 1136l-156 24l12 105h476l-10 -105l-135 -25l-207 -1400h-273l-435 1062l-67 218l-123 -1154l172 -29l-9 -97h-508zM598 1801q16 32 43 62.5t60.5 54t72 38t76.5 14.5q36 0 63.5 -10.5t49 -27t40 -35 t36 -35t36.5 -27t43 -10.5q28 0 50 9.5t40 25t33.5 34t29.5 36.5l73 -111q-13 -35 -38.5 -68t-59 -58t-73 -40t-80.5 -15q-43 0 -72.5 10.5t-51.5 26.5t-39 34.5t-35 35t-38.5 27t-49.5 11.5q-20 0 -40 -7.5t-39 -20t-36.5 -28t-31.5 -30.5z" />
<glyph unicode="&#xd2;" horiz-adv-x="1443" d="M81 629q-1 124 21.5 241t67 219t110 187t149.5 146t186.5 94.5t220.5 33.5q141 0 244 -53t170.5 -142.5t101 -207.5t34.5 -249q1 -122 -20 -237t-63 -217t-105.5 -187.5t-146.5 -147t-186.5 -95.5t-225.5 -34q-136 0 -239.5 47t-174 132.5t-107 205t-37.5 264.5zM374 680 q1 -119 15 -224t47 -184t89.5 -125t142.5 -46q100 0 180 59t135.5 163.5t84 245.5t27.5 304q-1 132 -19 234.5t-54 173.5t-90 108t-127 37q-65 0 -122.5 -28t-106 -78t-86.5 -119.5t-64 -152.5t-39.5 -176.5t-12.5 -191.5zM525 1846l160 161l270 -342l-86 -73 q-36 13 -87 39.5t-101.5 61t-93.5 74t-62 79.5z" />
<glyph unicode="&#xd3;" horiz-adv-x="1443" d="M81 629q-1 124 21.5 241t67 219t110 187t149.5 146t186.5 94.5t220.5 33.5q141 0 244 -53t170.5 -142.5t101 -207.5t34.5 -249q1 -122 -20 -237t-63 -217t-105.5 -187.5t-146.5 -147t-186.5 -95.5t-225.5 -34q-136 0 -239.5 47t-174 132.5t-107 205t-37.5 264.5zM374 680 q1 -119 15 -224t47 -184t89.5 -125t142.5 -46q100 0 180 59t135.5 163.5t84 245.5t27.5 304q-1 132 -19 234.5t-54 173.5t-90 108t-127 37q-65 0 -122.5 -28t-106 -78t-86.5 -119.5t-64 -152.5t-39.5 -176.5t-12.5 -191.5zM779 1665l276 342l155 -161q-20 -40 -63 -79.5 t-94 -74t-102.5 -61t-87.5 -39.5z" />
<glyph unicode="&#xd4;" horiz-adv-x="1443" d="M81 629q-1 124 21.5 241t67 219t110 187t149.5 146t186.5 94.5t220.5 33.5q141 0 244 -53t170.5 -142.5t101 -207.5t34.5 -249q1 -122 -20 -237t-63 -217t-105.5 -187.5t-146.5 -147t-186.5 -95.5t-225.5 -34q-136 0 -239.5 47t-174 132.5t-107 205t-37.5 264.5zM374 680 q1 -119 15 -224t47 -184t89.5 -125t142.5 -46q100 0 180 59t135.5 163.5t84 245.5t27.5 304q-1 132 -19 234.5t-54 173.5t-90 108t-127 37q-65 0 -122.5 -28t-106 -78t-86.5 -119.5t-64 -152.5t-39.5 -176.5t-12.5 -191.5zM511 1665l336 342h178l211 -342l-96 -59l-221 218 l-324 -217z" />
<glyph unicode="&#xd5;" horiz-adv-x="1443" d="M81 629q-1 124 21.5 241t67 219t110 187t149.5 146t186.5 94.5t220.5 33.5q141 0 244 -53t170.5 -142.5t101 -207.5t34.5 -249q1 -122 -20 -237t-63 -217t-105.5 -187.5t-146.5 -147t-186.5 -95.5t-225.5 -34q-136 0 -239.5 47t-174 132.5t-107 205t-37.5 264.5zM374 680 q1 -119 15 -224t47 -184t89.5 -125t142.5 -46q100 0 180 59t135.5 163.5t84 245.5t27.5 304q-1 132 -19 234.5t-54 173.5t-90 108t-127 37q-65 0 -122.5 -28t-106 -78t-86.5 -119.5t-64 -152.5t-39.5 -176.5t-12.5 -191.5zM532 1801q16 32 43 62.5t60.5 54t72 38t76.5 14.5 q36 0 63.5 -10.5t49 -27t40 -35t36 -35t36.5 -27t43 -10.5q28 0 50 9.5t40 25t33.5 34t29.5 36.5l73 -111q-13 -35 -38.5 -68t-59 -58t-73 -40t-80.5 -15q-43 0 -72.5 10.5t-51.5 26.5t-39 34.5t-35 35t-38.5 27t-49.5 11.5q-20 0 -40 -7.5t-39 -20t-36.5 -28t-31.5 -30.5z " />
<glyph unicode="&#xd6;" horiz-adv-x="1443" d="M81 629q-1 124 21.5 241t67 219t110 187t149.5 146t186.5 94.5t220.5 33.5q141 0 244 -53t170.5 -142.5t101 -207.5t34.5 -249q1 -122 -20 -237t-63 -217t-105.5 -187.5t-146.5 -147t-186.5 -95.5t-225.5 -34q-136 0 -239.5 47t-174 132.5t-107 205t-37.5 264.5zM374 680 q1 -119 15 -224t47 -184t89.5 -125t142.5 -46q100 0 180 59t135.5 163.5t84 245.5t27.5 304q-1 132 -19 234.5t-54 173.5t-90 108t-127 37q-65 0 -122.5 -28t-106 -78t-86.5 -119.5t-64 -152.5t-39.5 -176.5t-12.5 -191.5zM510 1812q1 35 13.5 64.5t33.5 50.5t49 33t59 12 q32 0 57 -10t42 -27.5t25.5 -41t7.5 -50.5q-1 -35 -12.5 -65t-33 -52t-51 -34.5t-66.5 -12.5q-27 0 -50 10.5t-40 28.5t-26 42t-8 52zM944 1812q0 35 13 64.5t34.5 50.5t50 33t59.5 12q32 0 57 -10t42 -27.5t25.5 -41t7.5 -50.5q-1 -35 -13 -65t-33 -52t-51 -34.5t-67 -12.5 q-27 0 -50 10t-39.5 28t-26 42.5t-9.5 52.5z" />
<glyph unicode="&#xd7;" horiz-adv-x="1370" d="M217 439l383 327l-301 327l147 137l281 -350q15 14 44 41.5t65 61.5t75.5 72t75.5 72t65 61.5t44 41.5l115 -139l-382 -326l301 -327l-148 -138l-281 350q-15 -14 -44 -41.5t-64.5 -61.5t-75.5 -71.5t-75.5 -72t-64.5 -61.5t-44 -41z" />
<glyph unicode="&#xd8;" horiz-adv-x="1443" d="M81 631q-1 124 21.5 241t67 219t110 187t149.5 146t186.5 94.5t220.5 33.5q86 0 157.5 -20t129.5 -57l135 195l89 -49l-144 -210q92 -92 136.5 -225t46.5 -286q1 -122 -20 -237t-63 -217t-105.5 -187.5t-146.5 -147t-186.5 -95.5t-225.5 -34q-99 0 -180 24.5t-146 71.5 l-140 -205l-89 49l153 225q-76 87 -115 209.5t-41 274.5zM374 682q1 -88 7.5 -167t23.5 -148l597 950q-35 54 -84 82.5t-113 28.5q-65 0 -122.5 -28t-106 -78t-86.5 -119.5t-64 -152.5t-39.5 -176.5t-12.5 -191.5zM448 247q34 -67 87.5 -105.5t132.5 -38.5q100 0 180 59 t135.5 163.5t84 245.5t27.5 304q-2 202 -43 332z" />
<glyph unicode="&#xd9;" horiz-adv-x="1413" d="M109 1425l13 105h593l-10 -104l-174 -26l-101 -783q-6 -58 -10 -108t-4 -89q1 -76 18 -136t50 -101.5t82 -63.5t114 -22q88 0 155 36t114.5 104t78 166t45.5 223l104 774l-151 25l11 105h458l-13 -105l-126 -24l-101 -774q-23 -177 -73 -300t-127.5 -200t-182.5 -112 t-238 -35t-227 33t-154 92.5t-87.5 142t-28.5 180.5q-1 39 0.5 79.5t6.5 85.5l104 808zM553 1846l160 161l270 -342l-86 -73q-36 13 -87 39.5t-101.5 61t-93.5 74t-62 79.5z" />
<glyph unicode="&#xda;" horiz-adv-x="1413" d="M109 1425l13 105h593l-10 -104l-174 -26l-101 -783q-6 -58 -10 -108t-4 -89q1 -76 18 -136t50 -101.5t82 -63.5t114 -22q88 0 155 36t114.5 104t78 166t45.5 223l104 774l-151 25l11 105h458l-13 -105l-126 -24l-101 -774q-23 -177 -73 -300t-127.5 -200t-182.5 -112 t-238 -35t-227 33t-154 92.5t-87.5 142t-28.5 180.5q-1 39 0.5 79.5t6.5 85.5l104 808zM807 1665l276 342l155 -161q-20 -40 -63 -79.5t-94 -74t-102.5 -61t-87.5 -39.5z" />
<glyph unicode="&#xdb;" horiz-adv-x="1413" d="M109 1425l13 105h593l-10 -104l-174 -26l-101 -783q-6 -58 -10 -108t-4 -89q1 -76 18 -136t50 -101.5t82 -63.5t114 -22q88 0 155 36t114.5 104t78 166t45.5 223l104 774l-151 25l11 105h458l-13 -105l-126 -24l-101 -774q-23 -177 -73 -300t-127.5 -200t-182.5 -112 t-238 -35t-227 33t-154 92.5t-87.5 142t-28.5 180.5q-1 39 0.5 79.5t6.5 85.5l104 808zM539 1665l336 342h178l211 -342l-96 -59l-221 218l-324 -217z" />
<glyph unicode="&#xdc;" horiz-adv-x="1413" d="M109 1425l13 105h593l-10 -104l-174 -26l-101 -783q-6 -58 -10 -108t-4 -89q1 -76 18 -136t50 -101.5t82 -63.5t114 -22q88 0 155 36t114.5 104t78 166t45.5 223l104 774l-151 25l11 105h458l-13 -105l-126 -24l-101 -774q-23 -177 -73 -300t-127.5 -200t-182.5 -112 t-238 -35t-227 33t-154 92.5t-87.5 142t-28.5 180.5q-1 39 0.5 79.5t6.5 85.5l104 808zM538 1812q1 35 13.5 64.5t33.5 50.5t49 33t59 12q32 0 57 -10t42 -27.5t25.5 -41t7.5 -50.5q-1 -35 -12.5 -65t-33 -52t-51 -34.5t-66.5 -12.5q-27 0 -50 10.5t-40 28.5t-26 42t-8 52z M972 1812q0 35 13 64.5t34.5 50.5t50 33t59.5 12q32 0 57 -10t42 -27.5t25.5 -41t7.5 -50.5q-1 -35 -13 -65t-33 -52t-51 -34.5t-67 -12.5q-27 0 -50 10t-39.5 28t-26 42.5t-9.5 52.5z" />
<glyph unicode="&#xdd;" horiz-adv-x="1227" d="M30 1425l11 105h586l-14 -105l-171 -25l200 -527l45 -124l62 111l317 540l-146 25l10 105h473l-13 -105l-113 -24l-521 -803l-61 -472l229 -29l-9 -97h-713l10 97l213 29l60 472l-348 802zM692 1665l276 342l155 -161q-20 -40 -63 -79.5t-94 -74t-102.5 -61t-87.5 -39.5z " />
<glyph unicode="&#xde;" horiz-adv-x="1262" d="M4 0l10 96l143 30l161 1274l-139 25l13 105h579l-12 -105l-166 -25l-25 -200q49 5 100 8t103 3q130 0 218.5 -27t143.5 -74.5t79.5 -112.5t25.5 -142q1 -101 -34 -193t-112.5 -162t-198.5 -112t-290 -42q-57 0 -89 1t-54 3l-28 -224l174 -29l-8 -97h-594zM476 475 q35 -3 67 -3.5t67 -0.5q86 0 154.5 23.5t115.5 68t71.5 109.5t22.5 148q-2 67 -16.5 117.5t-46 84t-82.5 50.5t-124 17q-35 0 -76.5 -4t-76.5 -11z" />
<glyph unicode="&#xdf;" horiz-adv-x="1194" d="M40 0l115 927q20 150 58 257t88 180t109.5 117t122.5 67t126 30t122 7q73 0 139 -19t115.5 -56.5t78.5 -93t29 -128.5t-21 -124t-52.5 -88t-68 -63.5t-68 -52t-52.5 -53t-21 -66.5q0 -18 7 -37t21 -42t35 -51.5t49 -64.5q23 -31 49 -65t48 -73.5t36.5 -85t14.5 -97.5 q0 -78 -33.5 -141t-92 -107.5t-137 -68.5t-168.5 -24q-94 0 -157 15t-98 32l26 187q12 -15 34.5 -33t51 -33.5t60 -25.5t61.5 -10q35 0 67.5 4.5t57.5 21t40 49.5t15 91q0 30 -8.5 62t-21.5 64t-29 61.5t-31 53.5q-21 26 -42.5 59.5t-39 69.5t-29 72t-11.5 69q0 36 8 63.5 t22 51t33.5 45.5t42.5 46q61 62 98.5 132t37.5 156q0 37 -9.5 69t-28.5 56t-48 38t-68 14q-56 0 -104.5 -32t-88 -103t-69.5 -185t-49 -277l-108 -867h-264z" />
<glyph unicode="&#xe0;" horiz-adv-x="1194" d="M72 407q0 87 19.5 177t57.5 174t94.5 157.5t130.5 128.5t165.5 87t199.5 32q27 0 56 -3.5t57.5 -8.5t55.5 -12.5t49 -14.5l135 39l-130 -956q-5 -41 6.5 -58.5t28.5 -17.5q14 0 34.5 9t55.5 37l30 -63q-7 -11 -28.5 -33.5t-54 -45t-75.5 -39t-94 -16.5q-69 0 -110 33 t-38 102l-2 3q-24 -27 -55.5 -51.5t-69.5 -44t-82.5 -31t-94.5 -11.5q-89 0 -153.5 33t-106 90.5t-61.5 135.5t-20 168zM328 1571l178 172l288 -432l-80 -65q-21 9 -53 28.5t-69.5 46.5t-77.5 59t-76 65t-65 65.5t-45 60.5zM347 425q0 -136 41.5 -211.5t113.5 -75.5 q31 0 60 9.5t55.5 25t50 36t42.5 42.5l102 765q-44 16 -101 16q-66 0 -118.5 -27.5t-93 -73.5t-69.5 -107t-47.5 -128.5t-27 -137t-8.5 -133.5z" />
<glyph unicode="&#xe1;" horiz-adv-x="1194" d="M72 407q0 87 19.5 177t57.5 174t94.5 157.5t130.5 128.5t165.5 87t199.5 32q27 0 56 -3.5t57.5 -8.5t55.5 -12.5t49 -14.5l135 39l-130 -956q-5 -41 6.5 -58.5t28.5 -17.5q14 0 34.5 9t55.5 37l30 -63q-7 -11 -28.5 -33.5t-54 -45t-75.5 -39t-94 -16.5q-69 0 -110 33 t-38 102l-2 3q-24 -27 -55.5 -51.5t-69.5 -44t-82.5 -31t-94.5 -11.5q-89 0 -153.5 33t-106 90.5t-61.5 135.5t-20 168zM347 425q0 -136 41.5 -211.5t113.5 -75.5q31 0 60 9.5t55.5 25t50 36t42.5 42.5l102 765q-44 16 -101 16q-66 0 -118.5 -27.5t-93 -73.5t-69.5 -107 t-47.5 -128.5t-27 -137t-8.5 -133.5zM631 1312l317 431l167 -177q-9 -17 -34.5 -44.5t-60.5 -60t-77 -66.5t-84 -64.5t-81 -54.5t-69 -35z" />
<glyph unicode="&#xe2;" horiz-adv-x="1194" d="M72 407q0 87 19.5 177t57.5 174t94.5 157.5t130.5 128.5t165.5 87t199.5 32q27 0 56 -3.5t57.5 -8.5t55.5 -12.5t49 -14.5l135 39l-130 -956q-5 -41 6.5 -58.5t28.5 -17.5q14 0 34.5 9t55.5 37l30 -63q-7 -11 -28.5 -33.5t-54 -45t-75.5 -39t-94 -16.5q-69 0 -110 33 t-38 102l-2 3q-24 -27 -55.5 -51.5t-69.5 -44t-82.5 -31t-94.5 -11.5q-89 0 -153.5 33t-106 90.5t-61.5 135.5t-20 168zM347 425q0 -136 41.5 -211.5t113.5 -75.5q31 0 60 9.5t55.5 25t50 36t42.5 42.5l102 765q-44 16 -101 16q-66 0 -118.5 -27.5t-93 -73.5t-69.5 -107 t-47.5 -128.5t-27 -137t-8.5 -133.5zM376 1286l347 374h178l200 -374l-99 -58l-216 234l-328 -233z" />
<glyph unicode="&#xe3;" horiz-adv-x="1194" d="M72 407q0 87 19.5 177t57.5 174t94.5 157.5t130.5 128.5t165.5 87t199.5 32q27 0 56 -3.5t57.5 -8.5t55.5 -12.5t49 -14.5l135 39l-130 -956q-5 -41 6.5 -58.5t28.5 -17.5q14 0 34.5 9t55.5 37l30 -63q-7 -11 -28.5 -33.5t-54 -45t-75.5 -39t-94 -16.5q-69 0 -110 33 t-38 102l-2 3q-24 -27 -55.5 -51.5t-69.5 -44t-82.5 -31t-94.5 -11.5q-89 0 -153.5 33t-106 90.5t-61.5 135.5t-20 168zM347 425q0 -136 41.5 -211.5t113.5 -75.5q31 0 60 9.5t55.5 25t50 36t42.5 42.5l102 765q-44 16 -101 16q-66 0 -118.5 -27.5t-93 -73.5t-69.5 -107 t-47.5 -128.5t-27 -137t-8.5 -133.5zM382 1496q16 32 43 62.5t60.5 54t72 38t76.5 14.5q36 0 63.5 -10.5t49 -27t40 -35t36 -35t36.5 -27t43 -10.5q28 0 50 9.5t40 25t33.5 34t29.5 36.5l73 -111q-13 -35 -38.5 -68t-59 -58t-73 -40t-80.5 -15q-43 0 -72.5 10.5t-51.5 26.5 t-39 34.5t-35 35t-38.5 27t-49.5 11.5q-20 0 -40 -7.5t-39 -20t-36.5 -28t-31.5 -30.5z" />
<glyph unicode="&#xe4;" horiz-adv-x="1194" d="M72 407q0 87 19.5 177t57.5 174t94.5 157.5t130.5 128.5t165.5 87t199.5 32q27 0 56 -3.5t57.5 -8.5t55.5 -12.5t49 -14.5l135 39l-130 -956q-5 -41 6.5 -58.5t28.5 -17.5q14 0 34.5 9t55.5 37l30 -63q-7 -11 -28.5 -33.5t-54 -45t-75.5 -39t-94 -16.5q-69 0 -110 33 t-38 102l-2 3q-24 -27 -55.5 -51.5t-69.5 -44t-82.5 -31t-94.5 -11.5q-89 0 -153.5 33t-106 90.5t-61.5 135.5t-20 168zM347 425q0 -136 41.5 -211.5t113.5 -75.5q31 0 60 9.5t55.5 25t50 36t42.5 42.5l102 765q-44 16 -101 16q-66 0 -118.5 -27.5t-93 -73.5t-69.5 -107 t-47.5 -128.5t-27 -137t-8.5 -133.5zM399 1507q1 34 13.5 65t33.5 54t50 36.5t64 13.5q32 0 57.5 -11.5t43 -31t27 -44t8.5 -51.5q-1 -35 -13 -67t-33.5 -56t-52 -38t-69.5 -14q-27 0 -51 12t-41.5 32t-27.5 46t-9 54zM835 1507q1 34 13.5 65t33.5 54t50 36.5t64 13.5 q32 0 57.5 -11.5t43 -31t27 -44t8.5 -51.5q-1 -35 -13 -67t-33.5 -56t-52 -38t-69.5 -14q-27 0 -51 12t-41.5 32t-27.5 46t-9 54z" />
<glyph unicode="&#xe5;" horiz-adv-x="1194" d="M72 407q0 87 19.5 177t57.5 174t94.5 157.5t130.5 128.5t165.5 87t199.5 32q27 0 56 -3.5t57.5 -8.5t55.5 -12.5t49 -14.5l135 39l-130 -956q-5 -41 6.5 -58.5t28.5 -17.5q14 0 34.5 9t55.5 37l30 -63q-7 -11 -28.5 -33.5t-54 -45t-75.5 -39t-94 -16.5q-69 0 -110 33 t-38 102l-2 3q-24 -27 -55.5 -51.5t-69.5 -44t-82.5 -31t-94.5 -11.5q-89 0 -153.5 33t-106 90.5t-61.5 135.5t-20 168zM347 425q0 -136 41.5 -211.5t113.5 -75.5q31 0 60 9.5t55.5 25t50 36t42.5 42.5l102 765q-44 16 -101 16q-66 0 -118.5 -27.5t-93 -73.5t-69.5 -107 t-47.5 -128.5t-27 -137t-8.5 -133.5zM459 1512q4 78 40 132t89.5 87.5t116.5 48.5t120 15q68 0 123 -17t92.5 -49.5t56.5 -79t16 -105.5q-4 -75 -37 -129.5t-84 -90.5t-113.5 -53.5t-126.5 -17.5q-74 0 -130 18t-93.5 51.5t-55.5 81.5t-14 108zM626 1523q-2 -32 9 -60 t31 -49t47 -33.5t57 -12.5q34 0 65 7t55 25t39 49t18 78q2 34 -8.5 62t-29.5 48.5t-46 32t-58 11.5q-33 0 -64.5 -8t-56 -26.5t-40.5 -49t-18 -74.5z" />
<glyph unicode="&#xe6;" horiz-adv-x="1711" d="M72 392q0 87 21 178t62 176.5t101 161.5t138 132.5t173 89.5t207 33q51 0 107 -10.5t101 -24.5l101 35l-14 -85q64 41 136 63t152 22q79 0 136 -19.5t94 -53.5t55 -80t19 -99q1 -80 -30 -144t-83.5 -114t-120 -86t-138 -60t-139.5 -36t-124 -13q-2 -71 6.5 -129.5 t30 -100.5t58 -65.5t91.5 -23.5q100 0 181.5 42.5t147.5 108.5l55 -93q-21 -31 -61.5 -69t-98 -71t-130.5 -55t-160 -22q-80 0 -142.5 19t-108.5 53.5t-77 83t-48 107.5q-27 -45 -66 -91.5t-89 -84.5t-110.5 -62.5t-131.5 -24.5q-86 0 -143.5 32t-92.5 87.5t-50 131 t-15 161.5zM345 409q0 -56 6 -103.5t19.5 -82t35 -53.5t51.5 -19q47 0 90 24t80.5 60t68 78.5t51.5 79.5v29l-18 -20l97 622q-17 5 -34.5 6.5t-37.5 1.5q-70 0 -127.5 -28.5t-103 -76.5t-79 -111t-55.5 -132t-33 -140t-11 -135zM1029 573q34 2 75 12t82 29t80 45.5 t68.5 61.5t47 77.5t16.5 92.5q-2 74 -28 109.5t-74 35.5q-44 0 -80 -22t-64.5 -58.5t-49.5 -84.5t-36 -99.5t-24 -103t-13 -95.5z" />
<glyph unicode="&#xe7;" horiz-adv-x="924" d="M74 440q-1 81 16 166t51 165t85.5 151.5t120 125t154.5 84.5t190 31q29 0 61 -3t63.5 -8t61 -13.5t52.5 -18.5l-72 -253q-21 13 -49 37.5t-58 48t-60.5 41t-57.5 17.5q-52 0 -103.5 -39.5t-92 -112t-65 -174t-22.5 -225.5q1 -84 14 -144t37 -98t59 -56t80 -18 q42 0 77 8.5t66.5 24t60.5 38t60 50.5l51 -92q-16 -22 -43.5 -49t-65 -53t-85.5 -47.5t-105 -32.5q13 -39 19 -95t3 -108q-9 -140 -77.5 -201t-205.5 -61q-20 0 -45.5 2t-50 6t-44.5 9t-28 11l35 142q13 -7 32.5 -11t42.5 -4q34 0 64.5 9t54 30t38.5 56t19 87q4 71 -2 118 q-158 13 -246 130t-90 329z" />
<glyph unicode="&#xe8;" horiz-adv-x="1050" d="M74 430q1 100 23 193.5t61.5 175t95.5 148.5t124.5 115t148 74.5t166.5 26.5q79 0 136.5 -19t95 -53t56 -79.5t19.5 -98.5q1 -80 -30.5 -144.5t-84.5 -114.5t-121 -86.5t-140 -60t-141.5 -36t-124.5 -13.5q-3 -63 7.5 -120.5t34.5 -102t63.5 -70.5t95.5 -26 q97 0 176.5 42.5t142.5 108.5l55 -93q-21 -31 -60.5 -69t-96 -71t-128 -55t-155.5 -22q-113 0 -193 38t-130.5 101t-73.5 144t-22 167zM260 1571l178 172l288 -432l-80 -65q-21 9 -53 28.5t-69.5 46.5t-77.5 59t-76 65t-65 65.5t-45 60.5zM360 573q35 2 76.5 12t84 29 t81.5 45.5t69.5 61.5t48.5 77.5t17 92.5q-2 74 -29 109.5t-75 35.5q-45 0 -81.5 -22t-65.5 -58.5t-50.5 -84.5t-37 -99.5t-25 -103t-13.5 -95.5z" />
<glyph unicode="&#xe9;" horiz-adv-x="1050" d="M74 430q1 100 23 193.5t61.5 175t95.5 148.5t124.5 115t148 74.5t166.5 26.5q79 0 136.5 -19t95 -53t56 -79.5t19.5 -98.5q1 -80 -30.5 -144.5t-84.5 -114.5t-121 -86.5t-140 -60t-141.5 -36t-124.5 -13.5q-3 -63 7.5 -120.5t34.5 -102t63.5 -70.5t95.5 -26 q97 0 176.5 42.5t142.5 108.5l55 -93q-21 -31 -60.5 -69t-96 -71t-128 -55t-155.5 -22q-113 0 -193 38t-130.5 101t-73.5 144t-22 167zM360 573q35 2 76.5 12t84 29t81.5 45.5t69.5 61.5t48.5 77.5t17 92.5q-2 74 -29 109.5t-75 35.5q-45 0 -81.5 -22t-65.5 -58.5 t-50.5 -84.5t-37 -99.5t-25 -103t-13.5 -95.5zM563 1312l317 431l167 -177q-9 -17 -34.5 -44.5t-60.5 -60t-77 -66.5t-84 -64.5t-81 -54.5t-69 -35z" />
<glyph unicode="&#xea;" horiz-adv-x="1050" d="M74 430q1 100 23 193.5t61.5 175t95.5 148.5t124.5 115t148 74.5t166.5 26.5q79 0 136.5 -19t95 -53t56 -79.5t19.5 -98.5q1 -80 -30.5 -144.5t-84.5 -114.5t-121 -86.5t-140 -60t-141.5 -36t-124.5 -13.5q-3 -63 7.5 -120.5t34.5 -102t63.5 -70.5t95.5 -26 q97 0 176.5 42.5t142.5 108.5l55 -93q-21 -31 -60.5 -69t-96 -71t-128 -55t-155.5 -22q-113 0 -193 38t-130.5 101t-73.5 144t-22 167zM308 1286l347 374h178l200 -374l-99 -58l-216 234l-328 -233zM360 573q35 2 76.5 12t84 29t81.5 45.5t69.5 61.5t48.5 77.5t17 92.5 q-2 74 -29 109.5t-75 35.5q-45 0 -81.5 -22t-65.5 -58.5t-50.5 -84.5t-37 -99.5t-25 -103t-13.5 -95.5z" />
<glyph unicode="&#xeb;" horiz-adv-x="1050" d="M74 430q1 100 23 193.5t61.5 175t95.5 148.5t124.5 115t148 74.5t166.5 26.5q79 0 136.5 -19t95 -53t56 -79.5t19.5 -98.5q1 -80 -30.5 -144.5t-84.5 -114.5t-121 -86.5t-140 -60t-141.5 -36t-124.5 -13.5q-3 -63 7.5 -120.5t34.5 -102t63.5 -70.5t95.5 -26 q97 0 176.5 42.5t142.5 108.5l55 -93q-21 -31 -60.5 -69t-96 -71t-128 -55t-155.5 -22q-113 0 -193 38t-130.5 101t-73.5 144t-22 167zM331 1507q1 34 13.5 65t33.5 54t50 36.5t64 13.5q32 0 57.5 -11.5t43 -31t27 -44t8.5 -51.5q-1 -35 -13 -67t-33.5 -56t-52 -38 t-69.5 -14q-27 0 -51 12t-41.5 32t-27.5 46t-9 54zM360 573q35 2 76.5 12t84 29t81.5 45.5t69.5 61.5t48.5 77.5t17 92.5q-2 74 -29 109.5t-75 35.5q-45 0 -81.5 -22t-65.5 -58.5t-50.5 -84.5t-37 -99.5t-25 -103t-13.5 -95.5zM767 1507q1 34 13.5 65t33.5 54t50 36.5 t64 13.5q32 0 57.5 -11.5t43 -31t27 -44t8.5 -51.5q-1 -35 -13 -67t-33.5 -56t-52 -38t-69.5 -14q-27 0 -51 12t-41.5 32t-27.5 46t-9 54z" />
<glyph unicode="&#xec;" horiz-adv-x="655" d="M12 1571l178 172l288 -432l-80 -65q-21 9 -53 28.5t-69.5 46.5t-77.5 59t-76 65t-65 65.5t-45 60.5zM99 1031l18 81l374 51l52 -24l-134 -932q-11 -76 29 -76q17 0 39 12t60 45l30 -63q-8 -11 -30.5 -35t-57 -48.5t-81 -43t-101.5 -18.5q-84 0 -126.5 36t-34.5 105 q7 60 19 147.5t27.5 198t34 240t38.5 273.5z" />
<glyph unicode="&#xed;" horiz-adv-x="655" d="M99 1031l18 81l374 51l52 -24l-134 -932q-11 -76 29 -76q17 0 39 12t60 45l30 -63q-8 -11 -30.5 -35t-57 -48.5t-81 -43t-101.5 -18.5q-84 0 -126.5 36t-34.5 105q7 60 19 147.5t27.5 198t34 240t38.5 273.5zM313 1312l317 431l167 -177q-9 -17 -34.5 -44.5t-60.5 -60 t-77 -66.5t-84 -64.5t-81 -54.5t-69 -35z" />
<glyph unicode="&#xee;" horiz-adv-x="655" d="M58 1286l347 374h178l200 -374l-99 -58l-216 234l-328 -233zM99 1031l18 81l374 51l52 -24l-134 -932q-11 -76 29 -76q17 0 39 12t60 45l30 -63q-8 -11 -30.5 -35t-57 -48.5t-81 -43t-101.5 -18.5q-84 0 -126.5 36t-34.5 105q7 60 19 147.5t27.5 198t34 240t38.5 273.5z " />
<glyph unicode="&#xef;" horiz-adv-x="655" d="M81 1507q1 34 13.5 65t33.5 54t50 36.5t64 13.5q32 0 57.5 -11.5t43 -31t27 -44t8.5 -51.5q-1 -35 -13 -67t-33.5 -56t-52 -38t-69.5 -14q-27 0 -51 12t-41.5 32t-27.5 46t-9 54zM99 1031l18 81l374 51l52 -24l-134 -932q-11 -76 29 -76q17 0 39 12t60 45l30 -63 q-8 -11 -30.5 -35t-57 -48.5t-81 -43t-101.5 -18.5q-84 0 -126.5 36t-34.5 105q7 60 19 147.5t27.5 198t34 240t38.5 273.5zM517 1507q1 34 13.5 65t33.5 54t50 36.5t64 13.5q32 0 57.5 -11.5t43 -31t27 -44t8.5 -51.5q-1 -35 -13 -67t-33.5 -56t-52 -38t-69.5 -14 q-27 0 -51 12t-41.5 32t-27.5 46t-9 54z" />
<glyph unicode="&#xf0;" horiz-adv-x="1167" d="M65 443q0 156 45 279.5t121.5 210t177.5 132t214 45.5q69 0 122.5 -15.5t87.5 -56.5q-8 49 -19.5 95.5t-30 90.5t-45.5 87.5t-66 86.5l-140 -160l-111 93l149 162q-54 45 -112 81t-109 51l49 139q29 -8 65 -22t74 -32.5t77.5 -41t75.5 -47.5q24 28 50.5 59t48.5 58 q26 31 50 62l108 -96l-148 -168q81 -74 139 -158.5t95 -176.5t54 -190t17 -199q0 -176 -41 -327.5t-119.5 -264t-194 -176.5t-263.5 -64q-107 0 -186.5 41.5t-131.5 108t-77.5 149t-25.5 164.5zM339 406q0 -62 10.5 -118t32 -98t54.5 -67t79 -25q57 0 105.5 35.5t86.5 97 t64.5 144t38.5 176.5q2 12 5 35.5t6 49.5t5 51t3 41q1 17 -2.5 42.5t-12 54.5t-23.5 57.5t-38 51.5t-54.5 37.5t-73.5 14.5q-50 0 -91 -25.5t-73 -69.5t-55 -102t-38 -122.5t-22 -131.5t-7 -129z" />
<glyph unicode="&#xf1;" horiz-adv-x="1283" d="M109 0l130 963l-102 59l17 89l308 52l50 -24l-18 -208q37 50 81 92.5t94 73.5t104.5 48.5t111.5 17.5q55 0 100 -15.5t77.5 -51t50.5 -93.5t18 -142q0 -30 -5 -73.5t-12.5 -92.5t-16.5 -98.5t-16 -91.5q-7 -38 -14 -78.5t-13.5 -80.5t-11 -78.5t-5.5 -71.5 q-1 -36 7.5 -50.5t22.5 -14.5q15 0 34.5 9t54.5 37l29 -63q-7 -10 -28.5 -32.5t-55 -45t-79 -40t-99.5 -17.5q-49 0 -81 11.5t-50.5 32t-25.5 48t-6 60.5q1 28 5.5 64.5t11 77.5t14.5 84.5t16 85.5q7 42 16.5 92t17 102t12.5 104t5 97q0 48 -6.5 76.5t-19 44.5t-30.5 21 t-41 5q-33 0 -71.5 -18.5t-77 -51t-75.5 -76.5t-67 -94l-102 -745h-259zM371 1496q16 32 43 62.5t60.5 54t72 38t76.5 14.5q36 0 63.5 -10.5t49 -27t40 -35t36 -35t36.5 -27t43 -10.5q28 0 50 9.5t40 25t33.5 34t29.5 36.5l73 -111q-13 -35 -38.5 -68t-59 -58t-73 -40 t-80.5 -15q-43 0 -72.5 10.5t-51.5 26.5t-39 34.5t-35 35t-38.5 27t-49.5 11.5q-20 0 -40 -7.5t-39 -20t-36.5 -28t-31.5 -30.5z" />
<glyph unicode="&#xf2;" horiz-adv-x="1170" d="M74 439q-3 142 38.5 272.5t120 231t189.5 160.5t248 60q101 0 178.5 -31t130.5 -90t81 -144.5t31 -194.5q2 -94 -15.5 -184.5t-53.5 -171t-89 -148t-120 -116t-147.5 -76t-171.5 -27.5q-101 0 -178 31t-130 89.5t-81 144t-31 194.5zM262 1571l178 172l288 -432l-80 -65 q-21 9 -53 28.5t-69.5 46.5t-77.5 59t-76 65t-65 65.5t-45 60.5zM356 438q4 -168 45.5 -250.5t132.5 -82.5q51 0 91.5 26.5t71.5 71.5t52.5 105t35 126.5t18.5 136t4 134.5q-3 167 -45 247.5t-127 80.5q-51 0 -92 -26.5t-72.5 -71t-54 -104t-36.5 -126t-20 -135t-4 -132.5z " />
<glyph unicode="&#xf3;" horiz-adv-x="1170" d="M74 439q-3 142 38.5 272.5t120 231t189.5 160.5t248 60q101 0 178.5 -31t130.5 -90t81 -144.5t31 -194.5q2 -94 -15.5 -184.5t-53.5 -171t-89 -148t-120 -116t-147.5 -76t-171.5 -27.5q-101 0 -178 31t-130 89.5t-81 144t-31 194.5zM356 438q4 -168 45.5 -250.5 t132.5 -82.5q51 0 91.5 26.5t71.5 71.5t52.5 105t35 126.5t18.5 136t4 134.5q-3 167 -45 247.5t-127 80.5q-51 0 -92 -26.5t-72.5 -71t-54 -104t-36.5 -126t-20 -135t-4 -132.5zM565 1312l317 431l167 -177q-9 -17 -34.5 -44.5t-60.5 -60t-77 -66.5t-84 -64.5t-81 -54.5 t-69 -35z" />
<glyph unicode="&#xf4;" horiz-adv-x="1170" d="M74 439q-3 142 38.5 272.5t120 231t189.5 160.5t248 60q101 0 178.5 -31t130.5 -90t81 -144.5t31 -194.5q2 -94 -15.5 -184.5t-53.5 -171t-89 -148t-120 -116t-147.5 -76t-171.5 -27.5q-101 0 -178 31t-130 89.5t-81 144t-31 194.5zM310 1286l347 374h178l200 -374 l-99 -58l-216 234l-328 -233zM356 438q4 -168 45.5 -250.5t132.5 -82.5q51 0 91.5 26.5t71.5 71.5t52.5 105t35 126.5t18.5 136t4 134.5q-3 167 -45 247.5t-127 80.5q-51 0 -92 -26.5t-72.5 -71t-54 -104t-36.5 -126t-20 -135t-4 -132.5z" />
<glyph unicode="&#xf5;" horiz-adv-x="1170" d="M74 439q-3 142 38.5 272.5t120 231t189.5 160.5t248 60q101 0 178.5 -31t130.5 -90t81 -144.5t31 -194.5q2 -94 -15.5 -184.5t-53.5 -171t-89 -148t-120 -116t-147.5 -76t-171.5 -27.5q-101 0 -178 31t-130 89.5t-81 144t-31 194.5zM316 1496q16 32 43 62.5t60.5 54 t72 38t76.5 14.5q36 0 63.5 -10.5t49 -27t40 -35t36 -35t36.5 -27t43 -10.5q28 0 50 9.5t40 25t33.5 34t29.5 36.5l73 -111q-13 -35 -38.5 -68t-59 -58t-73 -40t-80.5 -15q-43 0 -72.5 10.5t-51.5 26.5t-39 34.5t-35 35t-38.5 27t-49.5 11.5q-20 0 -40 -7.5t-39 -20 t-36.5 -28t-31.5 -30.5zM356 438q4 -168 45.5 -250.5t132.5 -82.5q51 0 91.5 26.5t71.5 71.5t52.5 105t35 126.5t18.5 136t4 134.5q-3 167 -45 247.5t-127 80.5q-51 0 -92 -26.5t-72.5 -71t-54 -104t-36.5 -126t-20 -135t-4 -132.5z" />
<glyph unicode="&#xf6;" horiz-adv-x="1170" d="M74 439q-3 142 38.5 272.5t120 231t189.5 160.5t248 60q101 0 178.5 -31t130.5 -90t81 -144.5t31 -194.5q2 -94 -15.5 -184.5t-53.5 -171t-89 -148t-120 -116t-147.5 -76t-171.5 -27.5q-101 0 -178 31t-130 89.5t-81 144t-31 194.5zM333 1507q1 34 13.5 65t33.5 54 t50 36.5t64 13.5q32 0 57.5 -11.5t43 -31t27 -44t8.5 -51.5q-1 -35 -13 -67t-33.5 -56t-52 -38t-69.5 -14q-27 0 -51 12t-41.5 32t-27.5 46t-9 54zM356 438q4 -168 45.5 -250.5t132.5 -82.5q51 0 91.5 26.5t71.5 71.5t52.5 105t35 126.5t18.5 136t4 134.5q-3 167 -45 247.5 t-127 80.5q-51 0 -92 -26.5t-72.5 -71t-54 -104t-36.5 -126t-20 -135t-4 -132.5zM769 1507q1 34 13.5 65t33.5 54t50 36.5t64 13.5q32 0 57.5 -11.5t43 -31t27 -44t8.5 -51.5q-1 -35 -13 -67t-33.5 -56t-52 -38t-69.5 -14q-27 0 -51 12t-41.5 32t-27.5 46t-9 54z" />
<glyph unicode="&#xf7;" horiz-adv-x="1370" d="M259 685l18 177h904l-18 -177h-904zM512 344q2 39 19 71t43 54.5t57.5 35t63.5 12.5q36 0 62 -12t42.5 -31.5t23.5 -45.5t6 -54q-2 -42 -19.5 -74t-44 -54t-59 -33.5t-65.5 -11.5q-27 0 -51.5 10.5t-42.5 29t-27.5 45t-7.5 58.5zM616 1174q2 39 19 71t43 54.5t58 35 t63 12.5q36 0 62 -12t43 -31.5t24 -45.5t6 -54q-2 -42 -19.5 -74t-44 -54t-59.5 -33.5t-65 -11.5q-27 0 -51.5 10.5t-42.5 29t-28 45t-8 58.5z" />
<glyph unicode="&#xf8;" horiz-adv-x="1170" d="M61 -83l128 182q-109 120 -115 342q-3 142 38.5 272.5t120 231t189.5 160.5t248 60q61 0 113 -11.5t96 -33.5l129 183l89 -49l-135 -193q123 -120 129 -356q2 -94 -15.5 -184.5t-53.5 -171t-89 -148t-120 -116t-147.5 -76t-171.5 -27.5q-135 0 -226 54l-118 -168z M356 440q1 -56 6 -102l394 624q-42 73 -121 73q-51 0 -92 -26.5t-72.5 -71t-54 -104t-36.5 -126t-20 -135t-4 -132.5zM395 203q43 -96 139 -96q51 0 91.5 26.5t71.5 71.5t52.5 105t35 126.5t18.5 136t4 134.5q-1 37 -3 69t-7 61z" />
<glyph unicode="&#xf9;" horiz-adv-x="1242" d="M115 1032l17 89l323 42l50 -24l-69 -550q-11 -90 -22.5 -167.5t-11.5 -137.5q0 -44 8 -73t23 -46.5t37 -24.5t51 -7q32 0 63.5 9.5t60.5 25t55 36t47 43.5l122 908h259l-126 -947q-10 -76 31 -76q8 0 16.5 2.5t20 9t26.5 17.5t36 28l29 -63q-7 -12 -29.5 -36t-57 -48 t-79.5 -42.5t-97 -18.5q-87 0 -122.5 42.5t-24.5 111.5q-26 -29 -59.5 -56.5t-75.5 -49.5t-93 -35.5t-113 -13.5q-51 0 -100 13t-87.5 44t-62 82t-23.5 126q0 34 3.5 76.5t9 88.5t12.5 94t13 93l53 365zM278 1571l178 172l288 -432l-80 -65q-21 9 -53 28.5t-69.5 46.5 t-77.5 59t-76 65t-65 65.5t-45 60.5z" />
<glyph unicode="&#xfa;" horiz-adv-x="1242" d="M115 1032l17 89l323 42l50 -24l-69 -550q-11 -90 -22.5 -167.5t-11.5 -137.5q0 -44 8 -73t23 -46.5t37 -24.5t51 -7q32 0 63.5 9.5t60.5 25t55 36t47 43.5l122 908h259l-126 -947q-10 -76 31 -76q8 0 16.5 2.5t20 9t26.5 17.5t36 28l29 -63q-7 -12 -29.5 -36t-57 -48 t-79.5 -42.5t-97 -18.5q-87 0 -122.5 42.5t-24.5 111.5q-26 -29 -59.5 -56.5t-75.5 -49.5t-93 -35.5t-113 -13.5q-51 0 -100 13t-87.5 44t-62 82t-23.5 126q0 34 3.5 76.5t9 88.5t12.5 94t13 93l53 365zM581 1312l317 431l167 -177q-9 -17 -34.5 -44.5t-60.5 -60t-77 -66.5 t-84 -64.5t-81 -54.5t-69 -35z" />
<glyph unicode="&#xfb;" horiz-adv-x="1242" d="M115 1032l17 89l323 42l50 -24l-69 -550q-11 -90 -22.5 -167.5t-11.5 -137.5q0 -44 8 -73t23 -46.5t37 -24.5t51 -7q32 0 63.5 9.5t60.5 25t55 36t47 43.5l122 908h259l-126 -947q-10 -76 31 -76q8 0 16.5 2.5t20 9t26.5 17.5t36 28l29 -63q-7 -12 -29.5 -36t-57 -48 t-79.5 -42.5t-97 -18.5q-87 0 -122.5 42.5t-24.5 111.5q-26 -29 -59.5 -56.5t-75.5 -49.5t-93 -35.5t-113 -13.5q-51 0 -100 13t-87.5 44t-62 82t-23.5 126q0 34 3.5 76.5t9 88.5t12.5 94t13 93l53 365zM326 1286l347 374h178l200 -374l-99 -58l-216 234l-328 -233z" />
<glyph unicode="&#xfc;" horiz-adv-x="1242" d="M115 1032l17 89l323 42l50 -24l-69 -550q-11 -90 -22.5 -167.5t-11.5 -137.5q0 -44 8 -73t23 -46.5t37 -24.5t51 -7q32 0 63.5 9.5t60.5 25t55 36t47 43.5l122 908h259l-126 -947q-10 -76 31 -76q8 0 16.5 2.5t20 9t26.5 17.5t36 28l29 -63q-7 -12 -29.5 -36t-57 -48 t-79.5 -42.5t-97 -18.5q-87 0 -122.5 42.5t-24.5 111.5q-26 -29 -59.5 -56.5t-75.5 -49.5t-93 -35.5t-113 -13.5q-51 0 -100 13t-87.5 44t-62 82t-23.5 126q0 34 3.5 76.5t9 88.5t12.5 94t13 93l53 365zM349 1507q1 34 13.5 65t33.5 54t50 36.5t64 13.5q32 0 57.5 -11.5 t43 -31t27 -44t8.5 -51.5q-1 -35 -13 -67t-33.5 -56t-52 -38t-69.5 -14q-27 0 -51 12t-41.5 32t-27.5 46t-9 54zM785 1507q1 34 13.5 65t33.5 54t50 36.5t64 13.5q32 0 57.5 -11.5t43 -31t27 -44t8.5 -51.5q-1 -35 -13 -67t-33.5 -56t-52 -38t-69.5 -14q-27 0 -51 12 t-41.5 32t-27.5 46t-9 54z" />
<glyph unicode="&#xfd;" horiz-adv-x="1078" d="M-123 -476l49 187q9 -6 29.5 -17t50 -22t65.5 -19t76 -8q39 0 79.5 14.5t81 49t81 90.5t80.5 139h-128l-190 1007q-8 31 -16.5 43.5t-24.5 12.5q-12 0 -30.5 -6t-48.5 -32l-29 70q7 10 28.5 31.5t54 43.5t74 38.5t86.5 16.5q42 0 71.5 -9.5t48.5 -27.5t29.5 -43.5 t16.5 -56.5q6 -33 15 -92.5t19.5 -133l22 -154t21.5 -154t18.5 -133t13.5 -92.5l19 -216l110 220q34 75 61.5 142t48 132t33.5 132t19 141q1 39 -3.5 66.5t-11.5 51.5t-12.5 48t-5.5 56q0 57 34 90t94 33q42 0 70.5 -14.5t46.5 -41t25.5 -64t7.5 -83.5q0 -77 -22 -161.5 t-55.5 -169t-73.5 -166.5t-77 -153q-73 -145 -126 -246t-93.5 -172t-72 -119t-60.5 -86q-25 -36 -60 -71.5t-81.5 -64t-105.5 -46t-132 -17.5q-30 0 -63.5 4t-63.5 9.5t-55 11.5t-39 11zM497 1312l317 431l167 -177q-9 -17 -34.5 -44.5t-60.5 -60t-77 -66.5t-84 -64.5 t-81 -54.5t-69 -35z" />
<glyph unicode="&#xfe;" horiz-adv-x="1178" d="M10 -520l71 500l193 1503l-99 43l25 85l296 39l53 -27l-78 -590q24 25 55 48.5t67.5 41.5t78.5 29t90 11q87 0 151 -30.5t106.5 -87t63.5 -136.5t21 -179q0 -91 -20 -181.5t-59 -174t-96 -155.5t-130 -125t-162.5 -83.5t-192.5 -30.5q-27 0 -56 3.5t-57 8.5l-15 -133 l-54 -379h-252zM351 132q26 -12 56 -17t66 -5q63 0 114.5 26.5t91 71.5t68.5 105.5t47.5 128.5t27.5 140t9 141q0 62 -10 114t-29.5 89t-49 57.5t-67.5 20.5q-35 0 -67.5 -12t-61.5 -31.5t-54 -44.5t-44 -51z" />
<glyph unicode="&#xff;" horiz-adv-x="1078" d="M-123 -476l49 187q9 -6 29.5 -17t50 -22t65.5 -19t76 -8q39 0 79.5 14.5t81 49t81 90.5t80.5 139h-128l-190 1007q-8 31 -16.5 43.5t-24.5 12.5q-12 0 -30.5 -6t-48.5 -32l-29 70q7 10 28.5 31.5t54 43.5t74 38.5t86.5 16.5q42 0 71.5 -9.5t48.5 -27.5t29.5 -43.5 t16.5 -56.5q6 -33 15 -92.5t19.5 -133l22 -154t21.5 -154t18.5 -133t13.5 -92.5l19 -216l110 220q34 75 61.5 142t48 132t33.5 132t19 141q1 39 -3.5 66.5t-11.5 51.5t-12.5 48t-5.5 56q0 57 34 90t94 33q42 0 70.5 -14.5t46.5 -41t25.5 -64t7.5 -83.5q0 -77 -22 -161.5 t-55.5 -169t-73.5 -166.5t-77 -153q-73 -145 -126 -246t-93.5 -172t-72 -119t-60.5 -86q-25 -36 -60 -71.5t-81.5 -64t-105.5 -46t-132 -17.5q-30 0 -63.5 4t-63.5 9.5t-55 11.5t-39 11zM265 1507q1 34 13.5 65t33.5 54t50 36.5t64 13.5q32 0 57.5 -11.5t43 -31t27 -44 t8.5 -51.5q-1 -35 -13 -67t-33.5 -56t-52 -38t-69.5 -14q-27 0 -51 12t-41.5 32t-27.5 46t-9 54zM701 1507q1 34 13.5 65t33.5 54t50 36.5t64 13.5q32 0 57.5 -11.5t43 -31t27 -44t8.5 -51.5q-1 -35 -13 -67t-33.5 -56t-52 -38t-69.5 -14q-27 0 -51 12t-41.5 32t-27.5 46 t-9 54z" />
<glyph unicode="&#x152;" horiz-adv-x="2278" d="M79 629q-1 124 21 241t66 219t109 186.5t149 145.5t186 94.5t220 33.5q84 0 151.5 -20t120 -57t90.5 -88t64 -114l33 260h872l-21 -340h-159l-41 206l-395 20l-70 -548l441 15l-18 -187l-439 21l-80 -591l518 30l118 252l158 -23l-79 -385h-996l26 212 q-84 -107 -206.5 -169.5t-285.5 -62.5q-136 0 -239 47t-172.5 132.5t-105 205t-36.5 264.5zM366 680q1 -119 15 -224t47 -184t89.5 -125t142.5 -46q100 0 180.5 59t136 163.5t84.5 245.5t28 304q-2 271 -72.5 411t-216.5 140q-65 0 -123 -28t-106.5 -77.5t-86.5 -119 t-64.5 -152t-40.5 -176t-13 -191.5z" />
<glyph unicode="&#x153;" horiz-adv-x="1761" d="M74 439q-4 142 37 272.5t120 231t191 160.5t251 60q120 0 203.5 -43.5t132.5 -125.5q80 79 180.5 124t215.5 45q79 0 136 -19t94.5 -53t56 -79.5t19.5 -98.5q1 -80 -30.5 -144.5t-84.5 -114.5t-121 -86.5t-140 -60t-141.5 -36t-124.5 -13.5q-3 -63 7.5 -120.5t34.5 -102 t63.5 -70.5t95.5 -26q98 0 177 42.5t142 108.5l55 -93q-21 -31 -60.5 -69t-95.5 -71t-127.5 -55t-156.5 -22q-120 0 -201.5 41.5t-132.5 110.5q-75 -71 -170.5 -111.5t-207.5 -40.5q-101 0 -177.5 31t-129 89.5t-80.5 144t-31 194.5zM356 436q4 -159 45 -245t131 -86 q51 0 92 26.5t72.5 72t53.5 106.5t35 131q2 45 6.5 86.5t13.5 83.5q3 77 -1 152.5t-22 135.5t-53 97t-95 37q-51 0 -92 -26.5t-72 -71.5t-53.5 -105t-36.5 -126t-20 -135t-4 -133zM1072 573q35 2 76.5 12t83.5 29t81.5 45.5t69.5 61.5t48 77.5t17 92.5q-1 74 -28.5 109.5 t-75.5 35.5q-45 0 -81.5 -22t-65.5 -58.5t-50.5 -84.5t-37 -99.5t-24.5 -103t-13 -95.5z" />
<glyph unicode="&#x178;" horiz-adv-x="1227" d="M30 1425l11 105h586l-14 -105l-171 -25l200 -527l45 -124l62 111l317 540l-146 25l10 105h473l-13 -105l-113 -24l-521 -803l-61 -472l229 -29l-9 -97h-713l10 97l213 29l60 472l-348 802zM423 1812q1 35 13.5 64.5t33.5 50.5t49 33t59 12q32 0 57 -10t42 -27.5t25.5 -41 t7.5 -50.5q-1 -35 -12.5 -65t-33 -52t-51 -34.5t-66.5 -12.5q-27 0 -50 10.5t-40 28.5t-26 42t-8 52zM857 1812q0 35 13 64.5t34.5 50.5t50 33t59.5 12q32 0 57 -10t42 -27.5t25.5 -41t7.5 -50.5q-1 -35 -13 -65t-33 -52t-51 -34.5t-67 -12.5q-27 0 -50 10t-39.5 28 t-26 42.5t-9.5 52.5z" />
<glyph unicode="&#x2c6;" horiz-adv-x="795" d="M50 1286l347 374h178l200 -374l-99 -58l-216 234l-328 -233z" />
<glyph unicode="&#x2dc;" horiz-adv-x="816" d="M35 1496q16 32 43 62.5t60.5 54t72 38t76.5 14.5q36 0 63.5 -10.5t49 -27t40 -35t36 -35t36.5 -27t43 -10.5q28 0 50 9.5t40 25t33.5 34t29.5 36.5l73 -111q-13 -35 -38.5 -68t-59 -58t-73 -40t-80.5 -15q-43 0 -72.5 10.5t-51.5 26.5t-39 34.5t-35 35t-38.5 27 t-49.5 11.5q-20 0 -40 -7.5t-39 -20t-36.5 -28t-31.5 -30.5z" />
<glyph unicode="&#x2000;" horiz-adv-x="1003" />
<glyph unicode="&#x2001;" horiz-adv-x="2007" />
<glyph unicode="&#x2002;" horiz-adv-x="1003" />
<glyph unicode="&#x2003;" horiz-adv-x="2007" />
<glyph unicode="&#x2004;" horiz-adv-x="669" />
<glyph unicode="&#x2005;" horiz-adv-x="501" />
<glyph unicode="&#x2006;" horiz-adv-x="334" />
<glyph unicode="&#x2007;" horiz-adv-x="334" />
<glyph unicode="&#x2008;" horiz-adv-x="250" />
<glyph unicode="&#x2009;" horiz-adv-x="401" />
<glyph unicode="&#x200a;" horiz-adv-x="111" />
<glyph unicode="&#x2010;" horiz-adv-x="1276" d="M240 683l18 178h847l-18 -178h-847z" />
<glyph unicode="&#x2011;" horiz-adv-x="1276" d="M240 683l18 178h847l-18 -178h-847z" />
<glyph unicode="&#x2012;" horiz-adv-x="1276" d="M240 683l18 178h847l-18 -178h-847z" />
<glyph unicode="&#x2013;" horiz-adv-x="1543" d="M240 684l35 177h1097l-35 -177h-1097z" />
<glyph unicode="&#x2014;" horiz-adv-x="2034" d="M240 684l32 177h1591l-33 -177h-1590z" />
<glyph unicode="&#x2018;" horiz-adv-x="692" d="M200 1220q0 102 36.5 184.5t94 146.5t127.5 109.5t138 73.5l53 -88l-2 -22q-39 -13 -76.5 -45.5t-66 -77t-46 -97t-17.5 -104.5q0 -32 7.5 -60.5t21.5 -50t33 -35t43 -16.5l-5 -41l-156 -170q-50 13 -85.5 43t-57.5 69.5t-32 86.5t-10 94z" />
<glyph unicode="&#x2019;" horiz-adv-x="692" d="M209 1011l2 22q39 13 76.5 45.5t66 77t46 97t17.5 104.5q0 32 -7.5 60.5t-21.5 50t-33 35t-43 16.5l5 41l156 170q50 -13 85.5 -43t57.5 -69.5t32 -86.5t10 -94q0 -102 -36.5 -184.5t-94 -146.5t-127.5 -109.5t-138 -73.5z" />
<glyph unicode="&#x201a;" horiz-adv-x="682" d="M39 -428l2 22q39 13 76.5 45.5t66 77t46 97t17.5 104.5q0 32 -7.5 60.5t-21.5 50t-33 35t-43 16.5l5 41l156 170q50 -13 85.5 -43t57.5 -69.5t32 -86.5t10 -94q0 -102 -36.5 -184.5t-94 -146.5t-127.5 -109.5t-138 -73.5z" />
<glyph unicode="&#x201c;" horiz-adv-x="1171" d="M201 1220q0 102 36.5 184.5t94 146.5t127.5 109.5t138 73.5l53 -88l-2 -22q-39 -13 -76.5 -45.5t-66 -77t-46 -97t-17.5 -104.5q0 -32 7.5 -60.5t21.5 -50t33 -35t43 -16.5l-5 -41l-156 -170q-50 13 -85.5 43t-57.5 69.5t-32 86.5t-10 94zM690 1220q0 102 36.5 184.5 t94 146.5t127.5 109.5t138 73.5l53 -88l-2 -22q-39 -13 -76.5 -45.5t-66 -77t-46 -97t-17.5 -104.5q0 -32 7.5 -60.5t21.5 -50t33 -35t43 -16.5l-5 -41l-156 -170q-50 13 -85.5 43t-57.5 69.5t-32 86.5t-10 94z" />
<glyph unicode="&#x201d;" horiz-adv-x="1171" d="M218 1011l2 22q39 13 76.5 45.5t66 77t46 97t17.5 104.5q0 32 -7.5 60.5t-21.5 50t-33 35t-43 16.5l5 41l156 170q50 -13 85.5 -43t57.5 -69.5t32 -86.5t10 -94q0 -102 -36.5 -184.5t-94 -146.5t-127.5 -109.5t-138 -73.5zM707 1011l2 22q39 13 76.5 45.5t66 77t46 97 t17.5 104.5q0 32 -7.5 60.5t-21.5 50t-33 35t-43 16.5l5 41l156 170q50 -13 85.5 -43t57.5 -69.5t32 -86.5t10 -94q0 -102 -36.5 -184.5t-94 -146.5t-127.5 -109.5t-138 -73.5z" />
<glyph unicode="&#x201e;" horiz-adv-x="1171" d="M30 -428l2 22q39 13 76.5 45.5t66 77t46 97t17.5 104.5q0 32 -7.5 60.5t-21.5 50t-33 35t-43 16.5l5 41l156 170q50 -13 85.5 -43t57.5 -69.5t32 -86.5t10 -94q0 -102 -36.5 -184.5t-94 -146.5t-127.5 -109.5t-138 -73.5zM509 -428l2 22q39 13 76.5 45.5t66 77t46 97 t17.5 104.5q0 32 -7.5 60.5t-21.5 50t-33 35t-43 16.5l5 41l156 170q50 -13 85.5 -43t57.5 -69.5t32 -86.5t10 -94q0 -102 -36.5 -184.5t-94 -146.5t-127.5 -109.5t-138 -73.5z" />
<glyph unicode="&#x2022;" horiz-adv-x="858" d="M198 683q0 51 20.5 101.5t57 91t87.5 65.5t112 25q42 0 79 -15.5t64.5 -42t43.5 -62.5t16 -78q0 -51 -19 -102t-54.5 -92t-87 -67t-116.5 -26q-42 0 -79 16t-64.5 44t-43.5 64.5t-16 77.5z" />
<glyph unicode="&#x2026;" horiz-adv-x="1578" d="M62 122q2 39 17.5 71t40 55t55 35.5t61.5 12.5q36 0 62.5 -12t43 -31.5t23.5 -45.5t5 -54q-2 -42 -19 -74.5t-43 -54.5t-58 -33.5t-65 -11.5q-27 0 -50.5 10.5t-40 29t-25.5 45t-7 58.5zM588 122q2 39 17.5 71t40 55t55 35.5t61.5 12.5q36 0 62.5 -12t43 -31.5 t23.5 -45.5t5 -54q-2 -42 -19 -74.5t-43 -54.5t-58 -33.5t-65 -11.5q-27 0 -50.5 10.5t-40 29t-25.5 45t-7 58.5zM1114 122q2 39 17.5 71t40 55t55 35.5t61.5 12.5q36 0 62.5 -12t43 -31.5t23.5 -45.5t5 -54q-2 -42 -19 -74.5t-43 -54.5t-58 -33.5t-65 -11.5 q-27 0 -50.5 10.5t-40 29t-25.5 45t-7 58.5z" />
<glyph unicode="&#x202f;" horiz-adv-x="401" />
<glyph unicode="&#x2039;" horiz-adv-x="1190" d="M227 530l22 160l712 401l48 -145l-485 -336l394 -331l-85 -132z" />
<glyph unicode="&#x203a;" horiz-adv-x="1190" d="M112 292l485 336l-394 331l85 132l606 -383l-22 -160l-712 -401z" />
<glyph unicode="&#x205f;" horiz-adv-x="501" />
<glyph unicode="&#x20ac;" horiz-adv-x="1388" d="M32 554l16 141h181q2 54 8 105t15 99h-153l19 140h172q43 124 113 219t157.5 159t189.5 96.5t210 32.5q58 0 104.5 -5t84 -13t68 -17.5t57.5 -18.5q9 -3 21.5 -5.5t25 -5.5t23.5 -5.5t17 -3.5l-59 -285h-121l-23 154q-17 16 -39 30t-51.5 24.5t-68 16t-88.5 5.5 q-65 0 -120.5 -26t-101 -75t-80.5 -119t-59 -158h500l-19 -140h-511q-8 -48 -12.5 -99t-6.5 -105h478l-13 -141h-465q8 -205 74.5 -317.5t191.5 -112.5q88 0 152 23t98 68l70 162l130 -1l-48 -306q-29 -2 -67.5 -9t-75.5 -17q-29 -9 -61.5 -19.5t-70 -19.5t-81 -15t-95.5 -6 q-121 0 -208.5 45.5t-146.5 123.5t-90.5 181.5t-40.5 219.5h-200z" />
<glyph unicode="&#x2122;" horiz-adv-x="2167" d="M128 1275l52 255h699l-32 -253l-73 -5l-8 141l-164 14l-84 -594l130 -16l-11 -83h-430l11 83l126 15l83 593l-165 -13l-59 -136zM851 734l11 83l107 15l112 592l-99 9l12 97h351l97 -446l30 -132l256 578h339l-12 -97l-97 -9l-21 -591l96 -16l-11 -83h-360l11 83l96 16 l20 371l19 223l-31 -70l-298 -631h-120l-138 554l-35 150l-26 -157l-80 -441l93 -15l-11 -83h-311z" />
<glyph unicode="&#x25fc;" horiz-adv-x="1165" d="M0 0v1165h1165v-1165h-1165z" />
</font>
</defs>
</svg>
