<?xml version="1.0" standalone="no"?>
<!DOCTYPE svg PUBLIC "-//W3C//DTD SVG 1.1//EN" "http://www.w3.org/Graphics/SVG/1.1/DTD/svg11.dtd" >
<svg xmlns="http://www.w3.org/2000/svg" xmlns:xlink="http://www.w3.org/1999/xlink" version="1.1">
<metadata></metadata>
<defs>
<font id="merriweatherheavy_italic" horiz-adv-x="0" >
<font-face units-per-em="2048" ascent="1638" descent="-410" />
<missing-glyph horiz-adv-x="485" />
<glyph unicode="&#xfb01;" horiz-adv-x="1378" d="M-253 -489l58 184q5 -2 23 -10t42 -17q57 -22 98 -22t73 45t46 147l138 1146h-125l21 103l136 63l17 104q54 295 288 386q79 30 150 30q144 0 207 -26l-62 -178q-62 48 -117.5 48t-78 -11t-35.5 -35q-17 -31 -37 -163l-20 -150h230l-21 -171h-233l-116 -975 q-49 -359 -287 -479q-87 -43 -205 -43q-94 0 -190 24zM766 1031l18 81l446 51l55 -24l-128 -912q-2 -15 -2 -27q0 -49 37 -49q30 0 92 46l28 -73q-118 -144 -296 -144q-107 0 -154 38t-47 90q0 10 5.5 45.5t16.5 121.5l93 705zM985 1507.5q0 35.5 14.5 72.5t39.5 64 q54 57 144 57q75 0 125 -51q45 -44 45 -96.5t-13 -90.5t-38 -65.5t-63.5 -43.5t-81.5 -16t-73 14q-60 29 -87 92q-12 28 -12 63.5z" />
<glyph unicode="&#xfb02;" horiz-adv-x="1344" d="M-253 -489l58 184q5 -2 23 -10t42 -17q57 -22 98 -22t73 45t46 147l138 1146h-125l21 103l136 63l17 104q54 295 288 386q79 30 150 30q144 0 207 -26l-62 -178q-62 48 -117.5 48t-78 -11t-35.5 -35q-17 -31 -37 -163l-20 -150h230l-21 -171h-233l-116 -975 q-49 -359 -287 -479q-87 -43 -205 -43q-94 0 -190 24zM792 115q0 29 8 77l171 1290l-132 43l20 83l406 42l51 -27l-184 -1396q-11 -76 38 -76q28 0 89 46l28 -73q-61 -84 -170 -126q-49 -18 -100 -18t-89 7.5t-68 23.5q-66 35 -68 104z" />
<glyph unicode="&#xfb03;" horiz-adv-x="2087" d="M-253 -489l58 184q5 -2 23 -10t42 -17q57 -22 98 -22t73 45t46 147l138 1146h-125l21 103l136 63l17 104q54 295 288 386q79 30 150 30q144 0 207 -26l-62 -178q-62 48 -117.5 48t-78 -11t-35.5 -35q-17 -31 -37 -163l-20 -150h230l-21 -171h-233l-116 -975 q-49 -359 -287 -479q-87 -43 -205 -43q-94 0 -190 24zM456 -489l58 184q5 -2 23 -10t42 -17q57 -22 98 -22t73 45t46 147l138 1146h-125l21 103l136 63l17 104q54 295 288 386q79 30 150 30q144 0 207 -26l-62 -178q-62 48 -117.5 48t-78 -11t-35.5 -35q-17 -31 -37 -163 l-20 -150h230l-21 -171h-233l-116 -975q-49 -359 -287 -479q-87 -43 -205 -43q-94 0 -190 24zM1475 1031l18 81l446 51l55 -24l-128 -912q-2 -15 -2 -27q0 -49 37 -49q30 0 92 46l28 -73q-118 -144 -296 -144q-107 0 -154 38t-47 90q0 10 5.5 45.5t16.5 121.5l93 705z M1694 1507.5q0 35.5 14.5 72.5t39.5 64q54 57 144 57q75 0 125 -51q45 -44 45 -96.5t-13 -90.5t-38 -65.5t-63.5 -43.5t-81.5 -16t-73 14q-60 29 -87 92q-12 28 -12 63.5z" />
<glyph unicode="&#xfb04;" horiz-adv-x="2053" d="M-253 -489l58 184q5 -2 23 -10t42 -17q57 -22 98 -22t73 45t46 147l138 1146h-125l21 103l136 63l17 104q54 295 288 386q79 30 150 30q144 0 207 -26l-62 -178q-62 48 -117.5 48t-78 -11t-35.5 -35q-17 -31 -37 -163l-20 -150h230l-21 -171h-233l-116 -975 q-49 -359 -287 -479q-87 -43 -205 -43q-94 0 -190 24zM456 -489l58 184q5 -2 23 -10t42 -17q57 -22 98 -22t73 45t46 147l138 1146h-125l21 103l136 63l17 104q54 295 288 386q79 30 150 30q144 0 207 -26l-62 -178q-62 48 -117.5 48t-78 -11t-35.5 -35q-17 -31 -37 -163 l-20 -150h230l-21 -171h-233l-116 -975q-49 -359 -287 -479q-87 -43 -205 -43q-94 0 -190 24zM1501 115q0 29 8 77l171 1290l-132 43l20 83l406 42l51 -27l-184 -1396q-11 -76 38 -76q28 0 89 46l28 -73q-61 -84 -170 -126q-49 -18 -100 -18t-89 7.5t-68 23.5 q-66 35 -68 104z" />
<glyph />
<glyph horiz-adv-x="682" />
<glyph />
<glyph />
<glyph />
<glyph />
<glyph />
<glyph />
<glyph />
<glyph />
<glyph unicode="&#x9;" />
<glyph unicode="&#xa;" />
<glyph />
<glyph />
<glyph />
<glyph />
<glyph />
<glyph />
<glyph />
<glyph />
<glyph />
<glyph />
<glyph />
<glyph />
<glyph unicode=" "  horiz-adv-x="485" />
<glyph unicode="&#x09;" horiz-adv-x="485" />
<glyph unicode="&#xa0;" horiz-adv-x="485" />
<glyph unicode="!" horiz-adv-x="716" d="M116 147q0 41 17 78t45 63q56 53 129 53q71 0 111 -49q37 -45 37 -104t-18 -96.5t-47 -62.5q-57 -49 -137 -49q-89 0 -126 97q-11 29 -11 70zM241 528l126 1250h335l-258 -1250h-203z" />
<glyph unicode="&#x22;" horiz-adv-x="1110" d="M195 966l81 721h287l-168 -721h-200zM714 966l81 721h287l-168 -721h-200z" />
<glyph unicode="#" horiz-adv-x="1405" d="M111 365l23 180h195l45 305h-193l16 175h202l53 332h225l-51 -332h251l56 332h225l-54 -332h202l-16 -175h-211l-46 -305h198l-23 -180h-209l-57 -365h-220l51 365h-252l-62 -365h-222l58 365h-184zM555 545h252l45 305h-251z" />
<glyph unicode="$" horiz-adv-x="1205" d="M17 75l62 318h204l9 -219q89 -68 209 -68q204 0 247 129q12 38 12 83t-15.5 84.5t-48.5 75.5q-54 62 -161 130.5t-167 117t-106 105.5q-98 123 -98 268q0 198 144 319q137 115 366 129l29 182h181l-30 -184q184 -14 284 -70l-54 -302h-191l-28 198q-72 52 -174 52 q-156 0 -197 -111q-13 -33 -13 -79.5t17.5 -91.5t53.5 -87q62 -73 217 -167q147 -91 223 -181q96 -115 96 -261q0 -292 -279 -413q-97 -42 -232 -52l-34 -210h-180l33 211q-195 14 -330 68q-35 14 -49 26zM201 276l3 -6z" />
<glyph unicode="%" horiz-adv-x="1911" d="M160 1055q0 163 122 297q127 138 311 138q152 0 238 -88q79 -81 79 -217q0 -172 -122 -307q-58 -64 -139.5 -103.5t-168 -39.5t-144 25t-96.5 68q-80 90 -80 227zM367 0l947 1530h219l-947 -1530h-219zM391 1057q0 -209 106 -209q79 0 129 118q44 103 44 211 q0 201 -105 201q-80 0 -131 -114q-43 -94 -43 -207zM1017 370q0 60 14.5 113t42 101t66 90t86.5 72q103 66 203 66t159.5 -23.5t99.5 -64.5q79 -81 79 -217q0 -172 -122 -307q-130 -143 -320 -143q-144 0 -228 93q-80 90 -80 220zM1248 379q0 -209 106 -209q79 0 130 118 q43 103 43 211q0 201 -105 201q-80 0 -131 -114q-43 -94 -43 -207z" />
<glyph unicode="&#x26;" horiz-adv-x="1812" d="M71 340q0 240 241 372q71 38 149 71q-79 193 -79 315t41 207.5t113 144.5q149 119 389 119q214 0 328 -89q104 -82 104 -215q0 -177 -163 -297q-88 -65 -188 -111l-162 -73q93 -167 143 -235t86 -111l79 -89q8 -10 22 -23l32 -30q69 94 69 216q0 45 -3 83h-23 q-109 0 -155 -38v226q49 49 155 49q36 0 79 -6q82 -10 127 -10t72.5 6.5t46.5 23.5q32 30 46 122h113q23 -71 23 -140.5t-19 -124t-58.5 -90t-99.5 -35.5h-32v-22q0 -215 -196 -374q106 -53 222 -38l-1 -125q-75 -32 -153 -35.5t-135 -3.5q-137 0 -238 42q-187 -59 -345 -59 t-269 26t-192 75q-169 102 -169 276zM417 382q0 -130 85 -204q83 -74 201 -74t202 18q-145 135 -281 364l-80 135q-127 -103 -127 -239zM722 1177q0 -125 56 -262q124 61 184 131q74 85 74 203q0 131 -60 179q-23 18 -57 18q-197 0 -197 -269z" />
<glyph unicode="'" horiz-adv-x="591" d="M195 966l81 721h287l-168 -721h-200z" />
<glyph unicode="(" horiz-adv-x="884" d="M176 492.5q0 115.5 17 248t65.5 264.5t111.5 244t134 202.5t136 156.5q122 126 192 163l127 -89q-105 -70 -243 -276q-109 -165 -182 -386q-78 -236 -78 -508q0 -371 158 -646q54 -94 99 -131l-138 -84h-17q-100 63 -218 253q-98 157 -141 363q-23 110 -23 225.5z" />
<glyph unicode=")" horiz-adv-x="894" d="M-79 -254q105 70 243 276q109 165 182 386q78 236 78 508q0 371 -158 646q-54 94 -99 131l138 84h17q100 -63 218 -253q98 -157 141 -363q23 -110 23 -225.5t-17 -248t-65.5 -264.5t-111.5 -244t-134 -202.5t-136 -156.5q-122 -126 -192 -163z" />
<glyph unicode="*" horiz-adv-x="1366" d="M221 993l343 138l60 20l-52 18l-320 140l141 204l262 -218l42 -39l-6 62l-7 355l252 -1l-83 -358l-15 -53l46 36l310 218l96 -208l-344 -138l-60 -20l53 -19l320 -139l-141 -204l-263 217l-42 42l6 -64l7 -355l-252 1l82 358l16 54l-46 -38l-309 -217z" />
<glyph unicode="+" horiz-adv-x="1326" d="M248 673l18 198h216l138 -11l13 165l27 230h218l-26 -230l-29 -164l115 10h225l-18 -198h-245l-112 7q-2 -42 -5 -82t-5 -82l-28 -241h-219l27 241l26 164l-141 -7h-195z" />
<glyph unicode="," horiz-adv-x="556" d="M-15 -432l3 21q82 36 142 133q60 95 60 190q0 67 -22 103q-37 65 -80 63l7 64l134 153q112 -26 167 -118q46 -76 46 -170.5t-28.5 -171t-79.5 -143.5q-103 -132 -286 -213z" />
<glyph unicode="-" horiz-adv-x="1286" d="M248 673l18 198h857l-18 -198h-857z" />
<glyph unicode="." horiz-adv-x="556" d="M61 147q0 41 17 78t44 63q57 53 130 53q71 0 112 -49q36 -45 36 -104t-18 -96.5t-47 -62.5q-57 -49 -137 -49q-89 0 -126 97q-11 29 -11 70z" />
<glyph unicode="/" horiz-adv-x="854" d="M-122 -362l861 1959h234l-863 -1959h-232z" />
<glyph unicode="0" horiz-adv-x="1278" d="M81 478q0 123 47.5 253t132.5 226t203.5 150.5t255 54.5t228.5 -34t150 -96q109 -117 109 -335q0 -294 -171 -497q-82 -99 -200.5 -157.5t-258 -58.5t-232.5 37.5t-151.5 101t-85.5 148t-27 207.5zM415 495q0 -104 9.5 -171.5t30.5 -118.5q46 -111 136 -111q100 0 169 91 q113 151 113 492q0 376 -176 376q-199 0 -260 -333q-22 -121 -22 -225z" />
<glyph unicode="1" horiz-adv-x="930" d="M61 0l10 106l201 30l104 751l-117 -27q-59 -14 -125 -25l-19 125q173 40 368 144q58 31 98 58l163 -37l-140 -989l210 -30l-10 -106h-743z" />
<glyph unicode="2" horiz-adv-x="1249" d="M42 136q392 238 572 445q100 115 100 195q0 122 -84 164q-31 16 -80.5 16t-100 -14t-97.5 -38q-92 -49 -164 -134l-75 130q130 174 341 238q81 24 191.5 24t194 -32t133.5 -82q91 -90 91 -222q0 -243 -362 -494q-134 -93 -315 -181l512 43l152 201l148 -46l-121 -349 h-1003z" />
<glyph unicode="3" horiz-adv-x="1104" d="M-1 -327l22 159q60 -16 163.5 -16t188.5 28.5t139 75.5q103 90 103 235q0 141 -147 173q-31 7 -64 7t-64 -3l-109 -30l21 173q142 27 257 124q124 104 124 216q0 48 -25 81q-48 63 -120 63q-177 0 -327 -126l-60 125q112 125 323 183q77 21 156.5 21t148 -19.5 t119.5 -56.5q114 -82 114 -215q0 -132 -98 -238q-95 -101 -250 -151q249 -11 314 -193q19 -55 19 -119q0 -250 -205 -388q-198 -132 -538 -132q-107 0 -205 23z" />
<glyph unicode="4" horiz-adv-x="1264" d="M-24 84q91 137 173 274l163 278l346 620h297l82 -89l-657 -948l-43 -66l356 29l44 309l303 58l-41 -364l183 15l-27 -200h-190l-47 -375h-299l49 375h-626z" />
<glyph unicode="5" horiz-adv-x="1116" d="M36 -329l25 144q51 -16 143.5 -16t181.5 37t144 94q106 110 106 264q0 160 -146 208q-53 18 -110 18t-87.5 -5t-55.5 -12.5t-45 -16.5l-38 -19l-61 47l181 732h537l22 16h218l-55 -228h-464l-104 -366q65 28 177.5 28t175.5 -24.5t109 -69.5q98 -96 98 -250.5t-58 -267.5 t-162 -188q-206 -150 -558 -150q-50 0 -107.5 11t-66.5 14z" />
<glyph unicode="6" horiz-adv-x="1208" d="M87 529q0 359 254 651q250 288 633 391l54 -134q-190 -58 -347 -221q-155 -163 -217 -361q69 90 210 127q47 13 116.5 13t133.5 -29t106 -80q82 -103 82 -275q0 -257 -164 -441q-168 -190 -425 -190q-92 0 -173.5 31t-139.5 98q-123 140 -123 420zM404 468 q0 -92 7.5 -153.5t26.5 -105.5q42 -93 138 -93q145 0 196 236q21 94 21 197q0 263 -138 263q-105 0 -190 -86q-22 -23 -34 -43q-27 -123 -27 -215z" />
<glyph unicode="7" horiz-adv-x="1096" d="M78 732l87 414h922l32 -43l-607 -1443l-338 96l659 1225l-414 -22l-103 -231z" />
<glyph unicode="8" horiz-adv-x="1256" d="M99 364q0 193 201 361q58 49 123 87q-186 157 -186 367q0 167 139 269q141 102 368 102q190 0 307 -82q127 -90 127 -250q0 -185 -186 -326q-54 -42 -114 -78q185 -128 245 -294q21 -59 21 -140.5t-48 -159t-126 -130.5q-160 -110 -383 -110q-193 0 -326 82 q-162 99 -162 302zM385 368q0 -97 49 -172q58 -90 158 -90q101 0 170 56q76 64 76 178q0 141 -166 280l-104 84q-183 -122 -183 -336zM538 1234q0 -100 49 -169.5t142 -135.5q88 55 124 103q68 92 68 201q0 110 -61 160q-47 38 -107.5 38t-96 -10t-62.5 -35 q-56 -52 -56 -152z" />
<glyph unicode="9" horiz-adv-x="1247" d="M103 514q0 148 40.5 262.5t116.5 199.5q163 186 425 186q443 0 443 -528q0 -247 -123 -482q-117 -222 -319 -379q-204 -158 -441 -204l-60 137q415 128 581 562l-44 -46q-84 -84 -236 -84q-198 0 -299 124q-84 104 -84 252zM422 594q0 -273 137 -273q134 0 226 138 q26 106 26 203t-7 157.5t-26 106.5q-42 101 -141 101q-143 0 -195 -241q-20 -89 -20 -192z" />
<glyph unicode=":" horiz-adv-x="556" d="M61 147q0 41 17 78t44 63q57 53 130 53q71 0 112 -49q36 -45 36 -104t-18 -96.5t-47 -62.5q-57 -49 -137 -49q-89 0 -126 97q-11 29 -11 70zM167 956q0 41 17 78t44 63q57 53 130 53q71 0 112 -49q36 -45 36 -104t-18 -96.5t-47 -62.5q-57 -49 -137 -49q-89 0 -126 97 q-11 29 -11 70z" />
<glyph unicode=";" horiz-adv-x="556" d="M-15 -432l3 21q82 36 142 133q60 95 60 190q0 67 -22 103q-37 65 -80 63l7 64l134 153q112 -26 167 -118q46 -76 46 -170.5t-28.5 -171t-79.5 -143.5q-103 -132 -286 -213zM167 956q0 41 17 78t44 63q57 53 130 53q71 0 112 -49q36 -45 36 -104t-18 -96.5t-47 -62.5 q-57 -49 -137 -49q-89 0 -126 97q-11 29 -11 70z" />
<glyph unicode="&#x3c;" horiz-adv-x="1368" d="M195 686l16 128l1009 510l-33 -261l-682 -316l606 -330l-26 -241z" />
<glyph unicode="=" horiz-adv-x="1063" d="M76 309l23 197h815l-23 -197h-815zM149 838l23 197h815l-23 -197h-815z" />
<glyph unicode="&#x3e;" horiz-adv-x="1368" d="M250 179l33 261l682 316l-606 330l26 241l890 -510l-16 -128z" />
<glyph unicode="?" horiz-adv-x="951" d="M198 1540l61 220q44 40 209 66q45 7 110 7t138 -18t126 -49.5t88.5 -73.5t55.5 -90q38 -88 38 -189t-23 -169t-60.5 -120t-86 -91t-100.5 -71l-100 -60q-179 -103 -188 -199q-4 -35 -4 -70.5t21 -103.5l-172 -49l-14 1q-71 75 -71 226q0 143 173 255l107 66 q141 73 220 158q31 63 31 125.5t-21.5 113.5t-66.5 90q-96 83 -255 83q-100 0 -216 -58zM293 147q0 41 17 78t44 63q57 53 130 53q71 0 112 -49q36 -45 36 -104t-18 -96.5t-47 -62.5q-57 -49 -137 -49q-89 0 -126 97q-11 29 -11 70z" />
<glyph unicode="@" horiz-adv-x="1969" d="M55 337q0 355 176 651q162 271 429 430q261 156 536 156q314 0 512 -178q204 -182 204 -483q0 -413 -192 -675q-117 -160 -272 -219q-76 -29 -154 -29q-125 0 -125 205q0 101 38 262q-126 -296 -283 -409q-56 -41 -114.5 -41t-117.5 26t-105 79q-102 119 -102 329 q0 259 156 458q106 135 267 190q83 28 142.5 28t86 -4.5t55.5 -12.5q65 -20 103 -47l205 50q-67 -256 -109 -673q-6 -58 -6 -118l1 -73q0 -66 27 -66q80 0 153 101q104 144 138 396q11 77 11 166.5t-25 173t-68.5 148.5t-102 111.5t-125.5 76.5q-133 59 -273 59t-251 -41 t-203.5 -112t-164.5 -167.5t-122 -206.5q-102 -226 -102 -470q0 -339 202 -520q180 -160 461 -160q137 0 281 38q41 11 65 23l43 -108q-108 -83 -298 -109q-61 -9 -151 -9t-197.5 20t-202 61t-173 104t-134.5 149q-119 180 -119 440zM738 476.5q0 -62.5 6.5 -101t20.5 -71.5 q33 -78 89 -78q53 0 142 127q132 188 208 413q22 67 28 116q-25 48 -116 74q-26 8 -47 8q-156 0 -249 -166q-42 -74 -62 -166.5t-20 -155z" />
<glyph unicode="A" horiz-adv-x="1375" d="M-164 0l8 106l138 29l685 1395h347l247 -1392l161 -32l-6 -106h-689l5 106l157 29l-40 281h-510l-125 -280l188 -30l-8 -106h-558zM406 567h422l-78 550l-9 199z" />
<glyph unicode="B" horiz-adv-x="1396" d="M-22 0l9 106l140 30l167 1258l-145 26l13 110h336l359 16q267 0 383 -102q95 -83 95 -245q0 -304 -376 -396h49.5t108 -23.5t113.5 -65.5q97 -86 97 -220.5t-47 -233.5t-140 -161q-177 -119 -545 -119l-320 20h-297zM461 128q87 -23 177 -23q323 0 323 332q0 154 -73 219 q-69 63 -223 63q-54 0 -75 -1.5t-31 -2t-19 -1.5zM559 856h124q142 0 229 78q93 84 93 240q0 125 -59.5 185.5t-167.5 60.5q-86 0 -145 -14z" />
<glyph unicode="C" horiz-adv-x="1300" d="M60 637q0 424 243 671q238 241 646 241q193 0 303 -33q28 -9 56 -15l33 -9l-61 -400h-253l-40 310q-47 18 -110.5 18t-128 -33.5t-114 -90.5t-85.5 -132q-98 -207 -98 -478q0 -541 280 -541q93 0 140.5 23t68.5 44.5t32.5 44t21 49t18.5 55.5l16 58l201 1l-43 -284 q-78 -65 -155 -93q-158 -59 -341 -59t-300.5 53t-190.5 143q-139 170 -139 457z" />
<glyph unicode="D" horiz-adv-x="1505" d="M-44 0l12 106l158 30l168 1258l-144 26l11 110h317q85 1 176.5 8.5t180.5 7.5h7q335 0 500 -180q146 -159 146 -445q0 -670 -488 -868q-170 -69 -408 -69q-26 0 -59 4t-56 5.5t-49 2.5q-62 4 -104 4h-368zM477 136q66 -25 147 -25t154 34t128.5 91.5t94.5 134.5t63 163 q47 165 47 329.5t-18.5 266t-56.5 166.5q-73 124 -234 124q-114 0 -159 -26z" />
<glyph unicode="E" horiz-adv-x="1329" d="M-46 0l14 106l160 30l164 1258l-145 26l11 110h1118l-36 -370h-222l-34 224l-339 26l-72 -529l444 24l-23 -218l-441 25l-78 -576l463 35l117 297l213 -14l-70 -454h-1244z" />
<glyph unicode="F" horiz-adv-x="1215" d="M-21 0l11 106l138 30l164 1258l-145 26l14 110h1136l-44 -382h-221l-19 242l-366 18l-75 -549l483 38l-27 -235l-476 39l-72 -565l327 -30l-8 -106h-820z" />
<glyph unicode="G" horiz-adv-x="1450" d="M60 656q0 401 206 638q221 255 634 255q211 0 363 -41q37 -10 70 -18l62 -11l-68 -356h-247l-8 257q-74 40 -169 40q-470 0 -470 -762q0 -364 149 -482q51 -41 122 -41q146 0 225 28l49 427l-202 17l19 146h556l-86 -669l-39 -5q-90 -11 -143 -25l-100 -26 q-176 -44 -337.5 -44t-269.5 52.5t-178 141.5q-138 178 -138 478zM1163 1310q8 -9 15 -19l15 -20z" />
<glyph unicode="H" horiz-adv-x="1653" d="M-21 0l11 106l138 30l166 1258l-145 26l14 110h675l-12 -110l-180 -26l-71 -540h552l71 540l-177 26l12 110h683l-12 -110l-154 -26l-165 -1258l157 -30l-12 -106h-703l14 106l191 30l75 568h-552l-75 -568l174 -30l-8 -106h-667z" />
<glyph unicode="I" horiz-adv-x="783" d="M-18 0l13 106l150 30l165 1258l-147 26l12 110h671l-12 -110l-172 -26l-165 -1258l175 -30l-7 -106h-683z" />
<glyph unicode="J" horiz-adv-x="748" d="M-205 -237q276 84 320 323q94 506 182 1307l-153 27l15 110h666l-11 -110l-168 -26l-104 -834q-55 -417 -82 -495t-88 -149t-142 -124q-160 -105 -383 -137z" />
<glyph unicode="K" horiz-adv-x="1477" d="M-31 0l13 106l146 30l165 1258l-145 26l14 110h675l-12 -110l-180 -26l-89 -673l624 673l-145 27l11 109h501l-12 -110l-117 -26l-467 -470q30 -46 62 -112l133 -282q169 -360 231 -394l117 -30l-12 -106h-434q-43 6 -64 37t-38 69l-40 98q-20 49 -42 110 q-104 285 -148 372l-189 -191l-47 -359l174 -30l-9 -106h-676z" />
<glyph unicode="L" horiz-adv-x="1271" d="M-22 0l12 106l138 30l165 1258l-146 26l13 110h679l-12 -110l-182 -26l-166 -1265l349 20l191 451l181 -23l-84 -577h-1138z" />
<glyph unicode="M" horiz-adv-x="2017" d="M-128 0l12 106l181 30l326 1258l-194 26l16 110h691l120 -1021l55 171l334 850h620l-13 -110l-186 -26l-40 -1258l204 -30l-8 -106h-737l9 108l189 28l57 860l20 398l-143 -350l-439 -1047l-169 -15l-136 1038l-54 375l-87 -385l-209 -874l225 -29l-10 -107h-634z" />
<glyph unicode="N" horiz-adv-x="1545" d="M-33 0l8 106l149 30l186 1258l-170 26l16 110h557l371 -995l78 -230l136 1089l-172 26l11 110h502l-11 -110l-123 -26l-212 -1394h-358l-391 1028l-78 254l-125 -1146l190 -30l-11 -106h-553z" />
<glyph unicode="O" horiz-adv-x="1500" d="M55 624q0 128 21.5 241t65.5 214t110.5 187.5t156.5 149.5q191 134 456 134q302 0 461 -199q139 -175 139 -458q0 -374 -188 -626q-214 -287 -622 -287q-302 0 -457 188q-143 174 -143 456zM436 649q0 -547 248 -547q196 0 302 228q98 209 98 551q0 545 -246 545 q-187 0 -299 -243q-103 -224 -103 -534z" />
<glyph unicode="P" horiz-adv-x="1312" d="M-22 0l11 106l138 30l168 1258l-148 26l14 110h316l297 16q449 0 544 -232q34 -84 34 -207.5t-44.5 -235.5t-135.5 -192t-223.5 -122.5t-254.5 -42.5t-162 4l-46 -382l278 -30l-8 -106h-778zM548 654q34 -9 64 -9t46 1q158 2 252 138q92 134 92 348q0 288 -263 288 q-42 0 -89 -9z" />
<glyph unicode="Q" horiz-adv-x="1501" d="M55 636q0 373 197 630q138 178 360 248q114 35 263.5 35t263.5 -54t187 -145q139 -175 139 -458q0 -335 -153 -576q-170 -270 -501 -324v-36t18.5 -60t56.5 -50q60 -27 204 -27q164 0 289 39l2 -186q-148 -111 -388 -111q-221 0 -325 109q-74 79 -74 201q0 51 13 110 q-276 13 -421 201q-131 170 -131 454zM436 648q0 -547 248 -547q196 0 302 228q98 209 98 551q0 545 -246 545q-187 0 -299 -243q-103 -224 -103 -534z" />
<glyph unicode="R" horiz-adv-x="1450" d="M-22 0l9 106l141 30l165 1258l-145 26l13 110h311q60 0 134 6q140 10 233 10q526 0 526 -382q0 -243 -185 -384q-60 -46 -136 -75q44 -51 117 -257q17 -48 38 -97l44 -98q48 -102 101 -130q31 -16 77 -17l-10 -107l-415 2q-33 0 -90 187q-132 416 -171 474q-36 -1 -71 -1 h-122l-66 -525l184 -30l-6 -106h-676zM561 800q13 -1 34 -2h43q23 -1 42 -1h30q144 0 223 101q75 94 75 257q0 144 -69.5 204.5t-181.5 60.5q-25 0 -47 -2l-38 -4q-16 -1 -30 -4z" />
<glyph unicode="S" horiz-adv-x="1157" d="M15 75l60 318h206l11 -221q87 -66 183 -66t145 16t78 44q52 49 52 143q0 93 -60 165q-54 66 -159.5 133.5t-165 117t-103.5 107.5q-96 127 -96 253t42.5 209.5t118.5 139.5q154 115 408 115q272 0 399 -74l-54 -302h-191l-30 198q-70 52 -169 52q-156 0 -195 -106 q-12 -33 -12 -79.5t17 -92t52 -87.5q59 -72 214 -169q312 -198 312 -447q0 -195 -144 -322q-160 -143 -443 -143q-237 0 -414 67q-45 17 -62 31z" />
<glyph unicode="T" horiz-adv-x="1461" d="M71 945l99 585h1376l-75 -583l-181 -2l-33 423l-242 26l-168 -1258l284 -30l-10 -106h-889l13 106l250 30l167 1258l-236 -26l-167 -423h-188z" />
<glyph unicode="U" horiz-adv-x="1447" d="M91 1420l13 110h704l-10 -109l-197 -27l-97 -771q-17 -148 -17 -210t14.5 -120.5t44.5 -100.5q63 -88 186 -88q254 0 343 308q28 96 44 214l104 768l-168 27l11 109h484l-15 -109l-129 -27l-97 -767q-45 -347 -204 -500q-153 -147 -435 -147q-295 0 -429 130 q-62 61 -87.5 143t-25.5 148q0 129 7 192l100 801z" />
<glyph unicode="V" horiz-adv-x="1245" d="M-24 1421l14 109h653l-9 -110l-162 -26l120 -884l24 -208l75 208l410 884l-191 26l10 110h575l-18 -110l-170 -26l-647 -1404h-321l-224 1404z" />
<glyph unicode="W" horiz-adv-x="1954" d="M-23 1421l14 109h612l-9 -110l-126 -28l126 -1090l79 208l305 738l-13 145l-160 28l10 109h636l-9 -110l-139 -27l93 -883l7 -208l461 1091l-227 27l10 110h594l-10 -109l-159 -27l-644 -1404h-320l-90 936l-379 -936h-317l-207 1403z" />
<glyph unicode="X" horiz-adv-x="1389" d="M-76 0l12 106l114 30l479 613l-306 645l-119 26l11 110h661l-8 -109l-144 -27l168 -441l296 441l-134 26l6 110h522l-10 -110l-136 -26l-470 -585l335 -673l126 -30l-10 -106h-692l9 106l156 30l-180 455l-303 -455l152 -30l-10 -106h-525z" />
<glyph unicode="Y" horiz-adv-x="1281" d="M19 1420l12 110h684l-17 -110l-181 -26l172 -486l53 -123l354 609l-164 26l10 110h533l-15 -110l-130 -26l-515 -789l-61 -469l245 -30l-10 -106h-828l12 106l230 30l58 469l-331 789z" />
<glyph unicode="Z" horiz-adv-x="1226" d="M-73 89l877 1215l123 98l-424 -18l-148 -270l-175 22l51 394h1040l30 -86l-865 -1209l-112 -98l493 22l184 333l167 -31l-88 -461h-1119z" />
<glyph unicode="[" horiz-adv-x="874" d="M110 -36q0 27 4 57l208 1498q32 252 311 252q68 0 260 -47l-20 -123h-275l-223 -1656l275 -2l-15 -128l-65 -19q-106 -28 -180.5 -28t-120 7t-81.5 23q-78 37 -78 113v53z" />
<glyph unicode="\" horiz-adv-x="854" d="M26 1597h228l577 -1959h-229z" />
<glyph unicode="]" horiz-adv-x="874" d="M2 -168l20 123h275l223 1656l-275 2l15 128l65 19q106 28 180.5 28t120 -7t81.5 -23q78 -37 78 -113v-53q0 -27 -4 -57l-208 -1498q-32 -252 -311 -252q-68 0 -260 47z" />
<glyph unicode="^" horiz-adv-x="1364" d="M137 510l521 1021h257l277 -1021h-255l-179 692l-356 -692h-265z" />
<glyph unicode="_" horiz-adv-x="1335" d="M-111 -338l20 151h1378l-20 -151h-1378z" />
<glyph unicode="`" horiz-adv-x="541" d="M0 1566l203 177l288 -432l-105 -70q-111 47 -276 199q-80 73 -110 126z" />
<glyph unicode="a" horiz-adv-x="1215" d="M60 402q0 311 174 526q118 148 304 206q95 29 208.5 29t237.5 -43l152 43l-129 -936q-1 -12 -1 -22q0 -54 40 -54q34 0 93 46l28 -73q-53 -82 -173 -126q-48 -18 -114.5 -18t-113.5 32t-49 94q-126 -126 -304 -126t-271 124q-82 112 -82 298zM406 426q0 -137 39.5 -204.5 t106 -67.5t128.5 55l110 808q-33 6 -81 6t-95 -26.5t-82 -72t-59 -106t-39 -128.5q-28 -127 -28 -264z" />
<glyph unicode="b" horiz-adv-x="1191" d="M60 -20l187 1504l-103 43l21 84l361 39l54 -27l-74 -564q124 104 281 104q256 0 323 -249q21 -81 21 -211.5t-47 -267t-135.5 -238t-215 -159.5t-262.5 -58t-265 43zM385 128q36 -9 106 -9t130 52.5t97 138.5q72 164 72 419q0 177 -80 238q-27 21 -70 21q-80 0 -155 -89z " />
<glyph unicode="c" horiz-adv-x="942" d="M59 468q0 266 155 466q109 141 289 200q91 29 162 29t105.5 -2.5t68.5 -6.5q76 -11 122 -29l-93 -322q-21 6 -55 45l-56 63q-84 95 -124.5 95t-82.5 -40q-92 -86 -132 -284q-18 -88 -18 -147.5t1 -106.5t12 -102t33 -90q41 -67 129 -67q156 0 254 128l64 -103 q-87 -136 -284 -193q-73 -21 -161.5 -21t-159.5 29.5t-122 88.5q-107 126 -107 370z" />
<glyph unicode="d" horiz-adv-x="1255" d="M60 402q0 315 164 526q114 147 302 206q95 29 174.5 29t138.5 -9l48 328l-156 43l19 83l432 42l56 -27l-202 -1394q-2 -14 -2 -26q0 -52 41 -52q27 0 88 46l28 -73l-31 -34q-52 -58 -119.5 -84t-142.5 -26q-150 0 -162 167q-80 -111 -217 -151q-52 -16 -130.5 -16 t-144 33.5t-106.5 90.5q-78 110 -78 298zM401 427q0 -273 144 -273q90 0 162 103l110 750q-45 16 -105 16t-106.5 -26.5t-81.5 -72t-58.5 -106t-37.5 -128.5q-27 -124 -27 -263z" />
<glyph unicode="e" horiz-adv-x="1048" d="M61 430v6q0 313 187 520q185 207 462 207q240 0 307 -151q22 -51 22 -119t-26 -131t-74 -113t-111.5 -86.5t-133.5 -59.5q-138 -46 -274 -48q0 -156 50 -226t137 -70q178 0 298 156l64 -103q-93 -145 -296 -208q-78 -24 -166 -24t-151.5 17.5t-112.5 48.5t-83 73.5 t-56 92.5q-43 98 -43 218zM420 575q106 7 196 84q102 88 102 227t-82 139q-187 0 -216 -450z" />
<glyph unicode="f" horiz-adv-x="709" d="M-253 -489l58 184q5 -2 23 -10t42 -17q57 -22 98 -22t73 45t46 147l138 1146h-125l21 103l136 63l17 104q54 295 288 386q79 30 150 30q144 0 207 -26l-62 -178q-62 48 -117.5 48t-78 -11t-35.5 -35q-17 -31 -37 -163l-20 -150h230l-21 -171h-233l-116 -975 q-49 -359 -287 -479q-87 -43 -205 -43q-94 0 -190 24z" />
<glyph unicode="g" horiz-adv-x="1218" d="M60 402q0 311 174 526q118 148 304 206q95 29 209.5 29t246.5 -46l162 46l-167 -1240q-39 -310 -349 -405q-117 -36 -270 -36q-110 0 -181.5 19t-86.5 26l51 215q21 -21 79 -44q116 -47 180.5 -47t103.5 6.5t68 27.5q56 42 71 170l25 218q-117 -93 -267 -93 q-178 0 -271 124q-82 112 -82 298zM406 426q0 -137 39.5 -204.5t108.5 -67.5q77 0 145 73l115 785q-38 11 -95.5 11t-104.5 -26.5t-82 -72t-59 -106t-39 -128.5q-28 -127 -28 -264z" />
<glyph unicode="h" horiz-adv-x="1296" d="M71 0l179 1482l-127 43l16 83l409 42l55 -27l-87 -708q149 248 384 248q265 0 265 -302q0 -55 -21 -184l-28 -172q-6 -38 -13.5 -79t-14.5 -81q-14 -89 -14 -141.5t39 -52.5q29 0 90 46l28 -73q-62 -85 -181 -126q-52 -19 -119.5 -19t-107.5 14.5t-61 38.5 q-34 39 -34 118q0 41 11 103l51 279q29 169 29 227t-0.5 82.5t-5.5 51.5t-15 43q-17 29 -53 29t-70 -21t-67 -57q-71 -76 -118 -182l-86 -705h-333z" />
<glyph unicode="i" horiz-adv-x="669" d="M57 1031l18 81l446 51l55 -24l-128 -912q-2 -15 -2 -27q0 -49 37 -49q30 0 92 46l28 -73q-118 -144 -296 -144q-107 0 -154 38t-47 90q0 10 5.5 45.5t16.5 121.5l93 705zM276 1507.5q0 35.5 14.5 72.5t39.5 64q54 57 144 57q75 0 125 -51q45 -44 45 -96.5t-13 -90.5 t-38 -65.5t-63.5 -43.5t-81.5 -16t-73 14q-60 29 -87 92q-12 28 -12 63.5z" />
<glyph unicode="j" horiz-adv-x="652" d="M-250 -491l38 121q42 -12 93.5 -12t96 37t71.5 99q41 94 66 311l105 915l-166 51l21 81l451 51l52 -24l-137 -1139q-33 -253 -183 -394q-142 -134 -337 -134q-132 0 -171 37zM266 1507.5q0 35.5 14.5 72.5t39.5 64q54 57 144 57q75 0 125 -51q45 -44 45 -96.5t-13 -90.5 t-38 -65.5t-63.5 -43.5t-81.5 -16t-73 14q-60 29 -87 92q-12 28 -12 63.5z" />
<glyph unicode="k" horiz-adv-x="1158" d="M63 0l195 1482l-128 43l17 83l409 42l55 -27l-215 -1623h-333zM478 610l5 1h-5q92 47 135 81q89 69 165 171q53 70 53 165q0 73 57 108q44 27 92 27t72 -10.5t40 -28.5q34 -35 34 -91q0 -82 -57 -161q-100 -125 -305 -218l184 -380q48 -92 121 -92q39 0 102 46l34 -71 q-88 -106 -224 -155q-56 -21 -110 -21t-86.5 9t-56.5 24q-42 29 -64 87z" />
<glyph unicode="l" horiz-adv-x="635" d="M83 115q0 29 8 77l171 1290l-132 43l20 83l406 42l51 -27l-184 -1396q-2 -14 -2 -25q0 -51 40 -51q28 0 89 46l28 -73q-61 -84 -170 -126q-49 -18 -100 -18t-89 7.5t-68 23.5q-66 35 -68 104z" />
<glyph unicode="m" horiz-adv-x="1954" d="M77 0l132 962l-108 60l17 89l372 52l53 -24l-16 -212q103 167 253 218q52 18 109 18q243 0 272 -247q138 247 397 247q265 0 265 -302q0 -55 -21 -184l-28 -172q-6 -38 -13.5 -79t-14.5 -81q-14 -89 -14 -141.5t39 -52.5q29 0 90 46l28 -73q-62 -85 -181 -126 q-52 -19 -119.5 -19t-107.5 16t-61 41q-34 39 -34 114q0 41 11 103l51 279q29 169 29 227t-0.5 82.5t-5.5 51.5t-15 43q-17 29 -52 29t-66.5 -15t-63.5 -42q-63 -55 -113 -150q-6 -121 -24 -253l-59 -505h-335l68 532q19 152 19 213.5t-0.5 91.5t-6.5 58.5t-17 44.5 q-18 25 -56.5 25t-70 -17.5t-63.5 -47.5q-65 -64 -114 -158l-102 -742h-323z" />
<glyph unicode="n" horiz-adv-x="1299" d="M78 0l131 962l-107 60l16 89l374 52l52 -24l-16 -210q148 234 375 234q265 0 265 -302q0 -55 -21 -184l-28 -172q-6 -38 -13.5 -79t-13.5 -81q-15 -89 -15 -141.5t39 -52.5q29 0 90 46l28 -73q-62 -85 -180 -126q-53 -19 -120.5 -19t-107.5 16t-61 41q-34 39 -34 114 q0 41 11 103l50 279q30 169 30 227t-0.5 82.5t-5.5 51.5t-14 43q-18 29 -53.5 29t-68 -19.5t-64.5 -53.5q-66 -67 -115 -171l-99 -721h-324z" />
<glyph unicode="o" horiz-adv-x="1197" d="M61 468q0 284 161 480q110 136 280 188q86 27 188 27t184 -31t138 -90q119 -126 119 -368q0 -284 -161 -480q-112 -135 -282 -188q-85 -26 -187.5 -26t-183.5 31q-256 98 -256 457zM417 478q0 -296 74 -352q24 -19 64 -19t74 26.5t59.5 71t42.5 104.5q42 147 42 350 q0 294 -71 349q-22 17 -59 17t-72.5 -26t-62 -70.5t-44.5 -103.5q-47 -153 -47 -347z" />
<glyph unicode="p" horiz-adv-x="1230" d="M6 -520l200 1502l-117 50l19 79l393 52l52 -24l-10 -84q113 108 278 108q259 0 327 -249q22 -81 22 -211.5t-48 -267t-136 -237.5q-190 -218 -490 -218q-52 0 -101 9l-71 -509h-318zM416 133q37 -14 113.5 -14t134 52.5t92.5 138.5q68 164 68 419q0 177 -80 238 q-27 21 -72 21q-78 0 -150 -97z" />
<glyph unicode="q" horiz-adv-x="1227" d="M60 402q0 315 164 526q114 147 302 206q95 29 169.5 29t110 -4.5t68.5 -11.5q68 -14 117 -32l-1 -1l163 49l-192 -1437q-4 -27 5 -49.5t36.5 -22.5t88.5 46l28 -73q-61 -84 -181 -127q-53 -18 -116 -18t-102.5 15.5t-63.5 40.5q-40 40 -40 101v14l63 431 q-116 -104 -275 -104q-177 0 -266 124q-78 110 -78 298zM401 427q0 -273 144 -273q86 0 159 98l111 756q-43 15 -103 15t-106.5 -26.5t-81.5 -72t-58.5 -106t-37.5 -128.5q-27 -124 -27 -263z" />
<glyph unicode="r" horiz-adv-x="843" d="M80 0l132 962l-107 60l17 89l328 52l53 -24l20 -273q86 297 295 297q38 0 70 -20l-69 -357q-26 31 -96 31q-120 0 -215 -57l-105 -760h-323z" />
<glyph unicode="s" horiz-adv-x="873" d="M3 49l48 201q72 -72 182 -104q41 -12 76.5 -12t63.5 6.5t51 20.5q52 32 52 96q0 55 -36 96q-49 57 -114.5 102.5t-100.5 76.5t-63 73q-63 95 -63 199t36 167t99 106q128 86 334 86q118 0 182.5 -15.5t77.5 -21.5l-43 -207q-91 100 -204 100q-109 0 -147 -65 q-13 -22 -13 -52q0 -58 33 -96q47 -54 117 -104.5t106.5 -85t64.5 -77.5q61 -94 61 -199t-41 -171t-108 -108q-129 -81 -330 -81q-149 0 -273 46q-34 12 -48 23z" />
<glyph unicode="t" horiz-adv-x="724" d="M95 994l24 109l122 47q77 67 161 266h189l-33 -261h208l-23 -161h-206l-83 -604q-15 -107 -15 -139q0 -81 73 -81q101 0 169 57l25 -80q-94 -107 -260 -150q-65 -17 -124.5 -17t-94 8.5t-61.5 29.5q-60 47 -60 141q0 26 8 95l100 740h-119z" />
<glyph unicode="u" horiz-adv-x="1276" d="M78 1042l16 89l403 32l52 -24l-69 -550q-37 -263 -37 -321q0 -120 95 -120q107 0 194 99l124 908h326l-128 -928q-2 -13 -2 -23q0 -53 42 -53q24 0 48 16l44 30l28 -73q-55 -82 -172 -126q-48 -18 -108 -18q-107 0 -146.5 40.5t-39.5 92.5q0 15 3 30l-4 3 q-66 -74 -121 -105q-106 -61 -226 -61q-183 0 -262 134q-30 48 -30 102v12q0 48 4 86q4 44 10 91t14 96l68 461z" />
<glyph unicode="v" horiz-adv-x="1083" d="M-25 1028q58 75 169 118q45 17 117.5 17t121.5 -35.5t60 -101.5l106 -571l29 -216l74 128l53 105q83 170 83 330q0 36 -12 88q-21 96 -21 130t10 59.5t30 44.5q43 39 108 39t99 -18.5t52 -48.5q32 -53 32 -126t-13 -126t-36 -111.5t-54 -119.5t-66 -119 q-69 -115 -145 -210l-256 -293l-192 -12l-202 946q-11 56 -47 56q-28 0 -71 -33z" />
<glyph unicode="w" horiz-adv-x="1742" d="M-25 1028q50 72 169 118q46 17 117 17t120.5 -35t60.5 -102l90 -587l26 -211l87 282l189 645h277l118 -750l30 -177l89 165q98 182 98 382q0 53 -11 110q-21 109 -21 139t10 55.5t30 44.5q43 39 108.5 39t99 -18.5t51.5 -48.5q32 -55 32 -127t-14 -127t-39.5 -117 t-58.5 -126t-69 -124.5t-72 -114.5l-67 -98l-194 -270l-240 -10l-68 373l-38 268l-1 138l-47 -138l-94 -296l-135 -331l-283 -16l-202 945q-10 54 -44 56h-2q-28 0 -73 -33z" />
<glyph unicode="x" horiz-adv-x="1030" d="M-99 0l463 587l-165 314l-17 29q-30 54 -61 54q-48 0 -80 -19l-39 84q48 62 188 99q53 15 126 15q154 0 187 -105l85 -252l222 349h305l-447 -568l159 -288q36 -73 62.5 -96.5t54.5 -23.5t82 38l45 -84q-53 -83 -206 -133q-61 -20 -139 -20q-140 0 -178 105l-99 288 l-233 -373h-315z" />
<glyph unicode="y" horiz-adv-x="1084" d="M-116 -473l51 215q59 -49 185 -80q44 -11 89 -11t84.5 14.5t76.5 47.5q69 61 153 216h-191l-210 996q-7 31 -16.5 43.5t-36 12.5t-65.5 -34l-29 81q25 35 75 68q103 67 195 67q172 0 198 -137q38 -198 71 -394l64 -393l18 -159l61 124q134 274 134 533q0 75 -13 127 q-23 98 -23 144t10 71t30 44q42 40 106 40t97 -16.5t52 -45.5q36 -53 36 -138t-20 -168.5t-52 -170.5q-53 -145 -124 -284l-226 -438l-42 -74q-18 -33 -35 -60l-35 -54q-77 -108 -140 -151q-120 -81 -260 -81q-117 0 -228 32q-27 7 -40 13z" />
<glyph unicode="z" horiz-adv-x="1011" d="M-29 39l646 792l93 52l-303 1q-118 0 -159 -92q-13 -28 -16 -59h-88q-10 55 -10 94t0.5 63t4 67.5t11.5 81.5q19 83 61 102q53 22 97 22t94 -2.5t104 -6.5l220 -17q117 -9 182.5 -9t106.5 35l53 -61l-649 -802l-72 -43h328q120 0 165 99q14 29 17 63h85q8 -61 8 -120.5 t-4 -103.5t-12 -83q-20 -90 -59 -115q-29 -20 -105 -20q-97 0 -243 10.5t-203 14.5q-137 8 -199 8t-92 -33z" />
<glyph unicode="{" horiz-adv-x="1044" d="M99 714l18 124q245 60 257 128l84 547q33 203 204 241q52 11 98 11q81 0 273 -47q-20 -90 -20 -117h-276l-96 -631q-12 -84 -133 -142q-23 -12 -50 -24l-60 -28q106 -54 135 -84q57 -59 48 -117l-95 -630h275q-2 -6 -4 -26t-5.5 -44t-6.5 -54q-122 -36 -178 -41.5 t-100 -5.5t-88.5 7t-79.5 23q-77 37 -77 113q0 14 11 88l36 254q20 143 47 320q0 56 -128 107q-44 17 -89 28z" />
<glyph unicode="|" horiz-adv-x="854" d="M340 -186v1966h213v-1966h-213z" />
<glyph unicode="}" horiz-adv-x="1044" d="M15 -172q20 90 20 117h276l96 631q12 84 133 142q23 12 50 24l60 28q-106 54 -135 84q-57 59 -48 117l95 630h-275q2 6 4 26t5.5 44t6.5 54q122 36 178 41.5t100 5.5t88.5 -7t79.5 -23q77 -37 77 -113q0 -14 -11 -88l-36 -254q-20 -143 -47 -320q0 -56 128 -107 q44 -17 89 -28l-18 -124q-245 -60 -257 -128l-84 -547q-33 -203 -204 -241q-52 -11 -98 -11q-81 0 -273 47z" />
<glyph unicode="~" horiz-adv-x="1137" d="M108 876q27 80 112 141q95 69 200 69q107 0 203.5 -76t158.5 -76q121 0 192 107l104 -119q-23 -86 -116 -156q-97 -74 -206 -74t-212 81l-51 39q-58 42 -109 42q-127 0 -192 -97z" />
<glyph />
<glyph unicode="&#xa1;" horiz-adv-x="716" d="M46 -434l258 1250h203l-126 -1250h-335zM293 1156q0 59 18 96.5t47 62.5q57 49 137 49q89 0 126 -97q11 -29 11 -70t-17 -78t-45 -63q-56 -53 -129 -53q-71 0 -111 49q-37 45 -37 104z" />
<glyph unicode="&#xa2;" horiz-adv-x="1056" d="M117 464q0 237 121 422q139 214 385 263l46 209h150l-43 -195q142 0 243 -38l-93 -322q-21 6 -55 45l-56 63q-84 95 -124.5 95t-82.5 -40q-92 -86 -132 -284q-18 -88 -18 -147.5t1 -106.5t12 -102t33 -90q41 -67 129 -67q156 0 254 128l64 -103q-80 -125 -256 -184 q-65 -22 -144 -28l-36 -197h-150l38 206q-132 31 -207 146q-79 120 -79 327z" />
<glyph unicode="&#xa3;" horiz-adv-x="1395" d="M-96 58.5q0 34.5 20.5 61t53.5 47.5q77 48 171 48q72 109 89 208l52 301h-147l18 181h161l20 112q39 227 208 384q176 164 401 164q216 0 308 -96l-103 -208q-36 81 -130 125q-41 20 -84.5 20t-78 -9t-67.5 -39q-73 -68 -105 -236l-42 -217h245l-17 -181h-262l-29 -153 q-27 -141 -114 -268q-33 -49 -60 -78.5t-33 -36.5q193 -34 320.5 -34t195 20t105.5 50q63 52 63 137t-104 157l207 179q122 -74 172 -232q17 -54 17 -124t-34 -138t-101 -117q-144 -106 -398 -106q-148 0 -262.5 28t-177.5 45.5t-127 30.5q-74 -63 -170 -92 q-38 -12 -79.5 -12t-71.5 22t-30 56.5z" />
<glyph unicode="&#xa4;" horiz-adv-x="1540" d="M201 1135l141 142l211 -213q109 64 233.5 64t234.5 -70l207 206l141 -142l-209 -209q62 -105 62 -227t-66 -227l211 -211l-142 -141l-211 210q-107 -65 -229.5 -65t-227.5 61l-211 -211l-142 141l208 208q-70 110 -70 239q0 127 68 235zM576 690q0 -89 60 -152 q60 -64 146 -64t146 64q60 63 60 152t-60 152q-60 64 -146 64t-146 -64q-60 -63 -60 -152z" />
<glyph unicode="&#xa5;" horiz-adv-x="1483" d="M151 1420l15 112h683l-15 -112l-182 -26l189 -490l93 140l222 358l-120 18l15 112h559l-15 -112l-130 -28l-414 -540h229l-18 -152h-327l-23 -176h328l-16 -148h-331l-31 -240l293 -30l-10 -106h-871l12 106l279 30l30 240h-356l16 148h358l22 176h-359l18 152h260 l-289 542z" />
<glyph unicode="&#xa6;" horiz-adv-x="854" d="M340 -186v864h213v-864h-213zM340 916v864h213v-864h-213z" />
<glyph unicode="&#xa7;" horiz-adv-x="1194" d="M49 -111l56 348h189l27 -224q83 -53 195 -53q210 0 210 163q0 74 -98 139q-44 30 -100 58l-116 61q-147 81 -203 144.5t-83 126.5t-27 146q0 163 149 292q-62 90 -62 190.5t43 171t115 119.5q150 102 366 102q228 0 367 -49q37 -13 57 -26l-56 -328h-189l-27 207 q-65 53 -167 53q-98 0 -139.5 -20.5t-61 -49t-19.5 -79.5t26.5 -90.5t69 -71t97.5 -57.5l112 -56q149 -73 201 -128q105 -109 105 -250q0 -198 -139 -332q68 -91 68 -195.5t-40 -173.5t-109 -116q-144 -97 -365 -97q-222 0 -388 49q-44 13 -64 26zM379 873q0 -43 18.5 -76 t49.5 -61t73 -52.5t88 -49.5l96 -50q50 -26 96 -56q22 34 22 81.5t-18.5 79.5t-49.5 59.5t-73 52t-89 48.5l-95 49q-49 25 -95 54q-23 -36 -23 -79z" />
<glyph unicode="&#xa8;" horiz-adv-x="809" d="M17 1487q0 15 0.5 37t12 57.5t34.5 62.5q48 57 129 57q68 0 111 -51q39 -44 39 -105q0 -144 -101 -191q-34 -16 -73 -16t-65 14q-54 30 -77 92q-10 28 -10 43zM482 1582q23 72 88 104q33 15 72 15t67 -14q86 -43 86 -142q0 -144 -101 -191q-34 -16 -73 -16t-65.5 14.5 t-45.5 37.5q-65 78 -28 192z" />
<glyph unicode="&#xa9;" horiz-adv-x="1768" d="M158 806q0 107 28 206t78.5 185t121 156.5t156.5 120.5q181 105 391 105t391 -105q271 -157 357 -462q28 -99 28 -206q0 -211 -107 -392q-102 -175 -278 -277q-181 -105 -391 -105t-391 105q-174 101 -278 277q-106 181 -106 392zM297 806q0 -269 185 -458 q185 -190 451 -190q267 0 453 190q117 120 162 286q22 83 22 172q0 267 -184 458q-116 119 -282 166q-82 24 -171 24q-173 0 -323 -89q-142 -84 -227 -233q-86 -151 -86 -326zM542 802v6q0 183 112 306q120 133 315 133q163 0 234 -38v-235h-104l-44 120q-43 39 -97.5 39 t-91.5 -20.5t-64 -56.5q-56 -78 -56 -195v-57.5t17.5 -117t46.5 -104.5q53 -70 143 -70q133 0 220 50l40 -104q-68 -59 -205 -84q-43 -8 -110.5 -8t-137.5 34.5t-118 93.5q-100 123 -100 308z" />
<glyph unicode="&#xaa;" horiz-adv-x="854" d="M44 1040q0 198 159 363q103 107 245 151q71 23 155 23t165 -27l147 36l-117 -666q-5 -25 -0.5 -39.5t12.5 -14.5q21 0 56 20l33 -54q-31 -37 -159 -77q-38 -12 -89.5 -12t-82.5 33t-31 77q0 8 1 16q-48 -59 -86 -81q-76 -45 -151 -45t-119 20.5t-75 58.5q-63 79 -63 218z M328 1055q0 -91 18.5 -132.5t59.5 -41.5q72 0 129 55l91 523q-27 16 -53 16q-122 0 -189 -137q-56 -114 -56 -283z" />
<glyph unicode="&#xab;" horiz-adv-x="1878" d="M194 530l22 160l732 406l58 -175l-460 -316l374 -311l-100 -152zM869 530l22 160l732 406l58 -175l-460 -316l374 -311l-100 -152z" />
<glyph unicode="&#xac;" horiz-adv-x="1370" d="M209 701l19 172h980l-62 -551h-217l43 379h-763z" />
<glyph unicode="&#xad;" horiz-adv-x="1286" d="M248 673l18 198h857l-18 -198h-857z" />
<glyph unicode="&#xae;" horiz-adv-x="1768" d="M158 806q0 107 28 206t78.5 185t121 156.5t156.5 120.5q181 105 391 105t391 -105q271 -157 357 -462q28 -99 28 -206q0 -211 -107 -392q-102 -175 -278 -277q-181 -105 -391 -105t-391 105q-174 101 -278 277q-106 181 -106 392zM297 806q0 -269 185 -458 q185 -190 451 -190q267 0 453 190q117 120 162 286q22 83 22 172q0 267 -184 458q-116 119 -282 166q-82 24 -171 24q-173 0 -323 -89q-142 -84 -227 -233q-86 -151 -86 -326zM562 375v74l83 20v665l-83 22v84h154l238 5q241 0 312 -137q22 -42 23 -88t-4.5 -85t-26.5 -75 q-47 -78 -183 -123q74 -42 128 -143l39 -74q19 -34 49 -55q24 -12 47 -12v-78h-210q-32 0 -58 54q-12 25 -25 58.5t-31 71.5q-47 95 -111 161h-69v-251l92 -20v-74h-364zM834 848q42 -8 96.5 -8t79.5 11.5t41 32.5q32 40 32 109q0 132 -156 132h-25q-23 0 -36 -3l-32 -7 v-267z" />
<glyph unicode="&#xaf;" horiz-adv-x="614" d="M11 1405v209h571v-209h-571z" />
<glyph unicode="&#xb0;" horiz-adv-x="957" d="M182 1273q0 150 104 250q102 98 257 98q146 0 247 -101q96 -96 96 -237q0 -151 -106 -251q-104 -98 -256 -98q-76 0 -138 27q-129 55 -180 183q-24 61 -24 129zM358 1256q0 -19 12.5 -52t36 -58.5t55 -40t69.5 -14.5t70.5 14t56.5 39q52 54 52 134v22t-13 51.5t-36 58.5 q-49 54 -124 54q-77 0 -128 -53t-51 -133v-22z" />
<glyph unicode="&#xb1;" horiz-adv-x="1330" d="M180 0l17 180h849l-17 -180h-849zM248 673l18 198h216l138 -11l13 165l27 230h218l-26 -230l-29 -164l115 10h225l-18 -198h-245l-112 7q-2 -42 -5 -82t-5 -82l-28 -241h-219l27 241l26 164l-141 -7h-195z" />
<glyph unicode="&#xb2;" horiz-adv-x="1163" d="M160 733q181 105 344 245q136 117 198 235q32 61 32 104t-11 70t-32 49q-47 48 -122 48t-152.5 -39.5t-137.5 -108.5l-80 114q52 71 169 138q137 79 255 79t191.5 -25.5t116.5 -67.5q75 -75 75 -198q0 -232 -276 -442q-89 -69 -205 -141l405 45l95 135l103 -29l-95 -307 h-828z" />
<glyph unicode="&#xb3;" horiz-adv-x="1071" d="M155 633l17 148q102 -51 255 -51q120 0 173.5 29.5t78.5 69.5t25 89t-13 71.5t-36 36.5q-43 25 -126 27l-174 -45l29 173q214 38 296 148q29 40 29 73.5t-9 49t-28 28.5q-41 29 -118 29q-126 0 -248 -94l-46 132q111 88 272 115q49 9 97 9q365 0 365 -239 q0 -153 -178 -236q-56 -25 -125 -45q157 0 233 -81q57 -62 57 -153t-49.5 -158.5t-127.5 -111.5q-154 -86 -369 -86q-101 0 -213 41q-38 13 -67 31z" />
<glyph unicode="&#xb4;" horiz-adv-x="559" d="M50 1312l317 431l192 -187q-29 -56 -172 -171q-154 -125 -234 -154z" />
<glyph unicode="&#xb5;" horiz-adv-x="1364" d="M41 -372l108 730q9 71 21 138l22 137q25 158 37 290q0 58 -43 58q-35 0 -74 -32l-30 79q9 8 30 30t58 46q92 59 219 59q130 0 168 -68q21 -37 1.5 -181.5t-30 -210.5t-17.5 -105t-13 -78q-12 -89 -12 -156t11.5 -102.5t29.5 -55.5q31 -36 74 -36t67.5 11t42.5 28.5 t33 38.5l29 40l119 867h326l-128 -928q-10 -76 40 -76q26 0 56 21l36 25l28 -73q-50 -84 -178 -128q-47 -16 -102 -16q-145 0 -145 113q0 12 2 25q-13 -12 -31.5 -35.5t-47.5 -46.5q-75 -56 -174 -56q-103 0 -172 43q-23 14 -35 33l-61 -428h-265z" />
<glyph unicode="&#xb6;" horiz-adv-x="1364" d="M60 1073q0 498 655 498q81 0 127 -3l76 -5q136 -9 223 -11h297l-11 -103l-167 -33q-18 -155 -39 -320l-86 -660q-21 -164 -39 -320l155 -30l-9 -86h-441l175 1414h-194l-177 -1414h-469l8 87l205 30l73 561q-150 0 -256 116q-106 115 -106 279z" />
<glyph unicode="&#xb7;" horiz-adv-x="716" d="M172 793q0 41 17 78t44 63q57 53 130 53q71 0 112 -49q36 -45 36 -104t-18 -96.5t-47 -62.5q-57 -49 -137 -49q-89 0 -126 97q-11 29 -11 70z" />
<glyph unicode="&#xb8;" horiz-adv-x="479" d="M-36 -456l35 153q30 -16 73 -16t75.5 8t57 26.5t39 50.5t16 65.5t1.5 77.5t-16 121l77 4l83 -4q35 -52 51 -194q4 -40 4 -74q0 -246 -298 -246q-82 0 -136 11t-62 17z" />
<glyph unicode="&#xb9;" horiz-adv-x="1020" d="M242 636l11 108l196 26l82 605l-221 -42l-12 113q62 19 125 48q223 106 281 151l119 -21l-119 -854l205 -27l-11 -107h-656z" />
<glyph unicode="&#xba;" horiz-adv-x="854" d="M58 1085q0 231 154 375q139 129 330 129q171 0 268 -101q93 -96 93 -236t-40.5 -233.5t-108 -157t-156 -96t-175.5 -32.5t-152.5 25t-112.5 71q-100 98 -100 256zM322 1073q0 -90 29.5 -157.5t73.5 -67.5t75.5 14.5t55 41t39 62t25.5 76.5q17 76 17 155t-7.5 128 t-21.5 83q-31 73 -87 73t-95 -37t-62 -92.5t-32.5 -122t-9.5 -156.5z" />
<glyph unicode="&#xbb;" horiz-adv-x="1878" d="M101 317l460 316l-374 311l100 152l626 -388l-22 -160l-732 -406zM777 317l460 316l-374 311l100 152l626 -388l-22 -160l-732 -406z" />
<glyph unicode="&#xbc;" horiz-adv-x="2560" d="M273 636l11 108l196 26l82 605l-221 -42l-12 113q62 19 125 48q223 106 281 151l119 -21l-119 -854l205 -27l-11 -107h-656zM784 0l681 1530h219l-681 -1530h-219zM1357 252l574 863l158 1l123 -104l-448 -573l-127 -134l328 11l33 232l247 23l-33 -246l189 7l-20 -175 h-192l-45 -331h-248l47 331h-549z" />
<glyph unicode="&#xbd;" horiz-adv-x="2560" d="M273 636l11 108l196 26l82 605l-221 -42l-12 113q62 19 125 48q223 106 281 151l119 -21l-119 -854l205 -27l-11 -107h-656zM784 0l681 1530h219l-681 -1530h-219zM1395 19q181 105 344 245q136 117 198 235q32 61 32 104t-11 70t-32 49q-47 48 -122 48t-152.5 -39.5 t-137.5 -108.5l-80 114q52 71 169 138q137 79 255 79t191.5 -25.5t116.5 -67.5q75 -75 75 -198q0 -232 -276 -442q-89 -69 -205 -141l405 45l95 135l103 -29l-95 -307h-828z" />
<glyph unicode="&#xbe;" horiz-adv-x="2575" d="M162 633l17 148q102 -51 255 -51q120 0 173.5 29.5t78.5 69.5t25 89t-13 71.5t-36 36.5q-43 25 -126 27l-174 -45l29 173q214 38 296 148q29 40 29 73.5t-9 49t-28 28.5q-41 29 -118 29q-126 0 -248 -94l-46 132q111 88 272 115q49 9 97 9q365 0 365 -239 q0 -153 -178 -236q-56 -25 -125 -45q157 0 233 -81q57 -62 57 -153t-49.5 -158.5t-127.5 -111.5q-154 -86 -369 -86q-101 0 -213 41q-38 13 -67 31zM784 0l681 1530h219l-681 -1530h-219zM1357 252l574 863l158 1l123 -104l-448 -573l-127 -134l328 11l33 232l247 23 l-33 -246l189 7l-20 -175h-192l-45 -331h-248l47 331h-549z" />
<glyph unicode="&#xbf;" horiz-adv-x="1013" d="M50 -15q0 235 183 376q52 40 107 77l107 72q115 80 163 186q27 59 28.5 104t-2.5 85l189 55l14 -1q50 -72 50 -152.5t-26.5 -137.5t-70.5 -105q-70 -77 -220 -165q-141 -73 -220 -158q-31 -66 -31 -123.5t21 -108.5t66 -90q96 -83 256 -83q95 0 211 58l-56 -220 q-46 -42 -184 -66q-40 -7 -73 -7q-268 0 -402 128q-110 106 -110 276zM511 1224q0 57 17 94t44 63q57 53 130 53q71 0 112 -50q36 -44 36 -103t-18 -96.5t-47 -62.5t-65 -37t-68 -12t-57 12t-43 34q-41 48 -41 105z" />
<glyph unicode="&#xc0;" horiz-adv-x="1375" d="M-164 0l8 106l138 29l685 1395h347l247 -1392l161 -32l-6 -106h-689l5 106l157 29l-40 281h-510l-125 -280l188 -30l-8 -106h-558zM406 567h422l-78 550l-9 199zM475 1829l187 185l276 -342l-116 -102q-81 29 -160 84q-147 102 -187 175z" />
<glyph unicode="&#xc1;" horiz-adv-x="1375" d="M-164 0l8 106l138 29l685 1395h347l247 -1392l161 -32l-6 -106h-689l5 106l157 29l-40 281h-510l-125 -280l188 -30l-8 -106h-558zM406 567h422l-78 550l-9 199zM715 1672l276 342l187 -185q-36 -69 -157 -154q-106 -75 -190 -105z" />
<glyph unicode="&#xc2;" horiz-adv-x="1375" d="M-164 0l8 106l138 29l685 1395h347l247 -1392l161 -32l-6 -106h-689l5 106l157 29l-40 281h-510l-125 -280l188 -30l-8 -106h-558zM406 567h422l-78 550l-9 199zM468 1657l367 357h178l210 -357l-124 -58l-201 207l-323 -206z" />
<glyph unicode="&#xc3;" horiz-adv-x="1375" d="M-164 0l8 106l138 29l685 1395h347l247 -1392l161 -32l-6 -106h-689l5 106l157 29l-40 281h-510l-125 -280l188 -30l-8 -106h-558zM406 567h422l-78 550l-9 199zM501 1801q31 65 106 116q77 53 133.5 53t85 -11t51.5 -28t42 -36l36 -36q41 -39 75.5 -39t56 9t39.5 23 q26 20 63 68l88 -131q-27 -68 -99 -123q-76 -58 -136 -58t-91.5 11t-54.5 27.5t-41.5 35.5t-37.5 36q-45 38 -104 39t-135 -80z" />
<glyph unicode="&#xc4;" horiz-adv-x="1375" d="M-164 0l8 106l138 29l685 1395h347l247 -1392l161 -32l-6 -106h-689l5 106l157 29l-40 281h-510l-125 -280l188 -30l-8 -106h-558zM406 567h422l-78 550l-9 199zM448 1816q0 72 45.5 120t119.5 48t109.5 -40t35.5 -111.5t-43 -121.5t-117 -50t-112 41.5t-38 113.5z M900 1818q2 72 46.5 119t118.5 47t109.5 -40t35.5 -111.5t-43 -121.5t-117 -50t-113 42.5t-37 114.5z" />
<glyph unicode="&#xc5;" horiz-adv-x="1375" d="M-164 0l8 106l138 29l678 1380q-153 53 -153 206q0 158 135 235q102 58 251 58q214 0 281 -125q22 -42 22 -98q0 -190 -182 -265l247 -1388l161 -32l-6 -106h-689l5 106l157 29l-40 281h-510l-125 -280l188 -30l-8 -106h-558zM406 567h422l-78 550l-9 199zM701 1744 q0 -77 87 -106q25 -8 50 -8q165 0 165 133q0 51 -41 85q-38 30 -80.5 30t-72 -6t-53.5 -21q-55 -34 -55 -107z" />
<glyph unicode="&#xc6;" horiz-adv-x="2084" d="M-163 0l8 106l157 30l771 1258l-336 26l15 110h1566l-36 -370h-212l-34 224l-349 26l-67 -529l444 24l-23 -218l-441 25l-78 -576l479 35l117 297l213 -14l-70 -454h-1290l14 106l190 30l35 280h-474l-154 -280l190 -30l-8 -106h-627zM519 567h410l105 827h-59z" />
<glyph unicode="&#xc7;" horiz-adv-x="1312" d="M60 653q0 198 63.5 367.5t179.5 287.5q238 241 646 241q193 0 303 -33q28 -9 56 -15l33 -9l-61 -400h-253l-40 310q-47 18 -110.5 18t-128 -33.5t-114 -90.5t-85.5 -132q-98 -207 -98 -478q0 -541 280 -541q93 0 140.5 23t68.5 44.5t32.5 44t21 49t18.5 55.5l16 58l201 1 l-43 -284q-144 -120 -366 -144q36 -113 36 -228q0 -246 -298 -246q-82 0 -136 11t-62 17l35 153q30 -16 73 -16t75.5 8t56.5 27q57 42 57 164q0 48 -8 103q-399 11 -533 333q-56 137 -56 335z" />
<glyph unicode="&#xc8;" horiz-adv-x="1329" d="M-46 0l14 106l160 30l164 1258l-145 26l11 110h1118l-36 -370h-222l-34 224l-339 26l-72 -529l444 24l-23 -218l-441 25l-78 -576l463 35l117 297l213 -14l-70 -454h-1244zM481 1829l187 185l276 -342l-116 -102q-81 29 -160 84q-147 102 -187 175z" />
<glyph unicode="&#xc9;" horiz-adv-x="1329" d="M-46 0l14 106l160 30l164 1258l-145 26l11 110h1118l-36 -370h-222l-34 224l-339 26l-72 -529l444 24l-23 -218l-441 25l-78 -576l463 35l117 297l213 -14l-70 -454h-1244zM721 1672l276 342l187 -185q-36 -69 -157 -154q-106 -75 -190 -105z" />
<glyph unicode="&#xca;" horiz-adv-x="1329" d="M-46 0l14 106l160 30l164 1258l-145 26l11 110h1118l-36 -370h-222l-34 224l-339 26l-72 -529l444 24l-23 -218l-441 25l-78 -576l463 35l117 297l213 -14l-70 -454h-1244zM474 1657l367 357h178l210 -357l-124 -58l-201 207l-323 -206z" />
<glyph unicode="&#xcb;" horiz-adv-x="1329" d="M-46 0l14 106l160 30l164 1258l-145 26l11 110h1118l-36 -370h-222l-34 224l-339 26l-72 -529l444 24l-23 -218l-441 25l-78 -576l463 35l117 297l213 -14l-70 -454h-1244zM454 1816q0 72 45.5 120t119.5 48t109.5 -40t35.5 -111.5t-43 -121.5t-117 -50t-112 41.5 t-38 113.5zM906 1818q2 72 46.5 119t118.5 47t109.5 -40t35.5 -111.5t-43 -121.5t-117 -50t-113 42.5t-37 114.5z" />
<glyph unicode="&#xcc;" horiz-adv-x="783" d="M-18 0l13 106l150 30l165 1258l-147 26l12 110h671l-12 -110l-172 -26l-165 -1258l175 -30l-7 -106h-683zM200 1829l187 185l276 -342l-116 -102q-81 29 -160 84q-147 102 -187 175z" />
<glyph unicode="&#xcd;" horiz-adv-x="783" d="M-18 0l13 106l150 30l165 1258l-147 26l12 110h671l-12 -110l-172 -26l-165 -1258l175 -30l-7 -106h-683zM440 1672l276 342l187 -185q-36 -69 -157 -154q-106 -75 -190 -105z" />
<glyph unicode="&#xce;" horiz-adv-x="783" d="M-18 0l13 106l150 30l165 1258l-147 26l12 110h671l-12 -110l-172 -26l-165 -1258l175 -30l-7 -106h-683zM193 1657l367 357h178l210 -357l-124 -58l-201 207l-323 -206z" />
<glyph unicode="&#xcf;" horiz-adv-x="783" d="M-18 0l13 106l150 30l165 1258l-147 26l12 110h671l-12 -110l-172 -26l-165 -1258l175 -30l-7 -106h-683zM173 1816q0 72 45.5 120t119.5 48t109.5 -40t35.5 -111.5t-43 -121.5t-117 -50t-112 41.5t-38 113.5zM625 1818q2 72 46.5 119t118.5 47t109.5 -40t35.5 -111.5 t-43 -121.5t-117 -50t-113 42.5t-37 114.5z" />
<glyph unicode="&#xd0;" horiz-adv-x="1506" d="M-44 2l12 106l158 30l75 564h-136l26 170h133l70 524l-144 26l11 110h317q85 1 176.5 8.5t180.5 7.5h7q335 0 500 -180q146 -159 146 -445q0 -670 -488 -868q-170 -69 -408 -69q-26 0 -59 4t-56 5.5t-49 2.5q-62 4 -104 4h-368zM477 138q66 -25 147 -25t154 34 t128.5 91.5t94.5 134.5t63 163q47 165 47 329.5t-18.5 266t-56.5 166.5q-73 124 -234 124q-114 0 -159 -26l-69 -524h296l-26 -170h-293z" />
<glyph unicode="&#xd1;" horiz-adv-x="1545" d="M-33 0l8 106l149 30l186 1258l-170 26l16 110h557l371 -995l78 -230l136 1089l-172 26l11 110h502l-11 -110l-123 -26l-212 -1394h-358l-391 1028l-78 254l-125 -1146l190 -30l-11 -106h-553zM611 1801q31 65 106 116q77 53 133.5 53t85 -11t51.5 -28t42 -36l36 -36 q41 -39 75.5 -39t56 9t39.5 23q26 20 63 68l88 -131q-27 -68 -99 -123q-76 -58 -136 -58t-91.5 11t-54.5 27.5t-41.5 35.5t-37.5 36q-45 38 -104 39t-135 -80z" />
<glyph unicode="&#xd2;" horiz-adv-x="1500" d="M55 624q0 128 21.5 241t65.5 214t110.5 187.5t156.5 149.5q191 134 456 134q302 0 461 -199q139 -175 139 -458q0 -374 -188 -626q-214 -287 -622 -287q-302 0 -457 188q-143 174 -143 456zM436 649q0 -547 248 -547q196 0 302 228q98 209 98 551q0 545 -246 545 q-187 0 -299 -243q-103 -224 -103 -534zM530 1829l187 185l276 -342l-116 -102q-81 29 -160 84q-147 102 -187 175z" />
<glyph unicode="&#xd3;" horiz-adv-x="1500" d="M55 624q0 128 21.5 241t65.5 214t110.5 187.5t156.5 149.5q191 134 456 134q302 0 461 -199q139 -175 139 -458q0 -374 -188 -626q-214 -287 -622 -287q-302 0 -457 188q-143 174 -143 456zM436 649q0 -547 248 -547q196 0 302 228q98 209 98 551q0 545 -246 545 q-187 0 -299 -243q-103 -224 -103 -534zM770 1672l276 342l187 -185q-36 -69 -157 -154q-106 -75 -190 -105z" />
<glyph unicode="&#xd4;" horiz-adv-x="1500" d="M55 624q0 128 21.5 241t65.5 214t110.5 187.5t156.5 149.5q191 134 456 134q302 0 461 -199q139 -175 139 -458q0 -374 -188 -626q-214 -287 -622 -287q-302 0 -457 188q-143 174 -143 456zM436 649q0 -547 248 -547q196 0 302 228q98 209 98 551q0 545 -246 545 q-187 0 -299 -243q-103 -224 -103 -534zM523 1657l367 357h178l210 -357l-124 -58l-201 207l-323 -206z" />
<glyph unicode="&#xd5;" horiz-adv-x="1500" d="M55 624q0 128 21.5 241t65.5 214t110.5 187.5t156.5 149.5q191 134 456 134q302 0 461 -199q139 -175 139 -458q0 -374 -188 -626q-214 -287 -622 -287q-302 0 -457 188q-143 174 -143 456zM436 649q0 -547 248 -547q196 0 302 228q98 209 98 551q0 545 -246 545 q-187 0 -299 -243q-103 -224 -103 -534zM556 1801q31 65 106 116q77 53 133.5 53t85 -11t51.5 -28t42 -36l36 -36q41 -39 75.5 -39t56 9t39.5 23q26 20 63 68l88 -131q-27 -68 -99 -123q-76 -58 -136 -58t-91.5 11t-54.5 27.5t-41.5 35.5t-37.5 36q-45 38 -104 39t-135 -80z " />
<glyph unicode="&#xd6;" horiz-adv-x="1500" d="M55 624q0 128 21.5 241t65.5 214t110.5 187.5t156.5 149.5q191 134 456 134q302 0 461 -199q139 -175 139 -458q0 -374 -188 -626q-214 -287 -622 -287q-302 0 -457 188q-143 174 -143 456zM436 649q0 -547 248 -547q196 0 302 228q98 209 98 551q0 545 -246 545 q-187 0 -299 -243q-103 -224 -103 -534zM503 1816q0 72 45.5 120t119.5 48t109.5 -40t35.5 -111.5t-43 -121.5t-117 -50t-112 41.5t-38 113.5zM955 1818q2 72 46.5 119t118.5 47t109.5 -40t35.5 -111.5t-43 -121.5t-117 -50t-113 42.5t-37 114.5z" />
<glyph unicode="&#xd7;" horiz-adv-x="1370" d="M203 440l382 326l-301 327l163 152l281 -350l368 349l129 -154l-382 -326l301 -327l-163 -152l-281 350l-368 -349z" />
<glyph unicode="&#xd8;" horiz-adv-x="1499" d="M55 639q0 373 197 629q138 179 360 248q114 36 267.5 36t281.5 -65l130 183l89 -49l-134 -189q219 -177 219 -537q0 -374 -188 -626q-135 -181 -361 -251q-116 -36 -284.5 -36t-303.5 78l-129 -182l-89 49l136 193q-191 174 -191 519zM436 651q0 -161 18 -262l563 915 q-60 124 -179 124q-187 0 -299 -243q-103 -224 -103 -534zM489 257q60 -153 195 -153q196 0 302 228q98 209 98 551q0 177 -25 296z" />
<glyph unicode="&#xd9;" horiz-adv-x="1447" d="M91 1420l13 110h704l-10 -109l-197 -27l-97 -771q-17 -148 -17 -210t14.5 -120.5t44.5 -100.5q63 -88 186 -88q254 0 343 308q28 96 44 214l104 768l-168 27l11 109h484l-15 -109l-129 -27l-97 -767q-45 -347 -204 -500q-153 -147 -435 -147q-295 0 -429 130 q-62 61 -87.5 143t-25.5 148q0 129 7 192l100 801zM606 1829l187 185l276 -342l-116 -102q-81 29 -160 84q-147 102 -187 175z" />
<glyph unicode="&#xda;" horiz-adv-x="1447" d="M91 1420l13 110h704l-10 -109l-197 -27l-97 -771q-17 -148 -17 -210t14.5 -120.5t44.5 -100.5q63 -88 186 -88q254 0 343 308q28 96 44 214l104 768l-168 27l11 109h484l-15 -109l-129 -27l-97 -767q-45 -347 -204 -500q-153 -147 -435 -147q-295 0 -429 130 q-62 61 -87.5 143t-25.5 148q0 129 7 192l100 801zM846 1672l276 342l187 -185q-36 -69 -157 -154q-106 -75 -190 -105z" />
<glyph unicode="&#xdb;" horiz-adv-x="1447" d="M91 1420l13 110h704l-10 -109l-197 -27l-97 -771q-17 -148 -17 -210t14.5 -120.5t44.5 -100.5q63 -88 186 -88q254 0 343 308q28 96 44 214l104 768l-168 27l11 109h484l-15 -109l-129 -27l-97 -767q-45 -347 -204 -500q-153 -147 -435 -147q-295 0 -429 130 q-62 61 -87.5 143t-25.5 148q0 129 7 192l100 801zM599 1657l367 357h178l210 -357l-124 -58l-201 207l-323 -206z" />
<glyph unicode="&#xdc;" horiz-adv-x="1447" d="M91 1420l13 110h704l-10 -109l-197 -27l-97 -771q-17 -148 -17 -210t14.5 -120.5t44.5 -100.5q63 -88 186 -88q254 0 343 308q28 96 44 214l104 768l-168 27l11 109h484l-15 -109l-129 -27l-97 -767q-45 -347 -204 -500q-153 -147 -435 -147q-295 0 -429 130 q-62 61 -87.5 143t-25.5 148q0 129 7 192l100 801zM579 1816q0 72 45.5 120t119.5 48t109.5 -40t35.5 -111.5t-43 -121.5t-117 -50t-112 41.5t-38 113.5zM1031 1818q2 72 46.5 119t118.5 47t109.5 -40t35.5 -111.5t-43 -121.5t-117 -50t-113 42.5t-37 114.5z" />
<glyph unicode="&#xdd;" horiz-adv-x="1281" d="M19 1420l12 110h684l-17 -110l-181 -26l172 -486l53 -123l354 609l-164 26l10 110h533l-15 -110l-130 -26l-515 -789l-61 -469l245 -30l-10 -106h-828l12 106l230 30l58 469l-331 789zM698 1672l276 342l187 -185q-36 -69 -157 -154q-106 -75 -190 -105z" />
<glyph unicode="&#xde;" horiz-adv-x="1290" d="M-22 0l11 106l138 30l160 1258l-145 26l14 110h675l-12 -110l-180 -26l-25 -193q123 8 230.5 8t199.5 -28t144 -74q95 -83 95 -247q0 -118 -34 -189.5t-80.5 -121t-121 -86.5t-180 -59t-218.5 -22t-139 3l-31 -249l174 -30l-8 -106h-667zM527 519q18 -1 35 -1l75 1 q224 0 295 183q21 57 21 134q0 247 -227 247q-69 0 -128 -11z" />
<glyph unicode="&#xdf;" horiz-adv-x="1193" d="M7 0l113 927q71 508 401 621q108 37 226.5 37t192 -20t130.5 -59q124 -84 124 -223q0 -184 -154 -277l-74 -47q-79 -53 -79 -118q0 -41 56 -117l44 -58q25 -31 55 -64.5t56 -72.5q60 -90 60 -181.5t-30.5 -158t-86.5 -111.5q-115 -94 -309 -94q-195 0 -289 47l26 187 q40 -60 131 -92q29 -10 59 -10t59.5 5t51.5 22q49 37 49 142q0 79 -61 185l-31 53q-70 95 -99 201q-10 36 -10 70.5t8 62t22 51.5q23 36 81 95q135 137 135 284q0 122 -77 163q-26 14 -69 14t-86.5 -32t-79.5 -103q-69 -140 -105 -462l-107 -867h-333z" />
<glyph unicode="&#xe0;" horiz-adv-x="1215" d="M60 402q0 311 174 526q118 148 304 206q95 29 208.5 29t237.5 -43l152 43l-129 -936q-9 -76 39 -76q34 0 93 46l28 -73q-53 -82 -173 -126q-48 -18 -114.5 -18t-113.5 32t-49 94q-126 -126 -304 -126t-271 124q-82 112 -82 298zM321 1566l203 177l288 -432l-105 -70 q-111 47 -276 199q-80 73 -110 126zM406 426q0 -137 39.5 -204.5t106 -67.5t128.5 55l110 808q-33 6 -81 6t-95 -26.5t-82 -72t-59 -106t-39 -128.5q-28 -127 -28 -264z" />
<glyph unicode="&#xe1;" horiz-adv-x="1215" d="M60 402q0 311 174 526q118 148 304 206q95 29 208.5 29t237.5 -43l152 43l-129 -936q-9 -76 39 -76q34 0 93 46l28 -73q-53 -82 -173 -126q-48 -18 -114.5 -18t-113.5 32t-49 94q-126 -126 -304 -126t-271 124q-82 112 -82 298zM406 426q0 -137 39.5 -204.5t106 -67.5 t128.5 55l110 808q-33 6 -81 6t-95 -26.5t-82 -72t-59 -106t-39 -128.5q-28 -127 -28 -264zM649 1312l317 431l192 -187q-29 -56 -172 -171q-154 -125 -234 -154z" />
<glyph unicode="&#xe2;" horiz-adv-x="1215" d="M60 402q0 311 174 526q118 148 304 206q95 29 208.5 29t237.5 -43l152 43l-129 -936q-9 -76 39 -76q34 0 93 46l28 -73q-53 -82 -173 -126q-48 -18 -114.5 -18t-113.5 32t-49 94q-126 -126 -304 -126t-271 124q-82 112 -82 298zM394 1296l367 374h178l210 -374l-124 -58 l-201 194l-323 -193zM406 426q0 -137 39.5 -204.5t106 -67.5t128.5 55l110 808q-33 6 -81 6t-95 -26.5t-82 -72t-59 -106t-39 -128.5q-28 -127 -28 -264z" />
<glyph unicode="&#xe3;" horiz-adv-x="1215" d="M60 402q0 311 174 526q118 148 304 206q95 29 208.5 29t237.5 -43l152 43l-129 -936q-9 -76 39 -76q34 0 93 46l28 -73q-53 -82 -173 -126q-48 -18 -114.5 -18t-113.5 32t-49 94q-126 -126 -304 -126t-271 124q-82 112 -82 298zM385 1511q31 65 106 116q77 53 133.5 53 t85 -11t51.5 -28t42 -36l36 -36q41 -39 75.5 -39t56 9t39.5 23q26 20 63 68l88 -131q-27 -68 -99 -123q-76 -58 -136 -58t-91.5 11t-54.5 27.5t-41.5 35.5t-37.5 36q-45 38 -104 39t-135 -80zM406 426q0 -137 39.5 -204.5t106 -67.5t128.5 55l110 808q-33 6 -81 6t-95 -26.5 t-82 -72t-59 -106t-39 -128.5q-28 -127 -28 -264z" />
<glyph unicode="&#xe4;" horiz-adv-x="1215" d="M60 402q0 311 174 526q118 148 304 206q95 29 208.5 29t237.5 -43l152 43l-129 -936q-9 -76 39 -76q34 0 93 46l28 -73q-53 -82 -173 -126q-48 -18 -114.5 -18t-113.5 32t-49 94q-126 -126 -304 -126t-271 124q-82 112 -82 298zM395 1487q0 15 0.5 37t12 57.5t34.5 62.5 q48 57 129 57q68 0 111 -51q39 -44 39 -105q0 -144 -101 -191q-34 -16 -73 -16t-65 14q-54 30 -77 92q-10 28 -10 43zM406 426q0 -137 39.5 -204.5t106 -67.5t128.5 55l110 808q-33 6 -81 6t-95 -26.5t-82 -72t-59 -106t-39 -128.5q-28 -127 -28 -264zM860 1582 q23 72 88 104q33 15 72 15t67 -14q86 -43 86 -142q0 -144 -101 -191q-34 -16 -73 -16t-65.5 14.5t-45.5 37.5q-65 78 -28 192z" />
<glyph unicode="&#xe5;" horiz-adv-x="1215" d="M60 402q0 311 174 526q118 148 304 206q95 29 208.5 29t237.5 -43l152 43l-129 -936q-9 -76 39 -76q34 0 93 46l28 -73q-53 -82 -173 -126q-48 -18 -114.5 -18t-113.5 32t-49 94q-126 -126 -304 -126t-271 124q-82 112 -82 298zM406 426q0 -137 39.5 -204.5t106 -67.5 t128.5 55l110 808q-33 6 -81 6t-95 -26.5t-82 -72t-59 -106t-39 -128.5q-28 -127 -28 -264zM459 1497q0 206 217 279q82 28 158.5 28t132 -16t95.5 -46q86 -65 86 -175q0 -149 -122 -237q-107 -77 -260 -77q-69 0 -126 16t-98 47q-83 64 -83 181zM653 1520q0 -52 43 -88 q42 -36 83 -36q81 0 128.5 32t47.5 97.5t-40.5 102t-82 36.5t-71 -7.5t-53.5 -24.5q-55 -37 -55 -112z" />
<glyph unicode="&#xe6;" horiz-adv-x="1710" d="M60 392q0 307 198 531q133 151 335 210q103 30 206.5 30t218.5 -30l89 30l-8 -63q126 63 273 63q240 0 307 -151q22 -51 22 -119t-26 -131t-74 -113t-111.5 -86.5t-133.5 -59.5q-138 -46 -274 -48q0 -156 50 -226t137 -70q178 0 298 156l64 -103q-93 -145 -296 -208 q-78 -24 -169.5 -24t-158 20.5t-115.5 56.5q-93 69 -132 189q-117 -176 -266 -241q-57 -25 -136 -25t-139.5 35t-96.5 93q-62 101 -62 284zM406 426.5q0 -52.5 4 -94t13.5 -75t26.5 -55.5t43.5 -22t53.5 13.5t53 34.5q46 39 97 108l104 687q-127 -2 -223 -101 q-125 -130 -162 -372q-10 -71 -10 -123.5zM1082 575q106 7 196 84q102 88 102 227t-82 139q-187 0 -216 -450z" />
<glyph unicode="&#xe7;" horiz-adv-x="944" d="M61 444q0 100 16 181t50.5 160.5t88 148.5t126.5 120q157 109 365 109q161 0 256 -38l-93 -322q-21 6 -55 45l-56 63q-84 95 -124.5 95t-82.5 -40q-92 -86 -132 -284q-18 -88 -18 -147.5t1 -106.5t12 -102t33 -90q41 -67 129 -67q156 0 254 128l64 -103 q-65 -104 -205 -164q-51 -23 -112 -36q38 -104 38 -232q0 -246 -298 -246q-82 0 -136 11t-62 17l35 153q30 -16 73 -16t75.5 8t56.5 27q57 42 57 164q0 47 -8 102q-247 18 -322 274q-26 88 -26 188z" />
<glyph unicode="&#xe8;" horiz-adv-x="1048" d="M61 430v6q0 313 187 520q185 207 462 207q240 0 307 -151q22 -51 22 -119t-26 -131t-74 -113t-111.5 -86.5t-133.5 -59.5q-138 -46 -274 -48q0 -156 50 -226t137 -70q178 0 298 156l64 -103q-93 -145 -296 -208q-78 -24 -166 -24t-151.5 17.5t-112.5 48.5t-83 73.5 t-56 92.5q-43 98 -43 218zM263 1566l203 177l288 -432l-105 -70q-111 47 -276 199q-80 73 -110 126zM420 575q106 7 196 84q102 88 102 227t-82 139q-187 0 -216 -450z" />
<glyph unicode="&#xe9;" horiz-adv-x="1048" d="M61 430v6q0 313 187 520q185 207 462 207q240 0 307 -151q22 -51 22 -119t-26 -131t-74 -113t-111.5 -86.5t-133.5 -59.5q-138 -46 -274 -48q0 -156 50 -226t137 -70q178 0 298 156l64 -103q-93 -145 -296 -208q-78 -24 -166 -24t-151.5 17.5t-112.5 48.5t-83 73.5 t-56 92.5q-43 98 -43 218zM420 575q106 7 196 84q102 88 102 227t-82 139q-187 0 -216 -450zM591 1312l317 431l192 -187q-29 -56 -172 -171q-154 -125 -234 -154z" />
<glyph unicode="&#xea;" horiz-adv-x="1048" d="M61 430v6q0 313 187 520q185 207 462 207q240 0 307 -151q22 -51 22 -119t-26 -131t-74 -113t-111.5 -86.5t-133.5 -59.5q-138 -46 -274 -48q0 -156 50 -226t137 -70q178 0 298 156l64 -103q-93 -145 -296 -208q-78 -24 -166 -24t-151.5 17.5t-112.5 48.5t-83 73.5 t-56 92.5q-43 98 -43 218zM336 1296l367 374h178l210 -374l-124 -58l-201 194l-323 -193zM420 575q106 7 196 84q102 88 102 227t-82 139q-187 0 -216 -450z" />
<glyph unicode="&#xeb;" horiz-adv-x="1048" d="M61 430v6q0 313 187 520q185 207 462 207q240 0 307 -151q22 -51 22 -119t-26 -131t-74 -113t-111.5 -86.5t-133.5 -59.5q-138 -46 -274 -48q0 -156 50 -226t137 -70q178 0 298 156l64 -103q-93 -145 -296 -208q-78 -24 -166 -24t-151.5 17.5t-112.5 48.5t-83 73.5 t-56 92.5q-43 98 -43 218zM337 1487q0 15 0.5 37t12 57.5t34.5 62.5q48 57 129 57q68 0 111 -51q39 -44 39 -105q0 -144 -101 -191q-34 -16 -73 -16t-65 14q-54 30 -77 92q-10 28 -10 43zM420 575q106 7 196 84q102 88 102 227t-82 139q-187 0 -216 -450zM802 1582 q23 72 88 104q33 15 72 15t67 -14q86 -43 86 -142q0 -144 -101 -191q-34 -16 -73 -16t-65.5 14.5t-45.5 37.5q-65 78 -28 192z" />
<glyph unicode="&#xec;" horiz-adv-x="669" d="M-26 1566l203 177l288 -432l-105 -70q-111 47 -276 199q-80 73 -110 126zM57 1031l18 81l446 51l55 -24l-128 -912q-2 -15 -2 -27q0 -49 37 -49q30 0 92 46l28 -73q-118 -144 -296 -144q-107 0 -154 38t-47 90q0 10 5.5 45.5t16.5 121.5l93 705z" />
<glyph unicode="&#xed;" horiz-adv-x="669" d="M57 1031l18 81l446 51l55 -24l-128 -912q-2 -15 -2 -27q0 -49 37 -49q30 0 92 46l28 -73q-118 -144 -296 -144q-107 0 -154 38t-47 90q0 10 5.5 45.5t16.5 121.5l93 705zM301 1312l317 431l192 -187q-29 -56 -172 -171q-154 -125 -234 -154z" />
<glyph unicode="&#xee;" horiz-adv-x="669" d="M47 1296l367 374h178l210 -374l-124 -58l-201 194l-323 -193zM57 1031l18 81l446 51l55 -24l-128 -912q-2 -15 -2 -27q0 -49 37 -49q30 0 92 46l28 -73q-118 -144 -296 -144q-107 0 -154 38t-47 90q0 10 5.5 45.5t16.5 121.5l93 705z" />
<glyph unicode="&#xef;" horiz-adv-x="669" d="M47 1487q0 15 0.5 37t12 57.5t34.5 62.5q48 57 129 57q68 0 111 -51q39 -44 39 -105q0 -144 -101 -191q-34 -16 -73 -16t-65 14q-54 30 -77 92q-10 28 -10 43zM57 1031l18 81l446 51l55 -24l-128 -912q-2 -15 -2 -27q0 -49 37 -49q30 0 92 46l28 -73q-118 -144 -296 -144 q-107 0 -154 38t-47 90q0 10 5.5 45.5t16.5 121.5l93 705zM512 1582q23 72 88 104q33 15 72 15t67 -14q86 -43 86 -142q0 -144 -101 -191q-34 -16 -73 -16t-65.5 14.5t-45.5 37.5q-65 78 -28 192z" />
<glyph unicode="&#xf0;" horiz-adv-x="1157" d="M44 445q0 168 42 288.5t116 204.5q153 172 398 172q132 0 180 -29v18.5t-6 49t-21 75.5q-33 91 -93 174l-133 -153l-116 98l146 161q-121 104 -206 131l55 159q145 -41 293 -141l97 117q25 30 47 59l113 -101l-144 -167q232 -224 292 -557q19 -102 19 -241.5t-43.5 -290 t-125.5 -260.5q-176 -232 -474 -232q-209 0 -329 157q-107 140 -107 308zM381 400q0 -293 128 -293q97 0 168 131q67 123 91 342q3 22 6 50q10 77 10 100t-1.5 44t-7.5 48t-18 54.5t-31 49.5q-44 48 -100.5 48t-89 -26.5t-58 -70.5t-44 -102.5t-30.5 -122.5 q-23 -121 -23 -252z" />
<glyph unicode="&#xf1;" horiz-adv-x="1308" d="M83 0l131 962l-107 60l16 89l374 52l52 -24l-16 -210q148 234 375 234q265 0 265 -302q0 -55 -21 -184l-28 -172q-6 -38 -13.5 -79t-13.5 -81q-15 -89 -15 -141.5t39 -52.5q29 0 90 46l28 -73q-62 -85 -180 -126q-53 -19 -120.5 -19t-107.5 16t-61 41q-34 39 -34 114 q0 41 11 103l50 279q30 169 30 227t-0.5 82.5t-5.5 51.5t-14 43q-18 29 -53.5 29t-68 -19.5t-64.5 -53.5q-66 -67 -115 -171l-99 -721h-324zM381 1511q31 65 106 116q77 53 133.5 53t85 -11t51.5 -28t42 -36l36 -36q41 -39 75.5 -39t56 9t39.5 23q26 20 63 68l88 -131 q-27 -68 -99 -123q-76 -58 -136 -58t-91.5 11t-54.5 27.5t-41.5 35.5t-37.5 36q-45 38 -104 39t-135 -80z" />
<glyph unicode="&#xf2;" horiz-adv-x="1197" d="M61 468q0 284 161 480q110 136 280 188q86 27 188 27t184 -31t138 -90q119 -126 119 -368q0 -284 -161 -480q-112 -135 -282 -188q-85 -26 -187.5 -26t-183.5 31q-256 98 -256 457zM260 1566l203 177l288 -432l-105 -70q-111 47 -276 199q-80 73 -110 126zM417 478 q0 -296 74 -352q24 -19 64 -19t74 26.5t59.5 71t42.5 104.5q42 147 42 350q0 294 -71 349q-22 17 -59 17t-72.5 -26t-62 -70.5t-44.5 -103.5q-47 -153 -47 -347z" />
<glyph unicode="&#xf3;" horiz-adv-x="1197" d="M61 468q0 284 161 480q110 136 280 188q86 27 188 27t184 -31t138 -90q119 -126 119 -368q0 -284 -161 -480q-112 -135 -282 -188q-85 -26 -187.5 -26t-183.5 31q-256 98 -256 457zM417 478q0 -296 74 -352q24 -19 64 -19t74 26.5t59.5 71t42.5 104.5q42 147 42 350 q0 294 -71 349q-22 17 -59 17t-72.5 -26t-62 -70.5t-44.5 -103.5q-47 -153 -47 -347zM588 1312l317 431l192 -187q-29 -56 -172 -171q-154 -125 -234 -154z" />
<glyph unicode="&#xf4;" horiz-adv-x="1197" d="M61 468q0 284 161 480q110 136 280 188q86 27 188 27t184 -31t138 -90q119 -126 119 -368q0 -284 -161 -480q-112 -135 -282 -188q-85 -26 -187.5 -26t-183.5 31q-256 98 -256 457zM333 1296l367 374h178l210 -374l-124 -58l-201 194l-323 -193zM417 478q0 -296 74 -352 q24 -19 64 -19t74 26.5t59.5 71t42.5 104.5q42 147 42 350q0 294 -71 349q-22 17 -59 17t-72.5 -26t-62 -70.5t-44.5 -103.5q-47 -153 -47 -347z" />
<glyph unicode="&#xf5;" horiz-adv-x="1197" d="M61 468q0 284 161 480q110 136 280 188q86 27 188 27t184 -31t138 -90q119 -126 119 -368q0 -284 -161 -480q-112 -135 -282 -188q-85 -26 -187.5 -26t-183.5 31q-256 98 -256 457zM324 1511q31 65 106 116q77 53 133.5 53t85 -11t51.5 -28t42 -36l36 -36 q41 -39 75.5 -39t56 9t39.5 23q26 20 63 68l88 -131q-27 -68 -99 -123q-76 -58 -136 -58t-91.5 11t-54.5 27.5t-41.5 35.5t-37.5 36q-45 38 -104 39t-135 -80zM417 478q0 -296 74 -352q24 -19 64 -19t74 26.5t59.5 71t42.5 104.5q42 147 42 350q0 294 -71 349q-22 17 -59 17 t-72.5 -26t-62 -70.5t-44.5 -103.5q-47 -153 -47 -347z" />
<glyph unicode="&#xf6;" horiz-adv-x="1197" d="M61 468q0 284 161 480q110 136 280 188q86 27 188 27t184 -31t138 -90q119 -126 119 -368q0 -284 -161 -480q-112 -135 -282 -188q-85 -26 -187.5 -26t-183.5 31q-256 98 -256 457zM334 1487q0 15 0.5 37t12 57.5t34.5 62.5q48 57 129 57q68 0 111 -51q39 -44 39 -105 q0 -144 -101 -191q-34 -16 -73 -16t-65 14q-54 30 -77 92q-10 28 -10 43zM417 478q0 -296 74 -352q24 -19 64 -19t74 26.5t59.5 71t42.5 104.5q42 147 42 350q0 294 -71 349q-22 17 -59 17t-72.5 -26t-62 -70.5t-44.5 -103.5q-47 -153 -47 -347zM799 1582q23 72 88 104 q33 15 72 15t67 -14q86 -43 86 -142q0 -144 -101 -191q-34 -16 -73 -16t-65.5 14.5t-45.5 37.5q-65 78 -28 192z" />
<glyph unicode="&#xf7;" horiz-adv-x="1370" d="M244 674l18 197h939l-18 -197h-939zM496 316q0 41 17 78t45 63q56 53 129 53q71 0 111 -50q37 -44 37 -103t-18 -96.5t-47 -62.5q-57 -49 -137 -49q-89 0 -126 97q-11 29 -11 70zM609 1186q0 57 17 94t44 63q57 53 130 53q71 0 112 -50q36 -44 36 -103t-18 -96.5 t-47 -62.5t-65 -37t-68 -12t-57 12t-43 34q-41 48 -41 105z" />
<glyph unicode="&#xf8;" horiz-adv-x="1197" d="M62 470q0 284 160 480q111 136 282 188q85 27 195.5 27t202.5 -43l129 181l89 -49l-132 -187q144 -127 144 -391q0 -284 -161 -480q-177 -214 -481 -214q-114 0 -208 46l-114 -160l-89 49l120 168q-137 125 -137 385zM418 527.5q0 -69.5 0.5 -85.5t1 -26t0.5 -21l330 528 q-28 104 -98 104q-162 0 -216 -325q-18 -105 -18 -174.5zM438 236q14 -67 41 -97t72 -30q83 0 139 97q84 147 84 455q0 24 -1 48l-2 57z" />
<glyph unicode="&#xf9;" horiz-adv-x="1276" d="M78 1042l16 89l403 32l52 -24l-69 -550q-37 -263 -37 -321q0 -120 95 -120q107 0 194 99l124 908h326l-128 -928q-10 -76 40 -76q24 0 48 16l44 30l28 -73q-55 -82 -172 -126q-48 -18 -108 -18q-107 0 -146.5 40.5t-39.5 92.5q0 15 3 30l-4 3q-66 -74 -121 -105 q-106 -61 -226 -61q-183 0 -262 134q-29 49 -29.5 102.5t3.5 97t10 91t14 96.5l68 461zM269 1566l203 177l288 -432l-105 -70q-111 47 -276 199q-80 73 -110 126z" />
<glyph unicode="&#xfa;" horiz-adv-x="1276" d="M78 1042l16 89l403 32l52 -24l-69 -550q-37 -263 -37 -321q0 -120 95 -120q107 0 194 99l124 908h326l-128 -928q-10 -76 40 -76q24 0 48 16l44 30l28 -73q-55 -82 -172 -126q-48 -18 -108 -18q-107 0 -146.5 40.5t-39.5 92.5q0 15 3 30l-4 3q-66 -74 -121 -105 q-106 -61 -226 -61q-183 0 -262 134q-29 49 -29.5 102.5t3.5 97t10 91t14 96.5l68 461zM597 1312l317 431l192 -187q-29 -56 -172 -171q-154 -125 -234 -154z" />
<glyph unicode="&#xfb;" horiz-adv-x="1276" d="M78 1042l16 89l403 32l52 -24l-69 -550q-37 -263 -37 -321q0 -120 95 -120q107 0 194 99l124 908h326l-128 -928q-10 -76 40 -76q24 0 48 16l44 30l28 -73q-55 -82 -172 -126q-48 -18 -108 -18q-107 0 -146.5 40.5t-39.5 92.5q0 15 3 30l-4 3q-66 -74 -121 -105 q-106 -61 -226 -61q-183 0 -262 134q-29 49 -29.5 102.5t3.5 97t10 91t14 96.5l68 461zM342 1296l367 374h178l210 -374l-124 -58l-201 194l-323 -193z" />
<glyph unicode="&#xfc;" horiz-adv-x="1276" d="M78 1042l16 89l403 32l52 -24l-69 -550q-37 -263 -37 -321q0 -120 95 -120q107 0 194 99l124 908h326l-128 -928q-10 -76 40 -76q24 0 48 16l44 30l28 -73q-55 -82 -172 -126q-48 -18 -108 -18q-107 0 -146.5 40.5t-39.5 92.5q0 15 3 30l-4 3q-66 -74 -121 -105 q-106 -61 -226 -61q-183 0 -262 134q-29 49 -29.5 102.5t3.5 97t10 91t14 96.5l68 461zM343 1487q0 15 0.5 37t12 57.5t34.5 62.5q48 57 129 57q68 0 111 -51q39 -44 39 -105q0 -144 -101 -191q-34 -16 -73 -16t-65 14q-54 30 -77 92q-10 28 -10 43zM808 1582q23 72 88 104 q33 15 72 15t67 -14q86 -43 86 -142q0 -144 -101 -191q-34 -16 -73 -16t-65.5 14.5t-45.5 37.5q-65 78 -28 192z" />
<glyph unicode="&#xfd;" horiz-adv-x="1084" d="M-116 -473l51 215q59 -49 185 -80q44 -11 89 -11t84.5 14.5t76.5 47.5q69 61 153 216h-191l-210 996q-7 31 -16.5 43.5t-36 12.5t-65.5 -34l-29 81q25 35 75 68q103 67 195 67q172 0 198 -137q38 -198 71 -394l64 -393l18 -159l61 124q134 274 134 533q0 75 -13 127 q-23 98 -23 144t10 71t30 44q42 40 106 40t97 -16.5t52 -45.5q36 -53 36 -138t-20 -168.5t-52 -170.5q-53 -145 -124 -284l-226 -438l-42 -74q-18 -33 -35 -60l-35 -54q-77 -108 -140 -151q-120 -81 -260 -81q-117 0 -228 32q-27 7 -40 13zM488 1312l317 431l192 -187 q-29 -56 -172 -171q-154 -125 -234 -154z" />
<glyph unicode="&#xfe;" horiz-adv-x="1191" d="M-11 -520l71 500l187 1504l-103 43l21 84l361 39l54 -27l-74 -564q124 104 281 104q256 0 323 -249q21 -81 21 -211.5t-47 -267t-136 -237.5q-189 -218 -499 -218q-35 0 -86 7l-13 -129l-47 -378h-314zM385 128q36 -9 106 -9t130 52.5t97 138.5q72 164 72 419 q0 177 -80 238q-27 21 -70 21q-80 0 -155 -89z" />
<glyph unicode="&#xff;" horiz-adv-x="1084" d="M-116 -473l51 215q59 -49 185 -80q44 -11 89 -11t84.5 14.5t76.5 47.5q69 61 153 216h-191l-210 996q-7 31 -16.5 43.5t-36 12.5t-65.5 -34l-29 81q25 35 75 68q103 67 195 67q172 0 198 -137q38 -198 71 -394l64 -393l18 -159l61 124q134 274 134 533q0 75 -13 127 q-23 98 -23 144t10 71t30 44q42 40 106 40t97 -16.5t52 -45.5q36 -53 36 -138t-20 -168.5t-52 -170.5q-53 -145 -124 -284l-226 -438l-42 -74q-18 -33 -35 -60l-35 -54q-77 -108 -140 -151q-120 -81 -260 -81q-117 0 -228 32q-27 7 -40 13zM234 1487q0 15 0.5 37t12 57.5 t34.5 62.5q48 57 129 57q68 0 111 -51q39 -44 39 -105q0 -144 -101 -191q-34 -16 -73 -16t-65 14q-54 30 -77 92q-10 28 -10 43zM699 1582q23 72 88 104q33 15 72 15t67 -14q86 -43 86 -142q0 -144 -101 -191q-34 -16 -73 -16t-65.5 14.5t-45.5 37.5q-65 78 -28 192z" />
<glyph unicode="&#x152;" horiz-adv-x="2340" d="M55 637q0 374 192 629q134 179 356 248q113 36 252 36q306 0 431 -218l25 198h963l-36 -370h-212l-34 224l-349 26l-67 -529l444 24l-23 -218l-441 25l-78 -576l479 35l117 297l213 -14l-70 -454h-1097l20 165q-183 -185 -495 -185q-301 0 -452 188q-138 173 -138 469z M426 649q0 -547 248 -547q196 0 302 228q98 209 98 551q0 545 -246 545q-187 0 -299 -243q-103 -224 -103 -534z" />
<glyph unicode="&#x153;" horiz-adv-x="1744" d="M60 449q0 105 16 188.5t52.5 164t91 147t126.5 113.5q151 101 358 101t315 -135q168 135 387 135q243 0 308 -151q21 -51 21 -120t-25.5 -131t-73.5 -112t-111.5 -86.5t-133.5 -59.5q-140 -46 -275 -48q0 -156 50 -226t137 -70q178 0 298 156l64 -103q-93 -145 -296 -208 q-78 -24 -174 -24q-209 0 -322 120q-160 -120 -373 -120q-316 0 -406 264q-34 100 -34 205zM417 474q0 -286 69 -346q24 -21 63.5 -21t74.5 24.5t61 67.5q51 84 72 230v1v31q0 60 15 138v66t-3.5 118t-16.5 127q-29 115 -102 115q-124 0 -186 -203q-47 -148 -47 -348z M1116 575q106 7 196 84q102 88 102 227t-82 139q-187 0 -216 -450z" />
<glyph unicode="&#x178;" horiz-adv-x="1281" d="M19 1420l12 110h684l-17 -110l-181 -26l172 -486l53 -123l354 609l-164 26l10 110h533l-15 -110l-130 -26l-515 -789l-61 -469l245 -30l-10 -106h-828l12 106l230 30l58 469l-331 789zM431 1816q0 72 45.5 120t119.5 48t109.5 -40t35.5 -111.5t-43 -121.5t-117 -50 t-112 41.5t-38 113.5zM883 1818q2 72 46.5 119t118.5 47t109.5 -40t35.5 -111.5t-43 -121.5t-117 -50t-113 42.5t-37 114.5z" />
<glyph unicode="&#x2c6;" horiz-adv-x="795" d="M50 1296l367 374h178l210 -374l-124 -58l-201 194l-323 -193z" />
<glyph unicode="&#x2dc;" horiz-adv-x="816" d="M20 1511q31 65 106 116q77 53 133.5 53t85 -11t51.5 -28t42 -36l36 -36q41 -39 75.5 -39t56 9t39.5 23q26 20 63 68l88 -131q-27 -68 -99 -123q-76 -58 -136 -58t-91.5 11t-54.5 27.5t-41.5 35.5t-37.5 36q-45 38 -104 39t-135 -80z" />
<glyph unicode="&#x2000;" horiz-adv-x="1007" />
<glyph unicode="&#x2001;" horiz-adv-x="2014" />
<glyph unicode="&#x2002;" horiz-adv-x="1007" />
<glyph unicode="&#x2003;" horiz-adv-x="2014" />
<glyph unicode="&#x2004;" horiz-adv-x="671" />
<glyph unicode="&#x2005;" horiz-adv-x="503" />
<glyph unicode="&#x2006;" horiz-adv-x="335" />
<glyph unicode="&#x2007;" horiz-adv-x="335" />
<glyph unicode="&#x2008;" horiz-adv-x="251" />
<glyph unicode="&#x2009;" horiz-adv-x="402" />
<glyph unicode="&#x200a;" horiz-adv-x="111" />
<glyph unicode="&#x2010;" horiz-adv-x="1286" d="M248 673l18 198h857l-18 -198h-857z" />
<glyph unicode="&#x2011;" horiz-adv-x="1286" d="M248 673l18 198h857l-18 -198h-857z" />
<glyph unicode="&#x2012;" horiz-adv-x="1286" d="M248 673l18 198h857l-18 -198h-857z" />
<glyph unicode="&#x2013;" horiz-adv-x="1548" d="M248 674l40 197h1097l-40 -197h-1097z" />
<glyph unicode="&#x2014;" horiz-adv-x="2036" d="M248 674l34 197h1591l-35 -197h-1590z" />
<glyph unicode="&#x2018;" horiz-adv-x="702" d="M182 1234.5q0 61.5 17 121t47 111t69 95t84 78.5q82 64 184 107l66 -106l-2 -22q-79 -26 -140 -121q-61 -94 -61 -179q0 -161 100 -171l-5 -41l-166 -190q-143 37 -181 205q-12 51 -12 112.5z" />
<glyph unicode="&#x2019;" horiz-adv-x="702" d="M206 1016l2 22q79 26 140 121q61 94 61 179q0 161 -100 171l5 41l166 190q143 -37 181 -205q12 -51 12 -112.5t-17 -121t-47 -111t-69 -95t-84 -78.5q-82 -64 -184 -107z" />
<glyph unicode="&#x201a;" horiz-adv-x="682" d="M49 -423l2 22q79 26 140 121q61 94 61 179q0 161 -100 171l5 41l166 190q143 -37 181 -205q12 -51 12 -112.5t-17 -121t-47 -111t-69 -95t-84 -78.5q-82 -64 -184 -107z" />
<glyph unicode="&#x201c;" horiz-adv-x="1181" d="M185 1234.5q0 61.5 17 121t47 111t69 95t84 78.5q82 64 184 107l66 -106l-2 -22q-79 -26 -140 -121q-61 -94 -61 -179q0 -161 100 -171l-5 -41l-166 -190q-143 37 -181 205q-12 51 -12 112.5zM684 1234.5q0 61.5 17 121t47 111t69 95t84 78.5q82 64 184 107l66 -106 l-2 -22q-79 -26 -140 -121q-61 -94 -61 -179q0 -161 100 -171l-5 -41l-166 -190q-143 37 -181 205q-12 51 -12 112.5z" />
<glyph unicode="&#x201d;" horiz-adv-x="1181" d="M223 1016l2 22q79 26 140 121q61 94 61 179q0 161 -100 171l5 41l166 190q143 -37 181 -205q12 -51 12 -112.5t-17 -121t-47 -111t-69 -95t-84 -78.5q-82 -64 -184 -107zM722 1016l2 22q79 26 140 121q61 94 61 179q0 161 -100 171l5 41l166 190q143 -37 181 -205 q12 -51 12 -112.5t-17 -121t-47 -111t-69 -95t-84 -78.5q-82 -64 -184 -107z" />
<glyph unicode="&#x201e;" horiz-adv-x="1181" d="M32 -423l2 22q79 26 140 121q61 94 61 179q0 161 -100 171l5 41l166 190q143 -37 181 -205q12 -51 12 -112.5t-17 -121t-47 -111t-69 -95t-84 -78.5q-82 -64 -184 -107zM511 -423l2 22q79 26 140 121q61 94 61 179q0 161 -100 171l5 41l166 190q143 -37 181 -205 q12 -51 12 -112.5t-17 -121t-47 -111t-69 -95t-84 -78.5q-82 -64 -184 -107z" />
<glyph unicode="&#x2022;" horiz-adv-x="858" d="M162 683q0 121 78 211q86 98 225 98q95 0 162.5 -65.5t67.5 -158.5q0 -126 -71 -213q-36 -45 -93.5 -73t-121.5 -28t-105.5 19t-73.5 51q-68 68 -68 159z" />
<glyph unicode="&#x2026;" horiz-adv-x="1578" d="M36 147q0 41 17 78t45 63q56 53 129 53q71 0 111 -49q37 -45 37 -104t-18 -96.5t-47 -62.5q-57 -49 -137 -49q-89 0 -126 97q-11 29 -11 70zM562 147q0 41 17 78t45 63q56 53 129 53q71 0 111 -49q37 -45 37 -104t-18 -96.5t-47 -62.5q-57 -49 -137 -49q-89 0 -126 97 q-11 29 -11 70zM1088 147q0 41 17 78t45 63q56 53 129 53q71 0 111 -49q37 -45 37 -104t-18 -96.5t-47 -62.5q-57 -49 -137 -49q-89 0 -126 97q-11 29 -11 70z" />
<glyph unicode="&#x202f;" horiz-adv-x="402" />
<glyph unicode="&#x2039;" horiz-adv-x="1190" d="M212 530l22 160l732 406l58 -175l-460 -316l374 -311l-100 -152z" />
<glyph unicode="&#x203a;" horiz-adv-x="1190" d="M97 317l460 316l-374 311l100 152l626 -388l-22 -160l-732 -406z" />
<glyph unicode="&#x205f;" horiz-adv-x="503" />
<glyph unicode="&#x20ac;" horiz-adv-x="1388" d="M38 544l17 151h180q4 116 23 209h-148l19 150h168q87 244 281 374q178 118 413 118q143 0 257 -36l57 -18q9 -3 23.5 -5.5t29.5 -5.5l30 -5q13 -3 19 -4l-66 -352h-134l-20 208q-87 78 -240 78q-164 0 -264 -204q-32 -66 -55 -148h427l-18 -150h-440q-16 -98 -20 -209 h403l-13 -151h-390q10 -198 72.5 -297.5t163.5 -99.5q124 0 183 47q17 14 32 31l72 188l140 -1l-50 -342q-111 -7 -178 -31.5t-101 -33.5q-79 -21 -185.5 -21t-198 41t-152.5 115q-117 142 -136 404h-201z" />
<glyph unicode="&#x2122;" horiz-adv-x="2213" d="M111 1255l52 275h723l-32 -273l-83 -5l-9 149l-162 16l-85 -598l130 -16l-11 -89h-434l11 89l126 15l85 597l-167 -15l-59 -144zM848 714l11 89l107 15l112 593l-99 9l12 110h363l97 -466l30 -132l256 598h352l-12 -110l-97 -9l-21 -592l96 -16l-11 -89h-373l11 89l96 16 l20 372l19 223l-329 -708h-132l-173 711l-106 -599l93 -15l-11 -89h-311z" />
<glyph unicode="&#x25fc;" horiz-adv-x="1165" d="M0 0v1165h1165v-1165h-1165z" />
</font>
</defs>
</svg>
