<?xml version="1.0" standalone="no"?>
<!DOCTYPE svg PUBLIC "-//W3C//DTD SVG 1.1//EN" "http://www.w3.org/Graphics/SVG/1.1/DTD/svg11.dtd" >
<svg xmlns="http://www.w3.org/2000/svg" xmlns:xlink="http://www.w3.org/1999/xlink" version="1.1">
<metadata></metadata>
<defs>
<font id="merriweatheritalic" horiz-adv-x="0" >
<font-face units-per-em="2048" ascent="1638" descent="-410" />
<missing-glyph horiz-adv-x="485" />
<glyph unicode="&#xfb01;" horiz-adv-x="1346" d="M-205 -500l53 168q95 -38 165 -38q86 0 119 243l138 1139h-139l15 75l149 62l12 71q29 183 155 318q124 132 264 132q100 0 158 -26l-59 -168l-23 16q-50 32 -104 32t-84 -21t-52 -58q-43 -70 -60 -202l-11 -88h235l-16 -143h-237l-134 -1071q-26 -202 -131 -327 q-106 -127 -270 -127q-92 0 -143 13zM845 1031l18 81l302 51l49 -24l-139 -952q-3 -19 -3 -33q0 -43 25 -43q37 0 107 67l32 -53q-50 -78 -159 -127q-41 -18 -86 -18q-124 0 -124 114q0 68 33 274l93 612zM1022 1503q0 60 49 105q46 43 85 43t62 -9q70 -29 70 -101 q0 -61 -47 -109q-45 -44 -102 -44q-26 0 -48 10q-69 30 -69 105z" />
<glyph unicode="&#xfb02;" horiz-adv-x="1311" d="M-205 -500l53 168q95 -38 165 -38q86 0 119 243l138 1139h-139l15 75l149 62l12 71q29 183 155 318q124 132 264 132q100 0 158 -26l-59 -168l-23 16q-50 32 -104 32t-84 -21t-52 -58q-43 -70 -60 -202l-11 -88h235l-16 -143h-237l-134 -1071q-26 -202 -131 -327 q-106 -127 -270 -127q-92 0 -143 13zM847 115q0 39 6 77l184 1290l-123 43l21 83l262 42l48 -27l-202 -1436q-11 -76 21 -76q37 0 108 66l31 -52q-20 -36 -67 -72q-97 -73 -165.5 -73t-96 31t-27.5 104z" />
<glyph unicode="&#xfb03;" horiz-adv-x="2051" d="M-205 -500l53 168q95 -38 165 -38q86 0 119 243l138 1139h-139l15 75l149 62l12 71q29 183 155 318q124 132 264 132q100 0 158 -26l-59 -168l-23 16q-50 32 -104 32t-84 -21t-52 -58q-43 -70 -60 -202l-11 -88h235l-16 -143h-237l-134 -1071q-26 -202 -131 -327 q-106 -127 -270 -127q-92 0 -143 13zM500 -500l53 168q95 -38 165 -38q86 0 119 243l138 1139h-139l15 75l149 62l12 71q29 183 155 318q124 132 264 132q100 0 158 -26l-59 -168l-23 16q-50 32 -104 32t-84 -21t-52 -58q-43 -70 -60 -202l-11 -88h235l-16 -143h-237 l-134 -1071q-26 -202 -131 -327q-106 -127 -270 -127q-92 0 -143 13zM1550 1031l18 81l302 51l49 -24l-139 -952q-3 -19 -3 -33q0 -43 25 -43q37 0 107 67l32 -53q-50 -78 -159 -127q-41 -18 -86 -18q-124 0 -124 114q0 68 33 274l93 612zM1727 1503q0 60 49 105 q46 43 85 43t62 -9q70 -29 70 -101q0 -61 -47 -109q-45 -44 -102 -44q-26 0 -48 10q-69 30 -69 105z" />
<glyph unicode="&#xfb04;" horiz-adv-x="2016" d="M-205 -500l53 168q95 -38 165 -38q86 0 119 243l138 1139h-139l15 75l149 62l12 71q29 183 155 318q124 132 264 132q100 0 158 -26l-59 -168l-23 16q-50 32 -104 32t-84 -21t-52 -58q-43 -70 -60 -202l-11 -88h235l-16 -143h-237l-134 -1071q-26 -202 -131 -327 q-106 -127 -270 -127q-92 0 -143 13zM500 -500l53 168q95 -38 165 -38q86 0 119 243l138 1139h-139l15 75l149 62l12 71q29 183 155 318q124 132 264 132q100 0 158 -26l-59 -168l-23 16q-50 32 -104 32t-84 -21t-52 -58q-43 -70 -60 -202l-11 -88h235l-16 -143h-237 l-134 -1071q-26 -202 -131 -327q-106 -127 -270 -127q-92 0 -143 13zM1552 115q0 39 6 77l184 1290l-123 43l21 83l262 42l48 -27l-202 -1436q-11 -76 21 -76q37 0 108 66l31 -52q-20 -36 -67 -72q-97 -73 -165.5 -73t-96 31t-27.5 104z" />
<glyph />
<glyph horiz-adv-x="682" />
<glyph />
<glyph />
<glyph />
<glyph />
<glyph />
<glyph />
<glyph />
<glyph />
<glyph unicode="&#x9;" />
<glyph unicode="&#xa;" />
<glyph />
<glyph />
<glyph />
<glyph />
<glyph />
<glyph />
<glyph />
<glyph />
<glyph />
<glyph />
<glyph />
<glyph />
<glyph unicode=" "  horiz-adv-x="485" />
<glyph unicode="&#x09;" horiz-adv-x="485" />
<glyph unicode="&#xa0;" horiz-adv-x="485" />
<glyph unicode="!" horiz-adv-x="686" d="M137 94.5q0 29.5 17 61.5t39 52q48 42 93.5 42t69.5 -10q61 -25 61 -97q0 -75 -60 -125q-48 -40 -92 -40t-65.5 8.5t-36.5 24.5t-20.5 35t-5.5 48.5zM255 488l136 1290h245l-243 -1290h-138z" />
<glyph unicode="&#x22;" horiz-adv-x="1003" d="M253 966l77 721h227l-164 -721h-140zM732 966l77 721h227l-164 -721h-140z" />
<glyph unicode="#" horiz-adv-x="1405" d="M111 365l8 128h226l64 405h-220l8 127h232l53 332h165l-51 -332h311l56 332h165l-54 -332h232l-8 -127h-244l-65 -405h227l-8 -128h-239l-57 -365h-160l51 365h-312l-62 -365h-162l58 365h-214zM511 493h312l64 405h-311z" />
<glyph unicode="$" horiz-adv-x="1205" d="M109 65l45 278h126l22 -184q92 -77 248 -77q111 0 197 64q111 81 111 218q0 141 -162 250l-224 148q-219 148 -219 359q0 175 123 293q117 111 297 132l30 183h181l-31 -185q172 -17 262 -79l-47 -245h-116l-36 164q-52 39 -155 54q-31 5 -64.5 5t-78.5 -13t-84 -42 q-100 -76 -100 -215q0 -142 168 -257q51 -34 108 -70l118 -76q216 -144 216 -341q0 -187 -131 -309q-122 -114 -315 -137l-35 -213h-180l34 211q-160 15 -264 59q-29 13 -44 25z" />
<glyph unicode="%" horiz-adv-x="1911" d="M200 1055q0 164 117 292q122 133 296 133q277 0 277 -295q0 -173 -112 -302q-53 -62 -129.5 -100t-158 -38t-133.5 23.5t-87 65.5q-70 84 -70 221zM371 1057q0 -150 75 -194q26 -15 71.5 -15t84 34t62.5 84q46 97 46 211q0 201 -125 201q-103 0 -164 -114 q-50 -93 -50 -207zM395 0l947 1530h159l-947 -1530h-159zM1036 380q0 73 31 149.5t86 136.5q122 133 296 133q277 0 277 -295q0 -173 -112 -302q-119 -138 -300 -138q-134 0 -208 89q-70 84 -70 227zM1207 376q0 -150 75 -194q26 -15 71.5 -15t84 34t62.5 85q46 96 46 210 q0 201 -125 201q-103 0 -164 -113q-50 -94 -50 -208z" />
<glyph unicode="&#x26;" horiz-adv-x="1534" d="M49 368q0 198 217 335q64 40 133 77q-89 208 -89 371q0 178 132 289q128 109 321 109q172 0 257 -89q70 -72 70 -190q0 -158 -157 -285q-85 -69 -178 -120l-151 -84q192 -341 416 -537q64 96 64 298q0 78 -23 142l-40 1q-73 0 -149 -38v134q49 49 155 49q28 0 57 -4 l61 -8q79 -12 124 -12t76.5 8t55.5 27q50 39 63 127h76q-4 -314 -225 -314q-28 0 -56 4q6 -32 6 -72q0 -252 -161 -411q44 -33 91 -56q88 -33 176 -35l-11 -85q-84 -19 -177 -19q-132 0 -239 83q-166 -80 -380 -80q-211 0 -353 91q-162 103 -162 294zM253 360.5 q0 -61.5 27.5 -114.5t73.5 -87q88 -66 228 -66q177 0 285 38q-199 184 -335 412l-83 140q-95 -70 -131 -122.5t-50.5 -95.5t-14.5 -104.5zM490 1177q0 -161 71 -314q157 82 218 143t88 116.5t27 126.5q0 197 -157 197q-113 0 -181 -78q-66 -75 -66 -191z" />
<glyph unicode="'" horiz-adv-x="524" d="M243 966l77 721h227l-164 -721h-140z" />
<glyph unicode="(" horiz-adv-x="854" d="M203 492.5q0 115.5 17 245.5t63 258t105.5 236.5t126.5 196.5t128 153q116 124 184 159l87 -59q-102 -68 -238 -278q-183 -280 -245 -631q-20 -155 -20 -263t14 -203.5t36.5 -176t51 -145t57.5 -113.5q52 -88 98 -127l-108 -64h-17q-103 75 -198 239q-84 145 -122 350 q-20 107 -20 222.5z" />
<glyph unicode=")" horiz-adv-x="854" d="M-39 -254q102 68 238 278q183 280 245 631q20 155 20 263t-14 203.5t-36.5 176t-51 145t-57.5 113.5q-52 88 -98 127l108 64h17q103 -75 198 -239q84 -145 122 -350q20 -107 20 -222.5t-17 -245.5t-63 -258t-105.5 -236.5t-126.5 -196.5t-128 -153q-116 -124 -184 -159z " />
<glyph unicode="*" horiz-adv-x="1366" d="M278 982l323 130l114 38l-106 38l-297 130l115 166l245 -203l80 -76l-11 114l-7 334l192 -1l-77 -333l-34 -114l96 76l290 204l77 -167l-323 -130l-114 -39l106 -37l297 -130l-115 -166l-245 203l-81 78l11 -116l7 -334l-192 1l77 333l34 116l-95 -78l-290 -204z" />
<glyph unicode="+" horiz-adv-x="1366" d="M252 693l18 158h226l138 -11l13 165l27 230h178l-26 -230l-29 -164l115 10h255l-18 -158h-255l-112 7q-2 -42 -5 -82t-5 -82l-28 -241h-179l27 241l26 164l-141 -7h-225z" />
<glyph unicode="," horiz-adv-x="526" d="M-38 -432l3 21q81 36 147 133q64 96 64 190q0 67 -24 104q-44 64 -87 62l7 54l114 133q192 -47 192 -269q0 -165 -106 -301q-102 -133 -267 -196z" />
<glyph unicode="-" horiz-adv-x="1266" d="M232 693l18 158h837l-18 -158h-837z" />
<glyph unicode="." horiz-adv-x="526" d="M86 94.5q0 29.5 17 61.5t39 52q48 42 93.5 42t70.5 -10q60 -25 60 -97q0 -75 -60 -125q-48 -40 -92 -40t-65.5 8.5t-36.5 24.5t-20.5 35t-5.5 48.5z" />
<glyph unicode="/" horiz-adv-x="854" d="M-132 -362l861 1959h174l-863 -1959h-172z" />
<glyph unicode="0" horiz-adv-x="1278" d="M113 450q0 301 187 507q117 129 278 180q80 25 166 25q431 0 431 -465q0 -141 -47 -270t-131 -227.5t-198.5 -157t-241 -58.5t-209.5 37.5t-135 100.5q-100 123 -100 328zM340 457q0 -66 13 -133t41 -118q61 -110 177 -112q20 -3 50 -3t75.5 17.5t87 60t72.5 101.5 t52 127q40 134 40 249t-13 183.5t-41 118.5q-60 105 -182 105q-135 0 -225 -99q-147 -161 -147 -497z" />
<glyph unicode="1" horiz-adv-x="930" d="M111 0l10 87l198 25l111 804q-136 -33 -251 -52l-14 96q149 34 326 144l90 58l84 -20l-144 -1029l213 -26l-10 -87h-613z" />
<glyph unicode="2" horiz-adv-x="1249" d="M78 79q220 109 334.5 188t184 139t119.5 122q106 133 106 252.5t-55.5 182.5t-161.5 63q-132 0 -280 -100q-39 -27 -67 -51l-53 89q119 126 315 179q71 19 159.5 19t159 -28t115.5 -74q89 -91 89 -234q0 -245 -359 -501q-145 -103 -338 -200l564 38l96 148l101 -36 l-79 -275h-933z" />
<glyph unicode="3" horiz-adv-x="1104" d="M44 -315l14 114q74 -10 150 -10t168 23t163 68q158 102 158 269q0 252 -278 256l-142 -34l15 117q157 31 281 115q146 98 146 239q0 181 -193 181q-129 0 -253 -79q-36 -23 -69 -47l-43 101q107 102 303 148q71 16 143 16t131 -16.5t104 -50.5q100 -74 100 -214 q0 -129 -115 -244q-103 -103 -253 -155q177 0 271 -92q83 -81 83 -214q0 -146 -110 -267q-153 -168 -439 -220q-88 -16 -149 -16q-94 0 -186 12z" />
<glyph unicode="4" horiz-adv-x="1264" d="M26 94l176 272l170 276l172 292l184 322h107l82 -89l-617 -948l-79 -99l476 28l58 443l193 58l-63 -490l251 15l-21 -174h-250l-47 -375h-189l49 375h-616z" />
<glyph unicode="5" horiz-adv-x="1116" d="M46 -329l13 90q35 -6 113 -6t184 30t188 85q182 120 182 300q0 223 -157 276q-48 17 -128.5 17t-239.5 -53l-48 38l171 698h537l22 16h168l-58 -185h-536l-116 -426q104 29 206.5 29t176.5 -25t126 -75q107 -103 107 -292q0 -142 -121 -269q-114 -119 -296 -192 q-180 -73 -364 -73q-79 0 -130 17z" />
<glyph unicode="6" horiz-adv-x="1268" d="M142 469q0 363 244 681q154 201 378 326q112 61 235 95l29 -85q-219 -83 -384 -255q-155 -163 -227 -366q131 110 341 110q180 0 276 -115q83 -101 83 -259q0 -231 -154 -420q-164 -201 -408 -201q-199 0 -309 142q-104 133 -104 347zM349 468q0 -92 12 -157.5t41 -114.5 q65 -108 199 -108q199 0 277 258q30 102 30 191.5t-15.5 145.5t-42.5 93q-54 76 -134.5 76t-136 -19t-95.5 -45q-53 -37 -108 -105q-27 -123 -27 -215z" />
<glyph unicode="7" horiz-adv-x="1096" d="M65 817l70 329h892l32 -43l-603 -1423l-208 66l608 1261l-567 -12l-96 -182z" />
<glyph unicode="8" horiz-adv-x="1270" d="M123 333q0 275 377 474q-202 163 -202 351q0 189 133 294q124 98 333 98q165 0 268 -86q106 -87 106 -237q0 -240 -337 -430q270 -187 270 -409q0 -189 -160 -304q-146 -104 -356 -104q-173 0 -293 84q-139 97 -139 269zM335.5 367q-0.5 -62 16.5 -114t50 -89 q68 -78 183 -78q121 0 201 76q82 78 82 198q0 197 -282 384q-168 -82 -230 -258q-20 -57 -20.5 -119zM488 1184q0 -136 134 -253q40 -35 86 -68q164 74 216 237q17 53 17 113t-15.5 105t-42.5 74q-54 59 -141 59q-106 0 -180 -77q-74 -78 -74 -190z" />
<glyph unicode="9" horiz-adv-x="1247" d="M122 550q0 221 154 408q102 125 249 178q75 26 169 26t171 -37.5t129 -102.5q104 -128 104 -336q0 -249 -113 -485q-166 -348 -510 -537q-111 -61 -234 -95l-29 86q214 80 382 255q155 162 230 367q-126 -111 -342 -111q-182 0 -278 119q-82 102 -82 265zM332 604 q0 -149 58 -235q54 -80 154 -80q56 0 110.5 18.5t95.5 45.5q60 40 114 106q27 110 27 211t-12 164t-41 112q-66 108 -199 108q-152 0 -237 -158q-70 -130 -70 -292z" />
<glyph unicode=":" horiz-adv-x="526" d="M67 94.5q0 29.5 17 61.5t39 52q48 42 93.5 42t70.5 -10q60 -25 60 -97q0 -75 -60 -125q-48 -40 -92 -40t-65.5 8.5t-36.5 24.5t-20.5 35t-5.5 48.5zM159 903.5q0 29.5 17 61.5t39 52q48 42 93.5 42t70.5 -10q60 -25 60 -97q0 -75 -60 -125q-48 -40 -92 -40t-65.5 8.5 t-36.5 24.5t-20.5 35t-5.5 48.5z" />
<glyph unicode=";" horiz-adv-x="526" d="M-38 -432l3 21q81 36 147 133q64 96 64 190q0 67 -24 104q-44 64 -87 62l7 54l114 133q192 -47 192 -269q0 -165 -106 -301q-102 -133 -267 -196zM161 903.5q0 29.5 17 61.5t39 52q48 42 93.5 42t70.5 -10q60 -25 60 -97q0 -75 -60 -125q-48 -40 -92 -40t-65.5 8.5 t-36.5 24.5t-20.5 35t-5.5 48.5z" />
<glyph unicode="&#x3c;" horiz-adv-x="1368" d="M195 686l16 128l1009 510l-24 -194l-796 -379l708 -378l-23 -197z" />
<glyph unicode="=" horiz-adv-x="1063" d="M80 339l18 157h815l-18 -157h-815zM150 848l18 157h815l-18 -157h-815z" />
<glyph unicode="&#x3e;" horiz-adv-x="1368" d="M250 179l24 194l796 379l-708 378l23 197l890 -510l-16 -128z" />
<glyph unicode="?" horiz-adv-x="1020" d="M280 725.5q0 41.5 22 80.5t60 75q61 58 153 110l137 75q163 87 191 151q9 40 9 99.5t-28 124t-78 111.5q-104 101 -259 101q-107 0 -176 -33l28 140q35 35 142 49q31 4 61 4q255 0 378 -131q103 -109 103 -290q0 -241 -177 -371q-51 -37 -104 -67l-102 -56 q-111 -59 -154 -124q-24 -36 -24 -74.5t5.5 -63.5t12.5 -48l14 -42q7 -20 10 -33l-127 -50l-17 1q-56 53 -74 182q-6 38 -6 79.5zM313 94.5q0 29.5 17 61.5t39 52q48 42 93.5 42t69.5 -10q61 -25 61 -97q0 -75 -60 -125q-48 -40 -92 -40t-65.5 8.5t-36.5 24.5t-20.5 35 t-5.5 48.5z" />
<glyph unicode="@" horiz-adv-x="1969" d="M120 327.5q0 187.5 39 347.5t109.5 294.5t169.5 241.5t219 181q248 153 542 153q306 0 486 -168q183 -171 183 -468q0 -263 -100 -479q-88 -190 -235 -303q-139 -106 -277 -106q-84 0 -88 121q-2 38 -2 78q0 86 28 207q-121 -284 -274 -385q-55 -35 -108 -35t-104 25 q-108 54 -154 210q-22 75 -22 129t0.5 95t15.5 118t44.5 150t73 138t102.5 114q129 106 304 106q84 0 141.5 -19.5t78.5 -34.5l165 30q-45 -171 -73 -382q-41 -301 -41 -373l6 -120q0 -28 14 -28q82 0 166 103q126 155 171 409q15 81 15 176.5t-23.5 180.5t-65.5 149 t-99 108t-124 71q-125 52 -276 52t-266 -39.5t-208 -109.5t-164.5 -165t-119.5 -207q-97 -226 -97 -451t44 -358t126 -216q156 -159 458 -159q142 0 292 41q42 11 68 23l31 -85q-156 -116 -416 -116q-548 0 -703 425q-52 143 -52 330.5zM710 447q0 -277 136 -277 q64 0 156 130q133 187 208 443q23 76 31 136q-36 64 -137 83q-27 5 -72.5 5t-98 -22.5t-91 -61t-64 -90t-40.5 -109.5q-28 -108 -28 -237z" />
<glyph unicode="A" horiz-adv-x="1342" d="M-130 0l9 86l118 29l709 1415h199l253 -1412l156 -32l-7 -86h-508l5 86l156 29l-50 321h-572l-150 -320l159 -30l-6 -86h-471zM395 557h497l-106 689l-11 118z" />
<glyph unicode="B" horiz-adv-x="1290" d="M30 0l9 86l148 30l161 1290l-133 23l12 101h248q68 2 136.5 8.5t164 6.5t178.5 -28t137 -73q107 -91 107 -234q0 -301 -297 -400q125 -18 205 -104q84 -92 84 -223.5t-53 -226t-146 -154.5q-178 -116 -471 -116l-255 14h-235zM385 128q45 -21 178 -21q416 0 416 349 q0 140 -71 204.5t-222 64.5q-120 0 -228 -7zM475 852q31 -2 68 -2l107 1q158 0 252 81q100 87 100 254q0 184 -158 227q-55 15 -100.5 15t-66 -0.5t-43.5 -1.5q-47 -2 -89 -9z" />
<glyph unicode="C" horiz-adv-x="1222" d="M93 622.5q0 154.5 24.5 269.5t73.5 217t117 183t151 138q171 116 370 116q189 0 355 -46l38 -11l-66 -367h-117l-23 260q-43 33 -104 39.5t-132 6.5t-146 -37t-131 -99t-95 -142q-106 -219 -106 -488q0 -231 80 -386q91 -175 259 -175q133 0 221 57q31 19 46 47l68 197 l121 -1l-40 -331q-26 -8 -69 -22.5t-101 -28.5t-130 -24.5t-159 -10.5t-159.5 26t-129 71.5t-96.5 107.5t-67 133q-53 146 -53 300.5z" />
<glyph unicode="D" horiz-adv-x="1431" d="M29 0l9 86l148 30l162 1290l-133 23l12 101h296q66 1 131 8.5t135 7.5q292 0 439 -173q138 -164 138 -471q0 -391 -210 -652q-142 -175 -350 -238q-95 -28 -201 -28q-27 0 -44 1l-62 4q-15 1 -29.5 2t-39.5 3t-53 3l-55 2q-27 1 -48 1h-245zM386 132q49 -18 138 -24.5 t113 -6.5q181 13 308 138q218 214 218 652q0 294 -105 421q-99 118 -328 118q-114 0 -185 -19z" />
<glyph unicode="E" horiz-adv-x="1229" d="M28 0l10 86l149 29l160 1291l-133 23l12 101h927l-7 -310h-106l-48 188l-441 14l-72 -568l447 7l-12 -156l-447 16l-83 -605l551 24l119 207l104 -31l-89 -316h-1041z" />
<glyph unicode="F" horiz-adv-x="1162" d="M30 0l8 87l149 29l160 1290l-133 23l12 101h970l-23 -310h-121l-29 182l-476 19l-68 -567l470 8l-12 -158l-470 17l-82 -603l269 -31l-8 -87h-616z" />
<glyph unicode="G" horiz-adv-x="1342" d="M102 623q0 154 24.5 269t73.5 217t117 183t151 138q171 116 370 116q212 0 401 -56l38 -11l-57 -296h-127l-22 181q-74 64 -257 64q-179 0 -302 -136q-105 -115 -159 -310q-43 -155 -43 -320q0 -230 83 -386q94 -175 267 -175q201 0 292 94l57 395l-234 17l13 116h442 l-90 -629q-29 -3 -58 -12l-154 -46q-180 -52 -342 -52q-74 0 -145 26t-126 71.5t-94.5 107.5t-65.5 133q-53 147 -53 301z" />
<glyph unicode="H" horiz-adv-x="1533" d="M30 0l9 86l148 30l161 1290l-133 23l12 101h483l-11 -101l-153 -23l-71 -562h655l70 562l-150 23l10 101h487l-12 -101l-138 -23l-160 -1289l151 -31l-9 -86h-510l8 87l163 30l74 597h-655l-74 -598l157 -29l-8 -87h-504z" />
<glyph unicode="I" horiz-adv-x="706" d="M30 0l9 86l148 30l161 1290l-133 23l12 101h483l-11 -101l-153 -23l-161 -1290l157 -29l-8 -87h-504z" />
<glyph unicode="J" horiz-adv-x="731" d="M-150 -257q128 36 234 142q100 98 123 201q52 236 81.5 525t45 461t34.5 335l-141 22l14 101h484l-11 -101l-155 -21q-103 -964 -125.5 -1130.5t-34.5 -202.5q-59 -188 -213 -299q-127 -91 -301 -121z" />
<glyph unicode="K" horiz-adv-x="1361" d="M30 0l9 86l148 30l161 1290l-133 23l12 101h483l-11 -101l-153 -23l-90 -718l611 718l-117 23l12 101h433l-11 -101l-123 -22l-527 -579l242 -405q138 -249 201 -285l130 -45l-14 -93h-271q-34 5 -107 136l-257 482l-44 79l-182 -199l-47 -382l157 -29l-8 -87h-504z" />
<glyph unicode="L" horiz-adv-x="1178" d="M31 0l8 87l148 29l161 1290l-133 23l12 101h518l-11 -101l-188 -23l-161 -1290l468 11l136 327l117 -23l-96 -431h-979z" />
<glyph unicode="M" horiz-adv-x="1870" d="M-53 0l10 87l160 29l317 1290l-160 23l12 101h437l167 -1060l14 -167q98 248 168 406l245 557l113 264h416l-11 -101l-164 -23l-25 -1289l153 -30l-9 -87h-525l9 87l175 28l36 911l31 403l-137 -355l-472 -1077l-110 -15l-235 1445l-71 -387l-212 -924l185 -29l-9 -87 h-508z" />
<glyph unicode="N" horiz-adv-x="1517" d="M34 0l8 86l136 28l169 1292l-146 23l17 101h339l468 -1112l71 -233l144 1222l-150 22l12 101h451l-10 -101l-146 -23l-203 -1406h-188l-473 1115l-61 221l-127 -1220l160 -29l-8 -87h-463z" />
<glyph unicode="O" horiz-adv-x="1386" d="M107 670q0 375 201 626q203 254 502 254q233 0 368 -196q128 -188 128 -484q0 -376 -191 -629q-197 -261 -503 -261q-107 0 -200.5 47t-160.5 133q-144 185 -144 510zM311 753q0 -653 339 -653q96 0 181 55q172 114 243 395q31 128 31 278q0 440 -189 559 q-61 38 -149.5 38t-174.5 -53q-175 -106 -248 -366q-33 -117 -33 -253z" />
<glyph unicode="P" horiz-adv-x="1235" d="M30 0l9 86l148 30l161 1290l-133 23l12 101h253l285 17q451 0 457 -390v-17q0 -271 -180 -437q-172 -159 -434 -159h-77q-43 0 -95 4l-51 -432l196 -29l-8 -87h-543zM451 678q86 -15 159 -15q316 0 381 274q23 97 23 186.5t-11 142.5q-36 162 -247 162q-98 0 -210 -21z " />
<glyph unicode="Q" horiz-adv-x="1386" d="M102 672q0 375 200 626q204 254 503 254q233 0 368 -196q128 -188 128 -485q0 -342 -161 -587q-79 -119 -189 -196t-241 -98q10 -149 195 -166q48 -5 90 -5q112 0 207 43l2 -136q-64 -53 -194 -76q-42 -8 -97 -8t-121 21q-141 44 -194 169q-21 47 -21 87.5t3 63.5 q-216 14 -344 192q-134 186 -134 497zM306 755q0 -653 339 -653q96 0 181 55q172 114 242 395q32 128 32 278q0 440 -190 559q-60 38 -148.5 38t-174.5 -53q-175 -106 -248 -366q-33 -117 -33 -253z" />
<glyph unicode="R" horiz-adv-x="1348" d="M50 0l9 86l128 30l161 1290l-133 23l12 101h186l299 16q252 0 374 -86q126 -89 126 -276q0 -174 -95 -303q-101 -136 -282 -186q95 -61 163 -247q77 -212 120 -267t78.5 -69t60.5 -14h31l-4 -99l-226 2q-55 0 -130 159q-27 59 -57 136l-56 144q-89 232 -185 232l-81 -2 h-109l-63 -554l185 -29l-8 -87h-504zM455 789q72 -4 137 -4q157 0 229 33q192 89 192 345q0 142 -64 199q-72 65 -253 65q-57 0 -158 -19z" />
<glyph unicode="S" horiz-adv-x="1080" d="M56 65l41 278h116l26 -193q83 -58 228 -58q113 0 201 57q115 74 115 210q0 145 -149 257q-46 35 -102 70t-116.5 78t-108.5 96q-111 121 -111 273q0 186 140 303q137 114 339 114q235 0 363 -85l-46 -262h-106l-28 179q-70 51 -200 51q-171 0 -237 -119q-28 -52 -28 -118 t18.5 -112.5t54.5 -87.5q58 -68 151 -126l151 -98q213 -143 213 -346t-147 -327q-145 -122 -373 -122q-198 0 -347 59q-40 15 -58 29z" />
<glyph unicode="T" horiz-adv-x="1225" d="M83 1064l77 466h1138l-66 -466h-108l8 333l-324 26l-166 -1307l248 -23l-7 -93h-692l9 93l244 23l165 1307l-319 -27l-93 -330z" />
<glyph unicode="U" horiz-adv-x="1379" d="M127 1430l12 100h483l-11 -100l-151 -25l-104 -795q-11 -103 -11 -142v-50q3 -163 76.5 -245.5t205.5 -82.5q339 0 400 536l103 779l-133 24l11 101h432l-11 -101l-124 -22l-104 -780q-66 -508 -375 -613q-101 -34 -219 -34t-201 31q-261 97 -261 443q0 64 8 139l107 814 z" />
<glyph unicode="V" horiz-adv-x="1225" d="M75 1429l10 101h481l-11 -101l-151 -23l136 -957l27 -279l95 279l413 957l-134 24l10 100h410l-10 -100l-104 -22l-640 -1417l-173 -12l-237 1427z" />
<glyph unicode="W" horiz-adv-x="1781" d="M30 1429l12 101h466l-11 -101l-156 -18l118 -975l36 -266l56 198l345 921l-14 121l-118 19l11 101h476l-20 -101l-150 -20l105 -973l18 -266l74 228l407 1008l-131 23l11 101h422l-15 -101l-120 -22l-597 -1417h-202l-116 1030l-387 -1030h-201l-196 1417z" />
<glyph unicode="X" horiz-adv-x="1294" d="M-62 0l10 87l122 28l499 653l-301 635l-139 26l10 101h516l-11 -101l-145 -22l202 -514l339 513l-140 23l12 101h469l-10 -101l-137 -22l-470 -631l322 -660l154 -29l-8 -87h-536l8 87l151 28l-226 529l-363 -528l149 -30l-8 -86h-469z" />
<glyph unicode="Y" horiz-adv-x="1173" d="M40 1429l10 101h489l-12 -101l-160 -23l228 -568l36 -126l72 126l343 568l-139 23l11 101h412l-11 -101l-99 -22l-524 -817l-61 -474l213 -29l-8 -87h-597l8 87l196 29l61 474l-364 816z" />
<glyph unicode="Z" horiz-adv-x="1191" d="M-3 89l809 1128l169 199l-576 -7l-95 -247l-118 24l56 344h938l25 -86l-811 -1141l-153 -196l641 25l125 252l121 -31l-93 -353h-1011z" />
<glyph unicode="[" horiz-adv-x="854" d="M180 -54q0 187 34 427t54 367l40 254l39 251q19 124 31 217t27 141.5t41 77.5q48 54 165 54q68 0 260 -47l-13 -87h-275l-223 -1656q66 0 137.5 -1t137.5 -1q-6 -44 -10 -86l-65 -19q-106 -28 -180.5 -28t-107.5 7t-54 23q-38 31 -38 106z" />
<glyph unicode="\" horiz-adv-x="854" d="M126 1597h173l577 -1959h-174z" />
<glyph unicode="]" horiz-adv-x="854" d="M34 -132l13 87h275l223 1656q-66 0 -137.5 1t-137.5 1q6 44 10 86l65 19q106 28 180.5 28t107.5 -7t54 -23q38 -31 38 -106q0 -187 -34 -427t-54 -367l-40 -254l-39 -251q-19 -124 -31 -217t-27 -141.5t-41 -77.5q-48 -54 -165 -54q-68 0 -260 47z" />
<glyph unicode="^" horiz-adv-x="1364" d="M177 510l511 1021h197l257 -1021h-165l-215 792l-420 -792h-165z" />
<glyph unicode="_" horiz-adv-x="1335" d="M-111 -338l20 151h1378l-20 -151h-1378z" />
<glyph unicode="`" horiz-adv-x="541" d="M50 1576l153 167l288 -432l-55 -60q-111 47 -276 199q-80 73 -110 126z" />
<glyph unicode="a" horiz-adv-x="1173" d="M83 412q0 161 77 332q128 286 380 384q88 35 186 35t203 -35l119 34l-131 -975q-5 -41 6.5 -58.5t33 -17.5t78.5 46l31 -53q-17 -31 -61 -62q-89 -62 -162 -62q-127 0 -127 121v14l2 21q-130 -156 -305 -156q-162 0 -249 122q-81 114 -81 310zM288 466.5 q0 -103.5 11 -162t32 -98.5q43 -84 119 -84q128 0 238 114q31 32 52 62l92 710q-47 33 -125 33t-136.5 -28t-104.5 -75t-79.5 -108.5t-55.5 -128.5q-43 -131 -43 -234.5z" />
<glyph unicode="b" horiz-adv-x="1188" d="M125 -20l198 1504l-95 43l21 84l240 39l51 -27l-84 -625q87 112 210 151q44 14 112.5 14t132.5 -32.5t106 -90.5q83 -115 83 -310q0 -256 -168 -490q-186 -260 -477 -260q-108 0 -232 45zM341 143q53 -42 137.5 -42t141.5 28.5t101.5 77t77 111t53.5 130.5 q43 136 43 275.5t-45 218t-123 78.5q-84 0 -173 -65q-74 -54 -121 -126z" />
<glyph unicode="c" horiz-adv-x="879" d="M77 430q0 258 151 482q103 154 261 218q81 33 177 33q128 0 220 -48l-58 -194q-109 95 -196 95t-148.5 -36.5t-105.5 -107.5q-92 -147 -92 -412q0 -257 120 -321q38 -20 79.5 -20t72.5 6.5t62 20.5q56 25 139 86l39 -81q-90 -106 -234 -152q-58 -19 -136 -19t-144.5 30.5 t-112.5 88.5q-94 119 -94 331z" />
<glyph unicode="d" horiz-adv-x="1179" d="M83 412q0 161 77 332q128 286 380 384q88 35 170 35t159 -18l51 337l-123 43l21 83l264 42l53 -27l-208 -1436q-3 -20 -3 -35q0 -41 23 -41q31 0 88 46l31 -52q-45 -67 -142 -109q-38 -16 -80 -16q-120 0 -120 123v12v27q-88 -109 -214 -148q-46 -14 -113.5 -14 t-129.5 32.5t-103 89.5q-81 114 -81 310zM288 419.5q0 -140.5 42.5 -219t115.5 -78.5q124 0 240 116q32 32 54 62l106 697q-51 44 -134 44t-141.5 -28.5t-104.5 -77t-79.5 -111t-55.5 -130.5q-43 -134 -43 -274.5z" />
<glyph unicode="e" horiz-adv-x="1051" d="M86 380q0 43 1.5 93.5t23 141.5t59.5 172.5t90.5 150.5t117.5 119q138 106 298 106q208 0 266 -151q18 -46 18 -111t-36 -128.5t-94 -113.5t-131 -86.5t-147 -60.5q-149 -50 -257 -52q-2 -21 -2 -39t1 -43t10 -63t25 -73.5t41 -62.5q56 -60 140 -60q183 0 340 146l46 -83 q-50 -72 -154 -130q-125 -72 -243.5 -72t-194.5 38q-150 74 -198 245q-20 74 -20 117zM300 570q146 7 288 90q101 58 144 142q23 43 23 108t-35 100.5t-88.5 35.5t-96.5 -23.5t-77.5 -62.5t-62 -89t-47.5 -103q-36 -100 -48 -198z" />
<glyph unicode="f" horiz-adv-x="701" d="M-207 -500l53 168q95 -38 165 -38q86 0 119 243l138 1139h-139l15 75l149 62l12 71q29 183 155 318q124 132 264 132q100 0 158 -26l-59 -168l-23 16q-50 32 -104 32t-84 -21t-52 -58q-43 -70 -60 -202l-11 -88h235l-16 -143h-237l-134 -1071q-26 -202 -131 -327 q-106 -127 -270 -127q-92 0 -143 13z" />
<glyph unicode="g" horiz-adv-x="1153" d="M83 412q0 161 77 332q128 286 380 384q88 35 193 35t215 -42l120 42l-193 -1240q-33 -219 -213 -334q-151 -97 -324 -97q-132 0 -219 35l50 185q130 -62 267 -62q127 0 172 40q43 39 63 165l45 278q-86 -103 -210 -140q-44 -13 -110.5 -13t-128.5 32.5t-103 89.5 q-81 114 -81 310zM288 419.5q0 -140.5 42.5 -219t115.5 -78.5q124 0 242 118q32 32 54 62l101 698q-52 41 -133 41t-139.5 -28.5t-104.5 -77t-79.5 -111t-55.5 -130.5q-43 -134 -43 -274.5z" />
<glyph unicode="h" horiz-adv-x="1239" d="M119 0l193 1482l-118 43l17 83l266 42l52 -27l-95 -712q132 177 296 233q57 19 112.5 19t97 -15.5t70.5 -51.5q62 -74 62 -235q0 -89 -22 -202l-29 -154l-26 -159q-21 -133 -21 -182q0 -14 2 -21q8 -33 21 -33q35 0 107 56l31 -52q-21 -35 -69 -68q-97 -66 -176 -66 q-123 0 -123 118v13q5 86 23.5 188t26 145t17.5 94.5t18 105.5q20 122 20 191t-9 100t-25 47q-24 23 -71.5 23t-92.5 -19.5t-90 -53.5q-97 -73 -171 -182l-100 -750h-194z" />
<glyph unicode="i" horiz-adv-x="641" d="M140 1031l18 81l302 51l49 -24l-139 -952q-3 -19 -3 -33q0 -43 25 -43q37 0 107 67l32 -53q-50 -78 -159 -127q-41 -18 -86 -18q-124 0 -124 114q0 68 33 274l93 612zM317 1503q0 60 49 105q46 43 85 43t62 -9q70 -29 70 -101q0 -61 -47 -109q-45 -44 -102 -44 q-26 0 -48 10q-69 30 -69 105z" />
<glyph unicode="j" horiz-adv-x="647" d="M-209 -481l35 81q28 -12 85.5 -12t108.5 40.5t85 107.5q59 117 83 329l98 915l-156 51l18 81l311 51l48 -24l-130 -1139q-29 -248 -153 -386q-117 -132 -293 -132q-105 0 -140 37zM317 1503q0 60 49 105q46 43 85 43t62 -9q70 -29 70 -101q0 -61 -47 -109 q-45 -44 -102 -44q-26 0 -48 10q-69 30 -69 105z" />
<glyph unicode="k" horiz-adv-x="1078" d="M105 0l193 1482l-117 43l16 83l266 42l52 -27l-216 -1623h-194zM396 610l2 1h-2l96 72q161 116 241 223q36 50 44 91l10 58q9 51 52 81q37 27 83 27q69 0 96 -58q11 -23 11 -48q0 -146 -363 -377l-97 -60l262 -404q27 -42 60 -68.5t56 -26.5q50 0 111 59l34 -61 q-52 -86 -174 -126q-39 -13 -80 -13q-98 0 -157 108z" />
<glyph unicode="l" horiz-adv-x="606" d="M142 115q0 39 6 77l184 1290l-123 43l21 83l262 42l48 -27l-202 -1436q-3 -19 -3 -34q0 -42 24 -42q37 0 108 66l31 -52q-20 -36 -67 -72q-97 -73 -165.5 -73t-96 31t-27.5 104z" />
<glyph unicode="m" horiz-adv-x="1882" d="M135 0l130 963l-99 59l18 89l242 52l48 -24l-19 -212q133 163 297 217q55 19 106.5 19t90 -13t66.5 -42q57 -59 67 -192q131 172 286 228q54 19 106.5 19t94 -17t71.5 -54q64 -77 64 -231q0 -79 -20 -195q-62 -373 -66 -444q-2 -38 -2 -61q0 -21 2 -30q4 -20 18 -20 q37 0 109 66l31 -52q-25 -39 -70 -73q-93 -72 -172 -72q-119 0 -119 117q0 84 24 240l33 205q33 206 33 283.5t-8.5 108.5t-22.5 46q-21 23 -64.5 23t-85 -19t-84.5 -52q-85 -66 -161 -174q-9 -109 -31 -253l-64 -505h-197l56 443l15 95q26 182 26 274t-7 123t-21 47 q-21 23 -70 23t-93.5 -19t-89.5 -53q-95 -72 -171 -178l-102 -755h-195z" />
<glyph unicode="n" horiz-adv-x="1258" d="M135 0l130 963l-98 59l18 89l242 52l48 -24l-20 -212q133 163 297 217q55 19 109 19t95.5 -15.5t71.5 -51.5q61 -74 61 -235q0 -84 -22 -199t-33 -174q-41 -235 -41 -322q0 -23 3 -36q4 -20 26 -20t79 46l31 -52q-44 -67 -145 -109q-38 -16 -80 -16q-123 0 -123 119v13 q4 65 15 134l19 112q5 34 23.5 133.5t26.5 153.5q21 129 21 194.5t-8 96.5t-23 47q-21 23 -71 23t-94.5 -19t-89.5 -53q-95 -72 -171 -178l-102 -755h-195z" />
<glyph unicode="o" horiz-adv-x="1143" d="M87 457q0 267 155 480q103 141 253 197q75 29 164.5 29t162.5 -31t124 -90q105 -123 105 -349q0 -277 -155 -487q-104 -140 -254 -198q-75 -28 -164.5 -28t-162.5 31q-228 97 -228 446zM294 456q0 -258 128 -330q41 -24 97 -24t102.5 26.5t83 72t63.5 105.5 q74 169 74 381q0 258 -128 331q-41 23 -97 23t-102.5 -26.5t-83 -72t-63.5 -105.5q-74 -169 -74 -381z" />
<glyph unicode="p" horiz-adv-x="1160" d="M39 -520l203 1501l-109 51l18 79l262 52l47 -24l-18 -123q122 147 290 147t257 -123q83 -115 83 -310q0 -256 -168 -490q-115 -161 -282 -226q-87 -34 -167 -34t-155 16l-71 -516h-190zM320 137q52 -36 133.5 -36t138.5 28.5t101.5 77t77 111t53.5 130.5q43 136 43 275.5 t-45 218t-123 78.5q-115 0 -227 -111q-31 -30 -53 -60z" />
<glyph unicode="q" horiz-adv-x="1155" d="M83 412q0 161 77 332q128 286 380 384q88 35 185.5 35t220.5 -41l91 10l-190 -1443q-7 -43 4 -60t17 -17q34 0 108 67l31 -53q-19 -34 -68 -71q-101 -73 -179 -73q-114 0 -114 121v13l66 512q-128 -148 -299 -148q-162 0 -249 122q-81 114 -81 310zM288 419.5 q0 -140.5 42.5 -219t115.5 -78.5q120 0 233 109q31 30 54 60l94 720q-48 30 -123 30t-133.5 -28.5t-104.5 -77t-79.5 -111t-55.5 -130.5q-43 -134 -43 -274.5z" />
<glyph unicode="r" horiz-adv-x="836" d="M135 0l122 962l-100 60l18 89l242 52l48 -24l-21 -227q74 148 230 222q60 28 104 28q76 0 89 -13l-44 -208q-28 14 -83.5 14t-96 -12t-80.5 -39q-91 -63 -144 -188l-89 -716h-195z" />
<glyph unicode="s" horiz-adv-x="869" d="M42 39l36 151q68 -47 182 -68q41 -7 79.5 -7t73.5 4t65 19q67 33 67 121q0 103 -111 193q-32 26 -61.5 47.5t-65.5 54t-69 75.5q-78 104 -78 194.5t31.5 150.5t84.5 102q111 87 269 87q118 0 181 -15.5t75 -21.5l-38 -167q-26 38 -140 65q-40 10 -79.5 10t-70.5 -6 t-57 -22q-67 -41 -67 -130q0 -110 159 -231q102 -79 143 -131q81 -105 81 -199.5t-32.5 -154t-87.5 -99.5q-110 -81 -276 -81q-148 0 -250 37q-31 11 -44 22z" />
<glyph unicode="t" horiz-adv-x="735" d="M133 1016l20 87l123 47q57 68 133 266h95l-34 -261h262l-20 -139h-259l-83 -626q-17 -121 -17 -163.5t3.5 -60.5t12.5 -28q16 -19 51.5 -19t62.5 8.5t54 21.5q56 27 92 54l18 -78q-68 -83 -225 -131q-47 -14 -89 -14q-183 0 -183 179v11q0 31 12 122l91 724h-120z" />
<glyph unicode="u" horiz-adv-x="1207" d="M152 1022l18 89l242 52l48 -24l-90 -709q-9 -76 -9 -136t10 -93t29 -51q33 -33 85.5 -33t88 10.5t68.5 28.5q67 36 119 90l120 909h193l-125 -966q-2 -18 -2 -32q0 -44 24 -44q34 0 106 67l31 -53q-20 -36 -69 -72q-100 -73 -171 -73t-95.5 33t-24.5 61.5t2 43.5 q-140 -140 -330 -140q-188 0 -237 144q-18 53 -18 108.5t3 96.5t8 85l74 549z" />
<glyph unicode="v" horiz-adv-x="1057" d="M37 1058q35 55 125 92q33 13 71 13q101 0 123 -79q7 -25 10 -58l67 -671l12 -185l114 168l78 129q122 208 166 432q2 12 2 25q-1 31 -13 66q-18 49 -17.5 85t27 62t68.5 26q128 0 128 -200q0 -151 -166 -436l-125 -205l-234 -330l-151 -12l-154 985q-11 57 -45 57 q-11 0 -25 -6q-15 -7 -32 -18z" />
<glyph unicode="w" horiz-adv-x="1698" d="M37 1058q44 58 127 92q34 13 73 13q102 0 125 -79q8 -25 11 -58l52 -686l11 -185l77 168l353 832h174l78 -1000l111 168q138 213 197 462q20 83 20 124q0 13 -2 21q-7 38 -12 57l-11 35q-5 17 -5 53t26.5 62t80.5 26q111 0 111 -210q0 -150 -150 -429q-29 -55 -60 -106 l-265 -426l-187 -11l-38 374l-33 382l-7 141l-49 -142l-196 -414l-166 -330l-168 -12l-59 375l-85 610q-10 55 -47 55q-23 0 -57 -22z" />
<glyph unicode="x" horiz-adv-x="1008" d="M-22 0l429 586l-183 390q-14 29 -24 42.5t-29.5 13.5t-80.5 -46l-34 54q17 31 61 61q91 62 159 62q62 0 83 -20q28 -26 49 -84l114 -342l292 438h212l-441 -595l197 -393q14 -29 24 -42.5t24 -13.5q34 0 105 66l35 -54q-16 -35 -63 -70q-97 -73 -172 -73q-59 0 -82 22 q-28 27 -49 83l-133 347l-284 -432h-209z" />
<glyph unicode="y" horiz-adv-x="1071" d="M-129 -478l46 158q93 -40 146.5 -40t95 14.5t85.5 49.5q102 81 169 243h-63l-170 1018q-9 31 -17 43.5t-32.5 12.5t-72.5 -43l-29 60q45 67 141 109q36 16 74 16t61.5 -9.5t38.5 -27.5q22 -29 34 -100l85 -731l20 -274l159 317l62 141q104 230 128 419q1 12 1 23 q0 27 -8 50l-17 50q-6 17 -6 33q0 56 27.5 82t69.5 26q128 0 128 -190q0 -199 -159 -500l-209 -403q-151 -282 -258 -409q-74 -106 -228 -149q-58 -16 -102 -16t-67 2.5t-48 6.5q-60 10 -85 18z" />
<glyph unicode="z" horiz-adv-x="1025" d="M-3 39l642 788l138 152l-384 1q-107 0 -163 -98q-16 -29 -21 -63h-63q0 155 44 271q15 39 32 50q36 23 98 23t135 -5.5t147 -11.5l142 -12q67 -6 124 -6t100 35l58 -60l-650 -807l-128 -143h412q69 0 123.5 47t64.5 115h62q0 -150 -46 -265q-16 -39 -33 -50 q-36 -23 -98 -23t-139.5 5t-157.5 12q-203 16 -245 16q-73 0 -109 -20l-17 -13z" />
<glyph unicode="{" horiz-adv-x="1019" d="M154 714l18 124q245 60 257 128l77 517q24 151 70 201q48 51 165 51q68 0 260 -47q-13 -82 -13 -87h-276l-96 -631q-12 -84 -132 -142q-24 -12 -51 -24l-60 -28q106 -54 135 -84q57 -59 48 -117l-95 -630h275q-2 -6 -3.5 -20.5t-4 -31t-4.5 -36.5q-122 -36 -178 -41.5 t-100 -5.5t-76 7t-52 23q-37 31 -37 113q0 5 4 35l41 289q19 135 45 302q0 56 -128 107q-44 17 -89 28z" />
<glyph unicode="|" horiz-adv-x="854" d="M360 -186v1966h173v-1966h-173z" />
<glyph unicode="}" horiz-adv-x="1019" d="M57 -142q13 82 13 87h276l96 631q12 84 132 142q24 12 51 24l60 28q-106 54 -135 84q-57 59 -48 117l95 630h-275q2 6 3.5 20.5t4 31t4.5 36.5q122 36 178 41.5t100 5.5t76 -7t52 -23q37 -31 37 -113q0 -5 -4 -35l-41 -289q-19 -135 -45 -302q0 -56 128 -107 q44 -17 89 -28l-18 -124q-245 -60 -257 -128l-77 -517q-24 -151 -70 -201q-48 -51 -165 -51q-68 0 -260 47z" />
<glyph unicode="~" horiz-adv-x="1137" d="M152 848q27 80 112 141q95 69 200 69q84 0 186 -86l51 -42q57 -44 105 -44q125 0 202 117l71 -73q-22 -83 -111 -146q-90 -64 -201 -64q-86 0 -185 86q-65 56 -96.5 71t-60.5 15q-125 0 -202 -117z" />
<glyph />
<glyph unicode="&#xa1;" horiz-adv-x="686" d="M83 -434l243 1290h138l-136 -1290h-245zM302 1201q0 75 60 125q48 40 92 40t65.5 -8.5t36.5 -24.5t20.5 -35t5.5 -48.5t-17 -61.5t-39 -52q-48 -42 -93.5 -42t-69.5 10q-61 25 -61 97z" />
<glyph unicode="&#xa2;" horiz-adv-x="1056" d="M135 418.5q0 79.5 13.5 154.5t40 148.5t66.5 142.5t93 126q113 123 259 159l52 209h150l-50 -197q111 -9 185 -46l-58 -194q-109 95 -196 95t-148.5 -36.5t-105.5 -107.5q-92 -147 -92 -412q0 -257 120 -321q38 -20 79.5 -20t72.5 6.5t62 20.5q56 25 139 86l39 -81 q-131 -146 -304 -167l-37 -199h-150l38 205q-195 46 -250 274q-18 75 -18 154.5z" />
<glyph unicode="&#xa3;" horiz-adv-x="1368" d="M-10 49q0 75 88 131q83 53 179 53q39 56 69 193q8 37 12 67l40 251h-175l18 131h178l18 111q31 229 184 400q159 179 370 179q136 0 206 -40q28 -16 53 -42l-113 -170q-12 27 -60 55q-96 56 -187 56q-135 0 -214 -226q-30 -84 -40.5 -160t-15.5 -104l-9 -59h323l-17 -131 h-329q-2 -13 -3.5 -25t-10 -68.5t-25 -127.5t-36.5 -126q-30 -82 -107 -200q49 -13 97 -31t97 -34q120 -41 202.5 -41t137.5 14.5t89 42.5q65 55 65 173q0 59 -46 130q-13 19 -25 30l137 129q94 -75 125 -196q10 -40 10 -77.5t-6.5 -76.5t-24.5 -78.5t-50 -76t-84 -63.5 q-118 -62 -308 -62q-120 0 -223.5 29.5t-164.5 50.5l-117 42q-63 -82 -166 -112q-32 -10 -55 -10t-38 4q-48 10 -48 65z" />
<glyph unicode="&#xa4;" horiz-adv-x="1540" d="M229 1135l113 114l194 -196q114 75 250.5 75t251.5 -81l190 189l113 -114l-191 -191q72 -110 72 -243t-77 -246l194 -194l-114 -113l-194 193q-114 -76 -249 -76t-242 72l-194 -194l-114 113l192 192q-82 114 -82 253.5t80 253.5zM490 690q0 -126 86 -216q85 -89 206 -89 t206 89q86 90 86 216t-86 216q-85 89 -206 89t-206 -89q-86 -90 -86 -216z" />
<glyph unicode="&#xa5;" horiz-adv-x="1483" d="M212 1452l11 100h498l-11 -100l-175 -17l235 -460l41 -111l66 119l303 452l-139 17l11 100h463l-11 -99l-136 -28l-426 -563h348l-14 -131h-417l-27 -225h417l-15 -130h-417l-30 -259l220 -30l-9 -87h-613l8 87l217 30l31 259h-412l15 130h412l27 225h-413l14 131h351 l-304 572z" />
<glyph unicode="&#xa6;" horiz-adv-x="854" d="M360 -186v894h173v-894h-173zM360 886v894h173v-894h-173z" />
<glyph unicode="&#xa7;" horiz-adv-x="1194" d="M56 -100l40 330h103l35 -208q65 -81 213 -92q41 -3 84 -3t95 15t98 46q104 70 119 189q1 9 1 33.5t-24.5 58t-72.5 63.5t-111 55l-128 51q-165 67 -225 120q-102 90 -102 196q0 120 83 258q22 36 47 66q-79 79 -79 178q0 153 116 262q120 115 310 146q52 9 107.5 9 t116.5 -7t110 -18q96 -21 142 -51l-37 -301h-94l-55 208q-54 63 -216 63q-210 0 -286 -139q-25 -48 -25 -95t24 -83.5t72.5 -69t111.5 -60.5l129 -58q170 -75 227 -131q101 -97 101 -209q0 -85 -37.5 -171t-85.5 -146q65 -70 65 -160q0 -142 -110 -256q-122 -125 -316 -164 q-56 -11 -111.5 -11t-124.5 8.5t-132 21.5q-138 29 -178 56zM351 860.5q0 -57.5 19 -93t59 -68t95 -58.5t115 -51l120 -52q60 -26 112 -58q43 80 43 133t-18 91.5t-57 73.5t-92 63.5t-112 54.5l-119 54q-60 26 -112 58q-53 -90 -53 -147.5z" />
<glyph unicode="&#xa8;" horiz-adv-x="809" d="M61 1503q0 59 46 105q43 43 85 43t66 -9q70 -29 70 -101q0 -63 -47 -109q-46 -44 -87.5 -44t-63.5 10q-69 30 -69 105zM494 1562q27 54 79 78q26 11 53.5 11t51.5 -9q70 -29 70 -101q0 -63 -47 -109q-46 -44 -87 -44q-67 0 -101 36q-57 58 -19 138z" />
<glyph unicode="&#xa9;" horiz-adv-x="1768" d="M178 806q0 104 27 200.5t76.5 180.5t118 152.5t152.5 117.5q175 102 381 102q313 0 534 -219q141 -140 195 -334q27 -96 27 -200.5t-27 -201t-76.5 -180t-118.5 -152.5t-153 -118q-178 -102 -381 -102t-381 102q-168 97 -270 270q-104 175 -104 382zM297 806 q0 -269 185 -458q185 -190 451 -190q267 0 453 190q117 120 162 286q22 83 22 172q0 267 -184 458q-116 119 -282 166q-82 24 -171 24q-173 0 -323 -89q-142 -84 -227 -233q-86 -151 -86 -326zM542 802v6q0 183 112 306q120 133 315 133q163 0 234 -38v-205h-74l-54 120 q-43 39 -147 39q-97 0 -160 -73q-72 -83 -72 -229v-8q0 -187 88 -295q76 -93 182 -93t219 60l28 -67q-68 -59 -205 -84q-43 -8 -110.5 -8t-137.5 34.5t-118 93.5q-100 123 -100 308z" />
<glyph unicode="&#xaa;" horiz-adv-x="854" d="M84 1040q0 126 68 252q107 194 307 262q66 23 144.5 23t168.5 -29l103 38l-122 -695q-2 -54 12 -54q21 0 56 20l23 -39q-7 -15 -47 -35q-77 -40 -114 -40t-55 9.5t-30 25.5q-27 37 -15 91q-110 -126 -250 -126q-118 0 -184 79q-65 79 -65 218zM268 1055q0 -194 145 -194 q78 0 175 92l81 464q-39 58 -107.5 58t-126 -38.5t-95.5 -98.5q-72 -117 -72 -283z" />
<glyph unicode="&#xab;" horiz-adv-x="1878" d="M224 530l22 160l692 396l38 -115l-510 -356l414 -351l-70 -112zM899 530l22 160l692 396l38 -115l-510 -356l414 -351l-70 -112z" />
<glyph unicode="&#xac;" horiz-adv-x="1370" d="M213 721l15 132h960l-62 -531h-177l47 399h-783z" />
<glyph unicode="&#xad;" horiz-adv-x="1706" />
<glyph unicode="&#xae;" horiz-adv-x="1768" d="M178 806q0 104 27 200.5t76.5 180.5t118 152.5t152.5 117.5q175 102 381 102q313 0 534 -219q141 -140 195 -334q27 -96 27 -200.5t-27 -201t-76.5 -180t-118.5 -152.5t-153 -118q-178 -102 -381 -102t-381 102q-168 97 -270 270q-104 175 -104 382zM297 806 q0 -269 185 -458q185 -190 451 -190q267 0 453 190q117 120 162 286q22 83 22 172q0 267 -184 458q-116 119 -282 166q-82 24 -171 24q-173 0 -323 -89q-142 -84 -227 -233q-86 -151 -86 -326zM572 375v74l83 20v665l-83 22v84h144l238 5q228 0 294 -137q20 -42 21 -88 t-8.5 -85t-35.5 -73q-56 -72 -190 -96q74 -42 137 -158l47 -83q22 -39 52 -60q24 -12 67 -12v-78h-160q-32 0 -72 80l-38 79q-80 171 -185 215h-87v-280l102 -20v-74h-326zM796 837q43 -8 113.5 -8t102 13.5t54.5 35.5q47 48 47 115q0 162 -186 162q-89 0 -131 -10v-308z " />
<glyph unicode="&#xaf;" horiz-adv-x="614" d="M40 1425l4 149h510l-5 -149h-509z" />
<glyph unicode="&#xb0;" horiz-adv-x="899" d="M204 1242q0 103 26.5 162.5t71.5 103.5q96 92 240 92q137 0 232 -94q90 -91 90 -223q0 -142 -100 -236q-97 -92 -240 -92q-70 0 -129 25q-121 53 -169 173q-22 57 -22 89zM344 1272q0 -80 52 -136q56 -60 135 -60q41 0 76 15t61 42q56 58 56 150q0 80 -53 137 q-55 59 -134 59q-84 0 -137 -57q-56 -59 -56 -150z" />
<glyph unicode="&#xb1;" horiz-adv-x="1370" d="M180 30l17 150h869l-17 -150h-869zM249 693l18 158h225l139 -11q3 42 7 83t7 82l26 230h178l-26 -230l-29 -164l115 10h255l-18 -158h-255l-112 7q-2 -42 -5.5 -82t-5.5 -82l-27 -241h-179l27 241l26 164l-141 -7h-225z" />
<glyph unicode="&#xb2;" horiz-adv-x="1163" d="M190 733l105 61q258 153 409 314q130 137 130 245q0 141 -180.5 141t-314.5 -138l-70 94q53 69 171 128q141 69 287 69q148 0 233 -75q76 -65 76 -157.5t-47 -178.5t-127 -166q-122 -125 -404 -307l452 25l85 135l103 -29l-85 -257h-778z" />
<glyph unicode="&#xb3;" horiz-adv-x="1071" d="M185 606l17 108q106 -51 241 -51q114 0 209 57q112 67 112 186q0 99 -102 129q-33 10 -73 11l-204 -45l21 125q224 42 320 160q47 59 47 130q0 96 -147 96q-112 0 -232 -56q-37 -17 -68 -38l-36 102q178 124 409 124q140 0 217 -64q68 -56 68 -147q0 -200 -263 -299 q140 0 203 -80q47 -58 47 -144q0 -116 -83 -210q-106 -121 -305 -156q-60 -10 -102.5 -10t-78.5 4.5t-74 13.5q-90 21 -143 54z" />
<glyph unicode="&#xb4;" horiz-adv-x="559" d="M50 1312l317 431l142 -167q-29 -56 -172 -171q-154 -125 -234 -154z" />
<glyph unicode="&#xb5;" horiz-adv-x="1364" d="M121 -372l108 730q19 142 43.5 285t32.5 239.5t3.5 116.5t-22.5 20t-64 -26l-30 52q16 26 57 52q83 53 145.5 53t91.5 -26.5t29 -86.5q0 -58 -15 -163q-37 -244 -55 -354t-18 -185.5t8.5 -113.5t26.5 -61q32 -43 85.5 -43t94 16t78.5 40q62 39 128 105l112 862h194 l-122 -951q-2 -19 -2 -33q0 -43 23.5 -43t66.5 27l32 -53q-42 -56 -136 -91q-35 -14 -68.5 -14t-57.5 6q-65 15 -65 96q0 16 2 34q-143 -138 -340 -138q-67 1 -123 31l-58 -383h-185z" />
<glyph unicode="&#xb6;" horiz-adv-x="1364" d="M160 1130.5q0 92.5 29 173.5t96 141q141 126 430 126q70 0 158 -7q169 -12 236 -12h239l-11 -103l-141 -33l-163 -1300l135 -30l-9 -86h-337l175 1414h-208l-184 -1414h-349l8 87l165 30l83 657q-248 6 -326 198q-26 66 -26 158.5z" />
<glyph unicode="&#xb7;" horiz-adv-x="686" d="M206 740.5q0 29.5 17 61.5t39 52q48 42 93.5 42t70.5 -10q60 -25 60 -97q0 -75 -60 -125q-48 -40 -92 -40t-65.5 8.5t-36.5 24.5t-20.5 35t-5.5 48.5z" />
<glyph unicode="&#xb8;" horiz-adv-x="479" d="M4 -436l35 131q26 -14 64 -14t66 10.5t50.5 34t38 61.5t20.5 87t5 82.5t-8 73.5l57 4l53 -4q30 -44 30 -140q0 -125 -29 -196.5t-64 -102.5q-61 -55 -180 -55q-101 0 -138 28z" />
<glyph unicode="&#xb9;" horiz-adv-x="1020" d="M242 636l11 88l236 26l86 645l-261 -52l-6 103q65 19 128 48q233 109 288 151l69 -21l-119 -874l235 -27l-11 -87h-656z" />
<glyph unicode="&#xba;" horiz-adv-x="854" d="M92 1085q0 229 154 374q137 130 305 130q157 -2 243 -101q83 -95 83 -235.5t-41 -234.5t-107 -158t-145.5 -95.5t-159.5 -31t-140 25.5t-102 71q-90 97 -90 255zM286 1103q0 -179 86 -245q26 -20 42 -20h18q134 0 198 122q51 97 51 256q0 191 -89 254q-28 21 -81 21 t-99.5 -38.5t-74.5 -96.5q-51 -104 -51 -253z" />
<glyph unicode="&#xbb;" horiz-adv-x="1878" d="M131 267l510 356l-414 351l70 112l586 -378l-22 -160l-692 -396zM807 267l510 356l-414 351l70 112l586 -378l-22 -160l-692 -396z" />
<glyph unicode="&#xbc;" horiz-adv-x="2560" d="M273 636l11 88l236 26l86 645l-261 -52l-6 103q65 19 128 48q233 109 288 151l69 -21l-119 -874l235 -27l-11 -87h-656zM807 0l681 1530h159l-681 -1530h-159zM1347 262l606 851l88 1l93 -104l-518 -643l-79 -92l358 29l38 272l202 23l-38 -279l264 22l-20 -175h-264 l-46 -343h-203l48 343h-492z" />
<glyph unicode="&#xbd;" horiz-adv-x="2560" d="M273 636l11 88l236 26l86 645l-261 -52l-6 103q65 19 128 48q233 109 288 151l69 -21l-119 -874l235 -27l-11 -87h-656zM807 0l681 1530h159l-681 -1530h-159zM1425 19l105 61q258 153 409 314q130 137 130 245q0 141 -180.5 141t-314.5 -138l-70 94q53 69 171 128 q141 69 287 69q148 0 233 -75q76 -65 76 -157.5t-47 -178.5t-127 -166q-122 -125 -404 -307l452 25l85 135l103 -29l-85 -257h-778z" />
<glyph unicode="&#xbe;" horiz-adv-x="2560" d="M262 606l17 108q106 -51 241 -51q114 0 209 57q112 67 112 186q0 99 -102 129q-33 10 -73 11l-204 -45l21 125q224 42 320 160q47 59 47 130q0 96 -147 96q-112 0 -232 -56q-37 -17 -68 -38l-36 102q178 124 409 124q140 0 217 -64q68 -56 68 -147q0 -200 -263 -299 q140 0 203 -80q47 -58 47 -144q0 -116 -83 -210q-106 -121 -305 -156q-60 -10 -102.5 -10t-78.5 4.5t-74 13.5q-90 21 -143 54zM863 0l681 1530h159l-681 -1530h-159zM1347 262l606 851l88 1l93 -104l-518 -643l-79 -92l358 29l38 272l202 23l-38 -279l264 22l-20 -175h-264 l-46 -343h-203l48 343h-492z" />
<glyph unicode="&#xbf;" horiz-adv-x="1028" d="M66 29q0 87 25.5 156t67 120t94.5 88t109 67l108 56q116 59 162 124q25 36 25 74t-5.5 63.5t-13.5 48.5l-14 42q-6 20 -9 33l127 50l17 -1q54 -51 74 -182q6 -39 6 -80t-26.5 -80t-70.5 -75t-102 -70q-141 -82 -194 -110.5t-92 -52.5q-87 -56 -108 -103q-9 -40 -9 -99.5 t26.5 -124t73.5 -111.5q99 -101 253 -101q105 0 174 33l-24 -140q-35 -35 -144 -49q-31 -4 -61 -4q-254 0 -373 131q-96 106 -96 297zM476 1276q6 44 20.5 71t36.5 47q48 42 93.5 42t70 -10t38.5 -27q28 -33 22 -77t-21.5 -71.5t-38.5 -46.5t-51 -29.5t-56.5 -10.5t-50 8.5 t-36.5 24.5q-33 35 -27 79z" />
<glyph unicode="&#xc0;" horiz-adv-x="1342" d="M-130 0l9 86l118 29l709 1415h199l253 -1412l156 -32l-7 -86h-508l5 86l156 29l-50 321h-572l-150 -320l159 -30l-6 -86h-471zM395 557h497l-106 689l-11 118zM506 1862l133 138l263 -342l-56 -45q-88 32 -164 81q-145 95 -176 168z" />
<glyph unicode="&#xc1;" horiz-adv-x="1342" d="M-130 0l9 86l118 29l709 1415h199l253 -1412l156 -32l-7 -86h-508l5 86l156 29l-50 321h-572l-150 -320l159 -30l-6 -86h-471zM395 557h497l-106 689l-11 118zM773 1658l276 342l124 -138q-35 -74 -157 -153q-96 -62 -190 -96z" />
<glyph unicode="&#xc2;" horiz-adv-x="1342" d="M-130 0l9 86l118 29l709 1415h199l253 -1412l156 -32l-7 -86h-508l5 86l156 29l-50 321h-572l-150 -320l159 -30l-6 -86h-471zM395 557h497l-106 689l-11 118zM485 1672l305 328h177l212 -328l-68 -59l-241 229l-324 -228z" />
<glyph unicode="&#xc3;" horiz-adv-x="1342" d="M-130 0l9 86l118 29l709 1415h199l253 -1412l156 -32l-7 -86h-508l5 86l156 29l-50 321h-572l-150 -320l159 -30l-6 -86h-471zM395 557h497l-106 689l-11 118zM494 1801q55 110 170 155q38 14 74 14t61.5 -10.5t46.5 -26t39 -33.5t35 -34q42 -36 74 -36t54 10.5 t40.5 26.5t33.5 35l30 38l58 -91q-42 -122 -168 -167q-40 -14 -82 -14t-70 10t-49 25.5t-37 33.5t-32 33q-60 56 -120 30q-57 -25 -111 -83z" />
<glyph unicode="&#xc4;" horiz-adv-x="1342" d="M-130 0l9 86l118 29l709 1415h199l253 -1412l156 -32l-7 -86h-508l5 86l156 29l-50 321h-572l-150 -320l159 -30l-6 -86h-471zM395 557h497l-106 689l-11 118zM502 1800.5q0 11.5 0.5 27.5t14 42t33.5 46q45 43 84.5 43t62.5 -9q70 -29 70 -102q0 -61 -48 -108 q-46 -44 -87 -44q-93 0 -122 74q-8 19 -8 30.5zM919 1804.5q0 39.5 14 65.5t35 46q45 43 85 43t63 -9q70 -29 70 -102q0 -62 -47 -108q-46 -44 -87 -44q-64 0 -98.5 34.5t-34.5 74z" />
<glyph unicode="&#xc5;" horiz-adv-x="1342" d="M-130 0l9 86l118 29l686 1369q-156 50 -156 212q0 159 129 242q94 62 221 62q141 0 213 -70q62 -60 62 -158q0 -124 -82 -206q-63 -63 -156 -86l244 -1362l156 -32l-7 -86h-508l5 86l156 29l-50 321h-572l-150 -320l159 -30l-6 -86h-471zM395 557h497l-106 689l-11 118z M669 1719q0 -63 42.5 -114.5t118.5 -51.5t109 28q72 60 72 171q0 106 -85 146q-29 14 -66 14t-69.5 -9t-57.5 -29q-64 -53 -64 -155z" />
<glyph unicode="&#xc6;" horiz-adv-x="1810" d="M-162 0l14 86l154 29l700 1293l-291 22l14 100h1316l-7 -289h-106l-48 167l-399 14l-72 -568l395 7l-12 -156l-395 16l-73 -605l513 24l96 185l103 -31l-65 -294h-978l10 86l119 29l42 361h-473l-184 -360l189 -30l-6 -86h-556zM457 597h425l94 802l-106 5z" />
<glyph unicode="&#xc7;" horiz-adv-x="1261" d="M93 655q0 381 215 637q137 163 328 224q93 30 210 30q172 0 338 -46l38 -11l-66 -367h-117l-23 260q-43 33 -104 39.5t-132 6.5t-146 -37t-131 -99t-95 -142q-106 -219 -106 -488q0 -231 80 -386q91 -175 259 -175q133 0 221 57q31 19 46 47l68 197l121 -1l-40 -331 l-57 -18q-156 -53 -302 -64q10 -41 10 -87t-6.5 -107t-28.5 -115.5t-57 -85.5q-61 -55 -180 -55q-101 0 -138 28l35 131q26 -14 64 -14t66 10.5t51 34.5q63 66 63 230q0 15 -1 27q-240 11 -369 213q-114 179 -114 457z" />
<glyph unicode="&#xc8;" horiz-adv-x="1219" d="M19 0l10 86l149 29l160 1291l-133 23l12 101h927l-7 -310h-106l-48 188l-441 14l-72 -568l447 7l-12 -156l-447 16l-83 -605l551 24l119 207l104 -31l-89 -316h-1041zM443 1862l133 138l263 -342l-56 -45q-88 32 -164 81q-145 95 -176 168z" />
<glyph unicode="&#xc9;" horiz-adv-x="1219" d="M19 0l10 86l149 29l160 1291l-133 23l12 101h927l-7 -310h-106l-48 188l-441 14l-72 -568l447 7l-12 -156l-447 16l-83 -605l551 24l119 207l104 -31l-89 -316h-1041zM710 1658l276 342l124 -138q-35 -74 -157 -153q-96 -62 -190 -96z" />
<glyph unicode="&#xca;" horiz-adv-x="1219" d="M19 0l10 86l149 29l160 1291l-133 23l12 101h927l-7 -310h-106l-48 188l-441 14l-72 -568l447 7l-12 -156l-447 16l-83 -605l551 24l119 207l104 -31l-89 -316h-1041zM422 1672l305 328h177l212 -328l-68 -59l-241 229l-324 -228z" />
<glyph unicode="&#xcb;" horiz-adv-x="1219" d="M19 0l10 86l149 29l160 1291l-133 23l12 101h927l-7 -310h-106l-48 188l-441 14l-72 -568l447 7l-12 -156l-447 16l-83 -605l551 24l119 207l104 -31l-89 -316h-1041zM439 1800.5q0 11.5 0.5 27.5t14 42t33.5 46q45 43 84.5 43t62.5 -9q70 -29 70 -102q0 -61 -48 -108 q-46 -44 -87 -44q-93 0 -122 74q-8 19 -8 30.5zM856 1804.5q0 39.5 14 65.5t35 46q45 43 85 43t63 -9q70 -29 70 -102q0 -62 -47 -108q-46 -44 -87 -44q-64 0 -98.5 34.5t-34.5 74z" />
<glyph unicode="&#xcc;" horiz-adv-x="706" d="M30 0l9 86l148 30l161 1290l-133 23l12 101h483l-11 -101l-153 -23l-161 -1290l157 -29l-8 -87h-504zM189 1862l133 138l263 -342l-56 -45q-88 32 -164 81q-145 95 -176 168z" />
<glyph unicode="&#xcd;" horiz-adv-x="706" d="M30 0l9 86l148 30l161 1290l-133 23l12 101h483l-11 -101l-153 -23l-161 -1290l157 -29l-8 -87h-504zM456 1658l276 342l124 -138q-35 -74 -157 -153q-96 -62 -190 -96z" />
<glyph unicode="&#xce;" horiz-adv-x="706" d="M30 0l9 86l148 30l161 1290l-133 23l12 101h483l-11 -101l-153 -23l-161 -1290l157 -29l-8 -87h-504zM168 1672l305 328h177l212 -328l-68 -59l-241 229l-324 -228z" />
<glyph unicode="&#xcf;" horiz-adv-x="706" d="M30 0l9 86l148 30l161 1290l-133 23l12 101h483l-11 -101l-153 -23l-161 -1290l157 -29l-8 -87h-504zM185 1800.5q0 11.5 0.5 27.5t14 42t33.5 46q45 43 84.5 43t62.5 -9q70 -29 70 -102q0 -61 -48 -108q-46 -44 -87 -44q-93 0 -122 74q-8 19 -8 30.5zM602 1804.5 q0 39.5 14 65.5t35 46q45 43 85 43t63 -9q70 -29 70 -102q0 -62 -47 -108q-46 -44 -87 -44q-64 0 -98.5 34.5t-34.5 74z" />
<glyph unicode="&#xd0;" horiz-adv-x="1427" d="M19 2l9 86l148 30l76 604h-150l16 130h150l70 556l-133 23l12 101h296q66 1 131 8.5t135 7.5q292 0 439 -173q138 -164 138 -471q0 -391 -210 -652q-142 -175 -350 -238q-95 -28 -201 -28q-27 0 -44 1l-62 4q-15 1 -29.5 2t-39.5 3t-53 3l-55 2q-27 1 -48 1h-245z M376 134q49 -18 138 -24.5t113 -6.5q181 13 308 138q218 214 218 652q0 294 -105 421q-99 118 -328 118q-114 0 -185 -19l-70 -561h392l-16 -130h-392z" />
<glyph unicode="&#xd1;" horiz-adv-x="1517" d="M34 0l8 86l136 28l169 1292l-146 23l17 101h339l468 -1112l71 -233l144 1222l-150 22l12 101h451l-10 -101l-146 -23l-203 -1406h-188l-473 1115l-61 221l-127 -1220l160 -29l-8 -87h-463zM586 1801q55 110 170 155q38 14 74 14t61.5 -10.5t46.5 -26t39 -33.5t35 -34 q42 -36 74 -36t54 10.5t40.5 26.5t33.5 35l30 38l58 -91q-42 -122 -168 -167q-40 -14 -82 -14t-70 10t-49 25.5t-37 33.5t-32 33q-60 56 -120 30q-57 -25 -111 -83z" />
<glyph unicode="&#xd2;" horiz-adv-x="1386" d="M107 670q0 375 201 626q203 254 502 254q233 0 368 -196q128 -188 128 -484q0 -376 -191 -629q-197 -261 -503 -261q-107 0 -200.5 47t-160.5 133q-144 185 -144 510zM311 753q0 -653 339 -653q96 0 181 55q172 114 243 395q31 128 31 278q0 440 -189 559 q-61 38 -149.5 38t-174.5 -53q-175 -106 -248 -366q-33 -117 -33 -253zM520 1862l133 138l263 -342l-56 -45q-88 32 -164 81q-145 95 -176 168z" />
<glyph unicode="&#xd3;" horiz-adv-x="1386" d="M107 670q0 375 201 626q203 254 502 254q233 0 368 -196q128 -188 128 -484q0 -376 -191 -629q-197 -261 -503 -261q-107 0 -200.5 47t-160.5 133q-144 185 -144 510zM311 753q0 -653 339 -653q96 0 181 55q172 114 243 395q31 128 31 278q0 440 -189 559 q-61 38 -149.5 38t-174.5 -53q-175 -106 -248 -366q-33 -117 -33 -253zM787 1658l276 342l124 -138q-35 -74 -157 -153q-96 -62 -190 -96z" />
<glyph unicode="&#xd4;" horiz-adv-x="1386" d="M107 670q0 375 201 626q203 254 502 254q233 0 368 -196q128 -188 128 -484q0 -376 -191 -629q-197 -261 -503 -261q-107 0 -200.5 47t-160.5 133q-144 185 -144 510zM311 753q0 -653 339 -653q96 0 181 55q172 114 243 395q31 128 31 278q0 440 -189 559 q-61 38 -149.5 38t-174.5 -53q-175 -106 -248 -366q-33 -117 -33 -253zM499 1672l305 328h177l212 -328l-68 -59l-241 229l-324 -228z" />
<glyph unicode="&#xd5;" horiz-adv-x="1386" d="M107 670q0 375 201 626q203 254 502 254q233 0 368 -196q128 -188 128 -484q0 -376 -191 -629q-197 -261 -503 -261q-107 0 -200.5 47t-160.5 133q-144 185 -144 510zM311 753q0 -653 339 -653q96 0 181 55q172 114 243 395q31 128 31 278q0 440 -189 559 q-61 38 -149.5 38t-174.5 -53q-175 -106 -248 -366q-33 -117 -33 -253zM508 1801q55 110 170 155q38 14 74 14t61.5 -10.5t46.5 -26t39 -33.5t35 -34q42 -36 74 -36t54 10.5t40.5 26.5t33.5 35l30 38l58 -91q-42 -122 -168 -167q-40 -14 -82 -14t-70 10t-49 25.5t-37 33.5 t-32 33q-60 56 -120 30q-57 -25 -111 -83z" />
<glyph unicode="&#xd6;" horiz-adv-x="1386" d="M107 670q0 375 201 626q203 254 502 254q233 0 368 -196q128 -188 128 -484q0 -376 -191 -629q-197 -261 -503 -261q-107 0 -200.5 47t-160.5 133q-144 185 -144 510zM311 753q0 -653 339 -653q96 0 181 55q172 114 243 395q31 128 31 278q0 440 -189 559 q-61 38 -149.5 38t-174.5 -53q-175 -106 -248 -366q-33 -117 -33 -253zM516 1800.5q0 11.5 0.5 27.5t14 42t33.5 46q45 43 84.5 43t62.5 -9q70 -29 70 -102q0 -61 -48 -108q-46 -44 -87 -44q-93 0 -122 74q-8 19 -8 30.5zM933 1804.5q0 39.5 14 65.5t35 46q45 43 85 43 t63 -9q70 -29 70 -102q0 -62 -47 -108q-46 -44 -87 -44q-64 0 -98.5 34.5t-34.5 74z" />
<glyph unicode="&#xd7;" horiz-adv-x="1370" d="M231 438l383 327l-301 327l132 123l281 -350l369 350l102 -123l-383 -327l301 -327l-132 -123l-281 350l-369 -350z" />
<glyph unicode="&#xd8;" horiz-adv-x="1386" d="M57 -83l178 267q-128 184 -128 488q0 375 201 626q203 254 502 254q158 0 273 -94l141 212l89 -49l-157 -237q150 -189 150 -512q0 -376 -191 -629q-126 -167 -307 -229q-90 -32 -189 -32q-187 0 -316 123l-157 -237zM311 755q0 -246 49 -404l625 976q-80 100 -209 100 q-98 0 -184 -53q-175 -106 -248 -366q-33 -117 -33 -253zM408 240q84 -138 242 -138q96 0 181 55q172 114 243 395q31 128 31 278q0 244 -63 398z" />
<glyph unicode="&#xd9;" horiz-adv-x="1379" d="M127 1430l12 100h483l-11 -100l-151 -25l-104 -795q-11 -103 -11 -142v-50q3 -163 76.5 -245.5t205.5 -82.5q339 0 400 536l103 779l-133 24l11 101h432l-11 -101l-124 -22l-104 -780q-66 -508 -375 -613q-101 -34 -219 -34t-201 31q-261 97 -261 443q0 64 8 139l107 814 zM501 1862l133 138l263 -342l-56 -45q-88 32 -164 81q-145 95 -176 168z" />
<glyph unicode="&#xda;" horiz-adv-x="1379" d="M127 1430l12 100h483l-11 -100l-151 -25l-104 -795q-11 -103 -11 -142v-50q3 -163 76.5 -245.5t205.5 -82.5q339 0 400 536l103 779l-133 24l11 101h432l-11 -101l-124 -22l-104 -780q-66 -508 -375 -613q-101 -34 -219 -34t-201 31q-261 97 -261 443q0 64 8 139l107 814 zM768 1658l276 342l124 -138q-35 -74 -157 -153q-96 -62 -190 -96z" />
<glyph unicode="&#xdb;" horiz-adv-x="1379" d="M127 1430l12 100h483l-11 -100l-151 -25l-104 -795q-11 -103 -11 -142v-50q3 -163 76.5 -245.5t205.5 -82.5q339 0 400 536l103 779l-133 24l11 101h432l-11 -101l-124 -22l-104 -780q-66 -508 -375 -613q-101 -34 -219 -34t-201 31q-261 97 -261 443q0 64 8 139l107 814 zM480 1672l305 328h177l212 -328l-68 -59l-241 229l-324 -228z" />
<glyph unicode="&#xdc;" horiz-adv-x="1379" d="M127 1430l12 100h483l-11 -100l-151 -25l-104 -795q-11 -103 -11 -142v-50q3 -163 76.5 -245.5t205.5 -82.5q339 0 400 536l103 779l-133 24l11 101h432l-11 -101l-124 -22l-104 -780q-66 -508 -375 -613q-101 -34 -219 -34t-201 31q-261 97 -261 443q0 64 8 139l107 814 zM497 1800.5q0 11.5 0.5 27.5t14 42t33.5 46q45 43 84.5 43t62.5 -9q70 -29 70 -102q0 -61 -48 -108q-46 -44 -87 -44q-93 0 -122 74q-8 19 -8 30.5zM914 1804.5q0 39.5 14 65.5t35 46q45 43 85 43t63 -9q70 -29 70 -102q0 -62 -47 -108q-46 -44 -87 -44q-64 0 -98.5 34.5 t-34.5 74z" />
<glyph unicode="&#xdd;" horiz-adv-x="1173" d="M40 1429l10 101h489l-12 -101l-160 -23l228 -568l36 -126l72 126l343 568l-139 23l11 101h412l-11 -101l-99 -22l-524 -817l-61 -474l213 -29l-8 -87h-597l8 87l196 29l61 474l-364 816zM686 1658l276 342l124 -138q-35 -74 -157 -153q-96 -62 -190 -96z" />
<glyph unicode="&#xde;" horiz-adv-x="1233" d="M30 0l9 86l148 30l161 1290l-133 23l12 101h483l-11 -101l-153 -23l-27 -211q95 18 218 18q226 0 340.5 -99.5t114.5 -284.5q0 -233 -178 -379q-171 -140 -427 -140q-124 0 -178 4l-24 -198l174 -29l-8 -87h-521zM424 433q69 -11 167 -11t176 28q228 82 228 329 q0 169 -64 239q-70 76 -247 76q-90 0 -180 -19z" />
<glyph unicode="&#xdf;" horiz-adv-x="1184" d="M73 0l129 927q77 605 461 651q58 7 119 7t119 -18.5t100 -54.5q90 -79 90 -219q0 -159 -129 -275l-62 -56q-67 -64 -67 -111.5t30.5 -97t93.5 -127.5l41 -63q72 -113 72 -235q0 -140 -129 -243q-127 -101 -296 -101q-127 0 -221 47l26 187q53 -62 160 -92q35 -10 70 -10 t69 7t59 27q56 42 56 148q0 100 -78 225q-134 158 -134 270q0 63 22 100t41 59l41 47q133 135 133 288q0 122 -95 163q-33 14 -84.5 14t-102.5 -32t-93 -103q-85 -144 -126 -462l-121 -867h-194z" />
<glyph unicode="&#xe0;" horiz-adv-x="1173" d="M83 412q0 161 77 332q128 286 380 384q88 35 186 35t203 -35l119 34l-131 -975q-5 -41 6.5 -58.5t33 -17.5t78.5 46l31 -53q-17 -31 -61 -62q-89 -62 -162 -62q-127 0 -127 121v14l2 21q-130 -156 -305 -156q-162 0 -249 122q-81 114 -81 310zM288 466.5 q0 -103.5 11 -162t32 -98.5q43 -84 119 -84q128 0 238 114q31 32 52 62l92 710q-47 33 -125 33t-136.5 -28t-104.5 -75t-79.5 -108.5t-55.5 -128.5q-43 -131 -43 -234.5zM336 1576l153 167l288 -432l-55 -60q-111 47 -276 199q-80 73 -110 126z" />
<glyph unicode="&#xe1;" horiz-adv-x="1173" d="M83 412q0 161 77 332q128 286 380 384q88 35 186 35t203 -35l119 34l-131 -975q-5 -41 6.5 -58.5t33 -17.5t78.5 46l31 -53q-17 -31 -61 -62q-89 -62 -162 -62q-127 0 -127 121v14l2 21q-130 -156 -305 -156q-162 0 -249 122q-81 114 -81 310zM288 466.5 q0 -103.5 11 -162t32 -98.5q43 -84 119 -84q128 0 238 114q31 32 52 62l92 710q-47 33 -125 33t-136.5 -28t-104.5 -75t-79.5 -108.5t-55.5 -128.5q-43 -131 -43 -234.5zM614 1312l317 431l142 -167q-29 -56 -172 -171q-154 -125 -234 -154z" />
<glyph unicode="&#xe2;" horiz-adv-x="1173" d="M83 412q0 161 77 332q128 286 380 384q88 35 186 35t203 -35l119 34l-131 -975q-5 -41 6.5 -58.5t33 -17.5t78.5 46l31 -53q-17 -31 -61 -62q-89 -62 -162 -62q-127 0 -127 121v14l2 21q-130 -156 -305 -156q-162 0 -249 122q-81 114 -81 310zM288 466.5 q0 -103.5 11 -162t32 -98.5q43 -84 119 -84q128 0 238 114q31 32 52 62l92 710q-47 33 -125 33t-136.5 -28t-104.5 -75t-79.5 -108.5t-55.5 -128.5q-43 -131 -43 -234.5zM359 1276l327 374h178l190 -374l-74 -58l-231 274l-333 -273z" />
<glyph unicode="&#xe3;" horiz-adv-x="1173" d="M83 412q0 161 77 332q128 286 380 384q88 35 186 35t203 -35l119 34l-131 -975q-5 -41 6.5 -58.5t33 -17.5t78.5 46l31 -53q-17 -31 -61 -62q-89 -62 -162 -62q-127 0 -127 121v14l2 21q-130 -156 -305 -156q-162 0 -249 122q-81 114 -81 310zM288 466.5 q0 -103.5 11 -162t32 -98.5q43 -84 119 -84q128 0 238 114q31 32 52 62l92 710q-47 33 -125 33t-136.5 -28t-104.5 -75t-79.5 -108.5t-55.5 -128.5q-43 -131 -43 -234.5zM380 1481q55 110 170 155q38 14 74 14t61.5 -10.5t46.5 -26t39 -33.5t35 -34q42 -36 74 -36t54 10.5 t40.5 26.5t33.5 35l30 38l58 -91q-42 -122 -168 -167q-40 -14 -82 -14t-70 10t-49 25.5t-37 33.5t-32 33q-60 56 -120 30q-57 -25 -111 -83z" />
<glyph unicode="&#xe4;" horiz-adv-x="1173" d="M83 412q0 161 77 332q128 286 380 384q88 35 186 35t203 -35l119 34l-131 -975q-5 -41 6.5 -58.5t33 -17.5t78.5 46l31 -53q-17 -31 -61 -62q-89 -62 -162 -62q-127 0 -127 121v14l2 21q-130 -156 -305 -156q-162 0 -249 122q-81 114 -81 310zM288 466.5 q0 -103.5 11 -162t32 -98.5q43 -84 119 -84q128 0 238 114q31 32 52 62l92 710q-47 33 -125 33t-136.5 -28t-104.5 -75t-79.5 -108.5t-55.5 -128.5q-43 -131 -43 -234.5zM404 1503q0 59 46 105q43 43 85 43t66 -9q70 -29 70 -101q0 -63 -47 -109q-46 -44 -87.5 -44t-63.5 10 q-69 30 -69 105zM837 1562q27 54 79 78q26 11 53.5 11t51.5 -9q70 -29 70 -101q0 -63 -47 -109q-46 -44 -87 -44q-67 0 -101 36q-57 58 -19 138z" />
<glyph unicode="&#xe5;" horiz-adv-x="1173" d="M83 412q0 161 77 332q128 286 380 384q88 35 186 35t203 -35l119 34l-131 -975q-5 -41 6.5 -58.5t33 -17.5t78.5 46l31 -53q-17 -31 -61 -62q-89 -62 -162 -62q-127 0 -127 121v14l2 21q-130 -156 -305 -156q-162 0 -249 122q-81 114 -81 310zM288 466.5 q0 -103.5 11 -162t32 -98.5q43 -84 119 -84q128 0 238 114q31 32 52 62l92 710q-47 33 -125 33t-136.5 -28t-104.5 -75t-79.5 -108.5t-55.5 -128.5q-43 -131 -43 -234.5zM457 1486q0 19 5.5 64t39.5 94t83 80q94 62 228.5 62t200.5 -64.5t66 -161.5q0 -157 -121 -242 q-94 -65 -232 -65q-67 0 -122 19q-148 52 -148 214zM598 1505q0 -63 29 -99t59 -51t66.5 -15.5t69 8t56.5 28.5q62 52 62 162q0 106 -85 146q-29 14 -66 14t-69.5 -9t-57.5 -29q-64 -51 -64 -155z" />
<glyph unicode="&#xe6;" horiz-adv-x="1711" d="M84 391q0 162 76 337q131 296 380 398q88 36 186.5 36t218.5 -40l114 40l-32 -123q142 123 314 123q138 0 211 -74q68 -67 68 -162t-35 -157.5t-92 -112t-128 -86t-143 -60.5q-145 -48 -252 -50q-2 -34 -2 -65t2.5 -75.5t21.5 -92.5q43 -108 163 -108q196 0 360 146 l46 -83q-52 -71 -161 -130q-131 -72 -269 -72q-287 0 -352 263q-91 -175 -263 -239q-64 -24 -143 -24q-289 0 -289 411zM284 404q0 -282 136 -282q118 0 218 101q73 75 123 187v20q6 279 159 490q48 68 107 119l-30 -117l-223 -359l71 435q-52 43 -134.5 43t-141 -30.5 t-104.5 -81t-80 -116t-57 -136.5q-44 -140 -44 -273zM975 570q145 7 279 89q161 98 161 242.5t-121 144.5q-172 0 -272 -278q-35 -98 -47 -198z" />
<glyph unicode="&#xe7;" horiz-adv-x="903" d="M84 418q0 89 17 173t50.5 165.5t83 155t115.5 129.5q142 122 323 122q128 0 220 -48l-58 -194q-109 95 -196 95t-148.5 -36.5t-105.5 -107.5q-92 -147 -92 -412q0 -257 121 -321q37 -20 78.5 -20t72.5 6.5t62 20.5q56 25 139 86l39 -81q-66 -79 -177 -131 q-44 -21 -96 -31q11 -37 11 -84.5t-6.5 -110.5t-28.5 -117.5t-56 -85.5q-62 -55 -181 -55q-101 0 -138 28l35 131q26 -14 64 -14t66 10.5t50 34.5q73 75 63 255q-237 18 -305 267q-22 81 -22 170z" />
<glyph unicode="&#xe8;" horiz-adv-x="1051" d="M86 380q0 43 1.5 93.5t23 141.5t59.5 172.5t90.5 150.5t117.5 119q138 106 298 106q208 0 266 -151q18 -46 18 -111t-36 -128.5t-94 -113.5t-131 -86.5t-147 -60.5q-149 -50 -257 -52q-2 -21 -2 -39t1 -43t10 -63t25 -73.5t41 -62.5q56 -60 140 -60q183 0 340 146l46 -83 q-50 -72 -154 -130q-125 -72 -243.5 -72t-194.5 38q-150 74 -198 245q-20 74 -20 117zM257 1576l153 167l288 -432l-55 -60q-111 47 -276 199q-80 73 -110 126zM300 570q146 7 288 90q101 58 144 142q23 43 23 108t-35 100.5t-88.5 35.5t-96.5 -23.5t-77.5 -62.5t-62 -89 t-47.5 -103q-36 -100 -48 -198z" />
<glyph unicode="&#xe9;" horiz-adv-x="1051" d="M86 380q0 43 1.5 93.5t23 141.5t59.5 172.5t90.5 150.5t117.5 119q138 106 298 106q208 0 266 -151q18 -46 18 -111t-36 -128.5t-94 -113.5t-131 -86.5t-147 -60.5q-149 -50 -257 -52q-2 -21 -2 -39t1 -43t10 -63t25 -73.5t41 -62.5q56 -60 140 -60q183 0 340 146l46 -83 q-50 -72 -154 -130q-125 -72 -243.5 -72t-194.5 38q-150 74 -198 245q-20 74 -20 117zM300 570q146 7 288 90q101 58 144 142q23 43 23 108t-35 100.5t-88.5 35.5t-96.5 -23.5t-77.5 -62.5t-62 -89t-47.5 -103q-36 -100 -48 -198zM535 1312l317 431l142 -167 q-29 -56 -172 -171q-154 -125 -234 -154z" />
<glyph unicode="&#xea;" horiz-adv-x="1051" d="M86 380q0 43 1.5 93.5t23 141.5t59.5 172.5t90.5 150.5t117.5 119q138 106 298 106q208 0 266 -151q18 -46 18 -111t-36 -128.5t-94 -113.5t-131 -86.5t-147 -60.5q-149 -50 -257 -52q-2 -21 -2 -39t1 -43t10 -63t25 -73.5t41 -62.5q56 -60 140 -60q183 0 340 146l46 -83 q-50 -72 -154 -130q-125 -72 -243.5 -72t-194.5 38q-150 74 -198 245q-20 74 -20 117zM280 1276l327 374h178l190 -374l-74 -58l-231 274l-333 -273zM300 570q146 7 288 90q101 58 144 142q23 43 23 108t-35 100.5t-88.5 35.5t-96.5 -23.5t-77.5 -62.5t-62 -89t-47.5 -103 q-36 -100 -48 -198z" />
<glyph unicode="&#xeb;" horiz-adv-x="1051" d="M86 380q0 43 1.5 93.5t23 141.5t59.5 172.5t90.5 150.5t117.5 119q138 106 298 106q208 0 266 -151q18 -46 18 -111t-36 -128.5t-94 -113.5t-131 -86.5t-147 -60.5q-149 -50 -257 -52q-2 -21 -2 -39t1 -43t10 -63t25 -73.5t41 -62.5q56 -60 140 -60q183 0 340 146l46 -83 q-50 -72 -154 -130q-125 -72 -243.5 -72t-194.5 38q-150 74 -198 245q-20 74 -20 117zM300 570q146 7 288 90q101 58 144 142q23 43 23 108t-35 100.5t-88.5 35.5t-96.5 -23.5t-77.5 -62.5t-62 -89t-47.5 -103q-36 -100 -48 -198zM325 1503q0 59 46 105q43 43 85 43t66 -9 q70 -29 70 -101q0 -63 -47 -109q-46 -44 -87.5 -44t-63.5 10q-69 30 -69 105zM758 1562q27 54 79 78q26 11 53.5 11t51.5 -9q70 -29 70 -101q0 -63 -47 -109q-46 -44 -87 -44q-67 0 -101 36q-57 58 -19 138z" />
<glyph unicode="&#xec;" horiz-adv-x="641" d="M49 1576l153 167l288 -432l-55 -60q-111 47 -276 199q-80 73 -110 126zM140 1031l18 81l302 51l49 -24l-139 -952q-3 -19 -3 -33q0 -43 25 -43q37 0 107 67l32 -53q-50 -78 -159 -127q-41 -18 -86 -18q-124 0 -124 114q0 68 33 274l93 612z" />
<glyph unicode="&#xed;" horiz-adv-x="641" d="M140 1031l18 81l302 51l49 -24l-139 -952q-3 -19 -3 -33q0 -43 25 -43q37 0 107 67l32 -53q-50 -78 -159 -127q-41 -18 -86 -18q-124 0 -124 114q0 68 33 274l93 612zM326 1312l317 431l142 -167q-29 -56 -172 -171q-154 -125 -234 -154z" />
<glyph unicode="&#xee;" horiz-adv-x="641" d="M71 1276l327 374h178l190 -374l-74 -58l-231 274l-333 -273zM140 1031l18 81l302 51l49 -24l-139 -952q-3 -19 -3 -33q0 -43 25 -43q37 0 107 67l32 -53q-50 -78 -159 -127q-41 -18 -86 -18q-124 0 -124 114q0 68 33 274l93 612z" />
<glyph unicode="&#xef;" horiz-adv-x="641" d="M116 1503q0 59 46 105q43 43 85 43t66 -9q70 -29 70 -101q0 -63 -47 -109q-46 -44 -87.5 -44t-63.5 10q-69 30 -69 105zM140 1031l18 81l302 51l49 -24l-139 -952q-3 -19 -3 -33q0 -43 25 -43q37 0 107 67l32 -53q-50 -78 -159 -127q-41 -18 -86 -18q-124 0 -124 114 q0 68 33 274l93 612zM549 1562q27 54 79 78q26 11 53.5 11t51.5 -9q70 -29 70 -101q0 -63 -47 -109q-46 -44 -87 -44q-67 0 -101 36q-57 58 -19 138z" />
<glyph unicode="&#xf0;" horiz-adv-x="1176" d="M86 423q0 310 172 504q163 183 384 183q119 0 196 -62q28 -22 47 -53q-38 156 -66 216q-50 108 -138 188l-150 -168l-100 88l152 163q-148 111 -242 133l43 119q118 -28 297 -145q76 86 102 118l52 64l97 -91l-150 -167q303 -267 303 -691q0 -361 -154 -594 q-164 -248 -449 -248q-189 0 -299 141q-97 125 -97 302zM297 411q0 -137 53 -227q57 -96 157 -96q125 0 223 136q122 169 143 504v12t-4.5 33.5t-16 54.5t-30 60.5t-44.5 54.5q-61 55 -131.5 55t-119 -25t-86 -68.5t-65 -101.5t-44.5 -123q-35 -128 -35 -269z" />
<glyph unicode="&#xf1;" horiz-adv-x="1258" d="M135 0l130 963l-98 59l18 89l242 52l48 -24l-20 -212q133 163 297 217q55 19 109 19t95.5 -15.5t71.5 -51.5q61 -74 61 -235q0 -84 -22 -199t-33 -174q-52 -298 -38 -358q4 -20 26 -20t79 46l31 -52q-44 -67 -145 -109q-38 -16 -80 -16q-130 0 -123 132q4 65 15 134 l19 112q5 34 23.5 133.5t26.5 153.5q21 129 21 194.5t-8 96.5t-23 47q-21 23 -71 23t-94.5 -19t-89.5 -53q-95 -72 -171 -178l-102 -755h-195zM362 1481q55 110 170 155q38 14 74 14t61.5 -10.5t46.5 -26t39 -33.5t35 -34q42 -36 74 -36t54 10.5t40.5 26.5t33.5 35l30 38 l58 -91q-42 -122 -168 -167q-40 -14 -82 -14t-70 10t-49 25.5t-37 33.5t-32 33q-60 56 -120 30q-57 -25 -111 -83z" />
<glyph unicode="&#xf2;" horiz-adv-x="1143" d="M87 457q0 267 155 480q103 141 253 197q75 29 164.5 29t162.5 -31t124 -90q105 -123 105 -349q0 -277 -155 -487q-104 -140 -254 -198q-75 -28 -164.5 -28t-162.5 31q-228 97 -228 446zM265 1576l153 167l288 -432l-55 -60q-111 47 -276 199q-80 73 -110 126zM294 456 q0 -258 128 -330q41 -24 97 -24t102.5 26.5t83 72t63.5 105.5q74 169 74 381q0 258 -128 331q-41 23 -97 23t-102.5 -26.5t-83 -72t-63.5 -105.5q-74 -169 -74 -381z" />
<glyph unicode="&#xf3;" horiz-adv-x="1143" d="M87 457q0 267 155 480q103 141 253 197q75 29 164.5 29t162.5 -31t124 -90q105 -123 105 -349q0 -277 -155 -487q-104 -140 -254 -198q-75 -28 -164.5 -28t-162.5 31q-228 97 -228 446zM294 456q0 -258 128 -330q41 -24 97 -24t102.5 26.5t83 72t63.5 105.5 q74 169 74 381q0 258 -128 331q-41 23 -97 23t-102.5 -26.5t-83 -72t-63.5 -105.5q-74 -169 -74 -381zM543 1312l317 431l142 -167q-29 -56 -172 -171q-154 -125 -234 -154z" />
<glyph unicode="&#xf4;" horiz-adv-x="1143" d="M87 457q0 267 155 480q103 141 253 197q75 29 164.5 29t162.5 -31t124 -90q105 -123 105 -349q0 -277 -155 -487q-104 -140 -254 -198q-75 -28 -164.5 -28t-162.5 31q-228 97 -228 446zM288 1276l327 374h178l190 -374l-74 -58l-231 274l-333 -273zM294 456 q0 -258 128 -330q41 -24 97 -24t102.5 26.5t83 72t63.5 105.5q74 169 74 381q0 258 -128 331q-41 23 -97 23t-102.5 -26.5t-83 -72t-63.5 -105.5q-74 -169 -74 -381z" />
<glyph unicode="&#xf5;" horiz-adv-x="1143" d="M87 457q0 267 155 480q103 141 253 197q75 29 164.5 29t162.5 -31t124 -90q105 -123 105 -349q0 -277 -155 -487q-104 -140 -254 -198q-75 -28 -164.5 -28t-162.5 31q-228 97 -228 446zM294 456q0 -258 128 -330q41 -24 97 -24t102.5 26.5t83 72t63.5 105.5 q74 169 74 381q0 258 -128 331q-41 23 -97 23t-102.5 -26.5t-83 -72t-63.5 -105.5q-74 -169 -74 -381zM309 1481q55 110 170 155q38 14 74 14t61.5 -10.5t46.5 -26t39 -33.5t35 -34q42 -36 74 -36t54 10.5t40.5 26.5t33.5 35l30 38l58 -91q-42 -122 -168 -167 q-40 -14 -82 -14t-70 10t-49 25.5t-37 33.5t-32 33q-60 56 -120 30q-57 -25 -111 -83z" />
<glyph unicode="&#xf6;" horiz-adv-x="1143" d="M87 457q0 267 155 480q103 141 253 197q75 29 164.5 29t162.5 -31t124 -90q105 -123 105 -349q0 -277 -155 -487q-104 -140 -254 -198q-75 -28 -164.5 -28t-162.5 31q-228 97 -228 446zM294 456q0 -258 128 -330q41 -24 97 -24t102.5 26.5t83 72t63.5 105.5 q74 169 74 381q0 258 -128 331q-41 23 -97 23t-102.5 -26.5t-83 -72t-63.5 -105.5q-74 -169 -74 -381zM333 1503q0 59 46 105q43 43 85 43t66 -9q70 -29 70 -101q0 -63 -47 -109q-46 -44 -87.5 -44t-63.5 10q-69 30 -69 105zM766 1562q27 54 79 78q26 11 53.5 11t51.5 -9 q70 -29 70 -101q0 -63 -47 -109q-46 -44 -87 -44q-67 0 -101 36q-57 58 -19 138z" />
<glyph unicode="&#xf7;" horiz-adv-x="1370" d="M274 696l18 157h869l-18 -157h-869zM526 371q0 29 19.5 60t44.5 51q53 42 100 42t71 -10q62 -26 62 -98q0 -73 -62 -124q-50 -40 -94.5 -40t-68 8.5t-40.5 24.5t-24.5 36.5t-7.5 49.5zM621.5 1137.5q4.5 44.5 22 71.5t42.5 47q52 42 99.5 42t72 -10t38.5 -27 q29 -34 24 -77.5t-22 -70.5t-41.5 -46.5t-54 -30t-56.5 -10.5t-50.5 8.5t-41.5 24.5q-37 34 -32.5 78.5z" />
<glyph unicode="&#xf8;" horiz-adv-x="1143" d="M42 -83l138 200q-93 123 -93 342q0 267 155 480q103 141 253 197q75 29 175 29t185 -47l130 185l89 -49l-139 -199q116 -124 116 -360q0 -277 -155 -487q-104 -140 -254 -198q-75 -28 -159 -28q-136 0 -228 63l-124 -177zM294 458q0 -95 17 -166l443 697 q-54 54 -123.5 54t-116 -26.5t-83 -72t-63.5 -105.5q-74 -169 -74 -381zM361 182q57 -78 157 -78q159 0 250 204q74 169 74 381q0 121 -30 203z" />
<glyph unicode="&#xf9;" horiz-adv-x="1207" d="M152 1022l18 89l242 52l48 -24l-90 -709q-9 -76 -9 -136t10 -93t29 -51q33 -33 85.5 -33t88 10.5t68.5 28.5q67 36 119 90l120 909h193l-125 -966q-2 -18 -2 -32q0 -44 24 -44q34 0 106 67l31 -53q-20 -36 -69 -72q-100 -73 -171 -73t-95.5 33t-24.5 61.5t2 43.5 q-140 -140 -330 -140q-188 0 -237 144q-18 53 -18 108.5t3 96.5t8 85l74 549zM288 1576l153 167l288 -432l-55 -60q-111 47 -276 199q-80 73 -110 126z" />
<glyph unicode="&#xfa;" horiz-adv-x="1207" d="M152 1022l18 89l242 52l48 -24l-90 -709q-9 -76 -9 -136t10 -93t29 -51q33 -33 85.5 -33t88 10.5t68.5 28.5q67 36 119 90l120 909h193l-125 -966q-2 -18 -2 -32q0 -44 24 -44q34 0 106 67l31 -53q-20 -36 -69 -72q-100 -73 -171 -73t-95.5 33t-24.5 61.5t2 43.5 q-140 -140 -330 -140q-188 0 -237 144q-18 53 -18 108.5t3 96.5t8 85l74 549zM566 1312l317 431l142 -167q-29 -56 -172 -171q-154 -125 -234 -154z" />
<glyph unicode="&#xfb;" horiz-adv-x="1207" d="M152 1022l18 89l242 52l48 -24l-90 -709q-9 -76 -9 -136t10 -93t29 -51q33 -33 85.5 -33t88 10.5t68.5 28.5q67 36 119 90l120 909h193l-125 -966q-2 -18 -2 -32q0 -44 24 -44q34 0 106 67l31 -53q-20 -36 -69 -72q-100 -73 -171 -73t-95.5 33t-24.5 61.5t2 43.5 q-140 -140 -330 -140q-188 0 -237 144q-18 53 -18 108.5t3 96.5t8 85l74 549zM311 1276l327 374h178l190 -374l-74 -58l-231 274l-333 -273z" />
<glyph unicode="&#xfc;" horiz-adv-x="1207" d="M152 1022l18 89l242 52l48 -24l-90 -709q-9 -76 -9 -136t10 -93t29 -51q33 -33 85.5 -33t88 10.5t68.5 28.5q67 36 119 90l120 909h193l-125 -966q-2 -18 -2 -32q0 -44 24 -44q34 0 106 67l31 -53q-20 -36 -69 -72q-100 -73 -171 -73t-95.5 33t-24.5 61.5t2 43.5 q-140 -140 -330 -140q-188 0 -237 144q-18 53 -18 108.5t3 96.5t8 85l74 549zM356 1503q0 59 46 105q43 43 85 43t66 -9q70 -29 70 -101q0 -63 -47 -109q-46 -44 -87.5 -44t-63.5 10q-69 30 -69 105zM789 1562q27 54 79 78q26 11 53.5 11t51.5 -9q70 -29 70 -101 q0 -63 -47 -109q-46 -44 -87 -44q-67 0 -101 36q-57 58 -19 138z" />
<glyph unicode="&#xfd;" horiz-adv-x="1071" d="M-129 -478l46 158q93 -40 146.5 -40t95 14.5t85.5 49.5q102 81 169 243h-63l-170 1018q-9 31 -17 43.5t-32.5 12.5t-72.5 -43l-29 60q45 67 141 109q36 16 74 16t61.5 -9.5t38.5 -27.5q22 -29 34 -100l85 -731l20 -274l159 317l62 141q104 230 128 419q5 40 -7 73l-17 50 q-6 17 -6 33q0 56 27.5 82t69.5 26q128 0 128 -190q0 -199 -159 -500l-209 -403q-151 -282 -258 -409q-74 -106 -228 -149q-58 -16 -102 -16t-67 2.5t-48 6.5q-60 10 -85 18zM506 1312l317 431l142 -167q-29 -56 -172 -171q-154 -125 -234 -154z" />
<glyph unicode="&#xfe;" horiz-adv-x="1165" d="M31 -520l71 500l198 1502l-95 43l30 86l231 39l51 -27l-84 -625q86 111 209 150q45 14 113.5 14t132.5 -32.5t106 -89.5q83 -114 83 -310q0 -256 -167 -490q-116 -161 -283 -226q-87 -34 -171 -34t-158 17l-17 -137l-60 -380h-190zM318 143q52 -42 137 -42t142 28.5 t101.5 77t77 111t54.5 130.5q42 136 42 275.5t-45 218t-123 78.5q-84 0 -174 -65q-73 -54 -120 -126z" />
<glyph unicode="&#xff;" horiz-adv-x="1071" d="M-129 -478l46 158q93 -40 146.5 -40t95 14.5t85.5 49.5q102 81 169 243h-63l-170 1018q-9 31 -17 43.5t-32.5 12.5t-72.5 -43l-29 60q45 67 141 109q36 16 74 16t61.5 -9.5t38.5 -27.5q22 -29 34 -100l85 -731l20 -274l159 317l62 141q104 230 128 419q5 40 -7 73l-17 50 q-6 17 -6 33q0 56 27.5 82t69.5 26q128 0 128 -190q0 -199 -159 -500l-209 -403q-151 -282 -258 -409q-74 -106 -228 -149q-58 -16 -102 -16t-67 2.5t-48 6.5q-60 10 -85 18zM296 1503q0 59 46 105q43 43 85 43t66 -9q70 -29 70 -101q0 -63 -47 -109q-46 -44 -87.5 -44 t-63.5 10q-69 30 -69 105zM729 1562q27 54 79 78q26 11 53.5 11t51.5 -9q70 -29 70 -101q0 -63 -47 -109q-46 -44 -87 -44q-67 0 -101 36q-57 58 -19 138z" />
<glyph unicode="&#x152;" horiz-adv-x="2216" d="M102 650q0 376 200 634q131 168 314 232q91 31 179.5 31t154.5 -24t119 -67q102 -84 159 -240l39 314h789l-7 -310h-106l-48 188l-441 14l-72 -568l437 7l-12 -156l-437 16l-83 -605l557 24l119 207l104 -31l-89 -316h-902l32 262q-192 -282 -510 -282q-94 0 -188 44 t-162 126q-146 180 -146 500zM306 770q0 -181 22 -314q58 -356 321 -356q96 0 180 57q170 117 239 401q31 130 31 279q0 451 -189 553q-60 32 -132 32t-132.5 -25t-112.5 -71t-95 -110q-85 -128 -118 -316q-14 -81 -14 -130z" />
<glyph unicode="&#x153;" horiz-adv-x="1778" d="M87 457q0 169 70 331q113 260 338 346q75 28 159 28q250 0 347 -208q171 208 402 208q209 0 267 -150q17 -46 17 -111t-36 -128.5t-94 -113.5t-131 -86.5t-147 -60.5q-149 -50 -257 -52q-3 -21 -3 -39t1.5 -43t10.5 -63t25 -73.5t41 -62.5q56 -60 140 -60q183 0 340 146 l46 -83q-50 -72 -153 -130q-126 -72 -257 -72q-238 0 -344 193q-162 -193 -386 -193q-188 0 -291 120q-105 124 -105 357zM294 456q0 -258 128 -330q41 -24 97.5 -24t103.5 27.5t83 74.5q70 88 107 236q4 97 28 189q1 24 1 46.5t-1 56t-9 79.5t-23.5 87.5t-40.5 73.5 q-57 69 -150 69q-159 0 -250 -204q-74 -169 -74 -381zM1027 570q147 7 289 90q100 58 144 142q22 43 22 108t-35 100.5t-88.5 35.5t-96.5 -23.5t-77.5 -62.5t-62 -89t-46.5 -103q-37 -100 -49 -198z" />
<glyph unicode="&#x178;" horiz-adv-x="1173" d="M40 1429l10 101h489l-12 -101l-160 -23l228 -568l36 -126l72 126l343 568l-139 23l11 101h412l-11 -101l-99 -22l-524 -817l-61 -474l213 -29l-8 -87h-597l8 87l196 29l61 474l-364 816zM415 1800.5q0 11.5 0.5 27.5t14 42t33.5 46q45 43 84.5 43t62.5 -9q70 -29 70 -102 q0 -61 -48 -108q-46 -44 -87 -44q-93 0 -122 74q-8 19 -8 30.5zM832 1804.5q0 39.5 14 65.5t35 46q45 43 85 43t63 -9q70 -29 70 -102q0 -62 -47 -108q-46 -44 -87 -44q-64 0 -98.5 34.5t-34.5 74z" />
<glyph unicode="&#x2c6;" horiz-adv-x="795" d="M50 1276l327 374h178l190 -374l-74 -58l-231 274l-333 -273z" />
<glyph unicode="&#x2dc;" horiz-adv-x="816" d="M50 1481q55 110 170 155q38 14 74 14t61.5 -10.5t46.5 -26t39 -33.5t35 -34q42 -36 74 -36t54 10.5t40.5 26.5t33.5 35l30 38l58 -91q-42 -122 -168 -167q-40 -14 -82 -14t-70 10t-49 25.5t-37 33.5t-32 33q-60 56 -120 30q-57 -25 -111 -83z" />
<glyph unicode="&#x2000;" horiz-adv-x="1000" />
<glyph unicode="&#x2001;" horiz-adv-x="2000" />
<glyph unicode="&#x2002;" horiz-adv-x="1000" />
<glyph unicode="&#x2003;" horiz-adv-x="2000" />
<glyph unicode="&#x2004;" horiz-adv-x="666" />
<glyph unicode="&#x2005;" horiz-adv-x="500" />
<glyph unicode="&#x2006;" horiz-adv-x="333" />
<glyph unicode="&#x2007;" horiz-adv-x="333" />
<glyph unicode="&#x2008;" horiz-adv-x="250" />
<glyph unicode="&#x2009;" horiz-adv-x="400" />
<glyph unicode="&#x200a;" horiz-adv-x="111" />
<glyph unicode="&#x2010;" horiz-adv-x="1266" d="M232 693l18 158h837l-18 -158h-837z" />
<glyph unicode="&#x2011;" horiz-adv-x="1266" d="M232 693l18 158h837l-18 -158h-837z" />
<glyph unicode="&#x2012;" horiz-adv-x="1266" d="M232 693l18 158h837l-18 -158h-837z" />
<glyph unicode="&#x2013;" horiz-adv-x="1538" d="M232 694l30 157h1097l-30 -157h-1097z" />
<glyph unicode="&#x2014;" horiz-adv-x="2031" d="M232 694l29 157h1591l-30 -157h-1590z" />
<glyph unicode="&#x2018;" horiz-adv-x="682" d="M217 1199.5q0 80.5 16.5 139.5t45 109t66.5 92t81 76q79 62 182 105l41 -70l-2 -22q-79 -26 -145 -125t-66 -204q0 -64 23 -102q40 -64 87 -70l-5 -41l-146 -150q-91 24 -139 111q-39 71 -39 151.5z" />
<glyph unicode="&#x2019;" horiz-adv-x="682" d="M213 1006l2 22q79 26 145 125t66 204q0 64 -23 102q-40 64 -87 70l5 41l146 150q91 -24 139 -111q39 -71 39 -151.5t-16.5 -139.5t-45 -109t-66.5 -92t-81 -76q-79 -62 -182 -105z" />
<glyph unicode="&#x201a;" horiz-adv-x="682" d="M29 -433l2 22q79 26 145 125t66 204q0 64 -23 102q-40 64 -87 70l5 41l146 150q91 -24 139 -111q39 -71 39 -151.5t-16.5 -139.5t-45 -109t-66.5 -92t-81 -76q-79 -62 -182 -105z" />
<glyph unicode="&#x201c;" horiz-adv-x="1161" d="M217 1199.5q0 80.5 16.5 139.5t45 109t66.5 92t81 76q79 62 182 105l41 -70l-2 -22q-79 -26 -145 -125t-66 -204q0 -64 23 -102q40 -64 87 -70l-5 -41l-146 -150q-91 24 -139 111q-39 71 -39 151.5zM696 1199.5q0 80.5 16.5 139.5t45 109t66.5 92t81 76q79 62 182 105 l41 -70l-2 -22q-79 -26 -145 -125t-66 -204q0 -64 23 -102q40 -64 87 -70l-5 -41l-146 -150q-91 24 -139 111q-39 71 -39 151.5z" />
<glyph unicode="&#x201d;" horiz-adv-x="1161" d="M213 1006l2 22q79 26 145 125t66 204q0 64 -23 102q-40 64 -87 70l5 41l146 150q91 -24 139 -111q39 -71 39 -151.5t-16.5 -139.5t-45 -109t-66.5 -92t-81 -76q-79 -62 -182 -105zM692 1006l2 22q79 26 145 125t66 204q0 64 -23 102q-40 64 -87 70l5 41l146 150 q91 -24 139 -111q39 -71 39 -151.5t-16.5 -139.5t-45 -109t-66.5 -92t-81 -76q-79 -62 -182 -105z" />
<glyph unicode="&#x201e;" horiz-adv-x="1161" d="M29 -433l2 22q79 26 145 125t66 204q0 64 -23 102q-40 64 -87 70l5 41l146 150q91 -24 139 -111q39 -71 39 -151.5t-16.5 -139.5t-45 -109t-66.5 -92t-81 -76q-79 -62 -182 -105zM508 -433l2 22q79 26 145 125t66 204q0 64 -23 102q-40 64 -87 70l5 41l146 150 q91 -24 139 -111q39 -71 39 -151.5t-16.5 -139.5t-45 -109t-66.5 -92t-81 -76q-79 -62 -182 -105z" />
<glyph unicode="&#x2022;" horiz-adv-x="858" d="M233 669.5q0 58.5 20.5 104t55.5 82.5q79 83 175 83q75 0 126 -49q50 -49 50 -108.5t-20.5 -106t-55 -84t-80 -61t-89.5 -23.5t-76 14t-55 38q-51 52 -51 110.5z" />
<glyph unicode="&#x2026;" horiz-adv-x="1578" d="M86 94.5q0 29.5 17 61.5t39 52q48 42 93.5 42t70.5 -10q60 -25 60 -97q0 -75 -60 -125q-48 -40 -92 -40t-65.5 8.5t-36.5 24.5t-20.5 35t-5.5 48.5zM613 104q4 30 18.5 57t36.5 47q48 42 93.5 42t70.5 -10q60 -25 60 -97q0 -75 -60 -125q-48 -40 -92 -40t-65.5 8.5 t-36.5 24.5t-22 39.5t-3 53.5zM1139 104q4 30 18.5 57t36.5 47q48 42 93.5 42t70.5 -10q60 -25 60 -97q0 -75 -60 -125q-48 -40 -92 -40t-65.5 8.5t-36.5 24.5t-22 39.5t-3 53.5z" />
<glyph unicode="&#x202f;" horiz-adv-x="400" />
<glyph unicode="&#x2039;" horiz-adv-x="1190" d="M242 530l22 160l692 396l38 -115l-510 -356l414 -351l-70 -112z" />
<glyph unicode="&#x203a;" horiz-adv-x="1190" d="M127 267l510 356l-414 351l70 112l586 -378l-22 -160l-692 -396z" />
<glyph unicode="&#x205f;" horiz-adv-x="500" />
<glyph unicode="&#x20ac;" horiz-adv-x="1388" d="M26 564l14 131h184q3 102 23 199h-159l19 130h176q84 241 260 382q174 140 386 140q143 0 257 -36l57 -18l39 -11q20 -6 33 -9l-53 -218h-108l-29 104q-65 70 -250 70q-221 0 -340 -235q-38 -75 -63 -169h573l-20 -130h-581q-15 -103 -19 -199h553l-13 -131h-541 q10 -336 168 -430q54 -33 111.5 -33t100 6t81.5 19q86 27 121 79l68 135l120 -1l-46 -269q-43 -3 -100 -19l-92 -27q-299 -88 -466 10q-235 138 -264 530h-200z" />
<glyph unicode="&#x2122;" horiz-adv-x="2120" d="M144 1295l52 235h676l-32 -233l-63 -5l-8 133l-166 12l-82 -590l130 -16l-11 -77h-427l11 77l126 15l82 589l-163 -11l-60 -128zM854 754l11 77l107 15l112 591l-99 9l12 84h338l127 -558l256 558h327l-12 -84l-97 -9l-21 -590l96 -16l-11 -77h-348l11 77l96 16l20 370 l19 223l-31 -70l-298 -624h-107l-138 547l-35 150l-106 -597l93 -15l-11 -77h-311z" />
<glyph unicode="&#x25fc;" horiz-adv-x="1165" d="M0 0v1165h1165v-1165h-1165z" />
</font>
</defs>
</svg>
