<?xml version="1.0" standalone="no"?>
<!DOCTYPE svg PUBLIC "-//W3C//DTD SVG 1.1//EN" "http://www.w3.org/Graphics/SVG/1.1/DTD/svg11.dtd" >
<svg xmlns="http://www.w3.org/2000/svg" xmlns:xlink="http://www.w3.org/1999/xlink" version="1.1">
<metadata></metadata>
<defs>
<font id="merriweatherlight" horiz-adv-x="0" >
<font-face units-per-em="2048" ascent="1638" descent="-410" />
<missing-glyph horiz-adv-x="523" />
<glyph />
<glyph />
<glyph unicode="&#xd;" />
<glyph />
<glyph />
<glyph />
<glyph />
<glyph />
<glyph />
<glyph />
<glyph />
<glyph unicode="&#x9;" />
<glyph unicode="&#xa;" />
<glyph />
<glyph />
<glyph />
<glyph />
<glyph />
<glyph />
<glyph />
<glyph />
<glyph />
<glyph />
<glyph />
<glyph />
<glyph />
<glyph />
<glyph />
<glyph />
<glyph />
<glyph />
<glyph />
<glyph />
<glyph unicode=" "  horiz-adv-x="523" />
<glyph unicode="&#x09;" horiz-adv-x="523" />
<glyph unicode="&#xa0;" horiz-adv-x="523" />
<glyph unicode="!" horiz-adv-x="706" d="M240 73q0 24 10.5 44.5t27 35.5t38 23.5t42.5 8.5q51 0 75 -28.5t24 -66.5q0 -25 -10 -45.5t-26.5 -35.5t-38 -23t-43.5 -8q-19 0 -37 6.5t-31.5 19t-22 30t-8.5 39.5zM248 1780h190l-53 -1326h-92z" />
<glyph unicode="&#x22;" horiz-adv-x="1260" d="M325 1782h170l-37 -816h-96zM765 1782h170l-37 -816h-96z" />
<glyph unicode="#" horiz-adv-x="1431" d="M150 365v98h229l40 465h-247v97h253l30 330h127l-27 -330h378l29 330h127l-28 -330h220v-97h-226l-41 -465h232q0 -22 0.5 -49t0.5 -49h-237l-34 -365h-122l28 365h-379l-36 -365h-124l32 365h-225zM508 463h378l40 465h-377z" />
<glyph unicode="$" horiz-adv-x="1270" d="M174 63v299h73l47 -204q31 -30 74 -49.5t90.5 -31t97 -16t93.5 -4.5q64 0 128 16t115.5 51t83.5 92t32 139q0 69 -33.5 123t-88.5 98.5t-125.5 82.5t-145.5 74q-80 39 -157 81.5t-137.5 94.5t-98.5 117.5t-38 150.5q0 95 38.5 164.5t100 116t136.5 72t149 32.5l6 169h120 l-6 -166q64 -3 115.5 -11t91.5 -19t69.5 -23.5t49.5 -24.5v-267h-68l-59 199q-44 38 -117 54t-153 15q-54 0 -113.5 -15.5t-109 -49.5t-81.5 -89t-32 -134q0 -63 31 -113.5t82 -92t117.5 -76.5t137.5 -69q55 -26 110 -54t106 -59t95 -66t76.5 -76.5t51 -91t18.5 -108.5 q0 -104 -36.5 -179.5t-100 -126t-148.5 -77.5t-182 -32l-7 -210h-120l6 210q-65 4 -126 13t-112 21t-89 25t-57 25z" />
<glyph unicode="%" horiz-adv-x="1770" d="M91 1053q0 90 27 158.5t73 116t106 72.5t125 27q79 3 136 -25.5t94 -78.5t54.5 -117.5t17.5 -143.5q0 -89 -27 -157.5t-73 -115t-105.5 -71t-124.5 -26.5q-71 -2 -127 27t-95 78.5t-60 116t-21 139.5zM212 1061q0 -63 12.5 -115.5t36.5 -91t59.5 -60t82.5 -21.5 q94 0 148 74t54 208q0 66 -12.5 120t-36.5 92.5t-60 59.5t-82 21q-47 0 -84.5 -20t-63.5 -57.5t-40 -90.5t-14 -119zM534 0l574 1601h121l-573 -1601h-122zM1045 525q0 90 27 158.5t73 116t106 72.5t125 27q79 3 136 -25.5t94 -78.5t54.5 -117.5t17.5 -143.5 q0 -89 -27 -157.5t-73 -115t-105.5 -71t-124.5 -26.5q-71 -2 -127 27t-95 78.5t-60 116t-21 139.5zM1165 533q0 -63 12.5 -115.5t36.5 -91t59.5 -60t82.5 -21.5q46 0 83 19t63.5 55t41 88.5t14.5 119.5q0 66 -12.5 120t-36.5 92.5t-60 59.5t-82 21q-47 0 -84.5 -20 t-63.5 -57.5t-40 -90.5t-14 -119z" />
<glyph unicode="&#x26;" horiz-adv-x="1569" d="M188 356q0 81 29.5 142t77 108.5t108 84t122.5 67.5q-34 45 -69 93t-63.5 100.5t-47 109t-19.5 116.5q-2 91 26.5 162t79 120t118.5 74.5t146 25.5q85 0 148 -25.5t104.5 -69t62 -101.5t22.5 -123q1 -78 -26 -149.5t-73.5 -133t-107.5 -112.5t-128 -89q24 -29 56.5 -67.5 t69.5 -81.5t77 -87.5t78 -85.5t72 -76.5t60 -59.5l45 -41q29 54 39.5 114t10.5 120q0 52 -5.5 94.5t-13 74t-15.5 51t-13 27.5h140q12 -32 25 -85.5t13 -131.5q0 -83 -23.5 -171.5t-77.5 -160.5q36 -28 67.5 -48t61.5 -33t60.5 -19t63.5 -7v-67q-29 -11 -61.5 -12.5 t-71.5 3.5q-49 5 -102.5 30.5t-109.5 64.5q-39 -34 -89 -59t-104.5 -41.5t-110 -24.5t-104.5 -8q-51 0 -111.5 6.5t-121.5 23.5t-118 45t-100.5 71.5t-70 103t-26.5 138.5zM326 371q0 -75 34 -133t91.5 -97.5t133.5 -59.5t159 -20q45 0 91 4.5t89 15.5t81.5 29.5t67.5 45.5 l-12 10t-11 10q-34 29 -75 69t-85.5 86t-89.5 95.5t-87 97.5t-78.5 92t-63.5 80q-63 -33 -109.5 -66.5t-76.5 -71.5t-44.5 -84t-14.5 -103zM455 1227q1 -73 21.5 -134.5t49.5 -112.5t62 -91.5t60 -71.5q124 62 193 164t67 236q-1 42 -11.5 88t-36.5 85t-70 64.5t-111 25.5 q-39 0 -79 -14t-72.5 -44.5t-53 -78.5t-19.5 -116z" />
<glyph unicode="'" horiz-adv-x="820" d="M325 1782h170l-37 -816h-96z" />
<glyph unicode="(" horiz-adv-x="813" d="M114 735q0 145 29 272t74.5 234t101 192.5t109 148.5t98 101.5t67.5 51.5l69 -41q-22 -14 -59.5 -49.5t-81.5 -92t-89.5 -133t-84 -173t-64 -212.5t-29.5 -250q-4 -156 18 -289t59.5 -242t85.5 -194t95.5 -147.5t88.5 -102t65 -55.5l-79 -48q-23 14 -67 49.5t-97 94 t-107.5 142t-99.5 193.5t-73.5 247t-28.5 303z" />
<glyph unicode=")" horiz-adv-x="813" d="M147 1684l80 48q23 -14 67 -49t96.5 -94t107.5 -142.5t99.5 -193t73 -246.5t28.5 -303q0 -145 -29 -272t-74.5 -234t-101 -192.5t-108.5 -148.5t-97.5 -101.5t-67.5 -51.5l-70 40q22 14 59.5 49.5t81.5 92t90 133.5t84 173.5t63.5 212t29.5 250.5q5 156 -17 288.5 t-60 241.5t-85.5 194.5t-95 147.5t-89 101t-65.5 56z" />
<glyph unicode="*" horiz-adv-x="1295" d="M164 1052l341 189l89 37l-90 38l-340 185l73 108l304 -225l75 -67l-19 117l-24 352q32 0 69.5 -0.5t68.5 -0.5l-24 -351l-23 -117l93 78l289 213l84 -107l-342 -179l-103 -44l101 -41l345 -187l-86 -103l-300 225l-80 67l20 -107l26 -364h-138l24 364l19 107l-70 -64 l-306 -230z" />
<glyph unicode="+" horiz-adv-x="1257" d="M172 738v118h241l162 -10l-7 166v248h120v-248l-8 -166l144 10h261v-118h-261l-144 7l8 -166v-258h-120v258l7 165l-162 -6h-241z" />
<glyph unicode="," horiz-adv-x="701" d="M176 -407q35 12 71 42t65.5 72.5t48 95t18.5 109.5q0 46 -12.5 85.5t-33 69.5t-47 48.5t-54.5 22.5v36l80 105q54 -13 93 -46.5t64.5 -77.5t37.5 -92.5t12 -91.5q1 -85 -26.5 -157t-72 -129t-100 -97.5t-109.5 -62.5l-35 44v24z" />
<glyph unicode="-" horiz-adv-x="1229" d="M172 743v111h885v-111h-885z" />
<glyph unicode="." horiz-adv-x="706" d="M239 87q3 21 14.5 38t27.5 28.5t35 16.5t37 3q22 -3 36.5 -12t23 -22t10.5 -29.5t-1 -33.5q-3 -23 -14 -40t-27.5 -28t-35.5 -15.5t-38 -2.5q-33 5 -54 31.5t-14 65.5z" />
<glyph unicode="/" horiz-adv-x="816" d="M30 -363l552 1962h137l-552 -1962h-137z" />
<glyph unicode="0" horiz-adv-x="1327" d="M132 632q2 145 47.5 260t121.5 194.5t174.5 122t206.5 43.5q146 1 245 -47.5t159.5 -133.5t86 -200.5t24.5 -247.5q-1 -144 -43.5 -264t-115.5 -205.5t-171 -133.5t-210 -48q-95 0 -171.5 25t-135 69.5t-100.5 106.5t-68.5 135.5t-38.5 155.5t-11 168zM286 638 q0 -113 22 -217t67.5 -184.5t115.5 -129.5t167 -51q101 -2 174 37t120 112.5t69.5 177.5t22.5 232q0 117 -21 217t-65 174.5t-113 117t-166 44.5q-101 1 -174.5 -35.5t-122.5 -105.5t-72.5 -167.5t-23.5 -221.5z" />
<glyph unicode="1" horiz-adv-x="933" d="M123 0v68l303 21v997q-38 -14 -72 -25.5t-67 -21.5t-67 -19t-72 -19l-15 77q45 14 105 39t117 53t102.5 53.5t63.5 40.5l53 -15l-2 -1160l287 -21v-68h-736z" />
<glyph unicode="2" horiz-adv-x="1221" d="M140 1064q28 36 74.5 72t106 65t129 47.5t143.5 18.5q103 0 177.5 -29t123.5 -77t72.5 -109.5t23.5 -126.5q0 -109 -51.5 -222t-141.5 -221.5t-210.5 -208.5t-257.5 -183l640 34l89 174l67 -22l-65 -276h-896l-23 61q91 56 178 119.5t164.5 131.5t143 140t113 144 t73.5 143.5t26 139.5q-1 58 -19.5 110t-55 91.5t-91 62.5t-127.5 23q-50 0 -102.5 -14.5t-101.5 -37.5t-92 -52t-73 -59z" />
<glyph unicode="3" horiz-adv-x="1070" d="M68 1111q24 24 63.5 52t94 52t123 40t149.5 16q70 0 137 -18t119.5 -57.5t84.5 -101.5t32 -149q0 -60 -28.5 -123t-75 -117.5t-107.5 -97t-125 -61.5q106 5 185.5 -19t131.5 -70t78 -108.5t26 -134.5q0 -77 -27 -152t-78 -141.5t-124 -120t-165.5 -87t-202 -43.5 t-232.5 12q0 19 -0.5 42.5t-0.5 42.5q101 -17 190 -9.5t164.5 34t135 68.5t101.5 94.5t64 112.5t22 122q0 70 -22 128t-69 97.5t-121 58t-178 11.5l-151 -34v104q105 17 189 52t143 82t91 102.5t33 112.5q1 69 -19 119t-57 82.5t-87.5 48t-109.5 15.5q-63 0 -114.5 -12.5 t-92 -32t-72 -42t-55.5 -41.5z" />
<glyph unicode="4" horiz-adv-x="1253" d="M77 75q78 142 157.5 282t158.5 285.5t158 301.5t157 329h52l86 -64q-13 -27 -42.5 -80.5t-69 -125t-86.5 -155t-96 -169t-96 -168t-87 -152.5t-69.5 -121.5t-42.5 -75.5l-47 -74l581 25l3 509l132 37v-540l236 11v-130h-236v-376h-137l2 376h-689z" />
<glyph unicode="5" horiz-adv-x="1079" d="M128 566l79 671h563l28 19h87l-38 -143h-529l-73 -490q84 38 169.5 53t164.5 7.5t148.5 -37.5t121 -82.5t81 -128.5t29.5 -174q0 -71 -25 -144t-70.5 -141t-110.5 -128t-144.5 -104t-171.5 -69.5t-193 -25.5q-25 0 -52 2.5t-56 11.5l1 74q78 -12 157.5 -1t154 41.5 t139.5 77.5t113.5 107.5t76.5 131.5t28 149q0 91 -25 156.5t-69.5 108t-105 63.5t-132 23.5t-151 -13t-160.5 -45.5z" />
<glyph unicode="6" horiz-adv-x="1251" d="M127 563q0 129 35.5 245.5t97.5 218t146 186.5t179.5 150t198.5 108.5t204 62.5l32 -66q-181 -52 -317.5 -143.5t-229 -204.5t-140.5 -239t-51 -247q-3 -111 17 -214.5t65 -183.5t117 -128t175 -48q61 0 110 18.5t88 50t67 73t46 87.5t27 93t9 90q0 99 -22.5 173 t-60.5 123.5t-88 74t-104 24.5q-48 0 -84.5 -7t-63.5 -17.5t-46.5 -23t-34.5 -24.5l-35 62q15 19 45 39t70.5 36t87 26t94.5 10q96 0 167.5 -39t119 -101t71 -140.5t23.5 -157.5q0 -64 -15 -130t-45 -127t-73.5 -114.5t-100 -93.5t-126 -63t-150.5 -23q-119 0 -213 47 t-159 127.5t-99 186.5t-34 223z" />
<glyph unicode="7" horiz-adv-x="1236" d="M142 927l48 326h893l32 -36l-568 -1533l-151 53q156 336 300.5 689t294.5 724l-689 -17l-82 -214z" />
<glyph unicode="8" horiz-adv-x="1241" d="M129 373q0 61 23 121t66.5 114.5t104.5 101.5t138 82q-53 33 -99.5 70.5t-81 84t-54.5 102.5t-20 125q0 97 40 168t104 118t144.5 70t161.5 23q86 0 161 -25t130 -70t86.5 -108.5t31.5 -140.5q0 -56 -18.5 -116.5t-55.5 -118.5t-91.5 -109.5t-126.5 -88.5 q69 -37 133.5 -76.5t114 -84.5t79.5 -98.5t31 -119.5q1 -114 -43 -195t-115 -132t-161 -74.5t-180 -23.5q-58 0 -118 10.5t-116 31.5t-105 53.5t-85.5 77.5t-57.5 101.5t-21 126.5zM269 407q0 -74 26.5 -138.5t77 -112.5t122.5 -76t162 -28q74 0 137 22.5t109 61.5t72 92 t26 115q0 51 -19 92.5t-52 76.5t-77.5 65.5t-96 58.5t-107 55t-109.5 56q-52 -21 -101 -55.5t-86.5 -79t-60.5 -97t-23 -108.5zM325 1198q0 -66 31.5 -119.5t83.5 -99t119.5 -85.5t139.5 -78l-16 9q44 11 89.5 44t82 79.5t60.5 101t25 109.5q2 70 -18.5 128.5t-59.5 100.5 t-95 65.5t-123 23.5q-66 0 -124.5 -21t-101.5 -58.5t-68 -88.5t-25 -111z" />
<glyph unicode="9" horiz-adv-x="1260" d="M122 703q0 64 15 130t45 127t73.5 114.5t100 93.5t126 63t150.5 23q121 0 212 -48t152.5 -128.5t92.5 -186.5t31 -221q0 -134 -34 -260.5t-93.5 -239.5t-141 -210t-175.5 -171.5t-196.5 -124.5t-205.5 -69l-29 68q117 34 216 94t179 136t141 164.5t102 181t62.5 185 t22.5 176.5q1 114 -15.5 218t-58.5 182.5t-111.5 125.5t-174.5 47q-61 0 -110 -18.5t-88 -50t-67 -73t-46 -87t-27 -92t-9 -88.5q0 -96 22.5 -170.5t60.5 -124.5t88 -76t105 -26q42 0 78 7t65 18t50.5 23t34.5 23l35 -62q-19 -22 -50 -42t-69.5 -35.5t-83.5 -24.5t-93 -9 q-96 0 -167.5 39t-119 101t-71.5 140.5t-24 157.5z" />
<glyph unicode=":" horiz-adv-x="706" d="M239 87q3 21 14.5 38t27.5 28.5t35 16.5t37 3q22 -3 36.5 -12t23 -22t10.5 -29.5t-1 -33.5q-3 -23 -14 -40t-27.5 -28t-35.5 -15.5t-38 -2.5q-33 5 -54 31.5t-14 65.5zM239 897q3 21 14.5 38t27.5 28.5t35 16.5t37 3q22 -3 36.5 -12t23 -22t10.5 -29.5t-1 -33.5 q-3 -23 -14 -40t-27.5 -28t-35.5 -15.5t-38 -2.5q-33 5 -54 31.5t-14 65.5z" />
<glyph unicode=";" horiz-adv-x="706" d="M176 -407q35 12 71.5 42t66 72.5t48 95t18.5 109.5q0 46 -12.5 85.5t-33.5 69.5t-47.5 48.5t-54.5 22.5v36l81 105q54 -13 93 -46.5t64.5 -77.5t37.5 -92.5t12 -91.5q1 -85 -27 -157t-72.5 -129t-100 -97.5t-109.5 -62.5l-35 44v24zM232 897q3 21 14.5 38t27.5 28.5 t35 16.5t37 3q22 -3 36.5 -12t23 -22t10.5 -29.5t-1 -33.5q-3 -23 -14 -40t-27.5 -28t-35.5 -15.5t-38 -2.5q-33 5 -54 31.5t-14 65.5z" />
<glyph unicode="&#x3c;" horiz-adv-x="1313" d="M138 701v101l969 515v-138l-839 -428l839 -425v-139z" />
<glyph unicode="=" horiz-adv-x="1229" d="M172 534v112h885v-112h-885zM172 942v111h885v-111h-885z" />
<glyph unicode="&#x3e;" horiz-adv-x="1313" d="M206 187v138l839 426l-839 427v139l969 -514v-101z" />
<glyph unicode="?" horiz-adv-x="1012" d="M130 1673v116q7 9 26 17t45.5 14t56.5 10t59 4q115 0 206.5 -27.5t161 -74.5t118 -110t77.5 -133t40 -144t5 -143q0 -44 -33.5 -79t-84.5 -65.5t-111.5 -57.5t-114.5 -53t-93 -53t-48 -58q-5 -43 4 -87t25 -87.5t36 -86.5t38 -85h-85q-14 12 -31.5 34.5t-35.5 51.5 t-35 62.5t-30.5 67.5t-21.5 66.5t-7 59.5q0 30 22 56.5t57 50t80 44.5t92.5 41t93.5 40t83 40.5t61 42t28 46.5q2 70 -15 134.5t-50.5 121t-81 103t-105.5 80t-124.5 52t-137.5 18.5q-21 0 -44.5 -1.5t-46.5 -5.5t-43.5 -9.5t-35.5 -12.5zM459 87q3 21 14.5 38t27.5 28.5 t35 16.5t37 3q22 -3 36.5 -12t23 -22t10.5 -29.5t-1 -33.5q-3 -23 -14 -40t-27.5 -28t-35.5 -15.5t-38 -2.5q-33 5 -54 31.5t-14 65.5z" />
<glyph unicode="@" horiz-adv-x="2133" d="M236 414q0 156 36.5 292.5t102 250.5t156 203.5t199.5 151t232 94t253 32.5q144 0 269 -42.5t217.5 -123.5t146 -197t53.5 -263q0 -137 -24.5 -248t-66.5 -197t-97 -148t-115 -102.5t-122 -59.5t-117 -19q-43 0 -67 52.5t-24 154.5q2 58 14 142t29 187 q-35 -102 -83.5 -200.5t-106 -176t-121 -125t-129.5 -47.5q-46 0 -91.5 27.5t-81.5 80t-58.5 127.5t-22.5 170q0 64 13.5 135.5t40 140.5t65.5 132t90 111t112.5 76.5t134.5 28.5q35 0 74.5 -5t78.5 -13.5t74.5 -20.5t61.5 -26q8 25 17 39t25 10l88 -29q-13 -53 -26.5 -130 t-25.5 -162t-22.5 -171t-18.5 -157q-6 -53 -7.5 -100t1.5 -82t10 -55.5t19 -20.5q36 0 77.5 20.5t82.5 59t79 94t67 125t46.5 151.5t17.5 174q0 104 -24 188t-66.5 149t-102 111.5t-130 77t-150.5 44.5t-164 14q-106 0 -207 -26t-190.5 -77t-164.5 -126.5t-129 -173 t-84.5 -217t-30.5 -259.5q0 -133 28 -239t77.5 -187.5t118 -139.5t149.5 -95.5t172 -55t185 -17.5q56 0 112 7t105.5 18t90 25.5t67.5 28.5l28 -65q-33 -26 -84.5 -48t-113 -37.5t-129 -24t-131.5 -8.5q-171 0 -315.5 55.5t-249.5 159t-164 249.5t-59 328zM738 486 q0 -54 9 -113t28.5 -108.5t50 -81.5t74.5 -32q39 0 82.5 34t87.5 90.5t85.5 130.5t76.5 153.5t61 159.5t38 149q-17 15 -48 28.5t-68 24t-74.5 16.5t-68.5 6q-86 0 -148.5 -40t-104 -105t-61.5 -146.5t-20 -165.5z" />
<glyph unicode="A" horiz-adv-x="1493" d="M2 0v67l146 24l538 1470h121l523 -1470l165 -24v-67h-488v67l168 24l-127 364h-644l-126 -364l174 -24v-67h-450zM435 546h582l-214 613l-74 233z" />
<glyph unicode="B" horiz-adv-x="1419" d="M106 0v67l178 25v1370l-174 15v76h241q45 1 88.5 3t89.5 4.5t97.5 4t111.5 1.5q118 0 209 -24.5t152.5 -69.5t93 -109.5t31.5 -145.5q0 -69 -18 -132t-55 -114.5t-95 -89t-137 -53.5q82 0 156 -25t130 -72.5t88.5 -116.5t32.5 -156q0 -103 -39 -189.5t-119.5 -149.5 t-202 -98t-286.5 -35q-43 0 -88 2t-88.5 4t-82 4.5t-68.5 3.5h-246zM431 863q27 -4 67.5 -5.5t83.5 -1.5t82.5 0.5t64.5 0.5q73 0 138 19t113 59.5t76 103.5t28 150q0 79 -30.5 135t-82.5 91.5t-120.5 51.5t-144.5 16q-30 0 -68.5 -0.5t-77 -2t-72.5 -4.5t-55 -8zM432 103 q18 -7 52.5 -12.5t75 -9.5t82 -6.5t73.5 -2.5q84 0 166 16.5t146.5 57.5t104 109.5t39.5 173.5q0 93 -30.5 157t-85 103.5t-129.5 57t-164 17.5h-80.5h-91.5t-88 -1t-70 -3v-657z" />
<glyph unicode="C" horiz-adv-x="1410" d="M87 731q0 127 30 238.5t84 204.5t128.5 166t164.5 123.5t191 77t208 26.5q72 0 134 -8.5t113.5 -20t93.5 -23.5t75 -19l-15 -276h-81l-38 180q-62 39 -141.5 58.5t-184.5 19.5q-78 0 -153.5 -20.5t-143.5 -61t-125 -100t-98.5 -137.5t-65 -173.5t-23.5 -207.5 q0 -97 17.5 -189t52 -172.5t86 -147.5t119 -115t151.5 -74q80 -25 175 -25h7q122 1 213.5 32.5t136.5 78.5l44 169q15 0 34 -0.5t34 -0.5v-271q-36 -2 -79.5 -16t-103 -31t-139 -30.5t-186.5 -13.5q-155 0 -286 56t-226.5 157t-149 240t-53.5 306z" />
<glyph unicode="D" horiz-adv-x="1593" d="M106 0v67l180 25v1369l-176 16v76h249q58 0 108 2t95.5 4.5t89.5 4.5t91 2h7q185 0 325 -50q142 -50 236.5 -146.5t141.5 -236t47 -316.5q0 -197 -59.5 -351.5t-167 -261t-255.5 -162.5q-141 -53 -308 -52h-18q-36 0 -77.5 2t-84 4t-86 3.5t-83.5 1.5h-57t-70.5 -0.5 t-70.5 -0.5h-57zM434 100q70 -12 136 -19q52 -5 109 -5h34q128 2 242.5 44t201 127.5t137.5 216.5t51 312q0 178 -43.5 311.5t-126.5 222t-203 130.5q-110 39 -248 39h-26q-81 -2 -148 -6.5t-116 -11.5v-1361z" />
<glyph unicode="E" horiz-adv-x="1319" d="M102 0v67l180 24v1370l-176 16v76h1037l29 -286h-85l-46 194l-612 11v-607l408 7l26 161h79v-424h-79l-26 167l-408 6v-698l658 16l91 233l74 -18l-45 -315h-1105z" />
<glyph unicode="F" horiz-adv-x="1238" d="M104 0v67l191 25v1369l-176 16v76h1059l22 -285l-78 -2l-46 190l-633 12v-634l463 8l33 156h76v-420h-85l-24 166l-464 7l1 -660l309 -18v-73h-648z" />
<glyph unicode="G" horiz-adv-x="1536" d="M86 731q0 192 64 346t173.5 263t255.5 167.5t310 58.5q90 0 160.5 -8t124.5 -19t94 -22.5t69 -17.5l-13 -273h-83l-40 177q-15 12 -46.5 25.5t-76.5 24.5t-104 19q-52 6 -113 6h-17q-117 -1 -226 -48t-193.5 -136.5t-135 -219.5t-50.5 -297q0 -91 15 -180t46 -169 t78.5 -148t112.5 -118t147.5 -78t183.5 -28q48 0 101 5.5t103.5 17.5t93.5 30.5t72 43.5v465l-277 15v75h561v-75l-136 -17v-541q-33 -3 -90.5 -19t-131 -35t-159.5 -34t-177 -15q-155 0 -283 57t-220 158t-142.5 240.5t-50.5 303.5z" />
<glyph unicode="H" horiz-adv-x="1706" d="M106 0v67l172 25v1370l-165 15v76h475v-76l-162 -15v-668h837v668l-164 15v76h470v-76l-158 -15v-1370l174 -25v-67h-492v67l170 24v612h-837v-612l170 -24v-67h-490z" />
<glyph unicode="I" horiz-adv-x="763" d="M136 0v67l169 24v1371l-166 15v76h482v-76l-168 -15v-1371l176 -24v-67h-493z" />
<glyph unicode="J" horiz-adv-x="720" d="M-86 -328q123 33 210.5 102t125.5 166q15 44 23.5 93t12.5 105t5 121t1 142v1061l-175 15v76h504v-76l-180 -15v-987q0 -124 -0.5 -235t-17.5 -205q-18 -90 -64.5 -163t-110 -127t-139.5 -87.5t-152 -44.5z" />
<glyph unicode="K" horiz-adv-x="1419" d="M106 0v67l162 24v1372l-159 14v76h469v-76l-161 -14v-747l639 745l-160 16q0 17 -0.5 38t-0.5 38h461v-76l-159 -16l-502 -567q23 -24 57.5 -71.5t75.5 -108.5t86.5 -130.5t90.5 -138t88 -132t79 -112t62 -77t39 -28.5l152 -29v-67h-261q-13 0 -38.5 28.5t-58.5 76.5 t-72.5 111t-81.5 131.5t-85 138t-83 130t-75 108t-61 72.5l-192 -216v-490l177 -23v-67h-488z" />
<glyph unicode="L" horiz-adv-x="1244" d="M106 0v67l180 25v1362l-176 15v84h519v-84l-195 -15l-1 -1368l605 19l108 245l68 -32l-65 -318h-1043z" />
<glyph unicode="M" horiz-adv-x="1977" d="M77 0v67l186 24l102 1364l-201 15v83h411l401 -1179l42 -139l44 142l380 1176h386v-83l-197 -15l118 -1364l194 -24v-67h-525v67l191 24l-88 1027l-14 340l-52 -191l-430 -1282h-53l-415 1174q-11 30 -24 68t-26.5 78l-27 80t-25.5 74l-15 -395l-57 -972l213 -25v-67 h-518z" />
<glyph unicode="N" horiz-adv-x="1662" d="M104 0v67l176 23v1364l-170 15v84h326l719 -1154l148 -271v1327l-174 15v83h456v-83l-173 -15v-1455h-162l-711 1112l-148 280v-182.5v-225t-0.5 -246t-0.5 -245.5v-223v-179l206 -24v-67h-492z" />
<glyph unicode="O" horiz-adv-x="1554" d="M93 755q4 196 62 346t155 252.5t224.5 156t269.5 56.5h15q144 0 262 -54q124 -56 211 -159q86 -103 132 -247q43 -135 43 -294v-21q-4 -195 -59.5 -346t-149 -255.5t-217.5 -159.5t-264 -58h-16q-147 0 -267 54q-128 56 -218 160t-138 250q-45 137 -45 299v20zM255 756 q0 -148 37 -276t106.5 -222.5t168.5 -148.5t224 -54q115 0 210 51t162.5 146.5t105 231.5t37.5 306q0 144 -34 270t-100 220t-162.5 148.5t-220.5 54.5q-116 0 -214 -48.5t-169 -141.5t-111 -228t-40 -309z" />
<glyph unicode="P" horiz-adv-x="1296" d="M86 0v67l201 25v1362l-179 15v84h250q30 0 70.5 2t87.5 4.5t97.5 4.5t100.5 2q115 0 211 -22.5t165 -76t107.5 -143t38.5 -224.5q0 -122 -49 -217t-130 -159.5t-185 -97.5q-101 -32 -209 -32h-6h-137q-8 0 -14 1q-43 0 -71 -3v-500l276 -25v-67h-625zM435 685 q56 -9 114 -10q35 -1 66 -1h39q90 1 169 23t137.5 72t92.5 131t34 198q0 196 -107 292q-100 90 -298 90h-29q-24 -1 -53 -2t-58 -3t-57 -5t-50 -9v-776z" />
<glyph unicode="Q" horiz-adv-x="1554" d="M90 755q3 131 30 241t74.5 199.5t112.5 158t143 115t167 71t184 26.5h15q144 0 262 -54q124 -56 210.5 -159t131.5 -247q43 -135 43 -294v-21q-3 -173 -48 -311.5t-120.5 -240.5t-177.5 -165.5t-220 -87.5q19 -58 58 -98.5t89.5 -66t108.5 -37.5t116 -12q51 0 96 10.5 t71 30.5l15 -97q-9 -14 -30.5 -26.5t-51.5 -22.5t-68 -15.5t-80 -5.5q-71 0 -136 17.5t-119 56.5t-94.5 101.5t-62.5 152.5l-36 -2h-16q-145 0 -267 54q-127 56 -217 160t-138 250q-45 136 -45 299v20zM252 756q0 -148 37 -276t106.5 -222.5t168.5 -148.5t224 -54 q115 0 209.5 51t162 146.5t105 231.5t37.5 306q0 144 -34 270t-100 220t-162 148.5t-220 54.5q-116 0 -214 -48.5t-169 -141.5t-111 -228t-40 -309z" />
<glyph unicode="R" horiz-adv-x="1419" d="M86 0v67l201 25v1362l-179 15v84h254q52 1 129.5 7t177.5 6q114 0 209 -20t163.5 -68t107 -128.5t38.5 -201.5q0 -78 -25 -147.5t-71 -125.5t-111 -98t-145 -64q2 -2 4 -2q36 -11 71 -43t69.5 -77t67 -98.5t63 -108t58.5 -105.5t53 -92t46.5 -67t38.5 -29l122 -24v-67 h-256q-17 0 -39 30t-48.5 79t-57 111.5t-64 127.5t-70 127t-75 109.5t-79.5 75.5q-37 26 -75 26h-8l4 3q-54 -2 -111 -2h-114v-596l217 -24v-67h-566zM435 777q17 -2 48.5 -3.5t65.5 -2.5t66 -1.5t51 -0.5q91 1 159.5 26.5t114.5 72t69.5 113t23.5 149.5q0 86 -21 153.5 t-67.5 113t-120.5 67.5q-63 19 -151 20q-16 0 -32 -1q-24 -1 -52 -1.5t-55.5 -2t-53 -4t-45.5 -8.5v-690z" />
<glyph unicode="S" horiz-adv-x="1229" d="M154 63v299h73l47 -204q31 -30 74 -49.5t90.5 -31t97 -16t93.5 -4.5q64 0 128 16t115.5 51t83.5 92t32 139q0 69 -33.5 123t-88.5 98.5t-125.5 82.5t-145.5 74q-80 39 -157 81.5t-137.5 94.5t-98.5 117.5t-38 150.5q0 70 21.5 126.5t58.5 99.5t85.5 74t102.5 50.5t110 29 t108 9.5q77 0 138 -7.5t108.5 -19t81.5 -25.5t56 -27v-267h-68l-59 199q-44 38 -117 54q-69 15 -144 15h-9q-54 0 -113.5 -15.5t-109 -49.5t-81.5 -89t-32 -134q0 -63 31 -113.5t82 -92t117.5 -76.5t137.5 -69q55 -26 110 -54t106 -59t95 -66t76.5 -76.5t51 -91t18.5 -108.5 q0 -110 -41 -189t-111.5 -129.5t-164.5 -74.5t-199 -24q-75 0 -147.5 8.5t-134 21.5t-107.5 28t-67 28z" />
<glyph unicode="T" horiz-adv-x="1270" d="M30 1249l25 304h1191l-2 -307l-65 -9l-41 215l-412 17v-1377l276 -25v-67h-686v67l262 25v1377l-416 -17l-61 -201z" />
<glyph unicode="U" horiz-adv-x="1576" d="M33 1477v76h476v-76l-174 -16v-819q0 -173 35.5 -286.5t99 -181t150.5 -95t191 -27.5q111 0 192.5 41t134.5 119t78.5 191.5t25.5 259.5v797l-173 17v76h444v-76l-156 -17v-796q0 -187 -42 -318.5t-117.5 -214.5t-181.5 -121t-234 -38q-159 0 -272 41.5t-185 125.5 t-105.5 211t-33.5 297v815z" />
<glyph unicode="V" horiz-adv-x="1425" d="M5 1477v76h506v-76l-198 -15l389 -1124l59 -189l52 190l343 1123l-167 15v75h438v-75l-143 -15l-490 -1482h-109l-542 1483z" />
<glyph unicode="W" horiz-adv-x="2101" d="M5 1476v77h498v-77l-198 -14l353 -1120l59 -186l55 178l240 947l-54 181l-165 14v77h512v-77l-191 -14l304 -1133l46 -179l47 204l294 1108l-182 14v77h466v-77l-159 -14l-430 -1482h-119l-313 1100l-300 -1100h-126l-501 1482z" />
<glyph unicode="X" horiz-adv-x="1420" d="M15 0v67l178 24l444 699l-423 673l-159 14v76h529v-77l-193 -14l345 -588l350 588l-172 15v76h459v-76l-150 -14l-432 -653l438 -719l179 -24v-67h-549v68l202 23l-374 622l-354 -623l202 -23v-67h-520z" />
<glyph unicode="Y" horiz-adv-x="1352" d="M12 1477v76h460v-77l-168 -14l351 -633l53 -107l49 108l320 631l-171 16v76h431v-76l-135 -22l-430 -818v-545l211 -25v-67h-561v67l203 25v548l-491 822z" />
<glyph unicode="Z" horiz-adv-x="1352" d="M98 70l890 1255l117 145l-784 -18l-77 -224l-83 13l29 313h1056l23 -67l-873 -1239l-127 -163l827 30l115 252l79 -18l-72 -348h-1096z" />
<glyph unicode="[" horiz-adv-x="855" d="M200 27v1461q0 69 6 112t24 67.5t50.5 33t84.5 8.5q67 0 130.5 -10.5t121.5 -22.5q0 -15 -0.5 -33.5t-0.5 -33.5h-291v-1684l291 -2q0 -14 0.5 -33t0.5 -33q-66 -15 -132.5 -25t-138.5 -10q-45 0 -73.5 9t-44.5 32.5t-22 63t-6 100.5z" />
<glyph unicode="\" horiz-adv-x="816" d="M30 1599h137l552 -1962h-137z" />
<glyph unicode="]" horiz-adv-x="858" d="M238 -143q0 14 0.5 33t0.5 33l291 2v1684h-291q0 15 -0.5 33.5t-0.5 33.5q58 12 121 22.5t131 10.5q52 0 84 -8.5t50 -33t24 -67.5t6 -112v-1461q0 -61 -6 -100.5t-22 -63t-44.5 -32.5t-73.5 -9q-72 0 -138 10t-132 25z" />
<glyph unicode="^" horiz-adv-x="1289" d="M172 564l396 967h149l400 -967q-30 0 -68.5 -0.5t-67.5 -0.5l-345 816l-343 -816q-26 0 -60.5 0.5t-60.5 0.5z" />
<glyph unicode="_" horiz-adv-x="1415" d="M-20 -192h1455v-112h-1455v112z" />
<glyph unicode="`" horiz-adv-x="884" d="M179 1661l106 109l313 -384l-42 -43q-46 31 -101 70t-108.5 81.5t-98 85.5t-69.5 81z" />
<glyph unicode="a" horiz-adv-x="1145" d="M116 312q6 69 42 122t91.5 92.5t126 66t145 42.5t148 23t136.5 7v88q0 84 -20.5 139t-58.5 87t-92.5 45t-123.5 13q-38 0 -82.5 -7.5t-88 -20.5t-83.5 -29t-68 -33l-29 71q37 30 91 53t110.5 38t109.5 22.5t90 7.5q79 0 150 -16t124.5 -57t84.5 -112t31 -181l-2 -703h132 v-54q-29 -14 -75 -23.5t-98 -9.5q-17 0 -34 2.5t-30.5 12t-21.5 29t-8 53.5v40q-28 -32 -62.5 -58t-78.5 -44.5t-98.5 -29t-120.5 -10.5q-67 0 -129.5 22t-110.5 64t-75 104q-23 53 -23 119q0 12 1 25zM263 310v-6q0 -58 18 -100q19 -44 54 -73t83.5 -42.5t107.5 -13.5 q54 0 99 12t80 29t60 35t39 30v83.5v101t0.5 109.5t0.5 109q-54 0 -115 -5t-121.5 -17.5t-115.5 -33t-97 -51t-67.5 -72t-25.5 -95.5z" />
<glyph unicode="b" horiz-adv-x="1264" d="M44 1525v68l280 30l35 -17v-586q30 24 67 47.5t81 42.5t95.5 31t109.5 12q85 0 165.5 -29.5t142.5 -95t100 -169.5t38 -254q0 -132 -41 -247t-115.5 -201t-179 -135.5t-230.5 -49.5q-71 0 -134.5 8t-114 20t-84.5 25.5t-44 24.5v1450zM359 134q8 -21 32 -36t58.5 -24.5 t76 -14t84.5 -4.5q76 0 148.5 31.5t128.5 95.5t91 160.5t36 227.5v9q0 126 -28 214q-30 91 -80.5 147t-116 81t-135.5 25q-43 0 -85.5 -8.5t-81 -23t-71.5 -34.5t-57 -43v-803z" />
<glyph unicode="c" horiz-adv-x="1051" d="M107 538v6q1 134 41 243q42 111 115 190t172 123t214 49h24q30 1 60 -1q43 -2 82 -9t71 -17t52 -23v-214h-74l-41 128q-35 27 -85 36.5t-101 9.5q-78 0 -148 -29.5t-123.5 -86.5t-85.5 -141.5t-33 -194.5v-8q0 -139 33 -235q34 -100 89.5 -161.5t126.5 -90t144 -28.5 q34 0 76.5 5t84.5 15t79 24t61 32l27 -72q-29 -26 -71.5 -46t-93.5 -34t-107 -21.5t-113 -7.5q-114 0 -202.5 42t-149 117t-92 177.5t-32.5 222.5z" />
<glyph unicode="d" horiz-adv-x="1269" d="M107 541q0 134 45 246.5t122.5 193.5t182 126.5t223.5 45.5q45 0 80 -4.5t62 -11.5t47.5 -14.5t36.5 -13.5v388l-205 24v69l311 32l38 -20v-1531h136v-61q-16 -7 -39 -13t-48 -10.5t-50 -7t-46 -2.5q-18 0 -35 2.5t-29.5 11.5t-20 26.5t-7.5 48.5v29q-20 -18 -52.5 -38.5 t-78 -38.5t-104 -30t-128.5 -12q-87 0 -167 33t-141 102.5t-97 176t-36 253.5zM251 575v-17q-1 -114 25 -200q28 -92 76 -154t113 -92.5t139 -30.5q62 0 114 11q72 14 117.5 41t70.5 50v800q-10 11 -26.5 25.5t-44 27.5t-69.5 22t-103 9q-74 0 -146.5 -28t-131 -88 t-95.5 -153t-39 -223z" />
<glyph unicode="e" horiz-adv-x="1145" d="M103 556q0 128 41 236.5t113.5 188t173.5 124.5t221 47h6q82 0 150 -26q70 -28 120.5 -81.5t78.5 -131.5t30 -177q1 -19 1 -36q0 -30 -2 -54q-4 -40 -9 -72h-777v-11v-15q0 -116 30 -201q32 -91 86.5 -150.5t128.5 -88t158 -28.5q48 0 97 6.5t93 17.5t79.5 25t56.5 28 l31 -69q-29 -26 -75.5 -47t-101.5 -35.5t-115 -22t-117 -7.5q-121 0 -214 41.5t-156 117t-95.5 182.5t-32.5 239zM253 664h631q2 32 2 62t-2 58q-4 58 -19.5 107t-43.5 86.5t-71 60.5q-57 31 -136 31q-69 0 -130 -25.5t-109 -76t-80 -126.5t-42 -177z" />
<glyph unicode="f" horiz-adv-x="837" d="M97 996v60l226 44v105q0 112 37.5 200.5t95.5 150t128.5 94t136.5 32.5q30 0 52.5 -1.5t39.5 -3.5t29 -5t22 -7v-129q-18 11 -61.5 20t-110.5 9q-42 0 -82.5 -11.5t-72 -44.5t-50.5 -92.5t-19 -155.5v-161h327v-104h-327v-912l241 -16v-68h-590v68l204 17v911h-226z" />
<glyph unicode="g" horiz-adv-x="1203" d="M127 -240q0 48 17 92t43 80.5t56.5 64t56.5 43.5q-39 15 -59.5 35.5t-30 43t-10.5 45t-1 43.5q0 20 7.5 48.5t22.5 60.5t37 64.5t51 59.5q-80 45 -127 122.5t-47 191.5q0 102 39 178t102.5 126t145.5 75.5t169 27.5h16q72 0 137 -16q71 -18 128 -57q22 20 64.5 32.5 t112.5 12.5h119v-117h-24h-54t-70.5 0.5t-73.5 0.5q31 -43 48.5 -99t17.5 -127q0 -98 -36 -174.5t-97.5 -129t-142 -79.5t-169.5 -27q-118 0 -210 37q-11 -18 -18 -39t-11 -42t-5.5 -40.5t-1.5 -34.5q0 -70 35 -99t118 -33q15 -2 45 -2.5t66 -1t73.5 -0.5h66.5 q93 0 159 -13.5t110.5 -36t70.5 -52t39.5 -61.5t17 -64.5t3.5 -61.5q0 -86 -38 -154t-106.5 -115.5t-164 -73t-210.5 -25.5q-94 0 -182 14.5t-155.5 48.5t-108.5 89.5t-41 138.5zM268 -192q0 -76 34.5 -125t88 -77t118.5 -38.5t125 -10.5q79 0 148.5 14t121.5 43.5t81.5 75 t29.5 109.5q0 46 -11.5 83.5t-45 64.5t-94.5 42.5t-160 16.5l-170 1q-109 0 -176 15q-17 -16 -33.5 -36.5t-29 -46.5t-20 -58.5t-7.5 -72.5zM285 779q0 -68 19 -125.5t58 -99.5t98.5 -65.5t140.5 -23.5q129 0 203 74t74 226q0 162 -77 238t-226 76q-58 0 -110.5 -16 t-92.5 -52t-63.5 -93t-23.5 -139z" />
<glyph unicode="h" horiz-adv-x="1404" d="M112 1520v69l276 34l39 -21l-1 -472l-3 -147q44 34 98.5 63.5t110.5 50.5t109.5 33t94.5 12q102 0 168 -29t105 -93t54 -166q14 -96 14 -229v-18v-522l155 -17v-68l-465 -1v69l165 17v464q0 129 -9.5 220.5t-37.5 149t-79 84.5t-134 27q-37 0 -82.5 -8t-92 -22t-91 -35 t-79.5 -46v-834l156 -17v-68h-452v68l152 18v1410z" />
<glyph unicode="i" horiz-adv-x="683" d="M140 0v68l165 16v887l-144 50v51l245 61l38 -19v-1029l167 -17v-68h-471zM241 1512q0 25 10.5 46t27 36.5t37.5 24t42 8.5q52 0 76 -28.5t24 -69.5q0 -26 -10 -47t-26.5 -36t-38 -23t-43.5 -8q-19 0 -37 6.5t-31.5 19.5t-22 30.5t-8.5 40.5z" />
<glyph unicode="j" horiz-adv-x="650" d="M-10 -395q8 -3 23 -5t31.5 -3.5t31.5 -2t24 -0.5q48 0 86 18.5t64 64.5t39.5 124t13.5 197v973l-151 50v51l254 60l39 -18v-1130q0 -117 -23 -209.5t-67 -157t-108.5 -98.5t-147.5 -34q-10 0 -27 1t-33.5 3t-30.5 5t-18 6v105zM238 1505q0 25 10.5 46t27.5 36.5t38 24 t42 8.5q52 0 75.5 -28.5t23.5 -69.5q0 -26 -10 -47t-26.5 -36t-38 -23t-43.5 -8q-19 0 -37 6.5t-31.5 19t-22 30.5t-8.5 41z" />
<glyph unicode="k" horiz-adv-x="1274" d="M107 1520v69l286 34l35 -21v-839l-4 -223l508 495l-150 12v82h439v-81l-155 -14l-372 -356l449 -593l147 -18v-67h-456v67l148 19l-376 518l-183 -172l5 -236v-111l155 -17v-68h-462v68l162 17v1411z" />
<glyph unicode="l" horiz-adv-x="698" d="M137 0v68l167 17v1411l-163 24v69l272 34l35 -21v-1518l176 -16v-68h-487z" />
<glyph unicode="m" horiz-adv-x="2070" d="M134 1021v52l238 60l36 -19v-138q35 28 85.5 56.5t107.5 52t116 38.5t111 16h12q100 0 161 -31q65 -33 100 -109q33 25 83 49.5t106 44t113.5 32t106.5 14.5h20q80 0 137 -21q64 -24 103 -81t56 -149.5t17 -226.5v-576l169 -18v-67h-456v67l143 18v551q0 103 -9.5 178 t-37.5 124q-28 50 -78 72q-46 21 -119 20h-13q-40 -1 -81.5 -9.5t-82.5 -22t-79.5 -31t-71.5 -36.5q11 -48 17.5 -116.5t6.5 -143.5v-586l158 -18v-67h-455v67l153 19v569q0 100 -9 171.5t-35 117.5t-75 66q-45 19 -114 19h-14q-37 -1 -79.5 -10.5t-86 -25.5t-86.5 -38 t-81 -48v-257v-78v-94t-0.5 -103.5t-0.5 -105v-99v-85.5l158 -18v-67h-445v67l142 19v882z" />
<glyph unicode="n" horiz-adv-x="1396" d="M133 1021v51l237 61l37 -19v-138q34 27 85 56t108.5 52.5t117.5 39.5t111 18h21q80 0 138 -21q66 -24 106.5 -81t58.5 -149.5t18 -227.5v-578l163 -17v-68h-461v68l154 17v560q0 106 -12.5 181t-42.5 122q-32 46 -82 66q-44 17 -106 17h-19q-38 -2 -82 -11.5t-88.5 -26 t-88 -38.5t-81.5 -48v-822l158 -17v-68h-446v68l143 18v882z" />
<glyph unicode="o" horiz-adv-x="1231" d="M105 581q2 132 45.5 237.5t116 179t168 113.5t200.5 41h8q82 0 150 -20q71 -22 126 -61t94.5 -92.5t65 -118t37.5 -136.5t12 -147q-1 -132 -41 -242.5t-109.5 -190t-164 -124t-204.5 -44.5q-92 0 -165 23t-129.5 64t-96.5 98t-66 125q-24 67 -36 142q-11 69 -11 141v12z M259 590q0 -105 20 -200t63.5 -167t111 -115t162.5 -45h10q82 1 144 31q66 32 111.5 96t69 159t23.5 219q0 101 -19 191.5t-61 159t-108.5 109t-160.5 42.5h-5q-84 0 -150 -31q-68 -32 -115 -94.5t-71.5 -152t-24.5 -202.5z" />
<glyph unicode="p" horiz-adv-x="1324" d="M121 -444l154 20v1392l-145 53v51l235 61l38 -20v-112q27 27 65.5 53.5t86.5 48.5t104 35.5t118 13.5q84 0 163 -30t140.5 -96.5t99 -172.5t37.5 -258q0 -129 -41 -242t-115.5 -197t-179 -132.5t-230.5 -48.5q-63 0 -122.5 11.5t-113.5 35.5l4 -282v-166l230 -18v-67 h-528v67zM418 931l1 -392v-388q23 -40 87 -66t155 -27q78 0 151.5 29.5t131 93t93 162.5t36.5 236v8q0 120 -27 207q-29 89 -77.5 146.5t-113.5 84.5t-137 27q-58 0 -105.5 -13t-85 -32t-65 -40t-44.5 -36z" />
<glyph unicode="q" horiz-adv-x="1242" d="M104 543q0 129 43.5 240t121.5 193.5t185 129.5t234 47q67 0 129.5 -13t107.5 -36l86 32l37 -15v-1540l146 -18v-74h-515v74l225 19v371l4 150q-20 -17 -51.5 -40t-76.5 -43t-104 -34t-132 -14q-39 0 -86.5 8.5t-96.5 31.5t-95 63.5t-82 103.5t-58 152.5t-22 211.5z M247 566v-17q0 -109 23 -193q25 -92 70.5 -153.5t110.5 -93t144 -31.5q62 0 112 10.5t88 26.5t65 34.5t44 35.5v802q-24 25 -52.5 41.5t-59 25.5t-63.5 12.5t-66 3.5q-77 0 -151 -30t-132 -92t-94.5 -157t-38.5 -225z" />
<glyph unicode="r" horiz-adv-x="923" d="M106 0v68l176 19v881l-147 53v51l236 61l38 -19v-140q21 26 63.5 55t94.5 53.5t108.5 40.5t107.5 16q33 0 60.5 -1.5t38.5 -5.5v-154q-28 11 -63 19t-96 8q-48 0 -92 -9t-81.5 -22t-68.5 -28.5t-54 -30.5v-828l303 -19v-68h-624z" />
<glyph unicode="s" horiz-adv-x="1048" d="M160 61v218h71l32 -136q51 -43 112.5 -61t129.5 -21h19q50 1 95 9q53 10 92 35t61.5 65t22.5 96q0 54 -27.5 91t-71.5 65.5t-99.5 51.5t-111.5 48q-60 27 -116.5 57.5t-100 70.5t-69.5 90q-25 49 -25 112q0 78 38 135q36 55 92 91t125 54t136 20h14q43 0 83 -5 q48 -6 89 -16.5t74 -24t53 -26.5v-201h-68l-34 125q-32 30 -85 49.5t-119 19.5q-61 0 -108.5 -13.5t-81.5 -39.5q-32 -25 -50 -60q-19 -37 -19 -82q-1 -46 21 -80q22 -35 61 -63.5t90.5 -52.5t108.5 -51q37 -17 76.5 -34t77 -37.5t71.5 -45t59 -56t40 -71t15 -89.5 q0 -79 -32 -139.5t-89 -101t-135 -61t-169 -20.5t-181.5 21.5t-166.5 63.5z" />
<glyph unicode="t" horiz-adv-x="862" d="M112 1019v60q42 8 71 12.5t49 10.5t32.5 16.5t23.5 29.5q6 13 14 44.5t15.5 67.5t13 70.5t7.5 55.5h76v-270h375v-97h-375v-602q0 -101 4.5 -166t18 -102.5t39.5 -52t70 -14.5q36 0 71 7t66 17t55 21.5t36 19.5l25 -71q-23 -25 -60.5 -43.5t-80.5 -31t-87 -19t-78 -6.5 q-54 0 -95.5 15t-69.5 48.5t-42 86.5t-14 129v764h-160z" />
<glyph unicode="u" horiz-adv-x="1292" d="M111 1037v60l215 42l30 -18v-689q0 -92 9 -157.5t35 -108.5t73 -63t122 -20q58 0 112 16t98.5 38.5t76 45t46.5 36.5v788l-125 22v64l239 45l29 -17v-1049h126v-62q-14 -6 -34.5 -12.5t-43 -11t-45 -7.5t-40.5 -3q-45 0 -68.5 18.5t-23.5 57.5v90q-98 -81 -199.5 -122 t-204.5 -41q-78 0 -132.5 16.5t-90.5 47t-56 73.5t-30 96.5t-12.5 116.5t-2.5 132v556z" />
<glyph unicode="v" horiz-adv-x="1188" d="M2 1038v81h418v-81l-145 -17l257 -626l94 -273l92 265l229 633l-143 17v82h385v-81l-117 -19l-411 -1043h-104l-446 1046z" />
<glyph unicode="w" horiz-adv-x="1692" d="M2 1037v82h422v-82l-158 -17l230 -737l39 -160l35 159l230 837h128l233 -836l44 -168l41 162l196 744l-137 16v82h385v-81l-129 -19l-302 -1044h-137l-236 811l-31 160l-41 -160l-226 -811h-125l-345 1046z" />
<glyph unicode="x" horiz-adv-x="1168" d="M4 1037v82h479v-82l-156 -14l221 -324l56 -83l51 81l224 327l-146 13v82h416v-82l-150 -16l-345 -461l356 -475l151 -17v-68h-481v68l159 16q-42 63 -79.5 117t-66.5 95t-47 66t-20 29l-66 93l-46 -77l-222 -323l183 -16v-68h-457v68l149 18l345 459l-355 477z" />
<glyph unicode="y" horiz-adv-x="1150" d="M2 1037v82h450v-82l-165 -16l255 -699l91 -255l68 238l220 718l-164 14v82h414v-82l-124 -14q-65 -196 -115 -344.5t-87 -259t-63.5 -187.5t-44.5 -129t-29.5 -83.5t-19.5 -51.5q-39 -101 -79 -181.5t-84 -140t-95.5 -98t-113.5 -53.5q-39 -10 -87 -10q-10 0 -22 1 t-23.5 3t-20.5 5t-13 6v123q17 -5 39.5 -8.5t40.5 -4.5h5q34 0 76 14q45 14 91 54.5t91 112t81 184.5h-27l-421 1047z" />
<glyph unicode="z" horiz-adv-x="1078" d="M88 70l77 102l578 771l86 104l-574 -16l-48 -190h-72l2 278h840l23 -67l-640 -849l-100 -126l624 19l57 180q17 0 39 -0.5t39 -0.5l-17 -275h-885z" />
<glyph unicode="{" horiz-adv-x="1013" d="M90 729v97q33 9 77.5 24.5t84 34.5t67.5 40t28 41v524q0 68 6 111t24 67t50 33t85 9q41 0 74 -3t62.5 -8t57 -11t57.5 -12q0 -15 -0.5 -33.5t-0.5 -33.5h-291v-640q0 -40 -22 -66.5t-57 -48.5q-39 -23 -76 -40.5t-81 -37.5q48 -23 89.5 -44.5t81.5 -50.5q29 -23 47 -49 t18 -59v-648h291q0 -15 0.5 -34.5t0.5 -33.5q-32 -7 -62 -13.5t-61.5 -11t-66 -7.5t-75.5 -3q-47 0 -76.5 9t-46 33t-22.5 67.5t-6 112.5v532q0 19 -27.5 42t-67.5 44.5t-84 39.5t-78 27z" />
<glyph unicode="|" horiz-adv-x="873" d="M358 -186v1966h131v-1966h-131z" />
<glyph unicode="}" horiz-adv-x="961" d="M198 -143q0 14 0.5 33.5t0.5 34.5h291v648q0 33 18 59t47 49q40 29 81 51t89 44q-43 20 -80.5 37.5t-75.5 40.5q-35 22 -57 48.5t-22 66.5v640h-291q0 15 -0.5 33.5t-0.5 33.5q30 6 58 12t57.5 11t62.5 8t74 3q52 0 84.5 -9t50 -33t23.5 -67t6 -111v-524q0 -20 28 -41 t67.5 -40t84 -34.5t77.5 -24.5v-97q-33 -9 -77.5 -27t-84.5 -39.5t-67.5 -44.5t-27.5 -42v-532q0 -69 -6 -112.5t-22.5 -67.5t-46 -33t-76.5 -9q-41 0 -75.5 3t-66 7.5t-61.5 11t-62 13.5z" />
<glyph unicode="~" horiz-adv-x="1257" d="M153 865q22 34 54.5 67t73.5 58t90.5 40.5t104.5 15.5q39 0 71 -13.5t59.5 -34t53 -44.5t50.5 -44.5t52 -34t58 -13.5q39 0 71.5 11t60.5 28t50.5 38t42.5 41l56 -68q-22 -35 -55 -67.5t-74 -58t-90.5 -41t-104.5 -15.5q-38 0 -70 13.5t-60 34.5t-53 44.5t-50.5 44.5 t-52.5 34.5t-58 13.5q-39 0 -72 -11t-60 -28.5t-50 -38.5t-43 -41z" />
<glyph />
<glyph unicode="&#xa1;" horiz-adv-x="713" d="M247 -398l53 1353h91l45 -1353h-189zM262 1339q4 21 15.5 38t27.5 28.5t35 16.5t37 3q22 -3 36.5 -12t23 -22t10 -29.5t-1.5 -33.5q-3 -23 -14 -40t-27 -28t-35.5 -15.5t-38.5 -2.5q-32 5 -53 31.5t-15 65.5z" />
<glyph unicode="&#xa2;" horiz-adv-x="1114" d="M128 538q-1 130 36 236t103 184.5t156.5 126t195.5 60.5l15 217h98l-15 -213q36 -1 72 -4.5t68.5 -10t58.5 -15.5t43 -20v-214h-74l-41 128q-35 27 -85 36.5t-101 9.5q-78 0 -148 -29.5t-123.5 -86.5t-85.5 -141.5t-33 -194.5q-1 -143 33 -242.5t89.5 -161.5t126.5 -90.5 t144 -28.5q34 0 76.5 5t84.5 15t79 24t61 32l27 -72q-29 -26 -70.5 -45.5t-90.5 -33.5t-104 -21.5t-110 -8.5l-12 -195h-97l12 202q-94 15 -166 62.5t-121.5 120.5t-75 167t-26.5 202z" />
<glyph unicode="&#xa3;" horiz-adv-x="1441" d="M89 43q0 24 18.5 47t50.5 41t75.5 27.5t94.5 6.5q22 22 41.5 59.5t34.5 84t24 97.5t9 101v256h-199v111h199v112q0 122 34 226.5t96.5 181t150.5 121t195 46.5q89 2 153.5 -18t116.5 -65l-72 -136q-4 7 -24.5 27.5t-54.5 42.5t-81.5 38.5t-105.5 15.5q-49 -1 -96.5 -21.5 t-84.5 -73.5t-60 -145.5t-23 -236.5v-115h354v-111h-353v-87q0 -109 -13 -190t-34.5 -143.5t-50.5 -109.5t-61 -89q34 -1 81 -12.5t99 -26t106 -29t101 -21.5q121 -17 197.5 0.5t120.5 55t60.5 89t16.5 102.5q0 53 -23 99t-68 77l67 129q69 -31 109 -91t51 -144 q4 -33 2.5 -76t-15 -88t-41.5 -88t-76.5 -77t-120.5 -54.5t-173 -20.5q-76 -3 -141.5 5t-122 21t-104 28.5t-86 28t-68.5 20t-51 3.5q-16 -21 -35.5 -40.5t-42 -33.5t-46.5 -22.5t-48 -8.5q-12 0 -26 2.5t-27 10.5t-21.5 22.5t-8.5 38.5z" />
<glyph unicode="&#xa4;" horiz-adv-x="1436" d="M235 1102l67 67l178 -178q48 37 106.5 57.5t124.5 20.5q70 0 132.5 -23.5t112.5 -65.5l178 177l67 -67l-181 -181q33 -47 52 -102t19 -117q0 -66 -21 -125.5t-59 -107.5l178 -176l-68 -67l-177 177q-49 -38 -108 -59t-125 -21q-64 0 -121 19t-105 54l-177 -177l-67 67 l175 176q-40 49 -62.5 110t-22.5 130q0 67 21.5 126.5t59.5 107.5zM442 690q0 -58 21 -109t57.5 -89.5t85.5 -60.5t105 -22q55 0 104 22t86 60.5t58 89.5t21 109t-21 109t-58 89t-86 60.5t-104 22.5q-56 0 -105 -22.5t-85.5 -60.5t-57.5 -89t-21 -109z" />
<glyph unicode="&#xa5;" horiz-adv-x="1407" d="M25 1477v76h468v-77l-161 -14l316 -481l58 -117h23l67 123q21 37 58 96.5t78.5 126.5l83 134t72.5 118l-156 15v76h428v-76l-144 -24l-387 -589h381v-99h-437v-258h437v-99h-437v-316l214 -25v-67h-570v67l209 25v316h-444v99h444v258h-444v99h390l-409 597z" />
<glyph unicode="&#xa6;" horiz-adv-x="873" d="M358 -186v894h131v-894h-131zM358 886v894h131v-894h-131z" />
<glyph unicode="&#xa7;" horiz-adv-x="1327" d="M180 103h70l49 -200q35 -34 78 -54.5t89.5 -31t94 -13.5t91.5 -3q60 0 123 13t114.5 44t84 81t32.5 125q0 69 -35 120.5t-92.5 92t-131 74t-149.5 66.5t-149.5 69t-130.5 82t-92 105.5t-35 138.5q0 46 9 90t25 84.5t38 75t48 61.5q-48 45 -76.5 100.5t-28.5 127.5 q0 73 22.5 131t60.5 103.5t87.5 78t103.5 53t108 30.5t102 10q78 0 141 -7.5t111.5 -19.5t83.5 -26t58 -27v-267h-69l-58 199q-19 18 -49 31t-66.5 21t-78 11.5t-83.5 3.5q-32 0 -69.5 -6.5t-75 -21t-72 -37.5t-61 -56t-42 -76.5t-15.5 -99.5q0 -67 35 -116.5t92.5 -89 t130.5 -72.5t149.5 -65.5t149.5 -69t130.5 -83t92.5 -106.5t35 -140q0 -46 -7 -91.5t-20 -87.5t-31.5 -79t-41.5 -66q39 -41 62 -91.5t23 -113.5q0 -104 -41.5 -178.5t-112 -121.5t-163.5 -69t-195 -22q-74 0 -146.5 8.5t-133.5 21.5t-106.5 28.5t-66.5 28.5v299zM329 840 q0 -62 31 -109t82.5 -84.5t118 -69t138 -61.5t142 -61.5t130.5 -70.5q23 43 37 98.5t13 110.5q0 64 -29.5 113t-79 88t-114 71.5t-134 63t-139.5 62t-130 69.5q-29 -42 -47.5 -99.5t-18.5 -120.5z" />
<glyph unicode="&#xa8;" horiz-adv-x="1004" d="M159 1518q0 23 10 43.5t26.5 35.5t37.5 23.5t42 8.5q52 0 75.5 -28t23.5 -67q0 -25 -10 -45t-26.5 -34.5t-37.5 -22t-43 -7.5q-19 0 -37 6t-31.5 18t-21.5 29.5t-8 39.5zM614 1518q0 23 10 43.5t26.5 35.5t37.5 23.5t42 8.5q51 0 75 -28t24 -67q0 -25 -10 -45 t-26.5 -34.5t-37.5 -22t-43 -7.5q-19 0 -37 6t-31.5 18t-21.5 29.5t-8 39.5z" />
<glyph unicode="&#xa9;" horiz-adv-x="2032" d="M172 1069q0 116 30.5 224t85.5 202.5t132 172.5t171 134t201.5 86.5t223.5 30.5t223.5 -30.5t201 -86.5t171 -134t132.5 -172.5t85.5 -202.5t30.5 -224q0 -115 -30.5 -223t-85.5 -202.5t-132.5 -172.5t-171 -133.5t-201 -86.5t-223.5 -31t-223.5 31t-201.5 86.5 t-171 133.5t-132 172.5t-85.5 202t-30.5 223.5zM274 1069q0 -103 26.5 -199t74.5 -179.5t115.5 -153t150 -119t177.5 -77t198 -27.5t198 27.5t177 77t150 119t116 153t74.5 179.5t26.5 199t-26.5 199.5t-74.5 180.5t-116 153t-150 118.5t-177 77t-198 27.5t-198 -27.5 t-177.5 -77t-150 -118.5t-115.5 -153t-74.5 -180.5t-26.5 -199.5zM577 1061q0 70 18.5 134.5t50.5 120t75.5 101.5t92.5 79.5t102 53t105 23.5q44 3 93.5 1t94 -9.5t79.5 -20t50 -30.5v-193h-90l-40 129q-11 7 -25.5 14.5t-36 12.5t-52.5 8t-74 3q-67 -1 -123 -31.5t-96 -83 t-62 -124t-22 -153.5q0 -85 24.5 -159.5t71 -130t114.5 -87.5t155 -32q38 0 76.5 8.5t71.5 20.5t58 26t37 25l23 -61q-21 -24 -54.5 -46.5t-75.5 -39t-91.5 -26.5t-102.5 -10q-111 0 -194.5 35.5t-139.5 99t-84.5 151t-28.5 191.5z" />
<glyph unicode="&#xaa;" horiz-adv-x="964" d="M91 972q0 60 23.5 104.5t64 75.5t95.5 50.5t118.5 30.5t132.5 15t138 4v41q0 67 -16.5 107.5t-47 62.5t-75 29t-99.5 7q-40 0 -79.5 -5t-75 -14.5t-65 -22.5t-49.5 -29l-30 69q22 20 60 37.5t84 30.5t97 20.5t99 7.5q72 0 132.5 -10.5t104.5 -42.5t68 -91.5t24 -156.5 l-1 -476h87v-58q-11 -5 -28.5 -10t-38 -9t-40 -6.5t-34.5 -2.5q-34 0 -53.5 13.5t-19.5 61.5v38q-18 -14 -44.5 -32.5t-65 -35t-91.5 -28t-125 -11.5q-36 0 -80 13.5t-81.5 42t-63 73t-25.5 107.5zM232 995q0 -35 10.5 -65.5t31 -53.5t51 -36.5t70.5 -13.5q45 0 85.5 7 t75 19t61.5 28t45 33v268q-78 0 -154.5 -7t-138 -27.5t-99.5 -57t-38 -94.5z" />
<glyph unicode="&#xab;" horiz-adv-x="1897" d="M245 550v126l648 399l41 -67l-550 -392l550 -382l-41 -71zM953 550v126l648 399l41 -67l-550 -392l550 -382l-41 -71z" />
<glyph unicode="&#xac;" horiz-adv-x="1220" d="M172 754v99h876v-529h-125v430h-751z" />
<glyph unicode="&#xad;" horiz-adv-x="1229" d="M172 743v111h885v-111h-885z" />
<glyph unicode="&#xae;" horiz-adv-x="2032" d="M172 1069q0 116 30.5 224t85.5 202.5t132 172.5t171 134t201.5 86.5t223.5 30.5t223.5 -30.5t201 -86.5t171 -134t132.5 -172.5t85.5 -202.5t30.5 -224q0 -115 -30.5 -223t-85.5 -202.5t-132.5 -172.5t-171 -133.5t-201 -86.5t-223.5 -31t-223.5 31t-201.5 86.5 t-171 133.5t-132 172.5t-85.5 202t-30.5 223.5zM274 1069q0 -103 26.5 -199t74.5 -179.5t115.5 -153t150 -119t177.5 -77t198 -27.5t198 27.5t177 77t150 119t116 153t74.5 179.5t26.5 199t-26.5 199.5t-74.5 180.5t-116 153t-150 118.5t-177 77t-198 27.5t-198 -27.5 t-177.5 -77t-150 -118.5t-115.5 -153t-74.5 -180.5t-26.5 -199.5zM634 594v66l101 25v773l-101 23v74h156q31 0 54 0.5t49.5 2t61.5 2.5t89 2q85 0 149 -17t106.5 -48.5t64 -75t22.5 -97.5q0 -45 -11 -91.5t-40.5 -88t-80.5 -73t-132 -45.5q45 -25 76.5 -61t56.5 -76t46 -80 t45 -71.5t53.5 -51.5t71.5 -20v-74h-118q-47 0 -78.5 25t-55 64.5t-43.5 87.5t-44 94.5t-57 85.5t-83 60q-29 0 -59 -0.5t-62 0.5v-328l111 -21v-66h-348zM871 1090q35 -5 70.5 -6.5t86.5 -0.5q51 0 91.5 17t69 45t44 65t15.5 77q0 52 -17.5 89.5t-48 60.5t-71.5 34t-87 11 h-37t-34.5 -0.5t-37 -3t-44.5 -7.5v-381z" />
<glyph unicode="&#xaf;" horiz-adv-x="909" d="M195 1472v117h531v-117h-531z" />
<glyph unicode="&#xb0;" horiz-adv-x="677" d="M20 1277q0 65 25 122.5t68.5 100.5t101.5 68t123 25q66 0 124 -25t101.5 -68t68.5 -100.5t25 -122.5t-25 -122.5t-68.5 -100.5t-101.5 -68t-124 -25q-65 0 -123 25t-101.5 68t-68.5 100.5t-25 122.5zM114 1278q0 -47 17.5 -88.5t48 -72.5t71.5 -49.5t88 -18.5 q49 0 90 17.5t71 48.5t46.5 73t16.5 90q0 46 -17.5 87.5t-47.5 72.5t-71 49t-88 18q-49 0 -90 -17.5t-71 -48t-47 -72t-17 -89.5z" />
<glyph unicode="&#xb1;" horiz-adv-x="1258" d="M172 738v118h242l161 -10l-6 166v248h120v-248l-9 -166l144 10h261v-118h-261l-144 7l9 -166v-258h-120v258l6 165l-161 -6h-242zM181 66v111h894v-111h-894z" />
<glyph unicode="&#xb2;" horiz-adv-x="1256" d="M143 1503q25 40 71 80t106 72.5t131 53t148 20.5q104 0 176 -26t117 -66t64.5 -89t18.5 -95q-1 -95 -50.5 -180t-136 -163.5t-204 -152.5t-254.5 -146l584 30l106 172l79 -32l-60 -261h-858l-33 86q61 31 134.5 73.5t147 92t142.5 104.5t122.5 111.5t85.5 112.5t32 108 q0 54 -19 93.5t-52 65t-78 38t-96 12.5q-47 0 -98 -12.5t-100.5 -36.5t-93 -57.5t-74.5 -75.5z" />
<glyph unicode="&#xb3;" horiz-adv-x="1145" d="M191 1583q24 19 62 40.5t85 39.5t101 31.5t110 17.5q85 7 151 -9t111.5 -48t69 -78t23.5 -98q0 -42 -15 -81.5t-45 -74t-76 -62.5t-107 -47q95 5 156.5 -20t97.5 -64.5t50.5 -86.5t14.5 -86q0 -72 -32.5 -132.5t-93 -104t-146.5 -67.5t-192 -24q-30 0 -65.5 3.5t-73 10.5 t-76 18t-73.5 25v88q32 -12 68.5 -21t73 -15.5t72.5 -9.5t67 -3q79 1 139.5 19t101.5 50t62 75.5t21 95.5q0 93 -73.5 142t-207.5 38l-167 -34v94q101 16 166.5 41.5t106 56t61 63.5t29.5 66q5 20 5 39t-5 38q-5 27 -23.5 47.5t-46.5 34t-64 20t-75 5.5q-39 -2 -84 -11 t-87.5 -23t-79 -32t-59.5 -37z" />
<glyph unicode="&#xb4;" horiz-adv-x="884" d="M267 1386l313 384l106 -109q-23 -36 -68 -79t-98 -85.5t-109 -82.5t-101 -71z" />
<glyph unicode="&#xb5;" horiz-adv-x="1415" d="M161 1034v60l216 45l30 -18v-680q0 -90 10 -157t36 -111.5t72.5 -66.5t120.5 -22q58 0 112 16t98 38t76 44.5t47 36.5v788l-125 22v64l240 45l27 -17v-1050h127v-61q-15 -6 -35 -12.5t-42.5 -11t-45 -7.5t-40.5 -3q-45 0 -69 18.5t-24 57.5v90q-98 -82 -199 -122.5 t-204 -40.5q-59 0 -103.5 11t-78.5 31v-423h-143v845v18v553z" />
<glyph unicode="&#xb6;" horiz-adv-x="1346" d="M118 1134q0 98 30.5 178.5t93.5 137.5t160.5 88.5t231.5 31.5q34 0 89.5 -2t117 -5t121 -6t101.5 -4h171v-78l-172 -25v-1359l155 -24v-67h-283l-2 1450q-6 0 -24.5 0.5t-44 1.5t-54.5 1.5t-55 0.5h-46h-27v-1454h-325v67l199 24v592q-105 0 -186.5 26.5t-137 82 t-84.5 140.5t-29 202z" />
<glyph unicode="&#xb7;" horiz-adv-x="647" d="M239 854q3 21 14.5 38t27.5 28t35 16.5t37 3.5q22 -3 36.5 -12t23 -22.5t10.5 -30t-1 -33.5q-3 -22 -14.5 -39t-27.5 -28t-35 -16t-38 -2q-33 5 -54 31.5t-14 65.5z" />
<glyph unicode="&#xb8;" horiz-adv-x="615" d="M134 -506q0 17 0.5 40.5t0.5 40.5q14 -4 32 -7.5t36.5 -6.5t35.5 -4.5t28 -1.5q28 0 58 4t55 17.5t41.5 39t16.5 69.5q0 33 -13 56t-37 37.5t-57 21.5t-72 7q-7 0 -16 -0.5t-18 -1.5t-16.5 -1.5t-11.5 -1.5q0 49 7.5 96.5t22.5 101.5h89q-4 -25 -6.5 -60.5t0.5 -66.5 q70 3 121.5 -11.5t85.5 -41t50.5 -62t16.5 -74.5q0 -50 -20.5 -88.5t-55 -65t-80.5 -41t-97 -16.5q-39 -2 -67.5 -0.5t-51 4.5t-41 7.5t-37.5 9.5z" />
<glyph unicode="&#xb9;" horiz-adv-x="1085" d="M197 1528q30 9 68.5 24t80 33t82.5 38t76 39t61 35t38 27l50 -15l-2 -901l275 -22v-68h-711v68l291 21v739q-72 -27 -145 -53t-149 -45z" />
<glyph unicode="&#xba;" horiz-adv-x="998" d="M98 1165q1 75 19 136t48 108.5t70 82t85.5 57t94.5 33.5t97 11q93 0 166.5 -29.5t124 -86t76.5 -138t25 -184.5q-1 -112 -40 -191.5t-99.5 -130t-134 -74.5t-142.5 -24q-84 0 -156 28.5t-124.5 83.5t-82 135t-27.5 183zM244 1175q0 -83 17.5 -149.5t50 -113.5t78 -72 t99.5 -25q66 0 116.5 19t84 59t51 102t17.5 148q0 84 -16 152.5t-47.5 117t-79.5 74.5t-112 26q-65 0 -113.5 -24t-80.5 -68t-48.5 -106t-16.5 -140z" />
<glyph unicode="&#xbb;" horiz-adv-x="1897" d="M256 230l549 391l-549 383l40 71l648 -387v-126l-648 -399zM964 230l549 391l-549 383l41 71l648 -387v-126l-648 -399z" />
<glyph unicode="&#xbc;" horiz-adv-x="2626" d="M227 1528q30 9 68.5 24t80 33t82.5 38t76 39t61 35t38 27l50 -15l-2 -901l275 -22v-68h-711v68l291 21v739q-72 -27 -145 -53t-149 -45zM809 -313l728 2194l100 -29l-725 -2195zM1387 260l566 855l54 1l81 -74l-522 -708l-47 -68l480 26l2 291l132 19v-303l282 16l3 -129 h-285v-366h-137l2 366h-573z" />
<glyph unicode="&#xbd;" horiz-adv-x="2626" d="M227 1528q30 9 68.5 24t80 33t82.5 38t76 39t61 35t38 27l50 -15l-2 -901l275 -22v-68h-711v68l291 21v739q-72 -27 -145 -53t-149 -45zM792 -322l729 2203l99 -25l-725 -2199zM1443 782q25 40 71 80t106 72.5t131 53t148 20.5q104 0 176 -26t117 -66.5t64.5 -89 t19.5 -94.5q-1 -95 -50.5 -180t-136 -163.5t-203.5 -152.5t-253 -146l581 30l106 172l79 -32l-60 -261h-858l-33 86q61 31 134.5 73.5t147.5 92t143 104.5t122.5 111.5t85.5 112.5t32 108q0 54 -19 93t-52.5 65t-78.5 38.5t-96 12.5q-47 0 -98 -13t-100.5 -36.5t-93 -57 t-74.5 -75.5z" />
<glyph unicode="&#xbe;" horiz-adv-x="2681" d="M191 1583q24 19 62 40.5t85 39.5t101 31.5t110 17.5q85 7 151 -9t111.5 -48t69 -78t23.5 -98q0 -42 -15 -81.5t-45 -74t-76 -62.5t-107 -47q95 5 156.5 -20t97.5 -64.5t50.5 -86.5t14.5 -86q0 -72 -32.5 -132.5t-93 -104t-146.5 -67.5t-192 -24q-30 0 -65.5 3.5t-73 10.5 t-76 18t-73.5 25v88q32 -12 68.5 -21t73 -15.5t72.5 -9.5t67 -3q79 1 139.5 19t101.5 50t62 75.5t21 95.5q0 93 -73.5 142t-207.5 38l-167 -34v94q101 16 166.5 41.5t106 56t61 63.5t29.5 66q5 20 5 39t-5 38q-5 27 -23.5 47.5t-46.5 34t-64 20t-75 5.5q-39 -2 -84 -11 t-87.5 -23t-79 -32t-59.5 -37zM815 -322l729 2203l99 -25l-725 -2199zM1387 260l565 855l55 1l80 -74l-521 -708l-48 -68l481 26l2 291l132 19v-303l282 16l2 -129h-284v-366h-137l2 366h-573z" />
<glyph unicode="&#xbf;" horiz-adv-x="1009" d="M93 214q0 43 33 78.5t84 65.5t110.5 57t113.5 53t93 53t48 58q5 43 -4 87.5t-25 88t-36.5 86.5t-38.5 85h85q14 -13 31.5 -35.5t36 -51.5t35.5 -62.5t30.5 -67t21 -66t7.5 -59.5q0 -30 -21.5 -56.5t-56.5 -50t-80 -44.5t-92 -41t-93 -40t-82.5 -40.5t-60.5 -42t-28 -46.5 q-4 -105 35.5 -197.5t109 -162t164.5 -109.5t202 -40q20 0 43.5 1.5t47 5.5t44 9t35.5 13v-116q-7 -9 -26.5 -17t-45.5 -14t-56.5 -10t-58.5 -4q-115 0 -206 27.5t-160.5 74.5t-117.5 110t-77 133t-39.5 144t-4.5 143zM368 1340q3 21 15 38t28 28.5t34.5 16.5t36.5 3 q22 -3 37 -12t23.5 -22.5t10 -30t-1.5 -33.5q-3 -22 -14 -39t-27 -28t-35.5 -16t-38.5 -2q-33 5 -53.5 31.5t-14.5 65.5z" />
<glyph unicode="&#xc0;" horiz-adv-x="1493" d="M2 0v67l146 24l538 1470h121l523 -1470l165 -24v-67h-488v67l168 24l-127 364h-644l-126 -364l174 -24v-67h-450zM388 1811l107 109l296 -269l-42 -43q-45 18 -94 41.5t-96.5 50t-91 55t-79.5 56.5zM435 546h582l-214 613l-74 233z" />
<glyph unicode="&#xc1;" horiz-adv-x="1493" d="M2 0v67l146 24l538 1470h121l523 -1470l165 -24v-67h-488v67l168 24l-127 364h-644l-126 -364l174 -24v-67h-450zM435 546h582l-214 613l-74 233zM698 1651l296 269l107 -109q-36 -28 -79.5 -56.5t-91 -55t-96.5 -50t-94 -41.5z" />
<glyph unicode="&#xc2;" horiz-adv-x="1493" d="M2 0v67l146 24l538 1470h121l523 -1470l165 -24v-67h-488v67l168 24l-127 364h-644l-126 -364l174 -24v-67h-450zM404 1654l269 266h146l269 -264l-70 -39l-273 200l-279 -200zM435 546h582l-214 613l-74 233z" />
<glyph unicode="&#xc3;" horiz-adv-x="1493" d="M2 0v67l146 24l538 1470h121l523 -1470l165 -24v-67h-488v67l168 24l-127 364h-644l-126 -364l174 -24v-67h-450zM350 1760q19 33 48 62t63.5 51t73.5 34.5t80 12.5q48 0 83.5 -22.5t66 -50t60.5 -50t68 -22.5q31 0 58.5 8t51.5 21.5t44 31.5t37 37l42 -60 q-19 -32 -47.5 -61t-63 -51t-73.5 -35t-79 -13q-48 0 -83.5 23t-66 50.5t-60.5 50.5t-69 23q-30 0 -57.5 -8.5t-51.5 -22t-45 -31.5t-38 -37zM435 546h582l-214 613l-74 233z" />
<glyph unicode="&#xc4;" horiz-adv-x="1493" d="M2 0v67l146 24l538 1470h121l523 -1470l165 -24v-67h-488v67l168 24l-127 364h-644l-126 -364l174 -24v-67h-450zM407 1785q0 24 10.5 44.5t27 35.5t37.5 23.5t42 8.5q51 0 75 -28.5t24 -66.5q0 -25 -10 -45.5t-26.5 -35.5t-37.5 -23t-43 -8q-19 0 -37 6.5t-31.5 19 t-22 30t-8.5 39.5zM435 546h582l-214 613l-74 233zM864 1784q0 24 10.5 44.5t27 35.5t37.5 24t42 9q52 0 75.5 -28.5t23.5 -67.5q0 -25 -10 -45.5t-26.5 -35.5t-37.5 -23t-43 -8q-19 0 -37 6.5t-31.5 19t-22 30t-8.5 39.5z" />
<glyph unicode="&#xc5;" horiz-adv-x="1493" d="M2 0v67l146 24l512 1400q-36 11 -67 30.5t-53.5 46.5t-35 60.5t-12.5 71.5q0 48 20 88t54.5 69.5t80 46t97.5 16.5t97.5 -16.5t80 -45.5t54.5 -69.5t20 -88.5q0 -37 -12.5 -70t-34 -60t-52 -47t-66.5 -31l499 -1401l165 -24v-67h-488v67l168 24l-127 364h-644l-126 -364 l174 -24v-67h-450zM435 546h582l-214 613l-74 233zM586 1699q0 -31 12.5 -56t34 -43t50 -28t61.5 -10q32 0 61 10t50.5 28t34 43t12.5 55t-12.5 55t-34 43t-50.5 28t-61 10q-33 0 -61.5 -10t-50 -28t-34 -42.5t-12.5 -54.5z" />
<glyph unicode="&#xc6;" horiz-adv-x="1940" d="M2 0v67l138 24l589 1462h945l29 -285l-79 -2l-46 194l-673 11l185 -611l437 7l26 164h73v-420h-73l-26 161l-412 5l210 -692l369 13l90 226l68 -33l-45 -291h-824v67l179 24l-120 388h-625l-148 -388l183 -24v-67h-450zM451 570h562l-204 659l-39 176z" />
<glyph unicode="&#xc7;" horiz-adv-x="1410" d="M87 731q0 127 30 238.5t84 204.5t128.5 166t164.5 123.5t191 77t208 26.5q72 0 134 -8.5t113.5 -20t93.5 -23.5t75 -19l-15 -276h-81l-38 180q-62 39 -141.5 58.5t-184.5 19.5q-78 0 -153.5 -20.5t-143.5 -61t-125 -100t-98.5 -137.5t-65 -173.5t-23.5 -207.5 q0 -97 17.5 -189t52 -172.5t86 -147.5t119 -115t151 -74t182.5 -25q122 1 213.5 32.5t136.5 78.5l44 169q15 0 34 -0.5t34 -0.5v-271q-34 -2 -75 -15t-96 -29t-127.5 -29.5t-169.5 -16.5q-3 -23 -3.5 -50t1.5 -50q70 3 121.5 -11.5t85.5 -41t50.5 -62t16.5 -74.5 q0 -50 -20.5 -88.5t-55 -65t-80.5 -41t-97 -16.5q-39 -2 -67.5 -0.5t-51 4.5t-41 7.5t-37.5 9.5q0 17 0.5 40.5t0.5 40.5q14 -4 32 -7.5t36.5 -6.5t35.5 -4.5t28 -1.5q28 0 58 4t55 17.5t41.5 39t16.5 69.5q0 33 -13 56t-37 37.5t-57 21.5t-72 7q-7 0 -16 -0.5t-18 -1.5 t-16.5 -1.5t-11.5 -1.5q0 43 5.5 85t17.5 87q-145 10 -266.5 69.5t-209.5 159.5t-137.5 234.5t-49.5 293.5z" />
<glyph unicode="&#xc8;" horiz-adv-x="1319" d="M102 0v67l180 24v1370l-176 16v76h1037l29 -286h-85l-46 194l-612 11v-607l408 7l26 161h79v-424h-79l-26 167l-408 6v-698l658 16l91 233l74 -18l-45 -315h-1105zM364 1811l106 109l296 -269l-42 -43q-45 18 -94 41.5t-96 50t-91 55t-79 56.5z" />
<glyph unicode="&#xc9;" horiz-adv-x="1319" d="M102 0v67l180 24v1370l-176 16v76h1037l29 -286h-85l-46 194l-612 11v-607l408 7l26 161h79v-424h-79l-26 167l-408 6v-698l658 16l91 233l74 -18l-45 -315h-1105zM673 1651l296 269l107 -109q-35 -28 -79 -56.5t-91 -55t-96 -50t-94 -41.5z" />
<glyph unicode="&#xca;" horiz-adv-x="1319" d="M102 0v67l180 24v1370l-176 16v76h1037l29 -286h-85l-46 194l-612 11v-607l408 7l26 161h79v-424h-79l-26 167l-408 6v-698l658 16l91 233l74 -18l-45 -315h-1105zM379 1654l269 266h146l270 -264l-70 -39l-273 200l-279 -200z" />
<glyph unicode="&#xcb;" horiz-adv-x="1319" d="M102 0v67l180 24v1370l-176 16v76h1037l29 -286h-85l-46 194l-612 11v-607l408 7l26 161h79v-424h-79l-26 167l-408 6v-698l658 16l91 233l74 -18l-45 -315h-1105zM382 1785q0 24 10.5 44.5t27 35.5t37.5 23.5t42 8.5q52 0 76 -28.5t24 -66.5q0 -25 -10 -45.5 t-26.5 -35.5t-38 -23t-43.5 -8q-19 0 -37 6.5t-31.5 19t-22 30t-8.5 39.5zM839 1784q0 24 10.5 44.5t27 35.5t38 24t42.5 9q51 0 75 -28.5t24 -67.5q0 -25 -10 -45.5t-26.5 -35.5t-38 -23t-43.5 -8q-19 0 -37 6.5t-31.5 19t-22 30t-8.5 39.5z" />
<glyph unicode="&#xcc;" horiz-adv-x="763" d="M25 1811l106 109l296 -269l-42 -43q-45 18 -94 41.5t-96 50t-91 55t-79 56.5zM136 0v67l169 24v1371l-166 15v76h482v-76l-168 -15v-1371l176 -24v-67h-493z" />
<glyph unicode="&#xcd;" horiz-adv-x="763" d="M136 0v67l169 24v1371l-166 15v76h482v-76l-168 -15v-1371l176 -24v-67h-493zM334 1651l296 269l107 -109q-36 -28 -79.5 -56.5t-91 -55t-96 -50t-93.5 -41.5z" />
<glyph unicode="&#xce;" horiz-adv-x="763" d="M40 1654l269 266h146l270 -264l-70 -39l-273 200l-279 -200zM136 0v67l169 24v1371l-166 15v76h482v-76l-168 -15v-1371l176 -24v-67h-493z" />
<glyph unicode="&#xcf;" horiz-adv-x="763" d="M43 1785q0 24 10.5 44.5t27 35.5t37.5 23.5t42 8.5q52 0 76 -28.5t24 -66.5q0 -25 -10 -45.5t-26.5 -35.5t-38 -23t-43.5 -8q-19 0 -37 6.5t-31.5 19t-22 30t-8.5 39.5zM136 0v67l169 24v1371l-166 15v76h482v-76l-168 -15v-1371l176 -24v-67h-493zM500 1784 q0 24 10.5 44.5t27 35.5t38 24t42.5 9q51 0 75 -28.5t24 -67.5q0 -25 -10 -45.5t-26.5 -35.5t-38 -23t-43.5 -8q-19 0 -37 6.5t-31.5 19t-22 30t-8.5 39.5z" />
<glyph unicode="&#xd0;" horiz-adv-x="1593" d="M97 759v111h189v591l-176 16v76h249q58 0 108 2t95.5 4.5t89.5 4.5t91 2q190 1 332 -49.5t236.5 -147t141.5 -236t47 -316.5q0 -197 -59.5 -351.5t-167 -261t-256 -162t-325.5 -52.5q-36 0 -77.5 2t-84 4t-86 3.5t-83.5 1.5h-57t-70.5 -0.5t-70.5 -0.5h-57v67l180 25v667 h-189zM434 100q69 -12 135.5 -19t143.5 -5q128 2 242.5 44t201 127.5t137.5 216.5t51 312q0 178 -43.5 311.5t-126.5 222t-203 131t-274 38.5q-81 -2 -148 -6.5t-116 -11.5v-591h273v-111h-273v-659z" />
<glyph unicode="&#xd1;" horiz-adv-x="1662" d="M104 0v67l176 23v1364l-170 15v84h326l719 -1154l148 -271v1327l-174 15v83h456v-83l-173 -15v-1455h-162l-711 1112l-148 280v-182.5v-225t-0.5 -246t-0.5 -245.5v-223v-179l206 -24v-67h-492zM443 1760q20 33 49 62t63.5 51t73.5 34.5t79 12.5q48 0 83.5 -22.5t66 -50 t60.5 -50t68 -22.5q31 0 59 8t52 21.5t44 31.5t37 37l41 -60q-19 -32 -47 -61t-62.5 -51t-74 -35t-79.5 -13q-32 0 -58 11t-48.5 27t-42.5 35.5t-40 35.5t-42 27t-47 11q-30 0 -57.5 -8.5t-52 -22t-45.5 -31.5t-37 -37z" />
<glyph unicode="&#xd2;" horiz-adv-x="1554" d="M93 755q4 196 62 346t155 252.5t224.5 156t269.5 56.5q153 3 277 -53.5t211 -159.5t132.5 -247t42.5 -315q-4 -195 -59.5 -346t-149 -255.5t-217.5 -159.5t-264 -58q-156 -3 -283.5 53.5t-217.5 160.5t-138 249.5t-45 319.5zM255 756q0 -148 37 -276t106.5 -222.5 t168.5 -148.5t224 -54q115 0 210 51t162.5 146.5t105 231.5t37.5 306q0 144 -34 270t-100 220t-162.5 148.5t-220.5 54.5q-116 0 -214 -48.5t-169 -141.5t-111 -228t-40 -309zM438 1811l107 109l296 -269l-43 -43q-45 18 -94 41.5t-96 50t-90.5 55t-79.5 56.5z" />
<glyph unicode="&#xd3;" horiz-adv-x="1554" d="M93 755q4 196 62 346t155 252.5t224.5 156t269.5 56.5q153 3 277 -53.5t211 -159.5t132.5 -247t42.5 -315q-4 -195 -59.5 -346t-149 -255.5t-217.5 -159.5t-264 -58q-156 -3 -283.5 53.5t-217.5 160.5t-138 249.5t-45 319.5zM255 756q0 -148 37 -276t106.5 -222.5 t168.5 -148.5t224 -54q115 0 210 51t162.5 146.5t105 231.5t37.5 306q0 144 -34 270t-100 220t-162.5 148.5t-220.5 54.5q-116 0 -214 -48.5t-169 -141.5t-111 -228t-40 -309zM748 1651l296 269l106 -109q-35 -28 -79 -56.5t-91 -55t-96 -50t-94 -41.5z" />
<glyph unicode="&#xd4;" horiz-adv-x="1554" d="M93 755q4 196 62 346t155 252.5t224.5 156t269.5 56.5q153 3 277 -53.5t211 -159.5t132.5 -247t42.5 -315q-4 -195 -59.5 -346t-149 -255.5t-217.5 -159.5t-264 -58q-156 -3 -283.5 53.5t-217.5 160.5t-138 249.5t-45 319.5zM255 756q0 -148 37 -276t106.5 -222.5 t168.5 -148.5t224 -54q115 0 210 51t162.5 146.5t105 231.5t37.5 306q0 144 -34 270t-100 220t-162.5 148.5t-220.5 54.5q-116 0 -214 -48.5t-169 -141.5t-111 -228t-40 -309zM454 1654l269 266h146l269 -264l-70 -39l-273 200l-279 -200z" />
<glyph unicode="&#xd5;" horiz-adv-x="1554" d="M93 755q4 196 62 346t155 252.5t224.5 156t269.5 56.5q153 3 277 -53.5t211 -159.5t132.5 -247t42.5 -315q-4 -195 -59.5 -346t-149 -255.5t-217.5 -159.5t-264 -58q-156 -3 -283.5 53.5t-217.5 160.5t-138 249.5t-45 319.5zM255 756q0 -148 37 -276t106.5 -222.5 t168.5 -148.5t224 -54q115 0 210 51t162.5 146.5t105 231.5t37.5 306q0 144 -34 270t-100 220t-162.5 148.5t-220.5 54.5q-116 0 -214 -48.5t-169 -141.5t-111 -228t-40 -309zM400 1760q19 33 48 62t63.5 51t73.5 34.5t80 12.5q48 0 83 -22.5t65.5 -50t60.5 -50t68 -22.5 q31 0 59 8t52 21.5t44 31.5t37 37l42 -60q-19 -32 -47.5 -61t-63 -51t-73.5 -35t-79 -13q-48 0 -83.5 23t-66 50.5t-60.5 50.5t-69 23q-30 0 -57.5 -8.5t-51.5 -22t-45 -31.5t-38 -37z" />
<glyph unicode="&#xd6;" horiz-adv-x="1554" d="M93 755q4 196 62 346t155 252.5t224.5 156t269.5 56.5q153 3 277 -53.5t211 -159.5t132.5 -247t42.5 -315q-4 -195 -59.5 -346t-149 -255.5t-217.5 -159.5t-264 -58q-156 -3 -283.5 53.5t-217.5 160.5t-138 249.5t-45 319.5zM255 756q0 -148 37 -276t106.5 -222.5 t168.5 -148.5t224 -54q115 0 210 51t162.5 146.5t105 231.5t37.5 306q0 144 -34 270t-100 220t-162.5 148.5t-220.5 54.5q-116 0 -214 -48.5t-169 -141.5t-111 -228t-40 -309zM456 1785q0 24 10.5 44.5t27.5 35.5t38 23.5t42 8.5q51 0 75 -28.5t24 -66.5q0 -25 -10 -45.5 t-26.5 -35.5t-38 -23t-43.5 -8q-19 0 -37 6.5t-31.5 19t-22 30t-8.5 39.5zM914 1784q0 24 10.5 44.5t27 35.5t37.5 24t42 9q51 0 75 -28.5t24 -67.5q0 -25 -10 -45.5t-26.5 -35.5t-37.5 -23t-43 -8q-19 0 -37 6.5t-31.5 19t-22 30t-8.5 39.5z" />
<glyph unicode="&#xd7;" horiz-adv-x="1241" d="M190 456l354 340l-354 341l90 95l339 -360l341 360l90 -95l-354 -341l354 -340l-90 -95l-341 359l-339 -359z" />
<glyph unicode="&#xd8;" horiz-adv-x="1554" d="M93 755q4 196 62 346t155 252.5t224.5 156t269.5 56.5q124 1 230 -35l55 159l68 -27l-55 -161q87 -43 156 -112.5t116 -161t71 -202t22 -235.5q-4 -195 -59.5 -346t-149 -255.5t-217.5 -159.5t-264 -58q-104 -1 -197 23l-63 -187l-72 26l63 185q-98 40 -176 110 t-132 164.5t-82 211.5t-25 250zM255 756q0 -107 19.5 -204.5t57 -179.5t92 -146t123.5 -106l451 1314q-46 23 -98 36t-111 13q-116 0 -214 -48.5t-169 -141.5t-111 -228t-40 -309zM616 87q81 -32 175 -32q115 0 210 51t162.5 146.5t105 231.5t37.5 306q0 97 -16 187 t-46.5 168t-76 141.5t-105.5 107.5z" />
<glyph unicode="&#xd9;" horiz-adv-x="1576" d="M33 1477v76h476v-76l-174 -16v-819q0 -173 35.5 -286.5t99 -181t150.5 -95t191 -27.5q111 0 192.5 41t134.5 119t78.5 191.5t25.5 259.5v797l-173 17v76h444v-76l-156 -17v-796q0 -187 -42 -318.5t-117.5 -214.5t-181.5 -121t-234 -38q-159 0 -272 41.5t-185 125.5 t-105.5 211t-33.5 297v815zM439 1811l106 109l296 -269l-42 -43q-45 18 -94 41.5t-96 50t-91 55t-79 56.5z" />
<glyph unicode="&#xda;" horiz-adv-x="1576" d="M33 1477v76h476v-76l-174 -16v-819q0 -173 35.5 -286.5t99 -181t150.5 -95t191 -27.5q111 0 192.5 41t134.5 119t78.5 191.5t25.5 259.5v797l-173 17v76h444v-76l-156 -17v-796q0 -187 -42 -318.5t-117.5 -214.5t-181.5 -121t-234 -38q-159 0 -272 41.5t-185 125.5 t-105.5 211t-33.5 297v815zM749 1651l295 269l107 -109q-35 -28 -79 -56.5t-91 -55t-96 -50t-94 -41.5z" />
<glyph unicode="&#xdb;" horiz-adv-x="1576" d="M33 1477v76h476v-76l-174 -16v-819q0 -173 35.5 -286.5t99 -181t150.5 -95t191 -27.5q111 0 192.5 41t134.5 119t78.5 191.5t25.5 259.5v797l-173 17v76h444v-76l-156 -17v-796q0 -187 -42 -318.5t-117.5 -214.5t-181.5 -121t-234 -38q-159 0 -272 41.5t-185 125.5 t-105.5 211t-33.5 297v815zM454 1654l269 266h146l270 -264l-70 -39l-273 200l-279 -200z" />
<glyph unicode="&#xdc;" horiz-adv-x="1576" d="M33 1477v76h476v-76l-174 -16v-819q0 -173 35.5 -286.5t99 -181t150.5 -95t191 -27.5q111 0 192.5 41t134.5 119t78.5 191.5t25.5 259.5v797l-173 17v76h444v-76l-156 -17v-796q0 -187 -42 -318.5t-117.5 -214.5t-181.5 -121t-234 -38q-159 0 -272 41.5t-185 125.5 t-105.5 211t-33.5 297v815zM457 1785q0 24 10.5 44.5t27 35.5t38 23.5t42.5 8.5q51 0 75 -28.5t24 -66.5q0 -25 -10 -45.5t-26.5 -35.5t-38 -23t-43.5 -8q-19 0 -37 6.5t-31.5 19t-22 30t-8.5 39.5zM914 1784q0 24 10.5 44.5t27 35.5t38 24t42.5 9q51 0 75 -28.5t24 -67.5 q0 -25 -10 -45.5t-26.5 -35.5t-38 -23t-43.5 -8q-19 0 -37 6.5t-31.5 19t-22 30t-8.5 39.5z" />
<glyph unicode="&#xdd;" horiz-adv-x="1352" d="M12 1477v76h460v-77l-168 -14l351 -633l53 -107l49 108l320 631l-171 16v76h431v-76l-135 -22l-430 -818v-545l211 -25v-67h-561v67l203 25v548l-491 822zM656 1651l296 269l107 -109q-36 -28 -79.5 -56.5t-91 -55t-96.5 -50t-94 -41.5z" />
<glyph unicode="&#xde;" horiz-adv-x="1296" d="M86 0v67l201 25v1371l-165 14v76h482v-76l-169 -15v-235q57 6 128.5 16t142.5 10q115 0 212.5 -24.5t168 -77.5t110 -136t39.5 -200q0 -122 -49 -214.5t-130 -154t-185.5 -92t-214.5 -29.5q-83 0 -136.5 3t-85.5 4v-240l276 -25v-67h-625zM435 418q56 -9 114 -11.5 t105 -2.5q89 1 167.5 23t137.5 70.5t93.5 126t34.5 189.5q0 88 -28 155.5t-83.5 113t-138.5 67.5t-192 18q-24 -1 -51.5 -4t-55.5 -7t-54.5 -9t-48.5 -11v-718z" />
<glyph unicode="&#xdf;" horiz-adv-x="1334" d="M67 0v67l157 26v779q0 183 45.5 316t120.5 219.5t173 127.5t203 41q54 0 109.5 -13t100.5 -46t73.5 -88.5t28.5 -140.5q0 -60 -15 -106.5t-37 -84.5t-48.5 -71t-48.5 -66.5t-37 -70.5t-15 -83q0 -52 32 -86.5t80 -63t103.5 -56.5t103.5 -65.5t80 -91t32 -133.5 q0 -88 -33.5 -150.5t-90.5 -102.5t-132 -59t-158 -19q-44 0 -102.5 2.5t-118.5 16.5v134q19 -10 47 -21.5t60 -21t65 -16t62 -6.5q53 0 101 11t84.5 36t58 66t21.5 101q0 45 -18.5 79.5t-49 62t-69.5 50t-79.5 43.5t-79.5 43.5t-69.5 50t-49 62t-18.5 79.5q0 38 15.5 75.5 t38.5 75.5t50 77t50 80.5t38.5 85.5t15.5 92q0 53 -13.5 98t-41 78t-69 52t-96.5 19q-82 0 -148.5 -30t-113 -100.5t-71.5 -188.5t-25 -293v-872h-302z" />
<glyph unicode="&#xe0;" horiz-adv-x="1145" d="M116 312q6 69 42 122t91.5 92.5t126 66t145 42.5t148 23t136.5 7v88q0 84 -20.5 139t-58.5 87t-92.5 45t-123.5 13q-38 0 -82.5 -7.5t-88 -20.5t-83.5 -29t-68 -33l-29 71q37 30 91 53t110.5 38t109.5 22.5t90 7.5q79 0 150 -16t124.5 -57t84.5 -112t31 -181l-2 -702h132 v-55q-29 -14 -75 -23.5t-98 -9.5q-17 0 -34 2.5t-30.5 12t-21.5 29t-8 53.5v40q-28 -32 -62.5 -58t-78.5 -44.5t-98.5 -29t-120.5 -10.5q-67 0 -129.5 22t-110.5 64t-75 104.5t-22 143.5zM263 310q-1 -62 18 -106.5t54 -73t83.5 -42t107.5 -13.5q54 0 99 12t80 29t60 35 t39 30v83.5v101t0.5 109.5t0.5 109q-54 0 -115 -5t-121.5 -17.5t-115.5 -33t-97 -51t-67.5 -72t-25.5 -95.5zM296 1661l106 109l313 -384l-43 -43q-45 31 -100.5 70t-108.5 81.5t-97.5 85.5t-69.5 81z" />
<glyph unicode="&#xe1;" horiz-adv-x="1145" d="M116 312q6 69 42 122t91.5 92.5t126 66t145 42.5t148 23t136.5 7v88q0 84 -20.5 139t-58.5 87t-92.5 45t-123.5 13q-38 0 -82.5 -7.5t-88 -20.5t-83.5 -29t-68 -33l-29 71q37 30 91 53t110.5 38t109.5 22.5t90 7.5q79 0 150 -16t124.5 -57t84.5 -112t31 -181l-2 -702h132 v-55q-29 -14 -75 -23.5t-98 -9.5q-17 0 -34 2.5t-30.5 12t-21.5 29t-8 53.5v40q-28 -32 -62.5 -58t-78.5 -44.5t-98.5 -29t-120.5 -10.5q-67 0 -129.5 22t-110.5 64t-75 104.5t-22 143.5zM263 310q-1 -62 18 -106.5t54 -73t83.5 -42t107.5 -13.5q54 0 99 12t80 29t60 35 t39 30v83.5v101t0.5 109.5t0.5 109q-54 0 -115 -5t-121.5 -17.5t-115.5 -33t-97 -51t-67.5 -72t-25.5 -95.5zM455 1386l313 384l106 -109q-23 -36 -68 -79t-98 -85.5t-109 -82.5t-101 -71z" />
<glyph unicode="&#xe2;" horiz-adv-x="1145" d="M116 312q6 69 42 122t91.5 92.5t126 66t145 42.5t148 23t136.5 7v88q0 84 -20.5 139t-58.5 87t-92.5 45t-123.5 13q-38 0 -82.5 -7.5t-88 -20.5t-83.5 -29t-68 -33l-29 71q37 30 91 53t110.5 38t109.5 22.5t90 7.5q79 0 150 -16t124.5 -57t84.5 -112t31 -181l-2 -702h132 v-55q-29 -14 -75 -23.5t-98 -9.5q-17 0 -34 2.5t-30.5 12t-21.5 29t-8 53.5v40q-28 -32 -62.5 -58t-78.5 -44.5t-98.5 -29t-120.5 -10.5q-67 0 -129.5 22t-110.5 64t-75 104.5t-22 143.5zM222 1373l281 399h142l273 -398l-67 -37l-277 306l-291 -306zM263 310 q-1 -62 18 -106.5t54 -73t83.5 -42t107.5 -13.5q54 0 99 12t80 29t60 35t39 30v83.5v101t0.5 109.5t0.5 109q-54 0 -115 -5t-121.5 -17.5t-115.5 -33t-97 -51t-67.5 -72t-25.5 -95.5z" />
<glyph unicode="&#xe3;" horiz-adv-x="1145" d="M116 312q6 69 42 122t91.5 92.5t126 66t145 42.5t148 23t136.5 7v88q0 84 -20.5 139t-58.5 87t-92.5 45t-123.5 13q-38 0 -82.5 -7.5t-88 -20.5t-83.5 -29t-68 -33l-29 71q37 30 91 53t110.5 38t109.5 22.5t90 7.5q79 0 150 -16t124.5 -57t84.5 -112t31 -181l-2 -702h132 v-55q-29 -14 -75 -23.5t-98 -9.5q-17 0 -34 2.5t-30.5 12t-21.5 29t-8 53.5v40q-28 -32 -62.5 -58t-78.5 -44.5t-98.5 -29t-120.5 -10.5q-67 0 -129.5 22t-110.5 64t-75 104.5t-22 143.5zM177 1498q19 33 48 62.5t64 52t74 36t79 13.5q48 0 83.5 -23.5t66 -52t60.5 -52 t68 -23.5q31 0 58.5 9.5t51.5 25t44.5 34.5t37.5 38l41 -59q-19 -33 -47.5 -62.5t-63 -52.5t-73.5 -36.5t-79 -13.5q-32 0 -58 11.5t-48.5 28t-42.5 36.5t-40.5 36.5t-42 28t-47.5 11.5q-32 0 -59.5 -9.5t-51.5 -25t-44 -34.5t-37 -38zM263 310q-1 -62 18 -106.5t54 -73 t83.5 -42t107.5 -13.5q54 0 99 12t80 29t60 35t39 30v83.5v101t0.5 109.5t0.5 109q-54 0 -115 -5t-121.5 -17.5t-115.5 -33t-97 -51t-67.5 -72t-25.5 -95.5z" />
<glyph unicode="&#xe4;" horiz-adv-x="1145" d="M116 312q6 69 42 122t91.5 92.5t126 66t145 42.5t148 23t136.5 7v88q0 84 -20.5 139t-58.5 87t-92.5 45t-123.5 13q-38 0 -82.5 -7.5t-88 -20.5t-83.5 -29t-68 -33l-29 71q37 30 91 53t110.5 38t109.5 22.5t90 7.5q79 0 150 -16t124.5 -57t84.5 -112t31 -181l-2 -702h132 v-55q-29 -14 -75 -23.5t-98 -9.5q-17 0 -34 2.5t-30.5 12t-21.5 29t-8 53.5v40q-28 -32 -62.5 -58t-78.5 -44.5t-98.5 -29t-120.5 -10.5q-67 0 -129.5 22t-110.5 64t-75 104.5t-22 143.5zM236 1518q0 23 10 43.5t26.5 35.5t37.5 23.5t42 8.5q51 0 75 -28t24 -67 q0 -25 -10 -45t-26.5 -34.5t-38 -22t-43.5 -7.5q-19 0 -36.5 6t-31 18t-21.5 29.5t-8 39.5zM263 310q-1 -62 18 -106.5t54 -73t83.5 -42t107.5 -13.5q54 0 99 12t80 29t60 35t39 30v83.5v101t0.5 109.5t0.5 109q-54 0 -115 -5t-121.5 -17.5t-115.5 -33t-97 -51t-67.5 -72 t-25.5 -95.5zM690 1518q0 23 10 43.5t26.5 35.5t37.5 23.5t42 8.5q52 0 76 -28t24 -67q0 -25 -10 -45t-26.5 -34.5t-38 -22t-43.5 -7.5q-19 0 -37 6t-31.5 18t-21.5 29.5t-8 39.5z" />
<glyph unicode="&#xe5;" horiz-adv-x="1145" d="M116 312q6 69 42 122t91.5 92.5t126 66t145 42.5t148 23t136.5 7v88q0 84 -20.5 139t-58.5 87t-92.5 45t-123.5 13q-38 0 -82.5 -7.5t-88 -20.5t-83.5 -29t-68 -33l-29 71q37 30 91 53t110.5 38t109.5 22.5t90 7.5q79 0 150 -16t124.5 -57t84.5 -112t31 -181l-2 -702h132 v-55q-29 -14 -75 -23.5t-98 -9.5q-17 0 -34 2.5t-30.5 12t-21.5 29t-8 53.5v40q-28 -32 -62.5 -58t-78.5 -44.5t-98.5 -29t-120.5 -10.5q-67 0 -129.5 22t-110.5 64t-75 104.5t-22 143.5zM263 310q-1 -62 18 -106.5t54 -73t83.5 -42t107.5 -13.5q54 0 99 12t80 29t60 35 t39 30v83.5v101t0.5 109.5t0.5 109q-54 0 -115 -5t-121.5 -17.5t-115.5 -33t-97 -51t-67.5 -72t-25.5 -95.5zM306 1556q0 49 19.5 92t53 75t78 50.5t95.5 18.5t95.5 -18.5t77.5 -50.5t52.5 -75t19.5 -92t-19.5 -92t-52.5 -75t-77.5 -50.5t-95.5 -18.5t-95.5 18.5t-78 50.5 t-53 75t-19.5 92zM399 1555q0 -33 12 -61t33 -48t48.5 -31.5t58.5 -11.5t59 11.5t49 31.5t33 48t12 61q0 32 -12 59.5t-33 47.5t-49 31.5t-59 11.5t-58.5 -11.5t-48.5 -31.5t-33 -47.5t-12 -59.5z" />
<glyph unicode="&#xe6;" horiz-adv-x="1810" d="M116 314q5 71 43.5 125t97 93t131.5 65.5t147 41.5t143.5 20t121.5 3v91q0 86 -21 141.5t-58.5 87t-89.5 43.5t-115 12q-36 0 -79.5 -7.5t-87.5 -20t-86.5 -30t-76.5 -37.5l-25 76q34 27 85 49t107.5 38t113 25t101.5 9q59 0 113.5 -9t100.5 -34t80 -68.5t51 -112.5 q66 111 172.5 173t249.5 64q83 1 151 -26t116.5 -80t75.5 -131.5t30 -178.5q2 -51 -2 -90.5t-8 -71.5h-753q-3 -128 27.5 -221.5t86.5 -154.5t132.5 -90.5t165.5 -29.5q42 0 87 7t85.5 18t74 25.5t53.5 28.5l31 -69q-27 -26 -70.5 -47t-96 -35.5t-109 -22.5t-108.5 -8 q-157 0 -261 64t-160 177q-22 -54 -65.5 -98t-101.5 -75t-128 -48t-145 -17q-64 0 -125 22t-107.5 65t-73 105.5t-21.5 143.5zM262 311q0 -59 18 -103.5t51.5 -74t80.5 -44t104 -14.5q51 0 98 14.5t84.5 41t63.5 62.5t37 79v72t0.5 83.5t0.5 83.5v73q-44 1 -100.5 -3.5 t-116.5 -16t-117.5 -31.5t-103 -50.5t-73 -73t-27.5 -98.5zM947 664h607q4 65 -1 124t-20.5 108t-43.5 86t-70 59q-51 28 -122 28t-131 -26t-106 -77.5t-75.5 -127t-37.5 -174.5z" />
<glyph unicode="&#xe7;" horiz-adv-x="1051" d="M107 538q-1 138 40.5 249t115 190t172.5 123t214 49q41 1 84 -1.5t82 -9t71 -16.5t52 -23v-214h-74l-41 128q-35 27 -85 36.5t-101 9.5q-78 0 -148 -29.5t-123.5 -86.5t-85.5 -141.5t-33 -194.5q-1 -143 33 -242.5t89.5 -161.5t126.5 -90.5t144 -28.5q34 0 76.5 5 t84.5 15t79 24t61 32l27 -72q-27 -24 -64.5 -42.5t-82.5 -32.5t-95.5 -22t-102.5 -11q-3 -24 -4.5 -52.5t1.5 -54.5q70 3 121.5 -11.5t85.5 -41t50.5 -62t16.5 -74.5q0 -50 -20.5 -88.5t-55 -65t-80.5 -41t-97 -16.5q-39 -2 -67.5 -0.5t-51 4.5t-41 7.5t-37.5 9.5v81 q14 -4 32.5 -7.5t36.5 -6.5t35 -4.5t28 -1.5q28 0 58.5 4t55.5 17.5t41.5 39t16.5 69.5q0 33 -13 56t-37 37.5t-57 21.5t-72 7q-15 0 -35 -1.5t-28 -3.5q1 45 6.5 88.5t18.5 91.5q-102 9 -180.5 55t-132.5 119.5t-82 171t-29 210.5z" />
<glyph unicode="&#xe8;" horiz-adv-x="1145" d="M103 556q0 128 41 236.5t113.5 188t173.5 124.5t221 47q86 1 156 -26.5t120.5 -81t78.5 -131.5t30 -177q2 -51 -1.5 -90.5t-8.5 -71.5h-777v-11q-2 -125 29.5 -216t86.5 -150.5t129 -88t158 -28.5q48 0 97 6.5t93 17.5t79.5 25t56.5 28l31 -69q-29 -26 -75.5 -47 t-101.5 -35.5t-115 -22t-117 -7.5q-121 0 -214 41.5t-156 117t-95.5 182.5t-32.5 239zM253 664h631q4 63 0 120.5t-19.5 106.5t-43.5 86.5t-71 60.5q-57 31 -136 31q-69 0 -130 -25.5t-109 -76t-80 -126.5t-42 -177zM329 1661l107 109l313 -384l-43 -43q-45 31 -100.5 70 t-108.5 81.5t-98 85.5t-70 81z" />
<glyph unicode="&#xe9;" horiz-adv-x="1145" d="M103 556q0 128 41 236.5t113.5 188t173.5 124.5t221 47q86 1 156 -26.5t120.5 -81t78.5 -131.5t30 -177q2 -51 -1.5 -90.5t-8.5 -71.5h-777v-11q-2 -125 29.5 -216t86.5 -150.5t129 -88t158 -28.5q48 0 97 6.5t93 17.5t79.5 25t56.5 28l31 -69q-29 -26 -75.5 -47 t-101.5 -35.5t-115 -22t-117 -7.5q-121 0 -214 41.5t-156 117t-95.5 182.5t-32.5 239zM253 664h631q4 63 0 120.5t-19.5 106.5t-43.5 86.5t-71 60.5q-57 31 -136 31q-69 0 -130 -25.5t-109 -76t-80 -126.5t-42 -177zM489 1386l313 384l106 -109q-23 -36 -68 -79t-98 -85.5 t-109 -82.5t-101 -71z" />
<glyph unicode="&#xea;" horiz-adv-x="1145" d="M103 556q0 128 41 236.5t113.5 188t173.5 124.5t221 47q86 1 156 -26.5t120.5 -81t78.5 -131.5t30 -177q2 -51 -1.5 -90.5t-8.5 -71.5h-777v-11q-2 -125 29.5 -216t86.5 -150.5t129 -88t158 -28.5q48 0 97 6.5t93 17.5t79.5 25t56.5 28l31 -69q-29 -26 -75.5 -47 t-101.5 -35.5t-115 -22t-117 -7.5q-121 0 -214 41.5t-156 117t-95.5 182.5t-32.5 239zM253 664h631q4 63 0 120.5t-19.5 106.5t-43.5 86.5t-71 60.5q-57 31 -136 31q-69 0 -130 -25.5t-109 -76t-80 -126.5t-42 -177zM256 1373l281 399h142l273 -398l-67 -37l-278 306 l-290 -306z" />
<glyph unicode="&#xeb;" horiz-adv-x="1145" d="M103 556q0 128 41 236.5t113.5 188t173.5 124.5t221 47q86 1 156 -26.5t120.5 -81t78.5 -131.5t30 -177q2 -51 -1.5 -90.5t-8.5 -71.5h-777v-11q-2 -125 29.5 -216t86.5 -150.5t129 -88t158 -28.5q48 0 97 6.5t93 17.5t79.5 25t56.5 28l31 -69q-29 -26 -75.5 -47 t-101.5 -35.5t-115 -22t-117 -7.5q-121 0 -214 41.5t-156 117t-95.5 182.5t-32.5 239zM253 664h631q4 63 0 120.5t-19.5 106.5t-43.5 86.5t-71 60.5q-57 31 -136 31q-69 0 -130 -25.5t-109 -76t-80 -126.5t-42 -177zM269 1518q0 23 10 43.5t26.5 35.5t37.5 23.5t42 8.5 q52 0 76 -28t24 -67q0 -25 -10 -45t-26.5 -34.5t-38 -22t-43.5 -7.5q-19 0 -37 6t-31.5 18t-21.5 29.5t-8 39.5zM724 1518q0 23 10 43.5t26.5 35.5t37.5 23.5t42 8.5q52 0 76 -28t24 -67q0 -25 -10 -45t-26.5 -34.5t-38 -22t-43.5 -7.5q-19 0 -37 6t-31.5 18t-21.5 29.5 t-8 39.5z" />
<glyph unicode="&#xec;" horiz-adv-x="683" d="M84 1661l107 109l312 -384l-42 -43q-46 31 -101 70t-108.5 81.5t-98 85.5t-69.5 81zM140 0v68l165 16v887l-144 50v51l245 61l38 -19v-1029l167 -17v-68h-471z" />
<glyph unicode="&#xed;" horiz-adv-x="683" d="M140 0v68l165 16v887l-144 50v51l245 61l38 -19v-1029l167 -17v-68h-471zM244 1386l313 384l106 -109q-16 -24 -41 -51.5t-57 -56t-68 -57t-73 -56t-72.5 -52.5t-65.5 -45z" />
<glyph unicode="&#xee;" horiz-adv-x="683" d="M11 1373l281 399h142l273 -398l-68 -37l-277 306l-290 -306zM140 0v68l165 16v887l-144 50v51l245 61l38 -19v-1029l167 -17v-68h-471z" />
<glyph unicode="&#xef;" horiz-adv-x="683" d="M24 1518q0 23 10 43.5t26.5 35.5t37.5 23.5t42 8.5q52 0 75.5 -28t23.5 -67q0 -25 -10 -45t-26.5 -34.5t-37.5 -22t-43 -7.5q-19 0 -37 6t-31.5 18t-21.5 29.5t-8 39.5zM140 0v68l165 16v887l-144 50v51l245 61l38 -19v-1029l167 -17v-68h-471zM479 1518q0 23 10 43.5 t26.5 35.5t37.5 23.5t42 8.5q51 0 75 -28t24 -67q0 -25 -10 -45t-26.5 -34.5t-37.5 -22t-43 -7.5q-19 0 -37 6t-31.5 18t-21.5 29.5t-8 39.5z" />
<glyph unicode="&#xf0;" horiz-adv-x="1231" d="M100 502q0 132 41.5 231.5t112.5 165.5t164 99.5t197 33.5q49 0 100 -11.5t98 -32.5t86.5 -49.5t66.5 -62.5q-18 89 -52.5 169.5t-80.5 150.5t-101.5 129.5t-113.5 107.5l-173 -157l-79 62l171 156q-55 38 -108.5 64t-101.5 41l20 84q140 -46 259 -120q20 19 49 45.5 t55 50.5q31 28 63 58l82 -66q-30 -28 -60 -54q-26 -23 -54.5 -48t-50.5 -44q101 -76 182.5 -172.5t139 -210.5t88.5 -242.5t31 -269.5q0 -153 -41 -271t-111.5 -198.5t-165 -123t-201.5 -44.5q-116 -3 -210.5 35.5t-161.5 109t-103.5 169t-36.5 215.5zM257 512 q0 -89 22 -171.5t67 -145.5t114.5 -101t164.5 -38q87 0 152.5 44t109 114t65.5 156t23 169v30t-0.5 38t-1.5 41t-4 38q-12 43 -41.5 89.5t-74.5 85t-105.5 63t-133.5 24.5q-90 0 -157 -31t-111.5 -88t-66.5 -137.5t-22 -179.5z" />
<glyph unicode="&#xf1;" horiz-adv-x="1396" d="M133 1021v51l237 61l37 -19v-138q34 27 85 56t108.5 52.5t117.5 39.5t111 18q94 3 159.5 -21t106 -81t58.5 -149.5t18 -227.5v-578l163 -17v-68h-461v68l154 17v560q0 106 -12.5 181t-43 121.5t-81 66.5t-125.5 17q-38 -2 -82 -11.5t-88.5 -26t-88 -38.5t-81.5 -48v-822 l158 -17v-68h-446v68l143 18v882zM339 1498q20 33 49 62.5t63.5 52t73.5 36t79 13.5q48 0 83.5 -23.5t66 -52t60.5 -52t68 -23.5q31 0 58.5 9.5t51.5 25t44.5 34.5t37.5 38l41 -59q-19 -33 -47 -62.5t-62.5 -52.5t-74 -36.5t-79.5 -13.5q-32 0 -58 11.5t-48.5 28t-42.5 36.5 t-40.5 36.5t-42 28t-47.5 11.5q-32 0 -59.5 -9.5t-51.5 -25t-44 -34.5t-36 -38z" />
<glyph unicode="&#xf2;" horiz-adv-x="1231" d="M105 581q2 132 45.5 237.5t116 179t168 113.5t200.5 41q87 1 158 -20.5t126 -60.5t94.5 -92.5t65 -118t37.5 -136.5t12 -147q-1 -132 -41 -242.5t-109.5 -190t-164 -124t-204.5 -44.5q-92 0 -165 23t-129.5 64t-96.5 98t-65.5 124.5t-37 142.5t-10.5 153zM259 590 q0 -105 20 -200t63.5 -167t111 -115t162.5 -45q87 -2 153.5 30.5t112 96.5t69 159t23.5 219q0 101 -19 191.5t-61 159t-108.5 109t-160.5 42.5q-87 1 -155 -31t-115 -94.5t-71.5 -152t-24.5 -202.5zM351 1661l106 109l313 -384l-43 -43q-45 31 -100.5 70t-108.5 81.5 t-97.5 85.5t-69.5 81z" />
<glyph unicode="&#xf3;" horiz-adv-x="1231" d="M105 581q2 132 45.5 237.5t116 179t168 113.5t200.5 41q87 1 158 -20.5t126 -60.5t94.5 -92.5t65 -118t37.5 -136.5t12 -147q-1 -132 -41 -242.5t-109.5 -190t-164 -124t-204.5 -44.5q-92 0 -165 23t-129.5 64t-96.5 98t-65.5 124.5t-37 142.5t-10.5 153zM259 590 q0 -105 20 -200t63.5 -167t111 -115t162.5 -45q87 -2 153.5 30.5t112 96.5t69 159t23.5 219q0 101 -19 191.5t-61 159t-108.5 109t-160.5 42.5q-87 1 -155 -31t-115 -94.5t-71.5 -152t-24.5 -202.5zM510 1386l313 384l107 -109q-24 -36 -68.5 -79t-98 -85.5t-109.5 -82.5 t-101 -71z" />
<glyph unicode="&#xf4;" horiz-adv-x="1231" d="M105 581q2 132 45.5 237.5t116 179t168 113.5t200.5 41q87 1 158 -20.5t126 -60.5t94.5 -92.5t65 -118t37.5 -136.5t12 -147q-1 -132 -41 -242.5t-109.5 -190t-164 -124t-204.5 -44.5q-92 0 -165 23t-129.5 64t-96.5 98t-65.5 124.5t-37 142.5t-10.5 153zM259 590 q0 -105 20 -200t63.5 -167t111 -115t162.5 -45q87 -2 153.5 30.5t112 96.5t69 159t23.5 219q0 101 -19 191.5t-61 159t-108.5 109t-160.5 42.5q-87 1 -155 -31t-115 -94.5t-71.5 -152t-24.5 -202.5zM277 1373l281 399h142l273 -398l-67 -37l-277 306l-291 -306z" />
<glyph unicode="&#xf5;" horiz-adv-x="1231" d="M105 581q2 132 45.5 237.5t116 179t168 113.5t200.5 41q87 1 158 -20.5t126 -60.5t94.5 -92.5t65 -118t37.5 -136.5t12 -147q-1 -132 -41 -242.5t-109.5 -190t-164 -124t-204.5 -44.5q-92 0 -165 23t-129.5 64t-96.5 98t-65.5 124.5t-37 142.5t-10.5 153zM232 1498 q20 33 49 62.5t63.5 52t73.5 36t79 13.5q48 0 83.5 -23.5t66 -52t60.5 -52t68 -23.5q31 0 58.5 9.5t51.5 25t44.5 34.5t37.5 38l41 -59q-19 -33 -47 -62.5t-62.5 -52.5t-74 -36.5t-79.5 -13.5q-32 0 -58 11.5t-48.5 28t-42.5 36.5t-40.5 36.5t-42 28t-47.5 11.5 q-32 0 -59.5 -9.5t-51.5 -25t-44 -34.5t-36 -38zM259 590q0 -105 20 -200t63.5 -167t111 -115t162.5 -45q87 -2 153.5 30.5t112 96.5t69 159t23.5 219q0 101 -19 191.5t-61 159t-108.5 109t-160.5 42.5q-87 1 -155 -31t-115 -94.5t-71.5 -152t-24.5 -202.5z" />
<glyph unicode="&#xf6;" horiz-adv-x="1231" d="M105 581q2 132 45.5 237.5t116 179t168 113.5t200.5 41q87 1 158 -20.5t126 -60.5t94.5 -92.5t65 -118t37.5 -136.5t12 -147q-1 -132 -41 -242.5t-109.5 -190t-164 -124t-204.5 -44.5q-92 0 -165 23t-129.5 64t-96.5 98t-65.5 124.5t-37 142.5t-10.5 153zM259 590 q0 -105 20 -200t63.5 -167t111 -115t162.5 -45q87 -2 153.5 30.5t112 96.5t69 159t23.5 219q0 101 -19 191.5t-61 159t-108.5 109t-160.5 42.5q-87 1 -155 -31t-115 -94.5t-71.5 -152t-24.5 -202.5zM291 1518q0 23 10 43.5t26.5 35.5t37.5 23.5t42 8.5q51 0 75 -28t24 -67 q0 -25 -10 -45t-26.5 -34.5t-38 -22t-43.5 -7.5q-19 0 -36.5 6t-31 18t-21.5 29.5t-8 39.5zM746 1518q0 23 10 43.5t26.5 35.5t37.5 23.5t42 8.5q51 0 75 -28t24 -67q0 -25 -10 -45t-26.5 -34.5t-38 -22t-43.5 -7.5q-19 0 -36.5 6t-31 18t-21.5 29.5t-8 39.5z" />
<glyph unicode="&#xf7;" horiz-adv-x="1269" d="M172 743v111h925v-111h-925zM528 1175q0 24 10.5 44.5t27 35.5t38 23.5t42.5 8.5q51 0 75 -28.5t24 -66.5q0 -25 -10 -45.5t-26.5 -35.5t-38 -23t-43.5 -8q-19 0 -37 6.5t-31.5 19t-22 30t-8.5 39.5zM545 415q3 21 14.5 38t27.5 28.5t35 16.5t37 3q22 -3 37 -12t23.5 -22 t10 -29.5t-1.5 -33.5q-3 -23 -14 -40t-27 -28t-35.5 -15.5t-38.5 -2.5q-33 5 -53.5 31.5t-14.5 65.5z" />
<glyph unicode="&#xf8;" horiz-adv-x="1231" d="M105 581q2 132 45.5 237.5t116 179t168 113.5t200.5 41q84 0 150 -19l57 167l66 -25l-56 -166q73 -33 125 -88t86 -125.5t49.5 -152t15.5 -166.5q-1 -132 -41 -242.5t-109.5 -190t-164 -124t-204.5 -44.5q-38 0 -72.5 4t-66.5 12l-62 -184l-70 26l62 181 q-80 33 -136.5 91.5t-92 133.5t-51.5 162t-15 179zM259 590q0 -76 10.5 -147t32 -132t55.5 -110.5t81 -82.5l313 927q-28 11 -59.5 17.5t-66.5 7.5q-87 1 -155 -31t-115 -94.5t-71.5 -152t-24.5 -202.5zM503 84q51 -20 113 -21q87 -2 153.5 30.5t112 96.5t69 159t23.5 219 q0 70 -9 135.5t-28.5 122.5t-50 104t-72.5 79z" />
<glyph unicode="&#xf9;" horiz-adv-x="1292" d="M111 1037v60l215 42l30 -18v-689q0 -92 9 -157.5t35 -108.5t73 -63t122 -20q58 0 112 16t98.5 38.5t76 45t46.5 36.5v788l-125 22v64l239 45l29 -17v-1050h126v-61q-14 -6 -34.5 -12.5t-43 -11t-45 -7.5t-40.5 -3q-45 0 -68.5 18.5t-23.5 57.5v90q-98 -81 -199.5 -122 t-204.5 -41q-78 0 -132.5 16.5t-90.5 47t-56 73.5t-30 96.5t-12.5 116.5t-2.5 132v556zM340 1661l107 109l312 -384l-42 -43q-46 31 -101 70t-108.5 81.5t-98 85.5t-69.5 81z" />
<glyph unicode="&#xfa;" horiz-adv-x="1292" d="M111 1037v60l215 42l30 -18v-689q0 -92 9 -157.5t35 -108.5t73 -63t122 -20q58 0 112 16t98.5 38.5t76 45t46.5 36.5v788l-125 22v64l239 45l29 -17v-1050h126v-61q-14 -6 -34.5 -12.5t-43 -11t-45 -7.5t-40.5 -3q-45 0 -68.5 18.5t-23.5 57.5v90q-98 -81 -199.5 -122 t-204.5 -41q-78 0 -132.5 16.5t-90.5 47t-56 73.5t-30 96.5t-12.5 116.5t-2.5 132v556zM500 1386l312 384l107 -109q-16 -24 -41 -51.5t-57 -56t-68 -57t-73 -56t-72.5 -52.5t-65.5 -45z" />
<glyph unicode="&#xfb;" horiz-adv-x="1292" d="M111 1037v60l215 42l30 -18v-689q0 -92 9 -157.5t35 -108.5t73 -63t122 -20q58 0 112 16t98.5 38.5t76 45t46.5 36.5v788l-125 22v64l239 45l29 -17v-1050h126v-61q-14 -6 -34.5 -12.5t-43 -11t-45 -7.5t-40.5 -3q-45 0 -68.5 18.5t-23.5 57.5v90q-98 -81 -199.5 -122 t-204.5 -41q-78 0 -132.5 16.5t-90.5 47t-56 73.5t-30 96.5t-12.5 116.5t-2.5 132v556zM267 1373l281 399h142l273 -398l-68 -37l-277 306l-290 -306z" />
<glyph unicode="&#xfc;" horiz-adv-x="1292" d="M111 1037v60l215 42l30 -18v-689q0 -92 9 -157.5t35 -108.5t73 -63t122 -20q58 0 112 16t98.5 38.5t76 45t46.5 36.5v788l-125 22v64l239 45l29 -17v-1050h126v-61q-14 -6 -34.5 -12.5t-43 -11t-45 -7.5t-40.5 -3q-45 0 -68.5 18.5t-23.5 57.5v90q-98 -81 -199.5 -122 t-204.5 -41q-78 0 -132.5 16.5t-90.5 47t-56 73.5t-30 96.5t-12.5 116.5t-2.5 132v556zM280 1518q0 23 10 43.5t26.5 35.5t37.5 23.5t42 8.5q51 0 75 -28t24 -67q0 -25 -10 -45t-26.5 -34.5t-37.5 -22t-43 -7.5q-19 0 -37 6t-31.5 18t-21.5 29.5t-8 39.5zM735 1518 q0 23 10 43.5t26.5 35.5t37.5 23.5t42 8.5q51 0 75 -28t24 -67q0 -25 -10 -45t-26.5 -34.5t-37.5 -22t-43 -7.5q-19 0 -37 6t-31.5 18t-21.5 29.5t-8 39.5z" />
<glyph unicode="&#xfd;" horiz-adv-x="1150" d="M2 1037v82h450v-82l-165 -16l255 -699l91 -255l68 238l220 718l-164 14v82h414v-82l-124 -14q-65 -196 -115 -344.5t-87 -259t-63.5 -187.5t-44.5 -129t-29.5 -83.5t-19.5 -51.5q-39 -101 -79 -181.5t-84 -140t-95.5 -98t-113.5 -53.5q-39 -10 -87 -10q-10 0 -22 1 t-23.5 3t-20.5 5t-13 6v123q17 -5 39.5 -8.5t40.5 -4.5q36 -1 81 13.5t91 55t91 112t81 184.5h-27l-421 1047zM494 1386l313 384l107 -109q-24 -36 -68.5 -79t-98 -85.5t-109.5 -82.5t-101 -71z" />
<glyph unicode="&#xfe;" horiz-adv-x="1269" d="M49 1525v68l280 30l35 -17v-586q30 24 67 47.5t81 42.5t95.5 31t109.5 12q85 0 165.5 -29.5t142.5 -95t100 -169.5t38 -254q0 -132 -41 -247t-115.5 -201t-179 -135.5t-230.5 -49.5q-67 0 -127.5 7.5t-110.5 18.5l4 -99v-325l230 -18v-67h-528v67l154 20v114t0.5 133 t0.5 127.5v99.5v1450zM364 134q8 -21 32 -36t58.5 -24.5t76 -14t84.5 -4.5q76 0 148.5 31.5t128.5 95.5t91 160.5t36 227.5q1 132 -28.5 223t-80 147t-116 81t-135.5 25q-43 0 -85 -8.5t-80.5 -23t-72 -34t-57.5 -42.5v-804z" />
<glyph unicode="&#xff;" horiz-adv-x="1150" d="M2 1037v82h450v-82l-165 -16l255 -699l91 -255l68 238l220 718l-164 14v82h414v-82l-124 -14q-65 -196 -115 -344.5t-87 -259t-63.5 -187.5t-44.5 -129t-29.5 -83.5t-19.5 -51.5q-39 -101 -79 -181.5t-84 -140t-95.5 -98t-113.5 -53.5q-39 -10 -87 -10q-10 0 -22 1 t-23.5 3t-20.5 5t-13 6v123q17 -5 39.5 -8.5t40.5 -4.5q36 -1 81 13.5t91 55t91 112t81 184.5h-27l-421 1047zM275 1518q0 23 10 43.5t26.5 35.5t37.5 23.5t42 8.5q51 0 75 -28t24 -67q0 -25 -10 -45t-26.5 -34.5t-38 -22t-43.5 -7.5q-19 0 -36.5 6t-31 18t-21.5 29.5 t-8 39.5zM730 1518q0 23 10 43.5t26.5 35.5t37.5 23.5t42 8.5q51 0 75 -28t24 -67q0 -25 -10 -45t-26.5 -34.5t-38 -22t-43.5 -7.5q-19 0 -36.5 6t-31 18t-21.5 29.5t-8 39.5z" />
<glyph unicode="&#x152;" horiz-adv-x="2079" d="M93 759q4 190 61 339t153.5 252t224 158t272.5 58q45 1 85 -2.5t78 -10.5h946l29 -286h-85l-46 193l-593 12v-605l405 7l27 160h79v-424h-79l-27 168l-405 6v-700l632 16l91 233l74 -18l-45 -315h-995q-46 -13 -96 -20t-105 -8q-155 -2 -282 55t-217 161.5t-137.5 250.5 t-44.5 320zM255 760q0 -149 37 -277.5t106.5 -224t168.5 -150t224 -54.5q88 0 157.5 29t122.5 85v1192q-54 57 -124 90t-158 33q-119 0 -217 -49.5t-168.5 -143t-109.5 -227.5t-39 -303z" />
<glyph unicode="&#x153;" horiz-adv-x="2061" d="M105 581q2 132 45.5 237.5t116 179t168 113.5t200.5 41q90 1 162 -21.5t127.5 -63.5t95 -97.5t64.5 -123.5q33 69 82.5 125t111.5 95.5t135.5 61.5t156.5 24q86 1 156 -26.5t120 -81t78 -131.5t30 -177q2 -51 -1.5 -90.5t-7.5 -71.5h-778v-11q-2 -125 29.5 -216 t87 -150.5t129.5 -88t158 -28.5q48 0 96.5 6.5t92.5 17.5t79.5 25t56.5 28l31 -69q-29 -26 -75.5 -47t-101.5 -35.5t-115 -22t-117 -7.5q-172 0 -285.5 80.5t-167.5 224.5q-32 -71 -79 -127t-105.5 -95.5t-127 -61t-144.5 -21.5q-92 0 -165 23t-129.5 64t-96.5 98 t-65.5 124.5t-37 142.5t-10.5 153zM259 590q0 -105 20 -200t63.5 -167t111 -115t162.5 -45q87 -2 153.5 30.5t112 96.5t69 159t23.5 219q0 101 -19 191.5t-61 159t-108.5 109t-160.5 42.5q-87 1 -155 -31t-115 -94.5t-71.5 -152t-24.5 -202.5zM1171 664h631q4 63 -0.5 120.5 t-20 106.5t-43.5 86.5t-71 60.5q-56 31 -136 31q-68 0 -129.5 -25.5t-109.5 -76t-79.5 -126.5t-41.5 -177z" />
<glyph unicode="&#x178;" horiz-adv-x="1352" d="M12 1477v76h460v-77l-168 -14l351 -633l53 -107l49 108l320 631l-171 16v76h431v-76l-135 -22l-430 -818v-545l211 -25v-67h-561v67l203 25v548l-491 822zM365 1785q0 24 10.5 44.5t27 35.5t37.5 23.5t42 8.5q52 0 75.5 -28.5t23.5 -66.5q0 -25 -10 -45.5t-26.5 -35.5 t-37.5 -23t-43 -8q-19 0 -37 6.5t-31.5 19t-22 30t-8.5 39.5zM822 1784q0 24 10.5 44.5t27 35.5t37.5 24t42 9q52 0 76 -28.5t24 -67.5q0 -25 -10 -45.5t-26.5 -35.5t-38 -23t-43.5 -8q-19 0 -37 6.5t-31.5 19t-22 30t-8.5 39.5z" />
<glyph unicode="&#x2c6;" horiz-adv-x="1063" d="M180 1373l280 399h143l273 -398l-68 -37l-277 306l-290 -306z" />
<glyph unicode="&#x2dc;" horiz-adv-x="886" d="M55 1498q19 33 48 62.5t63.5 52t73.5 36t80 13.5q48 0 83.5 -23.5t66 -52t60.5 -52t68 -23.5q31 0 58.5 9.5t51.5 25t44 34.5t37 38l42 -59q-19 -33 -47.5 -62.5t-63 -52.5t-73.5 -36.5t-79 -13.5q-32 0 -58 11.5t-48.5 28t-42.5 36.5t-40.5 36.5t-42 28t-47.5 11.5 q-32 0 -59.5 -9.5t-51.5 -25t-44 -34.5t-37 -38z" />
<glyph unicode="&#x2000;" horiz-adv-x="960" />
<glyph unicode="&#x2001;" horiz-adv-x="1920" />
<glyph unicode="&#x2002;" horiz-adv-x="960" />
<glyph unicode="&#x2003;" horiz-adv-x="1920" />
<glyph unicode="&#x2004;" horiz-adv-x="640" />
<glyph unicode="&#x2005;" horiz-adv-x="480" />
<glyph unicode="&#x2006;" horiz-adv-x="320" />
<glyph unicode="&#x2007;" horiz-adv-x="320" />
<glyph unicode="&#x2008;" horiz-adv-x="240" />
<glyph unicode="&#x2009;" horiz-adv-x="384" />
<glyph unicode="&#x200a;" horiz-adv-x="106" />
<glyph unicode="&#x2010;" horiz-adv-x="1229" d="M172 743v111h885v-111h-885z" />
<glyph unicode="&#x2011;" horiz-adv-x="1229" d="M172 743v111h885v-111h-885z" />
<glyph unicode="&#x2012;" horiz-adv-x="1229" d="M172 743v111h885v-111h-885z" />
<glyph unicode="&#x2013;" horiz-adv-x="1407" d="M172 743v111h1063v-111h-1063z" />
<glyph unicode="&#x2014;" horiz-adv-x="2392" d="M172 743v111h2048v-111h-2048z" />
<glyph unicode="&#x2018;" horiz-adv-x="774" d="M211 1261q-1 85 27 157t72.5 129t99.5 97.5t109 62.5l36 -43v-25q-35 -12 -71.5 -42t-66 -72.5t-48 -95t-18.5 -109.5q0 -46 12.5 -85.5t33 -69.5t47 -48.5t54.5 -22.5v-36l-80 -105q-54 13 -93 46.5t-64.5 77.5t-37.5 92.5t-12 91.5z" />
<glyph unicode="&#x2019;" horiz-adv-x="774" d="M179 1009v25q35 12 71 42t65.5 72.5t48 95t18.5 109.5q0 46 -12.5 85t-33 69t-47 48.5t-54.5 22.5v37l80 104q54 -13 93 -46.5t64.5 -77t37.5 -92.5t12 -92q1 -84 -26.5 -156t-72 -129t-100 -98t-109.5 -63z" />
<glyph unicode="&#x201a;" horiz-adv-x="752" d="M179 -465q35 12 71 42t65.5 72.5t48 95t18.5 109.5q0 46 -12.5 85.5t-33 69.5t-47 48.5t-54.5 22.5v36l80 105q54 -13 93 -46.5t64.5 -77.5t37.5 -92.5t12 -91.5q1 -85 -26.5 -157t-72 -129t-100 -97.5t-109.5 -62.5l-35 43v25z" />
<glyph unicode="&#x201c;" horiz-adv-x="1303" d="M211 1261q-1 85 27 157t72.5 129t99.5 97.5t109 62.5l36 -43v-25q-35 -12 -71.5 -42t-66 -72.5t-48 -95t-18.5 -109.5q0 -46 12.5 -85.5t33 -69.5t47 -48.5t54.5 -22.5v-36l-80 -105q-54 13 -93 46.5t-64.5 77.5t-37.5 92.5t-12 91.5zM739 1261q-1 85 27 157t72.5 129 t100 97.5t109.5 62.5l35 -43v-25q-35 -12 -71 -42t-65.5 -72.5t-48 -95t-18.5 -109.5q0 -46 12.5 -85.5t33 -69.5t47 -48.5t54.5 -22.5v-36l-80 -105q-54 13 -93 46.5t-64.5 77.5t-37.5 92.5t-13 91.5z" />
<glyph unicode="&#x201d;" horiz-adv-x="1325" d="M220 1009v25q35 12 71.5 42t66 72.5t48 95t18.5 109.5q0 46 -12.5 85t-33 69t-47 48.5t-54.5 22.5v37l80 104q54 -13 93 -46.5t64.5 -77t37.5 -92.5t12 -92q1 -84 -27 -156t-72.5 -129t-99.5 -98t-109 -63zM771 1009v25q35 12 71.5 42t66 72.5t48 95t18.5 109.5 q0 46 -12.5 85t-33.5 69t-47.5 48.5t-54.5 22.5v37l81 104q54 -13 93 -46.5t64.5 -77t37.5 -92.5t12 -92q1 -84 -27 -156t-72.5 -129t-100 -98t-109.5 -63z" />
<glyph unicode="&#x201e;" horiz-adv-x="1308" d="M249 -462q35 12 71.5 42.5t66 73t48 94.5t18.5 109q0 46 -12.5 85.5t-33 69.5t-47 48.5t-54.5 22.5v37l80 104q54 -13 93 -46.5t64.5 -77.5t37.5 -92.5t12 -91.5q1 -84 -26.5 -156t-72 -129t-100 -98t-109.5 -63l-36 44v24zM800 -462q35 12 71.5 42.5t66 73t48 94.5 t18.5 109q0 46 -12.5 85.5t-33.5 69.5t-47.5 48.5t-54.5 22.5v37l81 104q54 -13 93 -46.5t64.5 -77.5t37.5 -92.5t12 -91.5q1 -84 -27 -156t-72.5 -129t-100 -98t-109.5 -63l-35 44v24z" />
<glyph unicode="&#x2022;" horiz-adv-x="841" d="M260 740q3 36 17.5 67t37.5 54t52.5 36t62.5 13t62 -13t50.5 -36t33 -54t9.5 -67q-3 -35 -17.5 -66t-37.5 -54t-52.5 -36.5t-62.5 -13.5t-62 14t-50.5 37.5t-33 54t-9.5 64.5z" />
<glyph unicode="&#x2026;" horiz-adv-x="2119" d="M215 73q0 24 10.5 44.5t27 35.5t37.5 23.5t42 8.5q52 0 76 -28.5t24 -66.5q0 -25 -10 -45.5t-26.5 -35.5t-38 -23t-43.5 -8q-19 0 -37 6.5t-31.5 19t-22 30t-8.5 39.5zM921 73q0 24 10.5 44.5t27 35.5t38 23.5t42.5 8.5q51 0 75 -28.5t24 -66.5q0 -25 -10 -45.5 t-26.5 -35.5t-38 -23t-43.5 -8q-19 0 -37 6.5t-31.5 19t-22 30t-8.5 39.5zM1628 73q0 24 10.5 44.5t27 35.5t37.5 23.5t42 8.5q51 0 75 -28.5t24 -66.5q0 -25 -10 -45.5t-26.5 -35.5t-37.5 -23t-43 -8q-19 0 -37 6.5t-31.5 19t-22 30t-8.5 39.5z" />
<glyph unicode="&#x202f;" horiz-adv-x="384" />
<glyph unicode="&#x2039;" horiz-adv-x="1189" d="M245 550v126l648 399l41 -67l-550 -392l550 -382l-41 -71z" />
<glyph unicode="&#x203a;" horiz-adv-x="1189" d="M256 230l549 391l-549 383l40 71l648 -387v-126l-648 -399z" />
<glyph unicode="&#x205f;" horiz-adv-x="480" />
<glyph unicode="&#x20ac;" horiz-adv-x="1390" d="M-39 569v96h196q-1 14 -1 29v30q0 105 15 200h-180v97h200q34 130 96.5 231t148.5 170t193 105t230 36q70 0 131 -8t112 -19t92.5 -24t73.5 -22l-14 -261h-67l-38 167q-26 19 -62.5 34t-80 24.5t-92.5 14.5t-100 5q-89 0 -167 -28.5t-140 -85.5t-107 -142t-69 -197h618 v-97h-633q-4 -36 -6 -73.5t-2 -78.5q0 -55 3 -107h608v-96h-598q16 -113 52 -208t96 -163.5t145.5 -107t199.5 -36.5q119 1 205 24t144 74q4 15 8.5 37.5t9 47.5t9.5 47.5t9 37.5q15 0 35.5 -0.5t35.5 -0.5v-258q-35 -5 -78.5 -20t-102.5 -31t-137.5 -28t-183.5 -12 q-130 0 -234 43t-180.5 121t-124 188t-64.5 245h-204z" />
<glyph unicode="&#x2122;" horiz-adv-x="2180" d="M167 1322l17 231h676v-230l-51 -5l-25 152l-199 10v-628l142 -14v-61h-408v61l131 14v626l-192 -10l-38 -145zM964 777v61l111 15l33 624l-110 9v67h301l188 -505l35 -124l208 629h268v-67l-104 -9l56 -625l100 -14v-61h-319v61l96 14l-31 411l-9 217l-30 -97l-210 -614 h-85l-218 562l-57 151l-6 -173l-20 -456l103 -15v-61h-300z" />
<glyph unicode="&#x25fc;" horiz-adv-x="1120" d="M0 0v1120h1120v-1120h-1120z" />
<glyph unicode="&#xfb01;" horiz-adv-x="1520" d="M97 996v60l226 44v105q0 112 37.5 200.5t95.5 150t128.5 94t136.5 32.5q30 0 52.5 -1.5t39.5 -3.5t29 -5t22 -7v-129q-18 11 -61.5 20t-110.5 9q-42 0 -82.5 -11.5t-72 -44.5t-50.5 -92.5t-19 -155.5v-161h327v-104h-327v-912l241 -16v-68h-590v68l204 17v911h-226z M978 0v68l165 16v887l-144 50v51l244 61l38 -19v-1029l167 -17v-68h-470zM1078 1512q0 25 10.5 46t27.5 36.5t38 24t42 8.5q52 0 76 -28.5t24 -69.5q0 -26 -10 -47t-26.5 -36t-38 -23t-43.5 -8q-20 0 -38 6.5t-31.5 19.5t-22 30.5t-8.5 40.5z" />
<glyph unicode="&#xfb02;" horiz-adv-x="1535" d="M97 996v60l226 44v105q0 112 37.5 200.5t95.5 150t128.5 94t136.5 32.5q30 0 52.5 -1.5t39.5 -3.5t29 -5t22 -7v-129q-18 11 -61.5 20t-110.5 9q-42 0 -82.5 -11.5t-72 -44.5t-50.5 -92.5t-19 -155.5v-161h327v-104h-327v-912l241 -16v-68h-590v68l204 17v911h-226z M974 0v68l167 17v1411l-163 24v69l273 34l35 -21v-1518l175 -16v-68h-487z" />
<glyph unicode="&#xfb03;" horiz-adv-x="2357" d="M97 996v60l226 44v105q0 112 37.5 200.5t95.5 150t128.5 94t136.5 32.5q30 0 52.5 -1.5t39.5 -3.5t29 -5t22 -7v-129q-18 11 -61.5 20t-110.5 9q-42 0 -82.5 -11.5t-72 -44.5t-50.5 -92.5t-19 -155.5v-161h327v-104h-327v-912l241 -16v-68h-590v68l204 17v911h-226z M935 996v60l225 44v105q0 112 37.5 200.5t96 150t128.5 94t136 32.5q30 0 52.5 -1.5t39.5 -3.5t29 -5t22 -7v-129q-17 11 -61 20t-111 9q-42 0 -82.5 -11.5t-72 -44.5t-50.5 -92.5t-19 -155.5v-161h328v-104h-328v-912l242 -16v-68h-591v68l204 17v911h-225zM1815 0v68 l165 16v887l-144 50v51l245 61l38 -19v-1029l166 -17v-68h-470zM1916 1512q0 25 10.5 46t27 36.5t37.5 24t42 8.5q52 0 76 -28.5t24 -69.5q0 -26 -10 -47t-26.5 -36t-38 -23t-43.5 -8q-19 0 -37 6.5t-31.5 19.5t-22 30.5t-8.5 40.5z" />
<glyph unicode="&#xfb04;" horiz-adv-x="2373" d="M97 996v60l226 44v105q0 112 37.5 200.5t95.5 150t128.5 94t136.5 32.5q30 0 52.5 -1.5t39.5 -3.5t29 -5t22 -7v-129q-18 11 -61.5 20t-110.5 9q-42 0 -82.5 -11.5t-72 -44.5t-50.5 -92.5t-19 -155.5v-161h327v-104h-327v-912l241 -16v-68h-590v68l204 17v911h-226z M935 996v60l225 44v105q0 112 37.5 200.5t96 150t128.5 94t136 32.5q30 0 52.5 -1.5t39.5 -3.5t29 -5t22 -7v-129q-17 11 -61 20t-111 9q-42 0 -82.5 -11.5t-72 -44.5t-50.5 -92.5t-19 -155.5v-161h328v-104h-328v-912l242 -16v-68h-591v68l204 17v911h-225zM1812 0v68 l166 17v1411l-163 24v69l273 34l35 -21v-1518l175 -16v-68h-486z" />
</font>
</defs>
</svg>
