<?xml version="1.0" standalone="no"?>
<!DOCTYPE svg PUBLIC "-//W3C//DTD SVG 1.1//EN" "http://www.w3.org/Graphics/SVG/1.1/DTD/svg11.dtd" >
<svg>
<metadata>
Created by FontForge 20120731 at Sun Aug 28 06:45:04 2016
 By ,,,
(c)2009 Commercial Type.
</metadata>
<defs>
<font id="Graphik-BoldItalic" horiz-adv-x="600" >
  <font-face 
    font-family="Graphik Bold"
    font-weight="700"
    font-style="italic"
    font-stretch="normal"
    units-per-em="1000"
    panose-1="2 11 8 3 3 2 2 13 2 3"
    ascent="825"
    descent="-175"
    x-height="523"
    cap-height="715"
    bbox="-257 -232 1194 1137"
    underline-thickness="50"
    underline-position="-50"
    slope="-8"
    unicode-range="U+0020-FB02"
  />
<missing-glyph horiz-adv-x="519" 
 />
    <glyph glyph-name="f_f" unicode="ff" horiz-adv-x="713" 
d="M366 0l63 401h-152l-63 -401h-178l63 401h-66l19 122h66l9 56q14 88 72 131t144 43q57 0 91 -14l-20 -130q-20 7 -46 7q-56 0 -65 -55l-6 -38h151l11 66q14 89 73 132t147 43q53 0 93 -14l-21 -131q-21 8 -48 8q-57 0 -67 -55l-8 -49h106l-19 -122h-106l-64 -401h-179z
" />
    <glyph glyph-name=".notdef" horiz-adv-x="519" 
 />
    <glyph glyph-name=".null" horiz-adv-x="0" 
 />
    <glyph glyph-name="nonmarkingreturn" horiz-adv-x="333" 
 />
    <glyph glyph-name="space" unicode=" " horiz-adv-x="197" 
 />
    <glyph glyph-name="exclam" unicode="!" horiz-adv-x="334" 
d="M87 235l50 480h202l-103 -480h-149zM140 -11q-44 0 -73 28t-29 70t30 71.5t74 29.5q43 0 73.5 -29t30.5 -70t-31 -70.5t-75 -29.5z" />
    <glyph glyph-name="quotedbl" unicode="&#x22;" horiz-adv-x="462" 
d="M91 440l20 275h169l-63 -275h-126zM303 440l21 275h168l-62 -275h-127z" />
    <glyph glyph-name="numbersign" unicode="#" horiz-adv-x="569" 
d="M264 99l34 142h-63l-33 -142h-121l33 142h-77l23 141h88l18 76h-78l20 134h90l29 123h121l-29 -123h62l30 123h121l-30 -123h79l-20 -134h-91l-18 -76h81l-23 -141h-91l-34 -142h-121zM287 458l-18 -76h62l18 76h-62z" />
    <glyph glyph-name="dollar" unicode="$" horiz-adv-x="643" 
d="M221 -135l20 129q-100 15 -163 72.5t-65 159.5h184q2 -71 66 -92l24 152q-111 25 -163 73t-52 132q0 105 81.5 168.5t203.5 65.5l14 88h78l-15 -93q206 -28 213 -213h-181q-3 55 -54 73l-23 -144q110 -26 166.5 -73t56.5 -132q0 -115 -81 -178.5t-213 -64.5l-19 -123h-78
zM428 204q0 22 -14.5 36.5t-51.5 26.5l-22 -140q88 6 88 77zM250 518q0 -24 14 -38.5t50 -25.5l21 133q-38 -3 -61.5 -20.5t-23.5 -48.5z" />
    <glyph glyph-name="percent" unicode="%" horiz-adv-x="827" 
d="M191 528q0 -27 12.5 -44t40.5 -16q30 1 46.5 28.5t16.5 65.5q0 25 -13 42t-38 17q-32 0 -48.5 -26.5t-16.5 -66.5zM239 364q-77 0 -129 42.5t-52 117.5q0 84 57 141.5t145 57.5q76 0 127 -43.5t51 -117.5q0 -82 -56.5 -140t-142.5 -58zM95 0l577 715h99l-577 -715h-99z
M557 152q0 -60 53 -60q30 1 46.5 28.5t16.5 65.5q0 26 -12.5 43t-38.5 17q-32 0 -48.5 -27t-16.5 -67zM605 -12q-77 0 -128.5 42.5t-51.5 117.5q0 83 56.5 141t144.5 58q76 0 127.5 -43.5t51.5 -117.5q0 -82 -56.5 -140t-143.5 -58z" />
    <glyph glyph-name="ampersand" unicode="&#x26;" horiz-adv-x="762" 
d="M693 0h-217l-36 54q-84 -65 -195 -65q-45 0 -84.5 10.5t-72.5 32.5t-52 60.5t-19 89.5q0 84 55 141t138 88q-34 55 -34 113q0 93 68.5 146.5t169.5 53.5q85 0 146.5 -41.5t61.5 -124.5q0 -69 -44.5 -112t-121.5 -75l71 -110l71 111h162l-153 -237zM212 210
q0 -35 20.5 -55t58.5 -20q45 0 75 30l-91 138q-63 -33 -63 -93zM411 597q-27 0 -44 -18t-17 -48q0 -31 32 -75q19 9 30 15.5t24.5 17t20 24.5t6.5 31q0 23 -13.5 38t-38.5 15z" />
    <glyph glyph-name="quotesingle" unicode="'" horiz-adv-x="256" 
d="M91 440l20 275h175l-62 -275h-133z" />
    <glyph glyph-name="parenleft" unicode="(" horiz-adv-x="356" 
d="M140 -148q-105 161 -105 358q0 165 66 309t185 256h147q-113 -140 -170.5 -277t-57.5 -301q0 -195 74 -345h-139z" />
    <glyph glyph-name="parenright" unicode=")" horiz-adv-x="356" 
d="M229 776q105 -161 105 -358q0 -166 -66 -310t-185 -255h-147q113 140 170.5 277t57.5 301q0 195 -74 345h139z" />
    <glyph glyph-name="asterisk" unicode="*" horiz-adv-x="440" 
d="M181 374l-95 83l102 84l-115 20l54 120l102 -59l-5 121h143l-43 -127l117 45l15 -124l-120 -5l76 -96l-120 -68l-38 117z" />
    <glyph glyph-name="plus" unicode="+" horiz-adv-x="570" 
d="M184 83l30 192h-176l21 130h176l30 192h143l-30 -192h176l-21 -130h-176l-30 -192h-143z" />
    <glyph glyph-name="comma" unicode="," horiz-adv-x="306" 
d="M77 -124l-99 44l107 262l157 -59z" />
    <glyph glyph-name="hyphen" unicode="-" horiz-adv-x="382" 
d="M42 218l22 135h280l-22 -135h-280z" />
    <glyph glyph-name="period" unicode="." horiz-adv-x="299" 
d="M120 -11q-44 0 -73 29.5t-29 71.5q0 43 28.5 72t72.5 29q45 0 75.5 -29.5t30.5 -71.5t-30 -71.5t-75 -29.5z" />
    <glyph glyph-name="slash" unicode="/" horiz-adv-x="434" 
d="M-84 -148l448 924h146l-449 -924h-145z" />
    <glyph glyph-name="zero" unicode="0" horiz-adv-x="732" 
d="M348 -12q-142 0 -223 77t-81 213q0 34 7 83l5 30q25 161 120 247.5t237 86.5q139 0 221 -77.5t82 -216.5q0 -39 -6 -78l-5 -30q-25 -163 -118 -249t-239 -86zM357 147q62 0 96 45.5t49 142.5l5 29q6 41 6 76q0 130 -105 130q-119 0 -149 -190l-5 -29q-8 -54 -8 -79
q0 -125 111 -125z" />
    <glyph glyph-name="one" unicode="1" horiz-adv-x="450" 
d="M126 0l80 513l-149 -86l27 175l183 113h177l-113 -715h-205z" />
    <glyph glyph-name="two" unicode="2" horiz-adv-x="615" 
d="M-37 0l4 29l295 265q72 63 109 110t37 97q0 32 -17.5 51t-50.5 19q-81 0 -107 -116h-185q16 134 99 202.5t210 67.5q115 0 185.5 -53.5t70.5 -154.5q0 -56 -26 -107t-58.5 -84.5t-88.5 -79.5l-111 -93h236l-24 -153h-578z" />
    <glyph glyph-name="three" unicode="3" horiz-adv-x="652" 
d="M313 -12q-137 0 -214.5 62t-78.5 185h186q0 -45 24 -72t75 -27q45 0 71.5 24t26.5 68q0 73 -88 73h-50l21 127h64q41 0 65 20t25 61q0 34 -20 51.5t-55 17.5q-88 0 -106 -91h-182q14 108 95 173t206 65q70 0 125.5 -18t93.5 -62t38 -110q0 -61 -36.5 -106t-102.5 -62
q52 -13 82.5 -52.5t30.5 -92.5q0 -113 -86.5 -173.5t-209.5 -60.5z" />
    <glyph glyph-name="four" unicode="4" horiz-adv-x="678" 
d="M324 0l21 137h-347l12 77l378 501h246l-69 -437h92l-23 -141h-92l-21 -137h-197zM216 278h156l44 276z" />
    <glyph glyph-name="five" unicode="5" horiz-adv-x="631" 
d="M291 -12q-120 0 -197.5 58t-77.5 179h192q2 -83 83 -83q46 0 71.5 30.5t26.5 82.5q1 43 -23.5 67t-70.5 24q-71 0 -118 -52h-119l78 421h482l-24 -150h-333l-27 -154q59 72 166 72q90 0 143 -54.5t52 -155.5q0 -130 -82.5 -207.5t-221.5 -77.5z" />
    <glyph glyph-name="six" unicode="6" horiz-adv-x="674" 
d="M335 -12q-138 0 -214.5 70.5t-75.5 206.5q0 43 8 94l4 24q23 151 116 246.5t237 95.5q110 0 180.5 -52t74.5 -159h-190q-3 60 -70 60q-113 0 -148 -188q64 83 169 82q89 0 151.5 -54.5t62.5 -150.5q0 -126 -87 -200.5t-218 -74.5zM247 225q0 -40 22.5 -66t66.5 -26
q46 0 75 34t29 84q0 38 -22.5 63.5t-65.5 25.5q-45 0 -75 -33t-30 -82z" />
    <glyph glyph-name="seven" unicode="7" horiz-adv-x="576" 
d="M62 0l289 549h-283l26 166h544l-3 -21l-362 -694h-211z" />
    <glyph glyph-name="eight" unicode="8" horiz-adv-x="657" 
d="M310 -12q-77 0 -141 20.5t-106.5 67t-42.5 111.5q0 77 42.5 126.5t116.5 70.5q-82 42 -82 129q0 100 81 156t199 56q48 0 92.5 -10.5t83.5 -32t62.5 -60t23.5 -87.5q0 -59 -33.5 -101t-92.5 -64q51 -20 79 -60t28 -90q0 -113 -86 -172.5t-224 -59.5zM225 216
q0 -39 25.5 -61.5t67.5 -22.5q45 0 73.5 27t28.5 74q0 38 -24.5 59.5t-64.5 21.5q-46 0 -76 -25.5t-30 -72.5zM281 503q0 -32 22 -52.5t58 -20.5q37 0 63.5 21.5t26.5 61.5q0 33 -22 53.5t-58 20.5q-37 0 -63.5 -22.5t-26.5 -61.5z" />
    <glyph glyph-name="nine" unicode="9" horiz-adv-x="675" 
d="M293 -11q-113 0 -187 52t-79 161h190q7 -61 84 -61q109 0 143 183q-59 -81 -165 -81q-91 0 -154 51.5t-63 151.5q0 127 86.5 203.5t220.5 76.5q136 0 212.5 -72.5t77.5 -210.5q0 -48 -8 -89l-3 -23q-57 -342 -355 -342zM259 464q0 -41 21.5 -65t61.5 -24q47 0 79 31
t32 84q0 40 -22.5 66t-65.5 26q-46 0 -76 -33t-30 -85z" />
    <glyph glyph-name="colon" unicode=":" horiz-adv-x="305" 
d="M123 -11q-44 0 -73.5 29.5t-29.5 71.5t29 71.5t73 29.5q45 0 75 -29.5t30 -71.5t-29.5 -71.5t-74.5 -29.5zM169 275q-44 0 -73.5 29t-29.5 72q0 42 29 71.5t73 29.5q45 0 75.5 -29.5t30.5 -71.5q0 -43 -30 -72t-75 -29z" />
    <glyph glyph-name="semicolon" unicode=";" horiz-adv-x="321" 
d="M72 -124l-99 44l106 262l158 -59zM191 275q-44 0 -73 29t-29 72t28.5 72t72.5 29q45 0 75.5 -29.5t30.5 -71.5q0 -43 -30 -72t-75 -29z" />
    <glyph glyph-name="less" unicode="&#x3c;" horiz-adv-x="513" 
d="M430 59l-382 251l6 35l459 240l-26 -166l-206 -98l174 -107z" />
    <glyph glyph-name="equal" unicode="=" horiz-adv-x="557" 
d="M23 167l19 122h479l-19 -122h-479zM54 363l19 123h479l-19 -123h-479z" />
    <glyph glyph-name="greater" unicode="&#x3e;" horiz-adv-x="513" 
d="M99 586l382 -251l-5 -35l-460 -240l26 167l206 98l-173 107z" />
    <glyph glyph-name="question" unicode="?" horiz-adv-x="556" 
d="M163 235l4 24q9 53 40 90t81 75q5 4 22 16.5t21.5 16.5t16 15t15 17.5t7.5 17.5t4 22q-2 51 -58 51q-68 0 -84 -88h-175q15 114 89.5 174t186.5 59q112 0 172.5 -50t60.5 -132q0 -59 -27.5 -99t-77.5 -78q-9 -7 -38.5 -27t-42.5 -30.5t-28.5 -31t-20.5 -42.5h-168z
M225 -11q-44 0 -73 28t-29 70t30 71.5t74 29.5q43 0 73.5 -29t30.5 -70t-31 -70.5t-75 -29.5z" />
    <glyph glyph-name="at" unicode="@" horiz-adv-x="918" 
d="M701 463l-44 -273q-9 -66 41 -66q47 0 81.5 51.5t34.5 153.5q0 131 -90.5 211.5t-241.5 80.5q-157 0 -262 -102t-105 -269q0 -149 91 -244t259 -95q83 0 149.5 25t107.5 64h91q-49 -73 -143 -115.5t-208 -42.5q-197 0 -314.5 117t-117.5 292q0 128 64 230t166.5 156
t222.5 54q178 0 294 -101t116 -263q0 -72 -19 -126.5t-51.5 -86t-71 -47t-81.5 -15.5q-122 0 -142 82q-44 -84 -142 -84q-70 0 -111.5 47t-42.5 128q0 108 59 177t147 69q82 0 107 -60l9 52h147zM441 168q35 0 59 35t24 86q0 66 -60 66q-35 0 -58.5 -33t-22.5 -88
q0 -32 15 -49t43 -17z" />
    <glyph glyph-name="A" unicode="A" horiz-adv-x="738" 
d="M476 0l-17 133h-237l-59 -133h-196l342 715h265l114 -715h-212zM406 549l-122 -275h157z" />
    <glyph glyph-name="B" unicode="B" horiz-adv-x="679" 
d="M27 0l113 715h289q118 0 173.5 -47t55.5 -128q0 -68 -37.5 -111.5t-101.5 -59.5q57 -13 90 -50t33 -100q0 -99 -74.5 -159t-199.5 -60h-341zM248 137h90q50 0 78 26t28 68q0 75 -96 75h-73zM294 431h80q97 0 97 83q0 34 -19.5 49.5t-61.5 15.5h-72z" />
    <glyph glyph-name="C" unicode="C" horiz-adv-x="762" 
d="M393 -12q-162 0 -255.5 81.5t-93.5 233.5q0 186 108.5 304.5t291.5 118.5q143 0 226 -70t88 -205h-206q-11 115 -114 115q-85 0 -131.5 -73t-48.5 -182q0 -74 33.5 -117.5t103.5 -43.5q111 0 142 119h203q-21 -135 -116.5 -208t-230.5 -73z" />
    <glyph glyph-name="D" unicode="D" horiz-adv-x="748" 
d="M27 0l113 715h231q179 0 271.5 -80t92.5 -224q0 -194 -113 -302.5t-304 -108.5h-291zM257 157h62q97 0 150.5 64t53.5 181q0 157 -156 157h-46z" />
    <glyph glyph-name="E" unicode="E" horiz-adv-x="614" 
d="M27 0l113 715h493l-25 -158h-289l-19 -123h230l-22 -144h-231l-21 -132h306l-25 -158h-510z" />
    <glyph glyph-name="F" unicode="F" horiz-adv-x="582" 
d="M27 0l113 715h483l-26 -159h-277l-24 -152h222l-24 -151h-222l-39 -253h-206z" />
    <glyph glyph-name="G" unicode="G" horiz-adv-x="788" 
d="M401 -12q-166 0 -261 83t-95 236q0 181 114 300t291 118q88 0 156 -25.5t113.5 -86t49.5 -150.5h-204q-9 101 -123 101q-86 0 -135.5 -74t-49.5 -181q0 -78 37.5 -121.5t110.5 -43.5q124 0 147 108h-132l23 143h335q-11 -205 -104.5 -306t-272.5 -101z" />
    <glyph glyph-name="H" unicode="H" horiz-adv-x="784" 
d="M27 0l113 715h206l-44 -273h236l43 273h205l-113 -715h-205l44 282h-235l-44 -282h-206z" />
    <glyph glyph-name="I" unicode="I" horiz-adv-x="353" 
d="M31 0l113 715h207l-113 -715h-207z" />
    <glyph glyph-name="J" unicode="J" horiz-adv-x="478" 
d="M145 -9q-90 0 -152 30l25 152q44 -19 92 -19q85 0 99 88l75 473h206l-76 -482q-39 -242 -269 -242z" />
    <glyph glyph-name="K" unicode="K" horiz-adv-x="726" 
d="M27 0l113 715h206l-45 -284l264 284h220l-324 -342l213 -373h-221l-171 311l-49 -311h-206z" />
    <glyph glyph-name="L" unicode="L" horiz-adv-x="575" 
d="M27 0l113 715h206l-88 -556h270l-25 -159h-476z" />
    <glyph glyph-name="M" unicode="M" horiz-adv-x="941" 
d="M27 0l113 715h259l77 -379l197 379h270l-113 -715h-204l71 448l-246 -448h-68l-102 448l-71 -448h-183z" />
    <glyph glyph-name="N" unicode="N" horiz-adv-x="777" 
d="M27 0l113 715h234l159 -402l64 402h182l-113 -715h-200l-186 449l-70 -449h-183z" />
    <glyph glyph-name="O" unicode="O" horiz-adv-x="819" 
d="M804 409q0 -187 -115 -304t-299 -117q-148 0 -247 84t-99 229q0 186 114.5 305t294.5 119q154 0 252.5 -83.5t98.5 -232.5zM591 402q0 72 -36 117t-108 46q-89 1 -139.5 -74t-50.5 -182q0 -73 38 -116.5t109 -43.5q88 0 137.5 74t49.5 179z" />
    <glyph glyph-name="P" unicode="P" horiz-adv-x="652" 
d="M27 0l113 715h257q127 0 195.5 -54t69.5 -150q0 -131 -81 -200t-219 -69h-91l-38 -242h-206zM292 381h62q55 0 84 27.5t29 79.5q0 75 -92 75h-55z" />
    <glyph glyph-name="Q" unicode="Q" horiz-adv-x="819" 
d="M390 -12q-148 0 -247 84t-99 229q0 186 114.5 305t294.5 119q154 0 252.5 -83.5t98.5 -232.5q0 -112 -43.5 -202t-122.5 -145l66 -68l-123 -114l-106 116q-43 -8 -85 -8zM332 160l119 98l66 -69q74 71 74 213q0 71 -36.5 116.5t-107.5 46.5q-89 1 -139.5 -74t-50.5 -182
q0 -109 75 -149z" />
    <glyph glyph-name="R" unicode="R" horiz-adv-x="697" 
d="M27 0l113 715h272q129 0 196 -53.5t66 -149.5q0 -87 -45 -142t-120 -75l135 -295h-208l-117 256h-48l-40 -256h-204zM293 389h72q109 0 109 98q1 37 -21.5 55.5t-67.5 18.5h-65z" />
    <glyph glyph-name="S" unicode="S" horiz-adv-x="647" 
d="M314 -12q-145 0 -223.5 63t-77.5 176h193q2 -41 29 -67t84 -26q46 -1 70 18t24 55q0 26 -22 41.5t-79 27.5q-131 28 -184 75.5t-53 136.5q0 103 77 170t210 67q130 0 201 -55.5t70 -167.5h-187q-6 77 -90 77q-41 0 -62 -17.5t-21 -47.5q0 -25 21 -38.5t80 -26.5
q126 -27 183 -75t57 -137q0 -112 -78.5 -180t-221.5 -69z" />
    <glyph glyph-name="T" unicode="T" horiz-adv-x="618" 
d="M164 0l87 557h-185l26 158h576l-26 -158h-185l-87 -557h-206z" />
    <glyph glyph-name="U" unicode="U" horiz-adv-x="764" 
d="M369 -12q-166 0 -245 81.5t-54 238.5l65 407h205l-65 -413q-13 -78 10.5 -115.5t86.5 -37.5q58 0 85.5 33t39.5 107l67 426h207l-70 -444q-23 -145 -104 -214t-228 -69z" />
    <glyph glyph-name="V" unicode="V" horiz-adv-x="719" 
d="M203 0l-124 715h213l65 -502l226 502h199l-346 -715h-233z" />
    <glyph glyph-name="W" unicode="W" horiz-adv-x="986" 
d="M139 0l-60 715h208l20 -454l172 454h173l40 -458l168 458h189l-285 -715h-201l-41 436l-176 -436h-207z" />
    <glyph glyph-name="X" unicode="X" horiz-adv-x="723" 
d="M-28 0l279 376l-149 339h220l81 -215l142 215h213l-245 -348l160 -367h-220l-97 247l-169 -247h-215z" />
    <glyph glyph-name="Y" unicode="Y" horiz-adv-x="678" 
d="M197 0l48 307l-168 408h214l86 -238l157 238h205l-289 -419l-46 -296h-207z" />
    <glyph glyph-name="Z" unicode="Z" horiz-adv-x="625" 
d="M-29 0l3 23l386 535h-264l25 157h560l-4 -22l-384 -535h280l-25 -158h-577z" />
    <glyph glyph-name="bracketleft" unicode="[" horiz-adv-x="409" 
d="M0 -148l146 924h305l-20 -131h-125l-105 -662h125l-21 -131h-305z" />
    <glyph glyph-name="backslash" unicode="\" horiz-adv-x="434" 
d="M262 -148l-190 924h137l190 -924h-137z" />
    <glyph glyph-name="bracketright" unicode="]" horiz-adv-x="517" 
d="M-27 -148l21 131h123l105 662h-124l21 131h304l-146 -924h-304z" />
    <glyph glyph-name="asciicircum" unicode="^" horiz-adv-x="531" 
d="M43 393l212 322h157l116 -322h-149l-65 176l-117 -176h-154z" />
    <glyph glyph-name="underscore" unicode="_" horiz-adv-x="434" 
d="M-68 -161l14 86h434l-13 -86h-435z" />
    <glyph glyph-name="grave" unicode="`" horiz-adv-x="400" 
d="M196 583l-93 166h178l40 -166h-125z" />
    <glyph glyph-name="a" unicode="a" horiz-adv-x="578" 
d="M173 -12q-73 0 -119.5 39t-46.5 106q0 98 70.5 140.5t204.5 42.5h77l2 14q6 40 -7 60.5t-53 20.5q-61 0 -76 -62h-168q19 94 84.5 141t167.5 47q128 0 186 -57t40 -172l-23 -145q-16 -101 -8 -163h-173q-5 27 -3 65q-59 -77 -155 -77zM244 108q37 0 63 20.5t31 54.5l5 32
h-56q-55 0 -78.5 -13t-23.5 -45q0 -21 15.5 -35t43.5 -14z" />
    <glyph glyph-name="b" unicode="b" horiz-adv-x="643" 
d="M367 -12q-61 0 -103.5 26.5t-60.5 69.5l-13 -84h-180l120 753h179l-48 -302q57 86 172 86q83 0 135 -59t52 -167q0 -148 -70.5 -235.5t-182.5 -87.5zM317 123q53 0 85.5 48.5t32.5 126.5q0 51 -22 78.5t-64 27.5q-54 0 -89.5 -49.5t-35.5 -125.5q0 -51 24 -78.5t69 -27.5
z" />
    <glyph glyph-name="c" unicode="c" horiz-adv-x="579" 
d="M290 -11q-119 0 -192.5 62.5t-73.5 177.5q0 138 82 222.5t212 84.5q108 0 174.5 -53.5t70.5 -161.5h-168q-4 41 -24 58.5t-57 17.5q-54 0 -82.5 -48t-28.5 -122q0 -108 93 -108q38 0 63.5 22t32.5 64h161q-13 -104 -81.5 -160t-181.5 -56z" />
    <glyph glyph-name="d" unicode="d" horiz-adv-x="641" 
d="M216 -12q-87 0 -140.5 59.5t-53.5 168.5q0 147 73 234t188 87q116 0 156 -86l48 302h180l-93 -590q-16 -103 -11 -163h-177q-4 23 -2 79q-58 -91 -168 -91zM293 122q55 0 89.5 48.5t34.5 128.5q0 50 -24 77.5t-66 27.5q-55 0 -88 -48.5t-33 -126.5q0 -51 22.5 -79
t64.5 -28z" />
    <glyph glyph-name="e" unicode="e" horiz-adv-x="595" 
d="M199 216q0 -105 98 -105q73 0 93 62h169q-19 -89 -89.5 -137t-177.5 -48q-119 0 -194 60.5t-75 176.5q0 139 84 225.5t214 86.5q131 0 199 -78t47 -214l-4 -25h-364v-4zM321 419q-81 0 -110 -98h188q8 98 -78 98z" />
    <glyph glyph-name="f" unicode="f" horiz-adv-x="382" 
d="M33 401l19 122h66l11 66q14 89 73 132t146 43q53 0 93 -14l-21 -131q-21 8 -47 8q-58 0 -68 -55l-8 -49h106l-19 -122h-106l-64 -401h-178l63 401h-66z" />
    <glyph glyph-name="g" unicode="g" horiz-adv-x="640" 
d="M294 156q55 0 88.5 43t33.5 110q0 43 -24 69.5t-65 26.5q-55 0 -85.5 -43.5t-30.5 -103.5q0 -47 21 -74.5t62 -27.5zM628 523l-78 -493q-18 -116 -84.5 -170t-201.5 -54q-136 0 -203 54.5t-72 139.5h178q4 -29 26.5 -48.5t65.5 -19.5q54 0 79.5 26t32.5 73l12 75
q-51 -80 -157 -80q-90 0 -145 57.5t-55 162.5q0 128 71.5 209.5t183.5 81.5q116 0 156 -86l12 72h179z" />
    <glyph glyph-name="h" unicode="h" horiz-adv-x="622" 
d="M11 0l119 753h179l-49 -313q62 97 173 97q80 0 123 -55t25 -167l-50 -315h-179l47 302q15 90 -59 90q-42 0 -69.5 -26.5t-34.5 -76.5l-46 -289h-179z" />
    <glyph glyph-name="i" unicode="i" horiz-adv-x="295" 
d="M208 574q-42 0 -69 25.5t-27 65.5q0 39 27.5 65.5t69.5 26.5q41 0 68.5 -26t27.5 -65q0 -40 -28 -66t-69 -26zM16 0l83 523h178l-82 -523h-179z" />
    <glyph glyph-name="j" unicode="j" horiz-adv-x="295" 
d="M-76 -183l19 129q65 3 73 59l82 518h179l-85 -535q-6 -40 -21.5 -71t-45.5 -55.5t-80.5 -36t-120.5 -8.5zM207 574q-42 0 -69 25.5t-27 65.5q0 39 27.5 65.5t69.5 26.5q41 0 68.5 -26t27.5 -65q0 -40 -28 -66t-69 -26z" />
    <glyph glyph-name="k" unicode="k" horiz-adv-x="576" 
d="M11 0l119 753h179l-70 -439l175 209h194l-216 -242l140 -281h-193l-111 240l-38 -240h-179z" />
    <glyph glyph-name="l" unicode="l" horiz-adv-x="293" 
d="M16 0l118 753h179l-119 -753h-178z" />
    <glyph glyph-name="m" unicode="m" horiz-adv-x="927" 
d="M11 0l55 352q16 100 19 171h175q0 -46 -5 -86q28 44 74 72t101 28q107 0 134 -97q72 97 178 97q79 0 120.5 -53t24.5 -156l-51 -328h-179l48 305q13 87 -54 87q-35 0 -60 -24t-32 -69l-47 -299h-177l48 306q13 86 -54 86q-37 0 -60.5 -24.5t-31.5 -68.5l-47 -299h-179z
" />
    <glyph glyph-name="n" unicode="n" horiz-adv-x="622" 
d="M11 0l55 352q16 100 19 171h175q0 -50 -5 -89q65 103 178 103q80 0 123 -55t25 -167l-50 -315h-179l47 302q15 90 -59 90q-42 0 -69.5 -26.5t-34.5 -76.5l-46 -289h-179z" />
    <glyph glyph-name="o" unicode="o" horiz-adv-x="615" 
d="M290 -12q-113 0 -189 62t-77 177q-1 134 84 221.5t218 87.5q114 0 190 -62.5t76 -178.5q0 -136 -84 -221.5t-218 -85.5zM293 121q58 0 88.5 50t30.5 131q0 45 -22.5 73t-66.5 28q-57 0 -88.5 -49.5t-31.5 -128.5q0 -45 21.5 -74.5t68.5 -29.5z" />
    <glyph glyph-name="p" unicode="p" horiz-adv-x="643" 
d="M432 537q83 0 135.5 -59t52.5 -167q0 -148 -70.5 -235.5t-182.5 -87.5q-61 0 -103.5 26.5t-60.5 69.5l-41 -259h-179l83 527q16 100 19 171h175q0 -41 -4 -81q61 95 176 95zM317 123q53 0 85.5 48.5t32.5 126.5q0 51 -22 78.5t-64 27.5q-54 0 -89.5 -49.5t-35.5 -125.5
q0 -51 24 -78.5t69 -27.5z" />
    <glyph glyph-name="q" unicode="q" horiz-adv-x="643" 
d="M340 -175l40 247q-55 -84 -164 -84q-87 0 -140.5 59.5t-53.5 168.5q0 147 73 234t188 87q116 0 156 -86l12 72h179l-110 -698h-180zM293 122q55 0 89.5 48.5t34.5 128.5q0 50 -24 77.5t-66 27.5q-55 0 -88 -48.5t-33 -126.5q0 -51 22.5 -79t64.5 -28z" />
    <glyph glyph-name="r" unicode="r" horiz-adv-x="429" 
d="M11 0l55 352q17 104 18 171h175q0 -52 -7 -111q32 62 77 90.5t113 27.5l-26 -167q-85 3 -131 -27t-58 -105l-37 -231h-179z" />
    <glyph glyph-name="s" unicode="s" horiz-adv-x="513" 
d="M231 -13q-110 0 -172 45.5t-63 133.5h166q5 -59 74 -59q61 0 61 42q0 20 -17.5 30t-71.5 20q-89 17 -130 54t-41 103q0 88 65 135t169 46q213 0 223 -169h-163q-2 23 -19 37.5t-46 14.5q-60 0 -60 -39q0 -18 18 -27.5t64 -20.5q102 -20 144 -56t42 -109q0 -89 -66.5 -135
t-176.5 -46z" />
    <glyph glyph-name="t" unicode="t" horiz-adv-x="385" 
d="M224 -12q-193 0 -162 197l34 216h-63l19 122h63l18 109h179l-17 -109h101l-18 -122h-102l-34 -211q-5 -33 6.5 -46.5t39.5 -13.5q24 0 50 9l-21 -135q-39 -16 -93 -16z" />
    <glyph glyph-name="u" unicode="u" horiz-adv-x="621" 
d="M606 523l-56 -360q-16 -100 -13 -163h-175q-3 38 1 79q-67 -91 -166 -91q-88 0 -132 54t-26 166l50 315h179l-49 -312q-14 -90 57 -90q87 0 104 104l47 298h179z" />
    <glyph glyph-name="v" unicode="v" horiz-adv-x="580" 
d="M148 0l-102 523h185l48 -339l158 339h178l-273 -523h-194z" />
    <glyph glyph-name="w" unicode="w" horiz-adv-x="830" 
d="M119 0l-71 523h182l27 -314l131 314h145l29 -314l128 314h174l-244 -523h-172l-29 293l-125 -293h-175z" />
    <glyph glyph-name="x" unicode="x" horiz-adv-x="585" 
d="M-36 0l215 270l-122 253h197l59 -137l100 137h189l-201 -248l136 -275h-198l-68 156l-119 -156h-188z" />
    <glyph glyph-name="y" unicode="y" horiz-adv-x="577" 
d="M46 -175l127 234l-127 464h186l60 -281l141 281h178l-386 -698h-179z" />
    <glyph glyph-name="z" unicode="z" horiz-adv-x="505" 
d="M-32 0l2 18l281 371h-199l20 134h460l-3 -19l-286 -370h216l-21 -134h-470z" />
    <glyph glyph-name="braceleft" unicode="{" horiz-adv-x="418" 
d="M314 -148q-147 2 -206.5 64t-20.5 177l26 80q27 81 -83 87l20 124q59 0 84 19.5t24 60.5l-1 85q-1 127 70.5 178t232.5 50l-20 -130q-61 -3 -83 -24.5t-24 -77.5l-2 -96q-3 -110 -123 -134q55 -14 75.5 -51.5t3.5 -92.5l-27 -89q-16 -52 0 -73.5t74 -25.5z" />
    <glyph glyph-name="bar" unicode="|" horiz-adv-x="268" 
d="M85 -148v924h125v-924h-125z" />
    <glyph glyph-name="braceright" unicode="}" horiz-adv-x="418" 
d="M118 777q147 -2 206 -63.5t22 -177.5l-26 -79q-27 -81 82 -89l-19 -124q-59 1 -83.5 -17t-24.5 -60v-86q0 -128 -71 -179t-232 -50l21 130q60 3 82.5 25t23.5 77l3 100q4 109 123 130q-55 16 -75 53t-5 90l27 90q16 53 0 74t-74 26z" />
    <glyph glyph-name="asciitilde" unicode="~" horiz-adv-x="518" 
d="M23 214q14 102 58 150t104 48q41 0 93 -22t65 -22q39 0 50 46h116q-11 -96 -57 -147t-105 -51q-42 0 -94 22t-65 22q-38 0 -49 -46h-116z" />
    <glyph glyph-name="uni00A0" unicode="&#xa0;" horiz-adv-x="258" 
 />
    <glyph glyph-name="exclamdown" unicode="&#xa1;" horiz-adv-x="334" 
d="M255 363l-50 -480h-202l104 480h148zM202 609q44 0 73 -28t29 -70t-30 -71.5t-73 -29.5q-44 0 -74 29t-30 70t30.5 70.5t74.5 29.5z" />
    <glyph glyph-name="cent" unicode="&#xa2;" horiz-adv-x="594" 
d="M209 -135l20 129q-93 16 -150 75t-58 153q0 134 82 221t212 93l15 93h78l-16 -98q181 -28 188 -210h-162q-3 60 -47 77l-45 -285q71 11 88 92h156q-12 -99 -83 -156.5t-181 -60.5l-19 -123h-78zM195 224q0 -81 54 -104l45 282q-46 -12 -72.5 -57.5t-26.5 -120.5z" />
    <glyph glyph-name="sterling" unicode="&#xa3;" horiz-adv-x="657" 
d="M38 287l19 120h49q-4 27 -4 63q0 116 79 185.5t208 69.5q124 0 194.5 -57t69.5 -184h-191q0 44 -17 65.5t-56 21.5q-91 0 -91 -127v-37h185l-20 -120h-162v-7q0 -58 -25 -108q78 -22 101 -22q57 0 67 59h183q-13 -99 -71 -158.5t-157 -59.5q-56 0 -128 26t-90 26
q-21 0 -34.5 -12t-16.5 -31h-151q10 63 41.5 110.5t81.5 67.5q20 43 20 94q0 10 -1 15h-83z" />
    <glyph glyph-name="yen" unicode="&#xa5;" horiz-adv-x="646" 
d="M69 294l10 71h138l-135 350h217l66 -233l141 233h200l-237 -350h139l-11 -71h-162l-8 -51h161l-11 -72h-161l-27 -171h-206l27 171h-162l11 72h162l8 51h-160z" />
    <glyph glyph-name="brokenbar" unicode="&#xa6;" horiz-adv-x="268" 
d="M85 -148v449h125v-449h-125zM85 372v404h125v-404h-125z" />
    <glyph glyph-name="section" unicode="&#xa7;" horiz-adv-x="606" 
d="M259 -137q-98 0 -161 45t-62 138h164q3 -62 66 -62q25 0 41.5 11.5t16.5 33.5q0 19 -23 34t-81 34q-98 31 -147.5 73t-49.5 112q0 116 132 154q-32 38 -32 88q0 97 67.5 149t170.5 52q97 0 155.5 -43.5t61.5 -139.5h-167q-1 30 -14 44.5t-44 15.5q-59 0 -59 -46
q0 -21 21 -35t77 -32q98 -31 148 -73.5t50 -114.5q0 -60 -33.5 -95.5t-96.5 -55.5q35 -38 35 -89q0 -97 -67.5 -147.5t-168.5 -50.5zM366 221q47 10 47 44q0 19 -17.5 32t-64.5 32l-80 34q-49 -6 -49 -44q0 -19 17.5 -32t64.5 -32z" />
    <glyph glyph-name="dieresis" unicode="&#xa8;" horiz-adv-x="400" 
d="M156 580q-35 0 -60 24.5t-25 58.5q0 35 25 59.5t61 24.5q35 0 60 -24.5t25 -58.5q0 -35 -25 -59.5t-61 -24.5zM369 580q-36 0 -60.5 24t-24.5 59t24.5 59.5t60.5 24.5t61 -24t25 -59t-25 -59.5t-61 -24.5z" />
    <glyph glyph-name="copyright" unicode="&#xa9;" horiz-adv-x="843" 
d="M441 151q-105 0 -158.5 54t-53.5 149v8q0 91 58.5 146.5t148.5 55.5q83 0 132.5 -39t56.5 -118h-128q-6 59 -61 59q-36 0 -56 -26.5t-20 -77.5v-7q0 -105 78 -105q62 0 69 61h122q-4 -77 -55.5 -118.5t-132.5 -41.5zM433 31q135 0 228.5 92t93.5 236q0 143 -92 234
t-228 91q-138 0 -230.5 -91.5t-92.5 -235.5t93.5 -235t227.5 -91zM433 -20q-161 0 -272 108.5t-111 268.5q0 158 111.5 268t273.5 110q163 0 273 -109t110 -267q0 -161 -111.5 -270t-273.5 -109z" />
    <glyph glyph-name="ordfeminine" unicode="&#xaa;" horiz-adv-x="483" 
d="M182 287q-56 0 -93 30.5t-37 83.5q0 78 59 111t172 33h46l2 14q4 28 -4 42t-37 14q-44 0 -53 -45h-149q15 76 71 114.5t143 38.5q109 0 152.5 -45.5t27.5 -148.5l-16 -102q-13 -78 -6 -129h-151q-3 17 -3 52q-44 -63 -124 -63zM248 392q56 0 65 51l4 23h-40
q-69 0 -69 -41q0 -33 40 -33z" />
    <glyph glyph-name="guillemotleft" unicode="&#xab;" horiz-adv-x="480" 
d="M128 70l-98 195l144 187h119l-143 -189l90 -193h-112zM306 70l-95 193l145 189h118l-143 -193l87 -189h-112z" />
    <glyph glyph-name="registered" unicode="&#xae;" horiz-adv-x="517" 
d="M209 396v219h90q91 0 91 -71v-1q0 -41 -37 -58l50 -89h-72l-40 75h-12v-75h-70zM279 516h15q28 0 28 23v1q0 22 -28 22h-15v-46zM294 319q79 0 132.5 52t53.5 132q0 81 -52.5 132.5t-133.5 51.5t-133 -52t-52 -133t53 -132t132 -51zM294 281q-96 0 -162.5 63.5
t-66.5 157.5q0 93 66.5 158t162.5 65q97 0 163.5 -64.5t66.5 -157.5q0 -94 -67 -158t-163 -64z" />
    <glyph glyph-name="macron" unicode="&#xaf;" horiz-adv-x="400" 
d="M100 612l16 100h307l-15 -100h-308z" />
    <glyph glyph-name="degree" unicode="&#xb0;" horiz-adv-x="453" 
d="M270 451q40 0 65.5 28.5t25.5 73.5q0 43 -25 72t-64 29q-41 0 -67.5 -29t-26.5 -75q0 -42 26 -70.5t66 -28.5zM270 381q-73 0 -124.5 50t-51.5 119q0 72 51.5 123t126.5 51q73 0 123.5 -50t50.5 -121t-51.5 -121.5t-124.5 -50.5z" />
    <glyph glyph-name="plusminus" unicode="&#xb1;" horiz-adv-x="570" 
d="M198 176l27 165h-176l20 131h176l26 164h144l-26 -164h175l-20 -131h-176l-26 -165h-144zM-5 0l19 118h497l-18 -118h-498z" />
    <glyph glyph-name="twosuperior" unicode="&#xb2;" horiz-adv-x="353" 
d="M16 339l3 18l149 132q27 23 41 36.5t29 34t15 34.5q0 29 -29 29q-35 0 -46 -52h-122q11 73 58.5 111t119.5 38q67 0 108.5 -27t41.5 -86q0 -38 -24.5 -69.5t-78.5 -77.5l-31 -26h109l-16 -95h-327z" />
    <glyph glyph-name="threesuperior" unicode="&#xb3;" horiz-adv-x="374" 
d="M215 332q-76 0 -120.5 32.5t-45.5 101.5h118q0 -42 42 -42q16 0 28 9t12 28q0 31 -43 31h-28l12 74h33q45 0 45 34q0 29 -34 29q-36 0 -45 -38h-116q9 62 54.5 95.5t118.5 33.5q62 0 104.5 -23.5t42.5 -78.5q0 -67 -77 -89q64 -13 64 -77q0 -58 -47 -89t-118 -31z" />
    <glyph glyph-name="acute" unicode="&#xb4;" horiz-adv-x="400" 
d="M178 583l73 166h182l-125 -166h-130z" />
    <glyph glyph-name="paragraph" unicode="&#xb6;" horiz-adv-x="551" 
d="M198 -100l68 429h-3q-88 0 -143 44t-55 126q0 104 68.5 160t176.5 56h242l-129 -815h-76l119 751h-75l-118 -751h-75z" />
    <glyph glyph-name="periodcentered" unicode="&#xb7;" horiz-adv-x="299" 
d="M157 225q-43 0 -72.5 29.5t-29.5 71.5t29 71.5t72 29.5q45 0 75.5 -29.5t30.5 -71.5t-30 -71.5t-75 -29.5z" />
    <glyph glyph-name="cedilla" unicode="&#xb8;" horiz-adv-x="400" 
d="M139 -226q-52 0 -87 23.5t-39 69.5h85q4 -28 35 -28q13 0 23 8t10 25q0 28 -32 28q-15 0 -29 -10l-34 38l58 72h72l-37 -45q41 3 69.5 -18.5t28.5 -60.5q0 -50 -34.5 -76t-88.5 -26z" />
    <glyph glyph-name="onesuperior" unicode="&#xb9;" horiz-adv-x="286" 
d="M113 339l39 246l-89 -46l17 109l113 67h114l-60 -376h-134z" />
    <glyph glyph-name="ordmasculine" unicode="&#xba;" horiz-adv-x="522" 
d="M274 287q-96 0 -152 50t-56 137q0 109 73.5 179t178.5 70q100 0 153.5 -51.5t53.5 -138.5q0 -109 -73.5 -177.5t-177.5 -68.5zM285 402q40 0 62 38.5t22 95.5q0 72 -61 72q-39 0 -62 -38t-23 -96q0 -72 62 -72z" />
    <glyph glyph-name="guillemotright" unicode="&#xbb;" horiz-adv-x="480" 
d="M351 452l98 -195l-145 -187h-118l143 189l-90 193h112zM173 452l95 -193l-145 -189h-119l144 193l-87 189h112z" />
    <glyph glyph-name="onequarter" unicode="&#xbc;" horiz-adv-x="801" 
d="M116 339l39 246l-89 -46l17 109l113 67h114l-60 -376h-134zM53 0l611 715h95l-611 -715h-95zM561 0l11 70h-187l8 49l197 257h159l-35 -219h48l-14 -87h-47l-11 -70h-129zM516 157h74l20 127z" />
    <glyph glyph-name="onehalf" unicode="&#xbd;" horiz-adv-x="814" 
d="M40 0l611 715h95l-611 -715h-95zM116 339l39 246l-89 -46l17 109l113 67h114l-60 -376h-134zM420 0l3 17l149 133q27 23 41 36.5t29 33.5t15 34q0 30 -29 30q-35 0 -46 -53h-122q11 74 58 112t120 38q67 0 108.5 -27t41.5 -86q0 -38 -24.5 -69.5t-78.5 -77.5l-31 -26h109
l-16 -95h-327z" />
    <glyph glyph-name="threequarters" unicode="&#xbe;" horiz-adv-x="842" 
d="M218 332q-76 0 -120.5 32.5t-45.5 101.5h118q0 -42 42 -42q16 0 28 9t12 28q0 31 -43 31h-28l12 74h33q45 0 45 34q0 29 -34 29q-36 0 -45 -38h-116q9 62 54.5 95.5t118.5 33.5q62 0 104.5 -23.5t42.5 -78.5q0 -67 -77 -89q64 -13 64 -77q0 -58 -47 -89t-118 -31zM107 0
l611 715h95l-611 -715h-95zM601 0l11 70h-187l8 49l197 257h159l-35 -219h48l-14 -87h-47l-11 -70h-129zM556 157h74l20 127z" />
    <glyph glyph-name="questiondown" unicode="&#xbf;" horiz-adv-x="556" 
d="M402 364l-4 -24q-9 -53 -40 -90t-81 -75q-5 -4 -22 -16.5t-21.5 -16.5t-16 -15t-15 -17.5t-7.5 -17.5t-4 -22q2 -51 58 -51q68 0 84 88h175q-15 -114 -89.5 -174t-186.5 -59q-112 0 -172.5 50t-60.5 132q0 59 27.5 99t77.5 78q9 7 38.5 27t42.5 30.5t28.5 31t20.5 42.5
h168zM340 610q44 0 73 -28t29 -70t-30 -71.5t-74 -29.5q-43 0 -73.5 29t-30.5 70t31 70.5t75 29.5z" />
    <glyph glyph-name="Agrave" unicode="&#xc0;" horiz-adv-x="738" 
d="M476 0l-17 133h-237l-59 -133h-196l342 715h265l114 -715h-212zM387 759l-86 146h185l33 -146h-132zM406 549l-122 -275h157z" />
    <glyph glyph-name="Aacute" unicode="&#xc1;" horiz-adv-x="738" 
d="M476 0l-17 133h-237l-59 -133h-196l342 715h265l114 -715h-212zM368 759l64 146h188l-115 -146h-137zM406 549l-122 -275h157z" />
    <glyph glyph-name="Acircumflex" unicode="&#xc2;" horiz-adv-x="738" 
d="M476 0l-17 133h-237l-59 -133h-196l342 715h265l114 -715h-212zM249 759l131 146h150l93 -146h-125l-53 49l-64 -49h-132zM406 549l-122 -275h157z" />
    <glyph glyph-name="Atilde" unicode="&#xc3;" horiz-adv-x="738" 
d="M476 0l-17 133h-237l-59 -133h-196l342 715h265l114 -715h-212zM510 758q-32 0 -70 17t-49 17q-28 0 -36 -33h-101q12 76 48.5 114.5t85.5 38.5q30 0 68.5 -16.5t52.5 -16.5q26 0 36 32h101q-13 -75 -50.5 -114t-85.5 -39zM406 549l-122 -275h157z" />
    <glyph glyph-name="Adieresis" unicode="&#xc4;" horiz-adv-x="738" 
d="M476 0l-17 133h-237l-59 -133h-196l342 715h265l114 -715h-212zM559 758q-36 0 -60.5 24t-24.5 59t25 59.5t60 24.5q36 0 61 -24t25 -59t-25 -59.5t-61 -24.5zM336 758q-35 0 -60 24.5t-25 58.5q0 35 25 59.5t60 24.5q36 0 61 -24t25 -59t-25 -59.5t-61 -24.5zM406 549
l-122 -275h157z" />
    <glyph glyph-name="Aring" unicode="&#xc5;" horiz-adv-x="738" 
d="M476 0l-17 133h-237l-59 -133h-196l342 715h265l114 -715h-212zM446 744q-49 0 -84 34t-35 82t35.5 82t85.5 34q49 0 84 -33.5t35 -81.5t-35.5 -82.5t-85.5 -34.5zM406 549l-122 -275h157zM446 810q20 0 33.5 14.5t13.5 36.5q0 23 -12.5 36.5t-32.5 13.5q-21 0 -34 -14
t-13 -37q0 -22 12.5 -36t32.5 -14z" />
    <glyph glyph-name="AE" unicode="&#xc6;" horiz-adv-x="1002" 
d="M-31 0l425 715h629l-25 -158h-282l-20 -123h225l-23 -144h-224l-21 -132h300l-25 -158h-504l23 146h-195l-84 -146h-199zM489 557l-158 -273h138l43 273h-23z" />
    <glyph glyph-name="Ccedilla" unicode="&#xc7;" horiz-adv-x="762" 
d="M315 -226q-52 0 -87 23.5t-39 69.5h85q4 -28 35 -28q13 0 23 8t10 25q0 28 -32 28q-15 0 -29 -10l-34 38l54 68q-121 22 -189 100t-68 207q0 186 108.5 304.5t291.5 118.5q143 0 226 -70t88 -205h-206q-11 115 -114 115q-85 0 -131.5 -73t-48.5 -182q0 -74 33.5 -117.5
t103.5 -43.5q111 0 142 119h203q-21 -135 -116.5 -208t-230.5 -73h-27l-26 -33q41 3 69.5 -18.5t28.5 -60.5q0 -50 -34.5 -76t-88.5 -26z" />
    <glyph glyph-name="Egrave" unicode="&#xc8;" horiz-adv-x="614" 
d="M334 759l-86 146h185l33 -146h-132zM27 0l113 715h493l-25 -158h-289l-19 -123h230l-22 -144h-231l-21 -132h306l-25 -158h-510z" />
    <glyph glyph-name="Eacute" unicode="&#xc9;" horiz-adv-x="614" 
d="M307 759l64 146h188l-115 -146h-137zM27 0l113 715h493l-25 -158h-289l-19 -123h230l-22 -144h-231l-21 -132h306l-25 -158h-510z" />
    <glyph glyph-name="Ecircumflex" unicode="&#xca;" horiz-adv-x="614" 
d="M199 759l131 146h150l93 -146h-125l-53 49l-64 -49h-132zM27 0l113 715h493l-25 -158h-289l-19 -123h230l-22 -144h-231l-21 -132h306l-25 -158h-510z" />
    <glyph glyph-name="Edieresis" unicode="&#xcb;" horiz-adv-x="614" 
d="M27 0l113 715h493l-25 -158h-289l-19 -123h230l-22 -144h-231l-21 -132h306l-25 -158h-510zM287 758q-35 0 -60 24.5t-25 58.5q0 35 25 59.5t60 24.5q36 0 61 -24t25 -59t-25 -59.5t-61 -24.5zM510 758q-36 0 -60.5 24t-24.5 59t25 59.5t60 24.5q36 0 61 -24t25 -59
t-25 -59.5t-61 -24.5z" />
    <glyph glyph-name="Igrave" unicode="&#xcc;" horiz-adv-x="353" 
d="M31 0l113 715h207l-113 -715h-207zM194 759l-86 146h185l33 -146h-132z" />
    <glyph glyph-name="Iacute" unicode="&#xcd;" horiz-adv-x="353" 
d="M31 0l113 715h207l-113 -715h-207zM172 759l64 146h188l-115 -146h-137z" />
    <glyph glyph-name="Icircumflex" unicode="&#xce;" horiz-adv-x="353" 
d="M31 0l113 715h207l-113 -715h-207zM63 759l131 146h150l93 -146h-125l-53 49l-64 -49h-132z" />
    <glyph glyph-name="Idieresis" unicode="&#xcf;" horiz-adv-x="353" 
d="M31 0l113 715h207l-113 -715h-207zM153 758q-35 0 -60 24.5t-25 58.5q0 35 25 59.5t60 24.5q36 0 61 -24t25 -59t-25 -59.5t-61 -24.5zM376 758q-36 0 -60.5 24t-24.5 59t25 59.5t60 24.5q36 0 61 -24t25 -59t-25 -59.5t-61 -24.5z" />
    <glyph glyph-name="Eth" unicode="&#xd0;" horiz-adv-x="766" 
d="M33 290l22 138h59l45 287h231q179 0 271 -79.5t93 -224.5q0 -194 -113.5 -302.5t-304.5 -108.5h-290l46 290h-59zM272 157h65q98 0 151 64t53 181q0 157 -156 157h-49l-21 -131h120l-22 -138h-120z" />
    <glyph glyph-name="Ntilde" unicode="&#xd1;" horiz-adv-x="777" 
d="M546 758q-32 0 -70 17t-49 17q-28 0 -36 -33h-101q12 76 48.5 114.5t85.5 38.5q30 0 68.5 -16.5t52.5 -16.5q26 0 36 32h101q-13 -75 -50.5 -114t-85.5 -39zM27 0l113 715h234l159 -402l64 402h182l-113 -715h-200l-186 449l-70 -449h-183z" />
    <glyph glyph-name="Ograve" unicode="&#xd2;" horiz-adv-x="819" 
d="M407 759l-86 146h185l33 -146h-132zM804 409q0 -187 -115 -304t-299 -117q-148 0 -247 84t-99 229q0 186 114.5 305t294.5 119q154 0 252.5 -83.5t98.5 -232.5zM591 402q0 72 -36 117t-108 46q-89 1 -139.5 -74t-50.5 -182q0 -73 38 -116.5t109 -43.5q88 0 137.5 74
t49.5 179z" />
    <glyph glyph-name="Oacute" unicode="&#xd3;" horiz-adv-x="819" 
d="M386 759l64 146h188l-115 -146h-137zM804 409q0 -187 -115 -304t-299 -117q-148 0 -247 84t-99 229q0 186 114.5 305t294.5 119q154 0 252.5 -83.5t98.5 -232.5zM591 402q0 72 -36 117t-108 46q-89 1 -139.5 -74t-50.5 -182q0 -73 38 -116.5t109 -43.5q88 0 137.5 74
t49.5 179z" />
    <glyph glyph-name="Ocircumflex" unicode="&#xd4;" horiz-adv-x="819" 
d="M276 759l131 146h150l93 -146h-125l-53 49l-64 -49h-132zM804 409q0 -187 -115 -304t-299 -117q-148 0 -247 84t-99 229q0 186 114.5 305t294.5 119q154 0 252.5 -83.5t98.5 -232.5zM591 402q0 72 -36 117t-108 46q-89 1 -139.5 -74t-50.5 -182q0 -73 38 -116.5
t109 -43.5q88 0 137.5 74t49.5 179z" />
    <glyph glyph-name="Otilde" unicode="&#xd5;" horiz-adv-x="819" 
d="M532 758q-32 0 -70 17t-49 17q-28 0 -36 -33h-101q12 76 48.5 114.5t85.5 38.5q30 0 68.5 -16.5t52.5 -16.5q26 0 36 32h101q-13 -75 -50.5 -114t-85.5 -39zM804 409q0 -187 -115 -304t-299 -117q-148 0 -247 84t-99 229q0 186 114.5 305t294.5 119q154 0 252.5 -83.5
t98.5 -232.5zM591 402q0 72 -36 117t-108 46q-89 1 -139.5 -74t-50.5 -182q0 -73 38 -116.5t109 -43.5q88 0 137.5 74t49.5 179z" />
    <glyph glyph-name="Odieresis" unicode="&#xd6;" horiz-adv-x="819" 
d="M366 758q-35 0 -60 24.5t-25 58.5q0 35 25 59.5t60 24.5q36 0 61 -24t25 -59t-25 -59.5t-61 -24.5zM589 758q-36 0 -60.5 24t-24.5 59t25 59.5t60 24.5q36 0 61 -24t25 -59t-25 -59.5t-61 -24.5zM804 409q0 -187 -115 -304t-299 -117q-148 0 -247 84t-99 229
q0 186 114.5 305t294.5 119q154 0 252.5 -83.5t98.5 -232.5zM591 402q0 72 -36 117t-108 46q-89 1 -139.5 -74t-50.5 -182q0 -73 38 -116.5t109 -43.5q88 0 137.5 74t49.5 179z" />
    <glyph glyph-name="multiply" unicode="&#xd7;" horiz-adv-x="571" 
d="M110 90l-83 96l173 152l-130 153l105 95l132 -155l174 152l84 -96l-175 -153l132 -153l-107 -94l-132 154z" />
    <glyph glyph-name="Oslash" unicode="&#xd8;" horiz-adv-x="819" 
d="M92 -32l-57 58l77 78q-68 81 -68 197q0 186 114.5 305t294.5 119q123 0 214 -57l70 72l57 -58l-65 -66q75 -83 75 -207q0 -187 -115 -304t-299 -117q-127 0 -218 62zM597 401q0 41 -10 70l-285 -290q38 -32 102 -32q90 0 141.5 72.5t51.5 179.5zM252 310q0 -32 6 -57
l281 286q-37 25 -92 26q-91 1 -143 -73t-52 -182z" />
    <glyph glyph-name="Ugrave" unicode="&#xd9;" horiz-adv-x="764" 
d="M391 759l-86 146h185l33 -146h-132zM369 -12q-166 0 -245 81.5t-54 238.5l65 407h205l-65 -413q-13 -78 10.5 -115.5t86.5 -37.5q58 0 85.5 33t39.5 107l67 426h207l-70 -444q-23 -145 -104 -214t-228 -69z" />
    <glyph glyph-name="Uacute" unicode="&#xda;" horiz-adv-x="764" 
d="M381 759l64 146h188l-115 -146h-137zM369 -12q-166 0 -245 81.5t-54 238.5l65 407h205l-65 -413q-13 -78 10.5 -115.5t86.5 -37.5q58 0 85.5 33t39.5 107l67 426h207l-70 -444q-23 -145 -104 -214t-228 -69z" />
    <glyph glyph-name="Ucircumflex" unicode="&#xdb;" horiz-adv-x="764" 
d="M262 759l131 146h150l93 -146h-125l-53 49l-64 -49h-132zM369 -12q-166 0 -245 81.5t-54 238.5l65 407h205l-65 -413q-13 -78 10.5 -115.5t86.5 -37.5q58 0 85.5 33t39.5 107l67 426h207l-70 -444q-23 -145 -104 -214t-228 -69z" />
    <glyph glyph-name="Udieresis" unicode="&#xdc;" horiz-adv-x="764" 
d="M369 -12q-166 0 -245 81.5t-54 238.5l65 407h205l-65 -413q-13 -78 10.5 -115.5t86.5 -37.5q58 0 85.5 33t39.5 107l67 426h207l-70 -444q-23 -145 -104 -214t-228 -69zM349 758q-35 0 -60 24.5t-25 58.5q0 35 25 59.5t60 24.5q36 0 61 -24t25 -59t-25 -59.5t-61 -24.5z
M572 758q-36 0 -60.5 24t-24.5 59t25 59.5t60 24.5q36 0 61 -24t25 -59t-25 -59.5t-61 -24.5z" />
    <glyph glyph-name="Yacute" unicode="&#xdd;" horiz-adv-x="678" 
d="M197 0l48 307l-168 408h214l86 -238l157 238h205l-289 -419l-46 -296h-207zM345 759l64 146h188l-115 -146h-137z" />
    <glyph glyph-name="Thorn" unicode="&#xde;" horiz-adv-x="652" 
d="M344 715l-19 -118h56q128 0 196.5 -52t67.5 -150q0 -123 -81 -191.5t-217 -68.5h-93l-21 -135h-206l113 715h204zM358 452h-55l-28 -177h65q53 0 81.5 27t28.5 78q0 72 -92 72z" />
    <glyph glyph-name="germandbls" unicode="&#xdf;" horiz-adv-x="633" 
d="M351 -10q-59 0 -109 18l22 132q24 -13 56 -13q107 0 107 131q0 54 -31.5 82.5t-89.5 26.5l21 133q48 1 77.5 22t29.5 64q0 32 -18.5 49.5t-51.5 17.5q-71 0 -85 -92l-89 -561h-179l88 554q17 111 88.5 164t182.5 53q105 0 168.5 -45.5t63.5 -131.5q0 -59 -37 -99.5
t-101 -58.5q65 -19 104 -69t39 -124q0 -116 -67.5 -184.5t-188.5 -68.5z" />
    <glyph glyph-name="agrave" unicode="&#xe0;" horiz-adv-x="578" 
d="M173 -12q-73 0 -119.5 39t-46.5 106q0 98 70.5 140.5t204.5 42.5h77l2 14q6 40 -7 60.5t-53 20.5q-61 0 -76 -62h-168q19 94 84.5 141t167.5 47q128 0 186 -57t40 -172l-23 -145q-16 -101 -8 -163h-173q-5 27 -3 65q-59 -77 -155 -77zM244 108q37 0 63 20.5t31 54.5l5 32
h-56q-55 0 -78.5 -13t-23.5 -45q0 -21 15.5 -35t43.5 -14zM260 583l-93 166h178l40 -166h-125z" />
    <glyph glyph-name="aacute" unicode="&#xe1;" horiz-adv-x="578" 
d="M173 -12q-73 0 -119.5 39t-46.5 106q0 98 70.5 140.5t204.5 42.5h77l2 14q6 40 -7 60.5t-53 20.5q-61 0 -76 -62h-168q19 94 84.5 141t167.5 47q128 0 186 -57t40 -172l-23 -145q-16 -101 -8 -163h-173q-5 27 -3 65q-59 -77 -155 -77zM244 108q37 0 63 20.5t31 54.5l5 32
h-56q-55 0 -78.5 -13t-23.5 -45q0 -21 15.5 -35t43.5 -14zM260 583l73 166h182l-125 -166h-130z" />
    <glyph glyph-name="acircumflex" unicode="&#xe2;" horiz-adv-x="578" 
d="M173 -12q-73 0 -119.5 39t-46.5 106q0 98 70.5 140.5t204.5 42.5h77l2 14q6 40 -7 60.5t-53 20.5q-61 0 -76 -62h-168q19 94 84.5 141t167.5 47q128 0 186 -57t40 -172l-23 -145q-16 -101 -8 -163h-173q-5 27 -3 65q-59 -77 -155 -77zM244 108q37 0 63 20.5t31 54.5l5 32
h-56q-55 0 -78.5 -13t-23.5 -45q0 -21 15.5 -35t43.5 -14zM136 585l144 163h128l96 -163h-120l-53 56l-68 -56h-127z" />
    <glyph glyph-name="atilde" unicode="&#xe3;" horiz-adv-x="578" 
d="M173 -12q-73 0 -119.5 39t-46.5 106q0 98 70.5 140.5t204.5 42.5h77l2 14q6 40 -7 60.5t-53 20.5q-61 0 -76 -62h-168q19 94 84.5 141t167.5 47q128 0 186 -57t40 -172l-23 -145q-16 -101 -8 -163h-173q-5 27 -3 65q-59 -77 -155 -77zM244 108q37 0 63 20.5t31 54.5l5 32
h-56q-55 0 -78.5 -13t-23.5 -45q0 -21 15.5 -35t43.5 -14zM394 587q-32 0 -69 16.5t-48 16.5q-27 0 -35 -32h-97q12 77 46 116.5t82 39.5q30 0 67.5 -17t51.5 -17q25 0 35 32h97q-13 -76 -48 -115.5t-82 -39.5z" />
    <glyph glyph-name="adieresis" unicode="&#xe4;" horiz-adv-x="578" 
d="M173 -12q-73 0 -119.5 39t-46.5 106q0 98 70.5 140.5t204.5 42.5h77l2 14q6 40 -7 60.5t-53 20.5q-61 0 -76 -62h-168q19 94 84.5 141t167.5 47q128 0 186 -57t40 -172l-23 -145q-16 -101 -8 -163h-173q-5 27 -3 65q-59 -77 -155 -77zM244 108q37 0 63 20.5t31 54.5l5 32
h-56q-55 0 -78.5 -13t-23.5 -45q0 -21 15.5 -35t43.5 -14zM224 580q-35 0 -60 24.5t-25 58.5q0 35 25 59.5t61 24.5q35 0 60 -24.5t25 -58.5q0 -35 -25 -59.5t-61 -24.5zM437 580q-36 0 -60.5 24t-24.5 59t24.5 59.5t60.5 24.5t61 -24t25 -59t-25 -59.5t-61 -24.5z" />
    <glyph glyph-name="aring" unicode="&#xe5;" horiz-adv-x="578" 
d="M173 -12q-73 0 -119.5 39t-46.5 106q0 98 70.5 140.5t204.5 42.5h77l2 14q6 40 -7 60.5t-53 20.5q-61 0 -76 -62h-168q19 94 84.5 141t167.5 47q128 0 186 -57t40 -172l-23 -145q-16 -101 -8 -163h-173q-5 27 -3 65q-59 -77 -155 -77zM244 108q37 0 63 20.5t31 54.5l5 32
h-56q-55 0 -78.5 -13t-23.5 -45q0 -21 15.5 -35t43.5 -14zM328 642q20 0 33.5 14.5t13.5 36.5t-12.5 35.5t-32.5 13.5t-33.5 -14.5t-13.5 -36.5t12.5 -35.5t32.5 -13.5zM328 578q-49 0 -83 33t-34 80q0 48 35 82t84 34t83 -33.5t34 -80.5q0 -48 -35 -81.5t-84 -33.5z" />
    <glyph glyph-name="ae" unicode="&#xe6;" horiz-adv-x="906" 
d="M515 216q0 -105 96 -105q70 0 90 62h169q-19 -90 -88.5 -137.5t-175.5 -47.5q-153 0 -213 97q-60 -97 -196 -97q-86 0 -138 39.5t-52 109.5q0 97 72 139.5t206 42.5h75l2 13q12 79 -62 79q-64 0 -79 -62h-168q17 94 86 141t169 47q118 0 164 -60q73 59 168 59
q128 0 193.5 -76t44.5 -214l-4 -25h-359v-5zM635 419q-81 0 -109 -100h185q7 100 -76 100zM244 108q38 0 63.5 20.5t31.5 58.5l5 31h-58q-54 0 -77.5 -14t-23.5 -47q0 -22 15 -35.5t44 -13.5z" />
    <glyph glyph-name="ccedilla" unicode="&#xe7;" horiz-adv-x="579" 
d="M226 -226q-52 0 -87 23.5t-39 69.5h85q4 -28 35 -28q13 0 23 8t10 25q0 28 -32 28q-15 0 -29 -10l-34 38l55 69q-87 18 -138 77.5t-51 154.5q0 138 82 222.5t212 84.5q108 0 174.5 -53.5t70.5 -161.5h-168q-4 41 -24 58.5t-57 17.5q-54 0 -82.5 -48t-28.5 -122
q0 -108 93 -108q38 0 63.5 22t32.5 64h161q-13 -104 -81.5 -160t-181.5 -56h-11l-28 -34q41 3 69.5 -18.5t28.5 -60.5q0 -50 -34.5 -76t-88.5 -26z" />
    <glyph glyph-name="egrave" unicode="&#xe8;" horiz-adv-x="595" 
d="M199 216q0 -105 98 -105q73 0 93 62h169q-19 -89 -89.5 -137t-177.5 -48q-119 0 -194 60.5t-75 176.5q0 139 84 225.5t214 86.5q131 0 199 -78t47 -214l-4 -25h-364v-4zM276 583l-93 166h178l40 -166h-125zM321 419q-81 0 -110 -98h188q8 98 -78 98z" />
    <glyph glyph-name="eacute" unicode="&#xe9;" horiz-adv-x="595" 
d="M199 216q0 -105 98 -105q73 0 93 62h169q-19 -89 -89.5 -137t-177.5 -48q-119 0 -194 60.5t-75 176.5q0 139 84 225.5t214 86.5q131 0 199 -78t47 -214l-4 -25h-364v-4zM265 583l73 166h182l-125 -166h-130zM321 419q-81 0 -110 -98h188q8 98 -78 98z" />
    <glyph glyph-name="ecircumflex" unicode="&#xea;" horiz-adv-x="595" 
d="M199 216q0 -105 98 -105q73 0 93 62h169q-19 -89 -89.5 -137t-177.5 -48q-119 0 -194 60.5t-75 176.5q0 139 84 225.5t214 86.5q131 0 199 -78t47 -214l-4 -25h-364v-4zM146 585l144 163h128l96 -163h-120l-53 56l-68 -56h-127zM321 419q-81 0 -110 -98h188q8 98 -78 98z
" />
    <glyph glyph-name="edieresis" unicode="&#xeb;" horiz-adv-x="595" 
d="M199 216q0 -105 98 -105q73 0 93 62h169q-19 -89 -89.5 -137t-177.5 -48q-119 0 -194 60.5t-75 176.5q0 139 84 225.5t214 86.5q131 0 199 -78t47 -214l-4 -25h-364v-4zM450 580q-36 0 -60.5 24t-24.5 59t24.5 59.5t60.5 24.5t61 -24t25 -59t-25 -59.5t-61 -24.5z
M237 580q-35 0 -60 24.5t-25 58.5q0 35 25 59.5t61 24.5q35 0 60 -24.5t25 -58.5q0 -35 -25 -59.5t-61 -24.5zM321 419q-81 0 -110 -98h188q8 98 -78 98z" />
    <glyph glyph-name="igrave" unicode="&#xec;" horiz-adv-x="295" 
d="M16 0l83 523h178l-82 -523h-179zM140 583l-93 166h178l40 -166h-125z" />
    <glyph glyph-name="iacute" unicode="&#xed;" horiz-adv-x="295" 
d="M125 583l73 166h182l-125 -166h-130zM16 0l83 523h178l-82 -523h-179z" />
    <glyph glyph-name="icircumflex" unicode="&#xee;" horiz-adv-x="295" 
d="M12 585l144 163h128l96 -163h-120l-53 56l-68 -56h-127zM16 0l83 523h178l-82 -523h-179z" />
    <glyph glyph-name="idieresis" unicode="&#xef;" horiz-adv-x="295" 
d="M107 580q-35 0 -60 24.5t-25 58.5q0 35 25 59.5t60 24.5q36 0 61 -24t25 -59t-25.5 -59.5t-60.5 -24.5zM316 580q-35 0 -60 24.5t-25 58.5q0 35 25 59.5t60 24.5q36 0 61 -24t25 -59t-25 -59.5t-61 -24.5zM16 0l83 523h178l-82 -523h-179z" />
    <glyph glyph-name="eth" unicode="&#xf0;" horiz-adv-x="620" 
d="M169 556l-21 63l118 41q-46 42 -113 93h211q32 -21 54 -39l111 39l21 -64l-79 -28q125 -139 125 -322q0 -154 -78.5 -252.5t-227.5 -98.5q-119 0 -193 63.5t-74 180.5q0 124 71.5 210.5t187.5 86.5q73 0 117 -48q-29 66 -82 127zM203 223q0 -46 22 -74t69 -28
q59 0 89.5 54t30.5 127q0 45 -22.5 73t-69.5 28q-58 0 -88.5 -51t-30.5 -129z" />
    <glyph glyph-name="ntilde" unicode="&#xf1;" horiz-adv-x="622" 
d="M11 0l55 352q16 100 19 171h175q0 -50 -5 -89q65 103 178 103q80 0 123 -55t25 -167l-50 -315h-179l47 302q15 90 -59 90q-42 0 -69.5 -26.5t-34.5 -76.5l-46 -289h-179zM419 587q-33 0 -69 16.5t-48 16.5q-27 0 -35 -32h-97q12 77 46 116.5t82 39.5q30 0 67.5 -17
t51.5 -17q25 0 35 32h97q-13 -76 -48 -115.5t-82 -39.5z" />
    <glyph glyph-name="ograve" unicode="&#xf2;" horiz-adv-x="615" 
d="M290 -12q-113 0 -189 62t-77 177q-1 134 84 221.5t218 87.5q114 0 190 -62.5t76 -178.5q0 -136 -84 -221.5t-218 -85.5zM293 121q58 0 88.5 50t30.5 131q0 45 -22.5 73t-66.5 28q-57 0 -88.5 -49.5t-31.5 -128.5q0 -45 21.5 -74.5t68.5 -29.5zM279 583l-93 166h178
l40 -166h-125z" />
    <glyph glyph-name="oacute" unicode="&#xf3;" horiz-adv-x="615" 
d="M265 583l73 166h182l-125 -166h-130zM290 -12q-113 0 -189 62t-77 177q-1 134 84 221.5t218 87.5q114 0 190 -62.5t76 -178.5q0 -136 -84 -221.5t-218 -85.5zM293 121q58 0 88.5 50t30.5 131q0 45 -22.5 73t-66.5 28q-57 0 -88.5 -49.5t-31.5 -128.5q0 -45 21.5 -74.5
t68.5 -29.5z" />
    <glyph glyph-name="ocircumflex" unicode="&#xf4;" horiz-adv-x="615" 
d="M151 585l144 163h128l96 -163h-120l-53 56l-68 -56h-127zM290 -12q-113 0 -189 62t-77 177q-1 134 84 221.5t218 87.5q114 0 190 -62.5t76 -178.5q0 -136 -84 -221.5t-218 -85.5zM293 121q58 0 88.5 50t30.5 131q0 45 -22.5 73t-66.5 28q-57 0 -88.5 -49.5t-31.5 -128.5
q0 -45 21.5 -74.5t68.5 -29.5z" />
    <glyph glyph-name="otilde" unicode="&#xf5;" horiz-adv-x="615" 
d="M290 -12q-113 0 -189 62t-77 177q-1 134 84 221.5t218 87.5q114 0 190 -62.5t76 -178.5q0 -136 -84 -221.5t-218 -85.5zM293 121q58 0 88.5 50t30.5 131q0 45 -22.5 73t-66.5 28q-57 0 -88.5 -49.5t-31.5 -128.5q0 -45 21.5 -74.5t68.5 -29.5zM408 587q-32 0 -69 16.5
t-48 16.5q-27 0 -35 -32h-97q12 77 46 116.5t82 39.5q30 0 67.5 -17t51.5 -17q25 0 35 32h97q-13 -76 -48 -115.5t-82 -39.5z" />
    <glyph glyph-name="odieresis" unicode="&#xf6;" horiz-adv-x="615" 
d="M243 580q-35 0 -60 24.5t-25 58.5q0 35 25 59.5t61 24.5q35 0 60 -24.5t25 -58.5q0 -35 -25 -59.5t-61 -24.5zM456 580q-36 0 -60.5 24t-24.5 59t24.5 59.5t60.5 24.5t61 -24t25 -59t-25 -59.5t-61 -24.5zM290 -12q-113 0 -189 62t-77 177q-1 134 84 221.5t218 87.5
q114 0 190 -62.5t76 -178.5q0 -136 -84 -221.5t-218 -85.5zM293 121q58 0 88.5 50t30.5 131q0 45 -22.5 73t-66.5 28q-57 0 -88.5 -49.5t-31.5 -128.5q0 -45 21.5 -74.5t68.5 -29.5z" />
    <glyph glyph-name="divide" unicode="&#xf7;" horiz-adv-x="572" 
d="M39 278l19 124h498l-19 -124h-498zM273 43q-40 0 -67 26.5t-27 65.5t27 66t66 27q41 0 68.5 -27t27.5 -66t-27 -65.5t-68 -26.5zM321 452q-40 0 -67 27t-27 66t26.5 65.5t66.5 26.5q41 0 68.5 -26.5t27.5 -65.5t-27 -66t-68 -27z" />
    <glyph glyph-name="oslash" unicode="&#xf8;" horiz-adv-x="615" 
d="M61 -39l-50 48l65 67q-52 62 -52 152q-1 134 84 221.5t218 87.5q90 0 158 -41l65 67l50 -48l-62 -64q55 -63 55 -157q0 -136 -84 -221t-218 -85q-93 0 -162 42zM294 119q59 0 91.5 50.5t32.5 130.5q0 10 -2 26l-185 -190q23 -17 63 -17zM197 228q0 -18 1 -26l182 187
q-25 15 -56 15q-60 0 -93.5 -48.5t-33.5 -127.5z" />
    <glyph glyph-name="ugrave" unicode="&#xf9;" horiz-adv-x="621" 
d="M606 523l-56 -360q-16 -100 -13 -163h-175q-3 38 1 79q-67 -91 -166 -91q-88 0 -132 54t-26 166l50 315h179l-49 -312q-14 -90 57 -90q87 0 104 104l47 298h179zM291 583l-93 166h178l40 -166h-125z" />
    <glyph glyph-name="uacute" unicode="&#xfa;" horiz-adv-x="621" 
d="M285 583l73 166h182l-125 -166h-130zM606 523l-56 -360q-16 -100 -13 -163h-175q-3 38 1 79q-67 -91 -166 -91q-88 0 -132 54t-26 166l50 315h179l-49 -312q-14 -90 57 -90q87 0 104 104l47 298h179z" />
    <glyph glyph-name="ucircumflex" unicode="&#xfb;" horiz-adv-x="621" 
d="M163 585l144 163h128l96 -163h-120l-53 56l-68 -56h-127zM606 523l-56 -360q-16 -100 -13 -163h-175q-3 38 1 79q-67 -91 -166 -91q-88 0 -132 54t-26 166l50 315h179l-49 -312q-14 -90 57 -90q87 0 104 104l47 298h179z" />
    <glyph glyph-name="udieresis" unicode="&#xfc;" horiz-adv-x="621" 
d="M251 580q-35 0 -60 24.5t-25 58.5q0 35 25 59.5t61 24.5q35 0 60 -24.5t25 -58.5q0 -35 -25 -59.5t-61 -24.5zM464 580q-36 0 -60.5 24t-24.5 59t24.5 59.5t60.5 24.5t61 -24t25 -59t-25 -59.5t-61 -24.5zM606 523l-56 -360q-16 -100 -13 -163h-175q-3 38 1 79
q-67 -91 -166 -91q-88 0 -132 54t-26 166l50 315h179l-49 -312q-14 -90 57 -90q87 0 104 104l47 298h179z" />
    <glyph glyph-name="yacute" unicode="&#xfd;" horiz-adv-x="577" 
d="M46 -175l127 234l-127 464h186l60 -281l141 281h178l-386 -698h-179zM271 583l73 166h182l-125 -166h-130z" />
    <glyph glyph-name="thorn" unicode="&#xfe;" horiz-adv-x="644" 
d="M-17 -175l147 928h179l-49 -313q57 97 175 97q81 0 133 -59.5t52 -166.5q0 -148 -70.5 -235.5t-182.5 -87.5q-61 0 -104.5 27.5t-58.5 71.5l-42 -262h-179zM317 123q53 0 85.5 48.5t32.5 126.5q0 51 -22 78.5t-64 27.5q-54 0 -89.5 -49.5t-35.5 -125.5q0 -51 24 -78.5
t69 -27.5z" />
    <glyph glyph-name="ydieresis" unicode="&#xff;" horiz-adv-x="577" 
d="M46 -175l127 234l-127 464h186l60 -281l141 281h178l-386 -698h-179zM243 580q-35 0 -60 24.5t-25 58.5q0 35 25 59.5t61 24.5q35 0 60 -24.5t25 -58.5q0 -35 -25 -59.5t-61 -24.5zM456 580q-36 0 -60.5 24t-24.5 59t24.5 59.5t60.5 24.5t61 -24t25 -59t-25 -59.5
t-61 -24.5z" />
    <glyph glyph-name="Amacron" unicode="&#x100;" horiz-adv-x="738" 
d="M476 0l-17 133h-237l-59 -133h-196l342 715h265l114 -715h-212zM285 771l16 107h322l-16 -107h-322zM406 549l-122 -275h157z" />
    <glyph glyph-name="amacron" unicode="&#x101;" horiz-adv-x="578" 
d="M173 -12q-73 0 -119.5 39t-46.5 106q0 98 70.5 140.5t204.5 42.5h77l2 14q6 40 -7 60.5t-53 20.5q-61 0 -76 -62h-168q19 94 84.5 141t167.5 47q128 0 186 -57t40 -172l-23 -145q-16 -101 -8 -163h-173q-5 27 -3 65q-59 -77 -155 -77zM244 108q37 0 63 20.5t31 54.5l5 32
h-56q-55 0 -78.5 -13t-23.5 -45q0 -21 15.5 -35t43.5 -14zM174 612l16 100h307l-15 -100h-308z" />
    <glyph glyph-name="Abreve" unicode="&#x102;" horiz-adv-x="738" 
d="M476 0l-17 133h-237l-59 -133h-196l342 715h265l114 -715h-212zM451 752q-77 0 -119 41t-43 112h115q3 -46 48 -46t53 46h115q-10 -72 -55.5 -112.5t-113.5 -40.5zM406 549l-122 -275h157z" />
    <glyph glyph-name="abreve" unicode="&#x103;" horiz-adv-x="578" 
d="M173 -12q-73 0 -119.5 39t-46.5 106q0 98 70.5 140.5t204.5 42.5h77l2 14q6 40 -7 60.5t-53 20.5q-61 0 -76 -62h-168q19 94 84.5 141t167.5 47q128 0 186 -57t40 -172l-23 -145q-16 -101 -8 -163h-173q-5 27 -3 65q-59 -77 -155 -77zM244 108q37 0 63 20.5t31 54.5l5 32
h-56q-55 0 -78.5 -13t-23.5 -45q0 -21 15.5 -35t43.5 -14zM337 588q-75 0 -117.5 42t-41.5 116h111q3 -48 50 -48q48 0 56 48h111q-10 -76 -55 -117t-114 -41z" />
    <glyph glyph-name="Aogonek" unicode="&#x104;" horiz-adv-x="738" 
d="M476 0l-17 133h-237l-59 -133h-196l342 715h265l112 -706q-65 -43 -65 -76q0 -24 29 -24q15 0 28 5l-13 -82q-32 -14 -77 -14q-49 0 -81 18.5t-32 60.5q0 36 28.5 62t67.5 41h-95zM406 549l-122 -275h157z" />
    <glyph glyph-name="aogonek" unicode="&#x105;" horiz-adv-x="578" 
d="M417 -182q-49 0 -81 18.5t-32 60.5q0 36 28 62.5t67 40.5h-68q-5 27 -3 65q-59 -77 -155 -77q-73 0 -119.5 39t-46.5 106q0 98 70.5 140.5t204.5 42.5h77l2 14q6 40 -7 60.5t-53 20.5q-61 0 -76 -62h-168q19 94 84.5 141t167.5 47q128 0 186 -57t40 -172l-23 -145
q-16 -96 -9 -158q-53 -42 -53 -72q0 -24 29 -24q15 0 28 5l-13 -82q-32 -14 -77 -14zM244 108q37 0 63 20.5t31 54.5l5 32h-56q-55 0 -78.5 -13t-23.5 -45q0 -21 15.5 -35t43.5 -14z" />
    <glyph glyph-name="Cacute" unicode="&#x106;" horiz-adv-x="762" 
d="M393 -12q-162 0 -255.5 81.5t-93.5 233.5q0 186 108.5 304.5t291.5 118.5q143 0 226 -70t88 -205h-206q-11 115 -114 115q-85 0 -131.5 -73t-48.5 -182q0 -74 33.5 -117.5t103.5 -43.5q111 0 142 119h203q-21 -135 -116.5 -208t-230.5 -73zM371 759l64 146h188l-115 -146
h-137z" />
    <glyph glyph-name="cacute" unicode="&#x107;" horiz-adv-x="579" 
d="M254 583l73 166h182l-125 -166h-130zM290 -11q-119 0 -192.5 62.5t-73.5 177.5q0 138 82 222.5t212 84.5q108 0 174.5 -53.5t70.5 -161.5h-168q-4 41 -24 58.5t-57 17.5q-54 0 -82.5 -48t-28.5 -122q0 -108 93 -108q38 0 63.5 22t32.5 64h161q-13 -104 -81.5 -160
t-181.5 -56z" />
    <glyph glyph-name="Ccircumflex" unicode="&#x108;" horiz-adv-x="762" 
d="M263 759l131 146h150l93 -146h-125l-53 49l-64 -49h-132zM393 -12q-162 0 -255.5 81.5t-93.5 233.5q0 186 108.5 304.5t291.5 118.5q143 0 226 -70t88 -205h-206q-11 115 -114 115q-85 0 -131.5 -73t-48.5 -182q0 -74 33.5 -117.5t103.5 -43.5q111 0 142 119h203
q-21 -135 -116.5 -208t-230.5 -73z" />
    <glyph glyph-name="ccircumflex" unicode="&#x109;" horiz-adv-x="579" 
d="M138 585l144 163h128l96 -163h-120l-53 56l-68 -56h-127zM290 -11q-119 0 -192.5 62.5t-73.5 177.5q0 138 82 222.5t212 84.5q108 0 174.5 -53.5t70.5 -161.5h-168q-4 41 -24 58.5t-57 17.5q-54 0 -82.5 -48t-28.5 -122q0 -108 93 -108q38 0 63.5 22t32.5 64h161
q-13 -104 -81.5 -160t-181.5 -56z" />
    <glyph glyph-name="Cdotaccent" unicode="&#x10a;" horiz-adv-x="762" 
d="M393 -12q-162 0 -255.5 81.5t-93.5 233.5q0 186 108.5 304.5t291.5 118.5q143 0 226 -70t88 -205h-206q-11 115 -114 115q-85 0 -131.5 -73t-48.5 -182q0 -74 33.5 -117.5t103.5 -43.5q111 0 142 119h203q-21 -135 -116.5 -208t-230.5 -73zM456 757q-41 0 -68 25.5
t-27 63.5t27.5 63.5t68.5 25.5q40 0 67.5 -25.5t27.5 -63.5t-27.5 -63.5t-68.5 -25.5z" />
    <glyph glyph-name="cdotaccent" unicode="&#x10b;" horiz-adv-x="579" 
d="M290 -11q-119 0 -192.5 62.5t-73.5 177.5q0 138 82 222.5t212 84.5q108 0 174.5 -53.5t70.5 -161.5h-168q-4 41 -24 58.5t-57 17.5q-54 0 -82.5 -48t-28.5 -122q0 -108 93 -108q38 0 63.5 22t32.5 64h161q-13 -104 -81.5 -160t-181.5 -56zM335 579q-41 0 -68 25t-27 63
t27.5 64t68.5 26q40 0 67.5 -25.5t27.5 -63.5q0 -39 -27.5 -64t-68.5 -25z" />
    <glyph glyph-name="Ccaron" unicode="&#x10c;" horiz-adv-x="762" 
d="M653 905l-132 -146h-150l-92 146h124l53 -49l65 49h132zM393 -12q-162 0 -255.5 81.5t-93.5 233.5q0 186 108.5 304.5t291.5 118.5q143 0 226 -70t88 -205h-206q-11 115 -114 115q-85 0 -131.5 -73t-48.5 -182q0 -74 33.5 -117.5t103.5 -43.5q111 0 142 119h203
q-21 -135 -116.5 -208t-230.5 -73z" />
    <glyph glyph-name="ccaron" unicode="&#x10d;" horiz-adv-x="579" 
d="M528 748l-145 -163h-127l-97 163h120l53 -56l68 56h128zM290 -11q-119 0 -192.5 62.5t-73.5 177.5q0 138 82 222.5t212 84.5q108 0 174.5 -53.5t70.5 -161.5h-168q-4 41 -24 58.5t-57 17.5q-54 0 -82.5 -48t-28.5 -122q0 -108 93 -108q38 0 63.5 22t32.5 64h161
q-13 -104 -81.5 -160t-181.5 -56z" />
    <glyph glyph-name="Dcaron" unicode="&#x10e;" horiz-adv-x="748" 
d="M611 905l-132 -146h-150l-92 146h124l53 -49l65 49h132zM27 0l113 715h231q179 0 271.5 -80t92.5 -224q0 -194 -113 -302.5t-304 -108.5h-291zM257 157h62q97 0 150.5 64t53.5 181q0 157 -156 157h-46z" />
    <glyph glyph-name="dcaron" unicode="&#x10f;" horiz-adv-x="641" 
d="M675 579l36 174h132l-75 -174h-93zM216 -12q-87 0 -140.5 59.5t-53.5 168.5q0 147 73 234t188 87q116 0 156 -86l48 302h180l-93 -590q-16 -103 -11 -163h-177q-4 23 -2 79q-58 -91 -168 -91zM293 122q55 0 89.5 48.5t34.5 128.5q0 50 -24 77.5t-66 27.5q-55 0 -88 -48.5
t-33 -126.5q0 -51 22.5 -79t64.5 -28z" />
    <glyph glyph-name="Dcroat" unicode="&#x110;" horiz-adv-x="766" 
d="M33 290l22 138h59l45 287h231q179 0 271 -79.5t93 -224.5q0 -194 -113.5 -302.5t-304.5 -108.5h-290l46 290h-59zM272 157h65q98 0 151 64t53 181q0 157 -156 157h-49l-21 -131h120l-22 -138h-120z" />
    <glyph glyph-name="dcroat" unicode="&#x111;" horiz-adv-x="641" 
d="M306 587l15 96h155l11 70h180l-11 -70h56l-15 -96h-56l-67 -424q-16 -103 -11 -163h-177q-4 23 -2 79q-58 -91 -168 -91q-87 0 -140.5 59.5t-53.5 168.5q0 147 73 234t188 87q116 0 156 -86l21 136h-154zM327 404q-55 0 -88 -48.5t-33 -126.5q0 -51 22.5 -79t64.5 -28
q55 0 89.5 48.5t34.5 128.5q0 50 -24 77.5t-66 27.5z" />
    <glyph glyph-name="Emacron" unicode="&#x112;" horiz-adv-x="614" 
d="M27 0l113 715h493l-25 -158h-289l-19 -123h230l-22 -144h-231l-21 -132h306l-25 -158h-510zM230 771l16 107h322l-16 -107h-322z" />
    <glyph glyph-name="emacron" unicode="&#x113;" horiz-adv-x="595" 
d="M199 216q0 -105 98 -105q73 0 93 62h169q-19 -89 -89.5 -137t-177.5 -48q-119 0 -194 60.5t-75 176.5q0 139 84 225.5t214 86.5q131 0 199 -78t47 -214l-4 -25h-364v-4zM185 612l16 100h307l-15 -100h-308zM321 419q-81 0 -110 -98h188q8 98 -78 98z" />
    <glyph glyph-name="Ebreve" unicode="&#x114;" horiz-adv-x="614" 
d="M27 0l113 715h493l-25 -158h-289l-19 -123h230l-22 -144h-231l-21 -132h306l-25 -158h-510zM396 752q-77 0 -119 41t-43 112h115q3 -46 48 -46t53 46h115q-10 -72 -55.5 -112.5t-113.5 -40.5z" />
    <glyph glyph-name="ebreve" unicode="&#x115;" horiz-adv-x="595" 
d="M199 216q0 -105 98 -105q73 0 93 62h169q-19 -89 -89.5 -137t-177.5 -48q-119 0 -194 60.5t-75 176.5q0 139 84 225.5t214 86.5q131 0 199 -78t47 -214l-4 -25h-364v-4zM342 587q-75 0 -117.5 42t-41.5 116h111q3 -48 50 -48q48 0 56 48h111q-10 -76 -55 -117t-114 -41z
M321 419q-81 0 -110 -98h188q8 98 -78 98z" />
    <glyph glyph-name="Edotaccent" unicode="&#x116;" horiz-adv-x="614" 
d="M393 757q-41 0 -68 25.5t-27 63.5t27.5 63.5t68.5 25.5q40 0 67.5 -25.5t27.5 -63.5t-27.5 -63.5t-68.5 -25.5zM27 0l113 715h493l-25 -158h-289l-19 -123h230l-22 -144h-231l-21 -132h306l-25 -158h-510z" />
    <glyph glyph-name="edotaccent" unicode="&#x117;" horiz-adv-x="595" 
d="M199 216q0 -105 98 -105q73 0 93 62h169q-19 -89 -89.5 -137t-177.5 -48q-119 0 -194 60.5t-75 176.5q0 139 84 225.5t214 86.5q131 0 199 -78t47 -214l-4 -25h-364v-4zM339 579q-41 0 -68 25t-27 63t27.5 64t68.5 26q40 0 67.5 -25.5t27.5 -63.5q0 -39 -27.5 -64
t-68.5 -25zM321 419q-81 0 -110 -98h188q8 98 -78 98z" />
    <glyph glyph-name="Eogonek" unicode="&#x118;" horiz-adv-x="614" 
d="M27 0l113 715h493l-25 -158h-289l-19 -123h230l-22 -144h-231l-21 -132h306l-25 -158h-37q-53 -37 -53 -68q0 -23 29 -23q15 0 28 5l-12 -82q-34 -14 -78 -14q-48 0 -80.5 18.5t-31.5 58.5q0 37 27.5 64t65.5 41h-368z" />
    <glyph glyph-name="eogonek" unicode="&#x119;" horiz-adv-x="595" 
d="M292 -12q-119 0 -194 60.5t-75 176.5q0 139 84 225.5t214 86.5q131 0 199 -78t47 -214l-4 -25h-364v-4q0 -105 98 -105q73 0 93 62h169q-17 -80 -79 -130q-8 -7 -40.5 -29t-50.5 -41t-18 -40q0 -24 29 -24q14 0 29 5l-13 -82q-34 -14 -78 -14q-48 0 -80.5 18t-31.5 58
q0 58 83 94h-17zM321 419q-81 0 -110 -98h188q8 98 -78 98z" />
    <glyph glyph-name="Ecaron" unicode="&#x11a;" horiz-adv-x="614" 
d="M590 905l-132 -146h-150l-92 146h124l53 -49l65 49h132zM27 0l113 715h493l-25 -158h-289l-19 -123h230l-22 -144h-231l-21 -132h306l-25 -158h-510z" />
    <glyph glyph-name="ecaron" unicode="&#x11b;" horiz-adv-x="595" 
d="M199 216q0 -105 98 -105q73 0 93 62h169q-19 -89 -89.5 -137t-177.5 -48q-119 0 -194 60.5t-75 176.5q0 139 84 225.5t214 86.5q131 0 199 -78t47 -214l-4 -25h-364v-4zM535 748l-145 -163h-127l-97 163h120l53 -56l68 56h128zM321 419q-81 0 -110 -98h188q8 98 -78 98z
" />
    <glyph glyph-name="Gcircumflex" unicode="&#x11c;" horiz-adv-x="788" 
d="M258 759l131 146h150l93 -146h-125l-53 49l-64 -49h-132zM401 -12q-166 0 -261 83t-95 236q0 181 114 300t291 118q88 0 156 -25.5t113.5 -86t49.5 -150.5h-204q-9 101 -123 101q-86 0 -135.5 -74t-49.5 -181q0 -78 37.5 -121.5t110.5 -43.5q124 0 147 108h-132l23 143
h335q-11 -205 -104.5 -306t-272.5 -101z" />
    <glyph glyph-name="gcircumflex" unicode="&#x11d;" horiz-adv-x="640" 
d="M169 585l144 163h128l96 -163h-120l-53 56l-68 -56h-127zM294 156q55 0 88.5 43t33.5 110q0 43 -24 69.5t-65 26.5q-55 0 -85.5 -43.5t-30.5 -103.5q0 -47 21 -74.5t62 -27.5zM628 523l-78 -493q-18 -116 -84.5 -170t-201.5 -54q-136 0 -203 54.5t-72 139.5h178
q4 -29 26.5 -48.5t65.5 -19.5q54 0 79.5 26t32.5 73l12 75q-51 -80 -157 -80q-90 0 -145 57.5t-55 162.5q0 128 71.5 209.5t183.5 81.5q116 0 156 -86l12 72h179z" />
    <glyph glyph-name="Gbreve" unicode="&#x11e;" horiz-adv-x="788" 
d="M455 752q-77 0 -119 41t-43 112h115q3 -46 48 -46t53 46h115q-10 -72 -55.5 -112.5t-113.5 -40.5zM401 -12q-166 0 -261 83t-95 236q0 181 114 300t291 118q88 0 156 -25.5t113.5 -86t49.5 -150.5h-204q-9 101 -123 101q-86 0 -135.5 -74t-49.5 -181q0 -78 37.5 -121.5
t110.5 -43.5q124 0 147 108h-132l23 143h335q-11 -205 -104.5 -306t-272.5 -101z" />
    <glyph glyph-name="gbreve" unicode="&#x11f;" horiz-adv-x="640" 
d="M294 156q55 0 88.5 43t33.5 110q0 43 -24 69.5t-65 26.5q-55 0 -85.5 -43.5t-30.5 -103.5q0 -47 21 -74.5t62 -27.5zM628 523l-78 -493q-18 -116 -84.5 -170t-201.5 -54q-136 0 -203 54.5t-72 139.5h178q4 -29 26.5 -48.5t65.5 -19.5q54 0 79.5 26t32.5 73l12 75
q-51 -80 -157 -80q-90 0 -145 57.5t-55 162.5q0 128 71.5 209.5t183.5 81.5q116 0 156 -86l12 72h179zM361 587q-75 0 -117.5 42t-41.5 116h111q3 -48 50 -48q48 0 56 48h111q-10 -76 -55 -117t-114 -41z" />
    <glyph glyph-name="Gdotaccent" unicode="&#x120;" horiz-adv-x="788" 
d="M451 757q-41 0 -68 25.5t-27 63.5t27.5 63.5t68.5 25.5q40 0 67.5 -25.5t27.5 -63.5t-27.5 -63.5t-68.5 -25.5zM401 -12q-166 0 -261 83t-95 236q0 181 114 300t291 118q88 0 156 -25.5t113.5 -86t49.5 -150.5h-204q-9 101 -123 101q-86 0 -135.5 -74t-49.5 -181
q0 -78 37.5 -121.5t110.5 -43.5q124 0 147 108h-132l23 143h335q-11 -205 -104.5 -306t-272.5 -101z" />
    <glyph glyph-name="gdotaccent" unicode="&#x121;" horiz-adv-x="640" 
d="M294 156q55 0 88.5 43t33.5 110q0 43 -24 69.5t-65 26.5q-55 0 -85.5 -43.5t-30.5 -103.5q0 -47 21 -74.5t62 -27.5zM628 523l-78 -493q-18 -116 -84.5 -170t-201.5 -54q-136 0 -203 54.5t-72 139.5h178q4 -29 26.5 -48.5t65.5 -19.5q54 0 79.5 26t32.5 73l12 75
q-51 -80 -157 -80q-90 0 -145 57.5t-55 162.5q0 128 71.5 209.5t183.5 81.5q116 0 156 -86l12 72h179zM357 579q-41 0 -68 25t-27 63t27.5 64t68.5 26q40 0 67.5 -25.5t27.5 -63.5q0 -39 -27.5 -64t-68.5 -25z" />
    <glyph glyph-name="Gcommaaccent" unicode="&#x122;" horiz-adv-x="788" 
d="M327 -232l-99 27l51 177l157 -19zM401 -12q-166 0 -261 83t-95 236q0 181 114 300t291 118q88 0 156 -25.5t113.5 -86t49.5 -150.5h-204q-9 101 -123 101q-86 0 -135.5 -74t-49.5 -181q0 -78 37.5 -121.5t110.5 -43.5q124 0 147 108h-132l23 143h335
q-11 -205 -104.5 -306t-272.5 -101z" />
    <glyph glyph-name="gcommaaccent" unicode="&#x123;" horiz-adv-x="640" 
d="M374 770l99 -27l-51 -177l-157 19zM294 156q55 0 88.5 43t33.5 110q0 43 -24 69.5t-65 26.5q-55 0 -85.5 -43.5t-30.5 -103.5q0 -47 21 -74.5t62 -27.5zM628 523l-78 -493q-18 -116 -84.5 -170t-201.5 -54q-136 0 -203 54.5t-72 139.5h178q4 -29 26.5 -48.5t65.5 -19.5
q54 0 79.5 26t32.5 73l12 75q-51 -80 -157 -80q-90 0 -145 57.5t-55 162.5q0 128 71.5 209.5t183.5 81.5q116 0 156 -86l12 72h179z" />
    <glyph glyph-name="Hcircumflex" unicode="&#x124;" horiz-adv-x="784" 
d="M27 0l113 715h206l-44 -273h236l43 273h205l-113 -715h-205l44 282h-235l-44 -282h-206zM276 759l131 146h150l93 -146h-125l-53 49l-64 -49h-132z" />
    <glyph glyph-name="hcircumflex" unicode="&#x125;" horiz-adv-x="622" 
d="M11 0l119 753h179l-49 -313q62 97 173 97q80 0 123 -55t25 -167l-50 -315h-179l47 302q15 90 -59 90q-42 0 -69.5 -26.5t-34.5 -76.5l-46 -289h-179zM202 792l131 146h150l93 -146h-125l-53 49l-64 -49h-132z" />
    <glyph glyph-name="Hbar" unicode="&#x126;" horiz-adv-x="784" 
d="M49 521l15 96h60l16 98h206l-16 -98h235l16 98h205l-16 -98h61l-16 -96h-60l-82 -521h-205l44 282h-235l-44 -282h-206l82 521h-60zM302 442h236l12 79h-236z" />
    <glyph glyph-name="hbar" unicode="&#x127;" horiz-adv-x="622" 
d="M47 587l15 96h57l11 70h179l-11 -70h155l-15 -96h-155l-23 -147q62 97 173 97q80 0 123 -55t25 -167l-50 -315h-179l47 302q14 90 -59 90q-42 0 -69.5 -26.5t-34.5 -76.5l-46 -289h-179l93 587h-57z" />
    <glyph glyph-name="Itilde" unicode="&#x128;" horiz-adv-x="353" 
d="M31 0l113 715h207l-113 -715h-207zM327 758q-33 0 -70 17t-49 17q-28 0 -36 -33h-101q12 76 48.5 114.5t85.5 38.5q30 0 68.5 -16.5t52.5 -16.5q26 0 36 32h101q-13 -75 -50.5 -114t-85.5 -39z" />
    <glyph glyph-name="itilde" unicode="&#x129;" horiz-adv-x="295" 
d="M16 0l83 523h178l-82 -523h-179zM270 587q-32 0 -69 16.5t-48 16.5q-27 0 -35 -32h-97q12 77 46 116.5t82 39.5q30 0 67.5 -17t51.5 -17q25 0 35 32h97q-13 -76 -48 -115.5t-82 -39.5z" />
    <glyph glyph-name="Imacron" unicode="&#x12a;" horiz-adv-x="353" 
d="M31 0l113 715h207l-113 -715h-207zM93 771l16 107h322l-16 -107h-322z" />
    <glyph glyph-name="imacron" unicode="&#x12b;" horiz-adv-x="295" 
d="M80 612l16 100h245l-16 -100h-245zM16 0l83 523h178l-82 -523h-179z" />
    <glyph glyph-name="Ibreve" unicode="&#x12c;" horiz-adv-x="353" 
d="M31 0l113 715h207l-113 -715h-207zM261 752q-77 0 -119 41t-43 112h115q3 -46 48 -46t53 46h115q-10 -72 -55.5 -112.5t-113.5 -40.5z" />
    <glyph glyph-name="ibreve" unicode="&#x12d;" horiz-adv-x="295" 
d="M16 0l83 523h178l-82 -523h-179zM204 587q-75 0 -117.5 42t-41.5 116h111q3 -48 50 -48q48 0 56 48h111q-10 -76 -55 -117t-114 -41z" />
    <glyph glyph-name="Iogonek" unicode="&#x12e;" horiz-adv-x="353" 
d="M139 -182q-49 0 -81 18.5t-32 60.5q0 36 28.5 62t67.5 41h-91l113 715h207l-111 -701q-68 -50 -68 -81q0 -24 29 -24q15 0 28 5l-13 -82q-32 -14 -77 -14z" />
    <glyph glyph-name="iogonek" unicode="&#x12f;" horiz-adv-x="295" 
d="M16 0l83 523h178l-80 -510q-67 -47 -67 -80q0 -24 28 -24q15 0 28 5l-13 -82q-32 -14 -77 -14q-48 0 -80 18.5t-32 60.5q0 36 28 62.5t67 40.5h-63zM208 574q-42 0 -69 25.5t-27 65.5q0 39 27.5 65.5t69.5 26.5q41 0 68.5 -26t27.5 -65q0 -40 -28 -66t-69 -26z" />
    <glyph glyph-name="Idotaccent" unicode="&#x130;" horiz-adv-x="353" 
d="M31 0l113 715h207l-113 -715h-207zM258 757q-41 0 -68 25.5t-27 63.5t27.5 63.5t68.5 25.5q40 0 67.5 -25.5t27.5 -63.5t-27.5 -63.5t-68.5 -25.5z" />
    <glyph glyph-name="dotlessi" unicode="&#x131;" horiz-adv-x="295" 
d="M16 0l83 523h178l-82 -523h-179z" />
    <glyph glyph-name="IJ" unicode="&#x132;" horiz-adv-x="804" 
d="M17 0l113 715h207l-113 -715h-207zM456 -9q-90 0 -152 30l25 152q44 -19 92 -19q85 0 99 88l75 473h206l-76 -482q-39 -242 -269 -242z" />
    <glyph glyph-name="ij" unicode="&#x133;" horiz-adv-x="591" 
d="M208 574q-42 0 -69 25.5t-27 65.5q0 39 27.5 65.5t69.5 26.5q41 0 68.5 -26t27.5 -65q0 -40 -28 -66t-69 -26zM16 0l83 523h178l-82 -523h-179zM219 -183l19 129q65 3 73 59l82 518h179l-85 -535q-6 -40 -21.5 -71t-45.5 -55.5t-80.5 -36t-120.5 -8.5zM502 574
q-42 0 -69 25.5t-27 65.5q0 39 27.5 65.5t69.5 26.5q41 0 68.5 -26t27.5 -65q0 -40 -28 -66t-69 -26z" />
    <glyph glyph-name="Jcircumflex" unicode="&#x134;" horiz-adv-x="478" 
d="M201 759l131 146h150l93 -146h-125l-53 49l-64 -49h-132zM145 -9q-90 0 -152 30l25 152q44 -19 92 -19q85 0 99 88l75 473h206l-76 -482q-39 -242 -269 -242z" />
    <glyph glyph-name="jcircumflex" unicode="&#x135;" horiz-adv-x="295" 
d="M-76 -183l19 129q65 3 73 59l82 518h179l-85 -535q-6 -40 -21.5 -71t-45.5 -55.5t-80.5 -36t-120.5 -8.5zM6 585l144 163h128l96 -163h-120l-53 56l-68 -56h-127z" />
    <glyph glyph-name="Kcommaaccent" unicode="&#x136;" horiz-adv-x="726" 
d="M27 0l113 715h206l-45 -284l264 284h220l-324 -342l213 -373h-221l-171 311l-49 -311h-206zM299 -232l-99 27l51 177l157 -19z" />
    <glyph glyph-name="kcommaaccent" unicode="&#x137;" horiz-adv-x="576" 
d="M11 0l119 753h179l-70 -439l175 209h194l-216 -242l140 -281h-193l-111 240l-38 -240h-179zM236 -232l-99 27l51 177l157 -19z" />
    <glyph glyph-name="Lacute" unicode="&#x139;" horiz-adv-x="575" 
d="M168 759l64 146h188l-115 -146h-137zM27 0l113 715h206l-88 -556h270l-25 -159h-476z" />
    <glyph glyph-name="lacute" unicode="&#x13a;" horiz-adv-x="293" 
d="M151 792l64 146h188l-115 -146h-137zM16 0l118 753h179l-119 -753h-178z" />
    <glyph glyph-name="Lcommaaccent" unicode="&#x13b;" horiz-adv-x="575" 
d="M230 -232l-99 27l51 177l157 -19zM27 0l113 715h206l-88 -556h270l-25 -159h-476z" />
    <glyph glyph-name="lcommaaccent" unicode="&#x13c;" horiz-adv-x="293" 
d="M70 -232l-99 27l51 177l157 -19zM16 0l118 753h179l-119 -753h-178z" />
    <glyph glyph-name="Lcaron" unicode="&#x13d;" horiz-adv-x="575" 
d="M404 539l43 176h148l-87 -176h-104zM27 0l113 715h206l-88 -556h270l-25 -159h-476z" />
    <glyph glyph-name="lcaron" unicode="&#x13e;" horiz-adv-x="293" 
d="M322 579l36 174h132l-75 -174h-93zM16 0l118 753h179l-119 -753h-178z" />
    <glyph glyph-name="Ldot" unicode="&#x13f;" horiz-adv-x="601" 
d="M27 0l113 715h206l-88 -556h270l-25 -159h-476zM505 299q-43 0 -72.5 29.5t-29.5 71.5t29 71.5t72 29.5q45 0 75.5 -29.5t30.5 -71.5t-30 -71.5t-75 -29.5z" />
    <glyph glyph-name="ldot" unicode="&#x140;" horiz-adv-x="455" 
d="M16 0l118 753h179l-119 -753h-178zM386 258q-43 0 -72.5 29.5t-29.5 71.5t29 71.5t72 29.5q45 0 75.5 -29.5t30.5 -71.5t-30 -71.5t-75 -29.5z" />
    <glyph glyph-name="Lslash" unicode="&#x141;" horiz-adv-x="593" 
d="M19 227l16 112l68 22l56 354h205l-45 -284l190 62l-18 -112l-190 -62l-25 -160h270l-24 -159h-476l39 248z" />
    <glyph glyph-name="lslash" unicode="&#x142;" horiz-adv-x="333" 
d="M16 261l18 118l66 29l54 345h179l-41 -261l69 31l-19 -119l-69 -31l-59 -373h-178l45 289z" />
    <glyph glyph-name="Nacute" unicode="&#x143;" horiz-adv-x="777" 
d="M397 759l64 146h188l-115 -146h-137zM27 0l113 715h234l159 -402l64 402h182l-113 -715h-200l-186 449l-70 -449h-183z" />
    <glyph glyph-name="nacute" unicode="&#x144;" horiz-adv-x="622" 
d="M280 583l73 166h182l-125 -166h-130zM11 0l55 352q16 100 19 171h175q0 -50 -5 -89q65 103 178 103q80 0 123 -55t25 -167l-50 -315h-179l47 302q15 90 -59 90q-42 0 -69.5 -26.5t-34.5 -76.5l-46 -289h-179z" />
    <glyph glyph-name="Ncommaaccent" unicode="&#x145;" horiz-adv-x="777" 
d="M314 -232l-99 27l51 177l157 -19zM27 0l113 715h234l159 -402l64 402h182l-113 -715h-200l-186 449l-70 -449h-183z" />
    <glyph glyph-name="ncommaaccent" unicode="&#x146;" horiz-adv-x="620" 
d="M237 -232l-99 27l51 177l157 -19zM11 0l55 352q16 100 19 171h175q0 -50 -5 -89q65 103 178 103q80 0 123 -55t25 -167l-50 -315h-179l47 302q15 90 -59 90q-42 0 -69.5 -26.5t-34.5 -76.5l-46 -289h-179z" />
    <glyph glyph-name="Ncaron" unicode="&#x147;" horiz-adv-x="777" 
d="M680 905l-132 -146h-150l-92 146h124l53 -49l65 49h132zM27 0l113 715h234l159 -402l64 402h182l-113 -715h-200l-186 449l-70 -449h-183z" />
    <glyph glyph-name="ncaron" unicode="&#x148;" horiz-adv-x="622" 
d="M553 748l-145 -163h-127l-97 163h120l53 -56l68 56h128zM11 0l55 352q16 100 19 171h175q0 -50 -5 -89q65 103 178 103q80 0 123 -55t25 -167l-50 -315h-179l47 302q15 90 -59 90q-42 0 -69.5 -26.5t-34.5 -76.5l-46 -289h-179z" />
    <glyph glyph-name="napostrophe" unicode="&#x149;" horiz-adv-x="741" 
d="M98 428l-98 38l100 262l155 -53zM131 0l55 352q16 100 19 171h175q0 -50 -5 -89q65 103 178 103q80 0 123 -55t25 -167l-50 -315h-179l47 302q15 90 -59 90q-42 0 -69.5 -26.5t-34.5 -76.5l-46 -289h-179z" />
    <glyph glyph-name="Eng" unicode="&#x14a;" horiz-adv-x="777" 
d="M377 -38q67 0 87 53l-181 441l-71 -456h-185l113 715h233l158 -404l64 404h184l-111 -698q-33 -209 -257 -209q-82 0 -134 24l23 145q39 -15 77 -15z" />
    <glyph glyph-name="eng" unicode="&#x14b;" horiz-adv-x="622" 
d="M11 0l55 352q16 100 19 171h175q0 -50 -5 -89q65 103 178 103q80 0 123 -55t25 -167l-52 -327q-13 -85 -73 -131t-195 -40l19 129q65 3 73 59l46 297q15 90 -59 90q-42 0 -69.5 -26.5t-34.5 -76.5l-46 -289h-179z" />
    <glyph glyph-name="Omacron" unicode="&#x14c;" horiz-adv-x="819" 
d="M309 771l16 107h322l-16 -107h-322zM804 409q0 -187 -115 -304t-299 -117q-148 0 -247 84t-99 229q0 186 114.5 305t294.5 119q154 0 252.5 -83.5t98.5 -232.5zM591 402q0 72 -36 117t-108 46q-89 1 -139.5 -74t-50.5 -182q0 -73 38 -116.5t109 -43.5q88 0 137.5 74
t49.5 179z" />
    <glyph glyph-name="omacron" unicode="&#x14d;" horiz-adv-x="615" 
d="M189 612l16 100h307l-15 -100h-308zM290 -12q-113 0 -189 62t-77 177q-1 134 84 221.5t218 87.5q114 0 190 -62.5t76 -178.5q0 -136 -84 -221.5t-218 -85.5zM293 121q58 0 88.5 50t30.5 131q0 45 -22.5 73t-66.5 28q-57 0 -88.5 -49.5t-31.5 -128.5q0 -45 21.5 -74.5
t68.5 -29.5z" />
    <glyph glyph-name="Obreve" unicode="&#x14e;" horiz-adv-x="819" 
d="M477 752q-77 0 -119 41t-43 112h115q3 -46 48 -46t53 46h115q-10 -72 -55.5 -112.5t-113.5 -40.5zM804 409q0 -187 -115 -304t-299 -117q-148 0 -247 84t-99 229q0 186 114.5 305t294.5 119q154 0 252.5 -83.5t98.5 -232.5zM591 402q0 72 -36 117t-108 46
q-89 1 -139.5 -74t-50.5 -182q0 -73 38 -116.5t109 -43.5q88 0 137.5 74t49.5 179z" />
    <glyph glyph-name="obreve" unicode="&#x14f;" horiz-adv-x="615" 
d="M290 -12q-113 0 -189 62t-77 177q-1 134 84 221.5t218 87.5q114 0 190 -62.5t76 -178.5q0 -136 -84 -221.5t-218 -85.5zM293 121q58 0 88.5 50t30.5 131q0 45 -22.5 73t-66.5 28q-57 0 -88.5 -49.5t-31.5 -128.5q0 -45 21.5 -74.5t68.5 -29.5zM343 587q-75 0 -117.5 42
t-41.5 116h111q3 -48 50 -48q48 0 56 48h111q-10 -76 -55 -117t-114 -41z" />
    <glyph glyph-name="Ohungarumlaut" unicode="&#x150;" horiz-adv-x="819" 
d="M310 759l55 146h153l-89 -146h-119zM504 759l55 146h154l-89 -146h-120zM804 409q0 -187 -115 -304t-299 -117q-148 0 -247 84t-99 229q0 186 114.5 305t294.5 119q154 0 252.5 -83.5t98.5 -232.5zM591 402q0 72 -36 117t-108 46q-89 1 -139.5 -74t-50.5 -182
q0 -73 38 -116.5t109 -43.5q88 0 137.5 74t49.5 179z" />
    <glyph glyph-name="ohungarumlaut" unicode="&#x151;" horiz-adv-x="615" 
d="M193 583l63 166h141l-97 -166h-107zM371 583l62 166h141l-97 -166h-106zM290 -12q-113 0 -189 62t-77 177q-1 134 84 221.5t218 87.5q114 0 190 -62.5t76 -178.5q0 -136 -84 -221.5t-218 -85.5zM293 121q58 0 88.5 50t30.5 131q0 45 -22.5 73t-66.5 28q-57 0 -88.5 -49.5
t-31.5 -128.5q0 -45 21.5 -74.5t68.5 -29.5z" />
    <glyph glyph-name="OE" unicode="&#x152;" horiz-adv-x="984" 
d="M909 0h-506q-177 0 -267.5 78t-91.5 222q0 194 114 304.5t304 110.5h543l-25 -158h-274l-19 -123h215l-22 -144h-216l-21 -132h291zM504 558h-43q-98 0 -151 -66t-53 -184q0 -152 157 -152h26z" />
    <glyph glyph-name="oe" unicode="&#x153;" horiz-adv-x="979" 
d="M583 216q0 -105 98 -105q73 0 93 62h169q-19 -89 -89.5 -137t-177.5 -48q-129 0 -193 77q-77 -77 -193 -77q-113 0 -189 62.5t-77 177.5q-1 134 84 221t218 87q121 0 189 -80q76 81 190 81q131 0 199 -78t47 -214l-4 -25h-364v-4zM293 121q58 0 88.5 50t30.5 131
q0 45 -22.5 73t-66.5 28q-57 0 -88.5 -49.5t-31.5 -128.5q0 -45 21.5 -74.5t68.5 -29.5zM705 419q-81 0 -110 -98h188q8 98 -78 98z" />
    <glyph glyph-name="Racute" unicode="&#x154;" horiz-adv-x="697" 
d="M314 759l64 146h188l-115 -146h-137zM27 0l113 715h272q129 0 196 -53.5t66 -149.5q0 -87 -45 -142t-120 -75l135 -295h-208l-117 256h-48l-40 -256h-204zM293 389h72q109 0 109 98q1 37 -21.5 55.5t-67.5 18.5h-65z" />
    <glyph glyph-name="racute" unicode="&#x155;" horiz-adv-x="429" 
d="M218 583l73 166h182l-125 -166h-130zM11 0l55 352q17 104 18 171h175q0 -52 -7 -111q32 62 77 90.5t113 27.5l-26 -167q-85 3 -131 -27t-58 -105l-37 -231h-179z" />
    <glyph glyph-name="Rcommaaccent" unicode="&#x156;" horiz-adv-x="697" 
d="M289 -232l-99 27l51 177l157 -19zM27 0l113 715h272q129 0 196 -53.5t66 -149.5q0 -87 -45 -142t-120 -75l135 -295h-208l-117 256h-48l-40 -256h-204zM293 389h72q109 0 109 98q1 37 -21.5 55.5t-67.5 18.5h-65z" />
    <glyph glyph-name="rcommaaccent" unicode="&#x157;" horiz-adv-x="429" 
d="M64 -232l-99 27l51 177l157 -19zM11 0l55 352q17 104 18 171h175q0 -52 -7 -111q32 62 77 90.5t113 27.5l-26 -167q-85 3 -131 -27t-58 -105l-37 -231h-179z" />
    <glyph glyph-name="Rcaron" unicode="&#x158;" horiz-adv-x="697" 
d="M594 905l-132 -146h-150l-92 146h124l53 -49l65 49h132zM27 0l113 715h272q129 0 196 -53.5t66 -149.5q0 -87 -45 -142t-120 -75l135 -295h-208l-117 256h-48l-40 -256h-204zM293 389h72q109 0 109 98q1 37 -21.5 55.5t-67.5 18.5h-65z" />
    <glyph glyph-name="rcaron" unicode="&#x159;" horiz-adv-x="429" 
d="M488 748l-145 -163h-127l-97 163h120l53 -56l68 56h128zM11 0l55 352q17 104 18 171h175q0 -52 -7 -111q32 62 77 90.5t113 27.5l-26 -167q-85 3 -131 -27t-58 -105l-37 -231h-179z" />
    <glyph glyph-name="Sacute" unicode="&#x15a;" horiz-adv-x="647" 
d="M314 -12q-145 0 -223.5 63t-77.5 176h193q2 -41 29 -67t84 -26q46 -1 70 18t24 55q0 26 -22 41.5t-79 27.5q-131 28 -184 75.5t-53 136.5q0 103 77 170t210 67q130 0 201 -55.5t70 -167.5h-187q-6 77 -90 77q-41 0 -62 -17.5t-21 -47.5q0 -25 21 -38.5t80 -26.5
q126 -27 183 -75t57 -137q0 -112 -78.5 -180t-221.5 -69zM304 759l64 146h188l-115 -146h-137z" />
    <glyph glyph-name="sacute" unicode="&#x15b;" horiz-adv-x="513" 
d="M216 583l73 166h182l-125 -166h-130zM231 -13q-110 0 -172 45.5t-63 133.5h166q5 -59 74 -59q61 0 61 42q0 20 -17.5 30t-71.5 20q-89 17 -130 54t-41 103q0 88 65 135t169 46q213 0 223 -169h-163q-2 23 -19 37.5t-46 14.5q-60 0 -60 -39q0 -18 18 -27.5t64 -20.5
q102 -20 144 -56t42 -109q0 -89 -66.5 -135t-176.5 -46z" />
    <glyph glyph-name="Scircumflex" unicode="&#x15c;" horiz-adv-x="647" 
d="M196 759l131 146h150l93 -146h-125l-53 49l-64 -49h-132zM314 -12q-145 0 -223.5 63t-77.5 176h193q2 -41 29 -67t84 -26q46 -1 70 18t24 55q0 26 -22 41.5t-79 27.5q-131 28 -184 75.5t-53 136.5q0 103 77 170t210 67q130 0 201 -55.5t70 -167.5h-187q-6 77 -90 77
q-41 0 -62 -17.5t-21 -47.5q0 -25 21 -38.5t80 -26.5q126 -27 183 -75t57 -137q0 -112 -78.5 -180t-221.5 -69z" />
    <glyph glyph-name="scircumflex" unicode="&#x15d;" horiz-adv-x="513" 
d="M101 585l144 163h128l96 -163h-120l-53 56l-68 -56h-127zM231 -13q-110 0 -172 45.5t-63 133.5h166q5 -59 74 -59q61 0 61 42q0 20 -17.5 30t-71.5 20q-89 17 -130 54t-41 103q0 88 65 135t169 46q213 0 223 -169h-163q-2 23 -19 37.5t-46 14.5q-60 0 -60 -39
q0 -18 18 -27.5t64 -20.5q102 -20 144 -56t42 -109q0 -89 -66.5 -135t-176.5 -46z" />
    <glyph glyph-name="Scedilla" unicode="&#x15e;" horiz-adv-x="647" 
d="M255 -226q-52 0 -87 23.5t-39 69.5h85q4 -28 35 -28q13 0 23 8t10 25q0 28 -32 28q-15 0 -29 -10l-34 38l52 65q-110 15 -168.5 76t-57.5 158h193q2 -41 29 -67t84 -26q46 -1 70 18t24 55q0 26 -22 41.5t-79 27.5q-131 28 -184 75.5t-53 136.5q0 103 77 170t210 67
q130 0 201 -55.5t70 -167.5h-187q-6 77 -90 77q-41 0 -62 -17.5t-21 -47.5q0 -25 21 -38.5t80 -26.5q126 -27 183 -75t57 -137q0 -112 -78.5 -180t-221.5 -69h-7l-27 -33q41 3 69.5 -18.5t28.5 -60.5q0 -50 -34.5 -76t-88.5 -26z" />
    <glyph glyph-name="scedilla" unicode="&#x15f;" horiz-adv-x="513" 
d="M194 -226q-52 0 -87 23.5t-39 69.5h85q4 -28 35 -28q13 0 23 8t10 25q0 28 -32 28q-15 0 -29 -10l-34 38l50 63q-85 10 -132 54t-48 121h166q5 -59 74 -59q61 0 61 42q0 20 -17.5 30t-71.5 20q-89 17 -130 54t-41 103q0 88 65 135t169 46q213 0 223 -169h-163
q-2 23 -19 37.5t-46 14.5q-60 0 -60 -39q0 -18 18 -27.5t64 -20.5q102 -20 144 -56t42 -109q0 -86 -62.5 -132t-166.5 -49l-26 -32q41 3 69.5 -18.5t28.5 -60.5q0 -50 -34.5 -76t-88.5 -26z" />
    <glyph glyph-name="Scaron" unicode="&#x160;" horiz-adv-x="647" 
d="M574 905l-132 -146h-150l-92 146h124l53 -49l65 49h132zM314 -12q-145 0 -223.5 63t-77.5 176h193q2 -41 29 -67t84 -26q46 -1 70 18t24 55q0 26 -22 41.5t-79 27.5q-131 28 -184 75.5t-53 136.5q0 103 77 170t210 67q130 0 201 -55.5t70 -167.5h-187q-6 77 -90 77
q-41 0 -62 -17.5t-21 -47.5q0 -25 21 -38.5t80 -26.5q126 -27 183 -75t57 -137q0 -112 -78.5 -180t-221.5 -69z" />
    <glyph glyph-name="scaron" unicode="&#x161;" horiz-adv-x="513" 
d="M487 748l-145 -163h-127l-97 163h120l53 -56l68 56h128zM231 -13q-110 0 -172 45.5t-63 133.5h166q5 -59 74 -59q61 0 61 42q0 20 -17.5 30t-71.5 20q-89 17 -130 54t-41 103q0 88 65 135t169 46q213 0 223 -169h-163q-2 23 -19 37.5t-46 14.5q-60 0 -60 -39
q0 -18 18 -27.5t64 -20.5q102 -20 144 -56t42 -109q0 -89 -66.5 -135t-176.5 -46z" />
    <glyph glyph-name="Tcommaaccent" unicode="&#x162;" horiz-adv-x="618" 
d="M239 -232l-99 27l51 177l157 -19zM164 0l87 557h-185l26 158h576l-26 -158h-185l-87 -557h-206z" />
    <glyph glyph-name="tcommaaccent" unicode="&#x163;" horiz-adv-x="385" 
d="M145 -232l-99 27l51 177l157 -19zM224 -12q-193 0 -162 197l34 216h-63l19 122h63l18 109h179l-17 -109h101l-18 -122h-102l-34 -211q-5 -33 6.5 -46.5t39.5 -13.5q24 0 50 9l-21 -135q-39 -16 -93 -16z" />
    <glyph glyph-name="Tcaron" unicode="&#x164;" horiz-adv-x="618" 
d="M585 905l-132 -146h-150l-92 146h124l53 -49l65 49h132zM164 0l87 557h-185l26 158h576l-26 -158h-185l-87 -557h-206z" />
    <glyph glyph-name="tcaron" unicode="&#x165;" horiz-adv-x="385" 
d="M351 579l36 174h132l-75 -174h-93zM224 -12q-193 0 -162 197l34 216h-63l19 122h63l18 109h179l-17 -109h101l-18 -122h-102l-34 -211q-5 -33 6.5 -46.5t39.5 -13.5q24 0 50 9l-21 -135q-39 -16 -93 -16z" />
    <glyph glyph-name="Tbar" unicode="&#x166;" horiz-adv-x="618" 
d="M82 279l20 128h125l24 150h-185l26 158h576l-26 -158h-185l-24 -150h127l-20 -128h-127l-43 -279h-206l43 279h-125z" />
    <glyph glyph-name="tbar" unicode="&#x167;" horiz-adv-x="385" 
d="M6 233l16 99h63l11 69h-63l19 122h63l18 109h179l-17 -109h101l-18 -122h-102l-11 -69h102l-17 -99h-101l-7 -43q-5 -33 6.5 -46.5t39.5 -13.5q24 0 50 9l-21 -135q-39 -16 -93 -16q-193 0 -162 197l7 48h-63z" />
    <glyph glyph-name="Utilde" unicode="&#x168;" horiz-adv-x="764" 
d="M369 -12q-166 0 -245 81.5t-54 238.5l65 407h205l-65 -413q-13 -78 10.5 -115.5t86.5 -37.5q58 0 85.5 33t39.5 107l67 426h207l-70 -444q-23 -145 -104 -214t-228 -69zM520 758q-33 0 -70.5 17t-48.5 17q-28 0 -36 -33h-101q12 76 48.5 114.5t85.5 38.5q30 0 68.5 -16.5
t52.5 -16.5q26 0 36 32h101q-13 -75 -50.5 -114t-85.5 -39z" />
    <glyph glyph-name="utilde" unicode="&#x169;" horiz-adv-x="621" 
d="M606 523l-56 -360q-16 -100 -13 -163h-175q-3 38 1 79q-67 -91 -166 -91q-88 0 -132 54t-26 166l50 315h179l-49 -312q-14 -90 57 -90q87 0 104 104l47 298h179zM418 587q-32 0 -69 16.5t-48 16.5q-27 0 -35 -32h-97q12 77 46 116.5t82 39.5q30 0 67.5 -17t51.5 -17
q25 0 35 32h97q-13 -76 -48 -115.5t-82 -39.5z" />
    <glyph glyph-name="Umacron" unicode="&#x16a;" horiz-adv-x="764" 
d="M369 -12q-166 0 -245 81.5t-54 238.5l65 407h205l-65 -413q-13 -78 10.5 -115.5t86.5 -37.5q58 0 85.5 33t39.5 107l67 426h207l-70 -444q-23 -145 -104 -214t-228 -69zM299 771l16 107h322l-16 -107h-322z" />
    <glyph glyph-name="umacron" unicode="&#x16b;" horiz-adv-x="621" 
d="M606 523l-56 -360q-16 -100 -13 -163h-175q-3 38 1 79q-67 -91 -166 -91q-88 0 -132 54t-26 166l50 315h179l-49 -312q-14 -90 57 -90q87 0 104 104l47 298h179zM197 612l16 100h307l-15 -100h-308z" />
    <glyph glyph-name="Ubreve" unicode="&#x16c;" horiz-adv-x="764" 
d="M369 -12q-166 0 -245 81.5t-54 238.5l65 407h205l-65 -413q-13 -78 10.5 -115.5t86.5 -37.5q58 0 85.5 33t39.5 107l67 426h207l-70 -444q-23 -145 -104 -214t-228 -69zM460 752q-77 0 -119 41t-43 112h115q3 -46 48 -46t53 46h115q-10 -72 -55.5 -112.5t-113.5 -40.5z
" />
    <glyph glyph-name="ubreve" unicode="&#x16d;" horiz-adv-x="621" 
d="M606 523l-56 -360q-16 -100 -13 -163h-175q-3 38 1 79q-67 -91 -166 -91q-88 0 -132 54t-26 166l50 315h179l-49 -312q-14 -90 57 -90q87 0 104 104l47 298h179zM361 587q-75 0 -117.5 42t-41.5 116h111q3 -48 50 -48q48 0 56 48h111q-10 -76 -55 -117t-114 -41z" />
    <glyph glyph-name="Uring" unicode="&#x16e;" horiz-adv-x="764" 
d="M369 -12q-166 0 -245 81.5t-54 238.5l65 407h205l-65 -413q-13 -78 10.5 -115.5t86.5 -37.5q58 0 85.5 33t39.5 107l67 426h207l-70 -444q-23 -145 -104 -214t-228 -69zM460 790q20 0 33.5 14.5t13.5 36.5q0 23 -12.5 36.5t-32.5 13.5q-21 0 -34 -14t-13 -37
q0 -22 12.5 -36t32.5 -14zM460 724q-49 0 -84 34t-35 82t35.5 82t85.5 34q49 0 84 -33.5t35 -81.5t-35.5 -82.5t-85.5 -34.5z" />
    <glyph glyph-name="uring" unicode="&#x16f;" horiz-adv-x="621" 
d="M353 642q20 0 33.5 14.5t13.5 36.5t-12.5 35.5t-32.5 13.5t-33.5 -14.5t-13.5 -36.5t12.5 -35.5t32.5 -13.5zM353 578q-49 0 -83 33t-34 80q0 48 35 82t84 34t83 -33.5t34 -80.5q0 -48 -35 -81.5t-84 -33.5zM606 523l-56 -360q-16 -100 -13 -163h-175q-3 38 1 79
q-67 -91 -166 -91q-88 0 -132 54t-26 166l50 315h179l-49 -312q-14 -90 57 -90q87 0 104 104l47 298h179z" />
    <glyph glyph-name="Uhungarumlaut" unicode="&#x170;" horiz-adv-x="764" 
d="M299 759l55 146h153l-89 -146h-119zM493 759l55 146h154l-89 -146h-120zM369 -12q-166 0 -245 81.5t-54 238.5l65 407h205l-65 -413q-13 -78 10.5 -115.5t86.5 -37.5q58 0 85.5 33t39.5 107l67 426h207l-70 -444q-23 -145 -104 -214t-228 -69z" />
    <glyph glyph-name="uhungarumlaut" unicode="&#x171;" horiz-adv-x="621" 
d="M606 523l-56 -360q-16 -100 -13 -163h-175q-3 38 1 79q-67 -91 -166 -91q-88 0 -132 54t-26 166l50 315h179l-49 -312q-14 -90 57 -90q87 0 104 104l47 298h179zM205 583l63 166h141l-97 -166h-107zM383 583l62 166h141l-97 -166h-106z" />
    <glyph glyph-name="Uogonek" unicode="&#x172;" horiz-adv-x="764" 
d="M370 -182q-49 0 -81 18.5t-32 60.5q0 58 72 93q-146 9 -214.5 90t-44.5 228l65 407h205l-65 -413q-13 -79 10 -116t87 -37q58 0 85.5 33t39.5 107l67 426h207l-70 -444q-16 -103 -61 -165.5t-133 -97.5q-4 -1 -25.5 -9t-30 -12t-22.5 -12.5t-20 -18.5t-6 -23
q0 -24 29 -24q15 0 28 5l-13 -82q-32 -14 -77 -14z" />
    <glyph glyph-name="uogonek" unicode="&#x173;" horiz-adv-x="621" 
d="M606 523l-56 -360q-15 -96 -12 -156q-19 -15 -27.5 -23t-19 -23t-10.5 -28q0 -24 29 -24q15 0 28 5l-13 -82q-32 -14 -77 -14q-49 0 -81 18.5t-32 60.5q0 36 28.5 62.5t67.5 40.5h-69q-4 42 2 97q-67 -109 -180 -109q-80 0 -121.5 54.5t-23.5 165.5l50 315h179l-49 -312
q-14 -90 57 -90q87 0 104 104l47 298h179z" />
    <glyph glyph-name="Wcircumflex" unicode="&#x174;" horiz-adv-x="986" 
d="M377 759l131 146h150l93 -146h-125l-53 49l-64 -49h-132zM139 0l-60 715h208l20 -454l172 454h173l40 -458l168 458h189l-285 -715h-201l-41 436l-176 -436h-207z" />
    <glyph glyph-name="wcircumflex" unicode="&#x175;" horiz-adv-x="830" 
d="M272 585l144 163h128l96 -163h-120l-53 56l-68 -56h-127zM119 0l-71 523h182l27 -314l131 314h145l29 -314l128 314h174l-244 -523h-172l-29 293l-125 -293h-175z" />
    <glyph glyph-name="Ycircumflex" unicode="&#x176;" horiz-adv-x="678" 
d="M197 0l48 307l-168 408h214l86 -238l157 238h205l-289 -419l-46 -296h-207zM223 759l131 146h150l93 -146h-125l-53 49l-64 -49h-132z" />
    <glyph glyph-name="ycircumflex" unicode="&#x177;" horiz-adv-x="577" 
d="M46 -175l127 234l-127 464h186l60 -281l141 281h178l-386 -698h-179zM149 585l144 163h128l96 -163h-120l-53 56l-68 -56h-127z" />
    <glyph glyph-name="Ydieresis" unicode="&#x178;" horiz-adv-x="678" 
d="M197 0l48 307l-168 408h214l86 -238l157 238h205l-289 -419l-46 -296h-207zM313 758q-35 0 -60 24.5t-25 58.5q0 35 25 59.5t60 24.5q36 0 61 -24t25 -59t-25 -59.5t-61 -24.5zM536 758q-36 0 -60.5 24t-24.5 59t25 59.5t60 24.5q36 0 61 -24t25 -59t-25 -59.5t-61 -24.5
z" />
    <glyph glyph-name="Zacute" unicode="&#x179;" horiz-adv-x="625" 
d="M312 759l64 146h188l-115 -146h-137zM-29 0l3 23l386 535h-264l25 157h560l-4 -22l-384 -535h280l-25 -158h-577z" />
    <glyph glyph-name="zacute" unicode="&#x17a;" horiz-adv-x="505" 
d="M234 583l73 166h182l-125 -166h-130zM-32 0l2 18l281 371h-199l20 134h460l-3 -19l-286 -370h216l-21 -134h-470z" />
    <glyph glyph-name="Zdotaccent" unicode="&#x17b;" horiz-adv-x="625" 
d="M-29 0l3 23l386 535h-264l25 157h560l-4 -22l-384 -535h280l-25 -158h-577zM398 757q-41 0 -68 25.5t-27 63.5t27.5 63.5t68.5 25.5q40 0 67.5 -25.5t27.5 -63.5t-27.5 -63.5t-68.5 -25.5z" />
    <glyph glyph-name="zdotaccent" unicode="&#x17c;" horiz-adv-x="505" 
d="M-32 0l2 18l281 371h-199l20 134h460l-3 -19l-286 -370h216l-21 -134h-470zM307 579q-41 0 -68 25t-27 63t27.5 64t68.5 26q40 0 67.5 -25.5t27.5 -63.5q0 -39 -27.5 -64t-68.5 -25z" />
    <glyph glyph-name="Zcaron" unicode="&#x17d;" horiz-adv-x="625" 
d="M597 905l-132 -146h-150l-92 146h124l53 -49l65 49h132zM-29 0l3 23l386 535h-264l25 157h560l-4 -22l-384 -535h280l-25 -158h-577z" />
    <glyph glyph-name="zcaron" unicode="&#x17e;" horiz-adv-x="505" 
d="M506 748l-145 -163h-127l-97 163h120l53 -56l68 56h128zM-32 0l2 18l281 371h-199l20 134h460l-3 -19l-286 -370h216l-21 -134h-470z" />
    <glyph glyph-name="florin" unicode="&#x192;" horiz-adv-x="447" 
d="M32 293l19 121h86l24 125q18 96 80 141t153 45q50 0 89 -13l-22 -132q-20 7 -51 7q-63 0 -75 -66l-20 -107h116l-19 -121h-120l-89 -475h-177l89 475h-83z" />
    <glyph glyph-name="Aringacute" unicode="&#x1fa;" horiz-adv-x="738" 
d="M476 0l-17 133h-237l-59 -133h-196l342 715h265l114 -715h-212zM445 741q-49 0 -84 34t-35 82t35.5 82t85.5 34q49 0 84 -33.5t35 -81.5t-35.5 -82.5t-85.5 -34.5zM391 991l64 146h188l-115 -146h-137zM406 549l-122 -275h157zM445 807q20 0 33.5 14.5t13.5 36.5
t-12.5 36t-32.5 14q-21 0 -34 -14t-13 -37t12.5 -36.5t32.5 -13.5z" />
    <glyph glyph-name="aringacute" unicode="&#x1fb;" horiz-adv-x="578" 
d="M173 -12q-73 0 -119.5 39t-46.5 106q0 98 70.5 140.5t204.5 42.5h77l2 14q6 40 -7 60.5t-53 20.5q-61 0 -76 -62h-168q19 94 84.5 141t167.5 47q128 0 186 -57t40 -172l-23 -145q-16 -101 -8 -163h-173q-5 27 -3 65q-59 -77 -155 -77zM244 108q37 0 63 20.5t31 54.5l5 32
h-56q-55 0 -78.5 -13t-23.5 -45q0 -21 15.5 -35t43.5 -14zM343 636q20 0 33.5 14.5t13.5 36.5t-12.5 35.5t-32.5 13.5t-33.5 -14.5t-13.5 -36.5t12.5 -35.5t32.5 -13.5zM343 572q-49 0 -83 33t-34 80q0 48 35 82t84 34t83 -33.5t34 -80.5q0 -48 -35 -81.5t-84 -33.5z
M291 829l64 146h188l-115 -146h-137z" />
    <glyph glyph-name="AEacute" unicode="&#x1fc;" horiz-adv-x="1002" 
d="M-31 0l425 715h629l-25 -158h-282l-20 -123h225l-23 -144h-224l-21 -132h300l-25 -158h-504l23 146h-195l-84 -146h-199zM619 759l64 146h188l-115 -146h-137zM489 557l-158 -273h138l43 273h-23z" />
    <glyph glyph-name="aeacute" unicode="&#x1fd;" horiz-adv-x="906" 
d="M515 216q0 -105 96 -105q70 0 90 62h169q-19 -90 -88.5 -137.5t-175.5 -47.5q-153 0 -213 97q-60 -97 -196 -97q-86 0 -138 39.5t-52 109.5q0 97 72 139.5t206 42.5h75l2 13q12 79 -62 79q-64 0 -79 -62h-168q17 94 86 141t169 47q118 0 164 -60q73 59 168 59
q128 0 193.5 -76t44.5 -214l-4 -25h-359v-5zM423 583l73 166h182l-125 -166h-130zM635 419q-81 0 -109 -100h185q7 100 -76 100zM244 108q38 0 63.5 20.5t31.5 58.5l5 31h-58q-54 0 -77.5 -14t-23.5 -47q0 -22 15 -35.5t44 -13.5z" />
    <glyph glyph-name="Oslashacute" unicode="&#x1fe;" horiz-adv-x="819" 
d="M92 -32l-57 58l77 78q-68 81 -68 197q0 186 114.5 305t294.5 119q123 0 214 -57l70 72l57 -58l-65 -66q75 -83 75 -207q0 -187 -115 -304t-299 -117q-127 0 -218 62zM597 401q0 41 -10 70l-285 -290q38 -32 102 -32q90 0 141.5 72.5t51.5 179.5zM252 310q0 -32 6 -57
l281 286q-37 25 -92 26q-91 1 -143 -73t-52 -182zM388 759l64 146h188l-115 -146h-137z" />
    <glyph glyph-name="oslashacute" unicode="&#x1ff;" horiz-adv-x="615" 
d="M61 -39l-50 48l65 67q-52 62 -52 152q-1 134 84 221.5t218 87.5q90 0 158 -41l65 67l50 -48l-62 -64q55 -63 55 -157q0 -136 -84 -221t-218 -85q-93 0 -162 42zM265 583l73 166h182l-125 -166h-130zM294 119q59 0 91.5 50.5t32.5 130.5q0 10 -2 26l-185 -190
q23 -17 63 -17zM197 228q0 -18 1 -26l182 187q-25 15 -56 15q-60 0 -93.5 -48.5t-33.5 -127.5z" />
    <glyph glyph-name="Scommaaccent" unicode="&#x218;" horiz-adv-x="647" 
d="M250 -232l-99 27l51 177l157 -19zM314 -12q-145 0 -223.5 63t-77.5 176h193q2 -41 29 -67t84 -26q46 -1 70 18t24 55q0 26 -22 41.5t-79 27.5q-131 28 -184 75.5t-53 136.5q0 103 77 170t210 67q130 0 201 -55.5t70 -167.5h-187q-6 77 -90 77q-41 0 -62 -17.5t-21 -47.5
q0 -25 21 -38.5t80 -26.5q126 -27 183 -75t57 -137q0 -112 -78.5 -180t-221.5 -69z" />
    <glyph glyph-name="scommaaccent" unicode="&#x219;" horiz-adv-x="513" 
d="M184 -232l-99 27l51 177l157 -19zM231 -13q-110 0 -172 45.5t-63 133.5h166q5 -59 74 -59q61 0 61 42q0 20 -17.5 30t-71.5 20q-89 17 -130 54t-41 103q0 88 65 135t169 46q213 0 223 -169h-163q-2 23 -19 37.5t-46 14.5q-60 0 -60 -39q0 -18 18 -27.5t64 -20.5
q102 -20 144 -56t42 -109q0 -89 -66.5 -135t-176.5 -46z" />
    <glyph glyph-name="uni0237" unicode="&#x237;" horiz-adv-x="295" 
d="M-76 -183l19 129q65 3 73 59l82 518h179l-85 -535q-6 -40 -21.5 -71t-45.5 -55.5t-80.5 -36t-120.5 -8.5z" />
    <glyph glyph-name="circumflex" unicode="&#x2c6;" horiz-adv-x="400" 
d="M66 585l144 163h128l96 -163h-120l-53 56l-68 -56h-127z" />
    <glyph glyph-name="caron" unicode="&#x2c7;" horiz-adv-x="400" 
d="M460 748l-145 -163h-127l-97 163h120l53 -56l68 56h128z" />
    <glyph glyph-name="breve" unicode="&#x2d8;" horiz-adv-x="400" 
d="M265 587q-75 0 -117.5 42t-41.5 116h111q3 -48 50 -48q48 0 56 48h111q-10 -76 -55 -117t-114 -41z" />
    <glyph glyph-name="dotaccent" unicode="&#x2d9;" horiz-adv-x="400" 
d="M263 579q-41 0 -68 25t-27 63t27.5 64t68.5 26q40 0 67.5 -25.5t27.5 -63.5q0 -39 -27.5 -64t-68.5 -25z" />
    <glyph glyph-name="ring" unicode="&#x2da;" horiz-adv-x="400" 
d="M266 642q20 0 33.5 14.5t13.5 36.5t-12.5 35.5t-32.5 13.5t-33.5 -14.5t-13.5 -36.5t12.5 -35.5t32.5 -13.5zM266 578q-49 0 -83 33t-34 80q0 48 35 82t84 34t83 -33.5t34 -80.5q0 -48 -35 -81.5t-84 -33.5z" />
    <glyph glyph-name="ogonek" unicode="&#x2db;" horiz-adv-x="400" 
d="M141 -182q-49 0 -81 18.5t-32 60.5q0 36 28.5 62.5t68.5 40.5h102q-53 -37 -53 -67q0 -24 29 -24q15 0 28 5l-13 -82q-32 -14 -77 -14z" />
    <glyph glyph-name="tilde" unicode="&#x2dc;" horiz-adv-x="400" 
d="M322 587q-32 0 -69 16.5t-48 16.5q-27 0 -35 -32h-97q12 77 46 116.5t82 39.5q30 0 67.5 -17t51.5 -17q25 0 35 32h97q-13 -76 -48 -115.5t-82 -39.5z" />
    <glyph glyph-name="hungarumlaut" unicode="&#x2dd;" horiz-adv-x="400" 
d="M102 583l63 166h141l-97 -166h-107zM280 583l62 166h141l-97 -166h-106z" />
    <glyph glyph-name="Wgrave" unicode="&#x1e80;" horiz-adv-x="986" 
d="M506 759l-86 146h185l33 -146h-132zM139 0l-60 715h208l20 -454l172 454h173l40 -458l168 458h189l-285 -715h-201l-41 436l-176 -436h-207z" />
    <glyph glyph-name="wgrave" unicode="&#x1e81;" horiz-adv-x="830" 
d="M119 0l-71 523h182l27 -314l131 314h145l29 -314l128 314h174l-244 -523h-172l-29 293l-125 -293h-175zM397 583l-93 166h178l40 -166h-125z" />
    <glyph glyph-name="Wacute" unicode="&#x1e82;" horiz-adv-x="986" 
d="M496 759l64 146h188l-115 -146h-137zM139 0l-60 715h208l20 -454l172 454h173l40 -458l168 458h189l-285 -715h-201l-41 436l-176 -436h-207z" />
    <glyph glyph-name="wacute" unicode="&#x1e83;" horiz-adv-x="830" 
d="M404 583l73 166h182l-125 -166h-130zM119 0l-71 523h182l27 -314l131 314h145l29 -314l128 314h174l-244 -523h-172l-29 293l-125 -293h-175z" />
    <glyph glyph-name="Wdieresis" unicode="&#x1e84;" horiz-adv-x="986" 
d="M461 758q-35 0 -60 24.5t-25 58.5q0 35 25 59.5t60 24.5q36 0 61 -24t25 -59t-25 -59.5t-61 -24.5zM684 758q-36 0 -60.5 24t-24.5 59t25 59.5t60 24.5q36 0 61 -24t25 -59t-25 -59.5t-61 -24.5zM139 0l-60 715h208l20 -454l172 454h173l40 -458l168 458h189l-285 -715
h-201l-41 436l-176 -436h-207z" />
    <glyph glyph-name="wdieresis" unicode="&#x1e85;" horiz-adv-x="830" 
d="M364 580q-35 0 -60 24.5t-25 58.5q0 35 25 59.5t61 24.5q35 0 60 -24.5t25 -58.5q0 -35 -25 -59.5t-61 -24.5zM577 580q-36 0 -60.5 24t-24.5 59t24.5 59.5t60.5 24.5t61 -24t25 -59t-25 -59.5t-61 -24.5zM119 0l-71 523h182l27 -314l131 314h145l29 -314l128 314h174
l-244 -523h-172l-29 293l-125 -293h-175z" />
    <glyph glyph-name="Ygrave" unicode="&#x1ef2;" horiz-adv-x="678" 
d="M197 0l48 307l-168 408h214l86 -238l157 238h205l-289 -419l-46 -296h-207zM351 759l-86 146h185l33 -146h-132z" />
    <glyph glyph-name="ygrave" unicode="&#x1ef3;" horiz-adv-x="577" 
d="M46 -175l127 234l-127 464h186l60 -281l141 281h178l-386 -698h-179zM278 583l-93 166h178l40 -166h-125z" />
    <glyph glyph-name="uni2009" unicode="&#x2009;" horiz-adv-x="84" 
 />
    <glyph glyph-name="endash" unicode="&#x2013;" horiz-adv-x="541" 
d="M41 240l17 105h449l-17 -105h-449z" />
    <glyph glyph-name="emdash" unicode="&#x2014;" horiz-adv-x="946" 
d="M41 240l17 105h855l-17 -105h-855z" />
    <glyph glyph-name="quoteleft" unicode="&#x2018;" horiz-adv-x="297" 
d="M216 428l-154 53l158 247l97 -39z" />
    <glyph glyph-name="quoteright" unicode="&#x2019;" horiz-adv-x="296" 
d="M173 428l-98 38l100 262l155 -53z" />
    <glyph glyph-name="quotesinglbase" unicode="&#x201a;" horiz-adv-x="297" 
d="M78 -106l-97 38l100 262l154 -53z" />
    <glyph glyph-name="quotedblleft" unicode="&#x201c;" horiz-adv-x="524" 
d="M216 428l-154 53l158 247l97 -39zM444 428l-155 53l157 247l98 -39z" />
    <glyph glyph-name="quotedblright" unicode="&#x201d;" horiz-adv-x="524" 
d="M173 428l-98 38l100 262l155 -53zM399 428l-97 38l101 262l154 -53z" />
    <glyph glyph-name="quotedblbase" unicode="&#x201e;" horiz-adv-x="524" 
d="M78 -106l-97 38l100 262l154 -53zM305 -106l-98 38l101 262l154 -53z" />
    <glyph glyph-name="dagger" unicode="&#x2020;" horiz-adv-x="405" 
d="M121 213l41 259h-106l19 126h107l19 117h145l-19 -117h107l-20 -126h-107l-41 -259h-145z" />
    <glyph glyph-name="daggerdbl" unicode="&#x2021;" horiz-adv-x="405" 
d="M156 427l11 74h-107l18 114h107l16 100h145l-16 -100h106l-18 -114h-106l-12 -74h107l-18 -114h-106l-17 -100h-145l17 100h-107l18 114h107z" />
    <glyph glyph-name="bullet" unicode="&#x2022;" horiz-adv-x="372" 
d="M186 156q-61 0 -101 40.5t-40 96.5q0 68 43.5 112t107.5 44q62 0 102 -40.5t40 -98.5q0 -66 -43.5 -110t-108.5 -44z" />
    <glyph glyph-name="ellipsis" unicode="&#x2026;" horiz-adv-x="893" 
d="M120 -11q-44 0 -73 29.5t-29 71.5q0 43 28.5 72t72.5 29q45 0 75.5 -29.5t30.5 -71.5t-30 -71.5t-75 -29.5zM417 -11q-44 0 -73 29.5t-29 71.5q0 43 28.5 72t72.5 29q45 0 75.5 -29.5t30.5 -71.5t-30 -71.5t-75 -29.5zM714 -11q-44 0 -73 29.5t-29 71.5q0 43 28.5 72
t72.5 29q45 0 75.5 -29.5t30.5 -71.5t-30 -71.5t-75 -29.5z" />
    <glyph glyph-name="perthousand" unicode="&#x2030;" horiz-adv-x="1218" 
d="M191 530q0 -25 12.5 -42t39.5 -16q30 1 46 28t16 63q0 58 -50 58q-31 0 -47.5 -26t-16.5 -65zM239 368q-77 0 -128.5 42t-51.5 116q0 83 56.5 140t143.5 57q75 0 126.5 -43t51.5 -116q0 -81 -56.5 -138.5t-141.5 -57.5zM90 0l577 715h99l-577 -715h-99zM545 150
q0 -25 13 -41.5t40 -16.5q30 1 46 28t16 64q0 25 -13 41.5t-38 16.5q-31 0 -47.5 -26.5t-16.5 -65.5zM593 -12q-76 0 -127.5 42.5t-51.5 115.5q0 82 56.5 139.5t143.5 57.5q74 0 125.5 -43t51.5 -116q0 -81 -56 -138.5t-142 -57.5zM949 150q0 -58 52 -58q30 1 46 28t16 64
q0 25 -12.5 41.5t-37.5 16.5q-31 0 -47.5 -26.5t-16.5 -65.5zM996 -12q-76 0 -127.5 42.5t-51.5 115.5q0 82 56.5 139.5t143.5 57.5q75 0 126 -43t51 -116q0 -81 -56 -138.5t-142 -57.5z" />
    <glyph glyph-name="uni2032" unicode="&#x2032;" horiz-adv-x="250" 
d="M60 440l65 275h170l-108 -275h-127z" />
    <glyph glyph-name="uni2033" unicode="&#x2033;" horiz-adv-x="462" 
d="M60 440l65 275h170l-108 -275h-127zM273 440l64 275h170l-107 -275h-127z" />
    <glyph glyph-name="guilsinglleft" unicode="&#x2039;" horiz-adv-x="307" 
d="M126 70l-96 197l152 185h125l-149 -187l85 -195h-117z" />
    <glyph glyph-name="guilsinglright" unicode="&#x203a;" horiz-adv-x="307" 
d="M178 452l96 -197l-152 -185h-125l149 187l-85 195h117z" />
    <glyph glyph-name="fraction" unicode="&#x2044;" horiz-adv-x="168" 
d="M-257 0l611 715h95l-611 -715h-95z" />
    <glyph glyph-name="Euro" unicode="&#x20ac;" horiz-adv-x="718" 
d="M41 381l11 71h61q31 128 116.5 200.5t213.5 72.5q129 0 201.5 -65.5t72.5 -192.5h-191q-2 104 -90 104q-90 0 -124 -119h154l-23 -71h-145l-8 -52h137l-23 -71h-120q2 -112 100 -112q93 0 123 116h187q-25 -137 -107 -205.5t-212 -68.5q-136 0 -210.5 72.5t-77.5 197.5
h-65l11 71h58l8 52h-58z" />
    <glyph glyph-name="trademark" unicode="&#x2122;" horiz-adv-x="760" 
d="M358 394l51 321h124l33 -158l86 158h134l-51 -321h-108l28 183l-100 -183h-33l-43 183l-28 -183h-93zM129 394l37 237h-83l13 84h274l-14 -84h-83l-37 -237h-107z" />
    <glyph glyph-name="onethird" unicode="&#x2153;" horiz-adv-x="822" 
d="M607 -7q-76 0 -120.5 32.5t-45.5 100.5h117q2 -41 43 -41q16 0 28 9t12 28q0 30 -43 30h-28l12 74h33q45 0 45 35q0 29 -34 29q-36 0 -45 -38h-116q9 61 54.5 95t118.5 34q61 0 104 -24t43 -78q0 -67 -77 -89q64 -13 64 -77q0 -59 -47 -89.5t-118 -30.5zM116 339l39 246
l-89 -46l17 109l113 67h114l-60 -376h-134zM38 0l611 715h95l-611 -715h-95z" />
    <glyph glyph-name="twothirds" unicode="&#x2154;" horiz-adv-x="880" 
d="M664 -7q-76 0 -120.5 32.5t-45.5 100.5h117q2 -41 43 -41q16 0 28 9t12 28q0 30 -43 30h-28l12 74h33q45 0 45 35q0 29 -34 29q-36 0 -45 -38h-116q9 61 54.5 95t118.5 34q61 0 104 -24t43 -78q0 -67 -77 -89q64 -13 64 -77q0 -59 -47 -89.5t-118 -30.5zM19 339l3 18
l149 132q27 23 41 36.5t29 34t15 34.5q0 29 -29 29q-35 0 -46 -52h-122q11 73 58.5 111t119.5 38q67 0 108.5 -27t41.5 -86q0 -38 -24.5 -69.5t-78.5 -77.5l-31 -26h109l-16 -95h-327zM114 0l611 715h95l-611 -715h-95z" />
    <glyph glyph-name="oneeighth" unicode="&#x215b;" horiz-adv-x="820" 
d="M604 -7q-71 0 -121.5 25.5t-50.5 81.5q0 75 83 102q-44 24 -44 66q0 56 46.5 84.5t111.5 28.5q64 0 108.5 -25.5t44.5 -76.5q0 -68 -63 -87q56 -23 56 -77q0 -63 -50 -92.5t-121 -29.5zM564 116q0 -15 10.5 -25t29.5 -10q18 0 31 11t13 30q0 16 -10.5 26.5t-28.5 10.5
q-19 0 -32 -11.5t-13 -31.5zM588 259q0 -15 9.5 -23.5t24.5 -8.5q18 0 29 9.5t11 27.5q0 14 -10 23t-26 9q-15 0 -26.5 -10t-11.5 -27zM116 339l39 246l-89 -46l17 109l113 67h114l-60 -376h-134zM40 0l611 715h95l-611 -715h-95z" />
    <glyph glyph-name="threeeighths" unicode="&#x215c;" horiz-adv-x="877" 
d="M661 -7q-71 0 -121.5 25.5t-50.5 81.5q0 75 83 102q-44 24 -44 66q0 56 46.5 84.5t111.5 28.5q64 0 108.5 -25.5t44.5 -76.5q0 -68 -63 -87q56 -23 56 -77q0 -63 -50 -92.5t-121 -29.5zM621 116q0 -15 10.5 -25t29.5 -10q18 0 31 11t13 30q0 16 -10.5 26.5t-28.5 10.5
q-19 0 -32 -11.5t-13 -31.5zM645 259q0 -15 9.5 -23.5t24.5 -8.5q18 0 29 9.5t11 27.5q0 14 -10 23t-26 9q-15 0 -26.5 -10t-11.5 -27zM102 0l611 715h95l-611 -715h-95zM218 332q-76 0 -120.5 32.5t-45.5 101.5h118q0 -42 42 -42q16 0 28 9t12 28q0 31 -43 31h-28l12 74h33
q45 0 45 34q0 29 -34 29q-36 0 -45 -38h-116q9 62 54.5 95.5t118.5 33.5q62 0 104.5 -23.5t42.5 -78.5q0 -67 -77 -89q64 -13 64 -77q0 -58 -47 -89t-118 -31z" />
    <glyph glyph-name="fiveeighths" unicode="&#x215d;" horiz-adv-x="857" 
d="M641 -7q-71 0 -121.5 25.5t-50.5 81.5q0 75 83 102q-44 24 -44 66q0 56 46.5 84.5t111.5 28.5q64 0 108.5 -25.5t44.5 -76.5q0 -68 -63 -87q56 -23 56 -77q0 -63 -50 -92.5t-121 -29.5zM601 116q0 -15 10.5 -25t29.5 -10q18 0 31 11t13 30q0 16 -10.5 26.5t-28.5 10.5
q-19 0 -32 -11.5t-13 -31.5zM625 259q0 -15 9.5 -23.5t24.5 -8.5q18 0 29 9.5t11 27.5q0 14 -10 23t-26 9q-15 0 -26.5 -10t-11.5 -27zM212 332q-69 0 -115.5 30t-48.5 96h124q3 -29 37 -29q17 0 28 11.5t11 33.5q0 36 -37 36q-25 0 -42 -24h-101l48 229h279l-15 -93h-187
l-16 -77q35 45 97 45q48 0 77 -26.5t29 -77.5q0 -74 -45.5 -113.5t-122.5 -40.5zM86 0l611 715h95l-611 -715h-95z" />
    <glyph glyph-name="seveneighths" unicode="&#x215e;" horiz-adv-x="813" 
d="M597 -7q-71 0 -121.5 25.5t-50.5 81.5q0 75 83 102q-44 24 -44 66q0 56 46.5 84.5t111.5 28.5q64 0 108.5 -25.5t44.5 -76.5q0 -68 -63 -87q56 -23 56 -77q0 -63 -50 -92.5t-121 -29.5zM557 116q0 -15 10.5 -25t29.5 -10q18 0 31 11t13 30q0 16 -10.5 26.5t-28.5 10.5
q-19 0 -32 -11.5t-13 -31.5zM581 259q0 -15 9.5 -23.5t24.5 -8.5q18 0 29 9.5t11 27.5q0 14 -10 23t-26 9q-15 0 -26.5 -10t-11.5 -27zM75 339l146 272h-147l17 104h316l-2 -15l-194 -361h-136zM31 0l611 715h95l-611 -715h-95z" />
    <glyph glyph-name="minus" unicode="&#x2212;" horiz-adv-x="572" 
d="M38 271l22 138h497l-21 -138h-498z" />
    <glyph glyph-name="approxequal" unicode="&#x2248;" horiz-adv-x="579" 
d="M56 342q12 91 54 134t101 43q43 0 117 -20t95 -20q40 0 49 44h103q-9 -86 -52 -131.5t-101 -45.5q-44 0 -118 20t-95 20q-39 0 -50 -44h-103zM20 121q13 91 55 134.5t100 43.5q43 0 117 -20t95 -20q39 0 50 44h103q-10 -86 -53 -132t-100 -46q-45 0 -119.5 20t-94.5 20
q-39 0 -50 -44h-103z" />
    <glyph glyph-name="notequal" unicode="&#x2260;" horiz-adv-x="557" 
d="M54 363l19 123h238l49 96h115l-49 -96h126l-19 -123h-169l-37 -74h194l-19 -122h-237l-48 -96h-116l48 96h-126l19 122h169l38 74h-195z" />
    <glyph glyph-name="lessequal" unicode="&#x2264;" horiz-adv-x="513" 
d="M443 143l-386 230l6 34l457 221l-26 -164l-178 -80l153 -84zM0 0l18 118h422l-19 -118h-421z" />
    <glyph glyph-name="greaterequal" unicode="&#x2265;" horiz-adv-x="513" 
d="M7 0l18 118h422l-18 -118h-422zM106 628l386 -231l-6 -34l-457 -220l26 163l178 80l-152 85z" />
    <glyph glyph-name="uni24C5" unicode="&#x24c5;" horiz-adv-x="843" 
d="M291 158v403h159q166 0 166 -137v-3q0 -64 -40.5 -97.5t-118.5 -33.5h-40v-132h-126zM417 375h27q53 0 53 46v3q0 43 -53 43h-27v-92zM433 31q135 0 228.5 92t93.5 236q0 143 -92 234t-228 91q-138 0 -230.5 -91.5t-92.5 -235.5t93.5 -235t227.5 -91zM433 -20
q-161 0 -272 108.5t-111 268.5q0 158 111.5 268t273.5 110q163 0 273 -109t110 -267q0 -161 -111.5 -270t-273.5 -109z" />
    <glyph glyph-name="f_i" unicode="&#xfb01;" horiz-adv-x="673" 
d="M33 401l19 122h66l10 64q15 91 73 134t145 43q54 0 93 -14l-21 -131q-24 8 -48 8q-55 0 -66 -58l-8 -46h107l-19 -122h-107l-63 -401h-178l63 401h-66zM393 0l83 523h178l-82 -523h-179zM585 574q-42 0 -69 25.5t-27 65.5q0 39 27.5 65.5t69.5 26.5q41 0 68.5 -26
t27.5 -65q0 -40 -28 -66t-69 -26z" />
    <glyph glyph-name="f_l" unicode="&#xfb02;" horiz-adv-x="671" 
d="M33 401l19 122h66l10 64q15 91 73 134t145 43q54 0 93 -14l-21 -131q-24 8 -48 8q-55 0 -66 -58l-8 -46h107l-19 -122h-107l-63 -401h-178l63 401h-66zM393 0l118 753h179l-119 -753h-178z" />
    <glyph glyph-name="space_uni0326" horiz-adv-x="400" 
d="M137 -232l-99 27l51 177l157 -19z" />
    <glyph glyph-name="caron.alt" horiz-adv-x="400" 
d="M200 579l36 174h132l-75 -174h-93z" />
    <glyph glyph-name="space_uni0326.alt" horiz-adv-x="400" 
d="M280 770l99 -27l-51 -177l-157 19z" />
    <glyph glyph-name="grave.uc" horiz-adv-x="400" 
d="M225 759l-86 146h185l33 -146h-132z" />
    <glyph glyph-name="dieresis.uc" horiz-adv-x="400" 
d="M179 758q-35 0 -60 24.5t-25 58.5q0 35 25 59.5t60 24.5q36 0 61 -24t25 -59t-25 -59.5t-61 -24.5zM402 758q-36 0 -60.5 24t-24.5 59t25 59.5t60 24.5q36 0 61 -24t25 -59t-25 -59.5t-61 -24.5z" />
    <glyph glyph-name="macron.uc" horiz-adv-x="400" 
d="M119 771l16 107h322l-16 -107h-322z" />
    <glyph glyph-name="acute.uc" horiz-adv-x="400" 
d="M200 759l64 146h188l-115 -146h-137z" />
    <glyph glyph-name="circumflex.uc" horiz-adv-x="400" 
d="M91 759l131 146h150l93 -146h-125l-53 49l-64 -49h-132z" />
    <glyph glyph-name="caron.uc" horiz-adv-x="400" 
d="M485 905l-132 -146h-150l-92 146h124l53 -49l65 49h132z" />
    <glyph glyph-name="breve.uc" horiz-adv-x="400" 
d="M293 752q-77 0 -119 41t-43 112h115q3 -46 48 -46t53 46h115q-10 -72 -55.5 -112.5t-113.5 -40.5z" />
    <glyph glyph-name="dotaccent.uc" horiz-adv-x="400" 
d="M291 757q-41 0 -68 25.5t-27 63.5t27.5 63.5t68.5 25.5q40 0 67.5 -25.5t27.5 -63.5t-27.5 -63.5t-68.5 -25.5z" />
    <glyph glyph-name="ring.uc" horiz-adv-x="400" 
d="M293 810q20 0 33.5 14.5t13.5 36.5q0 23 -12.5 36.5t-32.5 13.5q-21 0 -34 -14t-13 -37q0 -22 12.5 -36t32.5 -14zM293 744q-49 0 -84 34t-35 82t35.5 82t85.5 34q49 0 84 -33.5t35 -81.5t-35.5 -82.5t-85.5 -34.5z" />
    <glyph glyph-name="tilde.uc" horiz-adv-x="400" 
d="M350 758q-32 0 -70 17t-49 17q-28 0 -36 -33h-101q12 76 48.5 114.5t85.5 38.5q30 0 68.5 -16.5t52.5 -16.5q26 0 36 32h101q-13 -75 -50.5 -114t-85.5 -39z" />
    <glyph glyph-name="hungarumlaut.uc" horiz-adv-x="400" 
d="M118 759l55 146h153l-89 -146h-119zM312 759l55 146h154l-89 -146h-120z" />
    <glyph glyph-name="idotaccent" horiz-adv-x="295" 
d="M208 574q-42 0 -69 25.5t-27 65.5q0 39 27.5 65.5t69.5 26.5q41 0 68.5 -26t27.5 -65q0 -40 -28 -66t-69 -26zM16 0l83 523h178l-82 -523h-179z" />
    <glyph glyph-name="registered.alt" horiz-adv-x="843" 
d="M273 159v403h163q168 0 168 -130v-2q0 -77 -69 -106l92 -165h-129l-76 139h-25v-139h-124zM397 379h32q53 0 53 45v3q0 41 -52 41h-33v-89zM433 31q135 0 228.5 92t93.5 236q0 143 -92 234t-228 91q-138 0 -230.5 -91.5t-92.5 -235.5t93.5 -235t227.5 -91zM433 -20
q-161 0 -272 108.5t-111 268.5q0 158 111.5 268t273.5 110q163 0 273 -109t110 -267q0 -161 -111.5 -270t-273.5 -109z" />
    <glyph glyph-name="dollar.old" horiz-adv-x="628" 
d="M215 -131l19 125q-97 15 -158 70.5t-62 154.5h178q2 -69 64 -89l23 148q-108 24 -158 70.5t-50 127.5q0 102 79 163.5t197 63.5l14 86h76l-15 -91q200 -26 207 -206h-176q-3 54 -52 70l-22 -139q106 -25 161 -71t55 -128q0 -112 -78.5 -173.5t-206.5 -62.5l-19 -119h-76z
M416 198q0 22 -14 36t-49 25l-22 -137q85 8 85 76zM243 502q0 -23 13.5 -37t48.5 -24l21 128q-36 -3 -59.5 -20t-23.5 -47z" />
    <glyph glyph-name="Euro.old" horiz-adv-x="698" 
d="M39 369l11 69h58q30 124 112.5 194.5t207.5 70.5q126 0 196.5 -63t69.5 -186h-184q-2 100 -87 100q-88 0 -121 -116h149l-21 -69h-142l-7 -49h133l-22 -70h-117q2 -109 97 -109q91 0 119 113h182q-25 -133 -104.5 -199.5t-205.5 -66.5q-133 0 -205 70.5t-74 191.5h-64
l11 70h58l7 49h-57z" />
    <glyph glyph-name="sterling.old" horiz-adv-x="637" 
d="M37 278l18 117h48q-4 25 -4 61q0 112 76.5 179.5t201.5 67.5q120 0 188.5 -55t67.5 -179h-185q0 43 -16 64t-55 21q-88 0 -88 -123v-36h180l-20 -117h-157v-6q0 -57 -24 -105q76 -22 98 -22q55 0 65 58h177q-13 -96 -69 -154t-152 -58q-54 0 -124 25.5t-87 25.5
q-21 0 -34 -12t-16 -30h-146q9 61 39.5 107t79.5 65q19 41 19 92v14h-81z" />
    <glyph glyph-name="yen.old" horiz-adv-x="627" 
d="M66 286l11 69h133l-130 339h209l65 -227l136 227h194l-229 -339h135l-11 -69h-157l-8 -51h156l-11 -69h-156l-26 -166h-199l26 166h-157l10 69h158l8 51h-157z" />
    <glyph glyph-name="zero.old" horiz-adv-x="674" 
d="M230 307q-5 -37 -5 -61q2 -112 103 -112q53 0 83.5 37.5t42.5 115.5l4 26q5 37 5 61q0 112 -101 112q-104 0 -128 -153zM324 -12q-130 0 -210 70t-80 196q0 29 5 66l4 25q22 139 108 212.5t215 73.5q126 0 206.5 -70t81.5 -195q0 -37 -5 -66l-4 -25q-23 -144 -106 -215.5
t-215 -71.5z" />
    <glyph glyph-name="one.old" horiz-adv-x="435" 
d="M123 0l67 428l-145 -81l26 163l175 109h165l-98 -619h-190z" />
    <glyph glyph-name="two.old" horiz-adv-x="586" 
d="M-34 0l4 27l260 217q31 25 48.5 40t46 42.5t42.5 52.5t14 47q0 61 -68 61q-37 0 -63 -26.5t-37 -77.5h-173q18 118 95 183t195 65q113 0 178.5 -49t65.5 -138q-1 -68 -42.5 -120t-133.5 -123l-79 -62h217l-22 -139h-548z" />
    <glyph glyph-name="three.old" horiz-adv-x="620" 
d="M284 -104q-132 0 -208.5 61t-75.5 182h174q5 -101 105 -101q44 0 72 24.5t28 69.5q0 79 -94 79h-54l19 121h58q100 0 100 89q0 35 -20.5 53t-57.5 18q-40 0 -67.5 -24.5t-38.5 -71.5h-174q19 108 94.5 171.5t199.5 63.5q109 0 177.5 -47.5t68.5 -141.5q0 -63 -35.5 -107
t-98.5 -63q110 -38 110 -150q0 -105 -81 -165.5t-201 -60.5z" />
    <glyph glyph-name="four.old" horiz-adv-x="669" 
d="M308 -92l22 133h-351l10 64l382 514h240l-71 -451h92l-20 -127h-92l-22 -133h-190zM188 168h166l48 301z" />
    <glyph glyph-name="five.old" horiz-adv-x="613" 
d="M-3 125h180q6 -85 92 -85q47 0 75.5 32t28.5 84q0 42 -25 66.5t-72 24.5q-70 0 -119 -53h-116l83 425h468l-23 -148h-328l-30 -162q64 68 162 68q89 0 141.5 -55t52.5 -144q0 -131 -81.5 -206.5t-220.5 -75.5q-116 0 -191.5 57.5t-76.5 171.5z" />
    <glyph glyph-name="six.old" horiz-adv-x="651" 
d="M319 -12q-132 0 -206 68.5t-76 191.5q0 47 9 105l6 34q27 163 118 250.5t227 87.5q109 0 177 -51t69 -157h-180q-7 63 -75 63q-106 0 -144 -206q58 82 173 82q88 0 144.5 -53t56.5 -146q0 -125 -84.5 -197t-214.5 -72zM230 222q-1 -42 23 -68.5t69 -26.5q46 0 75.5 33.5
t29.5 84.5q0 39 -23 63.5t-65 24.5q-46 0 -77.5 -31.5t-31.5 -79.5z" />
    <glyph glyph-name="seven.old" horiz-adv-x="571" 
d="M38 -92l302 554h-288l25 157h540l-4 -22l-369 -689h-206z" />
    <glyph glyph-name="eight.old" horiz-adv-x="653" 
d="M305 -12q-76 0 -138.5 20.5t-103 67t-40.5 111.5q0 76 44 125.5t116 69.5q-81 41 -81 129q0 101 79.5 157.5t193.5 56.5q64 0 119 -17t95.5 -62t40.5 -111q0 -58 -35 -101.5t-93 -65.5q51 -20 78 -59t27 -89q0 -112 -83.5 -172t-218.5 -60zM220 211q0 -39 25 -61.5
t69 -22.5q42 0 72 27t30 76q0 38 -24.5 60t-66.5 22q-45 0 -75 -26.5t-30 -74.5zM279 502q0 -32 22 -53t59 -21q38 0 64 23.5t26 64.5q0 34 -22 55t-58 21q-38 0 -64.5 -24.5t-26.5 -65.5z" />
    <glyph glyph-name="nine.old" horiz-adv-x="651" 
d="M348 631q134 0 205.5 -70t73.5 -195q0 -37 -9 -100l-6 -34q-27 -168 -117 -253t-231 -85q-111 0 -181.5 53.5t-71.5 161.5h181q8 -70 79 -70q60 0 94.5 49t54.5 157q-57 -81 -173 -81q-88 0 -144.5 51t-56.5 144q0 123 85 197.5t217 74.5zM434 399q1 41 -22.5 67
t-68.5 26q-46 0 -76 -33t-30 -84q0 -40 23 -64.5t65 -24.5q46 0 77.5 32.5t31.5 80.5z" />
    <glyph glyph-name="dollar.tab" 
d="M202 -135l20 128q-101 15 -159.5 74t-52.5 159h170q-3 -74 64 -93l24 149q-106 26 -154.5 74t-48.5 132q0 106 77 171t196 66l14 88h72l-15 -93q196 -27 196 -214h-164q-4 56 -54 73l-23 -143q101 -24 154 -71t53 -132q0 -115 -75 -179.5t-203 -65.5l-19 -123h-72z
M400 202q0 24 -13.5 38.5t-49.5 25.5l-22 -140q85 7 85 76zM236 515q0 -22 13 -36.5t46 -25.5l21 132q-80 -6 -80 -70z" />
    <glyph glyph-name="Euro.tab" 
d="M30 381l11 72h48q24 137 96.5 205t186.5 67q119 0 179 -61.5t51 -180.5h-170q2 43 -12.5 66.5t-52.5 23.5q-39 0 -61.5 -28.5t-33.5 -91.5h140l-23 -72h-129l-7 -49h119l-24 -73h-107q-6 -55 8.5 -86t63.5 -31q36 0 57.5 22t31.5 76h168q-39 -252 -268 -252
q-130 0 -192 72t-51 199h-48l11 73h47l8 49h-47z" />
    <glyph glyph-name="sterling.tab" 
d="M28 287l19 120h48q-4 27 -4 66q0 116 72 184t194 68q255 0 238 -240h-172q3 82 -67 82q-83 0 -83 -124v-36h162l-19 -120h-138q-3 -64 -26 -111q70 -19 87 -19q55 0 63 55h171q-14 -107 -69 -164t-146 -57q-51 0 -111 26t-77 26q-38 0 -47 -43h-143q18 133 107 176
q23 51 23 101v10h-82z" />
    <glyph glyph-name="yen.tab" 
d="M57 295l12 71h138l-117 349h203l52 -207l116 207h192l-226 -349h146l-12 -71h-153l-7 -50h152l-11 -73h-153l-26 -172h-205l27 172h-147l11 73h147l8 50h-147z" />
    <glyph glyph-name="zero.tab" 
d="M220 287q-6 -48 -6 -62q0 -85 73 -85q43 0 64.5 31t32.5 106l24 149q7 44 7 65q0 85 -71 85q-43 0 -66 -32.5t-34 -106.5zM274 -12q-114 0 -178 61.5t-64 173.5q0 39 6 76l24 151q22 135 97.5 205t193.5 70q113 0 178 -61.5t65 -173.5q0 -42 -6 -73l-24 -150
q-22 -138 -96 -208.5t-196 -70.5z" />
    <glyph glyph-name="one.tab" 
d="M208 0l80 505l-189 -112l29 177l219 145h185l-113 -715h-211z" />
    <glyph glyph-name="two.tab" 
d="M-19 0l5 30l264 268l46.5 49.5t42.5 50.5t40 62.5t13 53.5q0 26 -14 42.5t-42 16.5q-33 1 -53.5 -25t-34.5 -93h-188q39 272 298 270q66 0 117 -19t84.5 -63.5t34.5 -110.5q1 -78 -43 -142t-141 -153l-92 -80h222l-24 -157h-535z" />
    <glyph glyph-name="three.tab" 
d="M287 -12q-130 0 -203.5 59t-69.5 189h179q1 -48 20 -73.5t66 -25.5q91 0 91 94q0 69 -78 69h-51l21 129h60q39 0 63 20.5t24 64.5q0 29 -17.5 45.5t-50.5 16.5q-78 0 -96 -91h-179q20 114 93.5 177t191.5 63q47 0 88 -9.5t76.5 -30t56.5 -58.5t21 -89q0 -65 -34.5 -110
t-96.5 -62q49 -14 76 -51t27 -91q0 -109 -76 -172.5t-202 -63.5z" />
    <glyph glyph-name="four.tab" 
d="M276 0l20 136h-299l11 73l333 506h233l-69 -440h71l-22 -139h-72l-21 -136h-185zM189 275h134l44 276z" />
    <glyph glyph-name="five.tab" 
d="M273 -12q-124 0 -189.5 60t-60.5 179h178q0 -81 76 -81q44 0 67.5 32t23.5 84q0 82 -85 82q-68 0 -108 -52h-117l81 423h453l-23 -151h-311l-30 -158q60 74 156 74q84 0 132.5 -51.5t48.5 -145.5q0 -135 -77.5 -215t-214.5 -80z" />
    <glyph glyph-name="six.tab" 
d="M295 -12q-122 0 -192.5 63.5t-70.5 186.5q0 36 9 94l10 68q25 153 108.5 239t214.5 86q231 0 228 -211h-171q-1 33 -15.5 49.5t-50.5 16.5q-100 0 -132 -194q59 78 153 78q83 0 134.5 -52t51.5 -144q0 -124 -75.5 -202t-201.5 -78zM211 227q0 -38 22 -63.5t63 -25.5
q43 0 70 31t27 80q0 37 -21.5 60.5t-61.5 23.5q-43 0 -71 -29t-28 -77z" />
    <glyph glyph-name="seven.tab" 
d="M65 0l288 548h-277l27 167h537l-3 -21l-361 -694h-211z" />
    <glyph glyph-name="eight.tab" 
d="M285 -12q-50 0 -95.5 10.5t-85.5 32.5t-63.5 61t-23.5 91q0 147 148 201q-76 43 -76 124q0 100 75.5 158.5t182.5 58.5q97 0 167.5 -46.5t70.5 -138.5q0 -64 -29.5 -104.5t-86.5 -65.5q96 -46 96 -146q0 -114 -79.5 -175t-200.5 -61zM204 215q0 -36 23.5 -57t62.5 -21
q42 0 69 26.5t27 71.5q0 36 -23 56.5t-60 20.5q-43 0 -71 -26t-28 -71zM257 501q0 -30 20 -50.5t55 -20.5t59 22t24 61q0 31 -20.5 51t-52.5 20q-36 0 -60.5 -22.5t-24.5 -60.5z" />
    <glyph glyph-name="nine.tab" 
d="M254 -11q-113 0 -174.5 53.5t-62.5 160.5h175q4 -69 72 -69q104 0 131 193q-54 -77 -152 -77q-82 0 -134 51.5t-52 144.5q0 121 77 200.5t205 79.5q120 0 188 -62.5t69 -186.5q0 -36 -9 -94l-11 -72q-27 -168 -105 -245t-217 -77zM235 467q0 -37 21 -60.5t59 -23.5
q44 0 73.5 28.5t29.5 77.5q0 38 -21 63.5t-62 25.5q-44 0 -72 -31t-28 -80z" />
    <glyph glyph-name="cent.tab" 
d="M213 -135l20 129q-92 16 -148.5 75t-57.5 153q0 134 81 221t211 93l15 93h78l-16 -98q179 -28 186 -210h-162q-3 60 -45 77l-45 -285q69 11 86 92h156q-12 -99 -82 -156.5t-180 -60.5l-19 -123h-78zM201 224q0 -80 52 -104l45 282q-45 -12 -71 -57t-26 -121z" />
    <glyph glyph-name="percent.tab" horiz-adv-x="800" 
d="M195 539q0 -56 48 -56q28 1 43 26.5t15 60.5q0 56 -47 56q-30 0 -44.5 -24.5t-14.5 -62.5zM239 383q-74 0 -123 40t-49 111q0 80 53.5 134.5t137.5 54.5q72 0 121 -41.5t49 -111.5q0 -78 -53.5 -132.5t-135.5 -54.5zM78 0l577 715h100l-578 -715h-99zM528 144
q0 -56 47 -56q29 1 43.5 26t14.5 61q0 55 -46 55q-30 0 -44.5 -24t-14.5 -62zM571 -12q-74 0 -122.5 40t-48.5 111q0 80 53.5 134.5t137.5 54.5q72 0 121 -41.5t49 -111.5q0 -78 -53.5 -132.5t-136.5 -54.5z" />
    <glyph glyph-name="perthousand.tab" horiz-adv-x="1000" 
d="M172 525q0 -46 34 -46q20 0 32 20.5t15 42t3 44.5q0 47 -33 47q-28 0 -39.5 -34.5t-11.5 -73.5zM199 387q-64 0 -103.5 37t-39.5 103q0 83 46.5 139.5t126.5 56.5q62 0 102 -37.5t40 -102.5q0 -83 -46 -139.5t-126 -56.5zM7 0l584 715h98l-584 -715h-98zM436 126
q0 -46 34 -46q20 0 32.5 20.5t15.5 42t3 44.5q0 47 -33 47q-28 0 -40 -35t-12 -73zM464 -12q-64 0 -104 37t-40 103q1 83 47 139.5t126 56.5q63 0 102.5 -37.5t39.5 -102.5q0 -83 -45.5 -139.5t-125.5 -56.5zM772 126q0 -46 35 -46q20 0 32 20.5t15 42t3 44.5q0 47 -34 47
q-19 0 -31.5 -20.5t-16 -43t-3.5 -44.5zM801 -12q-65 0 -104.5 37t-39.5 103q0 83 46 139.5t127 56.5q62 0 102 -37.5t40 -102.5q0 -83 -46 -139.5t-125 -56.5z" />
    <glyph glyph-name="plus.tab" 
d="M201 90l29 185h-170l21 130h170l29 185h144l-30 -185h169l-21 -130h-169l-28 -185h-144z" />
    <glyph glyph-name="minus.tab" 
d="M59 271l21 138h485l-22 -138h-484z" />
    <glyph glyph-name="multiply.tab" 
d="M126 90l-83 96l173 152l-130 153l105 95l132 -155l174 152l84 -96l-175 -153l132 -153l-107 -94l-132 154z" />
    <glyph glyph-name="divide.tab" 
d="M59 278l20 124h484l-19 -124h-485zM287 43q-40 0 -67 26.5t-27 65.5t27 66t66 27q41 0 68.5 -27t27.5 -66t-27.5 -65.5t-67.5 -26.5zM335 452q-40 0 -67 27t-27 66t26.5 65.5t66.5 26.5q41 0 68.5 -26.5t27.5 -65.5t-27.5 -66t-67.5 -27z" />
    <glyph glyph-name="equal.tab" 
d="M51 167l19 122h466l-19 -122h-466zM82 363l19 123h466l-19 -123h-466z" />
    <glyph glyph-name="less.tab" 
d="M488 59l-402 252l5 35l480 239l-26 -166l-226 -97l193 -108z" />
    <glyph glyph-name="greater.tab" 
d="M130 586l402 -251l-6 -36l-479 -239l26 167l226 97l-194 108z" />
    <glyph glyph-name="florin.tab" 
d="M93 293l19 121h100l22 116q20 103 85 149t158 46q53 0 92 -13l-21 -132q-26 7 -56 7q-70 0 -84 -75l-19 -98h128l-19 -121h-131l-89 -475h-177l88 475h-96z" />
    <glyph glyph-name="plusminus.tab" 
d="M214 176l26 165h-176l20 131h176l27 164h143l-26 -164h176l-21 -131h-175l-27 -165h-143zM11 0l18 118h498l-19 -118h-497z" />
    <glyph glyph-name="notequal.tab" 
d="M75 363l19 123h238l49 96h116l-49 -96h126l-19 -123h-169l-37 -74h194l-19 -122h-237l-48 -96h-116l48 96h-126l19 122h169l37 74h-195z" />
    <glyph glyph-name="approxequal.tab" 
d="M67 342q13 91 54.5 134t100.5 43q43 0 117.5 -20t95.5 -20q18 0 31.5 11.5t17.5 32.5h103q-10 -86 -52.5 -131.5t-100.5 -45.5q-44 0 -118.5 20t-95.5 20q-39 0 -49 -44h-104zM32 121q12 91 54 134.5t101 43.5q43 0 117 -20t95 -20q40 0 49 44h104q-10 -86 -53 -132
t-101 -46q-44 0 -118 20t-95 20q-39 0 -50 -44h-103z" />
    <glyph glyph-name="lessequal.tab" 
d="M487 143l-386 230l5 34l457 221l-25 -164l-179 -80l153 -84zM43 0l18 118h422l-18 -118h-422z" />
    <glyph glyph-name="greaterequal.tab" 
d="M51 0l18 118h421l-18 -118h-421zM149 628l386 -231l-6 -34l-456 -220l25 163l179 80l-153 85z" />
    <glyph glyph-name="parenleft.tab" horiz-adv-x="300" 
d="M122 -148q-92 169 -92 346q0 313 228 577h131q-203 -285 -203 -590q-1 -183 58 -333h-122z" />
    <glyph glyph-name="parenright.tab" horiz-adv-x="300" 
d="M192 775q92 -169 92 -346q0 -313 -228 -577h-131q203 285 203 590q1 183 -58 333h122z" />
    <glyph glyph-name="bracketleft.tab" horiz-adv-x="300" 
d="M-20 -148l146 924h238l-18 -117h-77l-110 -690h78l-19 -117h-238z" />
    <glyph glyph-name="bracketright.tab" horiz-adv-x="300" 
d="M-49 -148l18 117h77l110 690h-78l18 117h238l-146 -924h-237z" />
    <glyph glyph-name="braceleft.tab" horiz-adv-x="300" 
d="M218 -148q-274 10 -180 247l32 81q30 73 -55 87l17 110q47 3 65 22.5t16 56.5l-5 102q-7 121 54.5 170t201.5 49l-18 -117q-48 -2 -65 -20t-16 -68l1 -108q1 -60 -28 -95t-94 -52q119 -40 71 -167l-29 -79q-19 -51 -8.5 -74t58.5 -28z" />
    <glyph glyph-name="braceright.tab" horiz-adv-x="300" 
d="M97 777q274 -10 179 -247l-32 -81q-30 -73 56 -87l-18 -110q-47 -3 -64.5 -22.5t-15.5 -56.5l4 -102q8 -121 -54 -170t-202 -49l18 117q48 2 65 20t16 68l-1 108q-1 60 28.5 95t94.5 52q-119 40 -71 167l29 79q19 51 8 74t-59 28z" />
    <glyph glyph-name="period.tab" horiz-adv-x="300" 
d="M121 -11q-44 0 -73 29.5t-29 71.5q0 43 28.5 72t72.5 29q45 0 75.5 -29.5t30.5 -71.5t-30 -71.5t-75 -29.5z" />
    <glyph glyph-name="comma.tab" horiz-adv-x="300" 
d="M64 -124l-99 44l107 262l157 -59z" />
    <glyph glyph-name="colon.tab" horiz-adv-x="300" 
d="M120 -11q-43 0 -72.5 29.5t-29.5 71.5t29 71.5t72 29.5q45 0 75.5 -29.5t30.5 -71.5t-30 -71.5t-75 -29.5zM166 275q-43 0 -72.5 29t-29.5 72q0 42 29 71.5t72 29.5q45 0 75.5 -29.5t30.5 -71.5q0 -43 -30 -72t-75 -29z" />
    <glyph glyph-name="semicolon.tab" horiz-adv-x="300" 
d="M50 -124l-99 44l107 262l158 -59zM170 275q-44 0 -73.5 29t-29.5 72q0 42 29 71.5t73 29.5q45 0 75.5 -29.5t30.5 -71.5q0 -43 -30 -72t-75 -29z" />
    <glyph glyph-name="space.tab" horiz-adv-x="300" 
 />
    <glyph glyph-name="dollar.oldtab" 
d="M294 -11l-19 -120h-71l19 125q-97 15 -153 72t-51 153h160q0 -74 65 -94l24 152q-102 25 -148 71t-46 127q0 101 73.5 163.5t187.5 64.5l14 86h71l-15 -90q190 -25 190 -207h-154q-4 57 -57 73l-22 -144q99 -24 150 -69t51 -127q0 -111 -72.5 -173.5t-196.5 -62.5z
M400 196q0 25 -13.5 39t-49.5 25l-23 -142q86 7 86 78zM235 500q0 -22 13 -36t45 -25l21 131q-39 -3 -59 -21.5t-20 -48.5z" />
    <glyph glyph-name="Euro.oldtab" 
d="M39 370l11 69h47q24 133 94 199t180 65q114 0 172 -59.5t51 -173.5h-162q2 43 -12.5 66t-53.5 23q-40 0 -62.5 -28t-33.5 -92h140l-23 -69h-128l-8 -49h120l-24 -69h-106q-6 -55 8.5 -86.5t64.5 -31.5q36 0 57.5 22t31.5 76h159q-39 -244 -259 -244q-125 0 -185 70
t-49 194h-49l11 69h47l7 49h-46z" />
    <glyph glyph-name="sterling.oldtab" 
d="M39 278l18 117h47q-4 27 -4 64q0 112 69.5 178t187.5 66q243 0 229 -230h-163q1 42 -15 61t-53 19q-80 0 -80 -123v-35h157l-18 -117h-135q-2 -64 -25 -111q73 -20 85 -20q54 0 64 56h160q-14 -102 -66.5 -157t-140.5 -55q-49 0 -107.5 25.5t-74.5 25.5q-39 0 -46 -42
h-137q9 60 35.5 104.5t68.5 64.5q24 46 24 98v11h-80z" />
    <glyph glyph-name="yen.oldtab" 
d="M68 299l11 69h134l-119 326h197l57 -204l118 204h174l-216 -326h140l-11 -69h-149l-8 -51h149l-11 -69h-149l-28 -179h-192l28 179h-144l11 69h144l8 51h-144z" />
    <glyph glyph-name="zero.oldtab" 
d="M287 140q41 0 62.5 29t31.5 94l12 81q7 40 7 60q-2 78 -71 78q-78 0 -96 -124l-13 -81q-6 -33 -6 -59q2 -78 73 -78zM281 -12q-116 0 -182.5 60t-66.5 170q0 31 5 69l13 82q19 126 94.5 194t190.5 68t180.5 -61.5t65.5 -170.5q0 -37 -5 -64l-12 -81q-20 -130 -92 -198
t-191 -68z" />
    <glyph glyph-name="one.oldtab" 
d="M220 0l68 427l-194 -113l26 163l224 142h165l-98 -619h-191z" />
    <glyph glyph-name="two.oldtab" 
d="M-15 0l4 27l254 215q42 36 66 58.5t49.5 59.5t25.5 66q0 61 -63 61q-73 0 -94 -104h-173q19 121 93 184.5t192 63.5q101 0 169.5 -46t68.5 -138q0 -51 -26 -97.5t-56 -75t-88 -73.5l-79 -62h210l-22 -139h-531z" />
    <glyph glyph-name="three.oldtab" 
d="M273 -105q-130 0 -203.5 62.5t-69.5 181.5h175q1 -51 22.5 -76.5t70.5 -25.5q43 0 67.5 24.5t25.5 70.5q0 37 -21 58t-62 21h-52l20 121h56q94 0 94 91q0 69 -72 69q-79 0 -98 -96h-174q17 111 90 173t190 62q64 0 116 -16t89.5 -59.5t37.5 -109.5q0 -64 -34 -110
t-98 -64q104 -32 104 -148q0 -107 -78 -168t-196 -61z" />
    <glyph glyph-name="four.oldtab" 
d="M263 -92l21 133h-301l9 62l335 516h229l-72 -452h75l-19 -126h-76l-21 -133h-180zM165 167h143l47 296z" />
    <glyph glyph-name="five.oldtab" 
d="M11 125h171q2 -86 82 -86q47 0 71.5 32.5t24.5 88.5q0 39 -22 63.5t-66 24.5q-66 0 -109 -53h-112l80 424h444l-23 -146h-306l-31 -167q60 75 150 75q82 0 132 -52.5t50 -146.5q0 -130 -72 -208t-210 -78q-120 0 -190 59.5t-64 169.5z" />
    <glyph glyph-name="six.oldtab" 
d="M300 -12q-122 0 -191.5 66t-69.5 190q0 31 8 87l10 67q24 157 110.5 242t212.5 85q107 0 168 -50.5t57 -157.5h-169q0 67 -67 67q-103 0 -137 -207q56 78 159 78q83 0 131 -51.5t48 -139.5q0 -125 -73.5 -200.5t-196.5 -75.5zM214 223q0 -41 21.5 -66.5t64.5 -25.5
t70.5 32t28.5 81q0 39 -20.5 62.5t-62.5 23.5q-44 0 -73 -30t-29 -77z" />
    <glyph glyph-name="seven.oldtab" 
d="M47 -92l297 554h-277l26 157h528l-4 -22l-365 -689h-205z" />
    <glyph glyph-name="eight.oldtab" 
d="M285 -12q-110 0 -188 50t-78 146q0 74 40 124.5t111 73.5q-77 43 -77 129q0 99 74.5 156.5t180.5 57.5q97 0 165 -46t68 -140q0 -125 -120 -172q100 -45 100 -152q0 -109 -79.5 -168t-196.5 -59zM204 207q0 -35 22.5 -56t62.5 -21q41 0 67.5 26.5t26.5 73.5
q0 35 -21.5 56.5t-60.5 21.5q-42 0 -69.5 -27.5t-27.5 -73.5zM258 501q0 -31 20 -50.5t54 -19.5q35 0 58.5 23t23.5 64q0 31 -19.5 51.5t-52.5 20.5q-36 0 -60 -24.5t-24 -64.5z" />
    <glyph glyph-name="nine.oldtab" 
d="M318 631q121 0 187.5 -64.5t66.5 -186.5q0 -43 -8 -88l-10 -67q-27 -171 -103.5 -251t-210.5 -80q-109 0 -175.5 52t-65.5 163h169q3 -74 73 -74q55 0 87 49t50 158q-54 -78 -156 -78q-83 0 -132.5 52.5t-49.5 140.5q0 123 78 198.5t200 75.5zM396 400q0 42 -21 66.5
t-64 24.5t-71 -32.5t-29 -80.5q0 -39 21.5 -62.5t62.5 -23.5q43 0 72 30.5t29 77.5z" />
    <glyph glyph-name="zero.num" horiz-adv-x="422" 
d="M193 495q0 -62 50 -62q36 0 51.5 39.5t15.5 87.5q0 61 -48 61q-20 0 -34.5 -13.5t-21.5 -34.5t-10 -40.5t-3 -37.5zM237 332q-80 0 -127.5 41.5t-47.5 117.5q0 99 55.5 164t150.5 65q79 0 126.5 -41t47.5 -117q0 -101 -54.5 -165.5t-150.5 -64.5z" />
    <glyph glyph-name="one.num" horiz-adv-x="286" 
d="M113 339l39 246l-89 -46l17 109l113 67h114l-60 -376h-134z" />
    <glyph glyph-name="two.num" horiz-adv-x="353" 
d="M16 339l3 18l149 132q27 23 41 36.5t29 34t15 34.5q0 29 -29 29q-35 0 -46 -52h-122q11 73 58.5 111t119.5 38q67 0 108.5 -27t41.5 -86q0 -38 -24.5 -69.5t-78.5 -77.5l-31 -26h109l-16 -95h-327z" />
    <glyph glyph-name="three.num" horiz-adv-x="374" 
d="M215 332q-76 0 -120.5 32.5t-45.5 101.5h118q0 -42 42 -42q16 0 28 9t12 28q0 31 -43 31h-28l12 74h33q45 0 45 34q0 29 -34 29q-36 0 -45 -38h-116q9 62 54.5 95.5t118.5 33.5q62 0 104.5 -23.5t42.5 -78.5q0 -67 -77 -89q64 -13 64 -77q0 -58 -47 -89t-118 -31z" />
    <glyph glyph-name="four.num" horiz-adv-x="394" 
d="M210 339l11 70h-187l8 49l197 257h159l-35 -219h48l-14 -87h-47l-11 -70h-129zM165 496h74l20 128z" />
    <glyph glyph-name="five.num" horiz-adv-x="367" 
d="M209 332q-69 0 -115.5 30t-48.5 96h124q3 -29 37 -29q17 0 28 11.5t11 33.5q0 36 -37 36q-25 0 -42 -24h-101l48 229h279l-15 -93h-187l-16 -77q35 45 97 45q48 0 77 -26.5t29 -77.5q0 -74 -45.5 -113.5t-122.5 -40.5z" />
    <glyph glyph-name="six.num" horiz-adv-x="391" 
d="M233 332q-78 0 -124.5 38.5t-47.5 113.5q0 15 4 47l2 13q13 82 67 129t132 47q147 0 151 -118h-121q-5 25 -33 25q-47 0 -64 -83q31 38 89 38q50 0 82.5 -26.5t32.5 -75.5q0 -71 -48 -109.5t-122 -38.5zM194 459q0 -16 9.5 -27.5t28.5 -11.5t31 13.5t12 36.5
q0 17 -9.5 27.5t-27.5 10.5q-19 0 -31.5 -13t-12.5 -36z" />
    <glyph glyph-name="seven.num" horiz-adv-x="343" 
d="M72 339l146 272h-147l17 104h316l-2 -15l-194 -361h-136z" />
    <glyph glyph-name="eight.num" horiz-adv-x="380" 
d="M221 332q-71 0 -121.5 26t-50.5 82q0 74 83 101q-44 24 -44 66q0 57 46.5 85t111.5 28q64 0 108.5 -25.5t44.5 -76.5q0 -68 -63 -87q56 -21 56 -77q0 -63 -50 -92.5t-121 -29.5zM181 456q0 -16 10.5 -25.5t29.5 -9.5t31.5 10.5t12.5 30.5q0 16 -10.5 26t-28.5 10
q-19 0 -32 -11t-13 -31zM205 598q0 -14 9.5 -23t24.5 -9q18 0 29 9.5t11 27.5q0 14 -10 23t-26 9t-27 -9.5t-11 -27.5z" />
    <glyph glyph-name="nine.num" horiz-adv-x="391" 
d="M241 721q78 0 123.5 -37.5t45.5 -111.5q0 -31 -4 -52l-2 -13q-28 -175 -198 -175q-146 0 -153 119h121q5 -25 36 -25q49 0 63 83q-33 -38 -90 -38q-50 0 -82 26.5t-32 76.5q0 70 49 108.5t123 38.5zM278 594q0 16 -9.5 27.5t-28.5 11.5t-31.5 -13.5t-12.5 -36.5
q0 -38 38 -38q19 0 31.5 13t12.5 36z" />
    <glyph glyph-name="zero.den" horiz-adv-x="422" 
d="M140 155q0 -61 50 -61q36 0 51.5 39t15.5 87q0 62 -48 62q-20 0 -34.5 -13.5t-21.5 -34.5t-10 -40.5t-3 -38.5zM184 -7q-80 0 -127.5 41.5t-47.5 117.5q0 99 55.5 164t150.5 65q79 0 126.5 -41t47.5 -118q0 -101 -54.5 -165t-150.5 -64z" />
    <glyph glyph-name="one.den" horiz-adv-x="286" 
d="M60 0l39 246l-89 -46l17 109l113 67h114l-60 -376h-134z" />
    <glyph glyph-name="two.den" horiz-adv-x="353" 
d="M-37 0l3 17l149 133q27 23 41 36.5t29 33.5t15 34q0 30 -29 30q-35 0 -46 -53h-122q11 74 58 112t120 38q67 0 108.5 -27t41.5 -86q0 -38 -24.5 -69.5t-78.5 -77.5l-31 -26h109l-16 -95h-327z" />
    <glyph glyph-name="three.den" horiz-adv-x="374" 
d="M162 -7q-76 0 -120.5 32.5t-45.5 100.5h117q2 -41 43 -41q16 0 28 9t12 28q0 30 -43 30h-28l12 74h33q45 0 45 35q0 29 -34 29q-36 0 -45 -38h-116q9 61 54.5 95t118.5 34q61 0 104 -24t43 -78q0 -67 -77 -89q64 -13 64 -77q0 -59 -47 -89.5t-118 -30.5z" />
    <glyph glyph-name="four.den" horiz-adv-x="394" 
d="M157 0l11 70h-187l8 49l197 257h159l-35 -219h48l-14 -87h-47l-11 -70h-129zM112 157h74l20 127z" />
    <glyph glyph-name="five.den" horiz-adv-x="367" 
d="M156 -7q-69 0 -115.5 30t-48.5 96h124q4 -30 37 -30q17 0 28 12t11 34q0 35 -37 35q-27 0 -42 -23h-101l48 229h279l-15 -93h-187l-16 -78q33 45 97 45q48 0 77 -26.5t29 -76.5q0 -75 -45.5 -114.5t-122.5 -39.5z" />
    <glyph glyph-name="six.den" horiz-adv-x="391" 
d="M180 -7q-78 0 -124.5 38t-47.5 113q0 14 4 48l2 12q13 83 67 130t132 47q147 0 151 -118h-121q-5 25 -33 25q-48 0 -64 -84q32 39 89 39q50 0 82.5 -27t32.5 -75q0 -71 -48 -109.5t-122 -38.5zM141 120q0 -39 38 -39q19 0 31 13t12 36q0 38 -37 38q-19 0 -31.5 -13
t-12.5 -35z" />
    <glyph glyph-name="seven.den" horiz-adv-x="343" 
d="M19 0l146 272h-147l17 104h316l-2 -15l-194 -361h-136z" />
    <glyph glyph-name="eight.den" horiz-adv-x="380" 
d="M168 -7q-71 0 -121.5 25.5t-50.5 81.5q0 75 83 102q-44 24 -44 66q0 56 46.5 84.5t111.5 28.5q64 0 108.5 -25.5t44.5 -76.5q0 -68 -63 -87q56 -23 56 -77q0 -63 -50 -92.5t-121 -29.5zM128 116q0 -15 10.5 -25t29.5 -10q18 0 31 11t13 30q0 16 -10.5 26.5t-28.5 10.5
q-19 0 -32 -11.5t-13 -31.5zM152 259q0 -15 9.5 -23.5t24.5 -8.5q18 0 29 9.5t11 27.5q0 14 -10 23t-26 9q-15 0 -26.5 -10t-11.5 -27z" />
    <glyph glyph-name="nine.den" horiz-adv-x="391" 
d="M188 381q78 0 123.5 -37t45.5 -111q0 -30 -4 -53l-2 -12q-28 -175 -198 -175q-146 0 -153 119h121q5 -25 36 -25q49 0 63 83q-31 -38 -90 -38q-50 0 -82 26.5t-32 76.5q0 69 49.5 107.5t122.5 38.5zM225 255q0 38 -38 38q-19 0 -31.5 -13t-12.5 -36q0 -38 38 -38
q19 0 31.5 13t12.5 36z" />
    <glyph glyph-name="zero.sub" horiz-adv-x="422" 
d="M121 35q0 -61 50 -61q25 0 41 22.5t21 48.5t5 55q0 62 -49 62q-20 0 -34 -13.5t-21 -34.5t-10 -41t-3 -38zM165 -127q-80 0 -128 41.5t-48 117.5q0 99 55.5 164t151.5 65q78 0 126 -41t48 -118q0 -101 -54.5 -165t-150.5 -64z" />
    <glyph glyph-name="one.sub" horiz-adv-x="286" 
d="M41 -120l39 246l-89 -46l17 109l112 67h114l-60 -376h-133z" />
    <glyph glyph-name="two.sub" horiz-adv-x="353" 
d="M-56 -120l3 17l149 133q28 25 40.5 37t28 32.5t15.5 34.5q0 30 -28 30q-35 0 -46 -53h-122q11 74 58 112t120 38q67 0 108.5 -27t41.5 -86q0 -38 -24.5 -69.5t-78.5 -77.5l-31 -26h108l-15 -95h-327z" />
    <glyph glyph-name="three.sub" horiz-adv-x="374" 
d="M142 -127q-76 0 -120.5 32.5t-45.5 100.5h118q2 -41 43 -41q16 0 28 9t12 28q0 30 -43 30h-28l12 74h33q44 0 44 35q0 29 -33 29q-36 0 -45 -38h-116q8 61 53.5 95t118.5 34q61 0 104 -24t43 -78q0 -68 -76 -89q64 -13 64 -77q0 -59 -47 -89.5t-119 -30.5z" />
    <glyph glyph-name="four.sub" horiz-adv-x="394" 
d="M137 -120l11 70h-186l8 49l196 257h160l-35 -219h48l-14 -87h-48l-11 -70h-129zM93 37h74l20 127z" />
    <glyph glyph-name="five.sub" horiz-adv-x="367" 
d="M137 -127q-69 0 -115.5 30t-48.5 96h124q2 -30 36 -30q17 0 28.5 12t11.5 34q0 35 -37 35q-27 0 -42 -23h-101l48 229h278l-14 -93h-188l-15 -78q31 45 97 45q48 0 77 -26.5t29 -76.5q-1 -75 -46 -114.5t-122 -39.5z" />
    <glyph glyph-name="six.sub" horiz-adv-x="391" 
d="M161 -127q-79 0 -125.5 38t-46.5 113q0 25 4 48l2 12q13 83 67 130t132 47q147 0 151 -118h-121q-5 25 -33 25q-48 0 -64 -84q30 39 89 39q50 0 82.5 -27t32.5 -75q0 -71 -48 -109.5t-122 -38.5zM121 0q0 -39 39 -39q19 0 31 13t12 36q0 38 -37 38q-19 0 -32 -13t-13 -35
z" />
    <glyph glyph-name="seven.sub" horiz-adv-x="343" 
d="M0 -120l145 272h-146l17 104h316l-3 -15l-194 -361h-135z" />
    <glyph glyph-name="eight.sub" horiz-adv-x="380" 
d="M149 -127q-71 0 -121.5 25.5t-50.5 81.5q0 76 83 102q-44 24 -44 66q0 56 46.5 84.5t110.5 28.5t109 -25.5t45 -76.5q0 -68 -64 -87q56 -22 56 -77q0 -63 -50 -92.5t-120 -29.5zM109 -4q0 -15 10 -25t29 -10q18 0 31 11t13 30q0 16 -10.5 26.5t-28.5 10.5t-31 -11.5
t-13 -31.5zM133 139q0 -15 9.5 -23.5t24.5 -8.5q17 0 28.5 10t11.5 27q0 14 -10 23t-26 9q-15 0 -26.5 -10t-11.5 -27z" />
    <glyph glyph-name="nine.sub" horiz-adv-x="391" 
d="M169 261q78 0 123 -37t46 -111q0 -19 -4 -53l-2 -12q-28 -175 -198 -175q-148 0 -153 119h121q5 -25 35 -25q50 0 63 83q-29 -38 -89 -38q-50 0 -82.5 26.5t-32.5 76.5q0 69 49.5 107.5t123.5 38.5zM206 135q0 38 -38 38q-19 0 -31.5 -13t-12.5 -36q0 -38 37 -38
q19 0 32 13t13 36z" />
    <glyph glyph-name="plus.sub" horiz-adv-x="357" 
d="M77 -71l16 98h-97l15 93h97l16 99h95l-17 -99h97l-15 -93h-97l-15 -98h-95z" />
    <glyph glyph-name="minus.sub" horiz-adv-x="357" 
d="M-4 27l15 93h288l-15 -93h-288z" />
    <glyph glyph-name="zero.sup" horiz-adv-x="422" 
d="M200 553q0 -62 49 -62q36 0 52 39.5t16 87.5q0 61 -49 61q-26 0 -42.5 -24t-21 -49.5t-4.5 -52.5zM243 390q-79 0 -127 41.5t-48 117.5q0 99 55.5 164t150.5 65q79 0 126.5 -41t47.5 -117q0 -101 -54.5 -165.5t-150.5 -64.5z" />
    <glyph glyph-name="one.sup" horiz-adv-x="286" 
d="M120 397l39 246l-89 -46l17 109l112 67h114l-60 -376h-133z" />
    <glyph glyph-name="two.sup" horiz-adv-x="353" 
d="M22 397l4 18l148 132q27 23 41 36.5t29 34t15 34.5q0 29 -28 29q-34 0 -47 -52h-121q10 73 57.5 111t120.5 38q66 0 108 -27t42 -86q0 -38 -24.5 -70t-79.5 -77l-30 -26h108l-15 -95h-328z" />
    <glyph glyph-name="three.sup" horiz-adv-x="374" 
d="M221 390q-76 0 -120.5 32.5t-45.5 101.5h118q2 -42 42 -42q17 0 29 9t12 28q0 31 -43 31h-28l11 74h34q44 0 44 34q0 29 -33 29q-37 0 -46 -38h-115q8 61 53 95t119 34q62 0 104.5 -23.5t42.5 -78.5q0 -67 -76 -89q64 -14 64 -77q0 -58 -47.5 -89t-118.5 -31z" />
    <glyph glyph-name="four.sup" horiz-adv-x="394" 
d="M216 397l11 70h-187l8 49l197 257h159l-34 -219h48l-14 -87h-48l-11 -70h-129zM171 554h74l20 128z" />
    <glyph glyph-name="five.sup" horiz-adv-x="367" 
d="M215 390q-69 0 -115 30t-48 96h123q3 -29 37 -29q17 0 28.5 11.5t11.5 33.5q0 36 -37 36q-27 0 -42 -24h-101l47 229h279l-15 -93h-187l-16 -77q35 45 98 45q48 0 77 -26.5t28 -77.5q0 -74 -45.5 -113.5t-122.5 -40.5z" />
    <glyph glyph-name="six.sup" horiz-adv-x="391" 
d="M240 390q-78 0 -125 38.5t-47 113.5q0 26 4 47l2 13q13 82 67 129t132 47q147 0 150 -118h-121q-5 25 -33 25q-46 0 -64 -83q31 38 90 38q50 0 82 -26.5t32 -75.5q0 -71 -47.5 -109.5t-121.5 -38.5zM200 517q0 -16 9.5 -27.5t28.5 -11.5t31.5 13.5t12.5 36.5q0 38 -38 38
q-19 0 -31.5 -13t-12.5 -36z" />
    <glyph glyph-name="seven.sup" horiz-adv-x="343" 
d="M78 397l146 272h-147l17 104h317l-3 -15l-194 -361h-136z" />
    <glyph glyph-name="eight.sup" horiz-adv-x="380" 
d="M227 390q-45 0 -81.5 9.5t-63 34.5t-26.5 64q0 75 83 101q-45 23 -45 66q0 56 46.5 84.5t111.5 28.5q64 0 108.5 -25.5t44.5 -76.5q0 -68 -63 -87q56 -21 56 -77q0 -63 -50 -92.5t-121 -29.5zM188 514q0 -35 39 -35q19 0 31.5 10.5t12.5 30.5q0 16 -10.5 26t-28.5 10
t-31 -11t-13 -31zM211 656q0 -14 9.5 -23t25.5 -9q17 0 28 10t11 27q0 14 -10 23t-26 9t-27 -9.5t-11 -27.5z" />
    <glyph glyph-name="nine.sup" horiz-adv-x="391" 
d="M247 779q79 0 124 -37.5t45 -111.5q0 -31 -4 -52l-2 -13q-26 -175 -197 -175q-148 0 -153 119h121q5 -25 35 -25q49 0 63 83q-33 -38 -89 -38q-50 0 -82.5 26.5t-32.5 76.5q0 70 49.5 108.5t122.5 38.5zM284 652q0 39 -38 39q-19 0 -31 -13.5t-12 -36.5q0 -38 37 -38
q19 0 31.5 13t12.5 36z" />
    <glyph glyph-name="plus.sup" horiz-adv-x="357" 
d="M151 446l15 98h-96l15 93h96l16 99h94l-15 -99h96l-15 -93h-96l-15 -98h-95z" />
    <glyph glyph-name="minus.sup" horiz-adv-x="357" 
d="M70 544l15 93h287l-15 -93h-287z" />
    <glyph glyph-name="a.alt" horiz-adv-x="632" 
d="M320 404q-52 0 -83 -48t-31 -126q0 -108 84 -108q50 0 83 50t33 126q0 50 -23 78t-63 28zM211 -12q-86 0 -138 59.5t-52 164.5q0 147 72 236t180 89q59 0 98.5 -26.5t55.5 -69.5l13 82h179l-56 -360q-16 -103 -11 -163h-177q-4 24 -2 88q-59 -100 -162 -100z" />
    <glyph glyph-name="t.alt" horiz-adv-x="382" 
d="M44 0l63 401h-72l19 122h72l18 109h179l-18 -109h96l-19 -122h-96l-63 -401h-179z" />
    <glyph glyph-name="germandbls.alt" horiz-adv-x="686" 
d="M447 -9q-93 0 -149.5 41t-55.5 128h152q1 -53 44 -53t43 44q0 8 -3 14.5t-6 11t-12 11t-14.5 10t-19 12t-20.5 12.5q-100 60 -100 131q0 31 15.5 59t37 48t43.5 38.5t37.5 38t15.5 38.5q0 55 -73 55q-92 0 -109 -102l-83 -528h-179l84 533q18 117 96.5 174t200.5 57
q64 0 115.5 -15t87.5 -53.5t36 -96.5q0 -36 -15.5 -67.5t-38 -51.5t-45 -36t-38 -29.5t-15.5 -23.5q0 -11 9.5 -20t42.5 -31q11 -7 18 -12q52 -35 77.5 -71t25.5 -91q0 -83 -55 -129t-150 -46z" />
    <glyph glyph-name="aacute.alt" horiz-adv-x="632" 
d="M281 583l73 166h182l-125 -166h-130zM320 404q-52 0 -83 -48t-31 -126q0 -108 84 -108q50 0 83 50t33 126q0 50 -23 78t-63 28zM211 -12q-86 0 -138 59.5t-52 164.5q0 147 72 236t180 89q59 0 98.5 -26.5t55.5 -69.5l13 82h179l-56 -360q-16 -103 -11 -163h-177
q-4 24 -2 88q-59 -100 -162 -100z" />
    <glyph glyph-name="abreve.alt" horiz-adv-x="632" 
d="M320 404q-52 0 -83 -48t-31 -126q0 -108 84 -108q50 0 83 50t33 126q0 50 -23 78t-63 28zM211 -12q-86 0 -138 59.5t-52 164.5q0 147 72 236t180 89q59 0 98.5 -26.5t55.5 -69.5l13 82h179l-56 -360q-16 -103 -11 -163h-177q-4 24 -2 88q-59 -100 -162 -100zM359 587
q-75 0 -117.5 42t-41.5 116h111q3 -48 50 -48q48 0 56 48h111q-10 -76 -55 -117t-114 -41z" />
    <glyph glyph-name="acircumflex.alt" horiz-adv-x="632" 
d="M168 585l144 163h128l96 -163h-120l-53 56l-68 -56h-127zM320 404q-52 0 -83 -48t-31 -126q0 -108 84 -108q50 0 83 50t33 126q0 50 -23 78t-63 28zM211 -12q-86 0 -138 59.5t-52 164.5q0 147 72 236t180 89q59 0 98.5 -26.5t55.5 -69.5l13 82h179l-56 -360
q-16 -103 -11 -163h-177q-4 24 -2 88q-59 -100 -162 -100z" />
    <glyph glyph-name="adieresis.alt" horiz-adv-x="632" 
d="M256 580q-35 0 -60 24.5t-25 58.5q0 35 25 59.5t61 24.5q35 0 60 -24.5t25 -58.5q0 -35 -25 -59.5t-61 -24.5zM469 580q-36 0 -60.5 24t-24.5 59t24.5 59.5t60.5 24.5t61 -24t25 -59t-25 -59.5t-61 -24.5zM320 404q-52 0 -83 -48t-31 -126q0 -108 84 -108q50 0 83 50
t33 126q0 50 -23 78t-63 28zM211 -12q-86 0 -138 59.5t-52 164.5q0 147 72 236t180 89q59 0 98.5 -26.5t55.5 -69.5l13 82h179l-56 -360q-16 -103 -11 -163h-177q-4 24 -2 88q-59 -100 -162 -100z" />
    <glyph glyph-name="agrave.alt" horiz-adv-x="632" 
d="M320 404q-52 0 -83 -48t-31 -126q0 -108 84 -108q50 0 83 50t33 126q0 50 -23 78t-63 28zM211 -12q-86 0 -138 59.5t-52 164.5q0 147 72 236t180 89q59 0 98.5 -26.5t55.5 -69.5l13 82h179l-56 -360q-16 -103 -11 -163h-177q-4 24 -2 88q-59 -100 -162 -100zM296 583
l-93 166h178l40 -166h-125z" />
    <glyph glyph-name="amacron.alt" horiz-adv-x="632" 
d="M320 404q-52 0 -83 -48t-31 -126q0 -108 84 -108q50 0 83 50t33 126q0 50 -23 78t-63 28zM211 -12q-86 0 -138 59.5t-52 164.5q0 147 72 236t180 89q59 0 98.5 -26.5t55.5 -69.5l13 82h179l-56 -360q-16 -103 -11 -163h-177q-4 24 -2 88q-59 -100 -162 -100zM205 612
l16 100h307l-15 -100h-308z" />
    <glyph glyph-name="aogonek.alt" horiz-adv-x="632" 
d="M461 -182q-49 0 -81 18.5t-32 60.5q0 36 28.5 62.5t67.5 40.5h-69q-4 24 -2 88q-59 -100 -162 -100q-86 0 -138 59.5t-52 164.5q0 147 72 236t180 89q59 0 98.5 -26.5t55.5 -69.5l13 82h179l-56 -360q-16 -97 -12 -156q-19 -15 -27.5 -23t-19 -23t-10.5 -28q0 -24 29 -24
q15 0 28 5l-13 -82q-32 -14 -77 -14zM320 404q-52 0 -83 -48t-31 -126q0 -108 84 -108q50 0 83 50t33 126q0 50 -23 78t-63 28z" />
    <glyph glyph-name="aring.alt" horiz-adv-x="632" 
d="M363 642q20 0 33.5 14.5t13.5 36.5t-12.5 35.5t-32.5 13.5t-33.5 -14.5t-13.5 -36.5t12.5 -35.5t32.5 -13.5zM363 578q-49 0 -83 33t-34 80q0 48 35 82t84 34t83 -33.5t34 -80.5q0 -48 -35 -81.5t-84 -33.5zM320 404q-52 0 -83 -48t-31 -126q0 -108 84 -108q50 0 83 50
t33 126q0 50 -23 78t-63 28zM211 -12q-86 0 -138 59.5t-52 164.5q0 147 72 236t180 89q59 0 98.5 -26.5t55.5 -69.5l13 82h179l-56 -360q-16 -103 -11 -163h-177q-4 24 -2 88q-59 -100 -162 -100z" />
    <glyph glyph-name="aringacute.alt" horiz-adv-x="632" 
d="M362 636q20 0 33.5 14.5t13.5 36.5t-12.5 35.5t-32.5 13.5t-33.5 -14.5t-13.5 -36.5t12.5 -35.5t32.5 -13.5zM362 572q-49 0 -83 33t-34 80q0 48 35 82t84 34t83 -33.5t34 -80.5q0 -48 -35 -81.5t-84 -33.5zM320 404q-52 0 -83 -48t-31 -126q0 -108 84 -108q50 0 83 50
t33 126q0 50 -23 78t-63 28zM211 -12q-86 0 -138 59.5t-52 164.5q0 147 72 236t180 89q59 0 98.5 -26.5t55.5 -69.5l13 82h179l-56 -360q-16 -103 -11 -163h-177q-4 24 -2 88q-59 -100 -162 -100zM310 829l64 146h188l-115 -146h-137z" />
    <glyph glyph-name="atilde.alt" horiz-adv-x="632" 
d="M320 404q-52 0 -83 -48t-31 -126q0 -108 84 -108q50 0 83 50t33 126q0 50 -23 78t-63 28zM211 -12q-86 0 -138 59.5t-52 164.5q0 147 72 236t180 89q59 0 98.5 -26.5t55.5 -69.5l13 82h179l-56 -360q-16 -103 -11 -163h-177q-4 24 -2 88q-59 -100 -162 -100zM426 587
q-32 0 -69 16.5t-48 16.5q-27 0 -35 -32h-97q12 77 46 116.5t82 39.5q30 0 67.5 -17t51.5 -17q25 0 35 32h97q-13 -76 -48 -115.5t-82 -39.5z" />
    <glyph glyph-name="tbar.alt" horiz-adv-x="382" 
d="M9 233l15 99h72l11 69h-72l19 122h72l18 109h179l-18 -109h96l-19 -122h-96l-11 -69h96l-15 -99h-97l-36 -233h-179l36 233h-71z" />
    <glyph glyph-name="tcaron.alt" horiz-adv-x="382" 
d="M44 0l63 401h-72l19 122h72l18 109h179l-18 -109h96l-19 -122h-96l-63 -401h-179zM358 579l36 174h132l-75 -174h-93z" />
    <glyph glyph-name="tcommaaccent.alt" horiz-adv-x="382" 
d="M97 -232l-99 27l51 177l157 -19zM44 0l63 401h-72l19 122h72l18 109h179l-18 -109h96l-19 -122h-96l-63 -401h-179z" />
    <glyph glyph-name="f.short" horiz-adv-x="382" 
d="M33 401l19 122h66l10 64q15 91 73 134t145 43q54 0 93 -14l-21 -131q-24 8 -48 8q-55 0 -66 -58l-8 -46h107l-19 -122h-107l-63 -401h-178l63 401h-66z" />
    <glyph glyph-name="f_f.short" horiz-adv-x="713" 
d="M33 401l19 122h66l9 56q14 88 72 131t144 43q57 0 91 -14l-20 -130q-20 7 -46 7q-56 0 -65 -55l-6 -38h152l10 64q14 91 72.5 134t145.5 43q53 0 93 -14l-21 -131q-26 8 -48 8q-55 0 -66 -58l-8 -46h107l-19 -122h-107l-63 -401h-179l63 401h-152l-63 -401h-178l63 401
h-66z" />
    <glyph glyph-name="questiondown.uc" horiz-adv-x="556" 
d="M422 480l-4 -24q-9 -53 -40 -90t-81 -75q-5 -4 -22 -16.5t-21.5 -16.5t-16 -15t-15 -17.5t-7.5 -17.5t-4 -22q2 -51 58 -51q68 0 84 88h175q-15 -114 -89.5 -174t-186.5 -59q-112 0 -172.5 50t-60.5 132q0 59 27.5 99t77.5 78q9 7 38.5 27t42.5 30.5t28.5 31t20.5 42.5
h168zM360 726q44 0 73 -28t29 -70t-30 -71.5t-74 -29.5q-43 0 -73.5 29t-30.5 70t31 70.5t75 29.5z" />
    <glyph glyph-name="exclamdown.uc" horiz-adv-x="334" 
d="M276 480l-50 -480h-202l104 480h148zM223 726q44 0 73 -28t29 -70t-30 -71.5t-73 -29.5q-44 0 -74 29t-30 70t30.5 70.5t74.5 29.5z" />
    <glyph glyph-name="hyphen.uc" horiz-adv-x="405" 
d="M48 255l23 142h303l-22 -142h-304z" />
    <glyph glyph-name="endash.uc" horiz-adv-x="541" 
d="M47 276l17 105h449l-17 -105h-449z" />
    <glyph glyph-name="emdash.uc" horiz-adv-x="946" 
d="M47 276l17 105h855l-17 -105h-855z" />
    <glyph glyph-name="guilsinglleft.uc" horiz-adv-x="307" 
d="M129 106l-96 201l152 189h126l-151 -191l86 -199h-117z" />
    <glyph glyph-name="guilsinglright.uc" horiz-adv-x="307" 
d="M187 496l97 -201l-153 -189h-125l150 191l-86 199h117z" />
    <glyph glyph-name="guillemotleft.uc" horiz-adv-x="480" 
d="M131 106l-98 199l145 191h119l-145 -192l92 -198h-113zM309 106l-95 197l145 193h119l-144 -196l88 -194h-113z" />
    <glyph glyph-name="guillemotright.uc" horiz-adv-x="480" 
d="M360 496l99 -199l-145 -191h-119l144 192l-91 198h112zM182 496l96 -197l-146 -193h-118l144 196l-88 194h112z" />
    <glyph glyph-name="parenleft.uc" horiz-adv-x="356" 
d="M146 -98q-106 157 -106 344q0 306 248 539h145q-113 -143 -168 -270t-55 -282q0 -179 75 -331h-139z" />
    <glyph glyph-name="parenright.uc" horiz-adv-x="356" 
d="M231 785q106 -157 106 -344q0 -306 -248 -539h-146q113 143 168.5 270t55.5 282q0 179 -75 331h139z" />
    <glyph glyph-name="bracketleft.uc" horiz-adv-x="409" 
d="M8 -93l139 876h306l-21 -130h-125l-97 -616h125l-21 -130h-306z" />
    <glyph glyph-name="bracketright.uc" horiz-adv-x="409" 
d="M-19 -93l21 130h124l97 616h-124l21 130h305l-139 -876h-305z" />
    <glyph glyph-name="braceleft.uc" horiz-adv-x="418" 
d="M323 -94q-147 2 -206 63.5t-20 176.5l18 56q31 84 -81 88l20 125q59 -1 83 17.5t23 60.5l-1 65q-2 126 69.5 176.5t233.5 49.5l-21 -130q-61 -3 -83 -24.5t-23 -75.5l-1 -74q-3 -110 -122 -134q55 -14 74.5 -52.5t2.5 -94.5l-20 -64q-16 -52 0.5 -73.5t73.5 -25.5z" />
    <glyph glyph-name="braceright.uc" horiz-adv-x="418" 
d="M120 784q146 -2 205 -64t21 -177l-19 -55q-29 -83 81 -89l-20 -124q-59 0 -83 -18.5t-23 -60.5l2 -65q1 -125 -70.5 -175.5t-232.5 -49.5l20 130q61 2 83 23t23 76l2 74q1 111 121 135q-55 14 -74.5 52t-2.5 95l20 64q16 51 -0.5 72.5t-73.5 25.5z" />
    <glyph glyph-name="slash.uc" horiz-adv-x="434" 
d="M-52 -84l415 861h146l-416 -861h-145z" />
    <glyph glyph-name="backslash.uc" horiz-adv-x="441" 
d="M251 -84l-175 861h138l174 -861h-137z" />
    <glyph glyph-name="bar.uc" horiz-adv-x="268" 
d="M85 -84v861h125v-861h-125z" />
    <glyph glyph-name="at.uc" horiz-adv-x="925" 
d="M473 -80q-195 0 -309.5 114.5t-114.5 284.5q0 130 64.5 232t167.5 155.5t222 53.5q175 0 288.5 -98.5t113.5 -255.5q0 -142 -65 -210t-158 -68q-120 0 -140 81q-44 -83 -142 -83q-68 0 -109 46t-42 123q-1 109 58 178t146 69q81 0 106 -59l9 51h147l-44 -270
q-10 -66 39 -66q47 0 81 52t34 158q0 126 -88 204t-236 78q-157 0 -262 -102t-105 -272q1 -143 89.5 -235t253.5 -92q82 0 148.5 24.5t106.5 62.5h91q-50 -71 -144 -113.5t-206 -42.5zM456 242q34 0 58.5 34t24.5 86q0 30 -15.5 47.5t-45.5 17.5q-33 0 -56.5 -33t-22.5 -88
q1 -29 15.5 -46.5t41.5 -17.5z" />
    </font>
</defs>
</svg>
