<?xml version="1.0" standalone="no"?>
<!DOCTYPE svg PUBLIC "-//W3C//DTD SVG 1.1//EN" "http://www.w3.org/Graphics/SVG/1.1/DTD/svg11.dtd" >
<svg>
<metadata>
Created by FontForge 20120731 at Sun Aug 28 06:44:58 2016
 By ,,,
(c)2009 Commercial Type.
</metadata>
<defs>
<font id="Graphik-MediumItalic" horiz-adv-x="600" >
  <font-face 
    font-family="Graphik Medium"
    font-weight="500"
    font-style="italic"
    font-stretch="normal"
    units-per-em="1000"
    panose-1="2 11 6 3 3 2 2 13 2 3"
    ascent="821"
    descent="-179"
    x-height="523"
    cap-height="715"
    bbox="-261 -225 1120 1123"
    underline-thickness="50"
    underline-position="-50"
    slope="-8"
    unicode-range="U+0020-FB02"
  />
<missing-glyph horiz-adv-x="508" 
 />
    <glyph glyph-name="f_f" unicode="ff" horiz-adv-x="657" 
d="M349 0l68 432h-182l-68 -432h-120l67 432h-70l14 91h71l12 78q13 79 63.5 119.5t125.5 40.5q48 0 77 -13l-14 -92q-19 9 -51 9q-69 0 -81 -73l-11 -69h182l14 88q12 79 63 119.5t126 40.5q48 0 79 -13l-14 -92q-23 10 -53 10q-70 0 -81 -73l-13 -80h119l-14 -91h-119
l-69 -432h-121z" />
    <glyph glyph-name=".notdef" horiz-adv-x="508" 
 />
    <glyph glyph-name=".null" horiz-adv-x="0" 
 />
    <glyph glyph-name="nonmarkingreturn" horiz-adv-x="333" 
 />
    <glyph glyph-name="space" unicode=" " horiz-adv-x="238" 
 />
    <glyph glyph-name="exclam" unicode="!" horiz-adv-x="305" 
d="M96 215l61 500h135l-99 -500h-97zM124 -7q-34 0 -56.5 22.5t-22.5 54.5q0 33 22.5 55.5t56.5 22.5q33 0 56.5 -22.5t23.5 -54.5q0 -33 -23.5 -55.5t-56.5 -22.5z" />
    <glyph glyph-name="quotedbl" unicode="&#x22;" horiz-adv-x="409" 
d="M102 458l21 257h121l-56 -257h-86zM284 458l22 257h121l-57 -257h-86z" />
    <glyph glyph-name="numbersign" unicode="#" horiz-adv-x="529" 
d="M253 99l39 167h-83l-39 -167h-89l39 167h-83l16 98h90l26 110h-84l14 95h93l35 146h88l-34 -146h83l35 146h89l-35 -146h84l-14 -95h-93l-26 -110h87l-16 -98h-94l-39 -167h-89zM258 474l-26 -110h83l26 110h-83z" />
    <glyph glyph-name="dollar" unicode="$" horiz-adv-x="627" 
d="M307 -10h-3l-20 -125h-66l20 130q-99 16 -155.5 76t-57.5 150h123q2 -48 28 -82.5t78 -46.5l36 226q-101 28 -148 72t-47 122q0 91 73 150.5t186 61.5l14 89h66l-15 -94q86 -13 137 -63t55 -137h-119q-7 84 -88 104l-33 -210q106 -30 155.5 -73.5t49.5 -121.5
q0 -104 -73.5 -166t-195.5 -62zM453 202q0 36 -21.5 58t-78.5 40l-34 -214q65 2 99.5 32.5t34.5 83.5zM215 525q0 -33 19.5 -54t73.5 -39l31 197q-58 -2 -91 -31t-33 -73z" />
    <glyph glyph-name="percent" unicode="%" horiz-adv-x="801" 
d="M165 532q0 -77 70 -77q38 1 60 32t22 77q0 33 -16.5 56t-51.5 23q-41 0 -62.5 -31.5t-21.5 -79.5zM232 375q-72 0 -118.5 44t-46.5 114q0 78 53.5 133.5t132.5 55.5q71 0 116.5 -45t45.5 -115q0 -76 -52.5 -131.5t-130.5 -55.5zM96 0l558 715h87l-558 -715h-87zM518 147
q0 -77 70 -77q38 1 60 32t22 77q0 33 -16.5 56t-51.5 23q-41 0 -62.5 -31.5t-21.5 -79.5zM585 -10q-72 0 -118.5 44t-46.5 114q0 77 53.5 133t132.5 56q71 0 116.5 -45t45.5 -115q0 -76 -52.5 -131.5t-130.5 -55.5z" />
    <glyph glyph-name="ampersand" unicode="&#x26;" horiz-adv-x="712" 
d="M638 0h-144l-49 73q-83 -80 -197 -81q-91 0 -154.5 46t-63.5 143q0 152 196 228q-39 64 -39 125q0 85 58 136t144 51q73 0 124 -40t51 -111t-46 -114t-127 -77l100 -153l93 144h112l-150 -229zM159 193q0 -48 29 -75.5t80 -27.5q71 0 127 59l-124 187q-112 -46 -112 -143
zM386 632q-36 0 -58.5 -24.5t-22.5 -66.5q0 -38 38 -97q26 11 41 19t33.5 22.5t27.5 33.5t9 44q0 29 -17.5 49t-50.5 20z" />
    <glyph glyph-name="quotesingle" unicode="'" horiz-adv-x="229" 
d="M102 458l21 257h124l-56 -257h-89z" />
    <glyph glyph-name="parenleft" unicode="(" horiz-adv-x="335" 
d="M149 -148q-105 156 -105 353q0 326 248 569h113q-118 -131 -180 -269t-62 -305q0 -191 89 -348h-103z" />
    <glyph glyph-name="parenright" unicode=")" horiz-adv-x="335" 
d="M200 776q105 -156 105 -353q0 -328 -248 -569h-113q118 131 180 269t62 305q0 191 -89 348h103z" />
    <glyph glyph-name="asterisk" unicode="*" horiz-adv-x="429" 
d="M170 400l-68 59l100 96l-117 30l42 87l106 -56l7 127h100l-34 -131l122 42l13 -90l-125 -15l70 -107l-85 -50l-49 121z" />
    <glyph glyph-name="plus" unicode="+" horiz-adv-x="539" 
d="M192 96l31 198h-183l15 94h183l31 198h101l-31 -198h182l-15 -94h-182l-31 -198h-101z" />
    <glyph glyph-name="comma" unicode="," horiz-adv-x="292" 
d="M55 -123l-69 34l113 236l108 -46z" />
    <glyph glyph-name="hyphen" unicode="-" horiz-adv-x="353" 
d="M50 229l16 100h240l-16 -100h-240z" />
    <glyph glyph-name="period" unicode="." horiz-adv-x="289" 
d="M113 -7q-34 0 -56.5 22.5t-22.5 55.5t22.5 56t55.5 23q34 0 57.5 -23t23.5 -56t-23 -55.5t-57 -22.5z" />
    <glyph glyph-name="slash" unicode="/" horiz-adv-x="415" 
d="M-69 -148l440 924h105l-441 -924h-104z" />
    <glyph glyph-name="zero" unicode="0" horiz-adv-x="701" 
d="M330 -10q-131 0 -201 77t-71 204q0 47 7 86l5 34q25 157 114 245.5t220 88.5q128 0 197.5 -78t69.5 -207q0 -45 -7 -84l-5 -34q-25 -156 -111 -244t-218 -88zM336 96q153 0 191 237l5 33q7 44 7 78q0 77 -32.5 127t-107.5 50q-76 0 -126.5 -61t-69.5 -176l-5 -34
q-8 -52 -8 -82q0 -172 146 -172z" />
    <glyph glyph-name="one" unicode="1" horiz-adv-x="419" 
d="M141 0l92 582l-167 -104l19 120l184 117h119l-113 -715h-134z" />
    <glyph glyph-name="two" unicode="2" horiz-adv-x="578" 
d="M-35 0l4 24l323 283q64 56 100.5 107t36.5 109q0 42 -25 70t-71 28q-112 2 -145 -142h-123q17 122 91.5 184t186.5 62q96 0 158 -51.5t62 -143.5q0 -79 -45 -141.5t-132 -135.5l-178 -150h297l-15 -103h-525z" />
    <glyph glyph-name="three" unicode="3" horiz-adv-x="623" 
d="M288 -10q-121 0 -191.5 60.5t-70.5 170.5h123q1 -59 34.5 -95t103.5 -36q67 0 104 33.5t37 98.5q0 48 -29 74.5t-89 26.5h-47l15 95h63q54 0 86.5 27.5t32.5 83.5q1 45 -26.5 70t-75.5 25q-56 0 -94 -30t-51 -88h-118q14 99 88 159t183 60q93 0 158 -46.5t65 -137.5
q0 -62 -36 -107.5t-101 -63.5q53 -16 82 -55t29 -95q0 -108 -78 -169t-197 -61z" />
    <glyph glyph-name="four" unicode="4" horiz-adv-x="641" 
d="M343 0l22 145h-353l8 47l398 523h167l-75 -471h97l-17 -99h-96l-22 -145h-129zM172 244h211l57 363z" />
    <glyph glyph-name="five" unicode="5" horiz-adv-x="604" 
d="M271 -10q-107 0 -175 54.5t-70 160.5h126q7 -112 120 -112q68 0 106.5 44.5t39.5 120.5q0 56 -31.5 88.5t-91.5 32.5q-86 0 -148 -62h-66l68 398h433l-17 -105h-331l-31 -190q60 56 150 56q91 0 146 -56t54 -152q0 -123 -77.5 -200.5t-204.5 -77.5z" />
    <glyph glyph-name="six" unicode="6" horiz-adv-x="641" 
d="M313 -10q-125 0 -192 66.5t-66 192.5q0 42 8 95l5 29q11 71 36 132t64.5 111.5t99 79.5t132.5 29q99 0 158 -48.5t63 -140.5h-125q-8 86 -101 86q-150 0 -195 -242q66 86 178 86q91 0 152 -56.5t61 -150.5q0 -118 -78.5 -193.5t-199.5 -75.5zM186 216q0 -55 32.5 -91.5
t95.5 -36.5q64 0 104 47t40 117q0 53 -31.5 87.5t-92.5 34.5q-63 0 -105.5 -45.5t-42.5 -112.5z" />
    <glyph glyph-name="seven" unicode="7" horiz-adv-x="545" 
d="M78 0l330 607h-328l17 108h500l-3 -16l-378 -699h-138z" />
    <glyph glyph-name="eight" unicode="8" horiz-adv-x="627" 
d="M296 -10q-106 0 -182 51.5t-76 145.5q0 76 44 128t119 75q-40 19 -63 54t-23 78q0 92 73 147.5t178 55.5q90 0 159 -48.5t69 -134.5q0 -120 -130 -163q52 -21 81 -64t29 -96q0 -108 -78.5 -168.5t-199.5 -60.5zM173 205q0 -52 36 -83.5t93 -31.5q63 0 101.5 35.5
t38.5 98.5q0 51 -34.5 81.5t-88.5 30.5q-64 0 -105 -34.5t-41 -96.5zM241 519q0 -41 30.5 -68.5t79.5 -27.5t82.5 27.5t33.5 80.5q0 42 -29.5 70t-77.5 28q-50 0 -84.5 -28.5t-34.5 -81.5z" />
    <glyph glyph-name="nine" unicode="9" horiz-adv-x="642" 
d="M273 -9q-101 0 -166 48t-71 147h126q7 -50 36 -71t82 -21q146 0 187 237q-62 -82 -177 -82q-89 0 -151 54t-62 151q0 120 80 196t203 76q120 0 185.5 -67.5t66.5 -191.5q0 -51 -8 -96l-5 -36q-56 -344 -326 -344zM209 463q0 -55 29.5 -88t83.5 -33q69 0 114 41t45 116
q0 55 -31 91.5t-93 36.5q-65 0 -106.5 -46t-41.5 -118z" />
    <glyph glyph-name="colon" unicode=":" horiz-adv-x="297" 
d="M116 -7q-33 0 -56 22.5t-23 55.5t22.5 56t55.5 23q34 0 57.5 -23t23.5 -56t-23 -55.5t-57 -22.5zM163 285q-33 0 -56 23t-23 56t22.5 55.5t55.5 22.5q34 0 58 -22.5t24 -55.5t-23.5 -56t-57.5 -23z" />
    <glyph glyph-name="semicolon" unicode=";" horiz-adv-x="303" 
d="M44 -123l-69 34l113 236l108 -46zM177 285q-33 0 -56 23t-23 56t22.5 55.5t55.5 22.5q34 0 57.5 -22.5t23.5 -55.5t-23 -56t-57 -23z" />
    <glyph glyph-name="less" unicode="&#x3c;" horiz-adv-x="507" 
d="M418 81l-363 233l4 26l435 223l-18 -115l-255 -125l214 -134z" />
    <glyph glyph-name="equal" unicode="=" horiz-adv-x="513" 
d="M27 185l14 91h433l-14 -91h-433zM56 371l14 92h433l-14 -92h-433z" />
    <glyph glyph-name="greater" unicode="&#x3e;" horiz-adv-x="507" 
d="M106 564l363 -233l-4 -26l-434 -224l17 117l256 125l-215 134z" />
    <glyph glyph-name="question" unicode="?" horiz-adv-x="515" 
d="M166 215l6 39q5 32 17.5 58.5t35.5 50t36 34.5t43 34q30 22 45 35.5t27.5 35.5t12.5 49q0 35 -22.5 54.5t-63.5 19.5q-45 0 -76.5 -29t-41.5 -84h-117q13 102 78.5 157.5t163.5 54.5q98 0 152 -47.5t54 -119.5q0 -44 -18.5 -80t-40 -56t-60.5 -48q-6 -4 -24.5 -17.5
t-26 -19.5t-22 -18.5t-21 -22.5t-13.5 -24.5t-9 -29.5l-4 -26h-111zM203 -7q-34 0 -56.5 22.5t-22.5 54.5q0 33 22.5 56t56.5 23q33 0 56.5 -23t23.5 -55q0 -33 -23.5 -55.5t-56.5 -22.5z" />
    <glyph glyph-name="at" unicode="@" horiz-adv-x="916" 
d="M685 460l-41 -260q-10 -74 45 -74q47 0 82.5 50t35.5 147q0 135 -88 217t-240 82q-154 0 -255.5 -101.5t-101.5 -263.5q0 -146 90 -243.5t253 -97.5q148 0 244 84h82q-43 -69 -131 -110t-197 -41q-130 0 -227 57t-145.5 148.5t-48.5 202.5q0 185 129 308.5t308 123.5
q178 0 290.5 -103t112.5 -262q0 -132 -62.5 -197.5t-142.5 -65.5q-109 0 -127 84q-46 -89 -144 -89q-72 0 -115 46t-43 127q0 104 58.5 171.5t145.5 67.5q90 0 115 -65l9 57h109zM437 141q45 0 79 43t34 109q0 43 -22 66t-60 23q-47 0 -78.5 -41t-30.5 -110
q0 -43 21.5 -66.5t56.5 -23.5z" />
    <glyph glyph-name="A" unicode="A" horiz-adv-x="685" 
d="M490 0l-29 177h-273l-84 -177h-128l352 715h174l123 -715h-135zM393 606l-159 -332h212z" />
    <glyph glyph-name="B" unicode="B" horiz-adv-x="645" 
d="M40 0l113 715h237q108 0 163 -43t54 -127q0 -136 -137 -174q122 -28 123 -154q0 -99 -71 -158t-190 -59h-292zM184 95h136q70 0 106.5 35t36.5 93q0 51 -31 76t-99 25h-112zM235 414h111q136 0 136 118q0 46 -26 67t-83 21h-105z" />
    <glyph glyph-name="C" unicode="C" horiz-adv-x="741" 
d="M389 -10q-153 0 -241.5 83.5t-88.5 229.5q0 182 107.5 302.5t279.5 120.5q124 0 201 -64.5t84 -185.5h-130q-11 72 -49 108.5t-110 36.5q-113 0 -178.5 -89.5t-65.5 -224.5q-1 -100 47.5 -155.5t144.5 -55.5q72 0 121.5 40.5t70.5 112.5h130q-25 -121 -113 -190t-210 -69
z" />
    <glyph glyph-name="D" unicode="D" horiz-adv-x="718" 
d="M40 0l113 715h196q173 0 259 -81.5t87 -223.5q0 -183 -111 -296.5t-303 -113.5h-241zM190 105h89q132 0 205 79.5t73 221.5q0 96 -51.5 150.5t-160.5 54.5h-75z" />
    <glyph glyph-name="E" unicode="E" horiz-adv-x="588" 
d="M40 0l113 715h444l-17 -105h-311l-31 -196h252l-15 -100h-252l-34 -209h332l-17 -105h-464z" />
    <glyph glyph-name="F" unicode="F" horiz-adv-x="566" 
d="M40 0l113 715h443l-17 -106h-310l-33 -213h243l-16 -103h-244l-46 -293h-133z" />
    <glyph glyph-name="G" unicode="G" horiz-adv-x="777" 
d="M397 -10q-157 0 -247 87.5t-90 233.5q0 114 49 208.5t138 149.5t199 55q123 0 205.5 -60.5t89.5 -178.5h-133q-6 67 -50 100.5t-117 33.5q-111 0 -177 -88.5t-66 -218.5q0 -102 51.5 -160t150.5 -58q87 0 137.5 48.5t64.5 131.5h-180l16 100h311q-28 -384 -352 -384z" />
    <glyph glyph-name="H" unicode="H" horiz-adv-x="751" 
d="M40 0l113 715h133l-48 -304h320l49 304h134l-113 -715h-134l48 304h-321l-48 -304h-133z" />
    <glyph glyph-name="I" unicode="I" horiz-adv-x="308" 
d="M44 0l113 715h134l-113 -715h-134z" />
    <glyph glyph-name="J" unicode="J" horiz-adv-x="443" 
d="M126 -9q-79 0 -130 28l16 102q52 -23 98 -23q99 0 116 111l80 506h134l-82 -514q-17 -106 -77.5 -158t-154.5 -52z" />
    <glyph glyph-name="K" unicode="K" horiz-adv-x="659" 
d="M40 0l113 715h133l-51 -320l325 320h148l-354 -344l249 -371h-146l-230 344l-54 -344h-133z" />
    <glyph glyph-name="L" unicode="L" horiz-adv-x="551" 
d="M40 0l113 715h133l-96 -609h305l-17 -106h-438z" />
    <glyph glyph-name="M" unicode="M" horiz-adv-x="889" 
d="M40 0l113 715h173l111 -487l261 487h181l-113 -715h-133l85 541l-298 -541h-43l-131 541l-86 -541h-120z" />
    <glyph glyph-name="N" unicode="N" horiz-adv-x="745" 
d="M40 0l113 715h159l218 -517l82 517h122l-113 -715h-138l-235 548l-86 -548h-122z" />
    <glyph glyph-name="O" unicode="O" horiz-adv-x="814" 
d="M785 405q0 -181 -111.5 -298t-280.5 -117q-147 0 -240.5 88t-93.5 230q0 178 112 297.5t281 119.5q151 0 242 -89.5t91 -230.5zM647 402q0 94 -51.5 155t-146.5 62q-114 0 -183 -90t-69 -218q0 -99 55 -157t147 -58q112 0 180 87.5t68 218.5z" />
    <glyph glyph-name="P" unicode="P" horiz-adv-x="609" 
d="M40 0l113 715h222q111 0 174 -50t63 -143q0 -125 -79 -187.5t-204 -62.5h-113l-43 -272h-133zM231 368h98q76 0 115 37t39 107q0 101 -123 101h-90z" />
    <glyph glyph-name="Q" unicode="Q" horiz-adv-x="814" 
d="M393 -11q-147 0 -240.5 88t-93.5 230q0 178 112 297t281 119q151 0 242 -89t91 -230q0 -103 -39 -188.5t-108 -141.5l75 -88l-87 -76l-89 105q-67 -26 -144 -26zM399 93q34 0 64 9l-61 73l87 76l74 -88q84 89 84 238q0 94 -52 155.5t-146 61.5q-114 0 -183 -90t-69 -218
q0 -98 55.5 -157.5t146.5 -59.5z" />
    <glyph glyph-name="R" unicode="R" horiz-adv-x="655" 
d="M40 0l113 715h235q110 0 173 -49.5t62 -140.5q0 -91 -52 -146t-137 -70l160 -309h-139l-149 289h-88l-45 -289h-133zM233 384h110q149 0 149 131q1 49 -29 73t-89 24h-104z" />
    <glyph glyph-name="S" unicode="S" horiz-adv-x="635" 
d="M306 -10q-135 0 -207.5 64.5t-72.5 167.5h128q3 -57 41 -94.5t116 -37.5q66 -1 102 29.5t36 84.5q0 40 -28 63t-105 44q-117 30 -168 73.5t-51 126.5q0 91 70.5 152t187.5 61q115 0 180.5 -53t66.5 -154h-122q-9 107 -132 107q-61 0 -92 -27.5t-31 -73.5q0 -36 27.5 -57
t106.5 -42q117 -31 169 -76t52 -127q0 -103 -73.5 -167t-200.5 -64z" />
    <glyph glyph-name="T" unicode="T" horiz-adv-x="583" 
d="M182 0l96 610h-199l17 105h532l-18 -105h-198l-96 -610h-134z" />
    <glyph glyph-name="U" unicode="U" horiz-adv-x="723" 
d="M342 -10q-148 0 -217 77.5t-45 225.5l67 422h134l-68 -425q-16 -101 16.5 -147t116.5 -46q73 0 112.5 41t54.5 134l71 443h134l-73 -457q-42 -268 -303 -268z" />
    <glyph glyph-name="V" unicode="V" horiz-adv-x="669" 
d="M214 0l-127 715h135l95 -580l278 580h129l-355 -715h-155z" />
    <glyph glyph-name="W" unicode="W" horiz-adv-x="928" 
d="M155 0l-68 715h135l41 -532l221 532h102l63 -535l209 535h124l-291 -715h-128l-60 512l-219 -512h-129z" />
    <glyph glyph-name="X" unicode="X" horiz-adv-x="653" 
d="M-22 0l286 374l-157 341h141l115 -257l188 257h138l-263 -352l168 -363h-144l-125 281l-208 -281h-139z" />
    <glyph glyph-name="Y" unicode="Y" horiz-adv-x="626" 
d="M209 0l49 310l-172 405h140l118 -295l202 295h135l-290 -414l-48 -301h-134z" />
    <glyph glyph-name="Z" unicode="Z" horiz-adv-x="607" 
d="M-20 0l2 18l456 594h-325l16 103h517l-2 -17l-450 -593h344l-16 -105h-542z" />
    <glyph glyph-name="bracketleft" unicode="[" horiz-adv-x="377" 
d="M13 -148l146 924h256l-14 -91h-135l-116 -742h134l-15 -91h-256z" />
    <glyph glyph-name="backslash" unicode="\" horiz-adv-x="415" 
d="M259 -148l-164 924h99l164 -924h-99z" />
    <glyph glyph-name="bracketright" unicode="]" horiz-adv-x="419" 
d="M-24 -148l15 91h134l117 742h-134l14 91h256l-146 -924h-256z" />
    <glyph glyph-name="asciicircum" unicode="^" horiz-adv-x="516" 
d="M57 402l213 313h113l119 -313h-108l-82 213l-143 -213h-112z" />
    <glyph glyph-name="underscore" unicode="_" horiz-adv-x="410" 
d="M-68 -159l12 74h411l-12 -74h-411z" />
    <glyph glyph-name="grave" unicode="`" horiz-adv-x="400" 
d="M218 601l-89 155h132l44 -155h-87z" />
    <glyph glyph-name="a" unicode="a" horiz-adv-x="554" 
d="M188 -10q-77 0 -122.5 39.5t-45.5 107.5q0 174 262 174h92l4 28q9 53 -10.5 78.5t-72.5 25.5q-87 0 -106 -82h-116q18 89 80 131t147 42q107 0 160 -51t36 -157l-26 -167q-16 -98 -9 -159h-115q-6 36 -2 76q-57 -86 -156 -86zM222 77q52 0 88 29t44 82l7 47h-76
q-76 0 -110.5 -20t-34.5 -68q0 -31 21 -50.5t61 -19.5z" />
    <glyph glyph-name="b" unicode="b" horiz-adv-x="633" 
d="M342 -10q-68 0 -113 29t-64 73l-14 -92h-122l122 765h120l-51 -326q27 43 74 69t104 26q89 0 145 -61.5t56 -166.5q0 -138 -71 -227t-186 -89zM319 84q71 0 112.5 59.5t41.5 153.5q0 68 -31 105.5t-86 37.5q-74 0 -122.5 -59t-48.5 -156q0 -66 35.5 -103.5t98.5 -37.5z
" />
    <glyph glyph-name="c" unicode="c" horiz-adv-x="564" 
d="M286 -9q-117 0 -185 64t-68 174q0 139 80.5 221.5t199.5 82.5q97 0 159 -49t66 -147h-114q-6 54 -35 77t-80 23q-70 0 -112 -56t-42 -152q0 -146 134 -146q49 0 84.5 29t45.5 82h110q-15 -96 -80 -149.5t-163 -53.5z" />
    <glyph glyph-name="d" unicode="d" horiz-adv-x="629" 
d="M243 -10q-94 0 -152 61.5t-58 168.5q0 137 74 225.5t193 88.5q122 0 167 -97l52 328h121l-95 -606q-15 -97 -11 -159h-118q-3 40 2 89q-61 -99 -175 -99zM280 84q74 0 120.5 57.5t46.5 159.5q0 64 -35 101.5t-93 37.5q-74 0 -117 -59t-43 -154q0 -67 32 -105t89 -38z" />
    <glyph glyph-name="e" unicode="e" horiz-adv-x="570" 
d="M153 213q0 -133 126 -133q98 0 124 80h117q-22 -83 -87.5 -126.5t-157.5 -43.5q-111 0 -177 61.5t-66 167.5q0 138 80.5 226t202.5 88q118 0 179 -72t41 -204l-4 -22h-378v-22zM312 446q-51 0 -90.5 -32t-56.5 -98h257q11 130 -110 130z" />
    <glyph glyph-name="f" unicode="f" horiz-adv-x="354" 
d="M44 432l14 91h71l14 88q13 79 64 119.5t126 40.5q49 0 78 -13l-14 -92q-23 10 -52 10q-69 0 -82 -73l-13 -80h120l-15 -91h-119l-69 -432h-120l68 432h-71z" />
    <glyph glyph-name="g" unicode="g" horiz-adv-x="630" 
d="M281 114q71 0 118.5 54t47.5 142q0 60 -35.5 95t-93.5 35q-71 0 -113 -55.5t-42 -133.5q0 -63 30.5 -100t87.5 -37zM601 523l-78 -495q-34 -220 -270 -220q-123 0 -182.5 49.5t-66.5 124.5h121q15 -82 125 -82q71 0 106.5 33.5t46.5 99.5l12 74q-59 -85 -167 -85
q-93 0 -151.5 60t-58.5 162q0 123 74 206.5t186 83.5q122 0 169 -97l14 86h120z" />
    <glyph glyph-name="h" unicode="h" horiz-adv-x="604" 
d="M30 0l121 765h120l-52 -331q62 100 175 100q84 0 126.5 -53.5t24.5 -166.5l-50 -314h-121l50 320q19 114 -77 114q-58 0 -98.5 -36t-50.5 -100l-47 -298h-121z" />
    <glyph glyph-name="i" unicode="i" horiz-adv-x="271" 
d="M198 609q-30 0 -50.5 20t-20.5 49t21 49.5t51 20.5t50.5 -20t20.5 -49t-21 -49.5t-51 -20.5zM33 0l83 523h121l-83 -523h-121z" />
    <glyph glyph-name="j" unicode="j" horiz-adv-x="271" 
d="M-68 -187l14 92q39 2 58.5 19.5t24.5 52.5l87 546h120l-88 -556q-11 -76 -61.5 -116.5t-154.5 -37.5zM198 609q-30 0 -50.5 20t-20.5 49t21 49.5t51 20.5t50.5 -20t20.5 -49t-21 -49.5t-51 -20.5z" />
    <glyph glyph-name="k" unicode="k" horiz-adv-x="536" 
d="M30 0l120 765h121l-73 -466l220 224h139l-245 -241l173 -282h-134l-159 265l-41 -265h-121z" />
    <glyph glyph-name="l" unicode="l" horiz-adv-x="271" 
d="M33 0l121 765h121l-121 -765h-121z" />
    <glyph glyph-name="m" unicode="m" horiz-adv-x="909" 
d="M30 0l57 361q12 83 16 162h116q0 -51 -5 -94q28 48 72.5 76.5t96.5 28.5q117 0 140 -107q66 107 180 107q81 0 123 -53t24 -163l-50 -318h-121l50 317q19 117 -73 117q-48 0 -85.5 -33t-47.5 -95l-48 -306h-120l50 321q18 113 -74 113q-48 0 -85.5 -34t-46.5 -94
l-48 -306h-121z" />
    <glyph glyph-name="n" unicode="n" horiz-adv-x="604" 
d="M30 0l57 361q12 83 16 162h116q0 -49 -6 -98q66 109 181 109q84 0 126.5 -53.5t24.5 -166.5l-50 -314h-121l50 320q19 114 -77 114q-58 0 -98.5 -36t-50.5 -100l-47 -298h-121z" />
    <glyph glyph-name="o" unicode="o" horiz-adv-x="599" 
d="M279 -10q-109 0 -177.5 64t-68.5 171q-1 132 81 220t206 88q110 0 178.5 -63t68.5 -171q0 -135 -80.5 -222t-207.5 -87zM282 84q75 0 118 60.5t43 155.5q0 64 -32.5 101.5t-94.5 37.5q-73 0 -117 -60.5t-44 -153.5q0 -65 31.5 -103t95.5 -38z" />
    <glyph glyph-name="p" unicode="p" horiz-adv-x="633" 
d="M398 534q89 0 145 -61.5t56 -166.5q0 -138 -70.5 -227t-186.5 -89q-68 0 -113 29t-64 73l-43 -271h-121l86 540q12 83 16 162h116q0 -41 -5 -94q29 49 77 77t107 28zM319 84q71 0 112.5 59.5t41.5 153.5q0 68 -31 105.5t-86 37.5q-74 0 -122.5 -59t-48.5 -156
q0 -66 35.5 -103.5t98.5 -37.5z" />
    <glyph glyph-name="q" unicode="q" horiz-adv-x="633" 
d="M370 -179l41 256q-60 -87 -168 -87q-94 0 -152 61.5t-58 168.5q0 137 74 225.5t193 88.5q122 0 167 -97l14 86h121l-111 -702h-121zM280 84q74 0 120.5 57.5t46.5 159.5q0 64 -35 101.5t-93 37.5q-74 0 -117 -59t-43 -154q0 -67 32 -105t89 -38z" />
    <glyph glyph-name="r" unicode="r" horiz-adv-x="396" 
d="M30 0l57 361q13 89 15 162h116q0 -47 -6 -109q34 59 78 87.5t114 29.5l-18 -113q-84 -1 -132.5 -38t-62.5 -124l-40 -256h-121z" />
    <glyph glyph-name="s" unicode="s" horiz-adv-x="493" 
d="M230 -11q-103 0 -159 47.5t-57 126.5h114q7 -84 106 -84q88 0 88 68q0 28 -21 43t-78 28q-88 20 -126 55.5t-38 97.5q0 78 58 120.5t145 42.5q88 0 141.5 -38.5t58.5 -119.5h-112q-2 32 -26 51t-65 19t-63.5 -16.5t-22.5 -46.5q0 -25 21 -39.5t76 -27.5q91 -21 131 -55
t40 -104q0 -78 -57.5 -123t-153.5 -45z" />
    <glyph glyph-name="t" unicode="t" horiz-adv-x="360" 
d="M212 -9q-82 0 -118 44t-23 124l43 273h-70l14 91h70l19 115h121l-19 -115h113l-14 -91h-113l-43 -272q-6 -39 7 -54.5t46 -15.5q31 0 57 10l-15 -96q-31 -13 -75 -13z" />
    <glyph glyph-name="u" unicode="u" horiz-adv-x="601" 
d="M569 523l-57 -364q-15 -95 -12 -159h-117q-3 46 4 94q-67 -104 -176 -104q-86 0 -128.5 54.5t-24.5 164.5l50 314h121l-52 -324q-17 -114 76 -114q57 0 97.5 36t50.5 100l47 302h121z" />
    <glyph glyph-name="v" unicode="v" horiz-adv-x="540" 
d="M157 0l-102 523h126l68 -402l195 402h123l-269 -523h-141z" />
    <glyph glyph-name="w" unicode="w" horiz-adv-x="792" 
d="M129 0l-71 523h125l39 -382l168 382h101l42 -382l162 382h121l-242 -523h-123l-39 356l-159 -356h-124z" />
    <glyph glyph-name="x" unicode="x" horiz-adv-x="529" 
d="M-32 0l222 274l-128 249h134l83 -167l132 167h131l-207 -253l141 -270h-135l-91 188l-151 -188h-131z" />
    <glyph glyph-name="y" unicode="y" horiz-adv-x="533" 
d="M45 -179l135 238l-125 464h124l81 -338l176 338h124l-391 -702h-124z" />
    <glyph glyph-name="z" unicode="z" horiz-adv-x="487" 
d="M-25 0l2 14l332 414h-241l14 95h423l-3 -17l-329 -409h260l-16 -97h-442z" />
    <glyph glyph-name="braceleft" unicode="{" horiz-adv-x="396" 
d="M288 -147q-126 5 -175 63.5t-12 166.5l31 86q36 103 -93 109l13 86q68 -1 97.5 24t27.5 78l-2 97q-2 119 60.5 168t199.5 47l-15 -89q-74 -2 -101.5 -29.5t-27.5 -100.5v-99q0 -119 -119 -145q54 -14 73 -53.5t-1 -101.5l-28 -84q-23 -71 -3.5 -100t89.5 -34z" />
    <glyph glyph-name="bar" unicode="|" horiz-adv-x="259" 
d="M99 -148v924h90v-924h-90z" />
    <glyph glyph-name="braceright" unicode="}" horiz-adv-x="396" 
d="M122 778q126 -5 174.5 -63.5t12.5 -166.5l-30 -87q-36 -102 92 -113l-12 -86q-69 4 -97.5 -19t-27.5 -77l2 -98q1 -119 -61.5 -168t-198.5 -47l14 89q75 2 102.5 29.5t26.5 100.5v104q0 118 120 138q-54 16 -73.5 56.5t-0.5 95.5l29 89q23 71 4 100t-90 34z" />
    <glyph glyph-name="asciitilde" unicode="~" horiz-adv-x="474" 
d="M33 220q13 78 49.5 116.5t83.5 38.5q38 0 85.5 -24t60.5 -24q18 0 32.5 13t18.5 37h86q-11 -76 -48.5 -116t-83.5 -40q-40 0 -88 24.5t-60 24.5q-39 0 -50 -50h-86z" />
    <glyph glyph-name="uni00A0" unicode="&#xa0;" horiz-adv-x="271" 
 />
    <glyph glyph-name="exclamdown" unicode="&#xa1;" horiz-adv-x="306" 
d="M220 383l-61 -500h-135l99 500h97zM191 605q34 0 56.5 -22.5t22.5 -54.5q0 -33 -22.5 -56t-56.5 -23q-33 0 -56.5 23t-23.5 55q0 33 23.5 55.5t56.5 22.5z" />
    <glyph glyph-name="cent" unicode="&#xa2;" horiz-adv-x="575" 
d="M204 -135l20 131q-89 17 -140.5 77.5t-51.5 152.5q0 135 79.5 218.5t198.5 88.5l15 96h67l-16 -100q76 -12 122.5 -60.5t51.5 -131.5h-112q-6 80 -77 98l-56 -355q105 7 127 113h108q-14 -98 -82.5 -150t-166.5 -53l-20 -125h-67zM152 226q0 -113 87 -139l56 352
q-64 -9 -103.5 -64.5t-39.5 -148.5z" />
    <glyph glyph-name="sterling" unicode="&#xa3;" horiz-adv-x="620" 
d="M50 304l13 85h62q-4 52 -4 82q0 112 69 182.5t190 70.5q105 0 165.5 -51.5t60.5 -157.5h-126q-2 51 -26 78.5t-77 27.5q-127 0 -127 -161q0 -48 1 -71h201l-14 -85h-183q1 -14 1 -45q0 -70 -29 -121q18 -5 51 -16.5t55 -17.5t39 -6q71 0 83 75h117q-12 -84 -60.5 -133
t-133.5 -49q-50 0 -124 29.5t-97 29.5q-50 0 -60 -50h-103q7 50 38 91t80 54q25 44 25 106q0 25 -3 53h-84z" />
    <glyph glyph-name="yen" unicode="&#xa5;" horiz-adv-x="604" 
d="M79 286l9 63h149l-145 366h141l101 -288l188 288h131l-251 -366h150l-10 -63h-166l-10 -67h164l-9 -64h-165l-25 -155h-132l24 155h-166l10 64h166l11 67h-165z" />
    <glyph glyph-name="brokenbar" unicode="&#xa6;" horiz-adv-x="259" 
d="M99 -148v447h90v-447h-90zM99 369v407h90v-407h-90z" />
    <glyph glyph-name="section" unicode="&#xa7;" horiz-adv-x="565" 
d="M234 -137q-87 0 -144 43t-55 128h116q2 -81 90 -81q37 0 62 20.5t25 56.5q0 28 -25.5 48t-92.5 44q-87 30 -130.5 68.5t-43.5 103.5q0 59 37 96t98 52q-38 40 -38 99q0 85 61 134t152 49q84 0 135.5 -41t53.5 -126h-117q-1 76 -80 77q-39 0 -63.5 -19t-24.5 -58
q0 -29 23.5 -48.5t85.5 -41.5q88 -29 133 -69t45 -108q0 -106 -132 -144q41 -39 41 -100q0 -87 -60.5 -135t-151.5 -48zM334 196q82 17 82 76q0 28 -23 48t-72 39l-82 31q-32 -4 -56.5 -23.5t-24.5 -53.5q0 -27 21.5 -46t71.5 -38z" />
    <glyph glyph-name="dieresis" unicode="&#xa8;" horiz-adv-x="400" 
d="M166 613q-28 0 -47 18.5t-19 45.5t19.5 46.5t47.5 19.5q27 0 46 -19t19 -46q0 -26 -19.5 -45.5t-46.5 -19.5zM363 613q-27 0 -46 18.5t-19 45.5t19.5 46.5t46.5 19.5q28 0 46.5 -19t18.5 -46q0 -26 -19.5 -45.5t-46.5 -19.5z" />
    <glyph glyph-name="copyright" unicode="&#xa9;" horiz-adv-x="843" 
d="M437 153q-96 0 -148 54t-52 146v8q0 90 56 145.5t142 55.5q75 0 122.5 -37t54.5 -109h-97q-9 70 -80 70q-46 0 -72.5 -32.5t-26.5 -92.5v-7q0 -60 26 -92t74 -32q78 0 88 74h92q-7 -73 -55 -112t-124 -39zM432 32q133 0 227 92.5t94 234.5q0 141 -92.5 232.5t-226.5 91.5
q-135 0 -228 -92t-93 -234t94 -233.5t225 -91.5zM432 -13q-155 0 -263.5 106.5t-108.5 263.5q0 155 108.5 263t265.5 108q158 0 265.5 -107t107.5 -262q0 -158 -108.5 -265t-266.5 -107z" />
    <glyph glyph-name="ordfeminine" unicode="&#xaa;" horiz-adv-x="444" 
d="M183 289q-59 0 -94.5 31.5t-35.5 83.5q0 141 218 141h62l4 21q5 39 -8.5 58t-52.5 19q-63 0 -77 -59h-105q13 71 65 105.5t124 34.5q187 0 159 -173l-19 -125q-12 -73 -6 -128h-105q-4 25 -2 54q-46 -63 -127 -63zM219 367q86 0 99 78l6 36h-57q-55 0 -80.5 -15.5
t-25.5 -49.5q0 -22 15 -35.5t43 -13.5z" />
    <glyph glyph-name="guillemotleft" unicode="&#xab;" horiz-adv-x="492" 
d="M147 78l-100 185l153 181h98l-151 -184l93 -182h-93zM325 78l-99 185l153 181h98l-151 -185l92 -181h-93z" />
    <glyph glyph-name="registered" unicode="&#xae;" horiz-adv-x="515" 
d="M213 396v219h82q86 0 86 -68v-1q0 -44 -41 -59l54 -91h-58l-48 81h-19v-81h-56zM269 515h23q34 0 34 28v1q0 28 -34 28h-23v-57zM292 319q79 0 131.5 51.5t52.5 132.5t-51.5 132.5t-132.5 51.5q-80 0 -131.5 -52t-51.5 -133t52.5 -132t130.5 -51zM292 281
q-94 0 -159.5 64t-65.5 157q0 92 65.5 157.5t159.5 65.5q95 0 160 -64.5t65 -157.5q0 -94 -65 -158t-160 -64z" />
    <glyph glyph-name="macron" unicode="&#xaf;" horiz-adv-x="400" 
d="M118 634l12 78h280l-12 -78h-280z" />
    <glyph glyph-name="degree" unicode="&#xb0;" horiz-adv-x="437" 
d="M262 459q40 0 65.5 28.5t25.5 74.5q0 42 -24.5 70.5t-63.5 28.5q-41 0 -67.5 -29t-26.5 -75q0 -42 26 -70t65 -28zM261 396q-69 0 -118 46.5t-49 112.5q0 71 50 120t123 49q69 0 117 -47t48 -114q0 -69 -49.5 -118t-121.5 -49z" />
    <glyph glyph-name="plusminus" unicode="&#xb1;" horiz-adv-x="539" 
d="M201 157l28 175h-182l14 94h183l28 176h101l-28 -176h182l-14 -94h-183l-28 -175h-101zM-5 0l13 89h467l-13 -89h-467z" />
    <glyph glyph-name="twosuperior" unicode="&#xb2;" horiz-adv-x="313" 
d="M21 360l2 14l149 131q40 35 58.5 58.5t18.5 47.5q0 19 -11 29t-28 10q-45 0 -59 -61h-86q10 63 50.5 97t100.5 34q54 0 89.5 -25.5t35.5 -77.5q0 -37 -22.5 -66.5t-77.5 -75.5l-54 -47h126l-10 -68h-282z" />
    <glyph glyph-name="threesuperior" unicode="&#xb3;" horiz-adv-x="336" 
d="M195 354q-64 0 -103 29t-40 91h85q2 -54 56 -54q23 0 39.5 13t16.5 38q0 41 -51 41h-25l8 58h30q54 0 54 44q0 39 -43 39q-48 0 -59 -48h-82q7 53 47 84t100 31q54 0 89.5 -23t35.5 -72q0 -63 -70 -84q59 -13 59 -76q0 -52 -42.5 -81.5t-104.5 -29.5z" />
    <glyph glyph-name="acute" unicode="&#xb4;" horiz-adv-x="400" 
d="M200 601l77 155h136l-122 -155h-91z" />
    <glyph glyph-name="paragraph" unicode="&#xb6;" horiz-adv-x="573" 
d="M210 -100l69 439h-3q-90 0 -144.5 43t-54.5 123q0 100 67.5 155t172.5 55h243l-129 -815h-72l120 755h-79l-119 -755h-71z" />
    <glyph glyph-name="periodcentered" unicode="&#xb7;" horiz-adv-x="289" 
d="M153 248q-33 0 -56 23t-23 56t22.5 55.5t55.5 22.5q34 0 57.5 -22.5t23.5 -55.5t-23 -56t-57 -23z" />
    <glyph glyph-name="cedilla" unicode="&#xb8;" horiz-adv-x="400" 
d="M141 -219q-45 0 -75 22.5t-34 65.5h67q4 -33 39 -33q38 0 38 36q0 30 -34 30q-15 0 -27 -8l-30 33l57 73h61l-39 -50q36 3 62 -17t26 -58q0 -45 -30.5 -69.5t-80.5 -24.5z" />
    <glyph glyph-name="onesuperior" unicode="&#xb9;" horiz-adv-x="253" 
d="M119 360l41 263l-89 -51l12 80l104 63h82l-57 -355h-93z" />
    <glyph glyph-name="ordmasculine" unicode="&#xba;" horiz-adv-x="504" 
d="M268 289q-91 0 -144 51t-53 135q0 107 69 178t168 71q92 0 144.5 -51.5t52.5 -136.5q0 -108 -68 -177.5t-169 -69.5zM275 373q55 0 87 46t32 117q0 103 -93 103q-54 0 -86.5 -46t-32.5 -118q0 -48 23.5 -75t69.5 -27z" />
    <glyph glyph-name="guillemotright" unicode="&#xbb;" horiz-adv-x="492" 
d="M343 444l101 -185l-153 -181h-98l151 184l-94 182h93zM165 444l99 -185l-152 -181h-99l151 185l-92 181h93z" />
    <glyph glyph-name="onequarter" unicode="&#xbc;" horiz-adv-x="730" 
d="M122 360l41 263l-89 -51l12 80l104 63h82l-57 -355h-93zM32 0l603 715h79l-602 -715h-80zM529 0l11 69h-178l6 34l194 252h113l-35 -222h47l-11 -64h-46l-11 -69h-90zM464 133h89l23 153z" />
    <glyph glyph-name="onehalf" unicode="&#xbd;" horiz-adv-x="743" 
d="M19 0l603 715h79l-602 -715h-80zM122 360l41 263l-89 -51l12 80l104 63h82l-57 -355h-93zM391 0l3 14l148 132q40 34 58.5 57t18.5 48q0 19 -11 29t-28 10q-45 0 -59 -61h-85q10 62 50.5 96.5t99.5 34.5q54 0 89.5 -25.5t35.5 -77.5q0 -37 -22 -65.5t-78 -76.5l-54 -47
h127l-11 -68h-282z" />
    <glyph glyph-name="threequarters" unicode="&#xbe;" horiz-adv-x="762" 
d="M198 354q-64 0 -103 29t-40 91h85q2 -54 56 -54q23 0 39.5 13t16.5 38q0 41 -51 41h-25l8 58h30q54 0 54 44q0 39 -43 39q-48 0 -59 -48h-82q7 53 47 84t100 31q54 0 89.5 -23t35.5 -72q0 -63 -70 -84q59 -13 59 -76q0 -52 -42.5 -81.5t-104.5 -29.5zM78 0l603 715h79
l-602 -715h-80zM561 0l11 69h-178l6 34l194 252h113l-35 -222h47l-11 -64h-46l-11 -69h-90zM496 133h89l23 153z" />
    <glyph glyph-name="questiondown" unicode="&#xbf;" horiz-adv-x="515" 
d="M357 383l-6 -39q-5 -32 -17.5 -58.5t-35.5 -50t-36 -34.5t-43 -34q-30 -22 -45 -35.5t-27.5 -35.5t-12.5 -49q0 -35 22.5 -54.5t63.5 -19.5q45 0 76.5 29t41.5 84h117q-13 -102 -78.5 -157.5t-163.5 -54.5q-98 0 -152 47.5t-54 119.5q0 44 18.5 80t40 56t60.5 48
q6 4 24.5 17.5t26 19.5t22 18.5t21 22.5t13.5 24.5t9 29.5l4 26h111zM320 605q34 0 56.5 -22.5t22.5 -54.5q0 -33 -22.5 -56t-56.5 -23q-33 0 -56.5 23t-23.5 55q0 33 23.5 55.5t56.5 22.5z" />
    <glyph glyph-name="Agrave" unicode="&#xc0;" horiz-adv-x="685" 
d="M490 0l-29 177h-273l-84 -177h-128l352 715h174l123 -715h-135zM393 606l-159 -332h212zM382 766l-83 135h134l37 -135h-88z" />
    <glyph glyph-name="Aacute" unicode="&#xc1;" horiz-adv-x="685" 
d="M490 0l-29 177h-273l-84 -177h-128l352 715h174l123 -715h-135zM393 606l-159 -332h212zM365 766l67 135h138l-111 -135h-94z" />
    <glyph glyph-name="Acircumflex" unicode="&#xc2;" horiz-adv-x="685" 
d="M490 0l-29 177h-273l-84 -177h-128l352 715h174l123 -715h-135zM393 606l-159 -332h212zM250 766l126 135h105l92 -135h-85l-67 55l-82 -55h-89z" />
    <glyph glyph-name="Atilde" unicode="&#xc3;" horiz-adv-x="685" 
d="M490 0l-29 177h-273l-84 -177h-128l352 715h174l123 -715h-135zM393 606l-159 -332h212zM483 768q-28 0 -65 19.5t-49 19.5q-14 0 -26 -11t-16 -29h-77q12 63 43.5 97t74.5 34q27 0 64.5 -20t50.5 -20q30 0 41 40h76q-12 -62 -43.5 -96t-73.5 -34z" />
    <glyph glyph-name="Adieresis" unicode="&#xc4;" horiz-adv-x="685" 
d="M490 0l-29 177h-273l-84 -177h-128l352 715h174l123 -715h-135zM393 606l-159 -332h212zM528 777q-27 0 -46.5 18.5t-19.5 45.5t19.5 46.5t47.5 19.5q27 0 46 -19t19 -46q0 -26 -19.5 -45.5t-46.5 -19.5zM317 777q-27 0 -46.5 18.5t-19.5 45.5t20 46.5t47 19.5t46 -19
t19 -46q0 -26 -19.5 -45.5t-46.5 -19.5z" />
    <glyph glyph-name="Aring" unicode="&#xc5;" horiz-adv-x="685" 
d="M490 0l-29 177h-273l-84 -177h-128l352 715h174l123 -715h-135zM421 753q-46 0 -78.5 31.5t-32.5 75.5q0 46 33.5 78.5t79.5 32.5t78.5 -31.5t32.5 -76.5t-33.5 -77.5t-79.5 -32.5zM393 606l-159 -332h212zM421 807q22 0 36.5 15.5t14.5 40.5q0 24 -13.5 39t-35.5 15
t-36.5 -16t-14.5 -41q0 -24 13.5 -38.5t35.5 -14.5z" />
    <glyph glyph-name="AE" unicode="&#xc6;" horiz-adv-x="971" 
d="M-20 0l450 715h554l-17 -105h-309l-31 -196h250l-16 -100h-249l-34 -209h329l-16 -105h-462l29 183h-231l-113 -183h-134zM491 610l-206 -332h188l52 332h-34z" />
    <glyph glyph-name="Ccedilla" unicode="&#xc7;" horiz-adv-x="741" 
d="M306 -219q-45 0 -75 22.5t-34 65.5h67q4 -33 39 -33q38 0 38 36q0 30 -34 30q-15 0 -27 -8l-30 33l55 71q-116 21 -181 100.5t-65 204.5q0 182 107.5 302.5t279.5 120.5q124 0 201 -64.5t84 -185.5h-130q-11 72 -49 108.5t-110 36.5q-113 0 -178.5 -89.5t-65.5 -224.5
q-1 -100 47.5 -155.5t144.5 -55.5q72 0 121.5 40.5t70.5 112.5h130q-25 -121 -113 -190t-210 -69q-14 0 -28 1l-32 -41q36 3 62 -17t26 -58q0 -45 -30.5 -69.5t-80.5 -24.5z" />
    <glyph glyph-name="Egrave" unicode="&#xc8;" horiz-adv-x="588" 
d="M350 766l-83 135h134l37 -135h-88zM40 0l113 715h444l-17 -105h-311l-31 -196h252l-15 -100h-252l-34 -209h332l-17 -105h-464z" />
    <glyph glyph-name="Eacute" unicode="&#xc9;" horiz-adv-x="588" 
d="M322 766l67 135h138l-111 -135h-94zM40 0l113 715h444l-17 -105h-311l-31 -196h252l-15 -100h-252l-34 -209h332l-17 -105h-464z" />
    <glyph glyph-name="Ecircumflex" unicode="&#xca;" horiz-adv-x="588" 
d="M213 766l126 135h105l92 -135h-85l-67 55l-82 -55h-89zM40 0l113 715h444l-17 -105h-311l-31 -196h252l-15 -100h-252l-34 -209h332l-17 -105h-464z" />
    <glyph glyph-name="Edieresis" unicode="&#xcb;" horiz-adv-x="588" 
d="M40 0l113 715h444l-17 -105h-311l-31 -196h252l-15 -100h-252l-34 -209h332l-17 -105h-464zM281 777q-27 0 -46.5 18.5t-19.5 45.5t20 46.5t47 19.5t46 -19t19 -46q0 -26 -19.5 -45.5t-46.5 -19.5zM492 777q-27 0 -46.5 18.5t-19.5 45.5t19.5 46.5t47.5 19.5q27 0 46 -19
t19 -46q0 -26 -19.5 -45.5t-46.5 -19.5z" />
    <glyph glyph-name="Igrave" unicode="&#xcc;" horiz-adv-x="308" 
d="M44 0l113 715h134l-113 -715h-134zM195 766l-83 135h134l37 -135h-88z" />
    <glyph glyph-name="Iacute" unicode="&#xcd;" horiz-adv-x="308" 
d="M44 0l113 715h134l-113 -715h-134zM176 766l67 135h138l-111 -135h-94z" />
    <glyph glyph-name="Icircumflex" unicode="&#xce;" horiz-adv-x="308" 
d="M44 0l113 715h134l-113 -715h-134zM67 766l126 135h105l92 -135h-85l-67 55l-82 -55h-89z" />
    <glyph glyph-name="Idieresis" unicode="&#xcf;" horiz-adv-x="308" 
d="M44 0l113 715h134l-113 -715h-134zM138 777q-27 0 -46.5 18.5t-19.5 45.5t20 46.5t47 19.5t46 -19t19 -46q0 -26 -19.5 -45.5t-46.5 -19.5zM349 777q-27 0 -46.5 18.5t-19.5 45.5t19.5 46.5t47.5 19.5q27 0 46 -19t19 -46q0 -26 -19.5 -45.5t-46.5 -19.5z" />
    <glyph glyph-name="Eth" unicode="&#xd0;" horiz-adv-x="737" 
d="M39 311l15 95h69l49 309h197q173 0 259 -82t86 -223q0 -184 -110.5 -297t-303.5 -113h-241l49 311h-69zM208 105h91q132 0 205 79.5t73 221.5q0 96 -51.5 150.5t-160.5 54.5h-77l-33 -205h173l-15 -95h-173z" />
    <glyph glyph-name="Ntilde" unicode="&#xd1;" horiz-adv-x="745" 
d="M526 768q-28 0 -65 19.5t-49 19.5q-14 0 -26 -11t-16 -29h-77q12 63 43.5 97t74.5 34q27 0 64.5 -20t50.5 -20q30 0 41 40h76q-12 -62 -43.5 -96t-73.5 -34zM40 0l113 715h159l218 -517l82 517h122l-113 -715h-138l-235 548l-86 -548h-122z" />
    <glyph glyph-name="Ograve" unicode="&#xd2;" horiz-adv-x="814" 
d="M431 766l-83 135h134l37 -135h-88zM785 405q0 -181 -111.5 -298t-280.5 -117q-147 0 -240.5 88t-93.5 230q0 178 112 297.5t281 119.5q151 0 242 -89.5t91 -230.5zM647 402q0 94 -51.5 155t-146.5 62q-114 0 -183 -90t-69 -218q0 -99 55 -157t147 -58q112 0 180 87.5
t68 218.5z" />
    <glyph glyph-name="Oacute" unicode="&#xd3;" horiz-adv-x="814" 
d="M414 766l67 135h138l-111 -135h-94zM785 405q0 -181 -111.5 -298t-280.5 -117q-147 0 -240.5 88t-93.5 230q0 178 112 297.5t281 119.5q151 0 242 -89.5t91 -230.5zM647 402q0 94 -51.5 155t-146.5 62q-114 0 -183 -90t-69 -218q0 -99 55 -157t147 -58q112 0 180 87.5
t68 218.5z" />
    <glyph glyph-name="Ocircumflex" unicode="&#xd4;" horiz-adv-x="814" 
d="M309 766l126 135h105l92 -135h-85l-67 55l-82 -55h-89zM785 405q0 -181 -111.5 -298t-280.5 -117q-147 0 -240.5 88t-93.5 230q0 178 112 297.5t281 119.5q151 0 242 -89.5t91 -230.5zM647 402q0 94 -51.5 155t-146.5 62q-114 0 -183 -90t-69 -218q0 -99 55 -157t147 -58
q112 0 180 87.5t68 218.5z" />
    <glyph glyph-name="Otilde" unicode="&#xd5;" horiz-adv-x="814" 
d="M533 768q-28 0 -65 19.5t-49 19.5q-14 0 -26 -11t-16 -29h-77q12 63 43.5 97t74.5 34q27 0 64.5 -20t50.5 -20q30 0 41 40h76q-12 -62 -43.5 -96t-73.5 -34zM785 405q0 -181 -111.5 -298t-280.5 -117q-147 0 -240.5 88t-93.5 230q0 178 112 297.5t281 119.5
q151 0 242 -89.5t91 -230.5zM647 402q0 94 -51.5 155t-146.5 62q-114 0 -183 -90t-69 -218q0 -99 55 -157t147 -58q112 0 180 87.5t68 218.5z" />
    <glyph glyph-name="Odieresis" unicode="&#xd6;" horiz-adv-x="814" 
d="M373 777q-27 0 -46.5 18.5t-19.5 45.5t20 46.5t47 19.5t46 -19t19 -46q0 -26 -19.5 -45.5t-46.5 -19.5zM584 777q-27 0 -46.5 18.5t-19.5 45.5t19.5 46.5t47.5 19.5q27 0 46 -19t19 -46q0 -26 -19.5 -45.5t-46.5 -19.5zM785 405q0 -181 -111.5 -298t-280.5 -117
q-147 0 -240.5 88t-93.5 230q0 178 112 297.5t281 119.5q151 0 242 -89.5t91 -230.5zM647 402q0 94 -51.5 155t-146.5 62q-114 0 -183 -90t-69 -218q0 -99 55 -157t147 -58q112 0 180 87.5t68 218.5z" />
    <glyph glyph-name="multiply" unicode="&#xd7;" horiz-adv-x="509" 
d="M84 115l-59 68l173 153l-132 153l72 66l133 -154l173 153l60 -68l-174 -154l133 -153l-73 -65l-133 153z" />
    <glyph glyph-name="Oslash" unicode="&#xd8;" horiz-adv-x="814" 
d="M80 -33l-48 51l91 93q-64 81 -64 197q0 178 112 297t281 119q123 0 210 -63l79 80l48 -50l-76 -78q72 -85 72 -208q0 -181 -111.5 -298t-280.5 -117q-129 0 -221 71zM649 402q0 68 -26 120l-367 -376q53 -50 143 -50q112 0 181 87t69 219zM195 311q0 -61 20 -106l365 371
q-53 43 -131 43q-115 0 -184.5 -89.5t-69.5 -218.5z" />
    <glyph glyph-name="Ugrave" unicode="&#xd9;" horiz-adv-x="723" 
d="M395 766l-83 135h134l37 -135h-88zM342 -10q-148 0 -217 77.5t-45 225.5l67 422h134l-68 -425q-16 -101 16.5 -147t116.5 -46q73 0 112.5 41t54.5 134l71 443h134l-73 -457q-42 -268 -303 -268z" />
    <glyph glyph-name="Uacute" unicode="&#xda;" horiz-adv-x="723" 
d="M382 766l67 135h138l-111 -135h-94zM342 -10q-148 0 -217 77.5t-45 225.5l67 422h134l-68 -425q-16 -101 16.5 -147t116.5 -46q73 0 112.5 41t54.5 134l71 443h134l-73 -457q-42 -268 -303 -268z" />
    <glyph glyph-name="Ucircumflex" unicode="&#xdb;" horiz-adv-x="723" 
d="M268 766l126 135h105l92 -135h-85l-67 55l-82 -55h-89zM342 -10q-148 0 -217 77.5t-45 225.5l67 422h134l-68 -425q-16 -101 16.5 -147t116.5 -46q73 0 112.5 41t54.5 134l71 443h134l-73 -457q-42 -268 -303 -268z" />
    <glyph glyph-name="Udieresis" unicode="&#xdc;" horiz-adv-x="723" 
d="M342 -10q-148 0 -217 77.5t-45 225.5l67 422h134l-68 -425q-16 -101 16.5 -147t116.5 -46q73 0 112.5 41t54.5 134l71 443h134l-73 -457q-42 -268 -303 -268zM338 777q-27 0 -46.5 18.5t-19.5 45.5t20 46.5t47 19.5t46 -19t19 -46q0 -26 -19.5 -45.5t-46.5 -19.5z
M549 777q-27 0 -46.5 18.5t-19.5 45.5t19.5 46.5t47.5 19.5q27 0 46 -19t19 -46q0 -26 -19.5 -45.5t-46.5 -19.5z" />
    <glyph glyph-name="Yacute" unicode="&#xdd;" horiz-adv-x="626" 
d="M209 0l49 310l-172 405h140l118 -295l202 295h135l-290 -414l-48 -301h-134zM337 766l67 135h138l-111 -135h-94z" />
    <glyph glyph-name="Thorn" unicode="&#xde;" horiz-adv-x="609" 
d="M286 715l-20 -128h91q111 0 174.5 -49t62.5 -141q0 -120 -79 -182t-201 -62h-117l-24 -153h-133l113 715h133zM342 488h-92l-38 -238h102q73 0 112 36.5t39 104.5q1 49 -29.5 73t-93.5 24z" />
    <glyph glyph-name="germandbls" unicode="&#xdf;" horiz-adv-x="609" 
d="M329 -9q-64 0 -111 22l16 92q36 -19 81 -19q63 0 96.5 42.5t33.5 111.5q0 68 -40 106t-112 37l15 95q64 0 104.5 28.5t40.5 89.5q0 43 -26 66.5t-71 23.5q-48 0 -77.5 -30.5t-37.5 -86.5l-90 -569h-121l90 570q15 98 80 150.5t160 52.5q89 0 148 -46t59 -129
q0 -61 -38 -105t-104 -63q66 -21 104.5 -73t38.5 -125q0 -110 -64 -175.5t-175 -65.5z" />
    <glyph glyph-name="agrave" unicode="&#xe0;" horiz-adv-x="554" 
d="M188 -10q-77 0 -122.5 39.5t-45.5 107.5q0 174 262 174h92l4 28q9 53 -10.5 78.5t-72.5 25.5q-87 0 -106 -82h-116q18 89 80 131t147 42q107 0 160 -51t36 -157l-26 -167q-16 -98 -9 -159h-115q-6 36 -2 76q-57 -86 -156 -86zM222 77q52 0 88 29t44 82l7 47h-76
q-76 0 -110.5 -20t-34.5 -68q0 -31 21 -50.5t61 -19.5zM272 601l-89 155h132l44 -155h-87z" />
    <glyph glyph-name="aacute" unicode="&#xe1;" horiz-adv-x="554" 
d="M188 -10q-77 0 -122.5 39.5t-45.5 107.5q0 174 262 174h92l4 28q9 53 -10.5 78.5t-72.5 25.5q-87 0 -106 -82h-116q18 89 80 131t147 42q107 0 160 -51t36 -157l-26 -167q-16 -98 -9 -159h-115q-6 36 -2 76q-57 -86 -156 -86zM222 77q52 0 88 29t44 82l7 47h-76
q-76 0 -110.5 -20t-34.5 -68q0 -31 21 -50.5t61 -19.5zM265 601l77 155h136l-122 -155h-91z" />
    <glyph glyph-name="acircumflex" unicode="&#xe2;" horiz-adv-x="554" 
d="M188 -10q-77 0 -122.5 39.5t-45.5 107.5q0 174 262 174h92l4 28q9 53 -10.5 78.5t-72.5 25.5q-87 0 -106 -82h-116q18 89 80 131t147 42q107 0 160 -51t36 -157l-26 -167q-16 -98 -9 -159h-115q-6 36 -2 76q-57 -86 -156 -86zM222 77q52 0 88 29t44 82l7 47h-76
q-76 0 -110.5 -20t-34.5 -68q0 -31 21 -50.5t61 -19.5zM149 602l135 151h95l91 -151h-83l-66 68l-85 -68h-87z" />
    <glyph glyph-name="atilde" unicode="&#xe3;" horiz-adv-x="554" 
d="M188 -10q-77 0 -122.5 39.5t-45.5 107.5q0 174 262 174h92l4 28q9 53 -10.5 78.5t-72.5 25.5q-87 0 -106 -82h-116q18 89 80 131t147 42q107 0 160 -51t36 -157l-26 -167q-16 -98 -9 -159h-115q-6 36 -2 76q-57 -86 -156 -86zM222 77q52 0 88 29t44 82l7 47h-76
q-76 0 -110.5 -20t-34.5 -68q0 -31 21 -50.5t61 -19.5zM382 606q-28 0 -64.5 20t-48.5 20q-14 0 -26 -11t-16 -29h-74q11 63 41.5 97t73.5 34q27 0 64 -19.5t50 -19.5q30 0 40 40h75q-11 -63 -42 -97.5t-73 -34.5z" />
    <glyph glyph-name="adieresis" unicode="&#xe4;" horiz-adv-x="554" 
d="M188 -10q-77 0 -122.5 39.5t-45.5 107.5q0 174 262 174h92l4 28q9 53 -10.5 78.5t-72.5 25.5q-87 0 -106 -82h-116q18 89 80 131t147 42q107 0 160 -51t36 -157l-26 -167q-16 -98 -9 -159h-115q-6 36 -2 76q-57 -86 -156 -86zM222 77q52 0 88 29t44 82l7 47h-76
q-76 0 -110.5 -20t-34.5 -68q0 -31 21 -50.5t61 -19.5zM223 613q-28 0 -47 18.5t-19 45.5t19.5 46.5t47.5 19.5q27 0 46 -19t19 -46q0 -26 -19.5 -45.5t-46.5 -19.5zM420 613q-27 0 -46 18.5t-19 45.5t19.5 46.5t46.5 19.5q28 0 46.5 -19t18.5 -46q0 -26 -19 -45.5
t-47 -19.5z" />
    <glyph glyph-name="aring" unicode="&#xe5;" horiz-adv-x="554" 
d="M188 -10q-77 0 -122.5 39.5t-45.5 107.5q0 174 262 174h92l4 28q9 53 -10.5 78.5t-72.5 25.5q-87 0 -106 -82h-116q18 89 80 131t147 42q107 0 160 -51t36 -157l-26 -167q-16 -98 -9 -159h-115q-6 36 -2 76q-57 -86 -156 -86zM222 77q52 0 88 29t44 82l7 47h-76
q-76 0 -110.5 -20t-34.5 -68q0 -31 21 -50.5t61 -19.5zM326 643q22 0 36.5 16t14.5 41q0 23 -13 38t-35 15q-23 0 -37.5 -15.5t-14.5 -40.5q0 -24 13.5 -39t35.5 -15zM326 590q-46 0 -78 31t-32 76t33 77t80 32q46 0 78 -31t32 -75q0 -45 -33.5 -77.5t-79.5 -32.5z" />
    <glyph glyph-name="ae" unicode="&#xe6;" horiz-adv-x="887" 
d="M480 213q0 -133 122 -133q94 0 120 80h115q-21 -83 -84 -126.5t-155 -43.5q-150 0 -203 110q-61 -110 -197 -110q-83 0 -130.5 38.5t-47.5 106.5q0 94 72 136.5t194 42.5h89l4 26q8 52 -11.5 77.5t-72.5 25.5q-90 0 -107 -82h-117q17 89 81 131t148 42q125 0 163 -74
q75 73 177 73q117 0 175.5 -71.5t37.5 -204.5l-4 -20h-369v-24zM221 77q53 0 89 28.5t45 83.5l7 47h-77q-75 0 -110 -21t-35 -70q0 -31 20.5 -49.5t60.5 -18.5zM635 446q-50 0 -89 -32.5t-55 -99.5h249q11 132 -105 132z" />
    <glyph glyph-name="ccedilla" unicode="&#xe7;" horiz-adv-x="564" 
d="M215 -219q-45 0 -75 22.5t-34 65.5h67q4 -33 39 -33q38 0 38 36q0 30 -34 30q-15 0 -27 -8l-30 33l55 71q-85 18 -133 79t-48 152q0 139 80.5 221.5t199.5 82.5q97 0 159 -49t66 -147h-114q-6 54 -35 77t-80 23q-70 0 -112 -56t-42 -152q0 -146 134 -146q49 0 84.5 29
t45.5 82h110q-15 -96 -80 -149.5t-163 -53.5h-16l-32 -41q36 3 62 -17t26 -58q0 -45 -30.5 -69.5t-80.5 -24.5z" />
    <glyph glyph-name="egrave" unicode="&#xe8;" horiz-adv-x="570" 
d="M153 213q0 -133 126 -133q98 0 124 80h117q-22 -83 -87.5 -126.5t-157.5 -43.5q-111 0 -177 61.5t-66 167.5q0 138 80.5 226t202.5 88q118 0 179 -72t41 -204l-4 -22h-378v-22zM312 446q-51 0 -90.5 -32t-56.5 -98h257q11 130 -110 130zM286 601l-89 155h132l44 -155h-87
z" />
    <glyph glyph-name="eacute" unicode="&#xe9;" horiz-adv-x="570" 
d="M153 213q0 -133 126 -133q98 0 124 80h117q-22 -83 -87.5 -126.5t-157.5 -43.5q-111 0 -177 61.5t-66 167.5q0 138 80.5 226t202.5 88q118 0 179 -72t41 -204l-4 -22h-378v-22zM312 446q-51 0 -90.5 -32t-56.5 -98h257q11 130 -110 130zM275 601l77 155h136l-122 -155
h-91z" />
    <glyph glyph-name="ecircumflex" unicode="&#xea;" horiz-adv-x="570" 
d="M153 213q0 -133 126 -133q98 0 124 80h117q-22 -83 -87.5 -126.5t-157.5 -43.5q-111 0 -177 61.5t-66 167.5q0 138 80.5 226t202.5 88q118 0 179 -72t41 -204l-4 -22h-378v-22zM312 446q-51 0 -90.5 -32t-56.5 -98h257q11 130 -110 130zM160 602l135 151h95l91 -151h-83
l-66 68l-85 -68h-87z" />
    <glyph glyph-name="edieresis" unicode="&#xeb;" horiz-adv-x="570" 
d="M153 213q0 -133 126 -133q98 0 124 80h117q-22 -83 -87.5 -126.5t-157.5 -43.5q-111 0 -177 61.5t-66 167.5q0 138 80.5 226t202.5 88q118 0 179 -72t41 -204l-4 -22h-378v-22zM312 446q-51 0 -90.5 -32t-56.5 -98h257q11 130 -110 130zM239 613q-28 0 -47 18.5t-19 45.5
t19.5 46.5t47.5 19.5q27 0 46 -19t19 -46q0 -26 -19.5 -45.5t-46.5 -19.5zM436 613q-27 0 -46 18.5t-19 45.5t19.5 46.5t46.5 19.5q28 0 46.5 -19t18.5 -46q0 -26 -19 -45.5t-47 -19.5z" />
    <glyph glyph-name="igrave" unicode="&#xec;" horiz-adv-x="271" 
d="M33 0l83 523h121l-83 -523h-121zM148 601l-89 155h132l44 -155h-87z" />
    <glyph glyph-name="iacute" unicode="&#xed;" horiz-adv-x="271" 
d="M135 601l77 155h136l-122 -155h-91zM33 0l83 523h121l-83 -523h-121z" />
    <glyph glyph-name="icircumflex" unicode="&#xee;" horiz-adv-x="271" 
d="M22 602l135 151h95l91 -151h-83l-66 68l-85 -68h-87zM33 0l83 523h121l-83 -523h-121z" />
    <glyph glyph-name="idieresis" unicode="&#xef;" horiz-adv-x="271" 
d="M106 613q-27 0 -46.5 18.5t-19.5 45.5t19.5 46.5t47.5 19.5q27 0 46 -19t19 -46q0 -26 -19.5 -45.5t-46.5 -19.5zM296 613q-27 0 -46 18.5t-19 45.5t19 46.5t47 19.5q27 0 46 -19t19 -46q0 -26 -19 -45.5t-47 -19.5zM33 0l83 523h121l-83 -523h-121z" />
    <glyph glyph-name="eth" unicode="&#xf0;" horiz-adv-x="603" 
d="M204 567l-24 52l113 51q-45 44 -115 95h148q34 -20 67 -50l101 45l24 -53l-81 -36q131 -149 131 -337q0 -151 -76.5 -247.5t-214.5 -96.5q-109 0 -177 64t-68 174q0 122 73.5 212.5t189.5 90.5q90 0 137 -68q-34 88 -97 162zM155 222q0 -60 30.5 -99t93.5 -39
q77 0 121 63.5t44 152.5q0 60 -31 99.5t-96 39.5q-76 0 -119 -62.5t-43 -154.5z" />
    <glyph glyph-name="ntilde" unicode="&#xf1;" horiz-adv-x="604" 
d="M30 0l57 361q12 83 16 162h116q0 -49 -6 -98q66 109 181 109q84 0 126.5 -53.5t24.5 -166.5l-50 -314h-121l50 320q19 114 -77 114q-58 0 -98.5 -36t-50.5 -100l-47 -298h-121zM413 606q-28 0 -64.5 20t-48.5 20q-14 0 -26 -11t-16 -29h-74q11 63 41.5 97t73.5 34
q27 0 64 -19.5t50 -19.5q30 0 40 40h75q-11 -63 -42 -97.5t-73 -34.5z" />
    <glyph glyph-name="ograve" unicode="&#xf2;" horiz-adv-x="599" 
d="M279 -10q-109 0 -177.5 64t-68.5 171q-1 132 81 220t206 88q110 0 178.5 -63t68.5 -171q0 -135 -80.5 -222t-207.5 -87zM282 84q75 0 118 60.5t43 155.5q0 64 -32.5 101.5t-94.5 37.5q-73 0 -117 -60.5t-44 -153.5q0 -65 31.5 -103t95.5 -38zM295 601l-89 155h132
l44 -155h-87z" />
    <glyph glyph-name="oacute" unicode="&#xf3;" horiz-adv-x="599" 
d="M282 601l77 155h136l-122 -155h-91zM279 -10q-109 0 -177.5 64t-68.5 171q-1 132 81 220t206 88q110 0 178.5 -63t68.5 -171q0 -135 -80.5 -222t-207.5 -87zM282 84q75 0 118 60.5t43 155.5q0 64 -32.5 101.5t-94.5 37.5q-73 0 -117 -60.5t-44 -153.5q0 -65 31.5 -103
t95.5 -38z" />
    <glyph glyph-name="ocircumflex" unicode="&#xf4;" horiz-adv-x="599" 
d="M170 602l135 151h95l91 -151h-83l-66 68l-85 -68h-87zM279 -10q-109 0 -177.5 64t-68.5 171q-1 132 81 220t206 88q110 0 178.5 -63t68.5 -171q0 -135 -80.5 -222t-207.5 -87zM282 84q75 0 118 60.5t43 155.5q0 64 -32.5 101.5t-94.5 37.5q-73 0 -117 -60.5t-44 -153.5
q0 -65 31.5 -103t95.5 -38z" />
    <glyph glyph-name="otilde" unicode="&#xf5;" horiz-adv-x="599" 
d="M279 -10q-109 0 -177.5 64t-68.5 171q-1 132 81 220t206 88q110 0 178.5 -63t68.5 -171q0 -135 -80.5 -222t-207.5 -87zM282 84q75 0 118 60.5t43 155.5q0 64 -32.5 101.5t-94.5 37.5q-73 0 -117 -60.5t-44 -153.5q0 -65 31.5 -103t95.5 -38zM400 606q-28 0 -64.5 20
t-48.5 20q-14 0 -26 -11t-16 -29h-74q11 63 41.5 97t73.5 34q27 0 64 -19.5t50 -19.5q30 0 40 40h75q-11 -63 -42 -97.5t-73 -34.5z" />
    <glyph glyph-name="odieresis" unicode="&#xf6;" horiz-adv-x="599" 
d="M245 613q-28 0 -47 18.5t-19 45.5t19.5 46.5t47.5 19.5q27 0 46 -19t19 -46q0 -26 -19.5 -45.5t-46.5 -19.5zM442 613q-27 0 -46 18.5t-19 45.5t19.5 46.5t46.5 19.5q28 0 46.5 -19t18.5 -46q0 -26 -19 -45.5t-47 -19.5zM279 -10q-109 0 -177.5 64t-68.5 171
q-1 132 81 220t206 88q110 0 178.5 -63t68.5 -171q0 -135 -80.5 -222t-207.5 -87zM282 84q75 0 118 60.5t43 155.5q0 64 -32.5 101.5t-94.5 37.5q-73 0 -117 -60.5t-44 -153.5q0 -65 31.5 -103t95.5 -38z" />
    <glyph glyph-name="divide" unicode="&#xf7;" horiz-adv-x="540" 
d="M41 296l14 91h467l-14 -91h-467zM257 71q-32 0 -54 22t-22 53t22 53t54 22t54.5 -22t22.5 -53t-22.5 -53t-54.5 -22zM305 461q-32 0 -54 22t-22 53q0 32 22.5 54t53.5 22q32 0 54.5 -22t22.5 -54q0 -31 -22.5 -53t-54.5 -22z" />
    <glyph glyph-name="oslash" unicode="&#xf8;" horiz-adv-x="599" 
d="M55 -38l-44 42l70 73q-49 62 -49 149q0 132 82 219.5t206 87.5q89 0 153 -44l66 70l44 -42l-66 -69q50 -59 50 -150q0 -135 -81 -221.5t-208 -86.5q-89 0 -153 45zM282 83q76 0 119.5 60.5t43.5 155.5q0 36 -9 63l-241 -253q31 -26 87 -26zM153 226q0 -36 9 -64l239 252
q-31 26 -85 26q-74 0 -118.5 -60t-44.5 -154z" />
    <glyph glyph-name="ugrave" unicode="&#xf9;" horiz-adv-x="601" 
d="M569 523l-57 -364q-15 -95 -12 -159h-117q-3 46 4 94q-67 -104 -176 -104q-86 0 -128.5 54.5t-24.5 164.5l50 314h121l-52 -324q-17 -114 76 -114q57 0 97.5 36t50.5 100l47 302h121zM307 601l-89 155h132l44 -155h-87z" />
    <glyph glyph-name="uacute" unicode="&#xfa;" horiz-adv-x="601" 
d="M294 601l77 155h136l-122 -155h-91zM569 523l-57 -364q-15 -95 -12 -159h-117q-3 46 4 94q-67 -104 -176 -104q-86 0 -128.5 54.5t-24.5 164.5l50 314h121l-52 -324q-17 -114 76 -114q57 0 97.5 36t50.5 100l47 302h121z" />
    <glyph glyph-name="ucircumflex" unicode="&#xfb;" horiz-adv-x="601" 
d="M182 602l135 151h95l91 -151h-83l-66 68l-85 -68h-87zM569 523l-57 -364q-15 -95 -12 -159h-117q-3 46 4 94q-67 -104 -176 -104q-86 0 -128.5 54.5t-24.5 164.5l50 314h121l-52 -324q-17 -114 76 -114q57 0 97.5 36t50.5 100l47 302h121z" />
    <glyph glyph-name="udieresis" unicode="&#xfc;" horiz-adv-x="601" 
d="M254 613q-28 0 -47 18.5t-19 45.5t19.5 46.5t47.5 19.5q27 0 46 -19t19 -46q0 -26 -19.5 -45.5t-46.5 -19.5zM451 613q-27 0 -46 18.5t-19 45.5t19.5 46.5t46.5 19.5q28 0 46.5 -19t18.5 -46q0 -26 -19.5 -45.5t-46.5 -19.5zM569 523l-57 -364q-15 -95 -12 -159h-117
q-3 46 4 94q-67 -104 -176 -104q-86 0 -128.5 54.5t-24.5 164.5l50 314h121l-52 -324q-17 -114 76 -114q57 0 97.5 36t50.5 100l47 302h121z" />
    <glyph glyph-name="yacute" unicode="&#xfd;" horiz-adv-x="533" 
d="M45 -179l135 238l-125 464h124l81 -338l176 338h124l-391 -702h-124zM266 601l77 155h136l-122 -155h-91z" />
    <glyph glyph-name="thorn" unicode="&#xfe;" horiz-adv-x="636" 
d="M1 -179l149 944h121l-52 -330q27 44 75 71.5t105 27.5q88 0 144 -61.5t56 -167.5q0 -137 -70.5 -226t-186.5 -89q-69 0 -114 29.5t-62 74.5l-44 -273h-121zM319 84q71 0 112.5 59.5t41.5 153.5q0 68 -31 105.5t-86 37.5q-74 0 -122.5 -59t-48.5 -156q0 -66 35.5 -103.5
t98.5 -37.5z" />
    <glyph glyph-name="ydieresis" unicode="&#xff;" horiz-adv-x="533" 
d="M45 -179l135 238l-125 464h124l81 -338l176 338h124l-391 -702h-124zM231 613q-28 0 -47 18.5t-19 45.5t19.5 46.5t47.5 19.5q27 0 46 -19t19 -46q0 -26 -19.5 -45.5t-46.5 -19.5zM428 613q-27 0 -46 18.5t-19 45.5t19.5 46.5t46.5 19.5q28 0 46.5 -19t18.5 -46
q0 -26 -19 -45.5t-47 -19.5z" />
    <glyph glyph-name="Amacron" unicode="&#x100;" horiz-adv-x="685" 
d="M490 0l-29 177h-273l-84 -177h-128l352 715h174l123 -715h-135zM393 606l-159 -332h212zM277 780l13 81h288l-13 -81h-288z" />
    <glyph glyph-name="amacron" unicode="&#x101;" horiz-adv-x="554" 
d="M188 -10q-77 0 -122.5 39.5t-45.5 107.5q0 174 262 174h92l4 28q9 53 -10.5 78.5t-72.5 25.5q-87 0 -106 -82h-116q18 89 80 131t147 42q107 0 160 -51t36 -157l-26 -167q-16 -98 -9 -159h-115q-6 36 -2 76q-57 -86 -156 -86zM222 77q52 0 88 29t44 82l7 47h-76
q-76 0 -110.5 -20t-34.5 -68q0 -31 21 -50.5t61 -19.5zM182 634l12 78h280l-12 -78h-280z" />
    <glyph glyph-name="Abreve" unicode="&#x102;" horiz-adv-x="685" 
d="M490 0l-29 177h-273l-84 -177h-128l352 715h174l123 -715h-135zM393 606l-159 -332h212zM423 761q-64 0 -103 38.5t-39 101.5h85q6 -56 59 -56q54 0 65 56h84q-7 -63 -49.5 -101.5t-101.5 -38.5z" />
    <glyph glyph-name="abreve" unicode="&#x103;" horiz-adv-x="554" 
d="M188 -10q-77 0 -122.5 39.5t-45.5 107.5q0 174 262 174h92l4 28q9 53 -10.5 78.5t-72.5 25.5q-87 0 -106 -82h-116q18 89 80 131t147 42q107 0 160 -51t36 -157l-26 -167q-16 -98 -9 -159h-115q-6 36 -2 76q-57 -86 -156 -86zM222 77q52 0 88 29t44 82l7 47h-76
q-76 0 -110.5 -20t-34.5 -68q0 -31 21 -50.5t61 -19.5zM324 606q-64 0 -103 39t-38 104h83q6 -58 59 -58q57 0 66 58h83q-7 -65 -49 -104t-101 -39z" />
    <glyph glyph-name="Aogonek" unicode="&#x104;" horiz-adv-x="685" 
d="M490 0l-29 177h-273l-84 -177h-128l352 715h174l122 -711q-52 -33 -66 -52q-11 -17 -11 -34q0 -28 34 -28q22 0 40 8l-10 -68q-36 -12 -66 -12q-46 0 -75.5 19.5t-28.5 60.5q0 64 90 102h-41zM393 606l-159 -332h212z" />
    <glyph glyph-name="aogonek" unicode="&#x105;" horiz-adv-x="554" 
d="M389 -182q-46 0 -76 19.5t-29 60.5q0 62 88 102h-26q-6 36 -2 76q-57 -86 -156 -86q-77 0 -122.5 39.5t-45.5 107.5q0 174 262 174h92l4 28q9 53 -10.5 78.5t-72.5 25.5q-87 0 -106 -82h-116q18 89 80 131t147 42q107 0 160 -51t36 -157l-26 -167q-16 -97 -9 -157
q-1 -1 -12 -8.5t-14 -10t-12.5 -9.5t-13 -12t-9 -12.5t-7.5 -15.5t-2 -16q0 -28 33 -28q22 0 41 8l-11 -68q-28 -12 -65 -12zM222 77q52 0 88 29t44 82l7 47h-76q-76 0 -110.5 -20t-34.5 -68q0 -31 21 -50.5t61 -19.5z" />
    <glyph glyph-name="Cacute" unicode="&#x106;" horiz-adv-x="741" 
d="M389 -10q-153 0 -241.5 83.5t-88.5 229.5q0 182 107.5 302.5t279.5 120.5q124 0 201 -64.5t84 -185.5h-130q-11 72 -49 108.5t-110 36.5q-113 0 -178.5 -89.5t-65.5 -224.5q-1 -100 47.5 -155.5t144.5 -55.5q72 0 121.5 40.5t70.5 112.5h130q-25 -121 -113 -190t-210 -69
zM401 766l67 135h138l-111 -135h-94z" />
    <glyph glyph-name="cacute" unicode="&#x107;" horiz-adv-x="564" 
d="M272 601l77 155h136l-122 -155h-91zM286 -9q-117 0 -185 64t-68 174q0 139 80.5 221.5t199.5 82.5q97 0 159 -49t66 -147h-114q-6 54 -35 77t-80 23q-70 0 -112 -56t-42 -152q0 -146 134 -146q49 0 84.5 29t45.5 82h110q-15 -96 -80 -149.5t-163 -53.5z" />
    <glyph glyph-name="Ccircumflex" unicode="&#x108;" horiz-adv-x="741" 
d="M291 766l126 135h105l92 -135h-85l-67 55l-82 -55h-89zM389 -10q-153 0 -241.5 83.5t-88.5 229.5q0 182 107.5 302.5t279.5 120.5q124 0 201 -64.5t84 -185.5h-130q-11 72 -49 108.5t-110 36.5q-113 0 -178.5 -89.5t-65.5 -224.5q-1 -100 47.5 -155.5t144.5 -55.5
q72 0 121.5 40.5t70.5 112.5h130q-25 -121 -113 -190t-210 -69z" />
    <glyph glyph-name="ccircumflex" unicode="&#x109;" horiz-adv-x="564" 
d="M159 602l135 151h95l91 -151h-83l-66 68l-85 -68h-87zM286 -9q-117 0 -185 64t-68 174q0 139 80.5 221.5t199.5 82.5q97 0 159 -49t66 -147h-114q-6 54 -35 77t-80 23q-70 0 -112 -56t-42 -152q0 -146 134 -146q49 0 84.5 29t45.5 82h110q-15 -96 -80 -149.5t-163 -53.5z
" />
    <glyph glyph-name="Cdotaccent" unicode="&#x10a;" horiz-adv-x="741" 
d="M389 -10q-153 0 -241.5 83.5t-88.5 229.5q0 182 107.5 302.5t279.5 120.5q124 0 201 -64.5t84 -185.5h-130q-11 72 -49 108.5t-110 36.5q-113 0 -178.5 -89.5t-65.5 -224.5q-1 -100 47.5 -155.5t144.5 -55.5q72 0 121.5 40.5t70.5 112.5h130q-25 -121 -113 -190t-210 -69
zM460 775q-30 0 -50.5 19.5t-20.5 48.5q0 28 21 48.5t50 20.5q30 0 50.5 -19.5t20.5 -48.5q0 -28 -21 -48.5t-50 -20.5z" />
    <glyph glyph-name="cdotaccent" unicode="&#x10b;" horiz-adv-x="564" 
d="M286 -9q-117 0 -185 64t-68 174q0 139 80.5 221.5t199.5 82.5q97 0 159 -49t66 -147h-114q-6 54 -35 77t-80 23q-70 0 -112 -56t-42 -152q0 -146 134 -146q49 0 84.5 29t45.5 82h110q-15 -96 -80 -149.5t-163 -53.5zM338 611q-30 0 -50.5 19.5t-20.5 47.5q0 29 21 49.5
t51 20.5q29 0 49.5 -20t20.5 -48t-21 -48.5t-50 -20.5z" />
    <glyph glyph-name="Ccaron" unicode="&#x10c;" horiz-adv-x="741" 
d="M628 901l-127 -135h-105l-91 135h84l67 -55l82 55h90zM389 -10q-153 0 -241.5 83.5t-88.5 229.5q0 182 107.5 302.5t279.5 120.5q124 0 201 -64.5t84 -185.5h-130q-11 72 -49 108.5t-110 36.5q-113 0 -178.5 -89.5t-65.5 -224.5q-1 -100 47.5 -155.5t144.5 -55.5
q72 0 121.5 40.5t70.5 112.5h130q-25 -121 -113 -190t-210 -69z" />
    <glyph glyph-name="ccaron" unicode="&#x10d;" horiz-adv-x="564" 
d="M501 753l-135 -151h-96l-90 151h82l66 -67l85 67h88zM286 -9q-117 0 -185 64t-68 174q0 139 80.5 221.5t199.5 82.5q97 0 159 -49t66 -147h-114q-6 54 -35 77t-80 23q-70 0 -112 -56t-42 -152q0 -146 134 -146q49 0 84.5 29t45.5 82h110q-15 -96 -80 -149.5t-163 -53.5z
" />
    <glyph glyph-name="Dcaron" unicode="&#x10e;" horiz-adv-x="718" 
d="M568 901l-127 -135h-105l-91 135h84l67 -55l82 55h90zM40 0l113 715h196q173 0 259 -81.5t87 -223.5q0 -183 -111 -296.5t-303 -113.5h-241zM190 105h89q132 0 205 79.5t73 221.5q0 96 -51.5 150.5t-160.5 54.5h-75z" />
    <glyph glyph-name="dcaron" unicode="&#x10f;" horiz-adv-x="629" 
d="M657 590l37 175h107l-72 -175h-72zM243 -10q-94 0 -152 61.5t-58 168.5q0 137 74 225.5t193 88.5q122 0 167 -97l52 328h121l-95 -606q-15 -97 -11 -159h-118q-3 40 2 89q-61 -99 -175 -99zM280 84q74 0 120.5 57.5t46.5 159.5q0 64 -35 101.5t-93 37.5q-74 0 -117 -59
t-43 -154q0 -67 32 -105t89 -38z" />
    <glyph glyph-name="Dcroat" unicode="&#x110;" horiz-adv-x="737" 
d="M39 311l15 95h69l49 309h197q173 0 259 -82t86 -223q0 -184 -110.5 -297t-303.5 -113h-241l49 311h-69zM208 105h91q132 0 205 79.5t73 221.5q0 96 -51.5 150.5t-160.5 54.5h-77l-33 -205h173l-15 -95h-173z" />
    <glyph glyph-name="dcroat" unicode="&#x111;" horiz-adv-x="629" 
d="M325 604l12 75h168l14 86h121l-14 -86h68l-12 -75h-67l-70 -445q-15 -97 -11 -159h-118q-3 40 2 89q-61 -99 -175 -99q-94 0 -152 61.5t-58 168.5q0 137 74 225.5t193 88.5q122 0 167 -97l26 167h-168zM319 440q-74 0 -117 -59t-43 -154q0 -69 31 -106t90 -37
q74 0 120.5 58t46.5 161q0 65 -34.5 101t-93.5 36z" />
    <glyph glyph-name="Emacron" unicode="&#x112;" horiz-adv-x="588" 
d="M40 0l113 715h444l-17 -105h-311l-31 -196h252l-15 -100h-252l-34 -209h332l-17 -105h-464zM237 780l13 81h288l-13 -81h-288z" />
    <glyph glyph-name="emacron" unicode="&#x113;" horiz-adv-x="570" 
d="M153 213q0 -133 126 -133q98 0 124 80h117q-22 -83 -87.5 -126.5t-157.5 -43.5q-111 0 -177 61.5t-66 167.5q0 138 80.5 226t202.5 88q118 0 179 -72t41 -204l-4 -22h-378v-22zM312 446q-51 0 -90.5 -32t-56.5 -98h257q11 130 -110 130zM193 634l12 78h280l-12 -78h-280z
" />
    <glyph glyph-name="Ebreve" unicode="&#x114;" horiz-adv-x="588" 
d="M40 0l113 715h444l-17 -105h-311l-31 -196h252l-15 -100h-252l-34 -209h332l-17 -105h-464zM382 761q-64 0 -103 38.5t-39 101.5h85q6 -56 59 -56q54 0 65 56h84q-7 -63 -49.5 -101.5t-101.5 -38.5z" />
    <glyph glyph-name="ebreve" unicode="&#x115;" horiz-adv-x="570" 
d="M153 213q0 -133 126 -133q98 0 124 80h117q-22 -83 -87.5 -126.5t-157.5 -43.5q-111 0 -177 61.5t-66 167.5q0 138 80.5 226t202.5 88q118 0 179 -72t41 -204l-4 -22h-378v-22zM333 606q-64 0 -103 39t-38 104h83q6 -58 59 -58q57 0 66 58h83q-7 -65 -49 -104t-101 -39z
M312 446q-51 0 -90.5 -32t-56.5 -98h257q11 130 -110 130z" />
    <glyph glyph-name="Edotaccent" unicode="&#x116;" horiz-adv-x="588" 
d="M385 775q-30 0 -50.5 19.5t-20.5 48.5q0 28 21 48.5t50 20.5q30 0 50.5 -19.5t20.5 -48.5q0 -28 -21 -48.5t-50 -20.5zM40 0l113 715h444l-17 -105h-311l-31 -196h252l-15 -100h-252l-34 -209h332l-17 -105h-464z" />
    <glyph glyph-name="edotaccent" unicode="&#x117;" horiz-adv-x="570" 
d="M153 213q0 -133 126 -133q98 0 124 80h117q-22 -83 -87.5 -126.5t-157.5 -43.5q-111 0 -177 61.5t-66 167.5q0 138 80.5 226t202.5 88q118 0 179 -72t41 -204l-4 -22h-378v-22zM312 446q-51 0 -90.5 -32t-56.5 -98h257q11 130 -110 130zM338 611q-30 0 -50.5 19.5
t-20.5 47.5q0 29 21 49.5t51 20.5q29 0 49.5 -20t20.5 -48t-21 -48.5t-50 -20.5z" />
    <glyph glyph-name="Eogonek" unicode="&#x118;" horiz-adv-x="588" 
d="M40 0l113 715h444l-17 -105h-311l-31 -196h252l-15 -100h-252l-34 -209h332l-17 -105h-33q-48 -30 -61 -50q-11 -16 -11 -33q0 -27 34 -27q22 0 40 8l-10 -68q-36 -12 -66 -12q-45 0 -75 19t-29 58q0 65 85 105h-338z" />
    <glyph glyph-name="eogonek" unicode="&#x119;" horiz-adv-x="570" 
d="M275 -10q-111 0 -177 61.5t-66 167.5q0 138 80.5 226t202.5 88q118 0 179 -72t41 -204l-4 -22h-378v-22q0 -133 126 -133q98 0 124 80h117q-17 -65 -65 -110q-13 -13 -49.5 -38.5t-57.5 -47.5t-21 -46q0 -28 34 -28q21 0 40 8l-10 -68q-30 -12 -66 -12q-46 0 -75.5 19
t-28.5 60q0 55 79 94q-8 -1 -25 -1zM312 446q-51 0 -90.5 -32t-56.5 -98h257q11 130 -110 130z" />
    <glyph glyph-name="Ecaron" unicode="&#x11a;" horiz-adv-x="588" 
d="M550 901l-127 -135h-105l-91 135h84l67 -55l82 55h90zM40 0l113 715h444l-17 -105h-311l-31 -196h252l-15 -100h-252l-34 -209h332l-17 -105h-464z" />
    <glyph glyph-name="ecaron" unicode="&#x11b;" horiz-adv-x="570" 
d="M153 213q0 -133 126 -133q98 0 124 80h117q-22 -83 -87.5 -126.5t-157.5 -43.5q-111 0 -177 61.5t-66 167.5q0 138 80.5 226t202.5 88q118 0 179 -72t41 -204l-4 -22h-378v-22zM312 446q-51 0 -90.5 -32t-56.5 -98h257q11 130 -110 130zM504 753l-135 -151h-96l-90 151
h82l66 -67l85 67h88z" />
    <glyph glyph-name="Gcircumflex" unicode="&#x11c;" horiz-adv-x="777" 
d="M285 766l126 135h105l92 -135h-85l-67 55l-82 -55h-89zM397 -10q-157 0 -247 87.5t-90 233.5q0 114 49 208.5t138 149.5t199 55q123 0 205.5 -60.5t89.5 -178.5h-133q-6 67 -50 100.5t-117 33.5q-111 0 -177 -88.5t-66 -218.5q0 -102 51.5 -160t150.5 -58
q87 0 137.5 48.5t64.5 131.5h-180l16 100h311q-28 -384 -352 -384z" />
    <glyph glyph-name="gcircumflex" unicode="&#x11d;" horiz-adv-x="630" 
d="M185 602l135 151h95l91 -151h-83l-66 68l-85 -68h-87zM281 114q71 0 118.5 54t47.5 142q0 60 -35.5 95t-93.5 35q-71 0 -113 -55.5t-42 -133.5q0 -63 30.5 -100t87.5 -37zM601 523l-78 -495q-34 -220 -270 -220q-123 0 -182.5 49.5t-66.5 124.5h121q15 -82 125 -82
q71 0 106.5 33.5t46.5 99.5l12 74q-59 -85 -167 -85q-93 0 -151.5 60t-58.5 162q0 123 74 206.5t186 83.5q122 0 169 -97l14 86h120z" />
    <glyph glyph-name="Gbreve" unicode="&#x11e;" horiz-adv-x="777" 
d="M454 761q-64 0 -103 38.5t-39 101.5h85q6 -56 59 -56q54 0 65 56h84q-7 -63 -49.5 -101.5t-101.5 -38.5zM397 -10q-157 0 -247 87.5t-90 233.5q0 114 49 208.5t138 149.5t199 55q123 0 205.5 -60.5t89.5 -178.5h-133q-6 67 -50 100.5t-117 33.5q-111 0 -177 -88.5
t-66 -218.5q0 -102 51.5 -160t150.5 -58q87 0 137.5 48.5t64.5 131.5h-180l16 100h311q-28 -384 -352 -384z" />
    <glyph glyph-name="gbreve" unicode="&#x11f;" horiz-adv-x="630" 
d="M281 114q71 0 118.5 54t47.5 142q0 60 -35.5 95t-93.5 35q-71 0 -113 -55.5t-42 -133.5q0 -63 30.5 -100t87.5 -37zM601 523l-78 -495q-34 -220 -270 -220q-123 0 -182.5 49.5t-66.5 124.5h121q15 -82 125 -82q71 0 106.5 33.5t46.5 99.5l12 74q-59 -85 -167 -85
q-93 0 -151.5 60t-58.5 162q0 123 74 206.5t186 83.5q122 0 169 -97l14 86h120zM357 606q-64 0 -103 39t-38 104h83q6 -58 59 -58q57 0 66 58h83q-7 -65 -49 -104t-101 -39z" />
    <glyph glyph-name="Gdotaccent" unicode="&#x120;" horiz-adv-x="777" 
d="M455 775q-30 0 -50.5 19.5t-20.5 48.5q0 28 21 48.5t50 20.5q30 0 50.5 -19.5t20.5 -48.5q0 -28 -21 -48.5t-50 -20.5zM397 -10q-157 0 -247 87.5t-90 233.5q0 114 49 208.5t138 149.5t199 55q123 0 205.5 -60.5t89.5 -178.5h-133q-6 67 -50 100.5t-117 33.5
q-111 0 -177 -88.5t-66 -218.5q0 -102 51.5 -160t150.5 -58q87 0 137.5 48.5t64.5 131.5h-180l16 100h311q-28 -384 -352 -384z" />
    <glyph glyph-name="gdotaccent" unicode="&#x121;" horiz-adv-x="630" 
d="M281 114q71 0 118.5 54t47.5 142q0 60 -35.5 95t-93.5 35q-71 0 -113 -55.5t-42 -133.5q0 -63 30.5 -100t87.5 -37zM601 523l-78 -495q-34 -220 -270 -220q-123 0 -182.5 49.5t-66.5 124.5h121q15 -82 125 -82q71 0 106.5 33.5t46.5 99.5l12 74q-59 -85 -167 -85
q-93 0 -151.5 60t-58.5 162q0 123 74 206.5t186 83.5q122 0 169 -97l14 86h120zM362 611q-30 0 -50.5 19.5t-20.5 47.5q0 29 21 49.5t51 20.5q29 0 49.5 -20t20.5 -48t-21 -48.5t-50 -20.5z" />
    <glyph glyph-name="Gcommaaccent" unicode="&#x122;" horiz-adv-x="777" 
d="M299 -225l-68 27l63 165l110 -22zM397 -10q-157 0 -247 87.5t-90 233.5q0 114 49 208.5t138 149.5t199 55q123 0 205.5 -60.5t89.5 -178.5h-133q-6 67 -50 100.5t-117 33.5q-111 0 -177 -88.5t-66 -218.5q0 -102 51.5 -160t150.5 -58q87 0 137.5 48.5t64.5 131.5h-180
l16 100h311q-28 -384 -352 -384z" />
    <glyph glyph-name="gcommaaccent" unicode="&#x123;" horiz-adv-x="630" 
d="M381 779l69 -26l-64 -165l-109 22zM281 114q71 0 118.5 54t47.5 142q0 60 -35.5 95t-93.5 35q-71 0 -113 -55.5t-42 -133.5q0 -63 30.5 -100t87.5 -37zM601 523l-78 -495q-34 -220 -270 -220q-123 0 -182.5 49.5t-66.5 124.5h121q15 -82 125 -82q71 0 106.5 33.5
t46.5 99.5l12 74q-59 -85 -167 -85q-93 0 -151.5 60t-58.5 162q0 123 74 206.5t186 83.5q122 0 169 -97l14 86h120z" />
    <glyph glyph-name="Hcircumflex" unicode="&#x124;" horiz-adv-x="751" 
d="M40 0l113 715h133l-48 -304h320l49 304h134l-113 -715h-134l48 304h-321l-48 -304h-133zM288 766l126 135h105l92 -135h-85l-67 55l-82 -55h-89z" />
    <glyph glyph-name="hcircumflex" unicode="&#x125;" horiz-adv-x="604" 
d="M30 0l121 765h120l-52 -331q62 100 175 100q84 0 126.5 -53.5t24.5 -166.5l-50 -314h-121l50 320q19 114 -77 114q-58 0 -98.5 -36t-50.5 -100l-47 -298h-121zM221 809l126 135h105l92 -135h-85l-67 55l-82 -55h-89z" />
    <glyph glyph-name="Hbar" unicode="&#x126;" horiz-adv-x="751" 
d="M53 504l12 78h67l21 133h133l-21 -133h320l22 133h134l-21 -133h65l-12 -78h-66l-79 -504h-134l48 304h-321l-48 -304h-133l79 504h-66zM238 411h320l15 93h-321z" />
    <glyph glyph-name="hbar" unicode="&#x127;" horiz-adv-x="604" 
d="M57 604l12 75h68l14 86h120l-14 -86h170l-12 -75h-170l-26 -170q62 100 175 100q84 0 126.5 -53.5t24.5 -166.5l-50 -314h-121l50 320q10 60 -9 87t-68 27q-58 0 -98.5 -36t-50.5 -100l-47 -298h-121l95 604h-68z" />
    <glyph glyph-name="Itilde" unicode="&#x128;" horiz-adv-x="308" 
d="M44 0l113 715h134l-113 -715h-134zM302 768q-28 0 -65 19.5t-49 19.5q-14 0 -26 -11t-16 -29h-77q12 63 43.5 97t74.5 34q27 0 64.5 -20t50.5 -20q30 0 41 40h76q-12 -62 -43.5 -96t-73.5 -34z" />
    <glyph glyph-name="itilde" unicode="&#x129;" horiz-adv-x="271" 
d="M33 0l83 523h121l-83 -523h-121zM256 606q-28 0 -64.5 20t-48.5 20q-14 0 -26 -11t-16 -29h-74q11 63 41.5 97t73.5 34q27 0 64 -19.5t50 -19.5q30 0 40 40h75q-11 -63 -42 -97.5t-73 -34.5z" />
    <glyph glyph-name="Imacron" unicode="&#x12a;" horiz-adv-x="308" 
d="M44 0l113 715h134l-113 -715h-134zM90 780l13 81h288l-13 -81h-288z" />
    <glyph glyph-name="imacron" unicode="&#x12b;" horiz-adv-x="271" 
d="M87 634l12 78h214l-12 -78h-214zM33 0l83 523h121l-83 -523h-121z" />
    <glyph glyph-name="Ibreve" unicode="&#x12c;" horiz-adv-x="308" 
d="M44 0l113 715h134l-113 -715h-134zM237 761q-64 0 -103 38.5t-39 101.5h85q6 -56 59 -56q54 0 65 56h84q-7 -63 -49.5 -101.5t-101.5 -38.5z" />
    <glyph glyph-name="ibreve" unicode="&#x12d;" horiz-adv-x="271" 
d="M33 0l83 523h121l-83 -523h-121zM194 606q-64 0 -103 39t-38 104h83q6 -58 59 -58q57 0 66 58h83q-7 -65 -49 -104t-101 -39z" />
    <glyph glyph-name="Iogonek" unicode="&#x12e;" horiz-adv-x="308" 
d="M98 -182q-46 0 -75.5 19.5t-29.5 60.5q0 63 91 102h-40l113 715h134l-111 -706q-80 -53 -80 -91q0 -28 34 -28q21 0 40 8l-11 -68q-34 -12 -65 -12z" />
    <glyph glyph-name="iogonek" unicode="&#x12f;" horiz-adv-x="271" 
d="M33 0l83 523h121l-82 -514q-24 -16 -37 -25.5t-27 -28t-14 -37.5q0 -28 32 -28q22 0 40 8l-10 -68q-36 -12 -66 -12q-44 0 -74 19.5t-29 60.5q0 62 88 102h-25zM198 609q-30 0 -50.5 20t-20.5 49t21 49.5t51 20.5t50.5 -20t20.5 -49t-21 -49.5t-51 -20.5z" />
    <glyph glyph-name="Idotaccent" unicode="&#x130;" horiz-adv-x="308" 
d="M44 0l113 715h134l-113 -715h-134zM239 775q-30 0 -50.5 19.5t-20.5 48.5q0 28 21 48.5t50 20.5q30 0 50.5 -19.5t20.5 -48.5q0 -28 -21 -48.5t-50 -20.5z" />
    <glyph glyph-name="dotlessi" unicode="&#x131;" horiz-adv-x="271" 
d="M33 0l83 523h121l-83 -523h-121z" />
    <glyph glyph-name="IJ" unicode="&#x132;" horiz-adv-x="715" 
d="M13 0l113 715h134l-113 -715h-134zM366 -9q-79 0 -130 28l16 102q52 -23 98 -23q99 0 116 111l80 506h134l-82 -514q-17 -106 -77.5 -158t-154.5 -52z" />
    <glyph glyph-name="ij" unicode="&#x133;" horiz-adv-x="542" 
d="M198 609q-30 0 -50.5 20t-20.5 49t21 49.5t51 20.5t50.5 -20t20.5 -49t-21 -49.5t-51 -20.5zM33 0l83 523h121l-83 -523h-121zM202 -187l14 92q39 2 58.5 19.5t24.5 52.5l87 546h120l-88 -556q-11 -76 -61.5 -116.5t-154.5 -37.5zM468 609q-30 0 -50.5 20t-20.5 49
t21 49.5t51 20.5t50.5 -20t20.5 -49t-21 -49.5t-51 -20.5z" />
    <glyph glyph-name="Jcircumflex" unicode="&#x134;" horiz-adv-x="443" 
d="M216 766l126 135h105l92 -135h-85l-67 55l-82 -55h-89zM126 -9q-79 0 -130 28l16 102q52 -23 98 -23q99 0 116 111l80 506h134l-82 -514q-17 -106 -77.5 -158t-154.5 -52z" />
    <glyph glyph-name="jcircumflex" unicode="&#x135;" horiz-adv-x="271" 
d="M-68 -187l14 92q39 2 58.5 19.5t24.5 52.5l87 546h120l-88 -556q-11 -76 -61.5 -116.5t-154.5 -37.5zM20 602l135 151h95l91 -151h-83l-66 68l-85 -68h-87z" />
    <glyph glyph-name="Kcommaaccent" unicode="&#x136;" horiz-adv-x="659" 
d="M40 0l113 715h133l-51 -320l325 320h148l-354 -344l249 -371h-146l-230 344l-54 -344h-133zM253 -225l-68 27l63 165l110 -22z" />
    <glyph glyph-name="kcommaaccent" unicode="&#x137;" horiz-adv-x="536" 
d="M30 0l120 765h121l-73 -466l220 224h139l-245 -241l173 -282h-134l-159 265l-41 -265h-121zM200 -225l-68 27l63 165l110 -22z" />
    <glyph glyph-name="Lacute" unicode="&#x139;" horiz-adv-x="551" 
d="M173 766l67 135h138l-111 -135h-94zM40 0l113 715h133l-96 -609h305l-17 -106h-438z" />
    <glyph glyph-name="lacute" unicode="&#x13a;" horiz-adv-x="271" 
d="M168 809l67 135h138l-111 -135h-94zM33 0l121 765h121l-121 -765h-121z" />
    <glyph glyph-name="Lcommaaccent" unicode="&#x13b;" horiz-adv-x="551" 
d="M205 -225l-68 27l63 165l110 -22zM40 0l113 715h133l-96 -609h305l-17 -106h-438z" />
    <glyph glyph-name="lcommaaccent" unicode="&#x13c;" horiz-adv-x="271" 
d="M42 -225l-68 27l63 165l110 -22zM33 0l121 765h121l-121 -765h-121z" />
    <glyph glyph-name="Lcaron" unicode="&#x13d;" horiz-adv-x="551" 
d="M392 550l43 165h116l-83 -165h-76zM40 0l113 715h133l-96 -609h305l-17 -106h-438z" />
    <glyph glyph-name="lcaron" unicode="&#x13e;" horiz-adv-x="271" 
d="M292 590l37 175h107l-72 -175h-72zM33 0l121 765h121l-121 -765h-121z" />
    <glyph glyph-name="Ldot" unicode="&#x13f;" horiz-adv-x="561" 
d="M40 0l113 715h133l-96 -609h305l-17 -106h-438zM470 312q-33 0 -56 23t-23 56t22.5 55.5t55.5 22.5q34 0 57.5 -22.5t23.5 -55.5t-23 -56t-57 -23z" />
    <glyph glyph-name="ldot" unicode="&#x140;" horiz-adv-x="378" 
d="M33 0l121 765h121l-121 -765h-121zM338 285q-33 0 -56 23t-23 56t22.5 55.5t55.5 22.5q34 0 57.5 -22.5t23.5 -55.5t-23 -56t-57 -23z" />
    <glyph glyph-name="Lslash" unicode="&#x141;" horiz-adv-x="570" 
d="M31 240l13 87l70 23l58 365h134l-51 -317l203 68l-14 -87l-203 -68l-32 -205h305l-16 -106h-439l41 263z" />
    <glyph glyph-name="lslash" unicode="&#x142;" horiz-adv-x="299" 
d="M23 291l14 91l75 36l55 347h122l-45 -283l80 38l-15 -91l-79 -38l-62 -391h-121l51 327z" />
    <glyph glyph-name="Nacute" unicode="&#x143;" horiz-adv-x="745" 
d="M407 766l67 135h138l-111 -135h-94zM40 0l113 715h159l218 -517l82 517h122l-113 -715h-138l-235 548l-86 -548h-122z" />
    <glyph glyph-name="nacute" unicode="&#x144;" horiz-adv-x="604" 
d="M294 601l77 155h136l-122 -155h-91zM30 0l57 361q12 83 16 162h116q0 -49 -6 -98q66 109 181 109q84 0 126.5 -53.5t24.5 -166.5l-50 -314h-121l50 320q19 114 -77 114q-58 0 -98.5 -36t-50.5 -100l-47 -298h-121z" />
    <glyph glyph-name="Ncommaaccent" unicode="&#x145;" horiz-adv-x="745" 
d="M282 -225l-68 27l63 165l110 -22zM40 0l113 715h159l218 -517l82 517h122l-113 -715h-138l-235 548l-86 -548h-122z" />
    <glyph glyph-name="ncommaaccent" unicode="&#x146;" horiz-adv-x="603" 
d="M205 -225l-68 27l63 165l110 -22zM30 0l57 361q12 83 16 162h116q0 -49 -6 -98q66 109 181 109q84 0 126.5 -53.5t24.5 -166.5l-50 -314h-121l50 320q19 114 -77 114q-58 0 -98.5 -36t-50.5 -100l-47 -298h-121z" />
    <glyph glyph-name="Ncaron" unicode="&#x147;" horiz-adv-x="745" 
d="M635 901l-127 -135h-105l-91 135h84l67 -55l82 55h90zM40 0l113 715h159l218 -517l82 517h122l-113 -715h-138l-235 548l-86 -548h-122z" />
    <glyph glyph-name="ncaron" unicode="&#x148;" horiz-adv-x="604" 
d="M524 753l-135 -151h-96l-90 151h82l66 -67l85 67h88zM30 0l57 361q12 83 16 162h116q0 -49 -6 -98q66 109 181 109q84 0 126.5 -53.5t24.5 -166.5l-50 -314h-121l50 320q19 114 -77 114q-58 0 -98.5 -36t-50.5 -100l-47 -298h-121z" />
    <glyph glyph-name="napostrophe" unicode="&#x149;" horiz-adv-x="654" 
d="M64 464l-69 31l102 232l108 -43zM80 0l57 361q12 83 16 162h116q0 -49 -6 -98q66 109 181 109q84 0 126.5 -53.5t24.5 -166.5l-50 -314h-121l50 320q19 114 -77 114q-58 0 -98.5 -36t-50.5 -100l-47 -298h-121z" />
    <glyph glyph-name="Eng" unicode="&#x14a;" horiz-adv-x="745" 
d="M375 -89q90 0 113 89l-238 551l-87 -551h-123l113 715h161l217 -506l80 506h123l-111 -702q-33 -206 -229 -206q-78 0 -120 25l16 99q42 -20 85 -20z" />
    <glyph glyph-name="eng" unicode="&#x14b;" horiz-adv-x="604" 
d="M30 0l57 361q12 83 16 162h116q0 -49 -6 -98q66 109 181 109q84 0 126.5 -53.5t24.5 -166.5l-55 -347q-12 -75 -61.5 -115.5t-155.5 -39.5l14 93q40 3 59 20t25 53l53 342q19 114 -77 114q-58 0 -98.5 -36t-50.5 -100l-47 -298h-121z" />
    <glyph glyph-name="Omacron" unicode="&#x14c;" horiz-adv-x="814" 
d="M333 780l13 81h288l-13 -81h-288zM785 405q0 -181 -111.5 -298t-280.5 -117q-147 0 -240.5 88t-93.5 230q0 178 112 297.5t281 119.5q151 0 242 -89.5t91 -230.5zM647 402q0 94 -51.5 155t-146.5 62q-114 0 -183 -90t-69 -218q0 -99 55 -157t147 -58q112 0 180 87.5
t68 218.5z" />
    <glyph glyph-name="omacron" unicode="&#x14d;" horiz-adv-x="599" 
d="M202 634l12 78h280l-12 -78h-280zM279 -10q-109 0 -177.5 64t-68.5 171q-1 132 81 220t206 88q110 0 178.5 -63t68.5 -171q0 -135 -80.5 -222t-207.5 -87zM282 84q75 0 118 60.5t43 155.5q0 64 -32.5 101.5t-94.5 37.5q-73 0 -117 -60.5t-44 -153.5q0 -65 31.5 -103
t95.5 -38z" />
    <glyph glyph-name="Obreve" unicode="&#x14e;" horiz-adv-x="814" 
d="M480 761q-64 0 -103 38.5t-39 101.5h85q6 -56 59 -56q54 0 65 56h84q-7 -63 -49.5 -101.5t-101.5 -38.5zM785 405q0 -181 -111.5 -298t-280.5 -117q-147 0 -240.5 88t-93.5 230q0 178 112 297.5t281 119.5q151 0 242 -89.5t91 -230.5zM647 402q0 94 -51.5 155t-146.5 62
q-114 0 -183 -90t-69 -218q0 -99 55 -157t147 -58q112 0 180 87.5t68 218.5z" />
    <glyph glyph-name="obreve" unicode="&#x14f;" horiz-adv-x="599" 
d="M279 -10q-109 0 -177.5 64t-68.5 171q-1 132 81 220t206 88q110 0 178.5 -63t68.5 -171q0 -135 -80.5 -222t-207.5 -87zM282 84q75 0 118 60.5t43 155.5q0 64 -32.5 101.5t-94.5 37.5q-73 0 -117 -60.5t-44 -153.5q0 -65 31.5 -103t95.5 -38zM341 606q-64 0 -103 39
t-38 104h83q6 -58 59 -58q57 0 66 58h83q-7 -65 -49 -104t-101 -39z" />
    <glyph glyph-name="Ohungarumlaut" unicode="&#x150;" horiz-adv-x="814" 
d="M341 766l49 135h119l-84 -135h-84zM510 766l50 135h119l-84 -135h-85zM785 405q0 -181 -111.5 -298t-280.5 -117q-147 0 -240.5 88t-93.5 230q0 178 112 297.5t281 119.5q151 0 242 -89.5t91 -230.5zM647 402q0 94 -51.5 155t-146.5 62q-114 0 -183 -90t-69 -218
q0 -99 55 -157t147 -58q112 0 180 87.5t68 218.5z" />
    <glyph glyph-name="ohungarumlaut" unicode="&#x151;" horiz-adv-x="599" 
d="M214 601l57 155h113l-91 -155h-79zM377 601l57 155h113l-91 -155h-79zM279 -10q-109 0 -177.5 64t-68.5 171q-1 132 81 220t206 88q110 0 178.5 -63t68.5 -171q0 -135 -80.5 -222t-207.5 -87zM282 84q75 0 118 60.5t43 155.5q0 64 -32.5 101.5t-94.5 37.5
q-73 0 -117 -60.5t-44 -153.5q0 -65 31.5 -103t95.5 -38z" />
    <glyph glyph-name="OE" unicode="&#x152;" horiz-adv-x="969" 
d="M890 0h-485q-172 0 -259 81.5t-87 222.5q0 183 111.5 297t303.5 114h509l-18 -105h-295l-31 -196h236l-15 -100h-236l-34 -209h316zM537 610h-61q-132 0 -206 -80t-74 -222q0 -96 53 -150t163 -54h46z" />
    <glyph glyph-name="oe" unicode="&#x153;" horiz-adv-x="976" 
d="M559 213q0 -133 126 -133q98 0 124 80h117q-22 -83 -87.5 -126.5t-157.5 -43.5q-140 0 -196 100q-76 -100 -207 -100q-108 0 -176.5 64.5t-69.5 171.5q0 132 82 219.5t206 87.5q137 0 197 -104q77 104 204 104q119 0 180 -72t40 -204l-3 -22h-379v-22zM282 84
q75 0 118 60.5t43 155.5q0 64 -32.5 101.5t-94.5 37.5q-73 0 -117 -60.5t-44 -154.5q0 -64 31.5 -102t95.5 -38zM718 446q-50 0 -89.5 -32t-57.5 -98h257q11 130 -110 130z" />
    <glyph glyph-name="Racute" unicode="&#x154;" horiz-adv-x="655" 
d="M325 766l67 135h138l-111 -135h-94zM40 0l113 715h235q110 0 173 -49.5t62 -140.5q0 -91 -52 -146t-137 -70l160 -309h-139l-149 289h-88l-45 -289h-133zM233 384h110q149 0 149 131q1 49 -29 73t-89 24h-104z" />
    <glyph glyph-name="racute" unicode="&#x155;" horiz-adv-x="396" 
d="M222 601l77 155h136l-122 -155h-91zM30 0l57 361q13 89 15 162h116q0 -47 -6 -109q34 59 78 87.5t114 29.5l-18 -113q-84 -1 -132.5 -38t-62.5 -124l-40 -256h-121z" />
    <glyph glyph-name="Rcommaaccent" unicode="&#x156;" horiz-adv-x="655" 
d="M252 -225l-68 27l63 165l110 -22zM40 0l113 715h235q110 0 173 -49.5t62 -140.5q0 -91 -52 -146t-137 -70l160 -309h-139l-149 289h-88l-45 -289h-133zM233 384h110q149 0 149 131q1 49 -29 73t-89 24h-104z" />
    <glyph glyph-name="rcommaaccent" unicode="&#x157;" horiz-adv-x="396" 
d="M36 -225l-68 27l63 165l110 -22zM30 0l57 361q13 89 15 162h116q0 -47 -6 -109q34 59 78 87.5t114 29.5l-18 -113q-84 -1 -132.5 -38t-62.5 -124l-40 -256h-121z" />
    <glyph glyph-name="Rcaron" unicode="&#x158;" horiz-adv-x="655" 
d="M548 901l-127 -135h-105l-91 135h84l67 -55l82 55h90zM40 0l113 715h235q110 0 173 -49.5t62 -140.5q0 -91 -52 -146t-137 -70l160 -309h-139l-149 289h-88l-45 -289h-133zM233 384h110q149 0 149 131q1 49 -29 73t-89 24h-104z" />
    <glyph glyph-name="rcaron" unicode="&#x159;" horiz-adv-x="396" 
d="M448 753l-135 -151h-96l-90 151h82l66 -67l85 67h88zM30 0l57 361q13 89 15 162h116q0 -47 -6 -109q34 59 78 87.5t114 29.5l-18 -113q-84 -1 -132.5 -38t-62.5 -124l-40 -256h-121z" />
    <glyph glyph-name="Sacute" unicode="&#x15a;" horiz-adv-x="635" 
d="M306 -10q-135 0 -207.5 64.5t-72.5 167.5h128q3 -57 41 -94.5t116 -37.5q66 -1 102 29.5t36 84.5q0 40 -28 63t-105 44q-117 30 -168 73.5t-51 126.5q0 91 70.5 152t187.5 61q115 0 180.5 -53t66.5 -154h-122q-9 107 -132 107q-61 0 -92 -27.5t-31 -73.5q0 -36 27.5 -57
t106.5 -42q117 -31 169 -76t52 -127q0 -103 -73.5 -167t-200.5 -64zM325 766l67 135h138l-111 -135h-94z" />
    <glyph glyph-name="sacute" unicode="&#x15b;" horiz-adv-x="493" 
d="M230 601l77 155h136l-122 -155h-91zM230 -11q-103 0 -159 47.5t-57 126.5h114q7 -84 106 -84q88 0 88 68q0 28 -21 43t-78 28q-88 20 -126 55.5t-38 97.5q0 78 58 120.5t145 42.5q88 0 141.5 -38.5t58.5 -119.5h-112q-2 32 -26 51t-65 19t-63.5 -16.5t-22.5 -46.5
q0 -25 21 -39.5t76 -27.5q91 -21 131 -55t40 -104q0 -78 -57.5 -123t-153.5 -45z" />
    <glyph glyph-name="Scircumflex" unicode="&#x15c;" horiz-adv-x="635" 
d="M215 766l126 135h105l92 -135h-85l-67 55l-82 -55h-89zM306 -10q-135 0 -207.5 64.5t-72.5 167.5h128q3 -57 41 -94.5t116 -37.5q66 -1 102 29.5t36 84.5q0 40 -28 63t-105 44q-117 30 -168 73.5t-51 126.5q0 91 70.5 152t187.5 61q115 0 180.5 -53t66.5 -154h-122
q-9 107 -132 107q-61 0 -92 -27.5t-31 -73.5q0 -36 27.5 -57t106.5 -42q117 -31 169 -76t52 -127q0 -103 -73.5 -167t-200.5 -64z" />
    <glyph glyph-name="scircumflex" unicode="&#x15d;" horiz-adv-x="493" 
d="M117 602l135 151h95l91 -151h-83l-66 68l-85 -68h-87zM230 -11q-103 0 -159 47.5t-57 126.5h114q7 -84 106 -84q88 0 88 68q0 28 -21 43t-78 28q-88 20 -126 55.5t-38 97.5q0 78 58 120.5t145 42.5q88 0 141.5 -38.5t58.5 -119.5h-112q-2 32 -26 51t-65 19t-63.5 -16.5
t-22.5 -46.5q0 -25 21 -39.5t76 -27.5q91 -21 131 -55t40 -104q0 -78 -57.5 -123t-153.5 -45z" />
    <glyph glyph-name="Scedilla" unicode="&#x15e;" horiz-adv-x="635" 
d="M240 -219q-45 0 -75 22.5t-34 65.5h67q4 -33 39 -33q38 0 38 36q0 30 -34 30q-15 0 -27 -8l-30 33l53 68q-103 16 -157 77.5t-54 149.5h128q3 -57 41 -94.5t116 -37.5q66 -1 102 29.5t36 84.5q0 40 -28 63t-105 44q-117 30 -168 73.5t-51 126.5q0 91 70.5 152t187.5 61
q115 0 180.5 -53t66.5 -154h-122q-9 107 -132 107q-61 0 -92 -27.5t-31 -73.5q0 -36 27.5 -57t106.5 -42q117 -31 169 -76t52 -127q0 -103 -73.5 -167t-200.5 -64h-12l-31 -40q36 3 62 -17t26 -58q0 -45 -30.5 -69.5t-80.5 -24.5z" />
    <glyph glyph-name="scedilla" unicode="&#x15f;" horiz-adv-x="493" 
d="M178 -219q-45 0 -75 22.5t-34 65.5h67q4 -33 39 -33q38 0 38 36q0 30 -34 30q-15 0 -27 -8l-30 33l51 66q-77 13 -117.5 58t-41.5 112h114q7 -84 106 -84q88 0 88 68q0 28 -21 43t-78 28q-88 20 -126 55.5t-38 97.5q0 78 58 120.5t145 42.5q88 0 141.5 -38.5t58.5 -119.5
h-112q-2 32 -26 51t-65 19t-63.5 -16.5t-22.5 -46.5q0 -25 21 -39.5t76 -27.5q91 -21 131 -55t40 -104q0 -78 -57.5 -122.5t-152.5 -45.5l-30 -39q36 3 62 -17t26 -58q0 -45 -30.5 -69.5t-80.5 -24.5z" />
    <glyph glyph-name="Scaron" unicode="&#x160;" horiz-adv-x="635" 
d="M541 901l-127 -135h-105l-91 135h84l67 -55l82 55h90zM306 -10q-135 0 -207.5 64.5t-72.5 167.5h128q3 -57 41 -94.5t116 -37.5q66 -1 102 29.5t36 84.5q0 40 -28 63t-105 44q-117 30 -168 73.5t-51 126.5q0 91 70.5 152t187.5 61q115 0 180.5 -53t66.5 -154h-122
q-9 107 -132 107q-61 0 -92 -27.5t-31 -73.5q0 -36 27.5 -57t106.5 -42q117 -31 169 -76t52 -127q0 -103 -73.5 -167t-200.5 -64z" />
    <glyph glyph-name="scaron" unicode="&#x161;" horiz-adv-x="493" 
d="M460 753l-135 -151h-96l-90 151h82l66 -67l85 67h88zM230 -11q-103 0 -159 47.5t-57 126.5h114q7 -84 106 -84q88 0 88 68q0 28 -21 43t-78 28q-88 20 -126 55.5t-38 97.5q0 78 58 120.5t145 42.5q88 0 141.5 -38.5t58.5 -119.5h-112q-2 32 -26 51t-65 19t-63.5 -16.5
t-22.5 -46.5q0 -25 21 -39.5t76 -27.5q91 -21 131 -55t40 -104q0 -78 -57.5 -123t-153.5 -45z" />
    <glyph glyph-name="Tcommaaccent" unicode="&#x162;" horiz-adv-x="584" 
d="M199 -225l-68 27l63 165l110 -22zM182 0l96 610h-199l17 105h532l-18 -105h-198l-96 -610h-134z" />
    <glyph glyph-name="tcommaaccent" unicode="&#x163;" horiz-adv-x="360" 
d="M112 -225l-68 27l63 165l110 -22zM212 -9q-82 0 -118 44t-23 124l43 273h-70l14 91h70l19 115h121l-19 -115h113l-14 -91h-113l-43 -272q-6 -39 7 -54.5t46 -15.5q31 0 57 10l-15 -96q-31 -13 -75 -13z" />
    <glyph glyph-name="Tcaron" unicode="&#x164;" horiz-adv-x="583" 
d="M540 901l-127 -135h-105l-91 135h84l67 -55l82 55h90zM182 0l96 610h-199l17 105h532l-18 -105h-198l-96 -610h-134z" />
    <glyph glyph-name="tcaron" unicode="&#x165;" horiz-adv-x="360" 
d="M327 590l37 175h107l-72 -175h-72zM212 -9q-82 0 -118 44t-23 124l43 273h-70l14 91h70l19 115h121l-19 -115h113l-14 -91h-113l-43 -272q-6 -39 7 -54.5t46 -15.5q31 0 57 10l-15 -96q-31 -13 -75 -13z" />
    <glyph glyph-name="Tbar" unicode="&#x166;" horiz-adv-x="583" 
d="M95 315l14 90h136l33 205h-199l17 105h532l-18 -105h-198l-33 -205h138l-14 -90h-138l-49 -315h-134l49 315h-136z" />
    <glyph glyph-name="tbar" unicode="&#x167;" horiz-adv-x="360" 
d="M17 261l12 75h70l15 96h-70l14 91h70l19 115h121l-19 -115h113l-14 -91h-113l-15 -96h112l-12 -75h-112l-16 -101q-6 -39 7 -54.5t46 -15.5q31 0 57 10l-15 -96q-31 -13 -75 -13q-82 0 -118 44t-23 124l16 102h-70z" />
    <glyph glyph-name="Utilde" unicode="&#x168;" horiz-adv-x="723" 
d="M342 -10q-148 0 -217 77.5t-45 225.5l67 422h134l-68 -425q-16 -101 16.5 -147t116.5 -46q73 0 112.5 41t54.5 134l71 443h134l-73 -457q-42 -268 -303 -268zM501 768q-28 0 -65 19.5t-49 19.5q-14 0 -26 -11t-16 -29h-77q12 63 43.5 97t74.5 34q27 0 64.5 -20t50.5 -20
q30 0 41 40h76q-12 -62 -43.5 -96t-73.5 -34z" />
    <glyph glyph-name="utilde" unicode="&#x169;" horiz-adv-x="601" 
d="M569 523l-57 -364q-15 -95 -12 -159h-117q-3 46 4 94q-67 -104 -176 -104q-86 0 -128.5 54.5t-24.5 164.5l50 314h121l-52 -324q-17 -114 76 -114q57 0 97.5 36t50.5 100l47 302h121zM408 606q-28 0 -64.5 20t-48.5 20q-14 0 -26 -11t-16 -29h-74q11 63 41.5 97t73.5 34
q27 0 64 -19.5t50 -19.5q30 0 40 40h75q-11 -63 -42 -97.5t-73 -34.5z" />
    <glyph glyph-name="Umacron" unicode="&#x16a;" horiz-adv-x="723" 
d="M342 -10q-148 0 -217 77.5t-45 225.5l67 422h134l-68 -425q-16 -101 16.5 -147t116.5 -46q73 0 112.5 41t54.5 134l71 443h134l-73 -457q-42 -268 -303 -268zM295 780l13 81h288l-13 -81h-288z" />
    <glyph glyph-name="umacron" unicode="&#x16b;" horiz-adv-x="601" 
d="M569 523l-57 -364q-15 -95 -12 -159h-117q-3 46 4 94q-67 -104 -176 -104q-86 0 -128.5 54.5t-24.5 164.5l50 314h121l-52 -324q-17 -114 76 -114q57 0 97.5 36t50.5 100l47 302h121zM207 634l12 78h280l-12 -78h-280z" />
    <glyph glyph-name="Ubreve" unicode="&#x16c;" horiz-adv-x="723" 
d="M342 -10q-148 0 -217 77.5t-45 225.5l67 422h134l-68 -425q-16 -101 16.5 -147t116.5 -46q73 0 112.5 41t54.5 134l71 443h134l-73 -457q-42 -268 -303 -268zM439 761q-64 0 -103 38.5t-39 101.5h85q6 -56 59 -56q54 0 65 56h84q-7 -63 -49.5 -101.5t-101.5 -38.5z" />
    <glyph glyph-name="ubreve" unicode="&#x16d;" horiz-adv-x="601" 
d="M569 523l-57 -364q-15 -95 -12 -159h-117q-3 46 4 94q-67 -104 -176 -104q-86 0 -128.5 54.5t-24.5 164.5l50 314h121l-52 -324q-17 -114 76 -114q57 0 97.5 36t50.5 100l47 302h121zM352 606q-64 0 -103 39t-38 104h83q6 -58 59 -58q57 0 66 58h83q-7 -65 -49 -104
t-101 -39z" />
    <glyph glyph-name="Uring" unicode="&#x16e;" horiz-adv-x="723" 
d="M342 -10q-148 0 -217 77.5t-45 225.5l67 422h134l-68 -425q-16 -101 16.5 -147t116.5 -46q73 0 112.5 41t54.5 134l71 443h134l-73 -457q-42 -268 -303 -268zM444 787q22 0 36.5 15.5t14.5 40.5q0 24 -13.5 39t-35.5 15t-36.5 -16t-14.5 -41q0 -24 13.5 -38.5t35.5 -14.5
zM444 733q-46 0 -78.5 31.5t-32.5 75.5q0 46 33.5 78.5t79.5 32.5t78.5 -31.5t32.5 -76.5t-33.5 -77.5t-79.5 -32.5z" />
    <glyph glyph-name="uring" unicode="&#x16f;" horiz-adv-x="601" 
d="M350 643q22 0 36.5 16t14.5 41q0 23 -13 38t-35 15q-23 0 -37.5 -15.5t-14.5 -40.5q0 -24 13.5 -39t35.5 -15zM350 590q-46 0 -78 31t-32 76t33 77t80 32q46 0 78 -31t32 -75q0 -45 -33.5 -77.5t-79.5 -32.5zM569 523l-57 -364q-15 -95 -12 -159h-117q-3 46 4 94
q-67 -104 -176 -104q-86 0 -128.5 54.5t-24.5 164.5l50 314h121l-52 -324q-17 -114 76 -114q57 0 97.5 36t50.5 100l47 302h121z" />
    <glyph glyph-name="Uhungarumlaut" unicode="&#x170;" horiz-adv-x="723" 
d="M307 766l49 135h119l-84 -135h-84zM476 766l50 135h119l-84 -135h-85zM342 -10q-148 0 -217 77.5t-45 225.5l67 422h134l-68 -425q-16 -101 16.5 -147t116.5 -46q73 0 112.5 41t54.5 134l71 443h134l-73 -457q-42 -268 -303 -268z" />
    <glyph glyph-name="uhungarumlaut" unicode="&#x171;" horiz-adv-x="601" 
d="M569 523l-57 -364q-15 -95 -12 -159h-117q-3 46 4 94q-67 -104 -176 -104q-86 0 -128.5 54.5t-24.5 164.5l50 314h121l-52 -324q-17 -114 76 -114q57 0 97.5 36t50.5 100l47 302h121zM226 601l57 155h113l-91 -155h-79zM389 601l57 155h113l-91 -155h-79z" />
    <glyph glyph-name="Uogonek" unicode="&#x172;" horiz-adv-x="723" 
d="M354 -182q-46 0 -75.5 19.5t-28.5 60.5q0 56 73 93q-139 5 -203 81.5t-40 220.5l67 422h134l-68 -425q-16 -101 16 -147t116 -46q73 0 113 41t55 134l71 443h134l-73 -457q-13 -87 -51 -146.5t-110 -94.5q-8 -4 -36.5 -16t-44.5 -20t-31.5 -25.5t-15.5 -37.5
q0 -28 34 -28q22 0 40 8l-10 -68q-36 -12 -66 -12z" />
    <glyph glyph-name="uogonek" unicode="&#x173;" horiz-adv-x="601" 
d="M569 523l-57 -364q-15 -97 -12 -156q-2 -1 -11 -7.5t-12 -9t-11.5 -9t-12 -10.5t-9.5 -10.5t-9 -12t-5 -12.5t-2 -14q0 -28 33 -28q22 0 41 8l-11 -68q-34 -12 -65 -12q-46 0 -76 19.5t-29 60.5q0 63 89 102h-27q-3 43 4 101q-67 -111 -181 -111q-83 0 -124 54.5
t-24 164.5l50 314h121l-52 -324q-17 -114 76 -114q57 0 97 36t50 100l48 302h121z" />
    <glyph glyph-name="Wcircumflex" unicode="&#x174;" horiz-adv-x="928" 
d="M373 766l126 135h105l92 -135h-85l-67 55l-82 -55h-89zM155 0l-68 715h135l41 -532l221 532h102l63 -535l209 535h124l-291 -715h-128l-60 512l-219 -512h-129z" />
    <glyph glyph-name="wcircumflex" unicode="&#x175;" horiz-adv-x="792" 
d="M282 602l135 151h95l91 -151h-83l-66 68l-85 -68h-87zM129 0l-71 523h125l39 -382l168 382h101l42 -382l162 382h121l-242 -523h-123l-39 356l-159 -356h-124z" />
    <glyph glyph-name="Ycircumflex" unicode="&#x176;" horiz-adv-x="626" 
d="M209 0l49 310l-172 405h140l118 -295l202 295h135l-290 -414l-48 -301h-134zM222 766l126 135h105l92 -135h-85l-67 55l-82 -55h-89z" />
    <glyph glyph-name="ycircumflex" unicode="&#x177;" horiz-adv-x="533" 
d="M45 -179l135 238l-125 464h124l81 -338l176 338h124l-391 -702h-124zM150 602l135 151h95l91 -151h-83l-66 68l-85 -68h-87z" />
    <glyph glyph-name="Ydieresis" unicode="&#x178;" horiz-adv-x="626" 
d="M209 0l49 310l-172 405h140l118 -295l202 295h135l-290 -414l-48 -301h-134zM293 777q-27 0 -46.5 18.5t-19.5 45.5t20 46.5t47 19.5t46 -19t19 -46q0 -26 -19.5 -45.5t-46.5 -19.5zM504 777q-27 0 -46.5 18.5t-19.5 45.5t19.5 46.5t47.5 19.5q27 0 46 -19t19 -46
q0 -26 -19.5 -45.5t-46.5 -19.5z" />
    <glyph glyph-name="Zacute" unicode="&#x179;" horiz-adv-x="607" 
d="M326 766l67 135h138l-111 -135h-94zM-20 0l2 18l456 594h-325l16 103h517l-2 -17l-450 -593h344l-16 -105h-542z" />
    <glyph glyph-name="zacute" unicode="&#x17a;" horiz-adv-x="487" 
d="M245 601l77 155h136l-122 -155h-91zM-25 0l2 14l332 414h-241l14 95h423l-3 -17l-329 -409h260l-16 -97h-442z" />
    <glyph glyph-name="Zdotaccent" unicode="&#x17b;" horiz-adv-x="607" 
d="M-20 0l2 18l456 594h-325l16 103h517l-2 -17l-450 -593h344l-16 -105h-542zM389 775q-30 0 -50.5 19.5t-20.5 48.5q0 28 21 48.5t50 20.5q30 0 50.5 -19.5t20.5 -48.5q0 -28 -21 -48.5t-50 -20.5z" />
    <glyph glyph-name="zdotaccent" unicode="&#x17c;" horiz-adv-x="487" 
d="M-25 0l2 14l332 414h-241l14 95h423l-3 -17l-329 -409h260l-16 -97h-442zM305 611q-30 0 -50.5 19.5t-20.5 47.5q0 29 21 49.5t51 20.5q29 0 49.5 -20t20.5 -48t-21 -48.5t-50 -20.5z" />
    <glyph glyph-name="Zcaron" unicode="&#x17d;" horiz-adv-x="607" 
d="M558 901l-127 -135h-105l-91 135h84l67 -55l82 55h90zM-20 0l2 18l456 594h-325l16 103h517l-2 -17l-450 -593h344l-16 -105h-542z" />
    <glyph glyph-name="zcaron" unicode="&#x17e;" horiz-adv-x="487" 
d="M472 753l-135 -151h-96l-90 151h82l66 -67l85 67h88zM-25 0l2 14l332 414h-241l14 95h423l-3 -17l-329 -409h260l-16 -97h-442z" />
    <glyph glyph-name="florin" unicode="&#x192;" horiz-adv-x="417" 
d="M36 324l14 90h92l27 141q15 84 66.5 126.5t128.5 42.5q48 0 79 -14l-14 -92q-27 10 -59 10q-68 0 -83 -83l-25 -131h126l-14 -90h-129l-94 -506h-120l94 506h-89z" />
    <glyph glyph-name="Aringacute" unicode="&#x1fa;" horiz-adv-x="685" 
d="M490 0l-29 177h-273l-84 -177h-128l352 715h174l123 -715h-135zM424 746q-46 0 -78.5 31.5t-32.5 75.5q0 46 33.5 78.5t79.5 32.5t78.5 -31.5t32.5 -76.5t-33.5 -77.5t-79.5 -32.5zM393 606l-159 -332h212zM390 988l67 135h138l-111 -135h-94zM424 800q22 0 36.5 15.5
t14.5 40.5q0 24 -13.5 39t-35.5 15t-36.5 -16t-14.5 -41q0 -24 13.5 -38.5t35.5 -14.5z" />
    <glyph glyph-name="aringacute" unicode="&#x1fb;" horiz-adv-x="554" 
d="M188 -10q-77 0 -122.5 39.5t-45.5 107.5q0 174 262 174h92l4 28q9 53 -10.5 78.5t-72.5 25.5q-87 0 -106 -82h-116q18 89 80 131t147 42q107 0 160 -51t36 -157l-26 -167q-16 -98 -9 -159h-115q-6 36 -2 76q-57 -86 -156 -86zM222 77q52 0 88 29t44 82l7 47h-76
q-76 0 -110.5 -20t-34.5 -68q0 -31 21 -50.5t61 -19.5zM333 629q22 0 36.5 16t14.5 41q0 23 -13 38t-35 15q-23 0 -37.5 -15.5t-14.5 -40.5q0 -24 13.5 -39t35.5 -15zM333 576q-46 0 -78 31t-32 76t33 77t80 32q46 0 78 -31t32 -75q0 -45 -33.5 -77.5t-79.5 -32.5zM303 828
l67 135h138l-111 -135h-94z" />
    <glyph glyph-name="AEacute" unicode="&#x1fc;" horiz-adv-x="971" 
d="M-20 0l450 715h554l-17 -105h-309l-31 -196h250l-16 -100h-249l-34 -209h329l-16 -105h-462l29 183h-231l-113 -183h-134zM491 610l-206 -332h188l52 332h-34zM644 766l67 135h138l-111 -135h-94z" />
    <glyph glyph-name="aeacute" unicode="&#x1fd;" horiz-adv-x="887" 
d="M480 213q0 -133 122 -133q94 0 120 80h115q-21 -83 -84 -126.5t-155 -43.5q-150 0 -203 110q-61 -110 -197 -110q-83 0 -130.5 38.5t-47.5 106.5q0 94 72 136.5t194 42.5h89l4 26q8 52 -11.5 77.5t-72.5 25.5q-90 0 -107 -82h-117q17 89 81 131t148 42q125 0 163 -74
q75 73 177 73q117 0 175.5 -71.5t37.5 -204.5l-4 -20h-369v-24zM221 77q53 0 89 28.5t45 83.5l7 47h-77q-75 0 -110 -21t-35 -70q0 -31 20.5 -49.5t60.5 -18.5zM635 446q-50 0 -89 -32.5t-55 -99.5h249q11 132 -105 132zM437 601l77 155h136l-122 -155h-91z" />
    <glyph glyph-name="Oslashacute" unicode="&#x1fe;" horiz-adv-x="814" 
d="M80 -33l-48 51l91 93q-64 81 -64 197q0 178 112 297t281 119q123 0 210 -63l79 80l48 -50l-76 -78q72 -85 72 -208q0 -181 -111.5 -298t-280.5 -117q-129 0 -221 71zM649 402q0 68 -26 120l-367 -376q53 -50 143 -50q112 0 181 87t69 219zM195 311q0 -61 20 -106l365 371
q-53 43 -131 43q-115 0 -184.5 -89.5t-69.5 -218.5zM420 766l67 135h138l-111 -135h-94z" />
    <glyph glyph-name="oslashacute" unicode="&#x1ff;" horiz-adv-x="599" 
d="M55 -38l-44 42l70 73q-49 62 -49 149q0 132 82 219.5t206 87.5q89 0 153 -44l66 70l44 -42l-66 -69q50 -59 50 -150q0 -135 -81 -221.5t-208 -86.5q-89 0 -153 45zM282 83q76 0 119.5 60.5t43.5 155.5q0 36 -9 63l-241 -253q31 -26 87 -26zM153 226q0 -36 9 -64l239 252
q-31 26 -85 26q-74 0 -118.5 -60t-44.5 -154zM282 601l77 155h136l-122 -155h-91z" />
    <glyph glyph-name="Scommaaccent" unicode="&#x218;" horiz-adv-x="635" 
d="M215 -225l-68 27l63 165l110 -22zM306 -10q-135 0 -207.5 64.5t-72.5 167.5h128q3 -57 41 -94.5t116 -37.5q66 -1 102 29.5t36 84.5q0 40 -28 63t-105 44q-117 30 -168 73.5t-51 126.5q0 91 70.5 152t187.5 61q115 0 180.5 -53t66.5 -154h-122q-9 107 -132 107
q-61 0 -92 -27.5t-31 -73.5q0 -36 27.5 -57t106.5 -42q117 -31 169 -76t52 -127q0 -103 -73.5 -167t-200.5 -64z" />
    <glyph glyph-name="scommaaccent" unicode="&#x219;" horiz-adv-x="493" 
d="M151 -225l-68 27l63 165l110 -22zM230 -11q-103 0 -159 47.5t-57 126.5h114q7 -84 106 -84q88 0 88 68q0 28 -21 43t-78 28q-88 20 -126 55.5t-38 97.5q0 78 58 120.5t145 42.5q88 0 141.5 -38.5t58.5 -119.5h-112q-2 32 -26 51t-65 19t-63.5 -16.5t-22.5 -46.5
q0 -25 21 -39.5t76 -27.5q91 -21 131 -55t40 -104q0 -78 -57.5 -123t-153.5 -45z" />
    <glyph glyph-name="uni0237" unicode="&#x237;" horiz-adv-x="271" 
d="M-68 -187l14 92q39 2 58.5 19.5t24.5 52.5l87 546h120l-88 -556q-11 -76 -61.5 -116.5t-154.5 -37.5z" />
    <glyph glyph-name="circumflex" unicode="&#x2c6;" horiz-adv-x="400" 
d="M93 602l135 151h95l91 -151h-83l-66 68l-85 -68h-87z" />
    <glyph glyph-name="caron" unicode="&#x2c7;" horiz-adv-x="400" 
d="M437 753l-135 -151h-96l-90 151h82l66 -67l85 67h88z" />
    <glyph glyph-name="breve" unicode="&#x2d8;" horiz-adv-x="400" 
d="M267 606q-64 0 -103 39t-38 104h83q6 -58 59 -58q57 0 66 58h83q-7 -65 -49 -104t-101 -39z" />
    <glyph glyph-name="dotaccent" unicode="&#x2d9;" horiz-adv-x="400" 
d="M265 611q-30 0 -50.5 19.5t-20.5 47.5q0 29 21 49.5t51 20.5q29 0 49.5 -20t20.5 -48t-21 -48.5t-50 -20.5z" />
    <glyph glyph-name="ring" unicode="&#x2da;" horiz-adv-x="400" 
d="M267 643q22 0 36.5 16t14.5 41q0 23 -13 38t-35 15q-23 0 -37.5 -15.5t-14.5 -40.5q0 -24 13.5 -39t35.5 -15zM267 590q-46 0 -78 31t-32 76t33 77t80 32q46 0 78 -31t32 -75q0 -45 -33.5 -77.5t-79.5 -32.5z" />
    <glyph glyph-name="ogonek" unicode="&#x2db;" horiz-adv-x="400" 
d="M153 -182q-46 0 -75.5 19.5t-28.5 60.5q0 63 90 102h88q-49 -31 -62 -51q-10 -15 -10 -31q0 -28 34 -28q22 0 40 8l-10 -68q-36 -12 -66 -12z" />
    <glyph glyph-name="tilde" unicode="&#x2dc;" horiz-adv-x="400" 
d="M320 606q-28 0 -64.5 20t-48.5 20q-14 0 -26 -11t-16 -29h-74q11 63 41.5 97t73.5 34q27 0 64 -19.5t50 -19.5q30 0 40 40h75q-11 -63 -42 -97.5t-73 -34.5z" />
    <glyph glyph-name="hungarumlaut" unicode="&#x2dd;" horiz-adv-x="400" 
d="M129 601l57 155h113l-91 -155h-79zM292 601l57 155h113l-91 -155h-79z" />
    <glyph glyph-name="Wgrave" unicode="&#x1e80;" horiz-adv-x="928" 
d="M497 766l-83 135h134l37 -135h-88zM155 0l-68 715h135l41 -532l221 532h102l63 -535l209 535h124l-291 -715h-128l-60 512l-219 -512h-129z" />
    <glyph glyph-name="wgrave" unicode="&#x1e81;" horiz-adv-x="792" 
d="M129 0l-71 523h125l39 -382l168 382h101l42 -382l162 382h121l-242 -523h-123l-39 356l-159 -356h-124zM401 601l-89 155h132l44 -155h-87z" />
    <glyph glyph-name="Wacute" unicode="&#x1e82;" horiz-adv-x="928" 
d="M489 766l67 135h138l-111 -135h-94zM155 0l-68 715h135l41 -532l221 532h102l63 -535l209 535h124l-291 -715h-128l-60 512l-219 -512h-129z" />
    <glyph glyph-name="wacute" unicode="&#x1e83;" horiz-adv-x="792" 
d="M408 601l77 155h136l-122 -155h-91zM129 0l-71 523h125l39 -382l168 382h101l42 -382l162 382h121l-242 -523h-123l-39 356l-159 -356h-124z" />
    <glyph glyph-name="Wdieresis" unicode="&#x1e84;" horiz-adv-x="928" 
d="M440 777q-27 0 -46.5 18.5t-19.5 45.5t20 46.5t47 19.5t46 -19t19 -46q0 -26 -19.5 -45.5t-46.5 -19.5zM651 777q-27 0 -46.5 18.5t-19.5 45.5t19.5 46.5t47.5 19.5q27 0 46 -19t19 -46q0 -26 -19.5 -45.5t-46.5 -19.5zM155 0l-68 715h135l41 -532l221 532h102l63 -535
l209 535h124l-291 -715h-128l-60 512l-219 -512h-129z" />
    <glyph glyph-name="wdieresis" unicode="&#x1e85;" horiz-adv-x="792" 
d="M358 613q-28 0 -47 18.5t-19 45.5t19.5 46.5t47.5 19.5q27 0 46 -19t19 -46q0 -26 -19.5 -45.5t-46.5 -19.5zM555 613q-27 0 -46 18.5t-19 45.5t19.5 46.5t46.5 19.5q28 0 46.5 -19t18.5 -46q0 -26 -19.5 -45.5t-46.5 -19.5zM129 0l-71 523h125l39 -382l168 382h101
l42 -382l162 382h121l-242 -523h-123l-39 356l-159 -356h-124z" />
    <glyph glyph-name="Ygrave" unicode="&#x1ef2;" horiz-adv-x="626" 
d="M209 0l49 310l-172 405h140l118 -295l202 295h135l-290 -414l-48 -301h-134zM349 766l-83 135h134l37 -135h-88z" />
    <glyph glyph-name="ygrave" unicode="&#x1ef3;" horiz-adv-x="533" 
d="M45 -179l135 238l-125 464h124l81 -338l176 338h124l-391 -702h-124zM276 601l-89 155h132l44 -155h-87z" />
    <glyph glyph-name="uni2009" unicode="&#x2009;" horiz-adv-x="94" 
 />
    <glyph glyph-name="endash" unicode="&#x2013;" horiz-adv-x="532" 
d="M41 240l13 84h442l-14 -84h-441z" />
    <glyph glyph-name="emdash" unicode="&#x2014;" horiz-adv-x="909" 
d="M41 240l13 84h819l-13 -84h-819z" />
    <glyph glyph-name="quoteleft" unicode="&#x2018;" horiz-adv-x="263" 
d="M180 464l-107 43l141 220l69 -31z" />
    <glyph glyph-name="quoteright" unicode="&#x2019;" horiz-adv-x="263" 
d="M151 464l-69 31l102 232l108 -43z" />
    <glyph glyph-name="quotesinglbase" unicode="&#x201a;" horiz-adv-x="263" 
d="M46 -111l-67 31l102 232l106 -43z" />
    <glyph glyph-name="quotedblleft" unicode="&#x201c;" horiz-adv-x="460" 
d="M180 464l-107 43l141 220l69 -31zM377 464l-107 43l141 220l68 -31z" />
    <glyph glyph-name="quotedblright" unicode="&#x201d;" horiz-adv-x="460" 
d="M151 464l-69 31l102 232l108 -43zM347 464l-68 31l102 232l107 -43z" />
    <glyph glyph-name="quotedblbase" unicode="&#x201e;" horiz-adv-x="460" 
d="M46 -111l-67 31l102 232l106 -43zM243 -111l-68 31l102 232l107 -43z" />
    <glyph glyph-name="dagger" unicode="&#x2020;" horiz-adv-x="386" 
d="M133 213l46 288h-112l14 90h112l20 124h103l-20 -124h111l-14 -90h-111l-46 -288h-103z" />
    <glyph glyph-name="daggerdbl" unicode="&#x2021;" horiz-adv-x="386" 
d="M166 416l15 96h-112l13 85h112l19 118h103l-19 -118h111l-13 -85h-112l-15 -96h112l-13 -85h-112l-19 -118h-103l19 118h-112l13 85h113z" />
    <glyph glyph-name="bullet" unicode="&#x2022;" horiz-adv-x="348" 
d="M175 177q-53 0 -88 35.5t-35 85.5q0 58 38 96.5t95 38.5q53 0 88 -36t35 -87q0 -57 -37.5 -95t-95.5 -38z" />
    <glyph glyph-name="ellipsis" unicode="&#x2026;" horiz-adv-x="840" 
d="M113 -7q-34 0 -56.5 22.5t-22.5 55.5t22.5 56t55.5 23q34 0 57.5 -23t23.5 -56t-23 -55.5t-57 -22.5zM388 -7q-33 0 -56 22.5t-23 55.5t22.5 56t55.5 23q34 0 58 -23t24 -56t-23.5 -55.5t-57.5 -22.5zM664 -7q-33 0 -56 22.5t-23 55.5t22.5 56t55.5 23q34 0 57.5 -23
t23.5 -56t-23 -55.5t-57 -22.5z" />
    <glyph glyph-name="perthousand" unicode="&#x2030;" horiz-adv-x="1156" 
d="M166 537q0 -31 16.5 -52.5t51.5 -21.5q37 1 58.5 30.5t21.5 73.5q0 32 -16 54t-50 22q-39 0 -60.5 -30t-21.5 -76zM231 384q-70 0 -116 42.5t-46 110.5q0 76 52.5 130.5t129.5 54.5q70 0 115 -44t45 -112q0 -75 -52 -128.5t-128 -53.5zM85 0l558 715h87l-559 -715h-86z
M493 143q0 -31 16.5 -52t51.5 -21q36 1 58 31t22 73q0 32 -16.5 54t-49.5 22q-39 0 -60.5 -30.5t-21.5 -76.5zM558 -10q-70 0 -116 43t-46 111q0 76 52.5 130.5t129.5 54.5q70 0 115 -44t45 -112q0 -75 -52 -129t-128 -54zM874 143q0 -31 16.5 -52t51.5 -21q37 1 59 30.5
t22 73.5q0 32 -16.5 54t-50.5 22q-39 0 -60.5 -30.5t-21.5 -76.5zM939 -10q-70 0 -116 43t-46 111q0 76 52.5 130.5t129.5 54.5q70 0 115.5 -44t45.5 -112q0 -75 -52.5 -129t-128.5 -54z" />
    <glyph glyph-name="uni2032" unicode="&#x2032;" horiz-adv-x="227" 
d="M68 458l65 257h124l-102 -257h-87z" />
    <glyph glyph-name="uni2033" unicode="&#x2033;" horiz-adv-x="409" 
d="M68 458l65 257h124l-102 -257h-87zM251 458l64 257h124l-101 -257h-87z" />
    <glyph glyph-name="guilsinglleft" unicode="&#x2039;" horiz-adv-x="316" 
d="M146 78l-99 186l155 180h101l-153 -183l91 -183h-95z" />
    <glyph glyph-name="guilsinglright" unicode="&#x203a;" horiz-adv-x="316" 
d="M167 444l100 -186l-156 -180h-101l154 183l-92 183h95z" />
    <glyph glyph-name="fraction" unicode="&#x2044;" horiz-adv-x="135" 
d="M-261 0l603 715h79l-602 -715h-80z" />
    <glyph glyph-name="Euro" unicode="&#x20ac;" horiz-adv-x="688" 
d="M48 389l10 63h68q28 125 106.5 199t199.5 74q113 0 177.5 -60.5t65.5 -174.5h-125q-2 58 -31.5 95t-91.5 37q-131 0 -170 -170h200l-19 -63h-193l-11 -68h183l-20 -63h-170q-4 -163 138 -163q125 0 161 145h123q-24 -124 -100.5 -187t-189.5 -63q-129 0 -196 74t-65 194
h-70l10 63h66v1l10 67h-66z" />
    <glyph glyph-name="trademark" unicode="&#x2122;" horiz-adv-x="733" 
d="M354 393l51 322h95l46 -199l108 199h102l-51 -322h-77l35 224l-126 -224h-24l-56 224l-35 -224h-68zM137 393l41 262h-92l10 60h259l-9 -60h-92l-41 -262h-76z" />
    <glyph glyph-name="onethird" unicode="&#x2153;" horiz-adv-x="768" 
d="M567 -6q-64 0 -103.5 29t-40.5 91h85q2 -53 56 -53q23 0 39.5 12.5t16.5 37.5q0 42 -50 42h-26l9 57h29q54 0 54 44q0 40 -43 40q-22 0 -38 -13t-21 -36h-82q7 53 47.5 84t99.5 31q54 0 90 -23t36 -72q0 -30 -19 -52t-52 -32q59 -12 59 -75q0 -53 -42.5 -82.5
t-103.5 -29.5zM122 360l41 263l-89 -51l12 80l104 63h82l-57 -355h-93zM25 0l603 715h79l-602 -715h-80z" />
    <glyph glyph-name="twothirds" unicode="&#x2154;" horiz-adv-x="813" 
d="M613 -6q-64 0 -103.5 29t-40.5 91h85q2 -53 56 -53q23 0 39.5 12.5t16.5 37.5q0 42 -50 42h-26l9 57h29q54 0 54 44q0 40 -43 40q-22 0 -38 -13t-21 -36h-82q7 53 47.5 84t99.5 31q54 0 90 -23t36 -72q0 -30 -19 -52t-52 -32q59 -12 59 -75q0 -53 -42.5 -82.5
t-103.5 -29.5zM24 360l2 14l149 131q40 35 58.5 58.5t18.5 47.5q0 19 -11 29t-28 10q-45 0 -59 -61h-86q10 63 50.5 97t100.5 34q54 0 89.5 -25.5t35.5 -77.5q0 -37 -22.5 -66.5t-77.5 -75.5l-54 -47h126l-10 -68h-282zM83 0l603 715h79l-602 -715h-80z" />
    <glyph glyph-name="oneeighth" unicode="&#x215b;" horiz-adv-x="760" 
d="M560 -6q-59 0 -101 25t-42 76q0 72 80 97q-43 22 -43 65q0 48 40.5 75.5t95.5 27.5q52 0 90 -24t38 -70q0 -59 -61 -81q52 -22 52 -77q0 -56 -43.5 -85t-105.5 -29zM511 105q0 -21 13 -33.5t38 -12.5q24 0 40.5 13.5t16.5 39.5q0 21 -13.5 34t-37.5 13t-40.5 -14
t-16.5 -40zM539 252q0 -18 12.5 -29t31.5 -11q22 0 35.5 12t13.5 34q0 17 -12.5 28t-32.5 11t-34 -12t-14 -33zM122 360l41 263l-89 -51l12 80l104 63h82l-57 -355h-93zM25 0l603 715h79l-602 -715h-80z" />
    <glyph glyph-name="threeeighths" unicode="&#x215c;" horiz-adv-x="805" 
d="M605 -6q-59 0 -101 25t-42 76q0 72 80 97q-43 22 -43 65q0 48 40.5 75.5t95.5 27.5q52 0 90 -24t38 -70q0 -59 -61 -81q52 -22 52 -77q0 -56 -43.5 -85t-105.5 -29zM556 105q0 -21 13 -33.5t38 -12.5q24 0 40.5 13.5t16.5 39.5q0 21 -13.5 34t-37.5 13t-40.5 -14
t-16.5 -40zM584 252q0 -18 12.5 -29t31.5 -11q22 0 35.5 12t13.5 34q0 17 -12.5 28t-32.5 11t-34 -12t-14 -33zM77 0l603 715h79l-602 -715h-80zM198 354q-64 0 -103 29t-40 91h85q2 -54 56 -54q23 0 39.5 13t16.5 38q0 41 -51 41h-25l8 58h30q54 0 54 44q0 39 -43 39
q-48 0 -59 -48h-82q7 53 47 84t100 31q54 0 89.5 -23t35.5 -72q0 -63 -70 -84q59 -13 59 -76q0 -52 -42.5 -81.5t-104.5 -29.5z" />
    <glyph glyph-name="fiveeighths" unicode="&#x215d;" horiz-adv-x="793" 
d="M593 -6q-59 0 -101 25t-42 76q0 72 80 97q-43 22 -43 65q0 48 40.5 75.5t95.5 27.5q52 0 90 -24t38 -70q0 -59 -61 -81q52 -22 52 -77q0 -56 -43.5 -85t-105.5 -29zM544 105q0 -21 13 -33.5t38 -12.5q24 0 40.5 13.5t16.5 39.5q0 21 -13.5 34t-37.5 13t-40.5 -14
t-16.5 -40zM572 252q0 -18 12.5 -29t31.5 -11q22 0 35.5 12t13.5 34q0 17 -12.5 28t-32.5 11t-34 -12t-14 -33zM191 354q-60 0 -98.5 26.5t-40.5 86.5h87q5 -44 50 -44q25 0 40 17t15 47q0 48 -50 48q-35 0 -57 -27h-61l40 207h237l-11 -68h-170l-15 -83q29 33 80 33
q44 0 72.5 -27t28.5 -75q-1 -66 -41 -103t-106 -38zM66 0l603 715h79l-602 -715h-80z" />
    <glyph glyph-name="seveneighths" unicode="&#x215e;" horiz-adv-x="750" 
d="M550 -6q-59 0 -101 25t-42 76q0 72 80 97q-43 22 -43 65q0 48 40.5 75.5t95.5 27.5q52 0 90 -24t38 -70q0 -59 -61 -81q52 -22 52 -77q0 -56 -43.5 -85t-105.5 -29zM501 105q0 -21 13 -33.5t38 -12.5q24 0 40.5 13.5t16.5 39.5q0 21 -13.5 34t-37.5 13t-40.5 -14
t-16.5 -40zM529 252q0 -18 12.5 -29t31.5 -11q22 0 35.5 12t13.5 34q0 17 -12.5 28t-32.5 11t-34 -12t-14 -33zM80 360l150 281h-155l12 74h275l-3 -11l-183 -344h-96zM11 0l603 715h79l-602 -715h-80z" />
    <glyph glyph-name="minus" unicode="&#x2212;" horiz-adv-x="540" 
d="M40 293l16 96h467l-16 -96h-467z" />
    <glyph glyph-name="approxequal" unicode="&#x2248;" horiz-adv-x="530" 
d="M59 342q11 71 47 107t85 36q40 0 108 -21.5t91 -21.5q18 0 31.5 12t17.5 33h79q-9 -69 -45.5 -105.5t-84.5 -36.5q-41 0 -109.5 21.5t-90.5 21.5q-39 0 -50 -46h-79zM27 148q11 71 47 106.5t86 35.5q40 0 107.5 -21t90.5 -21q41 0 50 45h79q-10 -69 -46.5 -105.5
t-83.5 -36.5q-42 0 -110 21.5t-90 21.5q-39 0 -51 -46h-79z" />
    <glyph glyph-name="notequal" unicode="&#x2260;" horiz-adv-x="513" 
d="M56 371l14 92h221l51 100h91l-51 -100h121l-14 -92h-153l-48 -95h186l-14 -91h-217l-51 -101h-91l51 101h-125l14 91h156l48 95h-189z" />
    <glyph glyph-name="lessequal" unicode="&#x2264;" horiz-adv-x="507" 
d="M425 128l-365 217l4 26l432 209l-18 -115l-240 -111l204 -117zM7 0l13 89h399l-14 -89h-398z" />
    <glyph glyph-name="greaterequal" unicode="&#x2265;" horiz-adv-x="507" 
d="M18 0l14 89h399l-14 -89h-399zM109 580l365 -217l-4 -25l-432 -210l17 115l241 112l-204 116z" />
    <glyph glyph-name="uni24C5" unicode="&#x24c5;" horiz-adv-x="843" 
d="M306 160v399h140q75 0 114.5 -32.5t39.5 -95.5v-3q0 -62 -39.5 -93.5t-110.5 -31.5h-49v-143h-95zM401 369h42q66 0 66 59v3q0 55 -65 55h-43v-117zM432 32q133 0 227 92.5t94 234.5q0 141 -92.5 232.5t-226.5 91.5q-135 0 -228 -92t-93 -234t94 -233.5t225 -91.5z
M432 -13q-155 0 -263.5 106.5t-108.5 263.5q0 155 108.5 263t265.5 108q158 0 265.5 -107t107.5 -262q0 -158 -108.5 -265t-266.5 -107z" />
    <glyph glyph-name="f_i" unicode="&#xfb01;" horiz-adv-x="623" 
d="M44 432l14 91h72l13 84q13 83 62 123.5t123 40.5q46 0 79 -13l-14 -92q-26 10 -53 10q-34 0 -52.5 -19t-25.5 -59l-12 -75h120l-15 -91h-120l-68 -432h-120l68 432h-71zM385 0l83 523h121l-83 -523h-121zM550 609q-30 0 -50.5 20t-20.5 49t21 49.5t51 20.5t50.5 -20
t20.5 -49t-21 -49.5t-51 -20.5z" />
    <glyph glyph-name="f_l" unicode="&#xfb02;" horiz-adv-x="623" 
d="M44 432l14 91h72l13 84q13 83 62 123.5t123 40.5q46 0 79 -13l-14 -92q-26 10 -53 10q-34 0 -52.5 -19t-25.5 -59l-12 -75h120l-15 -91h-120l-68 -432h-120l68 432h-71zM385 0l121 765h121l-121 -765h-121z" />
    <glyph glyph-name="space_uni0326" horiz-adv-x="400" 
d="M119 -225l-68 27l63 165l110 -22z" />
    <glyph glyph-name="caron.alt" horiz-adv-x="400" 
d="M222 590l37 175h107l-72 -175h-72z" />
    <glyph glyph-name="space_uni0326.alt" horiz-adv-x="400" 
d="M299 779l69 -26l-64 -165l-109 22z" />
    <glyph glyph-name="grave.uc" horiz-adv-x="400" 
d="M246 766l-83 135h134l37 -135h-88z" />
    <glyph glyph-name="dieresis.uc" horiz-adv-x="400" 
d="M185 777q-27 0 -46.5 18.5t-19.5 45.5t20 46.5t47 19.5t46 -19t19 -46q0 -26 -19.5 -45.5t-46.5 -19.5zM396 777q-27 0 -46.5 18.5t-19.5 45.5t19.5 46.5t47.5 19.5q27 0 46 -19t19 -46q0 -26 -19.5 -45.5t-46.5 -19.5z" />
    <glyph glyph-name="macron.uc" horiz-adv-x="400" 
d="M137 780l13 81h288l-13 -81h-288z" />
    <glyph glyph-name="acute.uc" horiz-adv-x="400" 
d="M224 766l67 135h138l-111 -135h-94z" />
    <glyph glyph-name="circumflex.uc" horiz-adv-x="400" 
d="M118 766l126 135h105l92 -135h-85l-67 55l-82 -55h-89z" />
    <glyph glyph-name="caron.uc" horiz-adv-x="400" 
d="M461 901l-127 -135h-105l-91 135h84l67 -55l82 55h90z" />
    <glyph glyph-name="breve.uc" horiz-adv-x="400" 
d="M293 761q-64 0 -103 38.5t-39 101.5h85q6 -56 59 -56q54 0 65 56h84q-7 -63 -49.5 -101.5t-101.5 -38.5z" />
    <glyph glyph-name="dotaccent.uc" horiz-adv-x="400" 
d="M291 775q-30 0 -50.5 19.5t-20.5 48.5q0 28 21 48.5t50 20.5q30 0 50.5 -19.5t20.5 -48.5q0 -28 -21 -48.5t-50 -20.5z" />
    <glyph glyph-name="ring.uc" horiz-adv-x="400" 
d="M293 807q22 0 36.5 15.5t14.5 40.5q0 24 -13.5 39t-35.5 15t-36.5 -16t-14.5 -41q0 -24 13.5 -38.5t35.5 -14.5zM293 753q-46 0 -78.5 31.5t-32.5 75.5q0 46 33.5 78.5t79.5 32.5t78.5 -31.5t32.5 -76.5t-33.5 -77.5t-79.5 -32.5z" />
    <glyph glyph-name="tilde.uc" horiz-adv-x="400" 
d="M347 768q-28 0 -65 19.5t-49 19.5q-14 0 -26 -11t-16 -29h-77q12 63 43.5 97t74.5 34q27 0 64.5 -20t50.5 -20q30 0 41 40h76q-12 -62 -43.5 -96t-73.5 -34z" />
    <glyph glyph-name="hungarumlaut.uc" horiz-adv-x="400" 
d="M154 766l49 135h119l-84 -135h-84zM323 766l50 135h119l-84 -135h-85z" />
    <glyph glyph-name="idotaccent" horiz-adv-x="271" 
d="M198 609q-30 0 -50.5 20t-20.5 49t21 49.5t51 20.5t50.5 -20t20.5 -49t-21 -49.5t-51 -20.5zM33 0l83 523h121l-83 -523h-121z" />
    <glyph glyph-name="registered.alt" horiz-adv-x="843" 
d="M288 161v399h146q74 0 114.5 -30.5t40.5 -91.5v-2q0 -81 -79 -106l103 -169h-99l-93 152h-38v-152h-95zM383 377h48q65 0 65 55v3q0 52 -65 52h-48v-110zM432 32q133 0 227 92.5t94 234.5q0 141 -92.5 232.5t-226.5 91.5q-135 0 -228 -92t-93 -234t94 -233.5t225 -91.5z
M432 -13q-155 0 -263.5 106.5t-108.5 263.5q0 155 108.5 263t265.5 108q158 0 265.5 -107t107.5 -262q0 -158 -108.5 -265t-266.5 -107z" />
    <glyph glyph-name="dollar.old" horiz-adv-x="616" 
d="M300 -10h-2l-19 -121h-65l20 126q-97 15 -152.5 73.5t-56.5 145.5h120q2 -47 27.5 -80.5t75.5 -45.5l35 220q-98 27 -144 70t-46 119q0 89 71.5 146t180.5 59l14 87h65l-15 -91q85 -13 134.5 -61t52.5 -133h-116q-7 80 -85 100l-32 -203q103 -30 151.5 -72.5t48.5 -118.5
q0 -101 -72 -160.5t-191 -59.5zM442 195q0 35 -21 56.5t-76 39.5l-33 -208q63 2 96.5 31t33.5 81zM210 509q0 -32 19 -52t71 -38l30 191q-56 -2 -88 -29.5t-32 -71.5z" />
    <glyph glyph-name="Euro.old" horiz-adv-x="671" 
d="M45 377l10 61h65q27 121 103 193t194 72q110 0 172.5 -58.5t64.5 -168.5h-122q-2 56 -31 92t-88 36q-127 0 -166 -166h195l-19 -61h-187l-11 -65h178l-19 -61h-165q-4 -159 133 -159q123 0 157 141h118q-23 -121 -96.5 -182t-183.5 -61q-126 0 -190.5 72.5t-62.5 188.5
h-68l9 61h65l9 65h-64z" />
    <glyph glyph-name="sterling.old" horiz-adv-x="601" 
d="M48 295l13 82h60q-4 52 -4 80q0 108 67 176.5t185 68.5q102 0 160.5 -50t58.5 -153h-123q-3 103 -99 103q-66 0 -95 -43.5t-29 -112.5q0 -47 1 -69h196l-14 -82h-178q1 -14 1 -43q0 -71 -28 -119q18 -5 49.5 -15.5t53 -16.5t38.5 -6q68 0 80 73h114q-12 -82 -59 -129.5
t-129 -47.5q-48 0 -120.5 28.5t-94.5 28.5q-48 0 -58 -48h-100q7 49 37 89t78 52q24 43 24 103q0 24 -3 51h-82z" />
    <glyph glyph-name="yen.old" horiz-adv-x="586" 
d="M76 278l10 61h143l-139 355h135l98 -280l182 280h128l-243 -355h145l-9 -61h-161l-11 -66h160l-9 -61h-160l-24 -151h-128l23 151h-160l9 61h161l10 66h-160z" />
    <glyph glyph-name="zero.old" horiz-adv-x="655" 
d="M181 305q-5 -37 -5 -63q0 -152 140 -152q137 0 167 192l5 33q5 28 5 66q0 71 -34 110t-101 39q-142 0 -172 -192zM312 -10q-123 0 -193.5 69.5t-70.5 187.5q0 30 5 67l6 33q21 134 101.5 208t199.5 74q122 0 191.5 -68.5t69.5 -185.5q0 -41 -5 -70l-6 -33
q-21 -136 -98.5 -209t-199.5 -73z" />
    <glyph glyph-name="one.old" horiz-adv-x="406" 
d="M140 0l77 491l-163 -100l17 114l181 114h112l-98 -619h-126z" />
    <glyph glyph-name="two.old" horiz-adv-x="559" 
d="M-30 0l4 23l278 220q46 37 71.5 59.5t53.5 63t28 76.5q0 44 -25.5 66.5t-71.5 22.5q-107 0 -137 -134h-115q17 109 87.5 170.5t174.5 61.5q95 0 155.5 -46.5t59.5 -132.5q0 -39 -12.5 -71.5t-44 -66.5t-56.5 -55.5t-80 -63.5l-124 -96h275l-15 -97h-506z" />
    <glyph glyph-name="three.old" horiz-adv-x="604" 
d="M269 -105q-117 0 -187.5 59t-71.5 171h117q8 -133 143 -133q62 1 100.5 34.5t38.5 95.5q0 108 -121 108h-49l14 91h53q127 0 127 116q0 48 -28.5 71.5t-77.5 23.5q-112 0 -140 -120h-115q17 99 87.5 158t177.5 59q95 0 157 -46t62 -135q0 -63 -34 -108t-98 -65
q111 -37 111 -155q0 -102 -76 -163.5t-190 -61.5z" />
    <glyph glyph-name="four.old" horiz-adv-x="638" 
d="M327 -95l23 146h-359l7 42l402 525h165l-75 -477h97l-14 -90h-97l-24 -146h-125zM145 141h221l60 377z" />
    <glyph glyph-name="five.old" horiz-adv-x="586" 
d="M8 104h119q10 -111 123 -111q69 0 107 45t38 119q0 51 -30.5 85.5t-89.5 34.5q-85 0 -147 -62h-64l70 404h422l-16 -103h-325l-34 -202q61 55 146 55q89 0 143.5 -56t54.5 -144q0 -123 -75 -198.5t-203 -75.5q-103 0 -169 53t-70 156z" />
    <glyph glyph-name="six.old" horiz-adv-x="627" 
d="M302 -10q-121 0 -185.5 66t-65.5 176q0 44 10 108l5 32q28 172 113.5 262.5t210.5 90.5q96 0 155 -47t63 -139h-121q-10 87 -104 87q-143 0 -189 -254q62 83 179 83q91 0 147.5 -54.5t56.5 -148.5q0 -117 -77.5 -189.5t-197.5 -72.5zM177 218q-1 -59 31.5 -96t97.5 -37
q62 0 102.5 45.5t40.5 113.5q0 54 -31 88t-90 34q-65 0 -108 -41.5t-43 -106.5z" />
    <glyph glyph-name="seven.old" horiz-adv-x="542" 
d="M49 -95l347 610h-331l16 103h496l-2 -15l-391 -698h-135z" />
    <glyph glyph-name="eight.old" horiz-adv-x="618" 
d="M287 -10q-104 0 -178.5 51t-74.5 143q0 77 46 129t119 71q-87 41 -87 134t72.5 150t175.5 57q91 0 157.5 -46t66.5 -136q0 -121 -134 -169q53 -22 82.5 -62t29.5 -93q0 -107 -78.5 -168t-196.5 -61zM165 198q0 -50 34 -80.5t94 -30.5q58 0 99 35.5t41 99.5q0 50 -33 80
t-91 30q-61 0 -102.5 -35.5t-41.5 -98.5zM234 513q0 -41 30 -67.5t79 -26.5q50 0 84 30.5t34 84.5q0 43 -28.5 70t-76.5 27q-52 0 -87 -31.5t-35 -86.5z" />
    <glyph glyph-name="nine.old" horiz-adv-x="627" 
d="M341 629q122 0 185 -67t63 -177q0 -48 -8 -101l-5 -32q-29 -180 -112.5 -268.5t-213.5 -88.5q-101 0 -161.5 48.5t-64.5 145.5h121q12 -95 109 -95q77 0 122.5 59.5t70.5 193.5q-64 -83 -179 -83q-91 0 -148 54t-57 148q0 115 79 189t199 74zM464 405q0 59 -32 94t-96 35
q-63 0 -104 -45.5t-41 -113.5q0 -54 31.5 -88t90.5 -34q64 0 107.5 43t43.5 109z" />
    <glyph glyph-name="dollar.tab" 
d="M292 -10h-3l-20 -125h-64l20 130q-99 16 -154 76.5t-53 149.5h118q2 -105 105 -129l35 225q-98 28 -143.5 72t-45.5 122q0 92 71.5 152t182.5 61l14 89h64l-15 -94q86 -12 135 -62.5t50 -137.5h-112q-7 84 -88 103l-33 -209q102 -29 150.5 -73t48.5 -122
q0 -103 -71 -165.5t-192 -62.5zM436 201q0 37 -21 59t-77 40l-34 -214q62 1 97 31.5t35 83.5zM204 523q0 -32 19.5 -53t70.5 -39l31 197q-60 -2 -90.5 -31t-30.5 -74z" />
    <glyph glyph-name="Euro.tab" 
d="M33 389l10 63h57q25 134 95 203.5t179 68.5q106 0 161.5 -58.5t52.5 -167.5h-117q-1 60 -23.5 92.5t-76.5 32.5q-60 0 -95 -41t-51 -130h187l-21 -63h-176l-11 -67h164l-22 -64h-151q-7 -75 17 -119.5t97 -44.5q52 0 85 31t50 104h115q-45 -239 -255 -239
q-123 0 -182.5 71.5t-50.5 196.5h-58l10 64h56l11 67h-57z" />
    <glyph glyph-name="sterling.tab" 
d="M46 304l13 85h61q-4 52 -4 83q0 112 66 182t185 70q106 0 163 -52t53 -157h-119q-1 51 -24 77.5t-76 26.5q-66 0 -95 -44.5t-29 -115.5q0 -48 1 -70h192l-13 -85h-175q1 -12 1 -36q0 -79 -29 -129q19 -5 49 -15.5t52 -16.5t39 -6q70 0 81 73h113q-12 -87 -60 -135
t-129 -48q-48 0 -118 29.5t-92 29.5q-46 0 -58 -50h-100q7 51 36.5 91.5t76.5 53.5q25 48 25 108q0 24 -3 51h-83z" />
    <glyph glyph-name="yen.tab" 
d="M82 287l10 63h150l-133 365h136l88 -278l173 278h128l-240 -365h152l-10 -63h-162l-11 -67h162l-10 -64h-162l-24 -156h-132l24 156h-160l10 64h160l11 67h-160z" />
    <glyph glyph-name="zero.tab" 
d="M175 297q-7 -46 -7 -73q0 -131 114 -131q65 0 99.5 43.5t50.5 144.5l22 135q6 39 6 74q0 133 -111 133q-64 0 -100.5 -46t-51.5 -145zM277 -10q-111 0 -172 62.5t-60 169.5q0 44 6 84l22 135q22 141 94.5 212.5t185.5 71.5t171.5 -62.5t58.5 -172.5q0 -48 -6 -83
l-22 -135q-45 -282 -278 -282z" />
    <glyph glyph-name="one.tab" 
d="M247 0l91 577l-215 -142l19 121l227 159h127l-113 -715h-136z" />
    <glyph glyph-name="two.tab" 
d="M-12 0l3 24l311 285q135 124 135 219q0 41 -23.5 67.5t-67.5 26.5q-52 1 -85.5 -31.5t-51.5 -111.5h-124q18 122 89.5 184t183.5 61q91 0 151.5 -49t60.5 -139q1 -78 -44 -142.5t-137 -143.5l-170 -145h292l-16 -105h-507z" />
    <glyph glyph-name="three.tab" 
d="M277 -10q-118 0 -186.5 59.5t-67.5 171.5h120q4 -130 133 -130q138 0 138 133q0 46 -28 72.5t-86 26.5h-47l15 95h61q53 0 86 27.5t33 84.5q0 44 -26.5 68.5t-73.5 24.5q-114 0 -141 -118h-117q16 101 87.5 160t177.5 59q89 0 153 -45.5t64 -136.5q0 -64 -35.5 -109.5
t-98.5 -62.5q51 -16 79 -54.5t28 -94.5q0 -106 -74 -168.5t-194 -62.5z" />
    <glyph glyph-name="four.tab" 
d="M319 0l22 144h-329l8 46l373 525h163l-74 -473h79l-16 -98h-79l-23 -144h-124zM163 242h196l57 364z" />
    <glyph glyph-name="five.tab" 
d="M268 -10q-108 0 -171 55.5t-64 160.5h121q5 -112 116 -112q67 0 105 45.5t38 121.5q0 54 -30 86t-89 32q-84 0 -143 -63h-66l69 399h422l-16 -105h-323l-32 -192q61 57 146 57q88 0 141.5 -55.5t53.5 -148.5q0 -124 -76.5 -202.5t-201.5 -78.5z" />
    <glyph glyph-name="six.tab" 
d="M292 -10q-118 0 -183 63.5t-65 184.5q0 37 9 96l7 45q25 152 104.5 248.5t215.5 96.5q101 0 154.5 -48t55.5 -140h-117q-3 43 -26 65.5t-74 22.5q-145 0 -188 -245q64 85 172 85q88 0 145 -55t57 -148q0 -118 -74 -194.5t-193 -76.5zM166 217q0 -55 32.5 -91t94.5 -36
q63 0 102 45.5t39 115.5q0 52 -31 86t-91 34q-63 0 -104.5 -42.5t-41.5 -111.5z" />
    <glyph glyph-name="seven.tab" 
d="M100 0l330 607h-333l18 108h503l-3 -16l-378 -699h-137z" />
    <glyph glyph-name="eight.tab" 
d="M283 -10q-47 0 -90.5 12t-79.5 34.5t-57.5 61t-21.5 87.5q0 75 42 127.5t116 76.5q-38 19 -60.5 54t-22.5 77q0 91 70.5 147.5t171.5 56.5q88 0 153.5 -47.5t65.5 -132.5q0 -118 -126 -166q50 -21 78 -63t28 -94q0 -109 -76.5 -170t-190.5 -61zM162 204q0 -51 35 -81.5
t91 -30.5q61 0 99 35.5t38 97.5q0 50 -33.5 80t-86.5 30q-63 0 -103 -34.5t-40 -96.5zM228 519q0 -41 30 -68.5t78 -27.5t81 27.5t33 80.5q0 41 -29.5 69t-75.5 28q-50 0 -83.5 -28.5t-33.5 -80.5z" />
    <glyph glyph-name="nine.tab" 
d="M253 -9q-100 0 -160.5 49t-64.5 147h120q7 -51 34.5 -73.5t79.5 -22.5q144 0 181 241q-59 -81 -171 -81q-87 0 -144 54t-57 149q0 117 76 194t197 77q114 0 176 -63t63 -182q0 -42 -8 -98l-9 -55q-27 -172 -105 -254t-208 -82zM195 465q0 -54 29.5 -87t83.5 -33
q67 0 111 40t44 113q0 54 -30.5 91t-91.5 37q-64 0 -105 -45t-41 -116z" />
    <glyph glyph-name="cent.tab" 
d="M220 -135l20 131q-89 16 -141 76.5t-52 153.5q0 136 80 219.5t199 87.5l15 96h66l-16 -100q77 -13 123 -61t49 -131h-111q-4 80 -76 98l-56 -355q99 8 123 113h109q-17 -96 -83 -148.5t-163 -54.5l-20 -125h-66zM167 226q0 -115 88 -140l56 353q-65 -8 -104.5 -63.5
t-39.5 -149.5z" />
    <glyph glyph-name="percent.tab" horiz-adv-x="800" 
d="M174 537q0 -76 67 -76q38 1 59.5 31t21.5 75q0 33 -16 55.5t-51 22.5q-40 0 -60.5 -30.5t-20.5 -77.5zM238 383q-70 0 -115.5 43t-45.5 111q0 76 52 130.5t130 54.5q70 0 114.5 -44t44.5 -113q0 -75 -52 -128.5t-128 -53.5zM92 0l559 715h87l-559 -715h-87zM506 144
q0 -75 67 -75q38 0 59.5 30t21.5 75q0 33 -15.5 55.5t-50.5 22.5q-40 0 -61 -30.5t-21 -77.5zM570 -10q-69 0 -114.5 43t-45.5 111q0 77 52 131t129 54q70 0 114.5 -43.5t44.5 -112.5q0 -75 -52 -129t-128 -54z" />
    <glyph glyph-name="perthousand.tab" horiz-adv-x="1000" 
d="M165 525q0 -59 46 -59q35 0 50.5 38t15.5 82q0 62 -44 62q-36 0 -52 -38.5t-16 -84.5zM207 392q-58 0 -95 36t-37 100q1 80 43.5 137t117.5 57q58 0 94.5 -36.5t36.5 -100.5q0 -77 -42.5 -135t-117.5 -58zM32 0l562 715h87l-562 -715h-87zM432 124q0 -59 45 -59
q36 0 51.5 37.5t15.5 82.5q0 62 -44 62q-36 0 -52 -38.5t-16 -84.5zM474 -10q-58 0 -95.5 37t-36.5 100q1 80 43.5 136.5t117.5 56.5q58 0 94 -36t36 -101q0 -76 -42 -134.5t-117 -58.5zM751 124q0 -59 46 -59q36 0 51.5 37.5t15.5 82.5q0 62 -45 62q-25 0 -41 -22
t-21.5 -48t-5.5 -53zM794 -10q-59 0 -96 36.5t-36 100.5q0 79 42.5 136t118.5 57q57 0 93.5 -36t36.5 -101q0 -76 -42 -134.5t-117 -58.5z" />
    <glyph glyph-name="plus.tab" 
d="M223 99l31 195h-180l15 94h180l31 195h101l-31 -195h180l-15 -94h-180l-31 -195h-101z" />
    <glyph glyph-name="minus.tab" 
d="M73 293l16 96h461l-15 -96h-462z" />
    <glyph glyph-name="multiply.tab" 
d="M131 115l-58 68l173 153l-132 153l72 66l133 -154l173 153l60 -68l-174 -153l133 -154l-74 -65l-133 154z" />
    <glyph glyph-name="divide.tab" 
d="M74 296l14 91h462l-15 -91h-461zM287 71q-31 0 -53 21.5t-22 53.5t22 53.5t53 21.5q32 0 54.5 -22t22.5 -53t-22.5 -53t-54.5 -22zM335 461q-31 0 -53 21.5t-22 53.5t22 54t53 22q32 0 54.5 -22t22.5 -54q0 -31 -22.5 -53t-54.5 -22z" />
    <glyph glyph-name="equal.tab" 
d="M73 185l14 91h429l-15 -91h-428zM102 371l14 92h429l-15 -92h-428z" />
    <glyph glyph-name="less.tab" 
d="M470 81l-371 233l4 26l442 223l-17 -115l-264 -125l223 -134z" />
    <glyph glyph-name="greater.tab" 
d="M148 564l370 -233l-4 -26l-442 -224l17 117l264 125l-222 134z" />
    <glyph glyph-name="florin.tab" 
d="M113 324l15 90h107l25 131q17 92 73 135.5t136 43.5q51 0 84 -14l-14 -92q-27 10 -63 10q-82 0 -98 -93l-23 -121h139l-14 -90h-142l-94 -506h-121l95 506h-105z" />
    <glyph glyph-name="plusminus.tab" 
d="M232 157l28 175h-183l15 94h183l28 176h100l-28 -176h183l-15 -94h-182l-28 -175h-101zM25 0l14 89h467l-14 -89h-467z" />
    <glyph glyph-name="notequal.tab" 
d="M99 371l15 92h220l51 100h92l-51 -100h121l-14 -92h-153l-48 -95h186l-14 -91h-217l-51 -101h-92l51 101h-125l14 91h156l48 95h-189z" />
    <glyph glyph-name="approxequal.tab" 
d="M95 342q11 71 47 107t86 36q40 0 107.5 -21.5t90.5 -21.5q18 0 31.5 12t17.5 33h79q-9 -69 -45.5 -105.5t-84.5 -36.5q-41 0 -109.5 21.5t-90.5 21.5q-39 0 -50 -46h-79zM63 148q11 71 47 106.5t86 35.5q40 0 107.5 -21t90.5 -21q41 0 50 45h79q-10 -69 -46.5 -105.5
t-83.5 -36.5q-42 0 -110 21.5t-90 21.5q-39 0 -51 -46h-79z" />
    <glyph glyph-name="lessequal.tab" 
d="M471 128l-365 217l4 26l433 209l-18 -115l-241 -111l204 -117zM53 0l14 89h398l-13 -89h-399z" />
    <glyph glyph-name="greaterequal.tab" 
d="M64 0l14 89h399l-14 -89h-399zM155 580l365 -217l-4 -25l-432 -210l18 115l240 112l-204 116z" />
    <glyph glyph-name="parenleft.tab" horiz-adv-x="300" 
d="M124 -148q-38 77 -60.5 157t-22.5 191q0 307 222 574h103q-211 -280 -211 -577q-1 -191 67 -345h-98z" />
    <glyph glyph-name="parenright.tab" horiz-adv-x="300" 
d="M190 774q38 -77 60.5 -157t22.5 -191q0 -307 -222 -574h-103q211 280 211 577q1 190 -67 345h98z" />
    <glyph glyph-name="bracketleft.tab" horiz-adv-x="300" 
d="M-6 -148l146 924h212l-13 -86h-98l-119 -752h98l-14 -86h-212z" />
    <glyph glyph-name="bracketright.tab" horiz-adv-x="300" 
d="M-38 -148l14 86h98l119 752h-98l13 86h212l-146 -924h-212z" />
    <glyph glyph-name="braceleft.tab" horiz-adv-x="300" 
d="M206 -147q-117 4 -155.5 64t2.5 165l34 91q18 42 4 69t-66 40l12 81q55 8 76 32t19 65l-2 115q-4 111 51 157t172 45l-13 -83q-56 -1 -78 -25t-22 -90l-1 -114q1 -61 -28.5 -94.5t-90.5 -51.5q111 -42 70 -160l-31 -90q-24 -68 -10.5 -97.5t70.5 -34.5z" />
    <glyph glyph-name="braceright.tab" horiz-adv-x="300" 
d="M109 777q117 -4 155.5 -64t-2.5 -165l-34 -91q-18 -41 -4 -68.5t66 -40.5l-12 -80q-55 -8 -76 -32.5t-20 -65.5l2 -115q4 -111 -51 -157t-172 -45l14 83q56 1 78 25t22 91v113q0 61 29.5 94.5t90.5 51.5q-54 22 -72 57t2 104l31 89q24 69 10.5 98.5t-70.5 33.5z" />
    <glyph glyph-name="period.tab" horiz-adv-x="300" 
d="M119 -7q-34 0 -57 22.5t-23 55.5t22.5 56t56.5 23q33 0 57 -23t24 -56t-23.5 -55.5t-56.5 -22.5z" />
    <glyph glyph-name="comma.tab" horiz-adv-x="300" 
d="M53 -123l-69 34l113 236l108 -46z" />
    <glyph glyph-name="colon.tab" horiz-adv-x="300" 
d="M118 -7q-33 0 -56 22.5t-23 55.5t22.5 56t55.5 23q34 0 57.5 -23t23.5 -56t-23 -55.5t-57 -22.5zM166 285q-34 0 -57 23t-23 56t22.5 55.5t56.5 22.5q33 0 57 -22.5t24 -55.5t-23.5 -56t-56.5 -23z" />
    <glyph glyph-name="semicolon.tab" horiz-adv-x="300" 
d="M39 -123l-70 34l114 236l107 -46zM172 285q-34 0 -56.5 23t-22.5 56t22 55.5t56 22.5t57.5 -22.5t23.5 -55.5t-23 -56t-57 -23z" />
    <glyph glyph-name="space.tab" horiz-adv-x="300" 
 />
    <glyph glyph-name="dollar.oldtab" 
d="M292 -9h-3l-19 -122h-63l20 127q-97 15 -151 73.5t-52 144.5h113q4 -105 104 -127l35 221q-96 27 -140 70t-44 118q0 89 69 147t177 59l14 87h63l-15 -91q84 -12 131.5 -60.5t48.5 -133.5h-107q-8 82 -87 100l-32 -204q99 -29 146.5 -72t47.5 -118q0 -100 -69.5 -159.5
t-186.5 -59.5zM433 194q0 36 -20.5 57.5t-76.5 39.5l-33 -210q62 2 96 31.5t34 81.5zM205 508q0 -32 18.5 -52t70.5 -38l30 192q-59 -2 -89 -30t-30 -72z" />
    <glyph glyph-name="Euro.oldtab" 
d="M46 377l9 62h56q24 129 92 196.5t173 67.5q103 -1 157 -57.5t51 -161.5h-112q-1 58 -23 90t-76 32q-58 0 -92.5 -40.5t-50.5 -126.5h184l-22 -62h-172l-10 -65h160l-21 -61h-148q-7 -75 16.5 -118.5t95.5 -43.5q51 0 83.5 30.5t49.5 102.5h109q-44 -232 -246 -232
q-120 0 -177.5 69.5t-49.5 191.5h-57l10 61h55l10 65h-54z" />
    <glyph glyph-name="sterling.oldtab" 
d="M53 295l13 82h60q-4 33 -4 81q0 109 63.5 176.5t179.5 67.5q102 0 156.5 -50t52.5 -151h-115q-1 49 -23.5 74.5t-73.5 25.5q-121 0 -121 -155q0 -47 1 -69h186l-13 -82h-169q1 -12 1 -36q0 -77 -28 -126q18 -5 48 -15.5t50.5 -16.5t36.5 -6q69 0 81 73h106
q-12 -84 -58 -130.5t-124 -46.5q-46 0 -114 28.5t-89 28.5q-47 0 -57 -48h-96q7 49 35.5 88.5t73.5 51.5q25 44 25 105q0 23 -3 50h-81z" />
    <glyph glyph-name="yen.oldtab" 
d="M88 283l10 61h146l-132 350h131l90 -271l171 271h119l-233 -350h147l-9 -61h-158l-10 -66h157l-10 -61h-157l-24 -156h-126l24 156h-155l10 61h155l10 66h-156z" />
    <glyph glyph-name="zero.oldtab" 
d="M282 93q62 0 96 40t47 121l15 94q5 37 5 58q0 59 -28 91t-81 32q-121 0 -147 -163l-15 -94q-5 -35 -5 -60q0 -119 113 -119zM277 -10q-109 0 -170.5 60t-61.5 162q0 38 4 66l15 94q19 121 92.5 189t183.5 68q108 0 168.5 -62t60.5 -163q0 -28 -5 -63l-15 -94
q-19 -123 -89.5 -190t-182.5 -67z" />
    <glyph glyph-name="one.oldtab" 
d="M255 0l77 490l-214 -133l18 115l230 147h113l-98 -619h-126z" />
    <glyph glyph-name="two.oldtab" 
d="M-5 0l3 23l276 219q33 27 53 45t45.5 45.5t38 55t12.5 54.5q0 44 -24.5 66.5t-70.5 22.5q-106 0 -134 -134h-116q18 111 87 171.5t173 60.5q90 0 152 -45.5t61 -132.5q0 -33 -11.5 -63.5t-23.5 -50.5t-43.5 -50t-49 -44t-63.5 -50l-123 -96h272l-15 -97h-499z" />
    <glyph glyph-name="three.oldtab" 
d="M269 -105q-116 0 -186 59.5t-69 170.5h117q6 -133 139 -133q61 0 98 33.5t37 96.5q0 108 -116 108h-48l14 91h52q125 0 125 117q0 47 -28 70.5t-76 23.5q-109 0 -137 -120h-115q16 100 85.5 158.5t174.5 58.5q92 0 155 -45t63 -135q0 -132 -132 -174q109 -35 109 -154
q0 -103 -74.5 -164.5t-187.5 -61.5z" />
    <glyph glyph-name="four.oldtab" 
d="M302 -95l24 146h-328l6 41l371 526h161l-75 -477h87l-14 -90h-87l-24 -146h-121zM139 141h202l60 375z" />
    <glyph glyph-name="five.oldtab" 
d="M25 104h116q8 -111 119 -111q69 0 105.5 44.5t36.5 120.5q0 51 -29 85t-88 34q-83 0 -143 -62h-62l69 404h413l-17 -102h-316l-34 -204q60 58 141 58q86 0 139.5 -55t53.5 -145q0 -123 -71 -199.5t-199 -76.5q-105 0 -169 54t-65 155z" />
    <glyph glyph-name="six.oldtab" 
d="M291 -10q-115 0 -176 65t-61 174q0 35 9 102l7 45q27 168 110.5 258t200.5 90q99 0 154.5 -46t56.5 -139h-117q-7 88 -99 88q-65 0 -113.5 -63t-71.5 -191q62 82 171 82q88 0 139 -54t51 -146q0 -117 -72.5 -191t-188.5 -74zM173 218q0 -60 29 -95.5t91 -35.5
q61 0 99.5 44.5t39.5 112.5q0 54 -28 87.5t-86 33.5q-63 0 -104 -41t-41 -106z" />
    <glyph glyph-name="seven.oldtab" 
d="M74 -95l345 610h-326l16 103h491l-3 -15l-388 -698h-135z" />
    <glyph glyph-name="eight.oldtab" 
d="M282 -10q-99 0 -170.5 50.5t-71.5 142.5q0 77 43.5 128.5t115.5 72.5q-84 41 -84 134q0 92 69.5 149t168.5 57q87 0 148.5 -45.5t61.5 -134.5q0 -125 -129 -172q108 -46 108 -155q0 -106 -75.5 -166.5t-184.5 -60.5zM165 196q0 -48 32.5 -78t89.5 -30q55 0 93.5 35
t38.5 99q0 49 -30.5 78.5t-85.5 29.5q-59 0 -98.5 -35.5t-39.5 -98.5zM232 513q0 -41 28 -67t75 -26q48 0 79.5 30t31.5 84q0 43 -26.5 70t-72.5 27q-50 0 -82.5 -31.5t-32.5 -86.5z" />
    <glyph glyph-name="nine.oldtab" 
d="M319 629q115 0 175 -65.5t60 -178.5q0 -43 -8 -91l-7 -45q-29 -182 -105.5 -268t-203.5 -86q-99 0 -158 48t-63 145h117q10 -96 106 -96q75 0 117.5 59t66.5 195q-60 -82 -169 -82q-87 0 -140 54.5t-53 146.5q0 115 76 189.5t189 74.5zM435 405q0 59 -29.5 93.5
t-91.5 34.5q-60 0 -99.5 -45t-39.5 -112q0 -54 29.5 -87.5t86.5 -33.5q61 0 102.5 42.5t41.5 107.5z" />
    <glyph glyph-name="zero.num" horiz-adv-x="378" 
d="M160 500q0 -74 62 -74q42 0 61.5 44t19.5 103q0 32 -14 53.5t-45 21.5q-32 0 -52 -27t-26 -57.5t-6 -63.5zM218 354q-70 0 -110.5 39t-40.5 108q0 92 47.5 155.5t132.5 63.5q69 0 109 -39t40 -109q0 -95 -46 -156.5t-132 -61.5z" />
    <glyph glyph-name="one.num" horiz-adv-x="253" 
d="M119 360l41 263l-89 -51l12 80l104 63h82l-57 -355h-93z" />
    <glyph glyph-name="two.num" horiz-adv-x="313" 
d="M21 360l2 14l149 131q40 35 58.5 58.5t18.5 47.5q0 19 -11 29t-28 10q-45 0 -59 -61h-86q10 63 50.5 97t100.5 34q54 0 89.5 -25.5t35.5 -77.5q0 -37 -22.5 -66.5t-77.5 -75.5l-54 -47h126l-10 -68h-282z" />
    <glyph glyph-name="three.num" horiz-adv-x="336" 
d="M195 354q-64 0 -103 29t-40 91h85q2 -54 56 -54q23 0 39.5 13t16.5 38q0 41 -51 41h-25l8 58h30q54 0 54 44q0 39 -43 39q-48 0 -59 -48h-82q7 53 47 84t100 31q54 0 89.5 -23t35.5 -72q0 -63 -70 -84q59 -13 59 -76q0 -52 -42.5 -81.5t-104.5 -29.5z" />
    <glyph glyph-name="four.num" horiz-adv-x="347" 
d="M207 360l11 69h-178l6 34l193 252h114l-35 -222h46l-10 -64h-46l-11 -69h-90zM141 493h89l24 153z" />
    <glyph glyph-name="five.num" horiz-adv-x="327" 
d="M188 354q-60 0 -98.5 26.5t-40.5 86.5h87q5 -44 50 -44q25 0 40 17t15 47q0 48 -50 48q-35 0 -57 -27h-61l40 207h237l-11 -68h-170l-15 -83q29 33 80 33q44 0 72.5 -27t28.5 -75q-1 -66 -41 -103t-106 -38z" />
    <glyph glyph-name="six.num" horiz-adv-x="348" 
d="M209 354q-65 0 -103.5 35t-38.5 99q0 25 4 46l2 13q13 81 60 127t115 46q53 0 87.5 -25t36.5 -77h-85q-6 34 -43 34q-59 0 -79 -99q31 38 86 38q45 0 76 -26.5t31 -73.5q0 -63 -42 -100t-107 -37zM158 470q0 -22 13.5 -37t38.5 -15t41 17.5t16 47.5q0 22 -12.5 36
t-36.5 14q-26 0 -43 -16.5t-17 -46.5z" />
    <glyph glyph-name="seven.num" horiz-adv-x="298" 
d="M77 360l150 281h-155l12 74h275l-3 -11l-183 -344h-96z" />
    <glyph glyph-name="eight.num" horiz-adv-x="340" 
d="M200 354q-60 0 -101.5 24.5t-41.5 75.5q0 73 79 98q-42 22 -42 64q0 49 40 76.5t96 27.5q51 0 89.5 -24t38.5 -70q0 -59 -62 -81q53 -23 53 -77q0 -56 -43.5 -85t-105.5 -29zM150 465q0 -20 13 -33t38 -13q24 0 40.5 13.5t16.5 39.5q0 21 -13 34t-37 13t-41 -14t-17 -40z
M179 611q0 -18 12.5 -28.5t30.5 -10.5q22 0 36 12t14 34q0 17 -12.5 28t-32.5 11t-34 -12.5t-14 -33.5z" />
    <glyph glyph-name="nine.num" horiz-adv-x="348" 
d="M225 720q65 0 102 -33t38 -94q0 -25 -4 -57l-2 -13q-26 -169 -172 -169q-125 0 -130 104h85q3 -19 13.5 -27.5t34.5 -8.5q61 0 77 99q-30 -37 -86 -37q-45 0 -76 26t-31 73q0 62 43 99.5t108 37.5zM274 604q0 22 -12.5 37t-37.5 15t-42 -17.5t-17 -47.5q0 -50 49 -50
q26 0 43 16.5t17 46.5z" />
    <glyph glyph-name="zero.den" horiz-adv-x="378" 
d="M103 141q0 -75 62 -75q42 0 62 44t20 103q0 32 -14.5 54t-45.5 22q-24 0 -41.5 -15t-26 -39.5t-12.5 -47.5t-4 -46zM162 -6q-70 0 -110.5 39t-40.5 108q0 93 47.5 156t131.5 63q69 0 109 -39t40 -109q0 -94 -46 -156t-131 -62z" />
    <glyph glyph-name="one.den" horiz-adv-x="253" 
d="M62 0l41 263l-89 -51l13 80l104 63h81l-56 -355h-94z" />
    <glyph glyph-name="two.den" horiz-adv-x="313" 
d="M-36 0l3 14l148 132q40 34 58.5 57t18.5 48q0 19 -11 29t-28 10q-45 0 -59 -61h-85q10 62 50.5 96.5t99.5 34.5q54 0 89.5 -25.5t35.5 -77.5q0 -37 -22 -65.5t-78 -76.5l-54 -47h127l-11 -68h-282z" />
    <glyph glyph-name="three.den" horiz-adv-x="336" 
d="M139 -6q-64 0 -103.5 29t-40.5 91h85q2 -53 56 -53q23 0 39.5 12.5t16.5 37.5q0 42 -50 42h-26l9 57h29q54 0 54 44q0 40 -43 40q-22 0 -38 -13t-21 -36h-82q7 53 47.5 84t99.5 31q54 0 90 -23t36 -72q0 -30 -19 -52t-52 -32q59 -12 59 -75q0 -53 -42.5 -82.5
t-103.5 -29.5z" />
    <glyph glyph-name="four.den" horiz-adv-x="347" 
d="M150 0l11 69h-178l6 34l194 252h113l-35 -222h47l-11 -64h-46l-11 -69h-90zM85 133h89l23 153z" />
    <glyph glyph-name="five.den" horiz-adv-x="327" 
d="M131 -6q-59 0 -97.5 27t-40.5 86h87q3 -43 50 -43q24 0 39 17t15 46q0 49 -49 49q-34 0 -58 -27h-61l40 206h237l-10 -68h-170l-16 -82q30 32 81 32q44 0 72.5 -27t27.5 -75q-1 -66 -40.5 -103t-106.5 -38z" />
    <glyph glyph-name="six.den" horiz-adv-x="348" 
d="M152 -6q-65 0 -103 35t-39 99q0 14 4 46l2 13q13 82 60 127.5t115 45.5q54 0 88 -24.5t36 -77.5h-84q-6 34 -43 34q-60 0 -80 -99q31 38 87 38q44 0 75 -26.5t31 -72.5q0 -64 -41.5 -101t-107.5 -37zM101 110q0 -22 13 -36.5t39 -14.5q25 0 41.5 17.5t16.5 46.5
q0 22 -12.5 36.5t-37.5 14.5t-42.5 -17t-17.5 -47z" />
    <glyph glyph-name="seven.den" horiz-adv-x="298" 
d="M20 0l150 281h-154l12 74h274l-2 -10l-183 -345h-97z" />
    <glyph glyph-name="eight.den" horiz-adv-x="340" 
d="M143 -6q-59 0 -101 25t-42 76q0 72 80 97q-43 22 -43 65q0 48 40.5 75.5t95.5 27.5q52 0 90 -24t38 -70q0 -59 -61 -81q52 -22 52 -77q0 -56 -43.5 -85t-105.5 -29zM94 105q0 -21 13 -33.5t38 -12.5q24 0 40.5 13.5t16.5 39.5q0 21 -13.5 34t-37.5 13t-40.5 -14
t-16.5 -40zM122 252q0 -18 12.5 -29t31.5 -11q22 0 35.5 12t13.5 34q0 17 -12.5 28t-32.5 11t-34 -12t-14 -33z" />
    <glyph glyph-name="nine.den" horiz-adv-x="348" 
d="M168 361q65 0 102.5 -33.5t37.5 -94.5q0 -36 -4 -57l-2 -13q-26 -169 -172 -169q-57 0 -92 25.5t-37 79.5h84q3 -19 14 -27.5t35 -8.5q60 0 77 98q-32 -37 -86 -37q-45 0 -76 26.5t-31 73.5q0 62 43 99.5t107 37.5zM218 245q0 21 -13 36t-38 15q-24 0 -41 -17.5
t-17 -47.5q0 -50 49 -50q25 0 42.5 17t17.5 47z" />
    <glyph glyph-name="zero.sub" horiz-adv-x="378" 
d="M87 41q0 -75 62 -75q42 0 62 44t20 103q0 32 -14.5 54t-45.5 22q-24 0 -41.5 -15t-26 -39.5t-12.5 -47.5t-4 -46zM145 -106q-70 0 -110 39t-40 108q0 93 47 156t132 63q69 0 109 -39t40 -109q0 -95 -46 -156.5t-132 -61.5z" />
    <glyph glyph-name="one.sub" horiz-adv-x="253" 
d="M46 -100l41 263l-89 -51l12 80l105 63h81l-56 -355h-94z" />
    <glyph glyph-name="two.sub" horiz-adv-x="313" 
d="M-52 -100l3 14l148 132q40 34 58.5 57t18.5 48q0 19 -11 29t-28 10q-45 0 -59 -61h-85q10 62 50.5 96.5t99.5 34.5q54 0 89.5 -25.5t35.5 -77.5q0 -37 -22 -65.5t-78 -76.5l-54 -47h127l-11 -68h-282z" />
    <glyph glyph-name="three.sub" horiz-adv-x="336" 
d="M123 -106q-64 0 -103.5 29t-40.5 91h85q2 -53 56 -53q23 0 39.5 12.5t16.5 37.5q0 42 -51 42h-25l9 57h29q54 0 54 44q0 40 -43 40q-22 0 -38 -13t-21 -36h-82q7 54 47 84.5t100 30.5q54 0 90 -23t36 -72q0 -30 -19 -52t-52 -32q59 -12 59 -75q0 -53 -42.5 -82.5
t-103.5 -29.5z" />
    <glyph glyph-name="four.sub" horiz-adv-x="347" 
d="M134 -100l11 69h-178l6 34l194 252h113l-35 -222h47l-11 -64h-46l-11 -69h-90zM69 33h89l23 153z" />
    <glyph glyph-name="five.sub" horiz-adv-x="327" 
d="M115 -106q-59 0 -97.5 27t-40.5 86h87q3 -43 50 -43q24 0 39 17t15 46q0 49 -50 49q-33 0 -57 -27h-61l40 206h237l-10 -68h-170l-16 -82q30 32 80 32q45 0 73.5 -27t27.5 -75q-1 -66 -40.5 -103t-106.5 -38z" />
    <glyph glyph-name="six.sub" horiz-adv-x="348" 
d="M136 -106q-65 0 -103 35t-39 99q0 14 4 46l2 13q13 82 60 127.5t115 45.5q54 0 88 -24.5t36 -77.5h-84q-6 34 -44 34q-59 0 -79 -99q31 38 86 38q45 0 76 -26.5t31 -72.5q0 -64 -41.5 -101t-107.5 -37zM85 10q0 -22 13 -36.5t39 -14.5q25 0 41 17.5t16 46.5q0 51 -49 51
q-25 0 -42.5 -17t-17.5 -47z" />
    <glyph glyph-name="seven.sub" horiz-adv-x="298" 
d="M4 -100l150 281h-155l13 74h274l-2 -10l-183 -345h-97z" />
    <glyph glyph-name="eight.sub" horiz-adv-x="340" 
d="M127 -106q-59 0 -101 25t-42 76q0 72 80 97q-43 22 -43 65q0 48 40.5 75.5t95.5 27.5q52 0 90 -24t38 -70q0 -59 -61 -81q52 -22 52 -77q0 -56 -43.5 -85t-105.5 -29zM78 5q0 -21 13 -33.5t38 -12.5q24 0 40 13.5t16 39.5q0 21 -13 34t-37 13t-40.5 -14t-16.5 -40z
M106 152q0 -18 12 -29t31 -11q22 0 36 12t14 34q0 17 -12.5 28t-32.5 11t-34 -12t-14 -33z" />
    <glyph glyph-name="nine.sub" horiz-adv-x="348" 
d="M152 261q65 0 102.5 -33.5t37.5 -94.5q0 -36 -4 -57l-2 -13q-26 -169 -172 -169q-125 0 -129 105h84q3 -19 14 -27.5t35 -8.5q60 0 77 98q-32 -37 -86 -37q-45 0 -76 26.5t-31 73.5q0 62 43 99.5t107 37.5zM202 145q0 21 -13 36t-38 15q-24 0 -41 -17.5t-17 -47.5
q0 -50 49 -50q25 0 42.5 17t17.5 47z" />
    <glyph glyph-name="plus.sub" horiz-adv-x="346" 
d="M86 -58l16 103h-99l11 68h99l17 104h71l-17 -104h99l-11 -68h-99l-16 -103h-71z" />
    <glyph glyph-name="minus.sub" horiz-adv-x="346" 
d="M3 45l11 68h269l-11 -68h-269z" />
    <glyph glyph-name="zero.sup" horiz-adv-x="378" 
d="M168 558q0 -74 62 -74q42 0 61.5 44t19.5 103q0 32 -14.5 53.5t-44.5 21.5q-32 0 -52 -27t-26 -57.5t-6 -63.5zM226 412q-70 0 -110.5 39t-40.5 108q0 92 47.5 155.5t132.5 63.5q69 0 109 -39t40 -109q0 -95 -46 -156.5t-132 -61.5z" />
    <glyph glyph-name="one.sup" horiz-adv-x="253" 
d="M127 418l41 263l-89 -51l12 80l104 63h82l-57 -355h-93z" />
    <glyph glyph-name="two.sup" horiz-adv-x="313" 
d="M29 418l2 14l149 131q40 35 58.5 58.5t18.5 47.5q0 19 -11 29t-28 10q-45 0 -59 -61h-86q10 63 50.5 97t100.5 34q54 0 89.5 -25.5t35.5 -77.5q0 -37 -22.5 -66.5t-77.5 -75.5l-54 -47h126l-11 -68h-281z" />
    <glyph glyph-name="three.sup" horiz-adv-x="336" 
d="M203 412q-64 0 -103 29t-40 91h84q3 -54 57 -54q23 0 39 13t16 38q0 41 -50 41h-25l8 58h30q54 0 54 44q0 39 -43 39q-48 0 -59 -48h-82q7 53 47 84t100 31q54 0 89.5 -23t35.5 -72q0 -63 -70 -84q59 -13 59 -76q0 -52 -42.5 -81.5t-104.5 -29.5z" />
    <glyph glyph-name="four.sup" horiz-adv-x="347" 
d="M215 418l11 69h-178l6 34l193 252h114l-35 -222h46l-10 -64h-46l-11 -69h-90zM149 551h89l24 153z" />
    <glyph glyph-name="five.sup" horiz-adv-x="327" 
d="M196 412q-60 0 -98.5 26.5t-40.5 86.5h87q5 -44 50 -44q25 0 40 17t15 47q0 48 -50 48q-35 0 -57 -27h-61l40 207h237l-11 -68h-170l-15 -83q29 33 80 33q44 0 72.5 -27t28.5 -75q-1 -66 -41 -103t-106 -38z" />
    <glyph glyph-name="six.sup" horiz-adv-x="348" 
d="M217 412q-65 0 -103.5 35t-38.5 99q0 25 4 46l2 13q13 81 60 127t115 46q53 0 87.5 -25t36.5 -77h-85q-6 34 -43 34q-59 0 -79 -99q31 38 86 38q45 0 76 -26.5t31 -73.5q0 -63 -42 -100t-107 -37zM166 528q0 -22 13.5 -37t38.5 -15t41 17.5t16 47.5q0 22 -12.5 36
t-36.5 14q-26 0 -43 -16.5t-17 -46.5z" />
    <glyph glyph-name="seven.sup" horiz-adv-x="298" 
d="M85 418l150 281h-155l12 74h275l-3 -11l-183 -344h-96z" />
    <glyph glyph-name="eight.sup" horiz-adv-x="340" 
d="M208 412q-60 0 -101.5 24.5t-41.5 75.5q0 73 79 98q-42 22 -42 64q0 49 40 76.5t96 27.5q51 0 89.5 -24t38.5 -70q0 -59 -62 -81q53 -23 53 -77q0 -56 -43.5 -85t-105.5 -29zM158 523q0 -20 13 -33t38 -13q24 0 40.5 13.5t16.5 39.5q0 21 -13 34t-37 13t-41 -14t-17 -40z
M187 669q0 -18 12.5 -28.5t30.5 -10.5q22 0 36 12t14 34q0 17 -12.5 28t-32.5 11t-34 -12.5t-14 -33.5z" />
    <glyph glyph-name="nine.sup" horiz-adv-x="348" 
d="M233 778q65 0 102 -33t38 -94q0 -25 -4 -57l-2 -13q-26 -169 -172 -169q-125 0 -130 104h85q3 -19 13.5 -27.5t34.5 -8.5q61 0 77 99q-30 -37 -86 -37q-45 0 -76 26t-31 73q0 62 43 99.5t108 37.5zM282 662q0 22 -12.5 37t-37.5 15t-42 -17.5t-17 -47.5q0 -50 49 -50
q26 0 43 16.5t17 46.5z" />
    <glyph glyph-name="plus.sup" horiz-adv-x="346" 
d="M165 460l16 102h-100l12 69h99l16 103h71l-16 -103h99l-12 -69h-99l-15 -102h-71z" />
    <glyph glyph-name="minus.sup" horiz-adv-x="346" 
d="M81 562l12 69h269l-12 -69h-269z" />
    <glyph glyph-name="a.alt" horiz-adv-x="615" 
d="M310 440q-71 0 -111.5 -58.5t-40.5 -153.5q0 -68 30.5 -106t88.5 -38q66 0 110.5 60t44.5 155q0 64 -33.5 102.5t-88.5 38.5zM235 -10q-91 0 -147 62t-56 167q0 136 72 225.5t186 89.5q117 0 162 -101l14 90h121l-57 -364q-15 -98 -11 -159h-118q-4 35 2 92
q-60 -102 -168 -102z" />
    <glyph glyph-name="t.alt" horiz-adv-x="355" 
d="M58 0l68 432h-78l14 91h78l18 115h121l-18 -115h107l-14 -91h-107l-68 -432h-121z" />
    <glyph glyph-name="germandbls.alt" horiz-adv-x="643" 
d="M405 -9q-82 0 -130 39.5t-50 117.5h109q5 -69 68 -69q32 0 53 17.5t21 50.5q0 19 -12 36.5t-24.5 27t-41.5 29.5q-99 64 -99 129q0 32 17.5 60.5t42.5 49.5t50.5 40.5t43 43t17.5 47.5q0 33 -24.5 50t-67.5 17q-120 0 -141 -132l-86 -545h-121l87 552q17 108 90 163.5
t180 55.5q83 0 141.5 -37.5t58.5 -112.5q0 -37 -17.5 -68.5t-43 -52.5t-50.5 -39t-42.5 -35.5t-17.5 -33.5q0 -13 12 -24.5t52 -40.5q12 -9 19 -14q47 -34 71.5 -70t24.5 -87q0 -75 -53 -120t-137 -45z" />
    <glyph glyph-name="aacute.alt" horiz-adv-x="615" 
d="M289 601l77 155h136l-122 -155h-91zM310 440q-71 0 -111.5 -58.5t-40.5 -153.5q0 -68 30.5 -106t88.5 -38q66 0 110.5 60t44.5 155q0 64 -33.5 102.5t-88.5 38.5zM235 -10q-91 0 -147 62t-56 167q0 136 72 225.5t186 89.5q117 0 162 -101l14 90h121l-57 -364
q-15 -98 -11 -159h-118q-4 35 2 92q-60 -102 -168 -102z" />
    <glyph glyph-name="abreve.alt" horiz-adv-x="615" 
d="M310 440q-71 0 -111.5 -58.5t-40.5 -153.5q0 -68 30.5 -106t88.5 -38q66 0 110.5 60t44.5 155q0 64 -33.5 102.5t-88.5 38.5zM235 -10q-91 0 -147 62t-56 167q0 136 72 225.5t186 89.5q117 0 162 -101l14 90h121l-57 -364q-15 -98 -11 -159h-118q-4 35 2 92
q-60 -102 -168 -102zM348 606q-64 0 -103 39t-38 104h83q6 -58 59 -58q57 0 66 58h83q-7 -65 -49 -104t-101 -39z" />
    <glyph glyph-name="acircumflex.alt" horiz-adv-x="615" 
d="M177 602l135 151h95l91 -151h-83l-66 68l-85 -68h-87zM310 440q-71 0 -111.5 -58.5t-40.5 -153.5q0 -68 30.5 -106t88.5 -38q66 0 110.5 60t44.5 155q0 64 -33.5 102.5t-88.5 38.5zM235 -10q-91 0 -147 62t-56 167q0 136 72 225.5t186 89.5q117 0 162 -101l14 90h121
l-57 -364q-15 -98 -11 -159h-118q-4 35 2 92q-60 -102 -168 -102z" />
    <glyph glyph-name="adieresis.alt" horiz-adv-x="615" 
d="M252 613q-28 0 -47 18.5t-19 45.5t19.5 46.5t47.5 19.5q27 0 46 -19t19 -46q0 -26 -19.5 -45.5t-46.5 -19.5zM449 613q-27 0 -46 18.5t-19 45.5t19.5 46.5t46.5 19.5q28 0 46.5 -19t18.5 -46q0 -26 -19.5 -45.5t-46.5 -19.5zM310 440q-71 0 -111.5 -58.5t-40.5 -153.5
q0 -68 30.5 -106t88.5 -38q66 0 110.5 60t44.5 155q0 64 -33.5 102.5t-88.5 38.5zM235 -10q-91 0 -147 62t-56 167q0 136 72 225.5t186 89.5q117 0 162 -101l14 90h121l-57 -364q-15 -98 -11 -159h-118q-4 35 2 92q-60 -102 -168 -102z" />
    <glyph glyph-name="agrave.alt" horiz-adv-x="615" 
d="M310 440q-71 0 -111.5 -58.5t-40.5 -153.5q0 -68 30.5 -106t88.5 -38q66 0 110.5 60t44.5 155q0 64 -33.5 102.5t-88.5 38.5zM235 -10q-91 0 -147 62t-56 167q0 136 72 225.5t186 89.5q117 0 162 -101l14 90h121l-57 -364q-15 -98 -11 -159h-118q-4 35 2 92
q-60 -102 -168 -102zM302 601l-89 155h132l44 -155h-87z" />
    <glyph glyph-name="amacron.alt" horiz-adv-x="615" 
d="M310 440q-71 0 -111.5 -58.5t-40.5 -153.5q0 -68 30.5 -106t88.5 -38q66 0 110.5 60t44.5 155q0 64 -33.5 102.5t-88.5 38.5zM235 -10q-91 0 -147 62t-56 167q0 136 72 225.5t186 89.5q117 0 162 -101l14 90h121l-57 -364q-15 -98 -11 -159h-118q-4 35 2 92
q-60 -102 -168 -102zM209 634l12 78h280l-12 -78h-280z" />
    <glyph glyph-name="aogonek.alt" horiz-adv-x="615" 
d="M443 -182q-45 0 -75 19.5t-29 60.5q0 63 89 102h-27q-4 35 2 92q-60 -102 -168 -102q-91 0 -147 62t-56 167q0 136 72 225.5t186 89.5q117 0 162 -101l14 90h121l-57 -364q-15 -94 -12 -156q-1 -1 -9 -6t-10 -7t-9.5 -7t-10 -7.5t-8.5 -8t-8.5 -9t-7 -9t-6 -10t-3 -10
t-1.5 -11.5q0 -28 34 -28q22 0 41 8l-11 -68q-34 -12 -66 -12zM310 440q-71 0 -111.5 -58.5t-40.5 -153.5q0 -68 30.5 -106t88.5 -38q66 0 110.5 60t44.5 155q0 64 -33.5 102.5t-88.5 38.5z" />
    <glyph glyph-name="aring.alt" horiz-adv-x="615" 
d="M354 643q22 0 36.5 16t14.5 41q0 23 -13 38t-35 15q-23 0 -37.5 -15.5t-14.5 -40.5q0 -24 13.5 -39t35.5 -15zM354 590q-46 0 -78 31t-32 76t33 77t80 32q46 0 78 -31t32 -75q0 -45 -33.5 -77.5t-79.5 -32.5zM310 440q-71 0 -111.5 -58.5t-40.5 -153.5q0 -68 30.5 -106
t88.5 -38q66 0 110.5 60t44.5 155q0 64 -33.5 102.5t-88.5 38.5zM235 -10q-91 0 -147 62t-56 167q0 136 72 225.5t186 89.5q117 0 162 -101l14 90h121l-57 -364q-15 -98 -11 -159h-118q-4 35 2 92q-60 -102 -168 -102z" />
    <glyph glyph-name="aringacute.alt" horiz-adv-x="615" 
d="M353 629q22 0 36.5 16t14.5 41q0 23 -13 38t-35 15q-23 0 -37.5 -15.5t-14.5 -40.5q0 -24 13.5 -39t35.5 -15zM353 576q-46 0 -78 31t-32 76t33 77t80 32q46 0 78 -31t32 -75q0 -45 -33.5 -77.5t-79.5 -32.5zM310 440q-71 0 -111.5 -58.5t-40.5 -153.5q0 -68 30.5 -106
t88.5 -38q66 0 110.5 60t44.5 155q0 64 -33.5 102.5t-88.5 38.5zM235 -10q-91 0 -147 62t-56 167q0 136 72 225.5t186 89.5q117 0 162 -101l14 90h121l-57 -364q-15 -98 -11 -159h-118q-4 35 2 92q-60 -102 -168 -102zM323 828l67 135h138l-111 -135h-94z" />
    <glyph glyph-name="atilde.alt" horiz-adv-x="615" 
d="M310 440q-71 0 -111.5 -58.5t-40.5 -153.5q0 -68 30.5 -106t88.5 -38q66 0 110.5 60t44.5 155q0 64 -33.5 102.5t-88.5 38.5zM235 -10q-91 0 -147 62t-56 167q0 136 72 225.5t186 89.5q117 0 162 -101l14 90h121l-57 -364q-15 -98 -11 -159h-118q-4 35 2 92
q-60 -102 -168 -102zM410 606q-28 0 -64.5 20t-48.5 20q-14 0 -26 -11t-16 -29h-74q11 63 41.5 97t73.5 34q27 0 64 -19.5t50 -19.5q30 0 40 40h75q-11 -63 -42 -97.5t-73 -34.5z" />
    <glyph glyph-name="tbar.alt" horiz-adv-x="355" 
d="M21 261l12 75h78l15 96h-78l14 91h78l18 115h121l-18 -115h107l-14 -91h-107l-15 -96h107l-12 -75h-107l-41 -261h-121l41 261h-78z" />
    <glyph glyph-name="tcaron.alt" horiz-adv-x="355" 
d="M58 0l68 432h-78l14 91h78l18 115h121l-18 -115h107l-14 -91h-107l-68 -432h-121zM330 590l37 175h107l-72 -175h-72z" />
    <glyph glyph-name="tcommaaccent.alt" horiz-adv-x="355" 
d="M61 -225l-68 27l63 165l110 -22zM58 0l68 432h-78l14 91h78l18 115h121l-18 -115h107l-14 -91h-107l-68 -432h-121z" />
    <glyph glyph-name="f.short" horiz-adv-x="354" 
d="M44 432l14 91h72l13 84q13 83 62 123.5t123 40.5q46 0 79 -13l-14 -92q-26 10 -53 10q-34 0 -52.5 -19t-25.5 -59l-12 -75h120l-15 -91h-120l-68 -432h-120l68 432h-71z" />
    <glyph glyph-name="f_f.short" horiz-adv-x="656" 
d="M44 432l14 91h71l12 78q13 79 63.5 119.5t125.5 40.5q48 0 77 -13l-14 -92q-19 9 -51 9q-69 0 -81 -73l-11 -69h182l13 84q13 83 62.5 123.5t123.5 40.5q45 0 78 -13l-14 -92q-24 10 -53 10q-65 0 -77 -78l-12 -75h119l-14 -91h-120l-68 -432h-121l68 432h-182l-68 -432
h-120l67 432h-70z" />
    <glyph glyph-name="questiondown.uc" horiz-adv-x="515" 
d="M377 500l-6 -39q-5 -32 -17.5 -58.5t-35.5 -50t-36 -34.5t-43 -34q-30 -22 -45 -35.5t-27.5 -35.5t-12.5 -49q0 -35 22.5 -54.5t63.5 -19.5q45 0 76.5 29t41.5 84h117q-13 -102 -78.5 -157.5t-163.5 -54.5q-98 0 -152 47.5t-54 119.5q0 44 18.5 80t40 56t60.5 48
q6 4 24.5 17.5t26 19.5t22 18.5t21 22.5t13.5 24.5t9 29.5l4 26h111zM340 722q34 0 56.5 -22.5t22.5 -54.5q0 -33 -22.5 -56t-56.5 -23q-33 0 -56.5 23t-23.5 55q0 33 23.5 55.5t56.5 22.5z" />
    <glyph glyph-name="exclamdown.uc" horiz-adv-x="306" 
d="M240 500l-61 -500h-135l98 500h98zM212 722q33 0 56 -22.5t23 -54.5q0 -33 -23 -55.5t-56 -22.5q-34 0 -57.5 22.5t-23.5 54.5q0 33 23.5 55.5t57.5 22.5z" />
    <glyph glyph-name="hyphen.uc" horiz-adv-x="380" 
d="M57 275l16 103h268l-16 -103h-268z" />
    <glyph glyph-name="endash.uc" horiz-adv-x="532" 
d="M48 285l14 84h441l-14 -84h-441z" />
    <glyph glyph-name="emdash.uc" horiz-adv-x="909" 
d="M48 285l14 84h818l-13 -84h-819z" />
    <glyph glyph-name="guilsinglleft.uc" horiz-adv-x="316" 
d="M149 110l-102 194l158 188h100l-155 -191l93 -191h-94z" />
    <glyph glyph-name="guilsinglright.uc" horiz-adv-x="316" 
d="M181 492l101 -194l-157 -188h-101l156 191l-94 191h95z" />
    <glyph glyph-name="guillemotleft.uc" horiz-adv-x="492" 
d="M149 110l-102 193l155 189h98l-153 -191l95 -191h-93zM327 110l-100 193l154 189h98l-153 -193l94 -189h-93z" />
    <glyph glyph-name="guillemotright.uc" horiz-adv-x="492" 
d="M357 492l102 -193l-154 -189h-99l154 191l-96 191h93zM179 492l101 -193l-155 -189h-98l153 193l-94 189h93z" />
    <glyph glyph-name="parenleft.uc" horiz-adv-x="335" 
d="M157 -98q-104 157 -104 343q0 300 242 539h110q-116 -134 -174 -262t-58 -281q0 -181 87 -339h-103z" />
    <glyph glyph-name="parenright.uc" horiz-adv-x="335" 
d="M202 784q104 -157 104 -343q0 -300 -242 -539h-111q116 135 174.5 262t58.5 281q0 178 -87 339h103z" />
    <glyph glyph-name="bracketleft.uc" horiz-adv-x="377" 
d="M23 -88l137 868h257l-15 -91h-135l-108 -685h135l-15 -92h-256z" />
    <glyph glyph-name="bracketright.uc" horiz-adv-x="377" 
d="M-15 -88l15 92h135l108 685h-135l15 91h256l-138 -868h-256z" />
    <glyph glyph-name="braceleft.uc" horiz-adv-x="396" 
d="M297 -90q-126 5 -173 63t-11 166l19 57q36 108 -89 112l13 86q69 -1 97 22.5t26 77.5l-3 78q-4 115 59 163t200 46l-14 -89q-75 -2 -102 -28.5t-26 -96.5l1 -78q3 -114 -118 -143q54 -14 72 -55t-1 -99l-20 -60q-22 -70 -2.5 -99t87.5 -33z" />
    <glyph glyph-name="braceright.uc" horiz-adv-x="396" 
d="M123 781q126 -5 173.5 -63t11.5 -166l-20 -57q-36 -108 90 -112l-14 -86q-69 1 -96.5 -22.5t-25.5 -77.5l2 -78q4 -115 -59 -163t-200 -46l14 89q75 2 102 28.5t26 96.5l-1 78q-1 117 118 144q-53 14 -71 54.5t1 98.5l19 60q22 70 2.5 99t-86.5 33z" />
    <glyph glyph-name="slash.uc" horiz-adv-x="415" 
d="M-38 -84l409 861h105l-410 -861h-104z" />
    <glyph glyph-name="backslash.uc" horiz-adv-x="418" 
d="M249 -84l-152 861h99l152 -861h-99z" />
    <glyph glyph-name="bar.uc" horiz-adv-x="259" 
d="M99 -84l-1 861h90l1 -861h-90z" />
    <glyph glyph-name="at.uc" horiz-adv-x="919" 
d="M465 -67q-95 0 -173 32t-127.5 86.5t-76 123t-26.5 143.5q0 95 36.5 177.5t97 138.5t140 88t165.5 32q172 0 279 -97.5t107 -245.5q0 -72 -19 -126.5t-50 -84.5t-65.5 -44.5t-70.5 -14.5q-109 0 -122 82q-22 -39 -61.5 -63t-84.5 -24q-69 0 -109 44t-42 117
q-1 106 58 173.5t143 67.5q87 0 112 -63l9 55h108l-40 -254q-12 -72 41 -72q47 0 82 51.5t35 156.5q0 122 -83 198t-229 76q-153 0 -254.5 -101t-101.5 -270q1 -85 35 -154.5t109 -114.5t181 -45q150 0 241 80h83q-45 -67 -132.5 -107.5t-194.5 -40.5zM449 219
q43 0 76.5 40.5t33.5 107.5q0 87 -83 87q-43 0 -73 -40.5t-29 -110.5q0 -37 20 -60.5t55 -23.5z" />
    </font>
</defs>
</svg>
