<?xml version="1.0" standalone="no"?>
<!DOCTYPE svg PUBLIC "-//W3C//DTD SVG 1.1//EN" "http://www.w3.org/Graphics/SVG/1.1/DTD/svg11.dtd" >
<svg>
<metadata>
Created by FontForge 20120731 at Sun Aug 28 06:44:56 2016
 By ,,,
(c)2009 Commercial Type.
</metadata>
<defs>
<font id="Graphik-ExtralightItalic" horiz-adv-x="600" >
  <font-face 
    font-family="Graphik Extralight"
    font-weight="275"
    font-style="italic"
    font-stretch="normal"
    units-per-em="1000"
    panose-1="2 11 3 3 3 2 2 13 2 3"
    ascent="818"
    descent="-182"
    x-height="523"
    cap-height="715"
    bbox="-241 -211 1034 1079"
    underline-thickness="50"
    underline-position="-50"
    slope="-8"
    unicode-range="U+0020-FB02"
  />
<missing-glyph horiz-adv-x="500" 
 />
    <glyph glyph-name="f_f" unicode="ff" horiz-adv-x="593" 
d="M335 0l78 494h-237l-78 -494h-34l77 494h-82l5 29h82l15 94q23 150 159 150q30 0 59 -9l-4 -29q-25 9 -54 9q-106 0 -126 -122l-15 -93h237l16 99q25 154 161 154q36 0 60 -9l-4 -29q-26 9 -55 9q-107 0 -127 -126l-16 -98h156l-5 -29h-155l-79 -494h-34z" />
    <glyph glyph-name=".notdef" horiz-adv-x="500" 
 />
    <glyph glyph-name=".null" horiz-adv-x="0" 
 />
    <glyph glyph-name="nonmarkingreturn" horiz-adv-x="333" 
 />
    <glyph glyph-name="space" unicode=" " horiz-adv-x="235" 
 />
    <glyph glyph-name="exclam" unicode="!" horiz-adv-x="262" 
d="M102 165l82 550h38l-92 -550h-28zM93 -5q-12 0 -20.5 8.5t-8.5 20.5t8 20.5t21 8.5q12 0 20.5 -8.5t8.5 -20.5t-8.5 -20.5t-20.5 -8.5z" />
    <glyph glyph-name="quotedbl" unicode="&#x22;" horiz-adv-x="261" 
d="M103 529l24 186h38l-35 -186h-27zM214 529l24 186h37l-34 -186h-27z" />
    <glyph glyph-name="numbersign" unicode="#" horiz-adv-x="484" 
d="M254 99l48 204h-135l-48 -204h-30l48 204h-95l4 30h98l40 172h-96l4 30h99l43 180h30l-43 -180h135l43 180h30l-43 -180h98l-5 -30h-100l-40 -172h99l-5 -30h-101l-48 -204h-30zM214 505l-40 -172h135l40 172h-135z" />
    <glyph glyph-name="dollar" unicode="$" horiz-adv-x="591" 
d="M281 -7h-16l-20 -128h-30l20 131q-91 10 -146 61.5t-59 139.5h34q7 -74 52 -118.5t124 -53.5l53 335q-98 28 -141.5 67.5t-43.5 105.5q0 87 64.5 138t164.5 51h13l15 91h30l-15 -94q78 -9 124.5 -51.5t52.5 -114.5h-33q-18 120 -149 136l-48 -306q106 -30 151.5 -67.5
t45.5 -111.5q0 -98 -67 -154.5t-176 -56.5zM489 202q0 60 -37.5 91.5t-129.5 58.5l-52 -329h11q94 0 151 47t57 132zM143 534q0 -51 35 -84t120 -59l48 301h-11q-87 0 -139.5 -41t-52.5 -117z" />
    <glyph glyph-name="percent" unicode="%" horiz-adv-x="755" 
d="M122 548q1 -49 30 -81t79 -32q58 0 94 39.5t35 101.5q-1 49 -30.5 82.5t-79.5 33.5q-57 0 -92.5 -41.5t-35.5 -102.5zM231 407q-61 0 -101 40t-40 102q0 70 46 120.5t115 50.5q61 0 101.5 -41t40.5 -103q0 -73 -47 -121t-115 -48zM84 0l579 715h36l-579 -715h-36z
M422 135q1 -49 30 -81t79 -32q57 0 93.5 40t35.5 102q-1 49 -30.5 82t-79.5 33q-57 0 -92.5 -41.5t-35.5 -102.5zM531 -6q-61 0 -101.5 40t-40.5 102q0 70 46.5 120.5t115.5 50.5q61 0 101 -41t40 -103q0 -73 -46.5 -121t-114.5 -48z" />
    <glyph glyph-name="ampersand" unicode="&#x26;" horiz-adv-x="644" 
d="M570 0h-41l-77 114q-98 -121 -222 -121q-83 0 -139.5 46.5t-56.5 132.5q0 46 17 83t49.5 64.5t66.5 46.5t82 39q-59 88 -59 152q0 69 45.5 115.5t115.5 46.5q60 0 97 -37.5t37 -95.5q0 -38 -16.5 -69t-48 -54t-58 -37.5t-66.5 -30.5l161 -231l129 193h35l-148 -217z
M71 173q0 -69 44.5 -109.5t115.5 -40.5q111 0 205 115l-172 245q-44 -18 -72.5 -34t-59.5 -40.5t-46 -58.5t-15 -77zM350 690q-55 1 -90.5 -36.5t-35.5 -94.5t58 -142q40 17 59.5 27t50.5 31.5t45 48.5t14 62q0 46 -26.5 75t-74.5 29z" />
    <glyph glyph-name="quotesingle" unicode="'" horiz-adv-x="151" 
d="M103 529l24 186h38l-35 -186h-27z" />
    <glyph glyph-name="parenleft" unicode="(" horiz-adv-x="285" 
d="M163 -148q-106 158 -106 358q0 165 65.5 309.5t179.5 253.5h38q-248 -246 -248 -563q0 -187 105 -358h-34z" />
    <glyph glyph-name="parenright" unicode=")" horiz-adv-x="285" 
d="M137 774q106 -161 106 -358q0 -165 -66 -309.5t-180 -253.5h-38q249 247 249 563q0 187 -105 358h34z" />
    <glyph glyph-name="asterisk" unicode="*" horiz-adv-x="415" 
d="M143 440l-23 21l115 112l-131 56l15 29l127 -62l21 147h32l-26 -149l143 42l5 -29l-144 -36l75 -127l-28 -16l-72 128z" />
    <glyph glyph-name="plus" unicode="+" horiz-adv-x="505" 
d="M212 113l34 214h-200l5 30h200l34 215h32l-35 -215h200l-5 -30h-200l-33 -214h-32z" />
    <glyph glyph-name="comma" unicode="," horiz-adv-x="195" 
d="M3 -113l-23 13l81 160l32 -16z" />
    <glyph glyph-name="hyphen" unicode="-" horiz-adv-x="333" 
d="M60 262l6 33h206l-5 -33h-207z" />
    <glyph glyph-name="period" unicode="." horiz-adv-x="195" 
d="M59 -5q-13 0 -21 8.5t-8 20.5t8 20.5t20 8.5q13 0 21 -8.5t8 -20.5t-8 -20.5t-20 -8.5z" />
    <glyph glyph-name="slash" unicode="/" horiz-adv-x="383" 
d="M-48 -148l435 924h35l-436 -924h-34z" />
    <glyph glyph-name="zero" unicode="0" horiz-adv-x="646" 
d="M305 -7q-123 0 -184.5 71t-61.5 188q0 47 7 89l11 71q24 148 102 229t196 81q121 0 179.5 -71t59.5 -187q0 -48 -7 -89l-12 -71q-24 -151 -97.5 -231t-192.5 -80zM306 24q208 0 254 283l12 71q6 42 6 86q0 102 -49.5 165t-154.5 63q-104 0 -172 -73.5t-90 -209.5l-11 -70
q-7 -41 -7 -87q1 -104 51.5 -166t160.5 -62z" />
    <glyph glyph-name="one" unicode="1" horiz-adv-x="348" 
d="M147 0l107 673l-183 -113l5 35l193 120h27l-113 -715h-36z" />
    <glyph glyph-name="two" unicode="2" horiz-adv-x="527" 
d="M-31 0l2 9l342 288q76 64 115 121t39 128q0 66 -40.5 106t-112.5 40q-75 0 -128 -43t-74 -134h-34q19 102 83.5 154.5t153.5 52.5q85 0 136 -48t51 -127q0 -80 -42 -140t-125 -129l-294 -247h399l-5 -31h-466z" />
    <glyph glyph-name="three" unicode="3" horiz-adv-x="544" 
d="M246 -7q-100 0 -161.5 54t-61.5 149h34q1 -81 51.5 -126.5t138.5 -45.5q89 0 145.5 49t56.5 142q0 62 -39 103t-117 41h-44l5 31h52q74 0 122 41.5t48 121.5q0 63 -40.5 100.5t-109.5 37.5q-73 0 -124.5 -42t-67.5 -116h-33q15 86 78.5 137.5t147.5 51.5q80 0 132 -44.5
t52 -123.5q0 -70 -38.5 -117.5t-106.5 -62.5q55 -14 87 -56.5t32 -103.5q0 -104 -68 -162.5t-171 -58.5z" />
    <glyph glyph-name="four" unicode="4" horiz-adv-x="581" 
d="M363 0l26 167h-374l2 11l440 537h55l-82 -517h99l-5 -31h-99l-26 -167h-36zM70 198h325l77 490z" />
    <glyph glyph-name="five" unicode="5" horiz-adv-x="545" 
d="M239 -7q-93 0 -152.5 50t-64.5 135h34q6 -70 54.5 -112t128.5 -42q101 0 158 65t57 169q0 75 -45.5 123.5t-122.5 48.5q-108 0 -184 -83h-14l59 368h382l-5 -31h-351l-45 -287q64 64 165 64q88 0 142.5 -56.5t54.5 -145.5q0 -116 -68 -191t-183 -75z" />
    <glyph glyph-name="six" unicode="6" horiz-adv-x="588" 
d="M283 -7q-106 0 -164.5 58.5t-58.5 169.5q0 28 9 93l11 64q55 344 296 344q84 0 134 -40t55 -116h-34q-12 125 -156 125q-104 0 -168.5 -74t-91.5 -237l-9 -56q32 61 89 93t125 32q93 0 153.5 -51.5t60.5 -143.5q0 -113 -69.5 -187t-181.5 -74zM96 206q0 -84 49.5 -133.5
t137.5 -49.5q98 0 157 65t59 165q0 78 -50.5 122t-134.5 44q-91 0 -154.5 -59.5t-63.5 -153.5z" />
    <glyph glyph-name="seven" unicode="7" horiz-adv-x="491" 
d="M105 0l386 685h-400l5 30h448l-1 -7l-400 -708h-38z" />
    <glyph glyph-name="eight" unicode="8" horiz-adv-x="568" 
d="M268 -7q-93 0 -160.5 49.5t-67.5 139.5q0 88 54.5 141.5t144.5 66.5q-51 15 -84 54.5t-33 96.5q0 82 63.5 131.5t150.5 49.5q79 0 135.5 -47t56.5 -122q0 -144 -158 -171q64 -17 102.5 -62.5t38.5 -111.5q0 -104 -70 -159.5t-173 -55.5zM75 185q0 -77 56.5 -119
t138.5 -42q89 0 147.5 47.5t58.5 136.5q0 72 -52.5 117t-135.5 45q-90 0 -151.5 -47.5t-61.5 -137.5zM157 542q-1 -61 44.5 -101.5t120.5 -40.5q74 0 122.5 38t48.5 114q0 62 -45 101t-114 39q-72 0 -124 -39.5t-53 -110.5z" />
    <glyph glyph-name="nine" unicode="9" horiz-adv-x="586" 
d="M248 -7q-84 0 -138.5 42t-62.5 121h34q18 -132 169 -132q103 0 164 70.5t88 240.5l9 56q-31 -61 -88.5 -93t-124.5 -32q-92 0 -153.5 52t-61.5 146q0 113 70.5 185.5t183.5 72.5q102 0 161 -59t59 -167q0 -29 -9 -94l-11 -68q-30 -188 -100.5 -264.5t-188.5 -76.5z
M119 465q0 -79 50.5 -124.5t131.5 -45.5q92 0 156.5 59.5t64.5 154.5q0 83 -49 133t-137 50q-99 0 -158 -63.5t-59 -163.5z" />
    <glyph glyph-name="colon" unicode=":" horiz-adv-x="202" 
d="M62 -5q-12 0 -20.5 8.5t-8.5 20.5t8 20.5t21 8.5q12 0 20.5 -8.5t8.5 -20.5t-8.5 -20.5t-20.5 -8.5zM117 337q-13 0 -21 8.5t-8 20.5t8 20.5t20 8.5q13 0 21 -8.5t8 -20.5t-8 -20.5t-20 -8.5z" />
    <glyph glyph-name="semicolon" unicode=";" horiz-adv-x="202" 
d="M-4 -113l-23 13l81 160l33 -16zM119 337q-13 0 -21 8.5t-8 20.5t8 20.5t20 8.5q13 0 21 -8.5t8 -20.5t-8 -20.5t-20 -8.5z" />
    <glyph glyph-name="less" unicode="&#x3c;" horiz-adv-x="491" 
d="M409 110l-352 214l2 9l416 197l-5 -34l-362 -170l306 -183z" />
    <glyph glyph-name="equal" unicode="=" horiz-adv-x="484" 
d="M33 224l5 30h404l-5 -30h-404zM58 383l5 30h404l-5 -30h-404z" />
    <glyph glyph-name="greater" unicode="&#x3e;" horiz-adv-x="491" 
d="M100 530l351 -213l-1 -10l-417 -197l6 35l361 170l-305 183z" />
    <glyph glyph-name="question" unicode="?" horiz-adv-x="469" 
d="M177 165l10 66q6 40 26 73t39.5 51t62.5 52q65 50 82 71q36 43 36 100t-39.5 85.5t-98.5 28.5q-71 0 -118.5 -41.5t-62.5 -120.5h-34q14 91 73 141.5t144 50.5q74 0 122.5 -37.5t48.5 -106.5q0 -21 -3 -39.5t-12.5 -35t-15.5 -27.5t-23 -26.5t-23.5 -21.5t-29 -23.5
t-28.5 -21.5q-57 -44 -81.5 -74t-32.5 -81l-10 -63h-32zM172 -5q-13 0 -21 8.5t-8 20.5t8 20.5t20 8.5q13 0 21 -8.5t8 -20.5t-8 -20.5t-20 -8.5z" />
    <glyph glyph-name="at" unicode="@" horiz-adv-x="905" 
d="M650 462l-37 -233q-22 -130 76 -130q61 0 103.5 57.5t42.5 165.5q0 150 -95.5 244t-261.5 94q-162 0 -278 -115.5t-116 -283.5q0 -103 41.5 -187.5t129 -138.5t208.5 -54q195 0 295 119h33q-39 -62 -126 -104.5t-202 -42.5q-98 0 -177.5 33.5t-130 90t-77.5 129.5
t-27 154q0 119 60 218t158 154.5t209 55.5q176 0 282 -103t106 -261q0 -125 -54.5 -188.5t-123.5 -63.5q-106 0 -108 107q-19 -46 -61 -80t-99 -34q-68 0 -110.5 44.5t-42.5 120.5q0 95 57.5 168t142.5 73q54 0 90 -29.5t44 -77.5l15 98h34zM424 93q66 0 115.5 61.5
t49.5 145.5q1 65 -31.5 103.5t-88.5 38.5q-72 0 -119.5 -63.5t-47.5 -149.5q0 -63 33.5 -99.5t88.5 -36.5z" />
    <glyph glyph-name="A" unicode="A" horiz-adv-x="635" 
d="M530 0l-50 228h-339l-119 -228h-36l375 715h48l156 -715h-35zM380 687l-224 -429h317z" />
    <glyph glyph-name="B" unicode="B" horiz-adv-x="592" 
d="M52 0l113 715h185q90 0 140.5 -42t49.5 -119q0 -145 -158 -181q69 -10 106 -52t37 -106q0 -101 -65.5 -158t-171.5 -57h-236zM91 30h197q92 0 147 48.5t55 137.5q0 67 -46 104.5t-137 37.5h-164zM148 387h161q85 0 140.5 40.5t55.5 125.5q0 63 -41 97.5t-115 34.5h-154z
" />
    <glyph glyph-name="C" unicode="C" horiz-adv-x="724" 
d="M371 -7q-144 0 -228 86t-84 233q0 172 104 291t272 119q103 0 177.5 -57.5t87.5 -158.5h-33q-16 88 -78.5 137t-154.5 49q-102 0 -180 -52t-117.5 -138t-39.5 -190q0 -135 72.5 -211.5t201.5 -76.5q99 0 171.5 52.5t103.5 148.5h35q-32 -110 -116 -171t-194 -61z" />
    <glyph glyph-name="D" unicode="D" horiz-adv-x="682" 
d="M52 0l113 715h172q156 0 236.5 -84t80.5 -220q0 -190 -109.5 -300.5t-297.5 -110.5h-195zM92 31h154q173 0 272.5 101t99.5 279q0 121 -71 197.5t-211 76.5h-140z" />
    <glyph glyph-name="E" unicode="E" horiz-adv-x="568" 
d="M52 0l113 715h401l-5 -30h-365l-48 -301h302l-5 -31h-301l-52 -322h390l-6 -31h-424z" />
    <glyph glyph-name="F" unicode="F" horiz-adv-x="540" 
d="M52 0l113 715h399l-5 -30h-363l-49 -304h288l-5 -30h-287l-55 -351h-36z" />
    <glyph glyph-name="G" unicode="G" horiz-adv-x="751" 
d="M386 -7q-152 0 -238.5 90.5t-86.5 232.5q0 170 105 288t267 118q107 0 183.5 -52t89.5 -151h-36q-11 84 -77 128.5t-160 44.5q-149 0 -242 -108t-93 -268q0 -129 76 -210.5t212 -81.5q123 0 198 72.5t90 213.5h-231l5 31h266q-14 -178 -100.5 -263t-227.5 -85z" />
    <glyph glyph-name="H" unicode="H" horiz-adv-x="709" 
d="M52 0l113 715h36l-54 -339h449l54 339h36l-113 -715h-36l55 345h-450l-54 -345h-36z" />
    <glyph glyph-name="I" unicode="I" horiz-adv-x="234" 
d="M57 0l113 715h36l-113 -715h-36z" />
    <glyph glyph-name="J" unicode="J" horiz-adv-x="389" 
d="M114 -5q-70 0 -117 28l5 31q53 -29 111 -29q120 0 143 137l87 553h36l-88 -556q-25 -164 -177 -164z" />
    <glyph glyph-name="K" unicode="K" horiz-adv-x="588" 
d="M517 0h-43l-322 368l415 347h45l-417 -347zM52 0l113 715h36l-113 -715h-36z" />
    <glyph glyph-name="L" unicode="L" horiz-adv-x="528" 
d="M52 0l113 715h36l-109 -684h361l-5 -31h-396z" />
    <glyph glyph-name="M" unicode="M" horiz-adv-x="849" 
d="M52 0l113 715h52l169 -649l380 649h54l-113 -715h-36l106 672l-394 -672h-14l-177 672l-106 -672h-34z" />
    <glyph glyph-name="N" unicode="N" horiz-adv-x="707" 
d="M52 0l113 715h49l329 -667l106 667h35l-113 -715h-43l-334 678l-107 -678h-35z" />
    <glyph glyph-name="O" unicode="O" horiz-adv-x="788" 
d="M757 392q0 -163 -105.5 -281t-267.5 -118q-148 0 -236.5 94t-88.5 239q0 78 28 150.5t77 126.5t120 86.5t152 32.5q144 0 232.5 -94t88.5 -236zM721 392q0 127 -77.5 213.5t-208.5 86.5q-148 0 -242.5 -107t-96.5 -259q-2 -130 77 -216t211 -86q148 0 242 107.5t95 260.5
z" />
    <glyph glyph-name="P" unicode="P" horiz-adv-x="559" 
d="M52 0l113 715h167q103 0 161.5 -43.5t58.5 -132.5q0 -114 -68.5 -169t-186.5 -55h-160l-50 -315h-35zM141 345h158q218 0 218 194q0 146 -188 146h-134z" />
    <glyph glyph-name="Q" unicode="Q" horiz-adv-x="788" 
d="M384 -7q-148 0 -236.5 94t-88.5 239q0 78 28 150.5t77 126.5t120 86.5t152 32.5q144 0 232.5 -94t88.5 -236q0 -97 -40.5 -182.5t-111.5 -141.5l80 -89l-24 -21l-82 91q-88 -56 -195 -56zM384 24q97 0 174 49l-108 122l24 21l110 -124q64 50 100 129.5t37 170.5
q0 127 -77.5 213.5t-208.5 86.5q-148 0 -242.5 -107t-96.5 -259q-2 -130 77 -216t211 -86z" />
    <glyph glyph-name="R" unicode="R" horiz-adv-x="593" 
d="M52 0l113 715h170q102 0 160.5 -43.5t57.5 -128.5q0 -189 -217 -205l182 -338h-39l-180 335h-159l-53 -335h-35zM145 365h150q223 0 223 178q0 142 -184 142h-139z" />
    <glyph glyph-name="S" unicode="S" horiz-adv-x="583" 
d="M275 -7q-111 0 -178.5 53t-72.5 151h35q8 -83 63.5 -128t152.5 -45q94 -1 151.5 47t57.5 133q0 63 -40.5 96.5t-141.5 61.5q-106 29 -152 67t-46 104q0 88 62 138.5t162 50.5q95 0 152 -43.5t64 -125.5h-34q-18 139 -183 139q-87 0 -137.5 -40.5t-50.5 -117.5
q0 -53 39 -83.5t137 -58.5q111 -30 158 -70t47 -116q0 -98 -68.5 -155.5t-176.5 -57.5z" />
    <glyph glyph-name="T" unicode="T" horiz-adv-x="558" 
d="M217 0l108 685h-230l5 30h497l-5 -30h-231l-108 -685h-36z" />
    <glyph glyph-name="U" unicode="U" horiz-adv-x="674" 
d="M318 -5q-135 0 -196.5 71t-41.5 201l71 448h36l-71 -448q-37 -241 203 -241q104 0 160.5 52.5t73.5 163.5l75 473h36l-75 -476q-19 -122 -84.5 -183t-186.5 -61z" />
    <glyph glyph-name="V" unicode="V" horiz-adv-x="621" 
d="M249 0l-157 715h35l150 -677l349 677h35l-369 -715h-43z" />
    <glyph glyph-name="W" unicode="W" horiz-adv-x="905" 
d="M177 0l-80 715h35l74 -661l302 661h24l89 -663l288 663h35l-311 -715h-38l-86 647l-294 -647h-38z" />
    <glyph glyph-name="X" unicode="X" horiz-adv-x="618" 
d="M-5 0l312 374l-175 341h37l164 -317l261 317h40l-286 -346l191 -369h-38l-179 345l-287 -345h-40z" />
    <glyph glyph-name="Y" unicode="Y" horiz-adv-x="564" 
d="M225 0l51 322l-189 393h37l175 -363l269 363h39l-295 -396l-51 -319h-36z" />
    <glyph glyph-name="Z" unicode="Z" horiz-adv-x="582" 
d="M-16 0l2 9l571 676h-428l5 30h481l-1 -8l-569 -676h456l-5 -31h-512z" />
    <glyph glyph-name="bracketleft" unicode="[" horiz-adv-x="331" 
d="M30 -148l146 924h195l-5 -28h-159l-137 -868h159l-5 -28h-194z" />
    <glyph glyph-name="backslash" unicode="\" horiz-adv-x="383" 
d="M267 -148l-146 924h33l146 -924h-33z" />
    <glyph glyph-name="bracketright" unicode="]" horiz-adv-x="331" 
d="M-26 -148l5 28h160l137 868h-160l5 28h193l-146 -924h-194z" />
    <glyph glyph-name="asciicircum" unicode="^" horiz-adv-x="461" 
d="M73 431l211 284h33l122 -284h-35l-108 251l-186 -251h-37z" />
    <glyph glyph-name="underscore" unicode="_" horiz-adv-x="387" 
d="M-66 -146l5 29h388l-5 -29h-388z" />
    <glyph glyph-name="grave" unicode="`" horiz-adv-x="400" 
d="M241 600l-63 147h40l51 -147h-28z" />
    <glyph glyph-name="a" unicode="a" horiz-adv-x="521" 
d="M204 -7q-84 0 -128 39t-44 103q0 161 227 161h156l7 45q24 160 -135 160q-133 0 -167 -121h-35q19 76 75 113.5t127 37.5q97 0 140 -51t29 -142l-30 -192q-13 -84 -13 -146h-33q0 38 5 86q-25 -41 -72.5 -67t-108.5 -26zM207 21q71 0 124 39.5t63 101.5l17 106h-152
q-90 0 -141.5 -28.5t-51.5 -104.5q0 -51 35 -82.5t106 -31.5z" />
    <glyph glyph-name="b" unicode="b" horiz-adv-x="596" 
d="M303 -8q-88 0 -140 49.5t-65 113.5l-25 -155h-34l122 773h34l-60 -379q30 60 86 98.5t128 38.5q89 0 149 -65.5t60 -170.5q0 -130 -67.5 -216.5t-187.5 -86.5zM301 22q106 0 164 76.5t58 195.5q0 95 -51 151.5t-127 56.5q-103 0 -167.5 -80.5t-66.5 -188.5
q-1 -97 52.5 -154t137.5 -57z" />
    <glyph glyph-name="c" unicode="c" horiz-adv-x="543" 
d="M272 -7q-107 0 -169 65.5t-62 172.5q0 129 76.5 214t193.5 85q84 0 138.5 -46t59.5 -125h-34q-4 65 -49 103.5t-117 38.5q-104 0 -168.5 -77t-64.5 -193q0 -96 53 -152.5t143 -56.5q73 0 125.5 39.5t70.5 112.5h33q-20 -87 -81.5 -134t-147.5 -47z" />
    <glyph glyph-name="d" unicode="d" horiz-adv-x="597" 
d="M253 -8q-94 0 -154.5 63.5t-60.5 168.5q0 129 72.5 218t190.5 89q87 0 136 -49t61 -113l65 404h34l-96 -604q-15 -91 -17 -169h-33q0 53 12 129q-29 -62 -83.5 -99.5t-126.5 -37.5zM255 22q104 0 166.5 79.5t63.5 188.5q1 97 -49.5 154t-133.5 57q-104 0 -166.5 -79
t-62.5 -197q0 -94 51.5 -148.5t130.5 -54.5z" />
    <glyph glyph-name="e" unicode="e" horiz-adv-x="535" 
d="M74 217q0 -94 46.5 -144.5t136.5 -50.5q138 0 186 122h34q-25 -74 -83 -113t-138 -39q-105 0 -161.5 60.5t-56.5 165.5q0 130 73 221t191 91q110 0 161.5 -69.5t33.5 -182.5l-2 -14h-419q-2 -30 -2 -47zM301 501q-87 0 -145 -57t-76 -151h385q12 95 -29 151.5t-135 56.5z
" />
    <glyph glyph-name="f" unicode="f" horiz-adv-x="322" 
d="M59 494l5 29h82l16 99q25 154 161 154q34 0 60 -9l-4 -29q-27 9 -55 9q-50 0 -83 -28t-45 -98l-16 -98h157l-5 -29h-156l-78 -494h-34l78 494h-83z" />
    <glyph glyph-name="g" unicode="g" horiz-adv-x="601" 
d="M259 46q101 1 166.5 79.5t65.5 189.5q0 82 -48.5 134t-134.5 52q-102 1 -165.5 -74.5t-63.5 -186.5q0 -85 47.5 -139.5t132.5 -54.5zM562 523l-80 -505q-16 -102 -80 -153t-166 -51q-94 0 -154 41t-70 115h35q10 -60 59.5 -93.5t128.5 -33.5q90 0 144.5 44.5t68.5 132.5
l21 131q-30 -57 -84 -95t-129 -38q-96 0 -154 61t-58 160q0 123 74 207.5t190 84.5q79 0 130 -40.5t67 -108.5l22 141h35z" />
    <glyph glyph-name="h" unicode="h" horiz-adv-x="567" 
d="M39 0l122 773h34l-57 -363q28 52 80 86.5t120 34.5q89 0 133 -56t27 -164l-49 -311h-35l50 316q15 91 -21 138t-110 47q-75 0 -135.5 -50t-74.5 -137l-50 -314h-34z" />
    <glyph glyph-name="i" unicode="i" horiz-adv-x="200" 
d="M161 637q-11 0 -18.5 8t-7.5 19t8 18.5t19 7.5t18.5 -7.5t7.5 -18.5t-8 -19t-19 -8zM41 0l82 523h35l-83 -523h-34z" />
    <glyph glyph-name="j" unicode="j" horiz-adv-x="200" 
d="M-65 -186l5 30q42 2 62 22.5t28 66.5l93 590h35l-94 -592q-10 -61 -40 -88t-89 -29zM161 637q-11 0 -18.5 8t-7.5 19t8 18.5t19 7.5t18.5 -7.5t7.5 -18.5t-8 -19t-19 -8z" />
    <glyph glyph-name="k" unicode="k" horiz-adv-x="467" 
d="M366 0l-245 282l306 241h45l-309 -242l244 -281h-41zM39 0l122 773h34l-122 -773h-34z" />
    <glyph glyph-name="l" unicode="l" horiz-adv-x="201" 
d="M41 0l122 773h35l-122 -773h-35z" />
    <glyph glyph-name="m" unicode="m" horiz-adv-x="887" 
d="M39 0l60 384q11 67 15 139h33q-2 -54 -11 -112q65 120 185 120q66 0 106 -35t45 -101q26 62 79 99t116 37q86 0 127 -55.5t24 -165.5l-49 -310h-34l49 314q29 187 -121 187q-69 0 -124 -50t-68 -136l-50 -315h-34l50 315q15 92 -17.5 139t-103.5 47q-69 0 -124.5 -50.5
t-68.5 -135.5l-50 -315h-34z" />
    <glyph glyph-name="n" unicode="n" horiz-adv-x="567" 
d="M39 0l60 384q11 67 15 139h33q-2 -58 -11 -115q28 54 81 88.5t121 34.5q89 0 133 -56t27 -164l-49 -311h-35l50 316q15 91 -21 138t-110 47q-75 0 -135.5 -50t-74.5 -137l-50 -314h-34z" />
    <glyph glyph-name="o" unicode="o" horiz-adv-x="573" 
d="M265 -7q-101 0 -164.5 68t-63.5 168q0 125 75.5 213t197.5 88q102 0 163.5 -68t61.5 -168q0 -130 -74 -215.5t-196 -85.5zM266 22q106 0 170 77t64 195q0 88 -51 147.5t-140 59.5q-109 0 -173 -78.5t-64 -193.5q0 -88 53 -147.5t141 -59.5z" />
    <glyph glyph-name="p" unicode="p" horiz-adv-x="596" 
d="M349 531q89 0 149 -65.5t60 -170.5q0 -130 -67.5 -216.5t-187.5 -86.5q-87 0 -139 49t-66 113l-54 -336h-34l85 536q15 95 19 169h33q-2 -58 -14 -134q30 64 86.5 103t129.5 39zM301 22q106 0 164 76.5t58 195.5q0 95 -51 151.5t-127 56.5q-103 0 -167.5 -80.5
t-66.5 -188.5q-1 -97 52.5 -154t137.5 -57z" />
    <glyph glyph-name="q" unicode="q" horiz-adv-x="598" 
d="M412 -182l48 308q-29 -61 -82 -97.5t-125 -36.5q-94 0 -154.5 63.5t-60.5 168.5q0 129 72.5 218t190.5 89q87 0 136 -49t61 -113l25 154h34l-111 -705h-34zM255 22q104 0 166.5 79.5t63.5 188.5q1 97 -49.5 154t-133.5 57q-104 0 -166.5 -79t-62.5 -197
q0 -94 51.5 -148.5t130.5 -54.5z" />
    <glyph glyph-name="r" unicode="r" horiz-adv-x="331" 
d="M39 0l60 384q11 67 15 139h33q-2 -60 -12 -120q61 122 201 125l-5 -31q-83 -3 -139.5 -54t-72.5 -155l-46 -288h-34z" />
    <glyph glyph-name="s" unicode="s" horiz-adv-x="453" 
d="M207 -9q-88 0 -138 42.5t-54 120.5h33q10 -134 160 -134q66 0 107 31t41 89q0 45 -29 69.5t-101 44.5q-84 24 -119.5 53.5t-35.5 84.5q0 66 49.5 102t122.5 36q162 0 173 -136h-33q-9 107 -141 107q-62 0 -100 -27.5t-38 -80.5q0 -42 29 -64.5t104 -44.5q81 -23 117 -53
t36 -90q0 -71 -52 -110.5t-131 -39.5z" />
    <glyph glyph-name="t" unicode="t" horiz-adv-x="325" 
d="M182 -7q-59 0 -86 36t-17 102l58 363h-79l5 29h78l19 119h34l-19 -119h146l-5 -29h-145l-58 -364q-17 -107 73 -107q37 0 65 11l-5 -29q-27 -12 -64 -12z" />
    <glyph glyph-name="u" unicode="u" horiz-adv-x="563" 
d="M521 523l-60 -383q-11 -65 -13 -140h-33q0 47 10 115q-29 -54 -81 -88.5t-120 -34.5q-88 0 -132 56.5t-26 163.5l49 311h34l-50 -315q-15 -91 20 -138.5t109 -47.5q76 0 135.5 50t73.5 137l50 314h34z" />
    <glyph glyph-name="v" unicode="v" horiz-adv-x="498" 
d="M188 0l-123 523h35l116 -489l262 489h36l-280 -523h-46z" />
    <glyph glyph-name="w" unicode="w" horiz-adv-x="754" 
d="M150 0l-81 523h35l74 -483l225 483h28l77 -483l222 483h36l-243 -523h-41l-73 466l-218 -466h-41z" />
    <glyph glyph-name="x" unicode="x" horiz-adv-x="487" 
d="M-16 0l238 274l-143 249h39l128 -225l195 225h40l-218 -253l155 -270h-39l-141 247l-214 -247h-40z" />
    <glyph glyph-name="y" unicode="y" horiz-adv-x="486" 
d="M70 -182l126 224l-131 481h34l121 -443l245 443h37l-395 -705h-37z" />
    <glyph glyph-name="z" unicode="z" horiz-adv-x="462" 
d="M-17 0l1 7l428 487h-321l5 29h377l-1 -7l-426 -486h342l-6 -30h-399z" />
    <glyph glyph-name="braceleft" unicode="{" horiz-adv-x="351" 
d="M245 -145q-99 6 -134.5 57.5t-1.5 143.5l42 117q22 62 -1.5 99t-99.5 41l5 27q77 0 110 31.5t31 94.5l-5 126q-4 100 45 141t155 44l-5 -28q-89 -3 -128 -36t-35 -122l5 -124q4 -121 -114 -143q52 -13 70.5 -53t-3.5 -105l-41 -115q-28 -83 -1 -123t111 -45z" />
    <glyph glyph-name="bar" unicode="|" horiz-adv-x="233" 
d="M113 -148v924h30v-924h-30z" />
    <glyph glyph-name="braceright" unicode="}" horiz-adv-x="351" 
d="M121 777q99 -6 134.5 -57.5t1.5 -143.5l-42 -117q-46 -132 101 -142l-4 -27q-77 1 -110.5 -29.5t-31.5 -94.5l6 -126q4 -101 -45 -141.5t-156 -43.5l5 28q89 3 128 36t35 123l-5 125q-4 121 114 140q-52 14 -70.5 54.5t3.5 103.5l41 116q28 83 1.5 123t-110.5 45z" />
    <glyph glyph-name="asciitilde" unicode="~" horiz-adv-x="433" 
d="M46 237q9 45 34 72t61 27q33 0 82.5 -33t72.5 -33q26 0 43 19.5t23 48.5h30q-9 -45 -34 -72t-61 -27q-34 0 -83 33t-72 33q-25 0 -42.5 -19t-23.5 -49h-30z" />
    <glyph glyph-name="uni00A0" unicode="&#xa0;" horiz-adv-x="655" 
 />
    <glyph glyph-name="exclamdown" unicode="&#xa1;" horiz-adv-x="263" 
d="M171 434l-82 -551h-38l92 551h28zM180 603q12 0 20.5 -8.5t8.5 -20.5q0 -11 -8.5 -19.5t-20.5 -8.5t-20.5 8.5t-8.5 19.5q0 12 8.5 20.5t20.5 8.5z" />
    <glyph glyph-name="cent" unicode="&#xa2;" horiz-adv-x="545" 
d="M273 -7q-11 0 -17 1l-20 -129h-29l21 132q-87 13 -137 76t-50 157q0 129 77 214.5t194 85.5l16 99h29l-16 -101q72 -8 118.5 -53t51.5 -116h-34q-3 58 -41 95.5t-100 44.5l-75 -477h12q73 0 125.5 39t70.5 113h33q-19 -88 -81 -134.5t-148 -46.5zM76 230q0 -85 41.5 -139
t114.5 -66l76 476q-103 -1 -167.5 -78t-64.5 -193z" />
    <glyph glyph-name="sterling" unicode="&#xa3;" horiz-adv-x="585" 
d="M60 334l5 29h77q-9 67 -9 114q0 109 61 177t174 68q93 0 142.5 -48t51.5 -131h-35q-3 69 -42.5 108.5t-117.5 39.5q-95 0 -146.5 -58.5t-51.5 -155.5q0 -38 8 -114h238l-5 -29h-230q4 -46 4 -71q0 -99 -43 -162q36 -4 116 -40.5t124 -36.5q45 0 77 30t39 86h33
q-9 -69 -50 -108t-100 -39q-51 0 -135.5 39.5t-118.5 39.5t-57.5 -20t-31.5 -52h-33q8 37 34.5 65.5t65.5 34.5q46 63 46 161q0 33 -5 73h-85z" />
    <glyph glyph-name="yen" unicode="&#xa5;" horiz-adv-x="531" 
d="M73 318l5 29h181l-160 368h38l151 -350l249 350h37l-263 -368h179l-5 -29h-187l-17 -107h187l-5 -29h-186l-29 -182h-35l28 182h-190l5 29h190l16 107h-189z" />
    <glyph glyph-name="brokenbar" unicode="&#xa6;" horiz-adv-x="233" 
d="M113 -148v445h30v-445h-30zM113 367v409h30v-409h-30z" />
    <glyph glyph-name="section" unicode="&#xa7;" horiz-adv-x="532" 
d="M216 -137q-73 0 -122 38t-53 109h35q6 -56 43 -86.5t98 -30.5q60 -1 101.5 34t41.5 93q0 46 -31.5 76.5t-108.5 58.5q-83 31 -123 67t-40 93q0 109 161 140q-60 42 -60 116q0 65 50 109.5t124 43.5q68 0 110.5 -35t43.5 -104h-35q0 52 -32 80.5t-89 28.5q-59 1 -98 -32
t-39 -89q0 -44 28.5 -75.5t103.5 -60.5q82 -32 121 -68t39 -94q0 -56 -42.5 -90t-110.5 -47q63 -42 63 -116q0 -70 -51 -114.5t-128 -44.5zM305 157q63 9 104 37.5t41 78.5q0 45 -32.5 74.5t-101.5 58.5l-73 31q-151 -25 -151 -120q0 -44 34 -74t102 -56z" />
    <glyph glyph-name="dieresis" unicode="&#xa8;" horiz-adv-x="400" 
d="M186 638q-11 0 -18.5 7.5t-7.5 18.5t7.5 18.5t18.5 7.5t18.5 -7.5t7.5 -18.5q0 -10 -8 -18t-18 -8zM339 638q-11 0 -18.5 7.5t-7.5 18.5q0 10 7.5 18t18.5 8t18.5 -7.5t7.5 -18.5t-7.5 -18.5t-18.5 -7.5z" />
    <glyph glyph-name="copyright" unicode="&#xa9;" horiz-adv-x="844" 
d="M437 148q-90 0 -143.5 58t-53.5 152v7q0 91 56.5 150.5t139.5 59.5q68 0 114.5 -34t56.5 -96h-33q-22 102 -138 102q-70 0 -116 -50.5t-46 -131.5v-6q0 -84 44 -133t119 -49q57 0 95 29t48 82h32q-11 -66 -58.5 -103t-116.5 -37zM433 -9q-153 0 -259.5 105.5
t-106.5 260.5q0 153 107 260t261 107q155 0 260.5 -106t105.5 -259q0 -156 -106.5 -262t-261.5 -106zM433 17q142 0 240.5 98t98.5 244q0 144 -97 241.5t-240 97.5q-142 0 -240.5 -98.5t-98.5 -242.5q0 -145 98.5 -242.5t238.5 -97.5z" />
    <glyph glyph-name="ordfeminine" unicode="&#xaa;" horiz-adv-x="418" 
d="M195 310q-62 0 -95 30t-33 78q0 125 182 125h107l6 33q16 118 -100 118q-96 0 -121 -89h-33q14 59 57 88t98 29q76 0 109.5 -39t22.5 -110l-23 -145q-9 -60 -9 -113h-32q-1 24 2 61q-42 -66 -138 -66zM201 337q53 0 92.5 28.5t47.5 75.5l12 75h-106q-69 0 -108 -20
t-39 -76q0 -38 25.5 -60.5t75.5 -22.5z" />
    <glyph glyph-name="guillemotleft" unicode="&#xab;" horiz-adv-x="415" 
d="M160 83l-109 178l165 178h38l-166 -179l106 -177h-34zM305 83l-109 178l165 178h38l-166 -179l106 -177h-34z" />
    <glyph glyph-name="registered" unicode="&#xae;" horiz-adv-x="514" 
d="M220 389v237h73q39 0 61.5 -17t22.5 -49v-1q0 -54 -60 -63l73 -107h-31l-72 104h-40v-104h-27zM247 515h47q55 0 55 43v1q0 44 -55 44h-47v-88zM293 282q-93 0 -157.5 63.5t-64.5 156.5q0 92 64.5 157t157.5 65q94 0 158 -64t64 -157t-64.5 -157t-157.5 -64zM293 304
q84 0 140.5 57t56.5 142t-56 142t-141 57q-84 0 -140.5 -57.5t-56.5 -142.5t57 -141.5t140 -56.5z" />
    <glyph glyph-name="macron" unicode="&#xaf;" horiz-adv-x="400" 
d="M145 647l5 28h229l-4 -28h-230z" />
    <glyph glyph-name="degree" unicode="&#xb0;" horiz-adv-x="395" 
d="M243 467q50 1 83 35t33 86q0 46 -31.5 78t-78.5 32q-49 0 -83.5 -34.5t-34.5 -85.5q0 -46 32 -78.5t80 -32.5zM242 441q-60 0 -101 39.5t-41 96.5q0 60 43.5 103.5t106.5 43.5q59 0 100 -39.5t41 -96.5q0 -61 -43 -104t-106 -43z" />
    <glyph glyph-name="plusminus" unicode="&#xb1;" horiz-adv-x="505" 
d="M214 123l32 209h-199l5 30h199l34 210h32l-34 -210h200l-5 -30h-200l-33 -209h-31zM-6 0l5 30h431l-5 -30h-431z" />
    <glyph glyph-name="twosuperior" unicode="&#xb2;" horiz-adv-x="285" 
d="M33 371l1 8l151 124q29 24 44 38.5t29 38.5t14 48q-1 29 -19.5 47.5t-50.5 18.5q-76 0 -96 -85h-28q10 52 44 80.5t81 28.5q44 0 71 -24t28 -65q0 -28 -15.5 -55t-31.5 -42.5t-51 -45.5l-111 -90h180l-4 -25h-236z" />
    <glyph glyph-name="threesuperior" unicode="&#xb3;" horiz-adv-x="307" 
d="M184 367q-52 0 -87 26.5t-37 75.5h29q3 -36 28 -56.5t67 -20.5q39 0 64.5 20.5t25.5 59.5q0 29 -19 48t-54 19h-24l4 24h28q33 0 54 17.5t21 50.5q0 30 -20 47t-52 17q-37 0 -60.5 -20t-32.5 -53h-28q8 43 41 69.5t80 26.5q43 0 72.5 -22t29.5 -64q0 -31 -18 -52.5
t-50 -29.5q26 -7 42.5 -27.5t16.5 -51.5q0 -48 -35 -76t-86 -28z" />
    <glyph glyph-name="acute" unicode="&#xb4;" horiz-adv-x="400" 
d="M235 600l93 147h43l-106 -147h-30z" />
    <glyph glyph-name="paragraph" unicode="&#xb6;" horiz-adv-x="542" 
d="M211 -100l72 457h-5q-88 0 -140.5 43t-52.5 120q0 96 64 145.5t166 49.5h203l-129 -815h-31l125 789h-117l-125 -789h-30z" />
    <glyph glyph-name="periodcentered" unicode="&#xb7;" horiz-adv-x="195" 
d="M106 293q-12 0 -20.5 8.5t-8.5 20.5t8 20.5t21 8.5q12 0 20.5 -8.5t8.5 -20.5t-8.5 -20.5t-20.5 -8.5z" />
    <glyph glyph-name="cedilla" unicode="&#xb8;" horiz-adv-x="400" 
d="M144 -211q-39 0 -63 19.5t-27 55.5h32q3 -47 58 -47q24 0 41 12.5t17 40.5q0 21 -12.5 31.5t-31.5 10.5q-24 0 -41 -11l-17 18l56 81h32l-45 -65q35 12 63.5 -6.5t28.5 -57.5q0 -38 -25 -60t-66 -22z" />
    <glyph glyph-name="onesuperior" unicode="&#xb9;" horiz-adv-x="212" 
d="M127 371l49 308l-101 -65l4 30l111 71h23l-55 -344h-31z" />
    <glyph glyph-name="ordmasculine" unicode="&#xba;" horiz-adv-x="464" 
d="M254 310q-79 0 -127.5 51t-48.5 129q0 97 58.5 164t152.5 67q80 0 127 -52t47 -128q0 -100 -57.5 -165.5t-151.5 -65.5zM255 338q79 0 126 57.5t47 145.5q0 65 -37.5 108.5t-103.5 43.5q-80 0 -127 -58.5t-47 -144.5q0 -65 38 -108.5t104 -43.5z" />
    <glyph glyph-name="guillemotright" unicode="&#xbb;" horiz-adv-x="415" 
d="M253 439l110 -179l-166 -177h-37l165 180l-106 176h34zM108 439l110 -179l-166 -177h-37l165 180l-106 176h34z" />
    <glyph glyph-name="onequarter" unicode="&#xbc;" horiz-adv-x="665" 
d="M130 371l49 308l-101 -65l4 30l111 71h23l-55 -344h-31zM30 0l590 715h33l-590 -715h-33zM516 0l12 77h-183l2 11l211 256h42l-39 -242h49l-5 -25h-47l-12 -77h-30zM388 102h144l35 218z" />
    <glyph glyph-name="onehalf" unicode="&#xbd;" horiz-adv-x="669" 
d="M3 0l590 715h33l-590 -715h-33zM130 371l49 308l-101 -65l4 30l111 71h23l-55 -344h-31zM356 0l1 8l150 125q30 24 45.5 39t28.5 37.5t13 47.5q0 29 -19 47.5t-50 18.5q-77 0 -96 -85h-28q9 52 43.5 81t81.5 29q44 0 71.5 -24.5t27.5 -65.5q0 -22 -6.5 -40.5t-23.5 -37.5
t-29 -30t-40 -34l-111 -91h181l-5 -25h-235z" />
    <glyph glyph-name="threequarters" unicode="&#xbe;" horiz-adv-x="693" 
d="M187 367q-52 0 -87 26.5t-37 75.5h29q3 -36 28 -56.5t67 -20.5q39 0 64.5 20.5t25.5 59.5q0 29 -19 48t-54 19h-24l4 24h28q33 0 54 17.5t21 50.5q0 30 -20 47t-52 17q-37 0 -60.5 -20t-32.5 -53h-28q8 43 41 69.5t80 26.5q43 0 72.5 -22t29.5 -64q0 -31 -18 -52.5
t-50 -29.5q26 -7 42.5 -27.5t16.5 -51.5q0 -48 -35 -76t-86 -28zM81 0l590 715h33l-590 -715h-33zM543 0l12 77h-183l2 11l211 256h42l-39 -242h49l-5 -25h-47l-12 -77h-30zM415 102h144l35 218z" />
    <glyph glyph-name="questiondown" unicode="&#xbf;" horiz-adv-x="469" 
d="M301 434l-10 -67q-5 -31 -15 -55t-29.5 -46t-35.5 -35.5t-48 -38.5q-4 -3 -18.5 -14.5t-18.5 -14.5t-16 -13.5t-16 -15t-13.5 -14.5t-12.5 -16.5t-9 -17.5t-8 -20t-4 -21t-2 -25q0 -57 39.5 -85.5t98.5 -28.5q72 0 119.5 41.5t62.5 120.5h33q-14 -91 -73 -141.5
t-144 -50.5q-74 0 -122.5 37.5t-48.5 106.5q0 21 3 39.5t12.5 35t15.5 27.5t23 26.5t23.5 21.5t29 23.5t28.5 21.5q57 44 81.5 74.5t32.5 80.5l10 64h32zM307 603q12 0 20 -8.5t8 -20.5q0 -11 -8 -19.5t-20 -8.5t-20.5 8.5t-8.5 19.5q0 12 8 20.5t21 8.5z" />
    <glyph glyph-name="Agrave" unicode="&#xc0;" horiz-adv-x="635" 
d="M530 0l-50 228h-339l-119 -228h-36l375 715h48l156 -715h-35zM380 687l-224 -429h317zM382 771l-68 120h41l55 -120h-28z" />
    <glyph glyph-name="Aacute" unicode="&#xc1;" horiz-adv-x="635" 
d="M530 0l-50 228h-339l-119 -228h-36l375 715h48l156 -715h-35zM380 687l-224 -429h317zM371 771l78 120h43l-90 -120h-31z" />
    <glyph glyph-name="Acircumflex" unicode="&#xc2;" horiz-adv-x="635" 
d="M530 0l-50 228h-339l-119 -228h-36l375 715h48l156 -715h-35zM380 687l-224 -429h317zM257 771l127 120h33l96 -120h-29l-86 91l-109 -91h-32z" />
    <glyph glyph-name="Atilde" unicode="&#xc3;" horiz-adv-x="635" 
d="M530 0l-50 228h-339l-119 -228h-36l375 715h48l156 -715h-35zM380 687l-224 -429h317zM457 774q-26 0 -69 29.5t-61 29.5t-33.5 -15t-21.5 -44h-28q9 43 31 66t53 23q26 0 68.5 -29.5t61.5 -29.5q18 0 33.5 15t21.5 43h27q-8 -42 -30.5 -65t-52.5 -23z" />
    <glyph glyph-name="Adieresis" unicode="&#xc4;" horiz-adv-x="635" 
d="M530 0l-50 228h-339l-119 -228h-36l375 715h48l156 -715h-35zM380 687l-224 -429h317zM475 788q-11 0 -18.5 7t-7.5 18t7.5 19t18.5 8t18.5 -7.5t7.5 -18.5q0 -10 -7.5 -18t-18.5 -8zM308 788q-11 0 -18.5 7.5t-7.5 17.5q0 11 8 19t19 8q10 0 17.5 -7.5t7.5 -18.5
t-7.5 -18.5t-18.5 -7.5z" />
    <glyph glyph-name="Aring" unicode="&#xc5;" horiz-adv-x="635" 
d="M530 0l-50 228h-339l-119 -228h-36l375 715h48l156 -715h-35zM380 687l-224 -429h317zM391 752q-39 0 -65 25.5t-26 61.5q0 38 28 65.5t66 27.5q39 0 65 -25.5t26 -62.5q0 -39 -27 -65.5t-67 -26.5zM391 774q29 0 48.5 19.5t19.5 50.5q0 29 -18 47t-47 18t-48.5 -20
t-19.5 -50q0 -27 18.5 -46t46.5 -19z" />
    <glyph glyph-name="AE" unicode="&#xc6;" horiz-adv-x="943" 
d="M-14 0l468 715h489l-5 -30h-365l-48 -301h302l-5 -31h-301l-52 -322h390l-5 -31h-425l36 228h-291l-148 -228h-40zM472 685l-278 -427h275l68 427h-65z" />
    <glyph glyph-name="Ccedilla" unicode="&#xc7;" horiz-adv-x="724" 
d="M297 -211q-39 0 -63 19.5t-27 55.5h32q3 -47 58 -47q24 0 41 12.5t17 40.5q0 21 -12.5 31.5t-31.5 10.5q-25 0 -41 -11l-17 18l54 79q-116 18 -182 101t-66 213q0 172 104 291t272 119q103 0 177.5 -57.5t87.5 -158.5h-33q-16 88 -78.5 137t-154.5 49q-102 0 -180 -52
t-117.5 -138t-39.5 -190q0 -135 72.5 -211.5t201.5 -76.5q99 0 171.5 52.5t103.5 148.5h35q-32 -110 -116 -171t-194 -61q-20 0 -35 1l-40 -59q35 12 63.5 -6.5t28.5 -57.5q0 -38 -25 -60t-66 -22z" />
    <glyph glyph-name="Egrave" unicode="&#xc8;" horiz-adv-x="568" 
d="M367 771l-68 120h41l55 -120h-28zM52 0l113 715h401l-5 -30h-365l-48 -301h302l-5 -31h-301l-52 -322h390l-6 -31h-424z" />
    <glyph glyph-name="Eacute" unicode="&#xc9;" horiz-adv-x="568" 
d="M343 771l78 120h43l-90 -120h-31zM52 0l113 715h401l-5 -30h-365l-48 -301h302l-5 -31h-301l-52 -322h390l-6 -31h-424z" />
    <glyph glyph-name="Ecircumflex" unicode="&#xca;" horiz-adv-x="568" 
d="M236 771l127 120h33l96 -120h-29l-86 91l-109 -91h-32zM52 0l113 715h401l-5 -30h-365l-48 -301h302l-5 -31h-301l-52 -322h390l-6 -31h-424z" />
    <glyph glyph-name="Edieresis" unicode="&#xcb;" horiz-adv-x="568" 
d="M52 0l113 715h401l-5 -30h-365l-48 -301h302l-5 -31h-301l-52 -322h390l-6 -31h-424zM287 788q-11 0 -18.5 7.5t-7.5 17.5q0 11 8 19t19 8q10 0 17.5 -7.5t7.5 -18.5t-7.5 -18.5t-18.5 -7.5zM454 788q-11 0 -18.5 7t-7.5 18t7.5 19t18.5 8t18.5 -7.5t7.5 -18.5
q0 -10 -8 -18t-18 -8z" />
    <glyph glyph-name="Igrave" unicode="&#xcc;" horiz-adv-x="234" 
d="M57 0l113 715h36l-113 -715h-36zM187 771l-68 120h41l55 -120h-28z" />
    <glyph glyph-name="Iacute" unicode="&#xcd;" horiz-adv-x="234" 
d="M57 0l113 715h36l-113 -715h-36zM177 771l78 120h43l-90 -120h-31z" />
    <glyph glyph-name="Icircumflex" unicode="&#xce;" horiz-adv-x="234" 
d="M57 0l113 715h36l-113 -715h-36zM67 771l127 120h33l96 -120h-29l-86 91l-109 -91h-32z" />
    <glyph glyph-name="Idieresis" unicode="&#xcf;" horiz-adv-x="234" 
d="M57 0l113 715h36l-113 -715h-36zM119 788q-11 0 -18.5 7.5t-7.5 17.5q0 11 8 19t19 8q10 0 17.5 -7.5t7.5 -18.5t-7.5 -18.5t-18.5 -7.5zM286 788q-11 0 -18.5 7t-7.5 18t7.5 19t18.5 8t18.5 -7.5t7.5 -18.5q0 -10 -8 -18t-18 -8z" />
    <glyph glyph-name="Eth" unicode="&#xd0;" horiz-adv-x="687" 
d="M36 345l5 30h75l54 340h172q156 0 236.5 -84t80.5 -220q0 -190 -109.5 -300.5t-297.5 -110.5h-195l54 345h-75zM97 31h154q173 0 272.5 101t99.5 279q0 122 -71 198t-211 76h-140l-50 -310h210l-5 -30h-210z" />
    <glyph glyph-name="Ntilde" unicode="&#xd1;" horiz-adv-x="707" 
d="M508 774q-26 0 -69 29.5t-61 29.5t-33.5 -15t-21.5 -44h-28q9 43 31 66t53 23q26 0 68.5 -29.5t61.5 -29.5q18 0 33.5 15t21.5 43h27q-8 -42 -30.5 -65t-52.5 -23zM52 0l113 715h49l329 -667l106 667h35l-113 -715h-43l-334 678l-107 -678h-35z" />
    <glyph glyph-name="Ograve" unicode="&#xd2;" horiz-adv-x="788" 
d="M441 771l-68 120h41l55 -120h-28zM757 392q0 -163 -105.5 -281t-267.5 -118q-148 0 -236.5 94t-88.5 239q0 78 28 150.5t77 126.5t120 86.5t152 32.5q144 0 232.5 -94t88.5 -236zM721 392q0 127 -77.5 213.5t-208.5 86.5q-148 0 -242.5 -107t-96.5 -259q-2 -130 77 -216
t211 -86q148 0 242 107.5t95 260.5z" />
    <glyph glyph-name="Oacute" unicode="&#xd3;" horiz-adv-x="788" 
d="M432 771l78 120h43l-90 -120h-31zM757 392q0 -163 -105.5 -281t-267.5 -118q-148 0 -236.5 94t-88.5 239q0 78 28 150.5t77 126.5t120 86.5t152 32.5q144 0 232.5 -94t88.5 -236zM721 392q0 127 -77.5 213.5t-208.5 86.5q-148 0 -242.5 -107t-96.5 -259q-2 -130 77 -216
t211 -86q148 0 242 107.5t95 260.5z" />
    <glyph glyph-name="Ocircumflex" unicode="&#xd4;" horiz-adv-x="788" 
d="M321 771l127 120h33l96 -120h-29l-86 91l-109 -91h-32zM757 392q0 -163 -105.5 -281t-267.5 -118q-148 0 -236.5 94t-88.5 239q0 78 28 150.5t77 126.5t120 86.5t152 32.5q144 0 232.5 -94t88.5 -236zM721 392q0 127 -77.5 213.5t-208.5 86.5q-148 0 -242.5 -107
t-96.5 -259q-2 -130 77 -216t211 -86q148 0 242 107.5t95 260.5z" />
    <glyph glyph-name="Otilde" unicode="&#xd5;" horiz-adv-x="788" 
d="M517 774q-26 0 -69 29.5t-61 29.5t-33.5 -15t-21.5 -44h-28q9 43 31 66t53 23q26 0 68.5 -29.5t61.5 -29.5q18 0 33.5 15t21.5 43h27q-8 -42 -30.5 -65t-52.5 -23zM757 392q0 -163 -105.5 -281t-267.5 -118q-148 0 -236.5 94t-88.5 239q0 78 28 150.5t77 126.5t120 86.5
t152 32.5q144 0 232.5 -94t88.5 -236zM721 392q0 127 -77.5 213.5t-208.5 86.5q-148 0 -242.5 -107t-96.5 -259q-2 -130 77 -216t211 -86q148 0 242 107.5t95 260.5z" />
    <glyph glyph-name="Odieresis" unicode="&#xd6;" horiz-adv-x="788" 
d="M368 788q-11 0 -18.5 7.5t-7.5 17.5q0 11 8 19t19 8q10 0 17.5 -7.5t7.5 -18.5t-7.5 -18.5t-18.5 -7.5zM535 788q-11 0 -18.5 7t-7.5 18t7.5 19t18.5 8t18.5 -7.5t7.5 -18.5q0 -10 -7.5 -18t-18.5 -8zM757 392q0 -163 -105.5 -281t-267.5 -118q-148 0 -236.5 94
t-88.5 239q0 78 28 150.5t77 126.5t120 86.5t152 32.5q144 0 232.5 -94t88.5 -236zM721 392q0 127 -77.5 213.5t-208.5 86.5q-148 0 -242.5 -107t-96.5 -259q-2 -130 77 -216t211 -86q148 0 242 107.5t95 260.5z" />
    <glyph glyph-name="multiply" unicode="&#xd7;" horiz-adv-x="492" 
d="M62 150l-19 22l185 165l-143 164l22 21l143 -165l186 165l19 -23l-185 -164l144 -165l-23 -20l-144 165z" />
    <glyph glyph-name="Oslash" unicode="&#xd8;" horiz-adv-x="788" 
d="M54 -19l-21 22l98 102q-72 89 -72 221q0 78 28 150.5t77 126.5t120 86.5t152 32.5q129 0 216 -79l91 94l21 -22l-90 -93q83 -92 83 -230q0 -163 -105.5 -281t-267.5 -118q-143 0 -232 89zM721 392q0 125 -70 206l-476 -492q80 -82 209 -82q148 0 242 107.5t95 260.5z
M96 326q-2 -116 59 -197l475 491q-77 72 -195 72q-148 0 -242.5 -107t-96.5 -259z" />
    <glyph glyph-name="Ugrave" unicode="&#xd9;" horiz-adv-x="674" 
d="M402 771l-68 120h41l55 -120h-28zM318 -5q-135 0 -196.5 71t-41.5 201l71 448h36l-71 -448q-37 -241 203 -241q104 0 160.5 52.5t73.5 163.5l75 473h36l-75 -476q-19 -122 -84.5 -183t-186.5 -61z" />
    <glyph glyph-name="Uacute" unicode="&#xda;" horiz-adv-x="674" 
d="M387 771l78 120h43l-90 -120h-31zM318 -5q-135 0 -196.5 71t-41.5 201l71 448h36l-71 -448q-37 -241 203 -241q104 0 160.5 52.5t73.5 163.5l75 473h36l-75 -476q-19 -122 -84.5 -183t-186.5 -61z" />
    <glyph glyph-name="Ucircumflex" unicode="&#xdb;" horiz-adv-x="674" 
d="M283 771l127 120h33l96 -120h-29l-86 91l-109 -91h-32zM318 -5q-135 0 -196.5 71t-41.5 201l71 448h36l-71 -448q-37 -241 203 -241q104 0 160.5 52.5t73.5 163.5l75 473h36l-75 -476q-19 -122 -84.5 -183t-186.5 -61z" />
    <glyph glyph-name="Udieresis" unicode="&#xdc;" horiz-adv-x="674" 
d="M318 -5q-135 0 -196.5 71t-41.5 201l71 448h36l-71 -448q-37 -241 203 -241q104 0 160.5 52.5t73.5 163.5l75 473h36l-75 -476q-19 -122 -84.5 -183t-186.5 -61zM333 788q-11 0 -18.5 7.5t-7.5 17.5q0 11 8 19t19 8q10 0 17.5 -7.5t7.5 -18.5t-7.5 -18.5t-18.5 -7.5z
M500 788q-11 0 -18.5 7t-7.5 18t7.5 19t18.5 8t18.5 -7.5t7.5 -18.5q0 -10 -8 -18t-18 -8z" />
    <glyph glyph-name="Yacute" unicode="&#xdd;" horiz-adv-x="564" 
d="M225 0l51 322l-189 393h37l175 -363l269 363h39l-295 -396l-51 -319h-36zM330 771l78 120h43l-90 -120h-31z" />
    <glyph glyph-name="Thorn" unicode="&#xde;" horiz-adv-x="559" 
d="M200 715l-24 -150h136q102 0 161.5 -44.5t59.5 -130.5q0 -111 -68.5 -162t-186.5 -51h-163l-28 -177h-35l113 715h35zM309 534h-138l-52 -327h160q218 0 218 183q0 144 -188 144z" />
    <glyph glyph-name="germandbls" unicode="&#xdf;" horiz-adv-x="553" 
d="M282 -5q-65 0 -109 23l5 29q48 -23 103 -23q87 0 138.5 55t51.5 150q0 85 -55.5 142.5t-141.5 59.5l6 29q83 2 137 44.5t54 117.5q0 60 -37.5 92t-95.5 33q-71 1 -116.5 -43.5t-56.5 -120.5l-92 -583h-34l92 585q13 89 69.5 140t138.5 51q70 0 118 -41.5t48 -112.5
q0 -70 -46.5 -117t-117.5 -60q69 -18 117 -76t48 -141q0 -108 -61 -170.5t-163 -62.5z" />
    <glyph glyph-name="agrave" unicode="&#xe0;" horiz-adv-x="521" 
d="M204 -7q-84 0 -128 39t-44 103q0 161 227 161h156l7 45q24 160 -135 160q-133 0 -167 -121h-35q19 76 75 113.5t127 37.5q97 0 140 -51t29 -142l-30 -192q-13 -84 -13 -146h-33q0 38 5 86q-25 -41 -72.5 -67t-108.5 -26zM207 21q71 0 124 39.5t63 101.5l17 106h-152
q-90 0 -141.5 -28.5t-51.5 -104.5q0 -51 35 -82.5t106 -31.5zM287 600l-63 147h40l51 -147h-28z" />
    <glyph glyph-name="aacute" unicode="&#xe1;" horiz-adv-x="521" 
d="M204 -7q-84 0 -128 39t-44 103q0 161 227 161h156l7 45q24 160 -135 160q-133 0 -167 -121h-35q19 76 75 113.5t127 37.5q97 0 140 -51t29 -142l-30 -192q-13 -84 -13 -146h-33q0 38 5 86q-25 -41 -72.5 -67t-108.5 -26zM207 21q71 0 124 39.5t63 101.5l17 106h-152
q-90 0 -141.5 -28.5t-51.5 -104.5q0 -51 35 -82.5t106 -31.5zM279 600l93 147h43l-106 -147h-30z" />
    <glyph glyph-name="acircumflex" unicode="&#xe2;" horiz-adv-x="521" 
d="M204 -7q-84 0 -128 39t-44 103q0 161 227 161h156l7 45q24 160 -135 160q-133 0 -167 -121h-35q19 76 75 113.5t127 37.5q97 0 140 -51t29 -142l-30 -192q-13 -84 -13 -146h-33q0 38 5 86q-25 -41 -72.5 -67t-108.5 -26zM207 21q71 0 124 39.5t63 101.5l17 106h-152
q-90 0 -141.5 -28.5t-51.5 -104.5q0 -51 35 -82.5t106 -31.5zM172 600l127 129h33l94 -129h-29l-84 101l-110 -101h-31z" />
    <glyph glyph-name="atilde" unicode="&#xe3;" horiz-adv-x="521" 
d="M204 -7q-84 0 -128 39t-44 103q0 161 227 161h156l7 45q24 160 -135 160q-133 0 -167 -121h-35q19 76 75 113.5t127 37.5q97 0 140 -51t29 -142l-30 -192q-13 -84 -13 -146h-33q0 38 5 86q-25 -41 -72.5 -67t-108.5 -26zM207 21q71 0 124 39.5t63 101.5l17 106h-152
q-90 0 -141.5 -28.5t-51.5 -104.5q0 -51 35 -82.5t106 -31.5zM372 615q-26 0 -69 29t-61 29q-19 0 -34.5 -15t-21.5 -43h-28q9 43 31.5 65.5t53.5 22.5q25 0 68 -29.5t61 -29.5t33.5 15.5t21.5 43.5h28q-9 -43 -31 -65.5t-52 -22.5z" />
    <glyph glyph-name="adieresis" unicode="&#xe4;" horiz-adv-x="521" 
d="M204 -7q-84 0 -128 39t-44 103q0 161 227 161h156l7 45q24 160 -135 160q-133 0 -167 -121h-35q19 76 75 113.5t127 37.5q97 0 140 -51t29 -142l-30 -192q-13 -84 -13 -146h-33q0 38 5 86q-25 -41 -72.5 -67t-108.5 -26zM207 21q71 0 124 39.5t63 101.5l17 106h-152
q-90 0 -141.5 -28.5t-51.5 -104.5q0 -51 35 -82.5t106 -31.5zM231 638q-11 0 -18.5 7.5t-7.5 18.5t7.5 18.5t18.5 7.5t18.5 -7.5t7.5 -18.5q0 -10 -7.5 -18t-18.5 -8zM384 638q-11 0 -18.5 7.5t-7.5 18.5q0 10 8 18t18 8q11 0 18.5 -7.5t7.5 -18.5t-7.5 -18.5t-18.5 -7.5z
" />
    <glyph glyph-name="aring" unicode="&#xe5;" horiz-adv-x="521" 
d="M204 -7q-84 0 -128 39t-44 103q0 161 227 161h156l7 45q24 160 -135 160q-133 0 -167 -121h-35q19 76 75 113.5t127 37.5q97 0 140 -51t29 -142l-30 -192q-13 -84 -13 -146h-33q0 38 5 86q-25 -41 -72.5 -67t-108.5 -26zM207 21q71 0 124 39.5t63 101.5l17 106h-152
q-90 0 -141.5 -28.5t-51.5 -104.5q0 -51 35 -82.5t106 -31.5zM314 625q30 0 49 19.5t19 50.5q0 29 -17.5 47t-46.5 18t-48.5 -20t-19.5 -50q0 -27 18.5 -46t45.5 -19zM314 603q-38 0 -64 25.5t-26 61.5q0 38 27.5 65.5t66.5 27.5t64.5 -25.5t25.5 -62.5q0 -39 -27 -65.5
t-67 -26.5z" />
    <glyph glyph-name="ae" unicode="&#xe6;" horiz-adv-x="897" 
d="M444 217q0 -195 178 -195q136 0 183 122h34q-53 -152 -218 -152q-87 0 -138 41.5t-66 116.5q-20 -78 -79.5 -117.5t-133.5 -39.5q-85 0 -128.5 38.5t-43.5 101.5q0 159 228 159h156l7 49q24 160 -136 160q-133 0 -167 -121h-35q19 76 75 113.5t127 37.5q78 0 120.5 -33.5
t47.5 -95.5q33 60 87.5 94t124.5 34q110 0 159.5 -69t32.5 -183l-3 -14h-410q-2 -30 -2 -47zM206 21q75 0 128 43t65 123l12 77h-152q-42 0 -74.5 -5.5t-60.5 -19t-43 -40.5t-15 -66q0 -51 35 -81.5t105 -30.5zM666 501q-86 0 -142.5 -57t-73.5 -152h377q12 96 -28 152.5
t-133 56.5z" />
    <glyph glyph-name="ccedilla" unicode="&#xe7;" horiz-adv-x="543" 
d="M209 -211q-39 0 -63 19.5t-27 55.5h32q3 -47 58 -47q24 0 41 12.5t17 40.5q0 21 -12.5 31.5t-31.5 10.5q-24 0 -41 -11l-17 18l54 79q-83 15 -130.5 78t-47.5 155q0 129 76.5 214t193.5 85q84 0 138.5 -46t59.5 -125h-34q-4 65 -49 103.5t-117 38.5q-104 0 -168.5 -77
t-64.5 -193q0 -96 53 -152.5t143 -56.5q73 0 125.5 39.5t70.5 112.5h33q-20 -87 -81.5 -134t-147.5 -47q-10 0 -24 1l-40 -59q35 12 63.5 -6.5t28.5 -57.5q0 -38 -25 -60t-66 -22z" />
    <glyph glyph-name="egrave" unicode="&#xe8;" horiz-adv-x="535" 
d="M74 217q0 -94 46.5 -144.5t136.5 -50.5q138 0 186 122h34q-25 -74 -83 -113t-138 -39q-105 0 -161.5 60.5t-56.5 165.5q0 130 73 221t191 91q110 0 161.5 -69.5t33.5 -182.5l-2 -14h-419q-2 -30 -2 -47zM301 501q-87 0 -145 -57t-76 -151h385q12 95 -29 151.5t-135 56.5z
M296 600l-63 147h40l51 -147h-28z" />
    <glyph glyph-name="eacute" unicode="&#xe9;" horiz-adv-x="535" 
d="M74 217q0 -94 46.5 -144.5t136.5 -50.5q138 0 186 122h34q-25 -74 -83 -113t-138 -39q-105 0 -161.5 60.5t-56.5 165.5q0 130 73 221t191 91q110 0 161.5 -69.5t33.5 -182.5l-2 -14h-419q-2 -30 -2 -47zM301 501q-87 0 -145 -57t-76 -151h385q12 95 -29 151.5t-135 56.5z
M288 600l93 147h43l-106 -147h-30z" />
    <glyph glyph-name="ecircumflex" unicode="&#xea;" horiz-adv-x="535" 
d="M74 217q0 -94 46.5 -144.5t136.5 -50.5q138 0 186 122h34q-25 -74 -83 -113t-138 -39q-105 0 -161.5 60.5t-56.5 165.5q0 130 73 221t191 91q110 0 161.5 -69.5t33.5 -182.5l-2 -14h-419q-2 -30 -2 -47zM301 501q-87 0 -145 -57t-76 -151h385q12 95 -29 151.5t-135 56.5z
M181 600l127 129h33l94 -129h-29l-84 101l-110 -101h-31z" />
    <glyph glyph-name="edieresis" unicode="&#xeb;" horiz-adv-x="535" 
d="M74 217q0 -94 46.5 -144.5t136.5 -50.5q138 0 186 122h34q-25 -74 -83 -113t-138 -39q-105 0 -161.5 60.5t-56.5 165.5q0 130 73 221t191 91q110 0 161.5 -69.5t33.5 -182.5l-2 -14h-419q-2 -30 -2 -47zM301 501q-87 0 -145 -57t-76 -151h385q12 95 -29 151.5t-135 56.5z
M394 638q-11 0 -18.5 7.5t-7.5 18.5q0 10 8 18t18 8q11 0 18.5 -7.5t7.5 -18.5t-7.5 -18.5t-18.5 -7.5zM241 638q-11 0 -18.5 7.5t-7.5 18.5t7.5 18.5t18.5 7.5t18.5 -7.5t7.5 -18.5q0 -10 -7.5 -18t-18.5 -8z" />
    <glyph glyph-name="igrave" unicode="&#xec;" horiz-adv-x="200" 
d="M41 0l82 523h35l-83 -523h-34zM137 600l-63 147h40l51 -147h-28z" />
    <glyph glyph-name="iacute" unicode="&#xed;" horiz-adv-x="200" 
d="M134 600l93 147h43l-106 -147h-30zM41 0l82 523h35l-83 -523h-34z" />
    <glyph glyph-name="icircumflex" unicode="&#xee;" horiz-adv-x="200" 
d="M22 600l127 129h33l94 -129h-29l-84 101l-110 -101h-31zM41 0l82 523h35l-83 -523h-34z" />
    <glyph glyph-name="idieresis" unicode="&#xef;" horiz-adv-x="200" 
d="M98 638q-10 0 -18 8t-8 18q0 11 8 18.5t19 7.5q10 0 17.5 -7.5t7.5 -18.5t-7.5 -18.5t-18.5 -7.5zM227 638q-11 0 -18.5 7.5t-7.5 18.5t7.5 18.5t18.5 7.5t18.5 -7.5t7.5 -18.5t-7.5 -18.5t-18.5 -7.5zM41 0l82 523h35l-83 -523h-34z" />
    <glyph glyph-name="eth" unicode="&#xf0;" horiz-adv-x="576" 
d="M178 589l-12 23l147 79q-44 38 -114 82h47q56 -34 95 -67l120 64l12 -23l-111 -60q173 -158 173 -382q0 -135 -74 -224t-198 -89q-100 0 -163 68t-63 170q0 122 74.5 211t194.5 89q128 0 184 -106q-39 141 -156 248zM72 229q0 -87 51.5 -147t139.5 -60q108 0 172.5 78
t64.5 194q0 92 -52 149.5t-139 57.5q-108 0 -172.5 -79.5t-64.5 -192.5z" />
    <glyph glyph-name="ntilde" unicode="&#xf1;" horiz-adv-x="567" 
d="M39 0l60 384q11 67 15 139h33q-2 -58 -11 -115q28 54 81 88.5t121 34.5q89 0 133 -56t27 -164l-49 -311h-35l50 316q15 91 -21 138t-110 47q-75 0 -135.5 -50t-74.5 -137l-50 -314h-34zM394 615q-26 0 -69 29t-61 29q-19 0 -34.5 -15t-21.5 -43h-28q9 43 31.5 65.5
t53.5 22.5q25 0 68 -29.5t61 -29.5t33.5 15.5t21.5 43.5h28q-9 -43 -31 -65.5t-52 -22.5z" />
    <glyph glyph-name="ograve" unicode="&#xf2;" horiz-adv-x="573" 
d="M265 -7q-101 0 -164.5 68t-63.5 168q0 125 75.5 213t197.5 88q102 0 163.5 -68t61.5 -168q0 -130 -74 -215.5t-196 -85.5zM266 22q106 0 170 77t64 195q0 88 -51 147.5t-140 59.5q-109 0 -173 -78.5t-64 -193.5q0 -88 53 -147.5t141 -59.5zM312 600l-63 147h40l51 -147
h-28z" />
    <glyph glyph-name="oacute" unicode="&#xf3;" horiz-adv-x="573" 
d="M305 600l93 147h43l-106 -147h-30zM265 -7q-101 0 -164.5 68t-63.5 168q0 125 75.5 213t197.5 88q102 0 163.5 -68t61.5 -168q0 -130 -74 -215.5t-196 -85.5zM266 22q106 0 170 77t64 195q0 88 -51 147.5t-140 59.5q-109 0 -173 -78.5t-64 -193.5q0 -88 53 -147.5
t141 -59.5z" />
    <glyph glyph-name="ocircumflex" unicode="&#xf4;" horiz-adv-x="573" 
d="M195 600l127 129h33l94 -129h-29l-84 101l-110 -101h-31zM265 -7q-101 0 -164.5 68t-63.5 168q0 125 75.5 213t197.5 88q102 0 163.5 -68t61.5 -168q0 -130 -74 -215.5t-196 -85.5zM266 22q106 0 170 77t64 195q0 88 -51 147.5t-140 59.5q-109 0 -173 -78.5t-64 -193.5
q0 -88 53 -147.5t141 -59.5z" />
    <glyph glyph-name="otilde" unicode="&#xf5;" horiz-adv-x="573" 
d="M265 -7q-101 0 -164.5 68t-63.5 168q0 125 75.5 213t197.5 88q102 0 163.5 -68t61.5 -168q0 -130 -74 -215.5t-196 -85.5zM266 22q106 0 170 77t64 195q0 88 -51 147.5t-140 59.5q-109 0 -173 -78.5t-64 -193.5q0 -88 53 -147.5t141 -59.5zM393 615q-26 0 -69 29t-61 29
q-19 0 -34.5 -15t-21.5 -43h-28q9 43 31.5 65.5t53.5 22.5q25 0 68 -29.5t61 -29.5t33.5 15.5t21.5 43.5h28q-9 -43 -31 -65.5t-52 -22.5z" />
    <glyph glyph-name="odieresis" unicode="&#xf6;" horiz-adv-x="573" 
d="M252 638q-11 0 -18.5 7.5t-7.5 18.5t7.5 18.5t18.5 7.5t18.5 -7.5t7.5 -18.5q0 -10 -8 -18t-18 -8zM405 638q-11 0 -18.5 7.5t-7.5 18.5q0 10 7.5 18t18.5 8t18.5 -7.5t7.5 -18.5t-7.5 -18.5t-18.5 -7.5zM265 -7q-101 0 -164.5 68t-63.5 168q0 125 75.5 213t197.5 88
q102 0 163.5 -68t61.5 -168q0 -130 -74 -215.5t-196 -85.5zM266 22q106 0 170 77t64 195q0 88 -51 147.5t-140 59.5q-109 0 -173 -78.5t-64 -193.5q0 -88 53 -147.5t141 -59.5z" />
    <glyph glyph-name="divide" unicode="&#xf7;" horiz-adv-x="505" 
d="M46 327l5 30h431l-5 -30h-431zM241 143q-12 0 -20.5 8.5t-8.5 20.5t8.5 20.5t20.5 8.5t20.5 -8.5t8.5 -20.5t-8.5 -20.5t-20.5 -8.5zM288 484q-12 0 -20.5 8t-8.5 20t8 20.5t21 8.5q12 0 20 -8.5t8 -20.5q0 -11 -8 -19.5t-20 -8.5z" />
    <glyph glyph-name="oslash" unicode="&#xf8;" horiz-adv-x="573" 
d="M39 -18l-21 21l69 72q-50 64 -50 154q0 125 75.5 213t197.5 88q94 0 156 -60l66 69l21 -20l-68 -71q50 -66 50 -154q0 -130 -74 -215.5t-196 -85.5q-95 0 -158 60zM266 22q106 0 170 77t64 195q0 75 -37 130l-334 -348q54 -54 137 -54zM72 229q0 -75 38 -130l334 348
q-52 54 -135 54q-109 0 -173 -78.5t-64 -193.5z" />
    <glyph glyph-name="ugrave" unicode="&#xf9;" horiz-adv-x="563" 
d="M521 523l-60 -383q-11 -65 -13 -140h-33q0 47 10 115q-29 -54 -81 -88.5t-120 -34.5q-88 0 -132 56.5t-26 163.5l49 311h34l-50 -315q-15 -91 20 -138.5t109 -47.5q76 0 135.5 50t73.5 137l50 314h34zM312 600l-63 147h40l51 -147h-28z" />
    <glyph glyph-name="uacute" unicode="&#xfa;" horiz-adv-x="563" 
d="M300 600l93 147h43l-106 -147h-30zM521 523l-60 -383q-11 -65 -13 -140h-33q0 47 10 115q-29 -54 -81 -88.5t-120 -34.5q-88 0 -132 56.5t-26 163.5l49 311h34l-50 -315q-15 -91 20 -138.5t109 -47.5q76 0 135.5 50t73.5 137l50 314h34z" />
    <glyph glyph-name="ucircumflex" unicode="&#xfb;" horiz-adv-x="563" 
d="M193 600l127 129h33l94 -129h-29l-84 101l-110 -101h-31zM521 523l-60 -383q-11 -65 -13 -140h-33q0 47 10 115q-29 -54 -81 -88.5t-120 -34.5q-88 0 -132 56.5t-26 163.5l49 311h34l-50 -315q-15 -91 20 -138.5t109 -47.5q76 0 135.5 50t73.5 137l50 314h34z" />
    <glyph glyph-name="udieresis" unicode="&#xfc;" horiz-adv-x="563" 
d="M255 638q-11 0 -18.5 7.5t-7.5 18.5t7.5 18.5t18.5 7.5t18.5 -7.5t7.5 -18.5q0 -10 -7.5 -18t-18.5 -8zM408 638q-11 0 -18.5 7.5t-7.5 18.5q0 10 8 18t18 8q11 0 18.5 -7.5t7.5 -18.5t-7.5 -18.5t-18.5 -7.5zM521 523l-60 -383q-11 -65 -13 -140h-33q0 47 10 115
q-29 -54 -81 -88.5t-120 -34.5q-88 0 -132 56.5t-26 163.5l49 311h34l-50 -315q-15 -91 20 -138.5t109 -47.5q76 0 135.5 50t73.5 137l50 314h34z" />
    <glyph glyph-name="yacute" unicode="&#xfd;" horiz-adv-x="486" 
d="M70 -182l126 224l-131 481h34l121 -443l245 443h37l-395 -705h-37zM272 600l93 147h43l-106 -147h-30z" />
    <glyph glyph-name="thorn" unicode="&#xfe;" horiz-adv-x="597" 
d="M10 -182l151 955h34l-60 -380q30 61 86 99.5t128 38.5q89 0 149 -65.5t60 -170.5q0 -130 -67.5 -216.5t-187.5 -86.5q-88 0 -140 49.5t-65 113.5l-54 -337h-34zM301 22q106 0 164 76.5t58 195.5q0 95 -51 151.5t-127 56.5q-103 0 -167.5 -80.5t-66.5 -188.5
q-1 -97 52.5 -154t137.5 -57z" />
    <glyph glyph-name="ydieresis" unicode="&#xff;" horiz-adv-x="486" 
d="M70 -182l126 224l-131 481h34l121 -443l245 443h37l-395 -705h-37zM228 638q-11 0 -18.5 7.5t-7.5 18.5t7.5 18.5t18.5 7.5t18.5 -7.5t7.5 -18.5q0 -10 -8 -18t-18 -8zM381 638q-11 0 -18.5 7.5t-7.5 18.5q0 10 7.5 18t18.5 8t18.5 -7.5t7.5 -18.5t-7.5 -18.5t-18.5 -7.5
z" />
    <glyph glyph-name="Amacron" unicode="&#x100;" horiz-adv-x="635" 
d="M530 0l-50 228h-339l-119 -228h-36l375 715h48l156 -715h-35zM380 687l-224 -429h317zM276 794l4 29h236l-4 -29h-236z" />
    <glyph glyph-name="amacron" unicode="&#x101;" horiz-adv-x="521" 
d="M204 -7q-84 0 -128 39t-44 103q0 161 227 161h156l7 45q24 160 -135 160q-133 0 -167 -121h-35q19 76 75 113.5t127 37.5q97 0 140 -51t29 -142l-30 -192q-13 -84 -13 -146h-33q0 38 5 86q-25 -41 -72.5 -67t-108.5 -26zM207 21q71 0 124 39.5t63 101.5l17 106h-152
q-90 0 -141.5 -28.5t-51.5 -104.5q0 -51 35 -82.5t106 -31.5zM196 647l5 28h229l-4 -28h-230z" />
    <glyph glyph-name="Abreve" unicode="&#x102;" horiz-adv-x="635" 
d="M530 0l-50 228h-339l-119 -228h-36l375 715h48l156 -715h-35zM380 687l-224 -429h317zM390 773q-51 0 -82.5 33t-32.5 84h30q2 -40 25 -64t61 -24t66.5 24t35.5 64h29q-7 -51 -45 -84t-87 -33z" />
    <glyph glyph-name="abreve" unicode="&#x103;" horiz-adv-x="521" 
d="M204 -7q-84 0 -128 39t-44 103q0 161 227 161h156l7 45q24 160 -135 160q-133 0 -167 -121h-35q19 76 75 113.5t127 37.5q97 0 140 -51t29 -142l-30 -192q-13 -84 -13 -146h-33q0 38 5 86q-25 -41 -72.5 -67t-108.5 -26zM207 21q71 0 124 39.5t63 101.5l17 106h-152
q-90 0 -141.5 -28.5t-51.5 -104.5q0 -51 35 -82.5t106 -31.5zM305 614q-50 0 -79 31t-30 83h30q2 -40 22.5 -62.5t57.5 -22.5t63 22.5t33 62.5h29q-7 -52 -43 -83t-83 -31z" />
    <glyph glyph-name="Aogonek" unicode="&#x104;" horiz-adv-x="635" 
d="M432 -112q0 62 97 114l-49 226h-339l-119 -228h-36l375 715h48l156 -715q-19 -11 -32 -19.5t-31 -23t-27.5 -31.5t-9.5 -35q0 -46 54 -46q23 0 46 8l-5 -27q-24 -8 -47 -8q-39 0 -60.5 19t-20.5 51zM380 687l-224 -429h317z" />
    <glyph glyph-name="aogonek" unicode="&#x105;" horiz-adv-x="521" 
d="M363 -182q-39 0 -60.5 19t-20.5 51q0 60 98 116q0 35 5 82q-25 -41 -72.5 -67t-108.5 -26q-84 0 -128 39t-44 103q0 161 227 161h156l7 45q24 160 -135 160q-133 0 -167 -121h-35q19 76 75 113.5t127 37.5q97 0 140 -51t29 -142l-30 -192q-13 -84 -13 -146
q-20 -12 -31 -19.5t-30 -23t-28 -32t-9 -34.5q0 -46 54 -46q23 0 46 8l-5 -27q-24 -8 -47 -8zM207 21q71 0 124 39.5t63 101.5l17 106h-152q-90 0 -141.5 -28.5t-51.5 -104.5q0 -51 35 -82.5t106 -31.5z" />
    <glyph glyph-name="Cacute" unicode="&#x106;" horiz-adv-x="724" 
d="M371 -7q-144 0 -228 86t-84 233q0 172 104 291t272 119q103 0 177.5 -57.5t87.5 -158.5h-33q-16 88 -78.5 137t-154.5 49q-102 0 -180 -52t-117.5 -138t-39.5 -190q0 -135 72.5 -211.5t201.5 -76.5q99 0 171.5 52.5t103.5 148.5h35q-32 -110 -116 -171t-194 -61zM421 771
l78 120h43l-90 -120h-31z" />
    <glyph glyph-name="cacute" unicode="&#x107;" horiz-adv-x="543" 
d="M296 600l93 147h43l-106 -147h-30zM272 -7q-107 0 -169 65.5t-62 172.5q0 129 76.5 214t193.5 85q84 0 138.5 -46t59.5 -125h-34q-4 65 -49 103.5t-117 38.5q-104 0 -168.5 -77t-64.5 -193q0 -96 53 -152.5t143 -56.5q73 0 125.5 39.5t70.5 112.5h33q-20 -87 -81.5 -134
t-147.5 -47z" />
    <glyph glyph-name="Ccircumflex" unicode="&#x108;" horiz-adv-x="724" 
d="M312 771l127 120h33l96 -120h-29l-86 91l-109 -91h-32zM371 -7q-144 0 -228 86t-84 233q0 172 104 291t272 119q103 0 177.5 -57.5t87.5 -158.5h-33q-16 88 -78.5 137t-154.5 49q-102 0 -180 -52t-117.5 -138t-39.5 -190q0 -135 72.5 -211.5t201.5 -76.5q99 0 171.5 52.5
t103.5 148.5h35q-32 -110 -116 -171t-194 -61z" />
    <glyph glyph-name="ccircumflex" unicode="&#x109;" horiz-adv-x="543" 
d="M184 600l127 129h33l94 -129h-29l-84 101l-110 -101h-31zM272 -7q-107 0 -169 65.5t-62 172.5q0 129 76.5 214t193.5 85q84 0 138.5 -46t59.5 -125h-34q-4 65 -49 103.5t-117 38.5q-104 0 -168.5 -77t-64.5 -193q0 -96 53 -152.5t143 -56.5q73 0 125.5 39.5t70.5 112.5
h33q-20 -87 -81.5 -134t-147.5 -47z" />
    <glyph glyph-name="Cdotaccent" unicode="&#x10a;" horiz-adv-x="724" 
d="M371 -7q-144 0 -228 86t-84 233q0 172 104 291t272 119q103 0 177.5 -57.5t87.5 -158.5h-33q-16 88 -78.5 137t-154.5 49q-102 0 -180 -52t-117.5 -138t-39.5 -190q0 -135 72.5 -211.5t201.5 -76.5q99 0 171.5 52.5t103.5 148.5h35q-32 -110 -116 -171t-194 -61zM435 787
q-11 0 -18.5 7.5t-7.5 18.5t8 19t19 8t18.5 -7.5t7.5 -18.5t-8 -19t-19 -8z" />
    <glyph glyph-name="cdotaccent" unicode="&#x10b;" horiz-adv-x="543" 
d="M272 -7q-107 0 -169 65.5t-62 172.5q0 129 76.5 214t193.5 85q84 0 138.5 -46t59.5 -125h-34q-4 65 -49 103.5t-117 38.5q-104 0 -168.5 -77t-64.5 -193q0 -96 53 -152.5t143 -56.5q73 0 125.5 39.5t70.5 112.5h33q-20 -87 -81.5 -134t-147.5 -47zM322 637q-11 0 -18.5 8
t-7.5 19t8 18.5t19 7.5t18.5 -7.5t7.5 -18.5t-8 -19t-19 -8z" />
    <glyph glyph-name="Ccaron" unicode="&#x10c;" horiz-adv-x="724" 
d="M583 891l-126 -120h-34l-95 120h29l86 -91l109 91h31zM371 -7q-144 0 -228 86t-84 233q0 172 104 291t272 119q103 0 177.5 -57.5t87.5 -158.5h-33q-16 88 -78.5 137t-154.5 49q-102 0 -180 -52t-117.5 -138t-39.5 -190q0 -135 72.5 -211.5t201.5 -76.5q99 0 171.5 52.5
t103.5 148.5h35q-32 -110 -116 -171t-194 -61z" />
    <glyph glyph-name="ccaron" unicode="&#x10d;" horiz-adv-x="543" 
d="M460 742l-128 -129h-33l-93 129h29l84 -100l110 100h31zM272 -7q-107 0 -169 65.5t-62 172.5q0 129 76.5 214t193.5 85q84 0 138.5 -46t59.5 -125h-34q-4 65 -49 103.5t-117 38.5q-104 0 -168.5 -77t-64.5 -193q0 -96 53 -152.5t143 -56.5q73 0 125.5 39.5t70.5 112.5h33
q-20 -87 -81.5 -134t-147.5 -47z" />
    <glyph glyph-name="Dcaron" unicode="&#x10e;" horiz-adv-x="682" 
d="M521 891l-126 -120h-34l-95 120h29l86 -91l109 91h31zM52 0l113 715h172q156 0 236.5 -84t80.5 -220q0 -190 -109.5 -300.5t-297.5 -110.5h-195zM92 31h154q173 0 272.5 101t99.5 279q0 121 -71 197.5t-211 76.5h-140z" />
    <glyph glyph-name="dcaron" unicode="&#x10f;" horiz-adv-x="597" 
d="M631 619l39 154h37l-49 -154h-27zM253 -8q-94 0 -154.5 63.5t-60.5 168.5q0 129 72.5 218t190.5 89q87 0 136 -49t61 -113l65 404h34l-96 -604q-15 -91 -17 -169h-33q0 53 12 129q-29 -62 -83.5 -99.5t-126.5 -37.5zM255 22q104 0 166.5 79.5t63.5 188.5q1 97 -49.5 154
t-133.5 57q-104 0 -166.5 -79t-62.5 -197q0 -94 51.5 -148.5t130.5 -54.5z" />
    <glyph glyph-name="Dcroat" unicode="&#x110;" horiz-adv-x="687" 
d="M36 345l5 30h75l54 340h172q156 0 236.5 -84t80.5 -220q0 -190 -109.5 -300.5t-297.5 -110.5h-195l54 345h-75zM97 31h154q173 0 272.5 101t99.5 279q0 122 -71 198t-211 76h-140l-50 -310h210l-5 -30h-210z" />
    <glyph glyph-name="dcroat" unicode="&#x111;" horiz-adv-x="597" 
d="M348 629l4 27h192l19 117h34l-19 -117h80l-4 -27h-80l-73 -460q-15 -91 -17 -169h-33q0 53 12 129q-29 -62 -83.5 -99.5t-126.5 -37.5q-94 0 -154.5 63.5t-60.5 168.5q0 129 72.5 218t190.5 89q87 0 136 -49t61 -113l42 260h-192zM302 501q-104 0 -166.5 -79t-62.5 -197
q0 -95 51 -149t131 -54q104 0 166.5 79.5t63.5 189.5q1 98 -49.5 154t-133.5 56z" />
    <glyph glyph-name="Emacron" unicode="&#x112;" horiz-adv-x="568" 
d="M52 0l113 715h401l-5 -30h-365l-48 -301h302l-5 -31h-301l-52 -322h390l-6 -31h-424zM253 794l4 29h236l-4 -29h-236z" />
    <glyph glyph-name="emacron" unicode="&#x113;" horiz-adv-x="535" 
d="M74 217q0 -94 46.5 -144.5t136.5 -50.5q138 0 186 122h34q-25 -74 -83 -113t-138 -39q-105 0 -161.5 60.5t-56.5 165.5q0 130 73 221t191 91q110 0 161.5 -69.5t33.5 -182.5l-2 -14h-419q-2 -30 -2 -47zM301 501q-87 0 -145 -57t-76 -151h385q12 95 -29 151.5t-135 56.5z
M202 647l5 28h229l-4 -28h-230z" />
    <glyph glyph-name="Ebreve" unicode="&#x114;" horiz-adv-x="568" 
d="M52 0l113 715h401l-5 -30h-365l-48 -301h302l-5 -31h-301l-52 -322h390l-6 -31h-424zM370 773q-51 0 -82.5 33t-32.5 84h30q2 -40 25 -64t61 -24t66.5 24t35.5 64h29q-7 -51 -45 -84t-87 -33z" />
    <glyph glyph-name="ebreve" unicode="&#x115;" horiz-adv-x="535" 
d="M74 217q0 -94 46.5 -144.5t136.5 -50.5q138 0 186 122h34q-25 -74 -83 -113t-138 -39q-105 0 -161.5 60.5t-56.5 165.5q0 130 73 221t191 91q110 0 161.5 -69.5t33.5 -182.5l-2 -14h-419q-2 -30 -2 -47zM301 501q-87 0 -145 -57t-76 -151h385q12 95 -29 151.5t-135 56.5z
M313 614q-50 0 -79 31t-30 83h30q2 -40 22.5 -62.5t57.5 -22.5t63 22.5t33 62.5h29q-7 -52 -43 -83t-83 -31z" />
    <glyph glyph-name="Edotaccent" unicode="&#x116;" horiz-adv-x="568" 
d="M369 787q-11 0 -18.5 7.5t-7.5 18.5t8 19t19 8t18.5 -7.5t7.5 -18.5t-8 -19t-19 -8zM52 0l113 715h401l-5 -30h-365l-48 -301h302l-5 -31h-301l-52 -322h390l-6 -31h-424z" />
    <glyph glyph-name="edotaccent" unicode="&#x117;" horiz-adv-x="535" 
d="M74 217q0 -94 46.5 -144.5t136.5 -50.5q138 0 186 122h34q-25 -74 -83 -113t-138 -39q-105 0 -161.5 60.5t-56.5 165.5q0 130 73 221t191 91q110 0 161.5 -69.5t33.5 -182.5l-2 -14h-419q-2 -30 -2 -47zM301 501q-87 0 -145 -57t-76 -151h385q12 95 -29 151.5t-135 56.5z
M318 637q-11 0 -18.5 8t-7.5 19t8 18.5t19 7.5t18.5 -7.5t7.5 -18.5t-8 -19t-19 -8z" />
    <glyph glyph-name="Eogonek" unicode="&#x118;" horiz-adv-x="568" 
d="M52 0l113 715h401l-5 -30h-365l-48 -301h302l-5 -31h-301l-52 -322h389l-5 -31h-53q-101 -54 -101 -110q0 -45 53 -45q25 0 46 8l-5 -27q-24 -8 -46 -8q-40 0 -61 18.5t-21 50.5q0 60 92 113h-328z" />
    <glyph glyph-name="eogonek" unicode="&#x119;" horiz-adv-x="535" 
d="M299 -182q-40 0 -61 19t-21 51q0 58 87 108q-24 -4 -48 -4q-105 0 -161.5 60.5t-56.5 165.5q0 130 73 221t191 91q110 0 161.5 -69.5t33.5 -182.5l-2 -14h-419q-2 -16 -2 -47q0 -94 46.5 -144.5t136.5 -50.5q138 0 186 122h34q-23 -66 -73 -105q-17 -13 -65 -44.5
t-68 -53.5t-20 -50q0 -46 53 -46q25 0 46 8l-4 -27q-26 -8 -47 -8zM301 501q-87 0 -145 -57.5t-75 -150.5h384q12 95 -29 151.5t-135 56.5z" />
    <glyph glyph-name="Ecaron" unicode="&#x11a;" horiz-adv-x="568" 
d="M508 891l-126 -120h-34l-95 120h29l86 -91l109 91h31zM52 0l113 715h401l-5 -30h-365l-48 -301h302l-5 -31h-301l-52 -322h390l-6 -31h-424z" />
    <glyph glyph-name="ecaron" unicode="&#x11b;" horiz-adv-x="535" 
d="M74 217q0 -94 46.5 -144.5t136.5 -50.5q138 0 186 122h34q-25 -74 -83 -113t-138 -39q-105 0 -161.5 60.5t-56.5 165.5q0 130 73 221t191 91q110 0 161.5 -69.5t33.5 -182.5l-2 -14h-419q-2 -30 -2 -47zM301 501q-87 0 -145 -57t-76 -151h385q12 95 -29 151.5t-135 56.5z
M455 742l-128 -129h-33l-93 129h29l84 -100l110 100h31z" />
    <glyph glyph-name="Gcircumflex" unicode="&#x11c;" horiz-adv-x="751" 
d="M313 771l127 120h33l96 -120h-29l-86 91l-109 -91h-32zM386 -7q-152 0 -238.5 90.5t-86.5 232.5q0 170 105 288t267 118q107 0 183.5 -52t89.5 -151h-36q-11 84 -77 128.5t-160 44.5q-149 0 -242 -108t-93 -268q0 -129 76 -210.5t212 -81.5q123 0 198 72.5t90 213.5h-231
l5 31h266q-14 -178 -100.5 -263t-227.5 -85z" />
    <glyph glyph-name="gcircumflex" unicode="&#x11d;" horiz-adv-x="601" 
d="M199 600l127 129h33l94 -129h-29l-84 101l-110 -101h-31zM259 46q101 1 166.5 79.5t65.5 189.5q0 82 -48.5 134t-134.5 52q-102 1 -165.5 -74.5t-63.5 -186.5q0 -85 47.5 -139.5t132.5 -54.5zM562 523l-80 -505q-16 -102 -80 -153t-166 -51q-94 0 -154 41t-70 115h35
q10 -60 59.5 -93.5t128.5 -33.5q90 0 144.5 44.5t68.5 132.5l21 131q-30 -57 -84 -95t-129 -38q-96 0 -154 61t-58 160q0 123 74 207.5t190 84.5q79 0 130 -40.5t67 -108.5l22 141h35z" />
    <glyph glyph-name="Gbreve" unicode="&#x11e;" horiz-adv-x="751" 
d="M439 773q-51 0 -82.5 33t-32.5 84h30q2 -40 25 -64t61 -24t66.5 24t35.5 64h29q-7 -51 -45 -84t-87 -33zM386 -7q-152 0 -238.5 90.5t-86.5 232.5q0 170 105 288t267 118q107 0 183.5 -52t89.5 -151h-36q-11 84 -77 128.5t-160 44.5q-149 0 -242 -108t-93 -268
q0 -129 76 -210.5t212 -81.5q123 0 198 72.5t90 213.5h-231l5 31h266q-14 -178 -100.5 -263t-227.5 -85z" />
    <glyph glyph-name="gbreve" unicode="&#x11f;" horiz-adv-x="601" 
d="M259 46q101 1 166.5 79.5t65.5 189.5q0 82 -48.5 134t-134.5 52q-102 1 -165.5 -74.5t-63.5 -186.5q0 -85 47.5 -139.5t132.5 -54.5zM562 523l-80 -505q-16 -102 -80 -153t-166 -51q-94 0 -154 41t-70 115h35q10 -60 59.5 -93.5t128.5 -33.5q90 0 144.5 44.5t68.5 132.5
l21 131q-30 -57 -84 -95t-129 -38q-96 0 -154 61t-58 160q0 123 74 207.5t190 84.5q79 0 130 -40.5t67 -108.5l22 141h35zM332 614q-50 0 -79 31t-30 83h30q2 -40 22.5 -62.5t57.5 -22.5t63 22.5t33 62.5h29q-7 -52 -43 -83t-83 -31z" />
    <glyph glyph-name="Gdotaccent" unicode="&#x120;" horiz-adv-x="751" 
d="M445 787q-11 0 -18.5 7.5t-7.5 18.5t8 19t19 8t18.5 -7.5t7.5 -18.5t-8 -19t-19 -8zM386 -7q-152 0 -238.5 90.5t-86.5 232.5q0 170 105 288t267 118q107 0 183.5 -52t89.5 -151h-36q-11 84 -77 128.5t-160 44.5q-149 0 -242 -108t-93 -268q0 -129 76 -210.5t212 -81.5
q123 0 198 72.5t90 213.5h-231l5 31h266q-14 -178 -100.5 -263t-227.5 -85z" />
    <glyph glyph-name="gdotaccent" unicode="&#x121;" horiz-adv-x="601" 
d="M259 46q101 1 166.5 79.5t65.5 189.5q0 82 -48.5 134t-134.5 52q-102 1 -165.5 -74.5t-63.5 -186.5q0 -85 47.5 -139.5t132.5 -54.5zM562 523l-80 -505q-16 -102 -80 -153t-166 -51q-94 0 -154 41t-70 115h35q10 -60 59.5 -93.5t128.5 -33.5q90 0 144.5 44.5t68.5 132.5
l21 131q-30 -57 -84 -95t-129 -38q-96 0 -154 61t-58 160q0 123 74 207.5t190 84.5q79 0 130 -40.5t67 -108.5l22 141h35zM338 637q-11 0 -18.5 8t-7.5 19t8 18.5t19 7.5t18.5 -7.5t7.5 -18.5t-8 -19t-19 -8z" />
    <glyph glyph-name="Gcommaaccent" unicode="&#x122;" horiz-adv-x="751" 
d="M272 -195l-23 12l68 139l34 -10zM386 -7q-152 0 -238.5 90.5t-86.5 232.5q0 170 105 288t267 118q107 0 183.5 -52t89.5 -151h-36q-11 84 -77 128.5t-160 44.5q-149 0 -242 -108t-93 -268q0 -129 76 -210.5t212 -81.5q123 0 198 72.5t90 213.5h-231l5 31h266
q-14 -178 -100.5 -263t-227.5 -85z" />
    <glyph glyph-name="gcommaaccent" unicode="&#x123;" horiz-adv-x="601" 
d="M379 761l23 -12l-68 -139l-34 10zM259 46q101 1 166.5 79.5t65.5 189.5q0 82 -48.5 134t-134.5 52q-102 1 -165.5 -74.5t-63.5 -186.5q0 -85 47.5 -139.5t132.5 -54.5zM562 523l-80 -505q-16 -102 -80 -153t-166 -51q-94 0 -154 41t-70 115h35q10 -60 59.5 -93.5
t128.5 -33.5q90 0 144.5 44.5t68.5 132.5l21 131q-30 -57 -84 -95t-129 -38q-96 0 -154 61t-58 160q0 123 74 207.5t190 84.5q79 0 130 -40.5t67 -108.5l22 141h35z" />
    <glyph glyph-name="Hcircumflex" unicode="&#x124;" horiz-adv-x="709" 
d="M52 0l113 715h36l-54 -339h449l54 339h36l-113 -715h-36l55 345h-450l-54 -345h-36zM298 771l127 120h33l96 -120h-29l-86 91l-109 -91h-32z" />
    <glyph glyph-name="hcircumflex" unicode="&#x125;" horiz-adv-x="567" 
d="M39 0l122 773h34l-57 -363q28 52 80 86.5t120 34.5q89 0 133 -56t27 -164l-49 -311h-35l50 316q15 91 -21 138t-110 47q-75 0 -135.5 -50t-74.5 -137l-50 -314h-34zM229 813l127 120h33l96 -120h-29l-86 91l-109 -91h-32z" />
    <glyph glyph-name="Hbar" unicode="&#x126;" horiz-adv-x="709" 
d="M49 522l4 28h86l26 165h36l-26 -165h449l26 165h36l-26 -165h86l-4 -28h-87l-82 -522h-36l55 345h-450l-54 -345h-36l82 522h-85zM147 376h449l23 146h-449z" />
    <glyph glyph-name="hbar" unicode="&#x127;" horiz-adv-x="567" 
d="M58 629l5 27h79l19 117h34l-19 -117h192l-5 -27h-191l-34 -219q28 52 80 86.5t120 34.5q89 0 133 -56t27 -164l-49 -311h-35l50 316q15 92 -20.5 138.5t-110.5 46.5t-135.5 -50t-74.5 -137l-50 -314h-34l99 629h-80z" />
    <glyph glyph-name="Itilde" unicode="&#x128;" horiz-adv-x="234" 
d="M57 0l113 715h36l-113 -715h-36zM264 774q-26 0 -69 29.5t-61 29.5t-33.5 -15t-21.5 -44h-28q9 43 31 66t53 23q26 0 68.5 -29.5t61.5 -29.5q18 0 33.5 15t21.5 43h27q-8 -42 -30.5 -65t-52.5 -23z" />
    <glyph glyph-name="itilde" unicode="&#x129;" horiz-adv-x="200" 
d="M41 0l82 523h35l-83 -523h-34zM222 615q-26 0 -69 29t-61 29q-19 0 -34.5 -15t-21.5 -43h-28q9 43 31.5 65.5t53.5 22.5q25 0 68 -29.5t61 -29.5t33.5 15.5t21.5 43.5h28q-9 -43 -31 -65.5t-52 -22.5z" />
    <glyph glyph-name="Imacron" unicode="&#x12a;" horiz-adv-x="234" 
d="M57 0l113 715h36l-113 -715h-36zM84 794l4 29h236l-4 -29h-236z" />
    <glyph glyph-name="imacron" unicode="&#x12b;" horiz-adv-x="200" 
d="M80 647l5 28h161l-5 -28h-161zM41 0l82 523h35l-83 -523h-34z" />
    <glyph glyph-name="Ibreve" unicode="&#x12c;" horiz-adv-x="234" 
d="M57 0l113 715h36l-113 -715h-36zM196 773q-51 0 -82.5 33t-32.5 84h30q2 -40 25 -64t61 -24t66.5 24t35.5 64h29q-7 -51 -45 -84t-87 -33z" />
    <glyph glyph-name="ibreve" unicode="&#x12d;" horiz-adv-x="200" 
d="M41 0l82 523h35l-83 -523h-34zM155 614q-50 0 -79 31t-30 83h30q2 -40 22.5 -62.5t57.5 -22.5t63 22.5t33 62.5h29q-7 -52 -43 -83t-83 -31z" />
    <glyph glyph-name="Iogonek" unicode="&#x12e;" horiz-adv-x="234" 
d="M55 -182q-39 0 -60.5 19t-21.5 51q0 57 85 115l112 712h36l-113 -713q-28 -21 -40 -31t-29 -34t-17 -46q0 -46 54 -46q23 0 46 8l-5 -27q-24 -8 -47 -8z" />
    <glyph glyph-name="iogonek" unicode="&#x12f;" horiz-adv-x="200" 
d="M42 3l81 520h35l-82 -521q-26 -20 -38.5 -31t-28.5 -34t-16 -46q0 -46 53 -46q25 0 46 8l-4 -27q-26 -8 -47 -8q-39 0 -60.5 19t-21.5 51q0 59 83 115zM161 637q-11 0 -18.5 8t-7.5 19t8 18.5t19 7.5t18.5 -7.5t7.5 -18.5t-8 -19t-19 -8z" />
    <glyph glyph-name="Idotaccent" unicode="&#x130;" horiz-adv-x="234" 
d="M57 0l113 715h36l-113 -715h-36zM200 787q-11 0 -18.5 7.5t-7.5 18.5t8 19t19 8t18.5 -7.5t7.5 -18.5t-8 -19t-19 -8z" />
    <glyph glyph-name="dotlessi" unicode="&#x131;" horiz-adv-x="200" 
d="M41 0l82 523h35l-83 -523h-34z" />
    <glyph glyph-name="IJ" unicode="&#x132;" horiz-adv-x="590" 
d="M47 0l113 715h36l-113 -715h-36zM304 -5q-70 0 -117 28l5 31q53 -29 111 -29q120 0 143 137l87 553h36l-88 -556q-25 -164 -177 -164z" />
    <glyph glyph-name="ij" unicode="&#x133;" horiz-adv-x="401" 
d="M161 637q-11 0 -18.5 8t-7.5 19t8 18.5t19 7.5t18.5 -7.5t7.5 -18.5t-8 -19t-19 -8zM41 0l82 523h35l-83 -523h-34zM135 -186l5 30q42 2 62 22.5t28 66.5l93 590h35l-94 -592q-10 -61 -40 -88t-89 -29zM361 637q-11 0 -18.5 8t-7.5 19t8 18.5t19 7.5t18.5 -7.5t7.5 -18.5
t-8 -19t-19 -8z" />
    <glyph glyph-name="Jcircumflex" unicode="&#x134;" horiz-adv-x="389" 
d="M234 771l127 120h33l96 -120h-29l-86 91l-109 -91h-32zM114 -5q-70 0 -117 28l5 31q53 -29 111 -29q120 0 143 137l87 553h36l-88 -556q-25 -164 -177 -164z" />
    <glyph glyph-name="jcircumflex" unicode="&#x135;" horiz-adv-x="200" 
d="M-65 -186l5 30q42 2 62 22.5t28 66.5l93 590h35l-94 -592q-10 -61 -40 -88t-89 -29zM20 600l127 129h33l94 -129h-29l-84 101l-110 -101h-31z" />
    <glyph glyph-name="Kcommaaccent" unicode="&#x136;" horiz-adv-x="588" 
d="M210 -195l-23 12l68 139l34 -10zM517 0h-43l-322 368l415 347h45l-417 -347zM52 0l113 715h36l-113 -715h-36z" />
    <glyph glyph-name="kcommaaccent" unicode="&#x137;" horiz-adv-x="467" 
d="M142 -195l-23 12l68 139l34 -10zM366 0l-245 282l306 241h45l-309 -242l244 -281h-41zM39 0l122 773h34l-122 -773h-34z" />
    <glyph glyph-name="Lacute" unicode="&#x139;" horiz-adv-x="528" 
d="M173 771l78 120h43l-90 -120h-31zM52 0l113 715h36l-109 -684h361l-5 -31h-396z" />
    <glyph glyph-name="lacute" unicode="&#x13a;" horiz-adv-x="201" 
d="M172 813l78 120h43l-90 -120h-31zM41 0l122 773h35l-122 -773h-35z" />
    <glyph glyph-name="Lcommaaccent" unicode="&#x13b;" horiz-adv-x="528" 
d="M180 -195l-23 12l68 139l34 -10zM52 0l113 715h36l-109 -684h361l-5 -31h-396z" />
    <glyph glyph-name="lcommaaccent" unicode="&#x13c;" horiz-adv-x="201" 
d="M-7 -195l-23 12l68 139l34 -10zM41 0l122 773h35l-122 -773h-35z" />
    <glyph glyph-name="Lcaron" unicode="&#x13d;" horiz-adv-x="528" 
d="M371 558l46 157h38l-56 -157h-28zM52 0l113 715h36l-109 -684h361l-5 -31h-396z" />
    <glyph glyph-name="lcaron" unicode="&#x13e;" horiz-adv-x="201" 
d="M231 619l39 154h37l-49 -154h-27zM41 0l122 773h35l-122 -773h-35z" />
    <glyph glyph-name="Ldot" unicode="&#x13f;" horiz-adv-x="528" 
d="M52 0l113 715h36l-109 -684h361l-5 -31h-396zM440 342q-12 0 -20.5 8.5t-8.5 20.5t8 20.5t21 8.5q12 0 20.5 -8.5t8.5 -20.5t-8.5 -20.5t-20.5 -8.5z" />
    <glyph glyph-name="ldot" unicode="&#x140;" horiz-adv-x="249" 
d="M41 0l122 773h35l-122 -773h-35zM241 348q-12 0 -20.5 8.5t-8.5 20.5t8 20.5t21 8.5q12 0 20.5 -8.5t8.5 -20.5t-8.5 -20.5t-20.5 -8.5z" />
    <glyph glyph-name="Lslash" unicode="&#x141;" horiz-adv-x="539" 
d="M29 263l5 31l81 28l62 393h36l-61 -379l251 88l-4 -31l-252 -89l-43 -273h360l-4 -31h-396l46 291z" />
    <glyph glyph-name="lslash" unicode="&#x142;" horiz-adv-x="224" 
d="M29 344l6 33l85 52l55 344h34l-51 -321l90 55l-5 -33l-90 -55l-66 -419h-34l62 396z" />
    <glyph glyph-name="Nacute" unicode="&#x143;" horiz-adv-x="707" 
d="M423 771l78 120h43l-90 -120h-31zM52 0l113 715h49l329 -667l106 667h35l-113 -715h-43l-334 678l-107 -678h-35z" />
    <glyph glyph-name="nacute" unicode="&#x144;" horiz-adv-x="567" 
d="M309 600l93 147h43l-106 -147h-30zM39 0l60 384q11 67 15 139h33q-2 -58 -11 -115q28 54 81 88.5t121 34.5q89 0 133 -56t27 -164l-49 -311h-35l50 316q15 91 -21 138t-110 47q-75 0 -135.5 -50t-74.5 -137l-50 -314h-34z" />
    <glyph glyph-name="Ncommaaccent" unicode="&#x145;" horiz-adv-x="707" 
d="M250 -195l-23 12l68 139l34 -10zM52 0l113 715h49l329 -667l106 667h35l-113 -715h-43l-334 678l-107 -678h-35z" />
    <glyph glyph-name="ncommaaccent" unicode="&#x146;" horiz-adv-x="567" 
d="M183 -195l-23 12l68 139l34 -10zM39 0l60 384q11 67 15 139h33q-2 -58 -11 -115q28 54 81 88.5t121 34.5q89 0 133 -56t27 -164l-49 -311h-35l50 316q15 91 -21 138t-110 47q-75 0 -135.5 -50t-74.5 -137l-50 -314h-34z" />
    <glyph glyph-name="Ncaron" unicode="&#x147;" horiz-adv-x="707" 
d="M585 891l-126 -120h-34l-95 120h29l86 -91l109 91h31zM52 0l113 715h49l329 -667l106 667h35l-113 -715h-43l-334 678l-107 -678h-35z" />
    <glyph glyph-name="ncaron" unicode="&#x148;" horiz-adv-x="567" 
d="M473 742l-128 -129h-33l-93 129h29l84 -100l110 100h31zM39 0l60 384q11 67 15 139h33q-2 -58 -11 -115q28 54 81 88.5t121 34.5q89 0 133 -56t27 -164l-49 -311h-35l50 316q15 91 -21 138t-110 47q-75 0 -135.5 -50t-74.5 -137l-50 -314h-34z" />
    <glyph glyph-name="napostrophe" unicode="&#x149;" horiz-adv-x="580" 
d="M46 553l-23 11l77 156l32 -15zM51 0l60 384q11 67 15 139h33q-2 -58 -11 -115q28 54 81 88.5t121 34.5q89 0 133 -56t27 -164l-49 -311h-35l50 316q15 91 -21 138t-110 47q-75 0 -135.5 -50t-74.5 -137l-50 -314h-34z" />
    <glyph glyph-name="Eng" unicode="&#x14a;" horiz-adv-x="707" 
d="M374 -158q135 0 159 149l-339 687l-107 -678h-35l113 715h50l329 -663l105 663h35l-113 -718q-30 -186 -195 -186q-59 0 -103 22l5 31q46 -22 96 -22z" />
    <glyph glyph-name="eng" unicode="&#x14b;" horiz-adv-x="567" 
d="M39 0l60 384q11 67 15 139h33q-2 -59 -11 -116q28 54 81 89t121 35q89 0 133 -56t27 -164l-56 -356q-13 -76 -44 -106.5t-101 -34.5l5 30q51 4 73.5 27t32.5 86l56 359q15 91 -21 138t-110 47q-75 0 -135.5 -50t-74.5 -137l-50 -314h-34z" />
    <glyph glyph-name="Omacron" unicode="&#x14c;" horiz-adv-x="788" 
d="M342 794l4 29h236l-4 -29h-236zM757 392q0 -163 -105.5 -281t-267.5 -118q-148 0 -236.5 94t-88.5 239q0 78 28 150.5t77 126.5t120 86.5t152 32.5q144 0 232.5 -94t88.5 -236zM721 392q0 127 -77.5 213.5t-208.5 86.5q-148 0 -242.5 -107t-96.5 -259q-2 -130 77 -216
t211 -86q148 0 242 107.5t95 260.5z" />
    <glyph glyph-name="omacron" unicode="&#x14d;" horiz-adv-x="573" 
d="M218 647l5 28h229l-4 -28h-230zM265 -7q-101 0 -164.5 68t-63.5 168q0 125 75.5 213t197.5 88q102 0 163.5 -68t61.5 -168q0 -130 -74 -215.5t-196 -85.5zM266 22q106 0 170 77t64 195q0 88 -51 147.5t-140 59.5q-109 0 -173 -78.5t-64 -193.5q0 -88 53 -147.5t141 -59.5
z" />
    <glyph glyph-name="Obreve" unicode="&#x14e;" horiz-adv-x="788" 
d="M452 773q-51 0 -82.5 33t-32.5 84h30q2 -40 25 -64t61 -24t66.5 24t35.5 64h29q-7 -51 -45 -84t-87 -33zM757 392q0 -163 -105.5 -281t-267.5 -118q-148 0 -236.5 94t-88.5 239q0 78 28 150.5t77 126.5t120 86.5t152 32.5q144 0 232.5 -94t88.5 -236zM721 392
q0 127 -77.5 213.5t-208.5 86.5q-148 0 -242.5 -107t-96.5 -259q-2 -130 77 -216t211 -86q148 0 242 107.5t95 260.5z" />
    <glyph glyph-name="obreve" unicode="&#x14f;" horiz-adv-x="573" 
d="M265 -7q-101 0 -164.5 68t-63.5 168q0 125 75.5 213t197.5 88q102 0 163.5 -68t61.5 -168q0 -130 -74 -215.5t-196 -85.5zM266 22q106 0 170 77t64 195q0 88 -51 147.5t-140 59.5q-109 0 -173 -78.5t-64 -193.5q0 -88 53 -147.5t141 -59.5zM329 614q-50 0 -79 31t-30 83
h30q2 -40 22.5 -62.5t57.5 -22.5t63 22.5t33 62.5h29q-7 -52 -43 -83t-83 -31z" />
    <glyph glyph-name="Ohungarumlaut" unicode="&#x150;" horiz-adv-x="788" 
d="M374 771l59 120h39l-70 -120h-28zM492 771l59 120h39l-70 -120h-28zM757 392q0 -163 -105.5 -281t-267.5 -118q-148 0 -236.5 94t-88.5 239q0 78 28 150.5t77 126.5t120 86.5t152 32.5q144 0 232.5 -94t88.5 -236zM721 392q0 127 -77.5 213.5t-208.5 86.5
q-148 0 -242.5 -107t-96.5 -259q-2 -130 77 -216t211 -86q148 0 242 107.5t95 260.5z" />
    <glyph glyph-name="ohungarumlaut" unicode="&#x151;" horiz-adv-x="573" 
d="M255 600l75 147h40l-86 -147h-29zM373 600l75 147h40l-86 -147h-29zM265 -7q-101 0 -164.5 68t-63.5 168q0 125 75.5 213t197.5 88q102 0 163.5 -68t61.5 -168q0 -130 -74 -215.5t-196 -85.5zM266 22q106 0 170 77t64 195q0 88 -51 147.5t-140 59.5q-109 0 -173 -78.5
t-64 -193.5q0 -88 53 -147.5t141 -59.5z" />
    <glyph glyph-name="OE" unicode="&#x152;" horiz-adv-x="957" 
d="M867 0h-489q-156 0 -237.5 84.5t-81.5 220.5q0 189 110 299.5t298 110.5h490l-5 -30h-351l-48 -301h288l-5 -31h-287l-51 -322h374zM565 685h-97q-173 0 -272.5 -101t-99.5 -279q0 -123 71 -199t212 -76h83z" />
    <glyph glyph-name="oe" unicode="&#x153;" horiz-adv-x="993" 
d="M531 217q0 -94 46.5 -144.5t136.5 -50.5q139 0 186 122h35q-26 -75 -83.5 -113.5t-137.5 -38.5q-89 0 -141.5 43.5t-66.5 122.5q-31 -76 -93.5 -120.5t-147.5 -44.5q-101 0 -164.5 68t-63.5 168q0 125 75.5 213t197.5 88q85 0 141.5 -49t72.5 -127q30 80 91 128t145 48
q109 0 160.5 -69.5t34.5 -182.5l-3 -14h-419q-2 -30 -2 -47zM266 22q106 0 170 77t64 195q0 88 -51 147.5t-140 59.5q-109 0 -173 -78.5t-64 -193.5q0 -88 53 -147.5t141 -59.5zM759 501q-87 0 -145.5 -57.5t-76.5 -150.5h386q12 95 -29.5 151.5t-134.5 56.5z" />
    <glyph glyph-name="Racute" unicode="&#x154;" horiz-adv-x="593" 
d="M325 771l78 120h43l-90 -120h-31zM52 0l113 715h170q102 0 160.5 -43.5t57.5 -128.5q0 -189 -217 -205l182 -338h-39l-180 335h-159l-53 -335h-35zM145 365h150q223 0 223 178q0 142 -184 142h-139z" />
    <glyph glyph-name="racute" unicode="&#x155;" horiz-adv-x="331" 
d="M210 600l93 147h43l-106 -147h-30zM39 0l60 384q11 67 15 139h33q-2 -60 -12 -120q61 122 201 125l-5 -31q-83 -3 -139.5 -54t-72.5 -155l-46 -288h-34z" />
    <glyph glyph-name="Rcommaaccent" unicode="&#x156;" horiz-adv-x="593" 
d="M208 -195l-23 12l68 139l34 -10zM52 0l113 715h170q102 0 160.5 -43.5t57.5 -128.5q0 -189 -217 -205l182 -338h-39l-180 335h-159l-53 -335h-35zM145 365h150q223 0 223 178q0 142 -184 142h-139z" />
    <glyph glyph-name="rcommaaccent" unicode="&#x157;" horiz-adv-x="331" 
d="M-12 -195l-23 12l68 139l34 -10zM39 0l60 384q11 67 15 139h33q-2 -60 -12 -120q61 122 201 125l-5 -31q-83 -3 -139.5 -54t-72.5 -155l-46 -288h-34z" />
    <glyph glyph-name="Rcaron" unicode="&#x158;" horiz-adv-x="593" 
d="M486 891l-126 -120h-34l-95 120h29l86 -91l109 91h31zM52 0l113 715h170q102 0 160.5 -43.5t57.5 -128.5q0 -189 -217 -205l182 -338h-39l-180 335h-159l-53 -335h-35zM145 365h150q223 0 223 178q0 142 -184 142h-139z" />
    <glyph glyph-name="rcaron" unicode="&#x159;" horiz-adv-x="331" 
d="M374 742l-128 -129h-33l-93 129h29l84 -100l110 100h31zM39 0l60 384q11 67 15 139h33q-2 -60 -12 -120q61 122 201 125l-5 -31q-83 -3 -139.5 -54t-72.5 -155l-46 -288h-34z" />
    <glyph glyph-name="Sacute" unicode="&#x15a;" horiz-adv-x="583" 
d="M275 -7q-111 0 -178.5 53t-72.5 151h35q8 -83 63.5 -128t152.5 -45q94 -1 151.5 47t57.5 133q0 63 -40.5 96.5t-141.5 61.5q-106 29 -152 67t-46 104q0 88 62 138.5t162 50.5q95 0 152 -43.5t64 -125.5h-34q-18 139 -183 139q-87 0 -137.5 -40.5t-50.5 -117.5
q0 -53 39 -83.5t137 -58.5q111 -30 158 -70t47 -116q0 -98 -68.5 -155.5t-176.5 -57.5zM325 771l78 120h43l-90 -120h-31z" />
    <glyph glyph-name="sacute" unicode="&#x15b;" horiz-adv-x="453" 
d="M241 600l93 147h43l-106 -147h-30zM207 -9q-88 0 -138 42.5t-54 120.5h33q10 -134 160 -134q66 0 107 31t41 89q0 45 -29 69.5t-101 44.5q-84 24 -119.5 53.5t-35.5 84.5q0 66 49.5 102t122.5 36q162 0 173 -136h-33q-9 107 -141 107q-62 0 -100 -27.5t-38 -80.5
q0 -42 29 -64.5t104 -44.5q81 -23 117 -53t36 -90q0 -71 -52 -110.5t-131 -39.5z" />
    <glyph glyph-name="Scircumflex" unicode="&#x15c;" horiz-adv-x="583" 
d="M216 771l127 120h33l96 -120h-29l-86 91l-109 -91h-32zM275 -7q-111 0 -178.5 53t-72.5 151h35q8 -83 63.5 -128t152.5 -45q94 -1 151.5 47t57.5 133q0 63 -40.5 96.5t-141.5 61.5q-106 29 -152 67t-46 104q0 88 62 138.5t162 50.5q95 0 152 -43.5t64 -125.5h-34
q-18 139 -183 139q-87 0 -137.5 -40.5t-50.5 -117.5q0 -53 39 -83.5t137 -58.5q111 -30 158 -70t47 -116q0 -98 -68.5 -155.5t-176.5 -57.5z" />
    <glyph glyph-name="scircumflex" unicode="&#x15d;" horiz-adv-x="453" 
d="M129 600l127 129h33l94 -129h-29l-84 101l-110 -101h-31zM207 -9q-88 0 -138 42.5t-54 120.5h33q10 -134 160 -134q66 0 107 31t41 89q0 45 -29 69.5t-101 44.5q-84 24 -119.5 53.5t-35.5 84.5q0 66 49.5 102t122.5 36q162 0 173 -136h-33q-9 107 -141 107
q-62 0 -100 -27.5t-38 -80.5q0 -42 29 -64.5t104 -44.5q81 -23 117 -53t36 -90q0 -71 -52 -110.5t-131 -39.5z" />
    <glyph glyph-name="Scedilla" unicode="&#x15e;" horiz-adv-x="583" 
d="M215 -211q-39 0 -63 19.5t-27 55.5h32q3 -47 58 -47q24 0 41 12.5t17 40.5q0 21 -12.5 31.5t-31.5 10.5q-24 0 -41 -11l-17 18l53 77q-89 12 -142.5 63t-57.5 138h35q8 -83 63.5 -128t152.5 -45q94 -1 151.5 47t57.5 133q0 63 -40.5 96.5t-141.5 61.5q-106 29 -152 67
t-46 104q0 88 62 138.5t162 50.5q95 0 152 -43.5t64 -125.5h-34q-18 139 -183 139q-87 0 -137.5 -40.5t-50.5 -117.5q0 -53 39 -83.5t137 -58.5q111 -30 158 -70t47 -116q0 -98 -68.5 -155.5t-176.5 -57.5h-22l-39 -58q35 12 63.5 -6.5t28.5 -57.5q0 -38 -25 -60t-66 -22z
" />
    <glyph glyph-name="scedilla" unicode="&#x15f;" horiz-adv-x="453" 
d="M149 -211q-39 0 -63 19.5t-27 55.5h32q3 -47 58 -47q24 0 41 12.5t17 40.5q0 21 -12.5 31.5t-31.5 10.5q-25 0 -41 -11l-17 18l52 76q-66 11 -102.5 51.5t-39.5 107.5h33q10 -134 160 -134q66 0 107 31t41 89q0 45 -29 69.5t-101 44.5q-84 24 -119.5 53.5t-35.5 84.5
q0 66 49.5 102t122.5 36q162 0 173 -136h-33q-9 107 -141 107q-62 0 -100 -27.5t-38 -80.5q0 -42 29 -64.5t104 -44.5q81 -23 117 -53t36 -90q0 -71 -52 -110.5t-131 -39.5h-21l-38 -56q35 12 63.5 -6.5t28.5 -57.5q0 -38 -25 -60t-66 -22z" />
    <glyph glyph-name="Scaron" unicode="&#x160;" horiz-adv-x="583" 
d="M485 891l-126 -120h-34l-95 120h29l86 -91l109 91h31zM275 -7q-111 0 -178.5 53t-72.5 151h35q8 -83 63.5 -128t152.5 -45q94 -1 151.5 47t57.5 133q0 63 -40.5 96.5t-141.5 61.5q-106 29 -152 67t-46 104q0 88 62 138.5t162 50.5q95 0 152 -43.5t64 -125.5h-34
q-18 139 -183 139q-87 0 -137.5 -40.5t-50.5 -117.5q0 -53 39 -83.5t137 -58.5q111 -30 158 -70t47 -116q0 -98 -68.5 -155.5t-176.5 -57.5z" />
    <glyph glyph-name="scaron" unicode="&#x161;" horiz-adv-x="453" 
d="M406 742l-128 -129h-33l-93 129h29l84 -100l110 100h31zM207 -9q-88 0 -138 42.5t-54 120.5h33q10 -134 160 -134q66 0 107 31t41 89q0 45 -29 69.5t-101 44.5q-84 24 -119.5 53.5t-35.5 84.5q0 66 49.5 102t122.5 36q162 0 173 -136h-33q-9 107 -141 107
q-62 0 -100 -27.5t-38 -80.5q0 -42 29 -64.5t104 -44.5q81 -23 117 -53t36 -90q0 -71 -52 -110.5t-131 -39.5z" />
    <glyph glyph-name="Tcommaaccent" unicode="&#x162;" horiz-adv-x="558" 
d="M171 -195l-23 12l68 139l34 -10zM217 0l108 685h-230l5 30h497l-5 -30h-231l-108 -685h-36z" />
    <glyph glyph-name="tcommaaccent" unicode="&#x163;" horiz-adv-x="325" 
d="M79 -195l-23 12l68 139l34 -10zM182 -7q-59 0 -86 36t-17 102l58 363h-79l5 29h78l19 119h34l-19 -119h146l-5 -29h-145l-58 -364q-17 -107 73 -107q37 0 65 11l-5 -29q-27 -12 -64 -12z" />
    <glyph glyph-name="Tcaron" unicode="&#x164;" horiz-adv-x="558" 
d="M497 891l-126 -120h-34l-95 120h29l86 -91l109 91h31zM217 0l108 685h-230l5 30h497l-5 -30h-231l-108 -685h-36z" />
    <glyph glyph-name="tcaron" unicode="&#x165;" horiz-adv-x="325" 
d="M290 619l39 154h37l-49 -154h-27zM182 -7q-59 0 -86 36t-17 102l58 363h-79l5 29h78l19 119h34l-19 -119h146l-5 -29h-145l-58 -364q-17 -107 73 -107q37 0 65 11l-5 -29q-27 -12 -64 -12z" />
    <glyph glyph-name="Tbar" unicode="&#x166;" horiz-adv-x="558" 
d="M123 382l5 28h153l44 275h-230l5 30h497l-5 -30h-231l-44 -275h159l-4 -28h-159l-60 -382h-36l60 382h-154z" />
    <glyph glyph-name="tbar" unicode="&#x167;" horiz-adv-x="325" 
d="M30 315l5 27h78l24 152h-79l5 29h78l19 119h34l-19 -119h146l-5 -29h-145l-24 -152h146l-5 -27h-146l-29 -185q-17 -107 73 -107q37 0 65 11l-5 -29q-27 -12 -64 -12q-59 0 -86 36t-17 102l29 184h-78z" />
    <glyph glyph-name="Utilde" unicode="&#x168;" horiz-adv-x="674" 
d="M318 -5q-135 0 -196.5 71t-41.5 201l71 448h36l-71 -448q-37 -241 203 -241q104 0 160.5 52.5t73.5 163.5l75 473h36l-75 -476q-19 -122 -84.5 -183t-186.5 -61zM480 774q-26 0 -69 29.5t-61 29.5t-33.5 -15t-21.5 -44h-28q9 43 31 66t53 23q26 0 68.5 -29.5t61.5 -29.5
q18 0 33.5 15t21.5 43h27q-8 -42 -30.5 -65t-52.5 -23z" />
    <glyph glyph-name="utilde" unicode="&#x169;" horiz-adv-x="563" 
d="M521 523l-60 -383q-11 -65 -13 -140h-33q0 47 10 115q-29 -54 -81 -88.5t-120 -34.5q-88 0 -132 56.5t-26 163.5l49 311h34l-50 -315q-15 -91 20 -138.5t109 -47.5q76 0 135.5 50t73.5 137l50 314h34zM392 615q-26 0 -69 29t-61 29q-19 0 -34.5 -15t-21.5 -43h-28
q9 43 31.5 65.5t53.5 22.5q25 0 68 -29.5t61 -29.5t33.5 15.5t21.5 43.5h28q-9 -43 -31 -65.5t-52 -22.5z" />
    <glyph glyph-name="Umacron" unicode="&#x16a;" horiz-adv-x="674" 
d="M318 -5q-135 0 -196.5 71t-41.5 201l71 448h36l-71 -448q-37 -241 203 -241q104 0 160.5 52.5t73.5 163.5l75 473h36l-75 -476q-19 -122 -84.5 -183t-186.5 -61zM299 794l4 29h236l-4 -29h-236z" />
    <glyph glyph-name="umacron" unicode="&#x16b;" horiz-adv-x="563" 
d="M521 523l-60 -383q-11 -65 -13 -140h-33q0 47 10 115q-29 -54 -81 -88.5t-120 -34.5q-88 0 -132 56.5t-26 163.5l49 311h34l-50 -315q-15 -91 20 -138.5t109 -47.5q76 0 135.5 50t73.5 137l50 314h34zM215 647l5 28h229l-4 -28h-230z" />
    <glyph glyph-name="Ubreve" unicode="&#x16c;" horiz-adv-x="674" 
d="M318 -5q-135 0 -196.5 71t-41.5 201l71 448h36l-71 -448q-37 -241 203 -241q104 0 160.5 52.5t73.5 163.5l75 473h36l-75 -476q-19 -122 -84.5 -183t-186.5 -61zM411 773q-51 0 -82.5 33t-32.5 84h30q2 -40 25 -64t61 -24t66.5 24t35.5 64h29q-7 -51 -45 -84t-87 -33z
" />
    <glyph glyph-name="ubreve" unicode="&#x16d;" horiz-adv-x="563" 
d="M521 523l-60 -383q-11 -65 -13 -140h-33q0 47 10 115q-29 -54 -81 -88.5t-120 -34.5q-88 0 -132 56.5t-26 163.5l49 311h34l-50 -315q-15 -91 20 -138.5t109 -47.5q76 0 135.5 50t73.5 137l50 314h34zM325 614q-50 0 -79 31t-30 83h30q2 -40 22.5 -62.5t57.5 -22.5
t63 22.5t33 62.5h29q-7 -52 -43 -83t-83 -31z" />
    <glyph glyph-name="Uring" unicode="&#x16e;" horiz-adv-x="674" 
d="M318 -5q-135 0 -196.5 71t-41.5 201l71 448h36l-71 -448q-37 -241 203 -241q104 0 160.5 52.5t73.5 163.5l75 473h36l-75 -476q-19 -122 -84.5 -183t-186.5 -61zM416 747q29 0 48.5 19.5t19.5 50.5q0 29 -18 47t-47 18t-48.5 -20t-19.5 -50q0 -27 18.5 -46t46.5 -19z
M416 725q-39 0 -65 25.5t-26 61.5q0 38 28 65.5t66 27.5q39 0 65 -25.5t26 -62.5q0 -39 -27 -65.5t-67 -26.5z" />
    <glyph glyph-name="uring" unicode="&#x16f;" horiz-adv-x="563" 
d="M336 625q30 0 49 19.5t19 50.5q0 29 -17.5 47t-46.5 18t-48.5 -20t-19.5 -50q0 -27 18.5 -46t45.5 -19zM336 603q-38 0 -64 25.5t-26 61.5q0 38 27.5 65.5t66.5 27.5t64.5 -25.5t25.5 -62.5q0 -39 -27 -65.5t-67 -26.5zM521 523l-60 -383q-11 -65 -13 -140h-33
q0 47 10 115q-29 -54 -81 -88.5t-120 -34.5q-88 0 -132 56.5t-26 163.5l49 311h34l-50 -315q-15 -91 20 -138.5t109 -47.5q76 0 135.5 50t73.5 137l50 314h34z" />
    <glyph glyph-name="Uhungarumlaut" unicode="&#x170;" horiz-adv-x="674" 
d="M331 771l59 120h39l-70 -120h-28zM449 771l59 120h39l-70 -120h-28zM318 -5q-135 0 -196.5 71t-41.5 201l71 448h36l-71 -448q-37 -241 203 -241q104 0 160.5 52.5t73.5 163.5l75 473h36l-75 -476q-19 -122 -84.5 -183t-186.5 -61z" />
    <glyph glyph-name="uhungarumlaut" unicode="&#x171;" horiz-adv-x="563" 
d="M521 523l-60 -383q-11 -65 -13 -140h-33q0 47 10 115q-29 -54 -81 -88.5t-120 -34.5q-88 0 -132 56.5t-26 163.5l49 311h34l-50 -315q-15 -91 20 -138.5t109 -47.5q76 0 135.5 50t73.5 137l50 314h34zM251 600l75 147h40l-86 -147h-29zM369 600l75 147h40l-86 -147h-29z
" />
    <glyph glyph-name="Uogonek" unicode="&#x172;" horiz-adv-x="674" 
d="M322 -182q-39 0 -60 19t-21 51q0 63 91 107h-17q-133 0 -194 71.5t-41 200.5l71 448h36l-71 -448q-37 -241 203 -241q104 0 160.5 53t73.5 166l75 470h36l-75 -476q-27 -176 -154 -224q-91 -35 -121 -58q-40 -30 -40 -66q0 -46 54 -46q23 0 46 8l-5 -27q-24 -8 -47 -8z
" />
    <glyph glyph-name="uogonek" unicode="&#x173;" horiz-adv-x="563" 
d="M521 523l-60 -383q-11 -65 -13 -140q-20 -12 -31 -19.5t-30 -23t-28 -32t-9 -34.5q0 -46 54 -46q23 0 46 8l-5 -27q-24 -8 -47 -8q-39 0 -60.5 19t-20.5 51q0 60 98 116q0 44 10 111q-29 -54 -81 -88.5t-120 -34.5q-88 0 -132 56.5t-26 163.5l49 311h34l-50 -315
q-15 -91 20 -138.5t109 -47.5q76 0 135.5 50t73.5 137l50 314h34z" />
    <glyph glyph-name="Wcircumflex" unicode="&#x174;" horiz-adv-x="905" 
d="M397 771l127 120h33l96 -120h-29l-86 91l-109 -91h-32zM177 0l-80 715h35l74 -661l302 661h24l89 -663l288 663h35l-311 -715h-38l-86 647l-294 -647h-38z" />
    <glyph glyph-name="wcircumflex" unicode="&#x175;" horiz-adv-x="754" 
d="M295 600l127 129h33l94 -129h-29l-84 101l-110 -101h-31zM150 0l-81 523h35l74 -483l225 483h28l77 -483l222 483h36l-243 -523h-41l-73 466l-218 -466h-41z" />
    <glyph glyph-name="Ycircumflex" unicode="&#x176;" horiz-adv-x="564" 
d="M225 0l51 322l-189 393h37l175 -363l269 363h39l-295 -396l-51 -319h-36zM230 771l127 120h33l96 -120h-29l-86 91l-109 -91h-32z" />
    <glyph glyph-name="ycircumflex" unicode="&#x177;" horiz-adv-x="486" 
d="M70 -182l126 224l-131 481h34l121 -443l245 443h37l-395 -705h-37zM160 600l127 129h33l94 -129h-29l-84 101l-110 -101h-31z" />
    <glyph glyph-name="Ydieresis" unicode="&#x178;" horiz-adv-x="564" 
d="M225 0l51 322l-189 393h37l175 -363l269 363h39l-295 -396l-51 -319h-36zM281 788q-11 0 -18.5 7.5t-7.5 17.5q0 11 8 19t19 8q10 0 17.5 -7.5t7.5 -18.5t-7.5 -18.5t-18.5 -7.5zM448 788q-11 0 -18.5 7t-7.5 18t7.5 19t18.5 8t18.5 -7.5t7.5 -18.5q0 -10 -8 -18t-18 -8z
" />
    <glyph glyph-name="Zacute" unicode="&#x179;" horiz-adv-x="582" 
d="M355 771l78 120h43l-90 -120h-31zM-16 0l2 9l571 676h-428l5 30h481l-1 -8l-569 -676h456l-5 -31h-512z" />
    <glyph glyph-name="zacute" unicode="&#x17a;" horiz-adv-x="462" 
d="M267 600l93 147h43l-106 -147h-30zM-17 0l1 7l428 487h-321l5 29h377l-1 -7l-426 -486h342l-6 -30h-399z" />
    <glyph glyph-name="Zdotaccent" unicode="&#x17b;" horiz-adv-x="582" 
d="M-16 0l2 9l571 676h-428l5 30h481l-1 -8l-569 -676h456l-5 -31h-512zM379 787q-11 0 -18.5 7.5t-7.5 18.5t8 19t19 8t18.5 -7.5t7.5 -18.5t-8 -19t-19 -8z" />
    <glyph glyph-name="zdotaccent" unicode="&#x17c;" horiz-adv-x="462" 
d="M-17 0l1 7l428 487h-321l5 29h377l-1 -7l-426 -486h342l-6 -30h-399zM294 637q-11 0 -18.5 8t-7.5 19t8 18.5t19 7.5t18.5 -7.5t7.5 -18.5t-8 -19t-19 -8z" />
    <glyph glyph-name="Zcaron" unicode="&#x17d;" horiz-adv-x="582" 
d="M514 891l-126 -120h-34l-95 120h29l86 -91l109 91h31zM-16 0l2 9l571 676h-428l5 30h481l-1 -8l-569 -676h456l-5 -31h-512z" />
    <glyph glyph-name="zcaron" unicode="&#x17e;" horiz-adv-x="462" 
d="M434 742l-128 -129h-33l-93 129h29l84 -100l110 100h31zM-17 0l1 7l428 487h-321l5 29h377l-1 -7l-426 -486h342l-6 -30h-399z" />
    <glyph glyph-name="florin" unicode="&#x192;" horiz-adv-x="376" 
d="M52 368l5 29h100l32 170q29 157 157 157q43 0 71 -14l-4 -27q-29 12 -66 12q-98 0 -123 -129l-32 -169h145l-5 -29h-146l-104 -550h-35l104 550h-99z" />
    <glyph glyph-name="Aringacute" unicode="&#x1fa;" horiz-adv-x="635" 
d="M530 0l-50 228h-339l-119 -228h-36l375 715h48l156 -715h-35zM380 687l-224 -429h317zM394 750q-39 0 -65 25.5t-26 61.5q0 38 28 65.5t66 27.5q39 0 65 -25.5t26 -62.5q0 -39 -27 -65.5t-67 -26.5zM394 772q29 0 48.5 19.5t19.5 50.5q0 29 -18 47t-47 18t-48.5 -20
t-19.5 -50q0 -27 18.5 -46t46.5 -19zM393 959l78 120h43l-90 -120h-31z" />
    <glyph glyph-name="aringacute" unicode="&#x1fb;" horiz-adv-x="521" 
d="M204 -7q-84 0 -128 39t-44 103q0 161 227 161h156l7 45q24 160 -135 160q-133 0 -167 -121h-35q19 76 75 113.5t127 37.5q97 0 140 -51t29 -142l-30 -192q-13 -84 -13 -146h-33q0 38 5 86q-25 -41 -72.5 -67t-108.5 -26zM207 21q71 0 124 39.5t63 101.5l17 106h-152
q-90 0 -141.5 -28.5t-51.5 -104.5q0 -51 35 -82.5t106 -31.5zM314 620q30 0 49 19.5t19 50.5q0 29 -17.5 47t-46.5 18t-48.5 -20t-19.5 -50q0 -27 18.5 -46t45.5 -19zM314 598q-38 0 -64 25.5t-26 61.5q0 38 27.5 65.5t66.5 27.5t64.5 -25.5t25.5 -62.5q0 -39 -27 -65.5
t-67 -26.5zM325 830l78 120h43l-90 -120h-31z" />
    <glyph glyph-name="AEacute" unicode="&#x1fc;" horiz-adv-x="943" 
d="M-14 0l468 715h489l-5 -30h-365l-48 -301h302l-5 -31h-301l-52 -322h390l-5 -31h-425l36 228h-291l-148 -228h-40zM472 685l-278 -427h275l68 427h-65zM675 771l78 120h43l-90 -120h-31z" />
    <glyph glyph-name="aeacute" unicode="&#x1fd;" horiz-adv-x="897" 
d="M444 217q0 -195 178 -195q136 0 183 122h34q-53 -152 -218 -152q-87 0 -138 41.5t-66 116.5q-20 -78 -79.5 -117.5t-133.5 -39.5q-85 0 -128.5 38.5t-43.5 101.5q0 159 228 159h156l7 49q24 160 -136 160q-133 0 -167 -121h-35q19 76 75 113.5t127 37.5q78 0 120.5 -33.5
t47.5 -95.5q33 60 87.5 94t124.5 34q110 0 159.5 -69t32.5 -183l-3 -14h-410q-2 -30 -2 -47zM206 21q75 0 128 43t65 123l12 77h-152q-42 0 -74.5 -5.5t-60.5 -19t-43 -40.5t-15 -66q0 -51 35 -81.5t105 -30.5zM666 501q-86 0 -142.5 -57t-73.5 -152h377q12 96 -28 152.5
t-133 56.5zM483 600l93 147h43l-106 -147h-30z" />
    <glyph glyph-name="Oslashacute" unicode="&#x1fe;" horiz-adv-x="788" 
d="M54 -19l-21 22l98 102q-72 89 -72 221q0 78 28 150.5t77 126.5t120 86.5t152 32.5q129 0 216 -79l91 94l21 -22l-90 -93q83 -92 83 -230q0 -163 -105.5 -281t-267.5 -118q-143 0 -232 89zM721 392q0 125 -70 206l-476 -492q80 -82 209 -82q148 0 242 107.5t95 260.5z
M96 326q-2 -116 59 -197l475 491q-77 72 -195 72q-148 0 -242.5 -107t-96.5 -259zM433 771l78 120h43l-90 -120h-31z" />
    <glyph glyph-name="oslashacute" unicode="&#x1ff;" horiz-adv-x="573" 
d="M39 -18l-21 21l69 72q-50 64 -50 154q0 125 75.5 213t197.5 88q94 0 156 -60l66 69l21 -20l-68 -71q50 -66 50 -154q0 -130 -74 -215.5t-196 -85.5q-95 0 -158 60zM266 22q106 0 170 77t64 195q0 75 -37 130l-334 -348q54 -54 137 -54zM72 229q0 -75 38 -130l334 348
q-52 54 -135 54q-109 0 -173 -78.5t-64 -193.5zM305 600l93 147h43l-106 -147h-30z" />
    <glyph glyph-name="Scommaaccent" unicode="&#x218;" horiz-adv-x="583" 
d="M179 -195l-23 12l68 139l34 -10zM275 -7q-111 0 -178.5 53t-72.5 151h35q8 -83 63.5 -128t152.5 -45q94 -1 151.5 47t57.5 133q0 63 -40.5 96.5t-141.5 61.5q-106 29 -152 67t-46 104q0 88 62 138.5t162 50.5q95 0 152 -43.5t64 -125.5h-34q-18 139 -183 139
q-87 0 -137.5 -40.5t-50.5 -117.5q0 -53 39 -83.5t137 -58.5q111 -30 158 -70t47 -116q0 -98 -68.5 -155.5t-176.5 -57.5z" />
    <glyph glyph-name="scommaaccent" unicode="&#x219;" horiz-adv-x="453" 
d="M107 -195l-23 12l68 139l34 -10zM207 -9q-88 0 -138 42.5t-54 120.5h33q10 -134 160 -134q66 0 107 31t41 89q0 45 -29 69.5t-101 44.5q-84 24 -119.5 53.5t-35.5 84.5q0 66 49.5 102t122.5 36q162 0 173 -136h-33q-9 107 -141 107q-62 0 -100 -27.5t-38 -80.5
q0 -42 29 -64.5t104 -44.5q81 -23 117 -53t36 -90q0 -71 -52 -110.5t-131 -39.5z" />
    <glyph glyph-name="uni0237" unicode="&#x237;" horiz-adv-x="200" 
d="M-65 -186l5 30q42 2 62 22.5t28 66.5l93 590h35l-94 -592q-10 -61 -40 -88t-89 -29z" />
    <glyph glyph-name="circumflex" unicode="&#x2c6;" horiz-adv-x="400" 
d="M126 600l127 129h33l94 -129h-29l-84 101l-110 -101h-31z" />
    <glyph glyph-name="caron" unicode="&#x2c7;" horiz-adv-x="400" 
d="M399 742l-128 -129h-33l-93 129h29l84 -100l110 100h31z" />
    <glyph glyph-name="breve" unicode="&#x2d8;" horiz-adv-x="400" 
d="M264 614q-50 0 -79 31t-30 83h30q2 -40 22.5 -62.5t57.5 -22.5t63 22.5t33 62.5h29q-7 -52 -43 -83t-83 -31z" />
    <glyph glyph-name="dotaccent" unicode="&#x2d9;" horiz-adv-x="400" 
d="M262 637q-11 0 -18.5 8t-7.5 19t8 18.5t19 7.5t18.5 -7.5t7.5 -18.5t-8 -19t-19 -8z" />
    <glyph glyph-name="ring" unicode="&#x2da;" horiz-adv-x="400" 
d="M266 625q30 0 49 19.5t19 50.5q0 29 -17.5 47t-46.5 18t-48.5 -20t-19.5 -50q0 -27 18.5 -46t45.5 -19zM266 603q-38 0 -64 25.5t-26 61.5q0 38 27.5 65.5t66.5 27.5t64.5 -25.5t25.5 -62.5q0 -39 -27 -65.5t-67 -26.5z" />
    <glyph glyph-name="ogonek" unicode="&#x2db;" horiz-adv-x="400" 
d="M149 -182q-40 0 -61 19t-21 51q0 59 97 112h38q-101 -56 -101 -109q0 -46 54 -46q24 0 45 8l-4 -27q-24 -8 -47 -8z" />
    <glyph glyph-name="tilde" unicode="&#x2dc;" horiz-adv-x="400" 
d="M330 615q-26 0 -69 29t-61 29q-19 0 -34.5 -15t-21.5 -43h-28q9 43 31.5 65.5t53.5 22.5q25 0 68 -29.5t61 -29.5t33.5 15.5t21.5 43.5h28q-9 -43 -31 -65.5t-52 -22.5z" />
    <glyph glyph-name="hungarumlaut" unicode="&#x2dd;" horiz-adv-x="400" 
d="M173 600l75 147h40l-86 -147h-29zM291 600l75 147h40l-86 -147h-29z" />
    <glyph glyph-name="Wgrave" unicode="&#x1e80;" horiz-adv-x="905" 
d="M515 771l-68 120h41l55 -120h-28zM177 0l-80 715h35l74 -661l302 661h24l89 -663l288 663h35l-311 -715h-38l-86 647l-294 -647h-38z" />
    <glyph glyph-name="wgrave" unicode="&#x1e81;" horiz-adv-x="754" 
d="M150 0l-81 523h35l74 -483l225 483h28l77 -483l222 483h36l-243 -523h-41l-73 466l-218 -466h-41zM410 600l-63 147h40l51 -147h-28z" />
    <glyph glyph-name="Wacute" unicode="&#x1e82;" horiz-adv-x="905" 
d="M507 771l78 120h43l-90 -120h-31zM177 0l-80 715h35l74 -661l302 661h24l89 -663l288 663h35l-311 -715h-38l-86 647l-294 -647h-38z" />
    <glyph glyph-name="wacute" unicode="&#x1e83;" horiz-adv-x="754" 
d="M411 600l93 147h43l-106 -147h-30zM150 0l-81 523h35l74 -483l225 483h28l77 -483l222 483h36l-243 -523h-41l-73 466l-218 -466h-41z" />
    <glyph glyph-name="Wdieresis" unicode="&#x1e84;" horiz-adv-x="905" 
d="M447 788q-11 0 -18.5 7.5t-7.5 17.5q0 11 8 19t19 8q10 0 17.5 -7.5t7.5 -18.5t-7.5 -18.5t-18.5 -7.5zM614 788q-11 0 -18.5 7t-7.5 18t7.5 19t18.5 8t18.5 -7.5t7.5 -18.5q0 -10 -8 -18t-18 -8zM177 0l-80 715h35l74 -661l302 661h24l89 -663l288 663h35l-311 -715h-38
l-86 647l-294 -647h-38z" />
    <glyph glyph-name="wdieresis" unicode="&#x1e85;" horiz-adv-x="754" 
d="M360 638q-11 0 -18.5 7.5t-7.5 18.5t7.5 18.5t18.5 7.5t18.5 -7.5t7.5 -18.5q0 -10 -8 -18t-18 -8zM513 638q-11 0 -18.5 7.5t-7.5 18.5q0 10 7.5 18t18.5 8t18.5 -7.5t7.5 -18.5t-7.5 -18.5t-18.5 -7.5zM150 0l-81 523h35l74 -483l225 483h28l77 -483l222 483h36
l-243 -523h-41l-73 466l-218 -466h-41z" />
    <glyph glyph-name="Ygrave" unicode="&#x1ef2;" horiz-adv-x="564" 
d="M225 0l51 322l-189 393h37l175 -363l269 363h39l-295 -396l-51 -319h-36zM349 771l-68 120h41l55 -120h-28z" />
    <glyph glyph-name="ygrave" unicode="&#x1ef3;" horiz-adv-x="486" 
d="M70 -182l126 224l-131 481h34l121 -443l245 443h37l-395 -705h-37zM278 600l-63 147h40l51 -147h-28z" />
    <glyph glyph-name="uni2009" unicode="&#x2009;" horiz-adv-x="108" 
 />
    <glyph glyph-name="endash" unicode="&#x2013;" horiz-adv-x="489" 
d="M45 264l5 29h394l-5 -29h-394z" />
    <glyph glyph-name="emdash" unicode="&#x2014;" horiz-adv-x="859" 
d="M45 264l5 29h764l-5 -29h-764z" />
    <glyph glyph-name="quoteleft" unicode="&#x2018;" horiz-adv-x="185" 
d="M127 553l-32 15l86 152l23 -12z" />
    <glyph glyph-name="quoteright" unicode="&#x2019;" horiz-adv-x="185" 
d="M119 553l-23 11l77 156l32 -15z" />
    <glyph glyph-name="quotesinglbase" unicode="&#x201a;" horiz-adv-x="185" 
d="M16 -71l-22 12l76 156l32 -15z" />
    <glyph glyph-name="quotedblleft" unicode="&#x201c;" horiz-adv-x="301" 
d="M127 553l-32 15l86 152l23 -12zM243 553l-32 15l86 152l23 -12z" />
    <glyph glyph-name="quotedblright" unicode="&#x201d;" horiz-adv-x="301" 
d="M119 553l-23 11l77 156l32 -15zM235 553l-23 11l77 156l32 -15z" />
    <glyph glyph-name="quotedblbase" unicode="&#x201e;" horiz-adv-x="301" 
d="M16 -71l-22 12l76 156l32 -15zM132 -71l-22 12l77 156l31 -15z" />
    <glyph glyph-name="dagger" unicode="&#x2020;" horiz-adv-x="334" 
d="M144 226l51 321h-120l5 29h119l23 139h32l-22 -139h121l-5 -29h-120l-52 -321h-32z" />
    <glyph glyph-name="daggerdbl" unicode="&#x2021;" horiz-adv-x="334" 
d="M171 394l24 153h-120l5 29h119l23 139h32l-22 -139h121l-5 -29h-120l-25 -153h120l-5 -29h-119l-23 -139h-32l23 139h-122l5 29h121z" />
    <glyph glyph-name="bullet" unicode="&#x2022;" horiz-adv-x="307" 
d="M155 205q-41 0 -68.5 28t-27.5 67q0 44 29.5 74t74.5 30q41 0 69 -28t28 -67q0 -44 -29.5 -74t-75.5 -30z" />
    <glyph glyph-name="ellipsis" unicode="&#x2026;" horiz-adv-x="628" 
d="M59 -5q-13 0 -21 8.5t-8 20.5t8 20.5t20 8.5q13 0 21 -8.5t8 -20.5t-8 -20.5t-20 -8.5zM275 -5q-12 0 -20.5 8.5t-8.5 20.5t8 20.5t21 8.5q12 0 20.5 -8.5t8.5 -20.5t-8.5 -20.5t-20.5 -8.5zM491 -5q-12 0 -20.5 8.5t-8.5 20.5t8.5 20.5t20.5 8.5t20.5 -8.5t8.5 -20.5
t-8.5 -20.5t-20.5 -8.5z" />
    <glyph glyph-name="perthousand" unicode="&#x2030;" horiz-adv-x="1098" 
d="M122 549q1 -48 30.5 -79.5t78.5 -31.5q57 0 93 39t35 101q-1 48 -30 81t-79 33q-57 0 -92.5 -41t-35.5 -102zM231 410q-61 0 -101 39.5t-40 100.5q0 70 46 120t115 50q60 0 100 -41t40 -102q0 -73 -46 -120t-114 -47zM80 0l580 715h35l-579 -715h-36zM413 134
q1 -49 30.5 -80.5t78.5 -31.5q57 0 93 39t35 101q-1 49 -30 81.5t-79 32.5q-57 0 -92.5 -41t-35.5 -101zM522 -6q-61 0 -101 40t-40 101q0 69 46 119t115 50q60 0 100 -41t40 -102q0 -73 -46 -120t-114 -47zM765 134q1 -49 30.5 -80.5t78.5 -31.5q57 0 93 39t35 101
q-1 49 -30 81.5t-79 32.5q-57 0 -92.5 -41t-35.5 -101zM874 -6q-61 0 -101 40t-40 101q0 69 46 119t115 50q60 0 100 -41t40 -102q0 -73 -46 -120t-114 -47z" />
    <glyph glyph-name="uni2032" unicode="&#x2032;" horiz-adv-x="151" 
d="M82 529l58 186h39l-69 -186h-28z" />
    <glyph glyph-name="uni2033" unicode="&#x2033;" horiz-adv-x="261" 
d="M82 529l58 186h39l-69 -186h-28zM193 529l58 186h38l-68 -186h-28z" />
    <glyph glyph-name="guilsinglleft" unicode="&#x2039;" horiz-adv-x="270" 
d="M160 83l-109 178l165 178h38l-166 -179l106 -177h-34z" />
    <glyph glyph-name="guilsinglright" unicode="&#x203a;" horiz-adv-x="270" 
d="M108 439l110 -179l-166 -177h-37l165 180l-106 176h34z" />
    <glyph glyph-name="fraction" unicode="&#x2044;" horiz-adv-x="113" 
d="M-241 0l590 715h33l-590 -715h-33z" />
    <glyph glyph-name="Euro" unicode="&#x20ac;" horiz-adv-x="644" 
d="M54 413l5 28h67q25 134 98 207.5t187 73.5q97 0 153.5 -51t60.5 -148h-34q-5 81 -51 125t-130 44q-200 0 -249 -251h260l-9 -28h-256l-17 -110h236l-9 -28h-231q-6 -52 1.5 -95.5t29.5 -79t64.5 -56t102.5 -20.5q85 0 142.5 47.5t79.5 137.5h33q-21 -104 -89.5 -160
t-165.5 -56q-129 0 -188 79t-46 203h-66l5 28h65l18 110h-67z" />
    <glyph glyph-name="trademark" unicode="&#x2122;" horiz-adv-x="649" 
d="M331 404l50 311h38l67 -261l148 261h41l-49 -311h-28l44 277l-159 -277h-10l-73 277l-43 -277h-26zM145 404l46 288h-98l4 23h223l-4 -23h-98l-45 -288h-28z" />
    <glyph glyph-name="onethird" unicode="&#x2153;" horiz-adv-x="700" 
d="M516 -4q-53 0 -87.5 26.5t-36.5 75.5h29q3 -36 28 -56.5t66 -20.5q39 0 65 20.5t26 59.5q0 29 -19.5 48t-54.5 19h-24l4 24h29q33 0 54 17.5t21 50.5q0 30 -20 47t-52 17q-37 0 -60.5 -20t-32.5 -53h-28q8 43 41 70t80 27q43 0 72.5 -22t29.5 -65q0 -63 -68 -82
q26 -7 42.5 -27.5t16.5 -51.5q0 -48 -35 -76t-86 -28zM130 371l49 308l-101 -65l4 30l111 71h23l-55 -344h-31zM6 0l590 715h33l-590 -715h-33z" />
    <glyph glyph-name="twothirds" unicode="&#x2154;" horiz-adv-x="748" 
d="M564 -4q-53 0 -87.5 26.5t-36.5 75.5h29q3 -36 28 -56.5t66 -20.5q39 0 65 20.5t26 59.5q0 29 -19.5 48t-54.5 19h-24l4 24h29q33 0 54 17.5t21 50.5q0 30 -20 47t-52 17q-37 0 -60.5 -20t-32.5 -53h-28q8 43 41 70t80 27q43 0 72.5 -22t29.5 -65q0 -63 -68 -82
q26 -7 42.5 -27.5t16.5 -51.5q0 -48 -35 -76t-86 -28zM36 371l1 8l151 124q31 26 45.5 40t28 37.5t13.5 47.5q0 29 -19 47.5t-51 18.5q-76 0 -96 -85h-28q10 52 44 80.5t81 28.5q44 0 71.5 -24.5t27.5 -65.5q0 -29 -15.5 -55.5t-30.5 -40.5t-53 -46l-111 -90h181l-4 -25
h-236zM71 0l590 715h33l-590 -715h-33z" />
    <glyph glyph-name="oneeighth" unicode="&#x215b;" horiz-adv-x="697" 
d="M508 -4q-51 0 -86 25t-35 69q0 39 25 63.5t67 32.5q-24 9 -39.5 27.5t-15.5 43.5q0 41 33 66t79 25q43 0 74.5 -22.5t31.5 -62.5q0 -32 -20 -53t-54 -28q66 -22 66 -83q0 -50 -35 -76.5t-91 -26.5zM417 92q1 -33 25 -52t66 -19t68.5 18.5t26.5 59.5q0 34 -25 53.5
t-64 19.5q-40 0 -68.5 -20t-28.5 -60zM454 256q0 -28 23 -44.5t56 -16.5q32 0 56 17.5t24 49.5q0 28 -22.5 45t-55.5 17q-34 0 -57.5 -17.5t-23.5 -50.5zM130 371l49 308l-101 -65l4 30l111 71h23l-55 -344h-31zM8 0l590 715h33l-590 -715h-33z" />
    <glyph glyph-name="threeeighths" unicode="&#x215c;" horiz-adv-x="745" 
d="M556 -4q-51 0 -86 25t-35 69q0 39 25 63.5t67 32.5q-24 9 -39.5 27.5t-15.5 43.5q0 41 33 66t79 25q43 0 74.5 -22.5t31.5 -62.5q0 -32 -20 -53t-54 -28q66 -22 66 -83q0 -50 -35 -76.5t-91 -26.5zM465 92q1 -33 25 -52t66 -19t68.5 18.5t26.5 59.5q0 34 -25 53.5
t-64 19.5q-40 0 -68.5 -20t-28.5 -60zM502 256q0 -28 23 -44.5t56 -16.5q32 0 56 17.5t24 49.5q0 28 -22.5 45t-55.5 17q-34 0 -57.5 -17.5t-23.5 -50.5zM72 0l590 715h33l-590 -715h-33zM187 367q-52 0 -87 26.5t-37 75.5h29q3 -36 28 -56.5t67 -20.5q39 0 64.5 20.5
t25.5 59.5q0 29 -19 48t-54 19h-24l4 24h28q33 0 54 17.5t21 50.5q0 30 -20 47t-52 17q-37 0 -60.5 -20t-32.5 -53h-28q8 43 41 69.5t80 26.5q43 0 72.5 -22t29.5 -64q0 -31 -18 -52.5t-50 -29.5q26 -7 42.5 -27.5t16.5 -51.5q0 -48 -35 -76t-86 -28z" />
    <glyph glyph-name="fiveeighths" unicode="&#x215d;" horiz-adv-x="736" 
d="M547 -4q-51 0 -86 25t-35 69q0 39 25 63.5t67 32.5q-24 9 -39.5 27.5t-15.5 43.5q0 41 33 66t79 25q43 0 74.5 -22.5t31.5 -62.5q0 -32 -20 -53t-54 -28q66 -22 66 -83q0 -50 -35 -76.5t-91 -26.5zM456 92q1 -33 25 -52t66 -19t68.5 18.5t26.5 59.5q0 34 -25 53.5
t-64 19.5q-40 0 -68.5 -20t-28.5 -60zM493 256q0 -28 23 -44.5t56 -16.5q32 0 56 17.5t24 49.5q0 28 -22.5 45t-55.5 17q-34 0 -57.5 -17.5t-23.5 -50.5zM171 367q-45 0 -76.5 23.5t-34.5 69.5h29q3 -32 25 -50t57 -18q43 0 69 27.5t26 74.5q0 34 -21.5 56t-57.5 22
q-51 0 -84 -38h-15l30 181h192l-4 -25h-167l-20 -122q32 28 76 28t73 -27.5t29 -73.5q-1 -57 -35.5 -92t-90.5 -36zM61 0l590 715h33l-590 -715h-33z" />
    <glyph glyph-name="seveneighths" unicode="&#x215e;" horiz-adv-x="692" 
d="M503 -4q-51 0 -86 25t-35 69q0 39 25 63.5t67 32.5q-24 9 -39.5 27.5t-15.5 43.5q0 41 33 66t79 25q43 0 74.5 -22.5t31.5 -62.5q0 -32 -20 -53t-54 -28q66 -22 66 -83q0 -50 -35 -76.5t-91 -26.5zM412 92q1 -33 25 -52t66 -19t68.5 18.5t26.5 59.5q0 34 -25 53.5
t-64 19.5q-40 0 -68.5 -20t-28.5 -60zM449 256q0 -28 23 -44.5t56 -16.5q32 0 56 17.5t24 49.5q0 28 -22.5 45t-55.5 17q-34 0 -57.5 -17.5t-23.5 -50.5zM95 371l185 318h-196l5 26h236l-1 -5l-195 -339h-34zM1 0l590 715h33l-590 -715h-33z" />
    <glyph glyph-name="minus" unicode="&#x2212;" horiz-adv-x="505" 
d="M46 327l5 30h431l-5 -30h-431z" />
    <glyph glyph-name="approxequal" unicode="&#x2248;" horiz-adv-x="493" 
d="M54 349q8 42 35.5 67t67.5 25t113.5 -30t106.5 -30q29 0 48.5 18t24.5 44h30q-8 -42 -35.5 -67t-67.5 -25t-113.5 30t-107.5 30q-29 0 -47.5 -17.5t-24.5 -44.5h-30zM28 189q9 41 36 66.5t67 25.5t113.5 -30t106.5 -30q29 0 48.5 18t24.5 44h30q-8 -42 -35.5 -67
t-67.5 -25t-113.5 29.5t-107.5 29.5q-29 0 -47.5 -17.5t-24.5 -43.5h-30z" />
    <glyph glyph-name="notequal" unicode="&#x2260;" horiz-adv-x="484" 
d="M58 383l5 30h224l72 125h34l-72 -125h146l-5 -30h-158l-73 -129h211l-5 -30h-223l-72 -126h-34l72 126h-147l5 30h159l73 129h-212z" />
    <glyph glyph-name="lessequal" unicode="&#x2264;" horiz-adv-x="491" 
d="M409 116l-351 210l1 10l416 194l-5 -35l-360 -166l305 -180zM7 0l5 30h384l-5 -30h-384z" />
    <glyph glyph-name="greaterequal" unicode="&#x2265;" horiz-adv-x="491" 
d="M17 0l5 30h383l-5 -30h-383zM100 530l352 -210l-2 -9l-416 -195l6 35l359 167l-304 180z" />
    <glyph glyph-name="uni24C5" unicode="&#x24c5;" horiz-adv-x="844" 
d="M327 150v418h113q143 0 143 -119v-2q0 -119 -143 -119h-80v-178h-33zM360 354h80q110 0 110 93v2q0 92 -110 92h-80v-187zM433 -9q-153 0 -259.5 105.5t-106.5 260.5q0 153 107 260t261 107q155 0 260.5 -106t105.5 -259q0 -156 -106.5 -262t-261.5 -106zM433 17
q142 0 240.5 98t98.5 244q0 144 -97 241.5t-240 97.5q-142 0 -240.5 -98.5t-98.5 -242.5q0 -145 98.5 -242.5t238.5 -97.5z" />
    <glyph glyph-name="f_i" unicode="&#xfb01;" horiz-adv-x="515" 
d="M59 494l5 29h82l16 98q25 155 158 155q28 0 56 -8l-4 -29q-24 8 -51 8q-50 0 -81.5 -28t-43.5 -100l-15 -96h156l-5 -29h-156l-78 -494h-34l78 494h-83zM356 0l82 523h35l-83 -523h-34zM476 637q-11 0 -18.5 8t-7.5 19t8 18.5t19 7.5t18.5 -7.5t7.5 -18.5t-8 -19t-19 -8z
" />
    <glyph glyph-name="f_l" unicode="&#xfb02;" horiz-adv-x="516" 
d="M59 494l5 29h82l16 98q25 155 158 155q28 0 56 -8l-4 -29q-24 8 -51 8q-50 0 -81.5 -28t-43.5 -100l-15 -96h156l-5 -29h-156l-78 -494h-34l78 494h-83zM356 0l122 773h35l-122 -773h-35z" />
    <glyph glyph-name="space_uni0326" horiz-adv-x="400" 
d="M106 -195l-23 12l68 139l34 -10z" />
    <glyph glyph-name="caron.alt" horiz-adv-x="292" 
d="M174 619l39 154h37l-49 -154h-27z" />
    <glyph glyph-name="space_uni0326.alt" horiz-adv-x="400" 
d="M312 761l23 -12l-68 -139l-34 10z" />
    <glyph glyph-name="grave.uc" horiz-adv-x="400" 
d="M269 771l-68 120h41l55 -120h-28z" />
    <glyph glyph-name="dieresis.uc" horiz-adv-x="400" 
d="M203 788q-11 0 -18.5 7.5t-7.5 17.5q0 11 8 19t19 8q10 0 17.5 -7.5t7.5 -18.5t-7.5 -18.5t-18.5 -7.5zM370 788q-11 0 -18.5 7t-7.5 18t7.5 19t18.5 8t18.5 -7.5t7.5 -18.5q0 -10 -8 -18t-18 -8z" />
    <glyph glyph-name="macron.uc" horiz-adv-x="400" 
d="M166 794l4 29h236l-4 -29h-236z" />
    <glyph glyph-name="acute.uc" horiz-adv-x="400" 
d="M262 771l78 120h43l-90 -120h-31z" />
    <glyph glyph-name="circumflex.uc" horiz-adv-x="400" 
d="M152 771l127 120h33l96 -120h-29l-86 91l-109 -91h-32z" />
    <glyph glyph-name="caron.uc" horiz-adv-x="400" 
d="M423 891l-126 -120h-34l-95 120h29l86 -91l109 91h31z" />
    <glyph glyph-name="breve.uc" horiz-adv-x="400" 
d="M290 773q-51 0 -82.5 33t-32.5 84h30q2 -40 25 -64t61 -24t66.5 24t35.5 64h29q-7 -51 -45 -84t-87 -33z" />
    <glyph glyph-name="dotaccent.uc" horiz-adv-x="400" 
d="M286 787q-11 0 -18.5 7.5t-7.5 18.5t8 19t19 8t18.5 -7.5t7.5 -18.5t-8 -19t-19 -8z" />
    <glyph glyph-name="ring.uc" horiz-adv-x="400" 
d="M290 774q29 0 48.5 19.5t19.5 50.5q0 29 -18 47t-47 18t-48.5 -20t-19.5 -50q0 -27 18.5 -46t46.5 -19zM290 752q-39 0 -65 25.5t-26 61.5q0 38 28 65.5t66 27.5q39 0 65 -25.5t26 -62.5q0 -39 -27 -65.5t-67 -26.5z" />
    <glyph glyph-name="tilde.uc" horiz-adv-x="400" 
d="M357 774q-26 0 -69 29.5t-61 29.5t-33.5 -15t-21.5 -44h-28q9 43 31 66t53 23q26 0 68.5 -29.5t61.5 -29.5q18 0 33.5 15t21.5 43h27q-8 -42 -30.5 -65t-52.5 -23z" />
    <glyph glyph-name="hungarumlaut.uc" horiz-adv-x="400" 
d="M203 771l59 120h39l-70 -120h-28zM321 771l59 120h39l-70 -120h-28z" />
    <glyph glyph-name="idotaccent" horiz-adv-x="200" 
d="M161 637q-11 0 -18.5 8t-7.5 19t8 18.5t19 7.5t18.5 -7.5t7.5 -18.5t-8 -19t-19 -8zM41 0l82 523h35l-83 -523h-34z" />
    <glyph glyph-name="registered.alt" horiz-adv-x="844" 
d="M316 154v418h113q143 0 143 -112v-2q0 -96 -107 -109l132 -195h-36l-130 191h-83v-191h-32zM348 371h81q110 0 110 86v3q0 46 -28 65.5t-82 19.5h-81v-174zM433 -9q-153 0 -259.5 105.5t-106.5 260.5q0 153 107 260t261 107q155 0 260.5 -106t105.5 -259
q0 -156 -106.5 -262t-261.5 -106zM433 17q142 0 240.5 98t98.5 244q0 144 -97 241.5t-240 97.5q-142 0 -240.5 -98.5t-98.5 -242.5q0 -145 98.5 -242.5t238.5 -97.5z" />
    <glyph glyph-name="dollar.old" horiz-adv-x="575" 
d="M274 -7h-16l-19 -124h-30l20 127q-89 10 -143 60t-58 135h35q6 -72 49.5 -114.5t120.5 -51.5l51 324q-94 27 -136.5 66t-42.5 102q0 85 62.5 134t160.5 49h12l14 89h30l-15 -92q76 -8 121.5 -49t51.5 -111h-33q-16 115 -144 131l-47 -295q103 -29 147.5 -66.5
t44.5 -109.5q0 -95 -65 -149.5t-171 -54.5zM475 195q0 59 -36 89.5t-126 56.5l-50 -318h11q91 0 146 45t55 127zM140 518q0 -50 34 -81t115 -56l46 290h-9q-85 0 -135.5 -39.5t-50.5 -113.5z" />
    <glyph glyph-name="Euro.old" horiz-adv-x="641" 
d="M51 400l5 28h65q24 130 95 201t182 71q94 0 148.5 -49.5t58.5 -143.5h-33q-5 79 -49.5 121.5t-125.5 42.5q-194 0 -241 -243h251l-8 -28h-248l-17 -106h228l-8 -28h-224q-5 -50 2.5 -92t28.5 -77t62.5 -54.5t99.5 -19.5q83 0 138 46t77 134h32q-21 -101 -87.5 -155.5
t-160.5 -54.5q-125 0 -182.5 76t-44.5 197h-64l5 28h63l17 106h-65z" />
    <glyph glyph-name="sterling.old" horiz-adv-x="580" 
d="M59 325l5 28h74q-9 65 -9 110q0 106 59 171.5t168 65.5q91 0 139.5 -46.5t50.5 -126.5h-35q-3 67 -41.5 105t-114.5 38q-92 0 -141.5 -56t-49.5 -151q0 -38 8 -110h231l-4 -28h-224q4 -44 4 -69q0 -97 -41 -158q35 -4 112 -39t120 -35q44 0 75 28.5t38 83.5h33
q-9 -67 -49.5 -105t-97.5 -38q-49 0 -131 38t-115 38t-56 -19t-31 -50h-32q7 35 33 62.5t64 34.5q45 60 45 157q0 31 -5 71h-82z" />
    <glyph glyph-name="yen.old" horiz-adv-x="521" 
d="M67 309l5 28h175l-155 357h36l147 -340l241 340h36l-254 -357h174l-5 -28h-181l-17 -104h181l-4 -28h-181l-28 -177h-35l28 177h-184l5 28h183l16 104h-183z" />
    <glyph glyph-name="zero.old" horiz-adv-x="615" 
d="M88 302q-5 -35 -5 -63q0 -96 51.5 -156.5t154.5 -60.5q98 0 161.5 65.5t82.5 187.5l7 43q5 33 5 60q1 98 -50.5 158.5t-152.5 60.5q-96 0 -162 -65.5t-85 -186.5zM288 -8q-117 0 -178.5 69t-61.5 179q0 27 5 64l7 43q21 134 97.5 206.5t185.5 72.5q116 0 177 -70t60 -179
q0 -26 -5 -61l-7 -43q-21 -134 -93.5 -207.5t-186.5 -73.5z" />
    <glyph glyph-name="one.old" horiz-adv-x="345" 
d="M147 0l91 576l-182 -112l5 35l193 119h25l-97 -618h-35z" />
    <glyph glyph-name="two.old" horiz-adv-x="518" 
d="M-20 0l1 9l291 221q35 27 49 37.5t44.5 38.5t44.5 48t26.5 50.5t12.5 61.5q0 64 -42 97.5t-108 33.5q-72 0 -124.5 -43.5t-70.5 -125.5h-33q17 93 80.5 145.5t148.5 52.5q79 0 132 -40.5t53 -118.5q0 -41 -15 -77t-43.5 -66.5t-56.5 -53.5t-66 -52q-9 -7 -14 -10
l-235 -178h381l-4 -30h-452z" />
    <glyph glyph-name="three.old" horiz-adv-x="548" 
d="M241 -103q-102 0 -167.5 54.5t-66.5 148.5h34q2 -80 55.5 -127t145.5 -47q90 0 144 48t54 139q0 66 -41.5 109t-118.5 43h-49l5 30h52q81 0 127 42t46 120q0 62 -41.5 101t-113.5 39q-75 0 -124.5 -42.5t-66.5 -117.5h-32q14 85 75.5 137t149.5 52q85 0 136 -46.5
t51 -121.5q0 -71 -37.5 -118t-103.5 -61q56 -14 88.5 -57.5t32.5 -107.5q0 -102 -65 -159.5t-169 -57.5z" />
    <glyph glyph-name="four.old" horiz-adv-x="581" 
d="M347 -97l28 168h-378l1 11l444 536h53l-81 -517h99l-5 -30h-98l-28 -168h-35zM51 101h328l78 491z" />
    <glyph glyph-name="five.old" horiz-adv-x="538" 
d="M2 78h33q6 -72 54.5 -112t128.5 -40q98 0 157 66t59 167q0 74 -44 122t-120 48q-105 1 -185 -83h-13l59 372h377l-6 -30h-346l-47 -295q67 65 167 65q87 0 140 -55.5t53 -141.5q0 -112 -69 -188t-183 -76q-90 0 -149.5 47.5t-65.5 133.5z" />
    <glyph glyph-name="six.old" horiz-adv-x="567" 
d="M271 -8q-105 0 -162 58.5t-57 157.5q0 36 7 80l15 97q53 337 289 337q80 0 126.5 -38.5t53.5 -112.5h-34q-14 122 -148 122q-201 0 -252 -305l-11 -69q30 58 88 87.5t122 29.5q94 0 150 -51.5t56 -142.5q0 -108 -67.5 -179t-175.5 -71zM87 202q0 -83 49 -132t136 -49
q93 0 150 62t57 158q0 77 -46 122t-131 45q-90 0 -152.5 -57t-62.5 -149z" />
    <glyph glyph-name="seven.old" horiz-adv-x="483" 
d="M78 -97l393 686h-395l5 29h439l-1 -7l-404 -708h-37z" />
    <glyph glyph-name="eight.old" horiz-adv-x="558" 
d="M259 -7q-98 0 -162 50.5t-64 136.5q0 85 56.5 139.5t140.5 65.5q-50 16 -81.5 55t-31.5 93q0 85 62.5 137t151.5 52q79 0 134.5 -46.5t55.5 -122.5q0 -72 -43 -116.5t-114 -57.5q61 -17 99.5 -62t38.5 -106q0 -100 -69.5 -159t-173.5 -59zM68 182q0 -72 53 -115.5
t140 -43.5q89 0 147.5 49t58.5 138q0 69 -51.5 113t-135.5 44q-88 0 -150 -50t-62 -135zM152 532q0 -59 44.5 -98t116.5 -39q73 0 123 41.5t50 116.5q0 61 -44 100.5t-112 39.5q-76 0 -127 -43.5t-51 -117.5z" />
    <glyph glyph-name="nine.old" horiz-adv-x="567" 
d="M310 626q104 0 161 -59t57 -157q0 -39 -6 -78l-17 -108q-52 -328 -283 -328q-84 0 -134 42t-57 121h34q16 -133 158 -133q95 0 157.5 67t88.5 227l13 80q-30 -58 -87.5 -88t-123.5 -30q-93 0 -149 52t-56 142q0 108 68 179t176 71zM494 418q0 82 -49 130.5t-136 48.5
q-94 0 -151 -61.5t-57 -158.5q0 -76 46 -121t130 -45q91 0 154 57.5t63 149.5z" />
    <glyph glyph-name="dollar.tab" 
d="M288 -7q-3 0 -8.5 0.5t-8.5 0.5l-20 -129h-29l20 131q-91 10 -146 61.5t-59 139.5h34q7 -75 52 -119t124 -53l53 335q-98 28 -141.5 67.5t-43.5 105.5q0 87 64.5 138t164.5 51h13l15 91h29l-15 -93q78 -9 125 -52t53 -115h-33q-18 120 -150 136l-48 -305
q107 -31 152.5 -68.5t45.5 -111.5q0 -98 -67 -154.5t-176 -56.5zM495 202q0 60 -37 92t-130 58l-52 -329h12q94 0 150.5 47t56.5 132zM149 534q0 -51 35.5 -84t120.5 -59l48 301h-11q-88 0 -140.5 -41t-52.5 -117z" />
    <glyph glyph-name="Euro.tab" 
d="M56 413l5 28h61q23 138 89.5 209t170.5 72q91 1 141.5 -49t52.5 -145h-34q-3 82 -42.5 123.5t-117.5 40.5q-181 -1 -224 -251h234l-10 -28h-228l-18 -110h208l-9 -28h-203q-33 -251 176 -251q159 0 207 179h33q-50 -210 -240 -210q-129 0 -178.5 77.5t-33.5 204.5h-61
l5 28h60l17 110h-61z" />
    <glyph glyph-name="sterling.tab" 
d="M66 334l5 29h77q-9 67 -9 114q0 110 59 177.5t171 67.5q93 0 142.5 -48t51.5 -131h-35q-3 68 -43 108t-117 40q-95 0 -144 -58t-49 -156q0 -38 8 -114h238l-5 -29h-230q4 -46 4 -71q0 -99 -43 -162q36 -4 113.5 -40.5t121.5 -36.5q45 0 77 30t39 86h33q-9 -69 -50 -108
t-100 -39q-51 0 -133 39.5t-116 39.5t-57.5 -20t-31.5 -52h-33q8 37 34.5 65.5t65.5 34.5q46 63 46 161q0 33 -5 73h-85z" />
    <glyph glyph-name="yen.tab" 
d="M108 318l5 29h181l-158 368h38l148 -350l247 350h37l-261 -368h180l-5 -29h-188l-16 -107h187l-5 -29h-187l-28 -182h-35l28 182h-190l5 29h190l16 107h-189z" />
    <glyph glyph-name="zero.tab" 
d="M98 294q-6 -39 -6 -76q1 -88 46.5 -141t139.5 -53q192 0 229 243l25 154q5 29 5 67q0 91 -45.5 147.5t-139.5 56.5q-93 0 -152 -63t-77 -181zM278 -7q-109 0 -164.5 61.5t-56.5 163.5q0 38 6 79l25 153q21 132 90 202t175 70q110 0 165 -64.5t54 -168.5q0 -31 -5 -71
l-25 -153q-44 -272 -264 -272z" />
    <glyph glyph-name="one.tab" 
d="M299 0l106 671l-265 -185l5 36l274 193h28l-113 -715h-35z" />
    <glyph glyph-name="two.tab" 
d="M12 0l1 9l342 288q76 64 115 121t39 128q0 66 -40.5 106t-112.5 40q-160 0 -202 -177h-34q19 102 84 154.5t153 52.5q85 0 136.5 -48t51.5 -127t-42 -139.5t-125 -129.5l-295 -247h399l-5 -31h-465z" />
    <glyph glyph-name="three.tab" 
d="M275 -7q-100 0 -161.5 54t-62.5 149h35q2 -81 52 -126.5t138 -45.5t145 49t57 142q0 62 -39.5 103t-117.5 41h-44l6 31h51q74 0 122 41.5t48 121.5q0 63 -40.5 100.5t-109.5 37.5q-72 0 -123.5 -41.5t-68.5 -116.5h-33q16 86 79 137.5t148 51.5q79 0 131 -44.5t52 -123.5
q0 -70 -38 -117.5t-106 -62.5q54 -14 86 -56.5t32 -103.5q0 -104 -67.5 -162.5t-170.5 -58.5z" />
    <glyph glyph-name="four.tab" 
d="M369 0l26 167h-365l2 11l431 537h54l-81 -517h95l-5 -31h-96l-26 -167h-35zM86 198h314l77 490z" />
    <glyph glyph-name="five.tab" 
d="M265 -7q-92 0 -151.5 50t-65.5 135h35q6 -70 54 -112t128 -42q101 0 158.5 65t57.5 169q0 75 -46 123.5t-123 48.5q-106 0 -184 -83h-14l59 368h383l-6 -31h-351l-45 -287q64 64 166 64q88 0 142.5 -56.5t54.5 -145.5q0 -116 -68 -191t-184 -75z" />
    <glyph glyph-name="six.tab" 
d="M289 -7q-106 0 -164.5 58.5t-58.5 169.5q0 28 9 93l11 64q55 344 296 344q84 0 134 -40t55 -116h-34q-12 125 -156 125q-104 0 -169 -74.5t-91 -237.5l-9 -56q31 61 88.5 93.5t125.5 32.5q93 0 153.5 -51.5t60.5 -143.5q0 -113 -69.5 -187t-181.5 -74zM102 206
q0 -84 49.5 -133.5t137.5 -49.5q98 0 157 65t59 165q0 78 -50.5 122t-134.5 44q-92 0 -155 -59t-63 -154z" />
    <glyph glyph-name="seven.tab" 
d="M145 0l386 685h-403l5 30h451l-2 -7l-399 -708h-38z" />
    <glyph glyph-name="eight.tab" 
d="M285 -7q-93 0 -161 49.5t-68 139.5q0 88 55 141.5t145 66.5q-51 15 -84 54.5t-33 96.5q0 82 63.5 131.5t150.5 49.5q79 0 135.5 -47t56.5 -122q0 -144 -158 -171q64 -17 102.5 -62.5t38.5 -111.5q0 -104 -70 -159.5t-173 -55.5zM92 185q0 -77 56.5 -119t138.5 -42
q89 0 147 47t58 137q0 72 -52 117t-135 45q-90 0 -151.5 -47.5t-61.5 -137.5zM174 542q-1 -61 44.5 -101.5t120.5 -40.5q73 0 122 38t49 114q0 62 -45 101t-114 39q-72 0 -124 -39.5t-53 -110.5z" />
    <glyph glyph-name="nine.tab" 
d="M255 -7q-85 0 -139 41.5t-63 121.5h35q18 -132 168 -132q103 0 164.5 70t88.5 241l9 56q-31 -60 -88.5 -92.5t-124.5 -32.5q-92 0 -153.5 52t-61.5 146q0 113 70 185.5t184 72.5q102 0 161 -59t58 -167q0 -42 -9 -94l-10 -68q-30 -188 -100.5 -264.5t-188.5 -76.5z
M126 465q0 -80 50 -125t132 -45q92 0 156 59.5t64 154.5q0 83 -48.5 133t-136.5 50q-99 0 -158 -63.5t-59 -163.5z" />
    <glyph glyph-name="cent.tab" 
d="M299 -7h-14l-20 -128h-30l21 132q-87 13 -137 75.5t-50 157.5q0 129 77 214.5t194 85.5l16 99h30l-16 -101q72 -8 118 -53t50 -116h-33q-3 58 -41 95.5t-99 44.5l-75 -477h10q73 0 125 39t71 113h33q-20 -88 -82 -134.5t-148 -46.5zM104 230q0 -85 42 -139t114 -66
l76 476q-103 -1 -167.5 -78t-64.5 -193z" />
    <glyph glyph-name="percent.tab" horiz-adv-x="800" 
d="M130 548q1 -49 30 -81t79 -32q58 0 94 39.5t35 101.5q-1 49 -30.5 82.5t-79.5 33.5q-57 0 -92.5 -41.5t-35.5 -102.5zM239 407q-61 0 -101 40t-40 102q0 70 46 120.5t115 50.5q61 0 101.5 -41t40.5 -103q0 -73 -47 -121t-115 -48zM107 0l579 715h36l-579 -715h-36z
M460 135q1 -49 30 -81t79 -32q57 0 93.5 40t35.5 102q-1 49 -30.5 82t-79.5 33q-57 0 -92.5 -41.5t-35.5 -102.5zM569 -6q-61 0 -101.5 40t-40.5 102q0 70 46.5 120.5t115.5 50.5q61 0 101 -41t40 -103q0 -73 -46.5 -121t-114.5 -48z" />
    <glyph glyph-name="perthousand.tab" horiz-adv-x="1000" 
d="M126 554q1 -45 28 -73.5t71 -28.5q53 0 86 39.5t32 97.5q-1 46 -27 75.5t-71 29.5q-53 0 -86 -41.5t-33 -98.5zM224 424q-56 0 -93 36.5t-37 94.5q0 68 42.5 117.5t109.5 49.5q55 0 92 -37t37 -96q0 -70 -42.5 -117.5t-108.5 -47.5zM41 0l579 715h36l-580 -715h-35z
M353 124q1 -45 28 -73.5t71 -28.5q54 0 86.5 39.5t31.5 97.5q0 46 -26 75.5t-71 29.5q-54 0 -87 -41.5t-33 -98.5zM452 -6q-56 0 -93.5 36.5t-36.5 94.5q0 68 42.5 117.5t108.5 49.5q55 0 92 -37t37 -96q0 -70 -42 -117.5t-108 -47.5zM685 124q1 -45 28 -73.5t71 -28.5
q53 0 86 39.5t32 97.5q-1 46 -27 75.5t-71 29.5q-53 0 -86 -41.5t-33 -98.5zM783 -6q-56 0 -93 36.5t-37 94.5q0 68 42.5 117.5t109.5 49.5q55 0 92 -37t37 -96q0 -70 -42.5 -117.5t-108.5 -47.5z" />
    <glyph glyph-name="plus.tab" 
d="M260 113l33 214h-199l5 30h199l35 215h31l-34 -215h200l-5 -30h-200l-33 -214h-32z" />
    <glyph glyph-name="minus.tab" 
d="M94 327l5 30h431l-5 -30h-431z" />
    <glyph glyph-name="multiply.tab" 
d="M116 150l-19 22l185 165l-142 164l22 21l143 -165l185 165l20 -23l-186 -164l144 -165l-22 -20l-144 165z" />
    <glyph glyph-name="divide.tab" 
d="M94 327l5 30h431l-5 -30h-431zM289 143q-12 0 -20.5 8.5t-8.5 20.5t8.5 20.5t20.5 8.5t20.5 -8.5t8.5 -20.5t-8.5 -20.5t-20.5 -8.5zM335 484q-12 0 -20 8.5t-8 19.5q0 12 8 20.5t20 8.5q13 0 21 -8.5t8 -20.5t-8 -20t-21 -8z" />
    <glyph glyph-name="equal.tab" 
d="M91 224l5 30h404l-5 -30h-404zM116 383l5 30h404l-5 -30h-404z" />
    <glyph glyph-name="less.tab" 
d="M463 110l-351 214l1 9l417 197l-5 -34l-362 -170l306 -183z" />
    <glyph glyph-name="greater.tab" 
d="M155 530l351 -213l-1 -10l-417 -197l5 35l362 170l-306 183z" />
    <glyph glyph-name="florin.tab" 
d="M128 368l4 29h121l30 153q18 91 66.5 132.5t113.5 41.5q55 0 91 -18l-4 -28q-38 17 -87 17q-52 0 -91.5 -34.5t-54.5 -111.5l-30 -152h188l-4 -29h-189l-107 -550h-34l106 550h-119z" />
    <glyph glyph-name="plusminus.tab" 
d="M261 123l33 209h-200l5 30h200l34 210h31l-33 -210h200l-5 -30h-200l-33 -209h-32zM42 0l5 30h431l-5 -30h-431z" />
    <glyph glyph-name="notequal.tab" 
d="M116 383l5 30h224l72 125h34l-72 -125h146l-5 -30h-158l-73 -129h211l-5 -30h-223l-72 -126h-34l72 126h-147l5 30h159l73 129h-212z" />
    <glyph glyph-name="approxequal.tab" 
d="M109 349q8 42 35.5 67t67.5 25t113.5 -30t106.5 -30q29 0 48.5 18t24.5 44h30q-8 -42 -35.5 -67t-67.5 -25t-113.5 30t-107.5 30q-29 0 -47.5 -17.5t-24.5 -44.5h-30zM83 189q9 41 36 66.5t67 25.5t113.5 -30t106.5 -30q29 0 48.5 18t24.5 44h30q-8 -42 -35.5 -67
t-67.5 -25t-113.5 29.5t-107.5 29.5q-29 0 -47.5 -17.5t-24.5 -43.5h-30z" />
    <glyph glyph-name="lessequal.tab" 
d="M464 116l-352 210l2 10l416 194l-6 -35l-359 -166l304 -180zM62 0l5 30h383l-5 -30h-383z" />
    <glyph glyph-name="greaterequal.tab" 
d="M72 0l5 30h383l-5 -30h-383zM155 530l351 -210l-1 -9l-416 -195l5 35l360 167l-305 180z" />
    <glyph glyph-name="parenleft.tab" horiz-adv-x="300" 
d="M167 -148q-99 163 -99 358q0 161 64.5 306t174.5 257h36q-114 -120 -176.5 -263.5t-62.5 -298.5q-1 -189 98 -359h-35z" />
    <glyph glyph-name="parenright.tab" horiz-adv-x="300" 
d="M149 773q99 -160 99 -358q0 -160 -64 -305.5t-174 -257.5h-37q240 251 240 562q0 191 -98 359h34z" />
    <glyph glyph-name="bracketleft.tab" horiz-adv-x="300" 
d="M14 -148l146 924h179l-5 -28h-144l-137 -868h145l-5 -28h-179z" />
    <glyph glyph-name="bracketright.tab" horiz-adv-x="300" 
d="M-25 -148l5 28h145l137 868h-145l5 28h178l-146 -924h-179z" />
    <glyph glyph-name="braceleft.tab" horiz-adv-x="300" 
d="M194 -145q-91 7 -122 57.5t1 142.5l43 119q22 57 1.5 95t-82.5 45l4 27q128 6 123 124l-5 130q-4 99 41.5 138.5t141.5 43.5l-5 -28q-77 -3 -113 -35.5t-32 -119.5l4 -127q2 -65 -27 -97.5t-84 -44.5q108 -33 64 -156l-42 -119q-54 -155 93 -167z" />
    <glyph glyph-name="braceright.tab" horiz-adv-x="300" 
d="M121 777q90 -7 121 -57.5t-1 -142.5l-43 -119q-22 -57 -1 -95t83 -45l-5 -27q-127 -6 -122 -124l4 -130q4 -99 -41.5 -139t-141.5 -43l5 28q78 3 113.5 35.5t32.5 119.5l-4 127q-2 65 26.5 97.5t83.5 44.5q-49 15 -66.5 52.5t2.5 103.5l42 119q56 155 -93 167z" />
    <glyph glyph-name="period.tab" horiz-adv-x="300" 
d="M111 -5q-12 0 -20.5 8.5t-8.5 20.5t8.5 20.5t20.5 8.5t20.5 -8.5t8.5 -20.5t-8.5 -20.5t-20.5 -8.5z" />
    <glyph glyph-name="comma.tab" horiz-adv-x="300" 
d="M54 -113l-23 13l81 160l32 -16z" />
    <glyph glyph-name="colon.tab" horiz-adv-x="300" 
d="M111 -5q-12 0 -20.5 8.5t-8.5 20.5t8.5 20.5t20.5 8.5t20.5 -8.5t8.5 -20.5t-8.5 -20.5t-20.5 -8.5zM166 337q-12 0 -20.5 8.5t-8.5 20.5t8 20.5t21 8.5q12 0 20.5 -8.5t8.5 -20.5t-8.5 -20.5t-20.5 -8.5z" />
    <glyph glyph-name="semicolon.tab" horiz-adv-x="300" 
d="M45 -113l-23 13l82 160l32 -16zM168 337q-12 0 -20.5 8.5t-8.5 20.5t8 20.5t21 8.5q12 0 20.5 -8.5t8.5 -20.5t-8.5 -20.5t-20.5 -8.5z" />
    <glyph glyph-name="space.tab" horiz-adv-x="300" 
 />
    <glyph glyph-name="dollar.oldtab" 
d="M290 -7h-16l-19 -124h-30l20 127q-89 10 -142.5 60t-57.5 135h34q7 -72 50.5 -114.5t119.5 -51.5l51 324q-94 27 -136.5 66t-42.5 102q0 85 63 134t160 49h12l14 89h30l-15 -92q76 -8 121.5 -49t51.5 -111h-32q-16 115 -145 131l-47 -295q104 -30 148 -67t44 -109
q0 -95 -65 -149.5t-171 -54.5zM491 195q0 59 -36 89.5t-126 56.5l-50 -318h11q91 0 146 45t55 127zM156 518q0 -50 34 -81t115 -56l46 290h-9q-85 0 -135.5 -39.5t-50.5 -113.5z" />
    <glyph glyph-name="Euro.oldtab" 
d="M52 400l5 28h61q23 132 89.5 201.5t167.5 70.5q89 1 139.5 -48t52.5 -141h-34q-6 160 -158 160q-182 -2 -223 -243h235l-10 -28h-229l-17 -106h209l-9 -28h-204q-31 -243 176 -243q157 0 204 176h32q-24 -104 -85.5 -155t-150.5 -51q-125 0 -175 75t-35 198h-62l5 28h61
l17 106h-62z" />
    <glyph glyph-name="sterling.oldtab" 
d="M67 325l5 28h74q-8 72 -8 110q0 106 59 171.5t168 65.5q91 0 139 -46.5t50 -126.5h-34q-3 67 -42 105t-114 38q-93 0 -142 -56t-49 -151q0 -38 8 -110h231l-5 -28h-223q4 -44 4 -69q0 -95 -41 -158q35 -4 112 -39t119 -35q45 0 76 28.5t38 83.5h32q-9 -67 -49 -105
t-97 -38q-49 0 -131 38t-116 38q-33 0 -55.5 -19t-30.5 -50h-33q8 35 33.5 62.5t63.5 34.5q45 60 45 157q0 31 -5 71h-82z" />
    <glyph glyph-name="yen.oldtab" 
d="M107 309l4 28h176l-154 357h37l144 -340l240 340h36l-253 -357h174l-4 -28h-182l-16 -104h181l-4 -28h-182l-27 -177h-35l28 177h-184l4 28h184l16 104h-183z" />
    <glyph glyph-name="zero.oldtab" 
d="M98 286q-6 -40 -5 -72q2 -88 47.5 -140t139.5 -52q188 1 224 234l13 77q5 35 5 63q-1 91 -48 146t-137 55q-92 0 -151 -61t-76 -173zM280 -8q-109 0 -165 61.5t-57 160.5q0 40 4 72l13 78q20 125 89 193.5t175 68.5q105 0 161.5 -64t56.5 -166q0 -30 -5 -65l-13 -77
q-20 -128 -85 -195t-174 -67z" />
    <glyph glyph-name="one.oldtab" 
d="M296 0l91 576l-256 -174l5 35l265 181h26l-97 -618h-34z" />
    <glyph glyph-name="two.oldtab" 
d="M23 0l1 9l291 221q35 27 49 37.5t44.5 38.5t44.5 48t26.5 50.5t12.5 61.5q0 64 -42 97.5t-108 33.5q-72 0 -124.5 -43.5t-70.5 -125.5h-33q17 93 80.5 145.5t148.5 52.5q79 0 132 -40.5t53 -118.5q0 -41 -15 -77t-43.5 -66.5t-56.5 -53.5t-66 -52q-9 -7 -14 -10
l-235 -178h381l-4 -30h-452z" />
    <glyph glyph-name="three.oldtab" 
d="M267 -103q-102 0 -167 54.5t-66 148.5h33q3 -80 56.5 -127t144.5 -47q90 0 144 48t54 139q0 66 -41 109t-118 43h-49l4 30h52q82 0 127.5 42t45.5 120q0 62 -41 101t-114 39q-75 0 -124.5 -42.5t-66.5 -117.5h-32q15 85 76.5 137t148.5 52q85 0 136 -46.5t51 -121.5
q0 -71 -37.5 -118t-103.5 -61q56 -15 89 -58.5t33 -106.5q0 -102 -65.5 -159.5t-169.5 -57.5z" />
    <glyph glyph-name="four.oldtab" 
d="M358 -97l27 168h-372l1 11l439 536h53l-82 -517h98l-5 -30h-97l-27 -168h-35zM66 101h323l79 491z" />
    <glyph glyph-name="five.oldtab" 
d="M39 78h32q6 -72 54.5 -112t128.5 -40q98 0 157 66t59 167q0 74 -43.5 122t-119.5 48q-105 1 -185 -83h-14l59 372h377l-5 -30h-346l-48 -295q67 65 168 65q87 0 140 -55.5t53 -141.5q0 -112 -69.5 -188t-182.5 -76q-91 0 -150 47.5t-65 133.5z" />
    <glyph glyph-name="six.oldtab" 
d="M292 -8q-105 0 -161 58.5t-56 157.5q0 36 7 80l16 97q28 176 102.5 256.5t183.5 80.5q167 0 181 -151h-34q-14 122 -147 122q-201 0 -251 -305l-11 -69q30 58 87 87.5t121 29.5q94 0 149 -51.5t55 -142.5q0 -108 -67 -179t-175 -71zM110 202q0 -83 48 -132t135 -49
q93 0 149.5 62t56.5 158q0 77 -45 122t-130 45q-90 0 -152 -57t-62 -149z" />
    <glyph glyph-name="seven.oldtab" 
d="M122 -97l393 686h-395l5 29h439l-1 -7l-404 -708h-37z" />
    <glyph glyph-name="eight.oldtab" 
d="M282 -7q-97 0 -160.5 50.5t-63.5 136.5q0 85 56 139.5t140 65.5q-50 16 -81.5 55t-31.5 93q0 84 62 136.5t151 52.5q79 0 133.5 -46.5t54.5 -122.5q0 -72 -43 -117.5t-113 -57.5q61 -16 99 -61t38 -106q0 -100 -69 -159t-172 -59zM93 182q0 -73 52 -116t139 -43
q88 0 146 49t58 138q0 69 -51 113t-134 44q-88 0 -149 -50t-61 -135zM176 532q0 -60 44 -98.5t116 -38.5q73 0 122.5 41.5t49.5 116.5q0 61 -43.5 100.5t-111.5 39.5q-76 0 -126.5 -43.5t-50.5 -117.5z" />
    <glyph glyph-name="nine.oldtab" 
d="M325 626q104 0 160 -59t56 -159q0 -37 -6 -76l-17 -108q-28 -176 -100 -252t-181 -76q-85 0 -135 42t-57 121h34q16 -133 158 -133q96 0 157.5 67t87.5 227l13 80q-30 -59 -87 -88.5t-123 -29.5q-91 0 -147 52t-56 142q0 108 68 179t175 71zM507 418q0 82 -48 130.5
t-135 48.5q-93 0 -150 -61.5t-57 -158.5q0 -77 46 -121.5t128 -44.5q91 0 153.5 57.5t62.5 149.5z" />
    <glyph glyph-name="zero.num" horiz-adv-x="349" 
d="M106 500q0 -48 24 -77.5t73 -29.5q65 0 96 54.5t31 138.5q0 48 -24 77.5t-72 29.5q-67 0 -97.5 -55.5t-30.5 -137.5zM203 367q-60 0 -93.5 36.5t-33.5 96.5q0 94 39.5 156t118.5 62q59 0 92.5 -36t33.5 -97q0 -94 -39 -156t-118 -62z" />
    <glyph glyph-name="one.num" horiz-adv-x="212" 
d="M127 371l49 308l-101 -65l4 30l111 71h23l-55 -344h-31z" />
    <glyph glyph-name="two.num" horiz-adv-x="285" 
d="M33 371l1 8l151 124q31 26 45.5 40t28 37.5t13.5 47.5q0 29 -19 47.5t-51 18.5q-76 0 -96 -85h-28q10 52 44 80.5t81 28.5q44 0 71.5 -24.5t27.5 -65.5q0 -29 -15.5 -55.5t-30.5 -40.5t-53 -46l-111 -90h181l-4 -25h-236z" />
    <glyph glyph-name="three.num" horiz-adv-x="307" 
d="M184 367q-52 0 -87 26.5t-37 75.5h29q3 -36 28 -56.5t67 -20.5q39 0 64.5 20.5t25.5 59.5q0 29 -19 48t-54 19h-24l4 24h28q33 0 54 17.5t21 50.5q0 30 -20 47t-52 17q-37 0 -60.5 -20t-32.5 -53h-28q8 43 41 69.5t80 26.5q43 0 72.5 -22t29.5 -64q0 -31 -18 -52.5
t-50 -29.5q26 -7 42.5 -27.5t16.5 -51.5q0 -48 -35 -76t-86 -28z" />
    <glyph glyph-name="four.num" horiz-adv-x="305" 
d="M217 371l13 77h-184l2 11l211 256h43l-39 -243h48l-4 -24h-48l-12 -77h-30zM89 472h144l35 219z" />
    <glyph glyph-name="five.num" horiz-adv-x="291" 
d="M168 367q-45 0 -76.5 23.5t-34.5 69.5h29q3 -32 25 -50t57 -18q43 0 69 27.5t26 74.5q0 34 -21.5 56t-57.5 22q-51 0 -84 -38h-15l30 181h192l-4 -25h-167l-20 -122q32 28 76 28t73 -27.5t29 -73.5q-1 -57 -35.5 -92t-90.5 -36z" />
    <glyph glyph-name="six.num" horiz-adv-x="316" 
d="M189 367q-52 0 -82.5 31.5t-30.5 79.5q0 30 4 54l4 26q27 160 148 160q39 0 66 -20t29 -59h-27q-6 53 -69 55q-95 0 -118 -140l-2 -14q31 49 99 49q45 0 75.5 -25.5t30.5 -71.5q0 -55 -35 -90t-92 -35zM106 473q0 -35 22.5 -58t60.5 -23q44 0 70 27t26 72q0 35 -22 55.5
t-59 20.5q-42 0 -70 -25t-28 -69z" />
    <glyph glyph-name="seven.num" horiz-adv-x="270" 
d="M92 371l185 318h-196l5 26h236l-1 -5l-195 -339h-34z" />
    <glyph glyph-name="eight.num" horiz-adv-x="315" 
d="M187 367q-50 0 -85.5 25t-35.5 69q0 39 25 63.5t68 32.5q-24 8 -40 26.5t-16 43.5q0 42 33 66.5t80 24.5q42 0 73.5 -22.5t31.5 -62.5q0 -31 -20 -52t-54 -28q66 -22 66 -83q0 -50 -35 -76.5t-91 -26.5zM96 463q1 -33 25.5 -52t66.5 -19q41 0 68 18.5t27 59.5
q0 34 -25.5 53.5t-64.5 19.5q-40 0 -68.5 -20t-28.5 -60zM133 627q0 -28 23 -44.5t56 -16.5t56.5 17t23.5 49q0 29 -22 45.5t-55 16.5q-34 0 -58 -17t-24 -50z" />
    <glyph glyph-name="nine.num" horiz-adv-x="315" 
d="M216 719q51 0 81.5 -31t30.5 -78q0 -34 -4 -57l-4 -27q-27 -159 -144 -159q-47 0 -75 22.5t-29 62.5h27q8 -60 78 -60q46 0 74 32.5t40 107.5l2 14q-31 -49 -99 -49q-45 0 -75 25.5t-30 71.5q0 54 35.5 89.5t91.5 35.5zM298 613q0 36 -22 58.5t-61 22.5
q-43 0 -69.5 -27.5t-26.5 -71.5q0 -35 22 -55.5t59 -20.5q42 0 70 25t28 69z" />
    <glyph glyph-name="zero.den" horiz-adv-x="349" 
d="M48 129q0 -48 24 -77.5t73 -29.5q65 0 96 54.5t31 138.5q0 48 -24 77.5t-73 29.5q-66 0 -96.5 -55.5t-30.5 -137.5zM145 -4q-60 0 -94 36.5t-34 97.5q0 93 40 155.5t119 62.5q59 0 92.5 -36.5t33.5 -97.5q0 -94 -39.5 -156t-117.5 -62z" />
    <glyph glyph-name="one.den" horiz-adv-x="212" 
d="M69 0l49 308l-102 -65l5 31l111 70h22l-54 -344h-31z" />
    <glyph glyph-name="two.den" horiz-adv-x="285" 
d="M-25 0l1 8l150 125q30 24 45.5 39t28.5 37.5t13 47.5q0 29 -19 47.5t-50 18.5q-77 0 -96 -85h-28q9 52 43.5 81t81.5 29q44 0 71.5 -24.5t27.5 -65.5q0 -22 -6.5 -40.5t-23.5 -37.5t-29 -30t-40 -34l-111 -91h181l-5 -25h-235z" />
    <glyph glyph-name="three.den" horiz-adv-x="307" 
d="M126 -4q-53 0 -87.5 26.5t-36.5 75.5h29q3 -36 28 -56.5t66 -20.5q39 0 65 20.5t26 59.5q0 29 -19.5 48t-54.5 19h-24l4 24h29q33 0 54 17.5t21 50.5q0 30 -20 47t-52 17q-37 0 -60.5 -20t-32.5 -53h-28q8 43 41 70t80 27q43 0 72.5 -22t29.5 -65q0 -63 -68 -82
q26 -7 42.5 -27.5t16.5 -51.5q0 -48 -35 -76t-86 -28z" />
    <glyph glyph-name="four.den" horiz-adv-x="305" 
d="M159 0l12 77h-183l2 11l211 256h42l-39 -242h49l-5 -25h-47l-12 -77h-30zM31 102h144l35 218z" />
    <glyph glyph-name="five.den" horiz-adv-x="291" 
d="M110 -4q-45 0 -76.5 24t-35.5 69h30q3 -32 24.5 -49.5t57.5 -17.5q43 0 69 27t26 74q0 35 -21.5 56.5t-57.5 21.5q-50 0 -85 -37h-14l29 180h193l-4 -25h-167l-20 -122q30 28 76 28q44 0 73 -28t28 -73q0 -57 -34.5 -92t-90.5 -36z" />
    <glyph glyph-name="six.den" horiz-adv-x="316" 
d="M130 -4q-51 0 -81.5 31.5t-30.5 80.5q0 29 4 53l4 26q27 161 148 161q40 0 66.5 -20t28.5 -60h-27q-6 53 -70 55q-94 2 -117 -140l-2 -14q30 50 99 50q44 0 74.5 -25.5t30.5 -71.5q0 -55 -35 -90.5t-92 -35.5zM48 103q0 -35 22.5 -58.5t60.5 -23.5q44 0 70 27t26 72
q0 35 -22 55.5t-59 20.5q-42 0 -70 -25t-28 -68z" />
    <glyph glyph-name="seven.den" horiz-adv-x="270" 
d="M34 0l184 319h-195l5 25h236l-1 -5l-196 -339h-33z" />
    <glyph glyph-name="eight.den" horiz-adv-x="315" 
d="M129 -4q-51 0 -86 25t-35 69q0 39 25 63.5t67 32.5q-24 9 -39.5 27.5t-15.5 43.5q0 41 33 66t79 25q43 0 74.5 -22.5t31.5 -62.5q0 -32 -20 -53t-54 -28q66 -22 66 -83q0 -50 -35 -76.5t-91 -26.5zM38 92q1 -33 25 -52t66 -19t68.5 18.5t26.5 59.5q0 34 -25 53.5
t-64 19.5q-40 0 -68.5 -20t-28.5 -60zM75 256q0 -28 23 -44.5t56 -16.5q32 0 56 17.5t24 49.5q0 28 -22.5 45t-55.5 17q-34 0 -57.5 -17.5t-23.5 -50.5z" />
    <glyph glyph-name="nine.den" horiz-adv-x="315" 
d="M157 348q52 0 82 -30.5t31 -78.5q0 -21 -4 -57l-5 -26q-25 -160 -144 -160q-46 0 -74 22.5t-29 62.5h27q8 -59 77 -59q47 0 75 32t40 107l2 15q-30 -50 -99 -50q-45 0 -75.5 25.5t-30.5 71.5q0 54 36 89.5t91 35.5zM240 242q0 35 -22.5 58.5t-60.5 23.5
q-43 0 -69.5 -27.5t-26.5 -71.5q0 -35 21.5 -55.5t59.5 -20.5q42 0 70 24.5t28 68.5z" />
    <glyph glyph-name="zero.sub" horiz-adv-x="349" 
d="M37 43q0 -48 24.5 -78t72.5 -30q66 0 96.5 55t30.5 139q0 48 -23.5 77.5t-72.5 29.5q-66 0 -97 -55.5t-31 -137.5zM135 -90q-61 0 -94.5 36t-33.5 97q0 94 40 156t118 62q60 0 93.5 -36t33.5 -97q0 -94 -39.5 -156t-117.5 -62z" />
    <glyph glyph-name="one.sub" horiz-adv-x="212" 
d="M59 -86l49 308l-102 -65l5 30l111 71h22l-55 -344h-30z" />
    <glyph glyph-name="two.sub" horiz-adv-x="285" 
d="M-36 -86l2 8l150 124q30 25 45.5 39.5t28.5 37.5t13 48q0 29 -19 47.5t-50 18.5q-76 0 -96 -85h-29q9 52 44 80.5t82 28.5q44 0 71 -24t27 -66q0 -29 -15.5 -55.5t-30 -40.5t-52.5 -46l-111 -91h180l-4 -24h-236z" />
    <glyph glyph-name="three.sub" horiz-adv-x="307" 
d="M115 -90q-52 0 -86.5 26t-37.5 76h30q2 -36 27 -56.5t67 -20.5q39 0 65 20.5t26 59.5q0 29 -19.5 48t-54.5 19h-24l4 24h29q33 0 54 17.5t21 50.5q0 30 -20.5 47t-52.5 17q-36 0 -59.5 -20t-32.5 -53h-28q8 43 40.5 69.5t80.5 26.5q42 0 71.5 -22t29.5 -64q0 -64 -67 -82
q26 -7 42.5 -27.5t16.5 -51.5q0 -48 -35 -76t-87 -28z" />
    <glyph glyph-name="four.sub" horiz-adv-x="305" 
d="M149 -86l12 77h-183l1 11l211 256h43l-39 -243h48l-4 -24h-47l-13 -77h-29zM21 15h144l35 219z" />
    <glyph glyph-name="five.sub" horiz-adv-x="291" 
d="M100 -90q-45 0 -77 24t-35 69h29q4 -32 26 -50t57 -18q42 0 68 27.5t26 74.5q0 34 -21.5 56t-57.5 22q-50 0 -84 -38h-15l30 181h193l-4 -25h-168l-19 -122q32 28 76 28t72.5 -27.5t28.5 -73.5q0 -58 -34.5 -93t-90.5 -35z" />
    <glyph glyph-name="six.sub" horiz-adv-x="316" 
d="M120 -90q-51 0 -81.5 31.5t-30.5 79.5q0 30 4 54l4 26q25 160 148 160q39 0 66 -20t29 -59h-27q-7 53 -70 55q-46 0 -75.5 -32.5t-41.5 -107.5l-3 -14q32 49 99 49q45 0 75.5 -25t30.5 -72q0 -55 -35 -90t-92 -35zM37 16q0 -36 22.5 -59t61.5 -23q44 0 70 27.5t26 72.5
q0 35 -22 55.5t-59 20.5q-42 0 -70.5 -25t-28.5 -69z" />
    <glyph glyph-name="seven.sub" horiz-adv-x="270" 
d="M24 -86l184 318h-195l4 26h237l-1 -5l-196 -339h-33z" />
    <glyph glyph-name="eight.sub" horiz-adv-x="315" 
d="M118 -90q-50 0 -85.5 25t-35.5 69q0 39 25.5 63.5t67.5 32.5q-24 8 -39.5 27t-15.5 43q0 42 33 66.5t79 24.5q43 0 74.5 -22.5t31.5 -62.5q0 -31 -20.5 -52t-53.5 -28q65 -22 65 -83q0 -51 -34.5 -77t-91.5 -26zM28 6q1 -33 25 -52t66 -19t68.5 18.5t26.5 59.5
q0 34 -25 53.5t-64 19.5q-41 0 -69 -20t-28 -60zM64 170q0 -28 23 -44.5t56 -16.5t56.5 17t23.5 49q0 29 -22 45.5t-55 16.5q-34 0 -58 -17t-24 -50z" />
    <glyph glyph-name="nine.sub" horiz-adv-x="315" 
d="M147 262q51 0 81.5 -31t30.5 -78q0 -34 -4 -57l-4 -27q-25 -159 -144 -159q-47 0 -74.5 22.5t-28.5 62.5h27q8 -60 77 -60q46 0 74.5 32.5t40.5 107.5l2 14q-32 -49 -99 -49q-45 0 -75.5 25t-30.5 72q0 54 35.5 89.5t91.5 35.5zM230 156q0 35 -22.5 58t-60.5 23
q-44 0 -70.5 -27.5t-26.5 -71.5q0 -35 22 -55.5t59 -20.5q42 0 70.5 25t28.5 69z" />
    <glyph glyph-name="plus.sub" horiz-adv-x="314" 
d="M97 -42l18 112h-107l4 25h107l18 112h27l-17 -112h107l-4 -25h-108l-17 -112h-28z" />
    <glyph glyph-name="minus.sub" horiz-adv-x="314" 
d="M8 70l4 25h242l-4 -25h-242z" />
    <glyph glyph-name="zero.sup" horiz-adv-x="349" 
d="M115 558q0 -48 24 -77.5t73 -29.5q65 0 96 54.5t31 138.5q0 48 -24 77.5t-72 29.5q-67 0 -97.5 -55.5t-30.5 -137.5zM212 425q-60 0 -93.5 36.5t-33.5 96.5q0 94 39.5 156t118.5 62q59 0 92.5 -36t33.5 -97q0 -94 -39 -156t-118 -62z" />
    <glyph glyph-name="one.sup" horiz-adv-x="212" 
d="M136 429l49 308l-101 -65l4 30l111 71h23l-55 -344h-31z" />
    <glyph glyph-name="two.sup" horiz-adv-x="285" 
d="M42 429l1 8l151 124q31 26 45.5 40t28 37.5t13.5 47.5q0 29 -19 47.5t-51 18.5q-76 0 -96 -85h-28q10 52 44 80.5t81 28.5q44 0 71.5 -24.5t27.5 -65.5q0 -29 -15.5 -55.5t-30.5 -40.5t-53 -46l-111 -90h181l-4 -25h-236z" />
    <glyph glyph-name="three.sup" horiz-adv-x="307" 
d="M193 425q-52 0 -87 26.5t-37 75.5h29q3 -36 28 -56.5t67 -20.5q39 0 64.5 20.5t25.5 59.5q0 29 -19 48t-54 19h-24l4 24h28q33 0 54 17.5t21 50.5q0 30 -20 47t-52 17q-37 0 -60.5 -20t-32.5 -53h-28q8 43 41 69.5t80 26.5q43 0 72.5 -22t29.5 -64q0 -31 -18 -52.5
t-50 -29.5q26 -7 42.5 -27.5t16.5 -51.5q0 -48 -35 -76t-86 -28z" />
    <glyph glyph-name="four.sup" horiz-adv-x="305" 
d="M226 429l13 77h-184l2 11l211 256h43l-39 -243h48l-4 -24h-48l-12 -77h-30zM98 530h144l35 219z" />
    <glyph glyph-name="five.sup" horiz-adv-x="291" 
d="M177 425q-45 0 -76.5 23.5t-34.5 69.5h29q3 -32 25 -50t57 -18q43 0 69 27.5t26 74.5q0 34 -21.5 56t-57.5 22q-51 0 -84 -38h-15l30 181h192l-4 -25h-167l-20 -122q32 28 76 28t73 -27.5t29 -73.5q-1 -57 -35.5 -92t-90.5 -36z" />
    <glyph glyph-name="six.sup" horiz-adv-x="316" 
d="M198 425q-52 0 -82.5 31.5t-30.5 79.5q0 30 4 54l4 26q27 160 148 160q39 0 66 -20t29 -59h-27q-6 53 -69 55q-95 0 -118 -140l-2 -14q31 49 99 49q45 0 75.5 -25.5t30.5 -71.5q0 -55 -35 -90t-92 -35zM115 531q0 -35 22.5 -58t60.5 -23q44 0 70 27t26 72q0 35 -22 55.5
t-59 20.5q-42 0 -70 -25t-28 -69z" />
    <glyph glyph-name="seven.sup" horiz-adv-x="270" 
d="M101 429l185 318h-196l5 26h236l-1 -5l-195 -339h-34z" />
    <glyph glyph-name="eight.sup" horiz-adv-x="315" 
d="M196 425q-50 0 -85.5 25t-35.5 69q0 39 25 63.5t68 32.5q-24 8 -40 26.5t-16 43.5q0 42 33 66.5t80 24.5q42 0 73.5 -22.5t31.5 -62.5q0 -31 -20 -52t-54 -28q66 -22 66 -83q0 -50 -35 -76.5t-91 -26.5zM105 521q1 -33 25.5 -52t66.5 -19q41 0 68 18.5t27 59.5
q0 34 -25.5 53.5t-64.5 19.5q-40 0 -68.5 -20t-28.5 -60zM142 685q0 -28 23 -44.5t56 -16.5t56.5 17t23.5 49q0 29 -22 45.5t-55 16.5q-34 0 -58 -17t-24 -50z" />
    <glyph glyph-name="nine.sup" horiz-adv-x="315" 
d="M225 777q51 0 81.5 -31t30.5 -78q0 -34 -4 -57l-4 -27q-27 -159 -144 -159q-47 0 -75 22.5t-29 62.5h27q8 -60 78 -60q46 0 74 32.5t40 107.5l2 14q-31 -49 -99 -49q-45 0 -75 25.5t-30 71.5q0 54 35.5 89.5t91.5 35.5zM307 671q0 36 -22 58.5t-61 22.5
q-43 0 -69.5 -27.5t-26.5 -71.5q0 -35 22 -55.5t59 -20.5q42 0 70 25t28 69z" />
    <glyph glyph-name="plus.sup" horiz-adv-x="314" 
d="M176 477l17 111h-107l5 25h107l17 112h28l-18 -112h108l-5 -25h-108l-17 -111h-27z" />
    <glyph glyph-name="minus.sup" horiz-adv-x="314" 
d="M86 588l5 25h242l-5 -25h-242z" />
    <glyph glyph-name="a.alt" horiz-adv-x="586" 
d="M301 501q-102 0 -165 -79.5t-63 -195.5q0 -95 50.5 -149.5t128.5 -54.5q99 0 161 83t64 191q1 93 -48 149t-128 56zM248 -8q-92 0 -151 63.5t-59 169.5q0 128 72.5 217t189.5 89q83 0 130.5 -47t60.5 -109l24 148h34l-57 -354q-15 -91 -17 -169h-33q0 49 12 131
q-30 -63 -82 -101t-124 -38z" />
    <glyph glyph-name="t.alt" horiz-adv-x="307" 
d="M72 0l78 494h-92l5 29h91l19 119h35l-19 -119h133l-5 -29h-133l-77 -494h-35z" />
    <glyph glyph-name="germandbls.alt" horiz-adv-x="583" 
d="M355 -5q-71 0 -116.5 36t-49.5 104h34q5 -53 40.5 -82t92.5 -29q59 0 97.5 32t38.5 85q0 44 -25.5 72.5t-81.5 64.5q-31 20 -44 29.5t-31 25t-24.5 30.5t-6.5 33q0 34 33.5 65t74 52.5t74 56.5t33.5 76q0 48 -37 74.5t-94 26.5q-81 0 -134 -48t-67 -136l-89 -563h-34
l89 565q16 99 79.5 155t157.5 56q68 0 115 -33.5t47 -95.5q0 -38 -22 -70t-53.5 -53.5t-63.5 -40.5t-54 -40t-22 -43q0 -6 1 -11.5t4.5 -11t6 -9.5t9.5 -10t11 -9.5t14 -10.5l15 -10.5t18.5 -12t19.5 -12.5q39 -26 60.5 -44.5t38.5 -49t17 -67.5q0 -65 -48.5 -106
t-123.5 -41z" />
    <glyph glyph-name="aacute.alt" horiz-adv-x="586" 
d="M306 600l93 147h43l-106 -147h-30zM301 501q-102 0 -165 -79.5t-63 -195.5q0 -95 50.5 -149.5t128.5 -54.5q99 0 161 83t64 191q1 93 -48 149t-128 56zM248 -8q-92 0 -151 63.5t-59 169.5q0 128 72.5 217t189.5 89q83 0 130.5 -47t60.5 -109l24 148h34l-57 -354
q-15 -91 -17 -169h-33q0 49 12 131q-30 -63 -82 -101t-124 -38z" />
    <glyph glyph-name="abreve.alt" horiz-adv-x="586" 
d="M301 501q-102 0 -165 -79.5t-63 -195.5q0 -95 50.5 -149.5t128.5 -54.5q99 0 161 83t64 191q1 93 -48 149t-128 56zM248 -8q-92 0 -151 63.5t-59 169.5q0 128 72.5 217t189.5 89q83 0 130.5 -47t60.5 -109l24 148h34l-57 -354q-15 -91 -17 -169h-33q0 49 12 131
q-30 -63 -82 -101t-124 -38zM331 614q-50 0 -79 31t-30 83h30q2 -40 22.5 -62.5t57.5 -22.5t63 22.5t33 62.5h29q-7 -52 -43 -83t-83 -31z" />
    <glyph glyph-name="acircumflex.alt" horiz-adv-x="586" 
d="M199 600l127 129h33l94 -129h-29l-84 101l-110 -101h-31zM301 501q-102 0 -165 -79.5t-63 -195.5q0 -95 50.5 -149.5t128.5 -54.5q99 0 161 83t64 191q1 93 -48 149t-128 56zM248 -8q-92 0 -151 63.5t-59 169.5q0 128 72.5 217t189.5 89q83 0 130.5 -47t60.5 -109l24 148
h34l-57 -354q-15 -91 -17 -169h-33q0 49 12 131q-30 -63 -82 -101t-124 -38z" />
    <glyph glyph-name="adieresis.alt" horiz-adv-x="586" 
d="M262 638q-11 0 -18.5 7.5t-7.5 18.5t7.5 18.5t18.5 7.5t18.5 -7.5t7.5 -18.5q0 -10 -8 -18t-18 -8zM415 638q-11 0 -18.5 7.5t-7.5 18.5q0 10 7.5 18t18.5 8t18.5 -7.5t7.5 -18.5t-7.5 -18.5t-18.5 -7.5zM301 501q-102 0 -165 -79.5t-63 -195.5q0 -95 50.5 -149.5
t128.5 -54.5q99 0 161 83t64 191q1 93 -48 149t-128 56zM248 -8q-92 0 -151 63.5t-59 169.5q0 128 72.5 217t189.5 89q83 0 130.5 -47t60.5 -109l24 148h34l-57 -354q-15 -91 -17 -169h-33q0 49 12 131q-30 -63 -82 -101t-124 -38z" />
    <glyph glyph-name="agrave.alt" horiz-adv-x="586" 
d="M301 501q-102 0 -165 -79.5t-63 -195.5q0 -95 50.5 -149.5t128.5 -54.5q99 0 161 83t64 191q1 93 -48 149t-128 56zM248 -8q-92 0 -151 63.5t-59 169.5q0 128 72.5 217t189.5 89q83 0 130.5 -47t60.5 -109l24 148h34l-57 -354q-15 -91 -17 -169h-33q0 49 12 131
q-30 -63 -82 -101t-124 -38zM314 600l-63 147h40l51 -147h-28z" />
    <glyph glyph-name="amacron.alt" horiz-adv-x="586" 
d="M301 501q-102 0 -165 -79.5t-63 -195.5q0 -95 50.5 -149.5t128.5 -54.5q99 0 161 83t64 191q1 93 -48 149t-128 56zM248 -8q-92 0 -151 63.5t-59 169.5q0 128 72.5 217t189.5 89q83 0 130.5 -47t60.5 -109l24 148h34l-57 -354q-15 -91 -17 -169h-33q0 49 12 131
q-30 -63 -82 -101t-124 -38zM222 647l5 28h229l-4 -28h-230z" />
    <glyph glyph-name="aogonek.alt" horiz-adv-x="586" 
d="M475 0q-20 -12 -31 -19.5t-30 -23t-28 -32t-9 -34.5q0 -46 54 -46q23 0 46 8l-5 -27q-24 -8 -47 -8q-39 0 -60.5 19t-20.5 51q0 60 98 116q0 45 12 127q-30 -63 -82 -101t-124 -38q-92 0 -151 63.5t-59 169.5q0 128 72.5 217t189.5 89q83 0 130.5 -47t60.5 -109l24 148
h34l-57 -354q-15 -91 -17 -169zM301 501q-102 0 -165 -79.5t-63 -195.5q0 -95 50.5 -149.5t128.5 -54.5q99 0 161 83t64 191q1 93 -48 149t-128 56z" />
    <glyph glyph-name="aring.alt" horiz-adv-x="586" 
d="M345 625q30 0 49 19.5t19 50.5q0 29 -17.5 47t-46.5 18t-48.5 -20t-19.5 -50q0 -27 18.5 -46t45.5 -19zM345 603q-38 0 -64 25.5t-26 61.5q0 38 27.5 65.5t66.5 27.5t64.5 -25.5t25.5 -62.5q0 -39 -27 -65.5t-67 -26.5zM301 501q-102 0 -165 -79.5t-63 -195.5
q0 -95 50.5 -149.5t128.5 -54.5q99 0 161 83t64 191q1 93 -48 149t-128 56zM248 -8q-92 0 -151 63.5t-59 169.5q0 128 72.5 217t189.5 89q83 0 130.5 -47t60.5 -109l24 148h34l-57 -354q-15 -91 -17 -169h-33q0 49 12 131q-30 -63 -82 -101t-124 -38z" />
    <glyph glyph-name="aringacute.alt" horiz-adv-x="586" 
d="M336 620q30 0 49 19.5t19 50.5q0 29 -17.5 47t-46.5 18t-48.5 -20t-19.5 -50q0 -27 18.5 -46t45.5 -19zM336 598q-38 0 -64 25.5t-26 61.5q0 38 27.5 65.5t66.5 27.5t64.5 -25.5t25.5 -62.5q0 -39 -27 -65.5t-67 -26.5zM301 501q-102 0 -165 -79.5t-63 -195.5
q0 -95 50.5 -149.5t128.5 -54.5q99 0 161 83t64 191q1 93 -48 149t-128 56zM248 -8q-92 0 -151 63.5t-59 169.5q0 128 72.5 217t189.5 89q83 0 130.5 -47t60.5 -109l24 148h34l-57 -354q-15 -91 -17 -169h-33q0 49 12 131q-30 -63 -82 -101t-124 -38zM347 830l78 120h43
l-90 -120h-31z" />
    <glyph glyph-name="atilde.alt" horiz-adv-x="586" 
d="M301 501q-102 0 -165 -79.5t-63 -195.5q0 -95 50.5 -149.5t128.5 -54.5q99 0 161 83t64 191q1 93 -48 149t-128 56zM248 -8q-92 0 -151 63.5t-59 169.5q0 128 72.5 217t189.5 89q83 0 130.5 -47t60.5 -109l24 148h34l-57 -354q-15 -91 -17 -169h-33q0 49 12 131
q-30 -63 -82 -101t-124 -38zM399 615q-26 0 -69 29t-61 29q-19 0 -34.5 -15t-21.5 -43h-28q9 43 31.5 65.5t53.5 22.5q25 0 68 -29.5t61 -29.5t33.5 15.5t21.5 43.5h28q-9 -43 -31 -65.5t-52 -22.5z" />
    <glyph glyph-name="tbar.alt" horiz-adv-x="307" 
d="M30 315l4 27h92l24 152h-92l5 29h91l19 119h35l-19 -119h133l-5 -29h-133l-24 -152h133l-4 -27h-133l-49 -315h-35l49 315h-91z" />
    <glyph glyph-name="tcaron.alt" horiz-adv-x="307" 
d="M72 0l78 494h-92l5 29h91l19 119h35l-19 -119h133l-5 -29h-133l-77 -494h-35zM290 619l39 154h37l-49 -154h-27z" />
    <glyph glyph-name="tcommaaccent.alt" horiz-adv-x="307" 
d="M19 -195l-23 12l68 139l34 -10zM72 0l78 494h-92l5 29h91l19 119h35l-19 -119h133l-5 -29h-133l-77 -494h-35z" />
    <glyph glyph-name="f.short" horiz-adv-x="315" 
d="M59 494l5 29h82l16 98q25 155 158 155q28 0 56 -8l-4 -29q-24 8 -51 8q-50 0 -81.5 -28t-43.5 -100l-15 -96h156l-5 -29h-156l-78 -494h-34l78 494h-83z" />
    <glyph glyph-name="f_f.short" horiz-adv-x="586" 
d="M59 494l5 29h82l15 94q23 150 159 150q30 0 59 -9l-4 -29q-25 9 -54 9q-106 0 -126 -122l-15 -93h237l16 98q25 155 158 155q28 0 56 -8l-4 -29q-22 8 -51 8q-49 0 -81 -28.5t-44 -99.5l-15 -96h156l-5 -29h-156l-78 -494h-34l78 494h-237l-78 -494h-34l77 494h-82z" />
    <glyph glyph-name="questiondown.uc" horiz-adv-x="469" 
d="M320 551l-10 -67q-9 -58 -37.5 -92.5t-90.5 -82.5q-64 -51 -81 -72q-36 -42 -36 -100q0 -56 39.5 -85t98.5 -29q71 0 118.5 41.5t62.5 120.5h33q-13 -91 -72 -141.5t-145 -50.5q-73 0 -122 38t-49 106q0 21 3 39t12.5 35.5t15 27.5t23.5 26.5t24 21.5t30 23.5t28 21.5
q39 31 56.5 47.5t34.5 44.5t22 63l10 64h32zM326 720q12 0 20.5 -8.5t8.5 -20.5q0 -11 -8.5 -19.5t-20.5 -8.5t-20.5 8.5t-8.5 19.5q0 12 8.5 20.5t20.5 8.5z" />
    <glyph glyph-name="exclamdown.uc" horiz-adv-x="263" 
d="M190 551l-82 -551h-38l92 551h28zM199 720q12 0 20.5 -8.5t8.5 -20.5q0 -11 -8.5 -19.5t-20.5 -8.5t-20.5 8.5t-8.5 19.5q0 12 8.5 20.5t20.5 8.5z" />
    <glyph glyph-name="hyphen.uc" horiz-adv-x="355" 
d="M71 320l6 33h229l-6 -33h-229z" />
    <glyph glyph-name="endash.uc" horiz-adv-x="489" 
d="M56 321l5 30h394l-5 -30h-394z" />
    <glyph glyph-name="emdash.uc" horiz-adv-x="859" 
d="M56 321l5 30h764l-5 -30h-764z" />
    <glyph glyph-name="guilsinglleft.uc" horiz-adv-x="270" 
d="M165 121l-110 180l166 181h38l-167 -182l107 -179h-34z" />
    <glyph glyph-name="guilsinglright.uc" horiz-adv-x="270" 
d="M117 482l110 -182l-166 -179h-38l167 181l-107 180h34z" />
    <glyph glyph-name="guillemotleft.uc" horiz-adv-x="415" 
d="M165 121l-110 180l166 181h38l-167 -182l107 -179h-34zM310 121l-110 180l166 181h38l-167 -182l107 -179h-34z" />
    <glyph glyph-name="guillemotright.uc" horiz-adv-x="415" 
d="M262 482l110 -182l-166 -179h-38l167 181l-107 180h34zM117 482l110 -182l-166 -179h-38l167 181l-107 180h34z" />
    <glyph glyph-name="parenleft.uc" horiz-adv-x="281" 
d="M160 -98q-99 151 -99 341q0 157 63 294.5t174 245.5h37q-238 -241 -238 -539q0 -183 97 -342h-34z" />
    <glyph glyph-name="parenright.uc" horiz-adv-x="281" 
d="M146 783q98 -153 98 -341q0 -157 -62.5 -294.5t-173.5 -245.5h-38q239 242 239 539q0 181 -98 342h35z" />
    <glyph glyph-name="bracketleft.uc" horiz-adv-x="331" 
d="M40 -84l137 862h194l-5 -28h-159l-127 -806h159l-5 -28h-194z" />
    <glyph glyph-name="bracketright.uc" horiz-adv-x="331" 
d="M-16 -84l5 28h160l127 806h-160l5 28h194l-137 -862h-194z" />
    <glyph glyph-name="braceleft.uc" horiz-adv-x="351" 
d="M255 -89q-99 6 -133.5 57t-2.5 144l32 89q46 134 -98 141l5 27q78 0 111.5 30.5t29.5 94.5l-7 102q-7 99 42.5 139.5t157.5 43.5l-5 -27q-90 -4 -129.5 -36.5t-33.5 -120.5l7 -100q8 -119 -113 -142q51 -13 68 -52.5t-4 -104.5l-31 -88q-28 -83 -1.5 -123t110.5 -46z" />
    <glyph glyph-name="braceright.uc" horiz-adv-x="353" 
d="M121 780q98 -6 133 -57t3 -143l-31 -89q-48 -134 97 -141l-5 -28q-78 1 -111.5 -29.5t-28.5 -95.5l7 -102q6 -99 -43.5 -139.5t-157.5 -43.5l5 28q90 3 129.5 36t33.5 121l-7 99q-8 120 113 143q-51 13 -68 52.5t5 104.5l31 87q28 83 1 123.5t-110 45.5z" />
    <glyph glyph-name="slash.uc" horiz-adv-x="383" 
d="M-19 -84l407 862h35l-407 -862h-35z" />
    <glyph glyph-name="backslash.uc" horiz-adv-x="383" 
d="M257 -84l-136 862h33l136 -862h-33z" />
    <glyph glyph-name="bar.uc" horiz-adv-x="233" 
d="M113 -84l-1 862h31v-862h-30z" />
    <glyph glyph-name="at.uc" horiz-adv-x="887" 
d="M461 -59q-95 0 -171.5 32t-125 86.5t-74.5 124t-26 146.5q0 117 59 214.5t154.5 151.5t203.5 54q170 0 272.5 -99t102.5 -250q0 -124 -53.5 -185.5t-121.5 -61.5q-50 0 -77 26t-27 75q-17 -43 -59.5 -75.5t-96.5 -32.5q-66 0 -106.5 42.5t-40.5 113.5q-1 95 55 166
t139 71q52 0 87 -29t42 -74l15 94h33l-35 -226q-22 -124 72 -124q60 0 100 55t40 164q0 142 -90.5 231.5t-250.5 89.5q-157 0 -270.5 -112.5t-113.5 -279.5q0 -71 23.5 -135t67.5 -114t114.5 -79.5t159.5 -29.5q193 0 285 112h34q-39 -61 -123.5 -101.5t-196.5 -40.5z
M426 175q64 0 111.5 58.5t48.5 140.5q1 62 -30.5 99.5t-86.5 37.5q-69 0 -114.5 -61t-45.5 -146q0 -59 31.5 -94t85.5 -35z" />
    </font>
</defs>
</svg>
