<?xml version="1.0" standalone="no"?>
<!DOCTYPE svg PUBLIC "-//W3C//DTD SVG 1.1//EN" "http://www.w3.org/Graphics/SVG/1.1/DTD/svg11.dtd" >
<svg>
<metadata>
Created by FontForge 20120731 at Sun Aug 28 06:44:51 2016
 By ,,,
(c)2009 Commercial Type.
</metadata>
<defs>
<font id="Graphik-Bold" horiz-adv-x="600" >
  <font-face 
    font-family="Graphik Bold"
    font-weight="700"
    font-stretch="normal"
    units-per-em="1000"
    panose-1="2 11 8 3 3 2 2 6 2 3"
    ascent="825"
    descent="-175"
    x-height="523"
    cap-height="715"
    bbox="-243 -232 1198 1137"
    underline-thickness="50"
    underline-position="-50"
    unicode-range="U+0020-FB02"
  />
<missing-glyph horiz-adv-x="519" 
 />
    <glyph glyph-name="f_f" unicode="ff" horiz-adv-x="716" 
d="M80 0v401h-66v122h66v40q0 95 54 143t150 48q42 0 80 -10v-131q-23 7 -48 7q-29 0 -43.5 -15.5t-14.5 -41.5v-40h152v46q0 95 55 143.5t150 48.5q38 0 82 -11v-131q-23 7 -49 7q-59 0 -59 -57v-46h106v-122h-106v-401h-179v401h-152v-401h-178z" />
    <glyph glyph-name=".notdef" horiz-adv-x="519" 
 />
    <glyph glyph-name=".null" horiz-adv-x="0" 
 />
    <glyph glyph-name="nonmarkingreturn" horiz-adv-x="333" 
 />
    <glyph glyph-name="space" unicode=" " horiz-adv-x="197" 
 />
    <glyph glyph-name="exclam" unicode="!" horiz-adv-x="334" 
d="M167 -11q-44 0 -75 29t-31 70t31 70.5t75 29.5t75.5 -29.5t31.5 -70.5t-31.5 -70t-75.5 -29zM93 235l-27 480h202l-27 -480h-148z" />
    <glyph glyph-name="quotedbl" unicode="&#x22;" horiz-adv-x="462" 
d="M61 440l-20 275h168l-21 -275h-127zM274 440l-21 275h169l-21 -275h-127z" />
    <glyph glyph-name="numbersign" unicode="#" horiz-adv-x="576" 
d="M270 99l21 142h-62l-21 -142h-121l21 142h-69v141h90l11 76h-77v134h97l18 123h121l-18 -123h62l19 123h121l-19 -123h72v-134h-92l-11 -76h79v-141h-100l-21 -142h-121zM261 458l-11 -76h62l11 76h-62z" />
    <glyph glyph-name="dollar" unicode="$" horiz-adv-x="647" 
d="M288 -135v125q-126 9 -192.5 71.5t-71.5 164.5h185q9 -79 79 -94v146q-132 19 -190 71.5t-58 155.5q0 91 67 151t181 68v89h78v-90q226 -19 243 -216h-181q-10 61 -62 75v-138q125 -18 189 -67t64 -152q0 -97 -64 -162t-189 -73v-125h-78zM433 203q0 26 -14 39.5
t-53 22.5v-133q67 14 67 71zM220 520q0 -27 14.5 -41.5t53.5 -22.5v128q-68 -12 -68 -64z" />
    <glyph glyph-name="percent" unicode="%" horiz-adv-x="827" 
d="M215 468q27 0 42 20.5t15 56.5t-15 56t-42 20q-28 0 -43.5 -20t-15.5 -55q0 -37 15.5 -57.5t43.5 -20.5zM214 364q-87 0 -138 51t-51 130q0 76 54 127t136 51q81 0 135 -49.5t54 -125.5q0 -80 -52 -132t-138 -52zM118 0l496 715h98l-496 -715h-98zM613 93q58 0 58 77
q0 35 -15 55t-43 20q-27 0 -42.5 -20t-15.5 -55q0 -37 15.5 -57t42.5 -20zM612 -12q-87 0 -138 51t-51 130q0 76 54.5 127t135.5 51q82 0 135.5 -49t53.5 -126q0 -80 -52 -132t-138 -52z" />
    <glyph glyph-name="ampersand" unicode="&#x26;" horiz-adv-x="762" 
d="M747 372l-115 -226l119 -146h-233l-42 52q-80 -64 -193 -64q-115 0 -183 57.5t-68 158.5q0 133 157 208q-44 62 -44 125q0 88 65.5 137.5t164.5 49.5q91 0 154 -44t63 -123q0 -115 -143 -177l90 -110l52 102h156zM314 137q42 0 70 30l-113 136q-48 -28 -48 -77
q0 -40 23.5 -64.5t67.5 -24.5zM321 535q0 -32 41 -80q71 34 71 87q0 24 -14.5 39.5t-38.5 15.5q-26 0 -42.5 -16.5t-16.5 -45.5z" />
    <glyph glyph-name="quotesingle" unicode="'" horiz-adv-x="256" 
d="M61 440l-20 275h175l-21 -275h-134z" />
    <glyph glyph-name="parenleft" unicode="(" horiz-adv-x="356" 
d="M204 -148q-166 200 -166 461q0 262 166 462h140q-135 -209 -135 -462q0 -252 135 -461h-140z" />
    <glyph glyph-name="parenright" unicode=")" horiz-adv-x="356" 
d="M11 -147q135 206 135 462q0 255 -135 461h140q167 -199 167 -461q0 -263 -167 -462h-140z" />
    <glyph glyph-name="asterisk" unicode="*" horiz-adv-x="440" 
d="M165 370l-108 77l89 90l-117 13l34 123l110 -53l-24 123h143l-24 -123l109 53l35 -123l-118 -13l89 -90l-107 -77l-56 115z" />
    <glyph glyph-name="plus" unicode="+" horiz-adv-x="570" 
d="M213 83v192h-176v130h176v192h144v-192h176v-130h-176v-192h-144z" />
    <glyph glyph-name="comma" unicode="," horiz-adv-x="306" 
d="M122 -122l-106 41l84 263l166 -59z" />
    <glyph glyph-name="hyphen" unicode="-" horiz-adv-x="382" 
d="M51 218v135h280v-135h-280z" />
    <glyph glyph-name="period" unicode="." horiz-adv-x="299" 
d="M148 -11q-44 0 -73 29.5t-29 71.5t29 71.5t73 29.5q45 0 75 -29.5t30 -71.5t-30 -71.5t-75 -29.5z" />
    <glyph glyph-name="slash" unicode="/" horiz-adv-x="434" 
d="M-24 -148l317 924h143l-318 -924h-142z" />
    <glyph glyph-name="zero" unicode="0" horiz-adv-x="732" 
d="M368 147q65 0 94 48t29 149v29q0 99 -30 148t-95 49q-125 0 -125 -197v-30q0 -100 30.5 -148t96.5 -48zM362 -12q-151 0 -238.5 93.5t-87.5 260.5v30q0 165 92 259t238 94q147 0 238.5 -90.5t91.5 -258.5v-28q0 -169 -90 -264.5t-244 -95.5z" />
    <glyph glyph-name="one" unicode="1" horiz-adv-x="450" 
d="M168 0v513l-136 -84v171l164 115h177v-715h-205z" />
    <glyph glyph-name="two" unicode="2" horiz-adv-x="615" 
d="M8 0v29l250 265q60 64 89 109.5t29 87.5q0 37 -19.5 58.5t-56.5 21.5q-80 0 -92 -116h-186q5 132 80.5 201t207.5 69q128 0 198 -62t70 -164q0 -69 -34 -127t-101 -122l-100 -97h240v-153h-575z" />
    <glyph glyph-name="three" unicode="3" horiz-adv-x="652" 
d="M326 -12q-288 0 -298 247h182q10 -99 105 -99q94 0 94 81q0 84 -94 84h-57v127h53q95 0 95 79q0 33 -21 52t-61 19q-82 0 -95 -91h-181q7 109 79 173.5t202 64.5q125 0 197 -53t72 -143q0 -59 -31.5 -98t-89.5 -56q63 -13 101 -55.5t38 -106.5q0 -104 -75.5 -164.5
t-214.5 -60.5z" />
    <glyph glyph-name="four" unicode="4" horiz-adv-x="678" 
d="M366 0v137h-348v77l298 501h247v-437h92v-141h-92v-137h-197zM211 278h160v283z" />
    <glyph glyph-name="five" unicode="5" horiz-adv-x="631" 
d="M307 -12q-136 0 -206.5 65t-74.5 172h186q6 -41 26.5 -62t66.5 -21q42 0 64 28t22 73q0 48 -25.5 75t-71.5 27q-74 0 -118 -51h-122l15 421h482v-150h-334l-4 -158q53 76 167 76q100 0 158.5 -64t58.5 -179t-77.5 -183.5t-212.5 -68.5z" />
    <glyph glyph-name="six" unicode="6" horiz-adv-x="674" 
d="M351 -12q-163 0 -239 93.5t-76 256.5v19q0 171 90.5 269.5t230.5 98.5q121 0 190.5 -53.5t80.5 -157.5h-188q-12 60 -76 60q-58 0 -90 -49t-35 -140q54 83 167 83q102 0 169.5 -60.5t67.5 -168.5q0 -114 -78.5 -182.5t-213.5 -68.5zM349 133q43 0 69 29t26 75t-25.5 74.5
t-69.5 28.5t-70.5 -28.5t-26.5 -72.5q0 -48 26.5 -77t70.5 -29z" />
    <glyph glyph-name="seven" unicode="7" horiz-adv-x="576" 
d="M112 0l200 549h-288v166h544v-21l-248 -694h-208z" />
    <glyph glyph-name="eight" unicode="8" horiz-adv-x="657" 
d="M328 -12q-138 0 -218 55.5t-80 158.5q0 62 33.5 107.5t96.5 67.5q-100 45 -100 148q0 93 77.5 146.5t192.5 53.5q118 0 194 -53t76 -146q0 -102 -101 -148q128 -44 128 -171q0 -103 -81 -161t-218 -58zM329 132q43 0 70 24.5t27 66.5t-26.5 66.5t-69.5 24.5t-70.5 -24.5
t-27.5 -66.5t27 -66.5t70 -24.5zM331 430q36 0 60 21.5t24 57.5q0 35 -24.5 56.5t-60.5 21.5t-60 -21.5t-24 -56.5q0 -36 24.5 -57.5t60.5 -21.5z" />
    <glyph glyph-name="nine" unicode="9" horiz-adv-x="675" 
d="M322 -11q-126 0 -198.5 55t-83.5 158h188q12 -61 84 -61q62 0 91.5 46t31.5 140q-53 -84 -162 -84q-107 0 -174.5 60.5t-67.5 170.5q0 114 79.5 183t214.5 69q155 0 234 -94.5t79 -255.5v-24q0 -174 -81.5 -268.5t-234.5 -94.5zM322 375q44 0 71 28.5t27 71.5
q0 48 -26.5 77.5t-71.5 29.5q-42 0 -68.5 -29.5t-26.5 -75.5q0 -45 25.5 -73.5t69.5 -28.5z" />
    <glyph glyph-name="colon" unicode=":" horiz-adv-x="305" 
d="M151 -11q-43 0 -72.5 29.5t-29.5 71.5t29.5 71.5t72.5 29.5q45 0 75 -29.5t30 -71.5t-30 -71.5t-75 -29.5zM151 275q-43 0 -72.5 29t-29.5 72q0 42 29.5 71.5t72.5 29.5q45 0 75 -29.5t30 -71.5q0 -43 -30 -72t-75 -29z" />
    <glyph glyph-name="semicolon" unicode=";" horiz-adv-x="321" 
d="M116 -122l-106 41l83 263l166 -59zM174 275q-44 0 -73 29t-29 72q0 42 29 71.5t73 29.5q45 0 75 -29.5t30 -71.5q0 -43 -30 -72t-75 -29z" />
    <glyph glyph-name="less" unicode="&#x3c;" horiz-adv-x="513" 
d="M463 59l-421 246v34l421 246v-162l-190 -100l190 -106v-158z" />
    <glyph glyph-name="equal" unicode="=" horiz-adv-x="557" 
d="M39 167v122h479v-122h-479zM39 363v123h479v-123h-479z" />
    <glyph glyph-name="greater" unicode="&#x3e;" horiz-adv-x="513" 
d="M49 60v163l191 99l-191 106v158l422 -246v-34z" />
    <glyph glyph-name="question" unicode="?" horiz-adv-x="556" 
d="M169 235v19q0 27 7.5 50.5t25.5 46.5t29 35t36 36q22 22 33 33.5t21.5 30t10.5 34.5q0 60 -61 60q-32 0 -53 -23.5t-26 -64.5h-174q4 111 76.5 172t190.5 61q115 0 178 -49.5t63 -138.5q0 -79 -73 -150q-12 -12 -36.5 -34.5t-37 -35t-25.5 -31.5t-16 -36v-15h-169z
M254 -11q-45 0 -76.5 29t-31.5 70t31.5 70.5t76.5 29.5q44 0 75 -29.5t31 -70.5t-31 -70t-75 -29z" />
    <glyph glyph-name="at" unicode="@" horiz-adv-x="921" 
d="M460 -158q-197 0 -314.5 117t-117.5 292q0 97 37.5 180.5t99.5 139.5t144 88t170 32q180 0 296.5 -101t116.5 -263q0 -139 -63 -207t-153 -68q-125 0 -147 82q-41 -84 -134 -84q-74 0 -118.5 50t-44.5 136q0 104 57 169.5t141 65.5q82 0 109 -60l7 52h147l-34 -273
q-8 -66 44 -66q46 0 77.5 51t31.5 154q0 131 -90 211.5t-241 80.5q-158 0 -263 -102t-105 -269q0 -149 91.5 -244t259.5 -95q82 0 149 25t108 64h91q-50 -73 -144 -115.5t-208 -42.5zM443 168q34 0 57 32.5t23 83.5q0 33 -16.5 52t-47.5 19q-34 0 -55.5 -31.5t-21.5 -81.5
q0 -33 16 -53.5t45 -20.5z" />
    <glyph glyph-name="A" unicode="A" horiz-adv-x="747" 
d="M13 0l229 715h265l227 -715h-217l-38 133h-237l-38 -133h-191zM361 549l-79 -275h157z" />
    <glyph glyph-name="B" unicode="B" horiz-adv-x="679" 
d="M69 0v715h319q122 0 181.5 -50t59.5 -137v-4q0 -122 -121 -154q143 -24 143 -167v-4q0 -199 -260 -199h-322zM269 137h85q95 0 95 83v4q0 82 -101 82h-79v-169zM269 431h78q48 0 68 17t20 56v4q0 37 -21 54t-67 17h-78v-148z" />
    <glyph glyph-name="C" unicode="C" horiz-adv-x="759" 
d="M405 -12q-183 0 -278 98t-95 267v8q0 163 103 264t262 101q144 0 232 -68.5t100 -206.5h-211q-12 113 -120 113q-70 0 -110 -53t-40 -149v-8q0 -97 40 -149.5t113 -52.5q55 0 90.5 29.5t42.5 87.5h204q-10 -136 -100 -208.5t-233 -72.5z" />
    <glyph glyph-name="D" unicode="D" horiz-adv-x="743" 
d="M275 158h47q91 0 133.5 48.5t42.5 148.5v8q0 102 -42.5 148t-135.5 46h-45v-399zM69 0v715h260q189 0 286 -90.5t97 -258.5v-8q0 -169 -98.5 -263.5t-285.5 -94.5h-259z" />
    <glyph glyph-name="E" unicode="E" horiz-adv-x="612" 
d="M69 0v715h494v-158h-290v-123h231v-146h-231v-130h306v-158h-510z" />
    <glyph glyph-name="F" unicode="F" horiz-adv-x="579" 
d="M69 0v715h483v-159h-277v-152h221v-151h-221v-253h-206z" />
    <glyph glyph-name="G" unicode="G" horiz-adv-x="787" 
d="M406 -12q-178 0 -276.5 100t-98.5 265v8q0 162 106 263.5t269 101.5q137 0 230 -65.5t103 -197.5h-203q-15 102 -129 102q-76 0 -119 -55t-43 -152v-8q0 -94 39.5 -150t127.5 -56q70 0 104.5 30.5t37.5 77.5h-134v143h336v-88q0 -142 -91 -230.5t-259 -88.5z" />
    <glyph glyph-name="H" unicode="H" horiz-adv-x="784" 
d="M69 0v715h206v-273h235v273h205v-715h-205v282h-235v-282h-206z" />
    <glyph glyph-name="I" unicode="I" horiz-adv-x="352" 
d="M73 0v715h207v-715h-207z" />
    <glyph glyph-name="J" unicode="J" horiz-adv-x="478" 
d="M163 -9q-80 0 -130 24v153q42 -14 87 -14q93 0 93 99v462h206v-464q0 -129 -65 -194.5t-191 -65.5z" />
    <glyph glyph-name="K" unicode="K" horiz-adv-x="726" 
d="M69 0v715h206v-283l215 283h214l-262 -332l276 -383h-237l-206 299v-299h-206z" />
    <glyph glyph-name="L" unicode="L" horiz-adv-x="575" 
d="M69 0v715h206v-556h270v-159h-476z" />
    <glyph glyph-name="M" unicode="M" horiz-adv-x="942" 
d="M69 0v715h267l137 -381l137 381h262v-715h-204v445l-175 -445h-68l-173 445v-445h-183z" />
    <glyph glyph-name="N" unicode="N" horiz-adv-x="777" 
d="M69 0v715h231l229 -403v403h179v-715h-198l-261 449v-449h-180z" />
    <glyph glyph-name="O" unicode="O" horiz-adv-x="819" 
d="M410 149q76 0 120 55t44 151v8q0 95 -44.5 148.5t-120.5 53.5t-120 -53t-44 -150v-8q0 -96 45 -150.5t120 -54.5zM406 -12q-171 0 -273 101t-102 264v8q0 161 107.5 262.5t270.5 101.5q166 0 272.5 -97.5t106.5 -261.5v-8q0 -166 -104.5 -268t-277.5 -102z" />
    <glyph glyph-name="P" unicode="P" horiz-adv-x="652" 
d="M69 0v715h272q145 0 216 -61.5t71 -177.5v-4q0 -112 -72.5 -171.5t-205.5 -59.5h-77v-241h-204zM273 381h59q101 0 101 90v4q0 86 -100 86h-60v-180z" />
    <glyph glyph-name="Q" unicode="Q" horiz-adv-x="819" 
d="M613 -120l-116 117q-43 -9 -91 -9q-171 0 -273 101t-102 264v8q0 161 107.5 262.5t270.5 101.5q166 0 272.5 -97.5t106.5 -261.5v-8q0 -189 -133 -292l72 -72zM245 354q0 -160 103 -200l115 106l64 -65q47 56 47 160v8q0 95 -44.5 148.5t-120.5 53.5t-120 -53t-44 -150
v-8z" />
    <glyph glyph-name="R" unicode="R" horiz-adv-x="697" 
d="M69 0v715h280q141 0 216 -57.5t75 -169.5v-4q0 -138 -129 -188l171 -296h-216l-145 256h-48v-256h-204zM273 389h66q103 0 103 87v4q0 81 -102 81h-67v-172z" />
    <glyph glyph-name="S" unicode="S" horiz-adv-x="647" 
d="M331 -12q-149 0 -226 61t-82 178h195q4 -44 29 -68.5t84 -24.5q43 0 67.5 19.5t24.5 51.5t-23 45.5t-90 23.5q-151 18 -210.5 68.5t-59.5 159.5q0 98 75.5 160.5t201.5 62.5q263 0 282 -223h-190q-11 77 -92 77q-40 0 -61.5 -16.5t-21.5 -44.5q0 -31 23 -46t88 -24
q144 -16 209 -63.5t65 -158.5q0 -102 -77 -170t-211 -68z" />
    <glyph glyph-name="T" unicode="T" horiz-adv-x="618" 
d="M206 0v557h-185v158h576v-158h-185v-557h-206z" />
    <glyph glyph-name="U" unicode="U" horiz-adv-x="764" 
d="M381 -12q-153 0 -235 76.5t-82 225.5v425h205v-416q0 -79 24.5 -114.5t87.5 -35.5q62 0 87 35.5t25 117.5v413h207v-422q0 -152 -83.5 -228.5t-235.5 -76.5z" />
    <glyph glyph-name="V" unicode="V" horiz-adv-x="728" 
d="M249 0l-237 715h221l145 -502l146 502h192l-234 -715h-233z" />
    <glyph glyph-name="W" unicode="W" horiz-adv-x="996" 
d="M180 0l-166 715h207l92 -446l96 446h182l104 -450l97 450h190l-167 -715h-214l-110 454l-111 -454h-200z" />
    <glyph glyph-name="X" unicode="X" horiz-adv-x="755" 
d="M22 0l221 368l-204 347h233l112 -213l110 213h210l-192 -340l221 -375h-234l-133 246l-133 -246h-211z" />
    <glyph glyph-name="Y" unicode="Y" horiz-adv-x="677" 
d="M241 0v306l-233 409h223l121 -241l121 241h196l-222 -409v-306h-206z" />
    <glyph glyph-name="Z" unicode="Z" horiz-adv-x="627" 
d="M13 0v23l304 535h-265v157h556v-22l-300 -535h285v-158h-580z" />
    <glyph glyph-name="bracketleft" unicode="[" horiz-adv-x="409" 
d="M66 -148v924h305v-131h-125v-662h125v-131h-305z" />
    <glyph glyph-name="backslash" unicode="\" horiz-adv-x="434" 
d="M316 -148l-318 924h143l317 -924h-142z" />
    <glyph glyph-name="bracketright" unicode="]" horiz-adv-x="409" 
d="M39 -148v131h124v662h-124v131h304v-924h-304z" />
    <glyph glyph-name="asciicircum" unicode="^" horiz-adv-x="531" 
d="M23 393l164 322h157l164 -322h-153l-91 176l-91 -176h-150z" />
    <glyph glyph-name="underscore" unicode="_" horiz-adv-x="434" 
d="M-1 -161v86h436v-86h-436z" />
    <glyph glyph-name="grave" unicode="`" horiz-adv-x="400" 
d="M143 583l-105 166h180l53 -166h-128z" />
    <glyph glyph-name="a" unicode="a" horiz-adv-x="578" 
d="M200 -12q-77 0 -127 39t-50 118q0 171 278 171h50v12q0 41 -14.5 62t-54.5 21q-63 0 -71 -62h-168q6 92 73 140t177 48q112 0 174 -48.5t62 -149.5v-339h-174v61q-48 -73 -155 -73zM262 109q39 0 64 20.5t25 53.5v32h-47q-55 0 -79.5 -12.5t-24.5 -44.5q0 -49 62 -49z
" />
    <glyph glyph-name="b" unicode="b" horiz-adv-x="643" 
d="M394 -12q-57 0 -99.5 25t-62.5 68v-81h-179v753h179v-308q55 92 163 92q96 0 158.5 -71t62.5 -200v-8q0 -130 -62.5 -200t-159.5 -70zM331 125q50 0 76.5 34t26.5 99v8q0 67 -27 101.5t-76 34.5t-76.5 -35t-27.5 -100v-8q0 -66 27 -100t77 -34z" />
    <glyph glyph-name="c" unicode="c" horiz-adv-x="583" 
d="M300 -12q-122 0 -198.5 69.5t-76.5 197.5v8q0 127 79.5 200.5t199.5 73.5q68 0 121.5 -19.5t91.5 -69.5t43 -126h-168q-12 76 -84 76q-48 0 -74 -34t-26 -99v-8q0 -138 103 -138q38 0 62.5 22.5t28.5 64.5h161q-4 -101 -71.5 -159.5t-191.5 -58.5z" />
    <glyph glyph-name="d" unicode="d" horiz-adv-x="642" 
d="M247 -12q-96 0 -158 69t-62 199v8q0 129 62.5 201t159.5 72q111 0 161 -88v304h179v-753h-179v85q-21 -43 -63.5 -70t-99.5 -27zM310 125q50 0 77.5 34t27.5 100v8q0 66 -26.5 100.5t-76.5 34.5q-103 0 -103 -136v-8q0 -65 27 -99t74 -34z" />
    <glyph glyph-name="e" unicode="e" horiz-adv-x="598" 
d="M309 -12q-126 0 -205 71t-79 196v8q0 123 81 198.5t202 75.5q115 0 190.5 -68t75.5 -202v-47h-368q4 -52 32.5 -80.5t76.5 -28.5q79 0 91 62h168q-12 -89 -79.5 -137t-185.5 -48zM208 321h192q-5 98 -92 98q-41 0 -67 -25.5t-33 -72.5z" />
    <glyph glyph-name="f" unicode="f" horiz-adv-x="386" 
d="M80 0v401h-66v122h66v46q0 95 54.5 143.5t150.5 48.5q38 0 82 -11v-131q-23 7 -49 7q-60 0 -60 -57v-46h106v-122h-106v-401h-178z" />
    <glyph glyph-name="g" unicode="g" horiz-adv-x="641" 
d="M298 -194q-251 0 -274 194h178q14 -68 96 -68q111 0 111 110v80q-22 -41 -64.5 -68.5t-97.5 -27.5q-95 0 -158.5 67t-63.5 184v8q0 113 63.5 182.5t158.5 69.5q112 0 162 -88v74h179v-479q0 -117 -74.5 -177.5t-215.5 -60.5zM310 158q48 0 76 32.5t28 87.5v7
q0 55 -27 86.5t-76 31.5t-76 -32t-27 -87v-8q0 -54 27 -86t75 -32z" />
    <glyph glyph-name="h" unicode="h" horiz-adv-x="624" 
d="M53 0v753h179v-314q23 44 66.5 71t105.5 27q79 0 125 -50t46 -147v-340h-179v304q0 88 -75 88q-41 0 -65 -25t-24 -74v-293h-179z" />
    <glyph glyph-name="i" unicode="i" horiz-adv-x="295" 
d="M58 0v523h179v-523h-179zM147 573q-42 0 -70 26t-28 66t28 66.5t70 26.5t70.5 -26.5t28.5 -66.5t-28.5 -66t-70.5 -26z" />
    <glyph glyph-name="j" unicode="j" horiz-adv-x="295" 
d="M-6 -184v130q33 2 48.5 17t15.5 45v515h178v-519q0 -92 -54 -140t-188 -48zM147 573q-42 0 -70 26t-28 66t28 66.5t70 26.5t70.5 -26.5t28.5 -66.5t-28.5 -66t-70.5 -26z" />
    <glyph glyph-name="k" unicode="k" horiz-adv-x="577" 
d="M53 0v753h179v-437l141 207h186l-171 -235l185 -288h-200l-141 229v-229h-179z" />
    <glyph glyph-name="l" unicode="l" horiz-adv-x="294" 
d="M58 0v753h178v-753h-178z" />
    <glyph glyph-name="m" unicode="m" horiz-adv-x="931" 
d="M53 0v523h179v-80q23 41 65 67.5t99 26.5q104 0 142 -87q64 87 173 87q77 0 124 -50t47 -145v-342h-179v312q0 39 -18 59t-49 20q-37 0 -58.5 -23t-21.5 -65v-303h-177v312q0 39 -18 59t-49 20q-37 0 -58.5 -23t-21.5 -65v-303h-179z" />
    <glyph glyph-name="n" unicode="n" horiz-adv-x="624" 
d="M53 0v523h179v-84q23 44 66.5 71t105.5 27q79 0 125 -50t46 -147v-340h-179v304q0 88 -75 88q-41 0 -65 -25t-24 -74v-293h-179z" />
    <glyph glyph-name="o" unicode="o" horiz-adv-x="622" 
d="M312 121q50 0 76.5 35.5t26.5 101.5v8q0 137 -103 137q-50 0 -77 -34.5t-27 -100.5v-8q0 -139 104 -139zM311 -12q-124 0 -205 72t-81 195v8q0 124 81.5 199t205.5 75q123 0 204 -73.5t81 -195.5v-8q0 -125 -81 -198.5t-205 -73.5z" />
    <glyph glyph-name="p" unicode="p" horiz-adv-x="643" 
d="M53 -175v698h179v-78q55 92 163 92q96 0 158.5 -71t62.5 -200v-8q0 -130 -62.5 -200t-159.5 -70q-57 0 -99.5 24.5t-62.5 64.5v-252h-179zM331 125q50 0 76.5 34t26.5 99v8q0 67 -27 101.5t-76 34.5t-76.5 -35t-27.5 -100v-8q0 -66 27 -100t77 -34z" />
    <glyph glyph-name="q" unicode="q" horiz-adv-x="642" 
d="M410 -175v256q-21 -40 -64 -66.5t-99 -26.5q-96 0 -158 69t-62 199v8q0 129 62.5 201t159.5 72q111 0 161 -88v74h179v-698h-179zM310 125q50 0 77.5 34t27.5 100v8q0 66 -26.5 100.5t-76.5 34.5q-103 0 -103 -136v-8q0 -65 27 -99t74 -34z" />
    <glyph glyph-name="r" unicode="r" horiz-adv-x="428" 
d="M53 0v523h179v-104q48 112 169 111v-167q-169 5 -169 -115v-248h-179z" />
    <glyph glyph-name="s" unicode="s" horiz-adv-x="515" 
d="M258 -12q-112 0 -174.5 45.5t-65.5 132.5h165q5 -30 21 -44.5t53 -14.5q64 0 64 43q0 19 -21.5 29t-75.5 18q-107 14 -153 51t-46 117q0 83 64 127.5t160 44.5q215 0 231 -169h-162q-10 52 -67 52q-28 0 -43.5 -11t-15.5 -30q0 -18 19.5 -27.5t68.5 -15.5
q114 -14 164.5 -50.5t50.5 -117.5q0 -91 -62.5 -135.5t-174.5 -44.5z" />
    <glyph glyph-name="t" unicode="t" horiz-adv-x="389" 
d="M261 -12q-184 0 -184 180v233h-63v122h63v109h179v-109h103v-122h-103v-216q0 -55 53 -55q27 0 51 9v-136q-58 -15 -99 -15z" />
    <glyph glyph-name="u" unicode="u" horiz-adv-x="623" 
d="M225 -12q-79 0 -127.5 49.5t-48.5 144.5v341h179v-312q0 -88 74 -88q42 0 65.5 25t23.5 74v301h179v-523h-179v81q-48 -93 -166 -93z" />
    <glyph glyph-name="v" unicode="v" horiz-adv-x="593" 
d="M200 0l-192 523h191l109 -337l107 337h171l-191 -523h-195z" />
    <glyph glyph-name="w" unicode="w" horiz-adv-x="845" 
d="M167 0l-158 523h187l76 -313l88 313h144l78 -313l85 313h170l-166 -523h-171l-78 292l-81 -292h-174z" />
    <glyph glyph-name="x" unicode="x" 
d="M11 0l174 266l-163 257h206l81 -138l79 138h184l-165 -243l181 -280h-206l-93 156l-95 -156h-183z" />
    <glyph glyph-name="y" unicode="y" horiz-adv-x="589" 
d="M130 -175l87 228l-209 470h194l108 -279l100 279h171l-280 -698h-171z" />
    <glyph glyph-name="z" unicode="z" horiz-adv-x="508" 
d="M10 0v18l229 370h-205v135h461v-19l-235 -369h223v-135h-473z" />
    <glyph glyph-name="braceleft" unicode="{" horiz-adv-x="418" 
d="M380 -148q-153 0 -220 56t-47 175l15 85q6 37 -18 61t-79 24v125q55 0 79 23.5t18 60.5l-15 84q-20 123 46 177t221 54v-130q-58 -3 -77.5 -23t-12.5 -73l13 -101q7 -51 -20.5 -85.5t-82.5 -47.5q55 -13 82.5 -48t20.5 -86l-13 -101q-7 -54 12.5 -75.5t77.5 -23.5v-131z
" />
    <glyph glyph-name="bar" unicode="|" horiz-adv-x="268" 
d="M71 -148v924h125v-924h-125z" />
    <glyph glyph-name="braceright" unicode="}" horiz-adv-x="418" 
d="M38 -148v131q58 2 77.5 23.5t12.5 75.5l-13 101q-7 51 20.5 86t82.5 48q-55 13 -82.5 47.5t-20.5 85.5l13 101q7 53 -12.5 73t-77.5 23v130q155 0 221 -54t46 -177l-15 -84q-6 -37 18 -60.5t79 -23.5v-125q-55 0 -79 -24t-18 -61l15 -85q20 -119 -47 -175t-220 -56z" />
    <glyph glyph-name="asciitilde" unicode="~" horiz-adv-x="518" 
d="M28 214q6 101 47 149.5t101 48.5q41 0 90.5 -22t62.5 -22q39 0 45 46h116q-4 -95 -46 -146.5t-100 -51.5q-42 0 -91.5 22t-62.5 22q-38 0 -46 -46h-116z" />
    <glyph glyph-name="uni00A0" unicode="&#xa0;" horiz-adv-x="258" 
 />
    <glyph glyph-name="exclamdown" unicode="&#xa1;" horiz-adv-x="334" 
d="M66 -117l27 480h148l27 -480h-202zM167 410q-44 0 -75.5 29.5t-31.5 70.5t31.5 70t75.5 29t75 -29t31 -70t-31 -70.5t-75 -29.5z" />
    <glyph glyph-name="cent" unicode="&#xa2;" horiz-adv-x="595" 
d="M275 -135v125q-112 10 -181 78.5t-69 186.5v8q0 115 70 187t180 84v95h78v-94q93 -9 153.5 -62.5t67.5 -150.5h-164q-8 60 -57 78v-284q61 18 67 90h157q-5 -92 -63.5 -149t-160.5 -67v-125h-78zM202 257q0 -112 73 -139v281q-73 -26 -73 -134v-8z" />
    <glyph glyph-name="sterling" unicode="&#xa3;" horiz-adv-x="657" 
d="M34 287v120h51q-12 46 -12 89q0 107 77.5 168t197.5 61q134 0 201.5 -63.5t72.5 -177.5h-187q-6 45 -25 66t-55 21t-57.5 -23t-21.5 -63q0 -33 7 -78h177v-120h-157q4 -36 4 -56q0 -29 -10 -59q77 -22 91 -22q59 0 63 59h184q-4 -97 -58 -157.5t-149 -60.5q-57 0 -125 26
t-85 26q-44 0 -49 -43h-151q4 61 31 108.5t75 67.5q8 24 8 55q0 26 -8 56h-90z" />
    <glyph glyph-name="yen" unicode="&#xa5;" horiz-adv-x="646" 
d="M64 294v71h138l-191 350h222l104 -233l103 233h195l-182 -350h140v-71h-162v-51h162v-72h-162v-171h-205v171h-162v72h162v51h-162z" />
    <glyph glyph-name="brokenbar" unicode="&#xa6;" horiz-adv-x="270" 
d="M71 -148v449h125v-449h-125zM71 372v404h125v-404h-125z" />
    <glyph glyph-name="section" unicode="&#xa7;" horiz-adv-x="606" 
d="M292 -137q-103 0 -160.5 48.5t-61.5 134.5h163q5 -62 63 -62t58 46q0 23 -22 35t-85 27q-113 27 -169 70t-56 126q0 97 108 137q-45 45 -45 116q0 84 64 134t165 50q102 0 159 -48.5t61 -134.5h-162q-6 60 -62 60q-57 0 -57 -46q0 -24 20 -36t84 -27q115 -27 171.5 -68.5
t56.5 -126.5q0 -95 -108 -138q44 -44 44 -115q0 -82 -63.5 -132t-165.5 -50zM368 224q44 10 44 47q0 24 -19.5 35t-79.5 30l-74 24q-44 -8 -44 -47q0 -22 21.5 -34t78.5 -30z" />
    <glyph glyph-name="dieresis" unicode="&#xa8;" horiz-adv-x="400" 
d="M93 580q-35 0 -60 24.5t-25 58.5q0 35 25 59.5t60 24.5q36 0 61 -24.5t25 -59.5t-25 -59t-61 -24zM306 580q-36 0 -60.5 24t-24.5 59t24.5 59.5t60.5 24.5t61 -24.5t25 -59.5t-25 -59t-61 -24z" />
    <glyph glyph-name="copyright" unicode="&#xa9;" horiz-adv-x="843" 
d="M428 151q-105 0 -158.5 54t-53.5 149v8q0 91 58.5 146.5t149.5 55.5q83 0 132.5 -39t55.5 -118h-128q-6 59 -60 59q-76 0 -76 -104v-7q0 -105 78 -105q62 0 68 61h123q-4 -77 -55.5 -118.5t-133.5 -41.5zM420 31q136 0 229.5 92t93.5 236q0 143 -92.5 234t-228.5 91
q-138 0 -230 -91.5t-92 -235.5t93 -235t227 -91zM420 -20q-160 0 -271.5 108.5t-111.5 268.5q0 158 112 268t273 110q163 0 273.5 -109t110.5 -267q0 -161 -111.5 -270t-274.5 -109z" />
    <glyph glyph-name="ordfeminine" unicode="&#xaa;" horiz-adv-x="483" 
d="M168 287q-60 0 -100.5 31.5t-40.5 94.5q0 71 54.5 101.5t165.5 30.5h40v15q0 27 -10.5 40.5t-37.5 13.5q-43 0 -49 -44h-148q5 73 59.5 113t145.5 40q196 0 196 -158v-267h-153v47q-37 -58 -122 -58zM226 393q27 0 44 13.5t17 36.5v23h-36q-69 0 -69 -39q0 -34 44 -34z
" />
    <glyph glyph-name="guillemotleft" unicode="&#xab;" horiz-adv-x="480" 
d="M155 70l-124 191l124 191h115l-119 -191l119 -191h-115zM335 70l-124 191l124 191h115l-119 -191l119 -191h-115z" />
    <glyph glyph-name="registered" unicode="&#xae;" horiz-adv-x="517" 
d="M173 396v219h90q91 0 91 -71v-1q0 -41 -37 -58l50 -89h-72l-40 75h-12v-75h-70zM243 516h15q28 0 28 23v1q0 22 -28 22h-15v-46zM258 319q79 0 132.5 52t53.5 132q0 81 -52.5 132.5t-133.5 51.5t-133 -52t-52 -133t53 -132t132 -51zM258 281q-96 0 -162.5 63.5
t-66.5 157.5q0 93 66.5 158t162.5 65q97 0 163.5 -64.5t66.5 -157.5q0 -94 -67 -158t-163 -64z" />
    <glyph glyph-name="macron" unicode="&#xaf;" horiz-adv-x="400" 
d="M46 612v100h307v-100h-307z" />
    <glyph glyph-name="degree" unicode="&#xb0;" horiz-adv-x="453" 
d="M227 451q39 0 65 29t26 71q0 44 -25.5 73.5t-65.5 29.5t-66.5 -29.5t-26.5 -73.5q0 -42 26.5 -71t66.5 -29zM227 381q-73 0 -125 50.5t-52 119.5q0 71 52 122t125 51t124.5 -51t51.5 -122q0 -69 -52 -119.5t-124 -50.5z" />
    <glyph glyph-name="plusminus" unicode="&#xb1;" horiz-adv-x="570" 
d="M213 176v165h-176v131h176v164h144v-164h176v-131h-176v-165h-144zM37 0v118h498v-118h-498z" />
    <glyph glyph-name="twosuperior" unicode="&#xb2;" horiz-adv-x="353" 
d="M5 339v17l128 133q36 37 52 59t16 43q0 32 -31 32q-34 0 -40 -52h-120q2 72 46 110.5t120 38.5t115.5 -33t39.5 -87q0 -62 -77 -132l-35 -34h113v-95h-327z" />
    <glyph glyph-name="threesuperior" unicode="&#xb3;" horiz-adv-x="374" 
d="M186 332q-161 0 -168 134h116q5 -42 45 -42q39 0 39 34t-45 34h-30v74h30q45 0 45 34q0 29 -34 29q-36 0 -42 -38h-116q5 59 45.5 94t115.5 35q74 0 115 -27.5t41 -76.5q0 -62 -68 -81q34 -5 55 -27t21 -55q0 -56 -42.5 -88.5t-122.5 -32.5z" />
    <glyph glyph-name="acute" unicode="&#xb4;" horiz-adv-x="400" 
d="M129 583l53 166h180l-105 -166h-128z" />
    <glyph glyph-name="paragraph" unicode="&#xb6;" horiz-adv-x="551" 
d="M256 -100v429h-8q-103 0 -161.5 48t-58.5 141q0 97 60 147t160 50h233v-815h-76v751h-74v-751h-75z" />
    <glyph glyph-name="periodcentered" unicode="&#xb7;" horiz-adv-x="299" 
d="M148 225q-44 0 -73 29.5t-29 71.5t29 71.5t73 29.5q45 0 75 -29.5t30 -71.5t-30 -71.5t-75 -29.5z" />
    <glyph glyph-name="cedilla" unicode="&#xb8;" horiz-adv-x="400" 
d="M204 -226q-54 0 -87 24t-40 69h84q7 -28 36 -28q15 0 23.5 8.5t8.5 21.5q0 14 -9 22.5t-24 8.5q-19 0 -32 -11l-39 38l48 73h72l-31 -45q47 5 79 -17.5t32 -68.5q0 -45 -33 -70t-88 -25z" />
    <glyph glyph-name="onesuperior" unicode="&#xb9;" horiz-adv-x="286" 
d="M102 339v248l-82 -46v107l102 67h114v-376h-134z" />
    <glyph glyph-name="ordmasculine" unicode="&#xba;" horiz-adv-x="522" 
d="M262 404q70 0 70 99v6q0 98 -70 98q-72 0 -72 -96v-6q0 -101 72 -101zM261 287q-101 0 -166 56.5t-65 155.5v6q0 100 65.5 159t166.5 59q100 0 165 -57.5t65 -155.5v-6q0 -100 -65.5 -158.5t-165.5 -58.5z" />
    <glyph glyph-name="guillemotright" unicode="&#xbb;" horiz-adv-x="480" 
d="M30 70l120 191l-120 191h115l125 -191l-125 -191h-115zM210 70l120 191l-120 191h115l125 -191l-125 -191h-115z" />
    <glyph glyph-name="onequarter" unicode="&#xbc;" horiz-adv-x="795" 
d="M105 339v248l-82 -46v107l102 67h114v-376h-134zM66 0l560 715h94l-560 -715h-94zM596 0v70h-187v49l156 257h159v-219h48v-87h-48v-70h-128zM523 157h77v131z" />
    <glyph glyph-name="onehalf" unicode="&#xbd;" horiz-adv-x="807" 
d="M53 0l560 715h94l-560 -715h-94zM105 339v248l-82 -46v107l102 67h114v-376h-134zM455 0v17l128 133q68 68 68 101t-31 33q-34 0 -40 -53h-120q2 73 46 111.5t120 38.5t115.5 -33.5t39.5 -86.5q0 -36 -19.5 -66.5t-57.5 -66.5l-35 -33h113v-95h-327z" />
    <glyph glyph-name="threequarters" unicode="&#xbe;" horiz-adv-x="826" 
d="M189 332q-161 0 -168 134h116q5 -42 45 -42q39 0 39 34t-45 34h-30v74h30q45 0 45 34q0 29 -34 29q-36 0 -42 -38h-116q5 59 45.5 94t115.5 35q74 0 115 -27.5t41 -76.5q0 -62 -68 -81q34 -5 55 -27t21 -55q0 -56 -42.5 -88.5t-122.5 -32.5zM114 0l560 715h94l-560 -715
h-94zM625 0v70h-187v49l156 257h159v-219h48v-87h-48v-70h-128zM552 157h77v131z" />
    <glyph glyph-name="questiondown" unicode="&#xbf;" horiz-adv-x="556" 
d="M387 364v-19q0 -36 -16.5 -69.5t-33 -51.5t-47.5 -47q-22 -21 -33.5 -33t-22 -30.5t-10.5 -34.5q0 -60 61 -60q33 0 53.5 23t25.5 65h174q-4 -112 -76.5 -173t-189.5 -61q-116 0 -179 49.5t-63 139.5q0 77 73 150q11 11 36.5 34t37.5 35.5t25 31.5t16 36v15h169zM303 610
q45 0 76 -29t31 -70q0 -42 -31 -71t-76 -29q-44 0 -75.5 29t-31.5 71q0 41 31.5 70t75.5 29z" />
    <glyph glyph-name="Agrave" unicode="&#xc0;" horiz-adv-x="747" 
d="M13 0l229 715h265l227 -715h-217l-38 133h-237l-38 -133h-191zM312 759l-100 146h186l49 -146h-135zM361 549l-79 -275h157z" />
    <glyph glyph-name="Aacute" unicode="&#xc1;" horiz-adv-x="747" 
d="M13 0l229 715h265l227 -715h-217l-38 133h-237l-38 -133h-191zM295 759l51 146h187l-103 -146h-135zM361 549l-79 -275h157z" />
    <glyph glyph-name="Acircumflex" unicode="&#xc2;" horiz-adv-x="747" 
d="M13 0l229 715h265l227 -715h-217l-38 133h-237l-38 -133h-191zM184 759l114 146h150l110 -146h-130l-59 49l-58 -49h-127zM361 549l-79 -275h157z" />
    <glyph glyph-name="Atilde" unicode="&#xc3;" horiz-adv-x="747" 
d="M13 0l229 715h265l227 -715h-217l-38 133h-237l-38 -133h-191zM436 758q-32 0 -70 17t-50 17t-20.5 -9t-10.5 -24h-102q5 75 39 114t83 39q30 0 68.5 -16.5t52.5 -16.5q25 0 32 32h101q-5 -75 -40 -114t-83 -39zM361 549l-79 -275h157z" />
    <glyph glyph-name="Adieresis" unicode="&#xc4;" horiz-adv-x="747" 
d="M13 0l229 715h265l227 -715h-217l-38 133h-237l-38 -133h-191zM482 758q-36 0 -60.5 24t-24.5 59t24.5 59.5t60.5 24.5t61 -24.5t25 -59.5t-25 -59t-61 -24zM259 758q-35 0 -60 24.5t-25 58.5q0 35 25 59.5t60 24.5q36 0 61 -24.5t25 -59.5t-25 -59t-61 -24zM361 549
l-79 -275h157z" />
    <glyph glyph-name="Aring" unicode="&#xc5;" horiz-adv-x="747" 
d="M13 0l229 715h265l227 -715h-217l-38 133h-237l-38 -133h-191zM371 744q-49 0 -84.5 34.5t-35.5 81.5q0 48 35 82t85 34t85 -34t35 -82q0 -47 -35.5 -81.5t-84.5 -34.5zM361 549l-79 -275h157zM371 810q20 0 33 14t13 36t-13 36.5t-33 14.5q-21 0 -33.5 -14t-12.5 -37
q0 -22 12.5 -36t33.5 -14z" />
    <glyph glyph-name="AE" unicode="&#xc6;" horiz-adv-x="1002" 
d="M11 0l321 715h622v-158h-283v-123h223v-146h-223v-130h299v-158h-504v146h-197l-63 -146h-195zM446 557l-118 -273h138v273h-20z" />
    <glyph glyph-name="Ccedilla" unicode="&#xc7;" horiz-adv-x="759" 
d="M379 -226q-54 0 -87 24t-40 69h84q7 -28 36 -28q15 0 23.5 8.5t8.5 21.5q0 14 -9 22.5t-24 8.5q-19 0 -32 -11l-39 38l42 65q-153 16 -231.5 111.5t-78.5 249.5v8q0 163 103 264t262 101q144 0 232 -68.5t100 -206.5h-211q-12 113 -120 113q-70 0 -110 -53t-40 -149v-8
q0 -97 40 -149.5t113 -52.5q55 0 90.5 29.5t42.5 87.5h204q-10 -134 -98.5 -206.5t-228.5 -74.5l-22 -33q47 5 79 -17.5t32 -68.5q0 -45 -33 -70t-88 -25z" />
    <glyph glyph-name="Egrave" unicode="&#xc8;" horiz-adv-x="612" 
d="M264 759l-100 146h186l49 -146h-135zM69 0v715h494v-158h-290v-123h231v-146h-231v-130h306v-158h-510z" />
    <glyph glyph-name="Eacute" unicode="&#xc9;" horiz-adv-x="612" 
d="M247 759l51 146h187l-103 -146h-135zM69 0v715h494v-158h-290v-123h231v-146h-231v-130h306v-158h-510z" />
    <glyph glyph-name="Ecircumflex" unicode="&#xca;" horiz-adv-x="612" 
d="M136 759l114 146h150l110 -146h-130l-59 49l-58 -49h-127zM69 0v715h494v-158h-290v-123h231v-146h-231v-130h306v-158h-510z" />
    <glyph glyph-name="Edieresis" unicode="&#xcb;" horiz-adv-x="612" 
d="M69 0v715h494v-158h-290v-123h231v-146h-231v-130h306v-158h-510zM211 758q-35 0 -60 24.5t-25 58.5q0 35 25 59.5t60 24.5q36 0 61 -24.5t25 -59.5t-25 -59t-61 -24zM434 758q-36 0 -60.5 24t-24.5 59t24.5 59.5t60.5 24.5t61 -24.5t25 -59.5t-25 -59t-61 -24z" />
    <glyph glyph-name="Igrave" unicode="&#xcc;" horiz-adv-x="352" 
d="M73 0v715h207v-715h-207zM117 759l-100 146h186l49 -146h-135z" />
    <glyph glyph-name="Iacute" unicode="&#xcd;" horiz-adv-x="352" 
d="M73 0v715h207v-715h-207zM100 759l51 146h187l-103 -146h-135z" />
    <glyph glyph-name="Icircumflex" unicode="&#xce;" horiz-adv-x="352" 
d="M73 0v715h207v-715h-207zM-11 759l114 146h150l110 -146h-130l-59 49l-58 -49h-127z" />
    <glyph glyph-name="Idieresis" unicode="&#xcf;" horiz-adv-x="352" 
d="M73 0v715h207v-715h-207zM64 758q-35 0 -60 24.5t-25 58.5q0 35 25 59.5t60 24.5q36 0 61 -24.5t25 -59.5t-25 -59t-61 -24zM287 758q-36 0 -60.5 24t-24.5 59t24.5 59.5t60.5 24.5t61 -24.5t25 -59.5t-25 -59t-61 -24z" />
    <glyph glyph-name="Eth" unicode="&#xd0;" horiz-adv-x="774" 
d="M29 290v138h59v287h259q189 0 286 -90.5t97 -258.5v-8q0 -170 -98 -264t-285 -94h-259v290h-59zM289 158h52q90 0 132.5 48.5t42.5 148.5v8q0 102 -42 148t-135 46h-50v-129h120v-138h-120v-132z" />
    <glyph glyph-name="Ntilde" unicode="&#xd1;" horiz-adv-x="777" 
d="M471 758q-32 0 -70 17t-50 17t-20.5 -9t-10.5 -24h-102q5 75 39 114t83 39q30 0 68.5 -16.5t52.5 -16.5q25 0 32 32h101q-5 -75 -40 -114t-83 -39zM69 0v715h231l229 -403v403h179v-715h-198l-261 449v-449h-180z" />
    <glyph glyph-name="Ograve" unicode="&#xd2;" horiz-adv-x="819" 
d="M349 759l-100 146h186l49 -146h-135zM410 149q76 0 120 55t44 151v8q0 95 -44.5 148.5t-120.5 53.5t-120 -53t-44 -150v-8q0 -96 45 -150.5t120 -54.5zM406 -12q-171 0 -273 101t-102 264v8q0 161 107.5 262.5t270.5 101.5q166 0 272.5 -97.5t106.5 -261.5v-8
q0 -166 -104.5 -268t-277.5 -102z" />
    <glyph glyph-name="Oacute" unicode="&#xd3;" horiz-adv-x="819" 
d="M332 759l51 146h187l-103 -146h-135zM410 149q76 0 120 55t44 151v8q0 95 -44.5 148.5t-120.5 53.5t-120 -53t-44 -150v-8q0 -96 45 -150.5t120 -54.5zM406 -12q-171 0 -273 101t-102 264v8q0 161 107.5 262.5t270.5 101.5q166 0 272.5 -97.5t106.5 -261.5v-8
q0 -166 -104.5 -268t-277.5 -102z" />
    <glyph glyph-name="Ocircumflex" unicode="&#xd4;" horiz-adv-x="819" 
d="M221 759l114 146h150l110 -146h-130l-59 49l-58 -49h-127zM410 149q76 0 120 55t44 151v8q0 95 -44.5 148.5t-120.5 53.5t-120 -53t-44 -150v-8q0 -96 45 -150.5t120 -54.5zM406 -12q-171 0 -273 101t-102 264v8q0 161 107.5 262.5t270.5 101.5q166 0 272.5 -97.5
t106.5 -261.5v-8q0 -166 -104.5 -268t-277.5 -102z" />
    <glyph glyph-name="Otilde" unicode="&#xd5;" horiz-adv-x="819" 
d="M473 758q-32 0 -70 17t-50 17t-20.5 -9t-10.5 -24h-102q5 75 39 114t83 39q30 0 68.5 -16.5t52.5 -16.5q25 0 32 32h101q-5 -75 -40 -114t-83 -39zM410 149q76 0 120 55t44 151v8q0 95 -44.5 148.5t-120.5 53.5t-120 -53t-44 -150v-8q0 -96 45 -150.5t120 -54.5zM406 -12
q-171 0 -273 101t-102 264v8q0 161 107.5 262.5t270.5 101.5q166 0 272.5 -97.5t106.5 -261.5v-8q0 -166 -104.5 -268t-277.5 -102z" />
    <glyph glyph-name="Odieresis" unicode="&#xd6;" horiz-adv-x="819" 
d="M296 758q-35 0 -60 24.5t-25 58.5q0 35 25 59.5t60 24.5q36 0 61 -24.5t25 -59.5t-25 -59t-61 -24zM519 758q-36 0 -60.5 24t-24.5 59t24.5 59.5t60.5 24.5t61 -24.5t25 -59.5t-25 -59t-61 -24zM410 149q76 0 120 55t44 151v8q0 95 -44.5 148.5t-120.5 53.5t-120 -53
t-44 -150v-8q0 -96 45 -150.5t120 -54.5zM406 -12q-171 0 -273 101t-102 264v8q0 161 107.5 262.5t270.5 101.5q166 0 272.5 -97.5t106.5 -261.5v-8q0 -166 -104.5 -268t-277.5 -102z" />
    <glyph glyph-name="multiply" unicode="&#xd7;" horiz-adv-x="571" 
d="M133 90l-94 94l152 152l-155 154l95 96l154 -156l153 153l94 -95l-153 -152l155 -154l-95 -95l-154 155z" />
    <glyph glyph-name="Oslash" unicode="&#xd8;" horiz-adv-x="819" 
d="M91 -32l-59 58l80 85q-81 97 -81 242v8q0 161 107.5 262.5t270.5 101.5q131 0 227 -62l73 77l59 -58l-69 -73q89 -95 89 -243v-8q0 -166 -104.5 -268t-277.5 -102q-138 0 -233 67zM410 149q77 0 121.5 55t44.5 151v8q0 54 -16 99l-260 -273q43 -40 110 -40zM243 354
q0 -54 13 -92l255 270q-41 33 -102 33q-77 0 -121.5 -53t-44.5 -150v-8z" />
    <glyph glyph-name="Ugrave" unicode="&#xd9;" horiz-adv-x="764" 
d="M321 759l-100 146h186l49 -146h-135zM381 -12q-153 0 -235 76.5t-82 225.5v425h205v-416q0 -79 24.5 -114.5t87.5 -35.5q62 0 87 35.5t25 117.5v413h207v-422q0 -152 -83.5 -228.5t-235.5 -76.5z" />
    <glyph glyph-name="Uacute" unicode="&#xda;" horiz-adv-x="764" 
d="M304 759l51 146h187l-103 -146h-135zM381 -12q-153 0 -235 76.5t-82 225.5v425h205v-416q0 -79 24.5 -114.5t87.5 -35.5q62 0 87 35.5t25 117.5v413h207v-422q0 -152 -83.5 -228.5t-235.5 -76.5z" />
    <glyph glyph-name="Ucircumflex" unicode="&#xdb;" horiz-adv-x="764" 
d="M193 759l114 146h150l110 -146h-130l-59 49l-58 -49h-127zM381 -12q-153 0 -235 76.5t-82 225.5v425h205v-416q0 -79 24.5 -114.5t87.5 -35.5q62 0 87 35.5t25 117.5v413h207v-422q0 -152 -83.5 -228.5t-235.5 -76.5z" />
    <glyph glyph-name="Udieresis" unicode="&#xdc;" horiz-adv-x="764" 
d="M381 -12q-153 0 -235 76.5t-82 225.5v425h205v-416q0 -79 24.5 -114.5t87.5 -35.5q62 0 87 35.5t25 117.5v413h207v-422q0 -152 -83.5 -228.5t-235.5 -76.5zM268 758q-35 0 -60 24.5t-25 58.5q0 35 25 59.5t60 24.5q36 0 61 -24.5t25 -59.5t-25 -59t-61 -24zM491 758
q-36 0 -60.5 24t-24.5 59t24.5 59.5t60.5 24.5t61 -24.5t25 -59.5t-25 -59t-61 -24z" />
    <glyph glyph-name="Yacute" unicode="&#xdd;" horiz-adv-x="677" 
d="M241 0v306l-233 409h223l121 -241l121 241h196l-222 -409v-306h-206zM269 759l51 146h187l-103 -146h-135z" />
    <glyph glyph-name="Thorn" unicode="&#xde;" horiz-adv-x="652" 
d="M69 0v715h204v-117h68q146 0 216.5 -57t70.5 -173v-4q0 -111 -72.5 -170t-205.5 -59h-77v-135h-204zM273 275h59q101 0 101 88v4q0 85 -100 85h-60v-177z" />
    <glyph glyph-name="germandbls" unicode="&#xdf;" horiz-adv-x="636" 
d="M381 -10q-54 0 -96 11v135q27 -9 49 -9q96 0 96 116v6q0 64 -36.5 90.5t-102.5 27.5v133q47 0 71 23t24 55v3q0 34 -19.5 53t-55.5 19t-57.5 -25t-21.5 -69v-559h-179v544q0 114 75.5 170.5t193.5 56.5q109 0 171.5 -47t62.5 -136v-2q0 -50 -33 -88t-86 -54
q76 -17 125.5 -70t49.5 -137v-7q0 -117 -63.5 -178.5t-167.5 -61.5z" />
    <glyph glyph-name="agrave" unicode="&#xe0;" horiz-adv-x="578" 
d="M200 -12q-77 0 -127 39t-50 118q0 171 278 171h50v12q0 41 -14.5 62t-54.5 21q-63 0 -71 -62h-168q6 92 73 140t177 48q112 0 174 -48.5t62 -149.5v-339h-174v61q-48 -73 -155 -73zM262 109q39 0 64 20.5t25 53.5v32h-47q-55 0 -79.5 -12.5t-24.5 -44.5q0 -49 62 -49z
M232 583l-105 166h180l53 -166h-128z" />
    <glyph glyph-name="aacute" unicode="&#xe1;" horiz-adv-x="578" 
d="M200 -12q-77 0 -127 39t-50 118q0 171 278 171h50v12q0 41 -14.5 62t-54.5 21q-63 0 -71 -62h-168q6 92 73 140t177 48q112 0 174 -48.5t62 -149.5v-339h-174v61q-48 -73 -155 -73zM262 109q39 0 64 20.5t25 53.5v32h-47q-55 0 -79.5 -12.5t-24.5 -44.5q0 -49 62 -49z
M222 583l53 166h180l-105 -166h-128z" />
    <glyph glyph-name="acircumflex" unicode="&#xe2;" horiz-adv-x="578" 
d="M200 -12q-77 0 -127 39t-50 118q0 171 278 171h50v12q0 41 -14.5 62t-54.5 21q-63 0 -71 -62h-168q6 92 73 140t177 48q112 0 174 -48.5t62 -149.5v-339h-174v61q-48 -73 -155 -73zM262 109q39 0 64 20.5t25 53.5v32h-47q-55 0 -79.5 -12.5t-24.5 -44.5q0 -49 62 -49z
M102 585l123 163h128l118 -163h-125l-61 56l-60 -56h-123z" />
    <glyph glyph-name="atilde" unicode="&#xe3;" horiz-adv-x="578" 
d="M200 -12q-77 0 -127 39t-50 118q0 171 278 171h50v12q0 41 -14.5 62t-54.5 21q-63 0 -71 -62h-168q6 92 73 140t177 48q112 0 174 -48.5t62 -149.5v-339h-174v61q-48 -73 -155 -73zM262 109q39 0 64 20.5t25 53.5v32h-47q-55 0 -79.5 -12.5t-24.5 -44.5q0 -49 62 -49z
M355 587q-31 0 -68 16.5t-49 16.5q-26 0 -31 -32h-97q5 77 36 116.5t79 39.5q30 0 67.5 -17t51.5 -17q25 0 32 32h97q-6 -75 -38.5 -115t-79.5 -40z" />
    <glyph glyph-name="adieresis" unicode="&#xe4;" horiz-adv-x="578" 
d="M200 -12q-77 0 -127 39t-50 118q0 171 278 171h50v12q0 41 -14.5 62t-54.5 21q-63 0 -71 -62h-168q6 92 73 140t177 48q112 0 174 -48.5t62 -149.5v-339h-174v61q-48 -73 -155 -73zM262 109q39 0 64 20.5t25 53.5v32h-47q-55 0 -79.5 -12.5t-24.5 -44.5q0 -49 62 -49z
M184 580q-35 0 -60 24.5t-25 58.5q0 35 25 59.5t60 24.5q36 0 61 -24.5t25 -59.5t-25 -59t-61 -24zM397 580q-36 0 -60.5 24t-24.5 59t24.5 59.5t60.5 24.5t61 -24.5t25 -59.5t-25 -59t-61 -24z" />
    <glyph glyph-name="aring" unicode="&#xe5;" horiz-adv-x="578" 
d="M200 -12q-77 0 -127 39t-50 118q0 171 278 171h50v12q0 41 -14.5 62t-54.5 21q-63 0 -71 -62h-168q6 92 73 140t177 48q112 0 174 -48.5t62 -149.5v-339h-174v61q-48 -73 -155 -73zM262 109q39 0 64 20.5t25 53.5v32h-47q-55 0 -79.5 -12.5t-24.5 -44.5q0 -49 62 -49z
M291 642q20 0 33 14t13 36t-13 36t-33 14t-33 -14t-13 -36t13 -36t33 -14zM291 578q-49 0 -83.5 33.5t-34.5 80.5t34.5 81t83.5 34t83.5 -34t34.5 -81t-34.5 -80.5t-83.5 -33.5z" />
    <glyph glyph-name="ae" unicode="&#xe6;" horiz-adv-x="908" 
d="M627 -12q-141 0 -203 91q-69 -91 -207 -91q-86 0 -140 39t-54 118q0 174 277 174h53v9q0 41 -15 62t-55 21q-63 0 -72 -62h-168q6 92 72 140t171 48q120 0 169 -62q65 62 167 62q114 0 188 -68t74 -202v-46h-360q8 -110 104 -110q77 0 89 62h167q-12 -89 -78 -137
t-179 -48zM525 319h186q-6 100 -89 100q-40 0 -66 -26t-31 -74zM263 109q41 0 65.5 20t24.5 54v35h-50q-54 0 -78.5 -12t-24.5 -44q0 -53 63 -53z" />
    <glyph glyph-name="ccedilla" unicode="&#xe7;" horiz-adv-x="583" 
d="M281 -226q-54 0 -87 24t-40 69h84q7 -28 36 -28q15 0 23.5 8.5t8.5 21.5q0 14 -9 22.5t-24 8.5q-19 0 -32 -11l-39 38l43 65q-100 15 -160 82.5t-60 180.5v8q0 127 79.5 200.5t199.5 73.5q68 0 121.5 -19.5t91.5 -69.5t43 -126h-168q-12 76 -84 76q-48 0 -74 -34t-26 -99
v-8q0 -138 103 -138q38 0 62.5 22.5t28.5 64.5h161q-4 -99 -67.5 -156.5t-181.5 -61.5l-23 -33q47 5 79 -17.5t32 -68.5q0 -45 -33 -70t-88 -25z" />
    <glyph glyph-name="egrave" unicode="&#xe8;" horiz-adv-x="598" 
d="M309 -12q-126 0 -205 71t-79 196v8q0 123 81 198.5t202 75.5q115 0 190.5 -68t75.5 -202v-47h-368q4 -52 32.5 -80.5t76.5 -28.5q79 0 91 62h168q-12 -89 -79.5 -137t-185.5 -48zM208 321h192q-5 98 -92 98q-41 0 -67 -25.5t-33 -72.5zM244 583l-105 166h180l53 -166
h-128z" />
    <glyph glyph-name="eacute" unicode="&#xe9;" horiz-adv-x="598" 
d="M234 583l53 166h180l-105 -166h-128zM309 -12q-126 0 -205 71t-79 196v8q0 123 81 198.5t202 75.5q115 0 190.5 -68t75.5 -202v-47h-368q4 -52 32.5 -80.5t76.5 -28.5q79 0 91 62h168q-12 -89 -79.5 -137t-185.5 -48zM208 321h192q-5 98 -92 98q-41 0 -67 -25.5
t-33 -72.5z" />
    <glyph glyph-name="ecircumflex" unicode="&#xea;" horiz-adv-x="598" 
d="M118 585l123 163h128l118 -163h-125l-61 56l-60 -56h-123zM309 -12q-126 0 -205 71t-79 196v8q0 123 81 198.5t202 75.5q115 0 190.5 -68t75.5 -202v-47h-368q4 -52 32.5 -80.5t76.5 -28.5q79 0 91 62h168q-12 -89 -79.5 -137t-185.5 -48zM208 321h192q-5 98 -92 98
q-41 0 -67 -25.5t-33 -72.5z" />
    <glyph glyph-name="edieresis" unicode="&#xeb;" horiz-adv-x="598" 
d="M196 580q-35 0 -60 24.5t-25 58.5q0 35 25 59.5t60 24.5q36 0 61 -24.5t25 -59.5t-25 -59t-61 -24zM409 580q-36 0 -60.5 24t-24.5 59t24.5 59.5t60.5 24.5t61 -24.5t25 -59.5t-25 -59t-61 -24zM309 -12q-126 0 -205 71t-79 196v8q0 123 81 198.5t202 75.5
q115 0 190.5 -68t75.5 -202v-47h-368q4 -52 32.5 -80.5t76.5 -28.5q79 0 91 62h168q-12 -89 -79.5 -137t-185.5 -48zM208 321h192q-5 98 -92 98q-41 0 -67 -25.5t-33 -72.5z" />
    <glyph glyph-name="igrave" unicode="&#xec;" horiz-adv-x="295" 
d="M58 0v523h179v-523h-179zM89 583l-105 166h180l53 -166h-128z" />
    <glyph glyph-name="iacute" unicode="&#xed;" horiz-adv-x="295" 
d="M79 583l53 166h180l-105 -166h-128zM58 0v523h179v-523h-179z" />
    <glyph glyph-name="icircumflex" unicode="&#xee;" horiz-adv-x="295" 
d="M-37 585l123 163h128l118 -163h-125l-61 56l-60 -56h-123zM58 0v523h179v-523h-179z" />
    <glyph glyph-name="idieresis" unicode="&#xef;" horiz-adv-x="295" 
d="M42 580q-35 0 -60 24.5t-25 58.5q0 35 25 59.5t60 24.5q36 0 61 -24.5t25 -59.5t-25 -59t-61 -24zM252 580q-35 0 -60 24.5t-25 58.5q0 35 25 59.5t60 24.5q36 0 61 -24.5t25 -59.5t-25 -59t-61 -24zM58 0v523h179v-523h-179z" />
    <glyph glyph-name="eth" unicode="&#xf0;" horiz-adv-x="623" 
d="M141 556l-24 62l109 40q-50 44 -120 95h198q40 -25 63 -42l106 39l24 -63l-70 -26q170 -158 170 -356v-22q0 -136 -79 -215.5t-210 -79.5q-124 0 -203.5 74t-79.5 201v11q0 115 70.5 185t163.5 70q38 0 61 -10t47 -34q-28 59 -87 122zM312 121q50 0 76.5 35.5t26.5 101.5
v8q0 137 -103 137q-50 0 -77 -34.5t-27 -100.5v-8q0 -139 104 -139z" />
    <glyph glyph-name="ntilde" unicode="&#xf1;" horiz-adv-x="624" 
d="M53 0v523h179v-84q23 44 66.5 71t105.5 27q79 0 125 -50t46 -147v-340h-179v304q0 88 -75 88q-41 0 -65 -25t-24 -74v-293h-179zM377 587q-31 0 -68 16.5t-49 16.5q-26 0 -31 -32h-97q5 77 36 116.5t79 39.5q30 0 67.5 -17t51.5 -17q25 0 32 32h97q-6 -75 -38.5 -115
t-79.5 -40z" />
    <glyph glyph-name="ograve" unicode="&#xf2;" horiz-adv-x="622" 
d="M312 121q50 0 76.5 35.5t26.5 101.5v8q0 137 -103 137q-50 0 -77 -34.5t-27 -100.5v-8q0 -139 104 -139zM311 -12q-124 0 -205 72t-81 195v8q0 124 81.5 199t205.5 75q123 0 204 -73.5t81 -195.5v-8q0 -125 -81 -198.5t-205 -73.5zM252 583l-105 166h180l53 -166h-128z
" />
    <glyph glyph-name="oacute" unicode="&#xf3;" horiz-adv-x="622" 
d="M242 583l53 166h180l-105 -166h-128zM312 121q50 0 76.5 35.5t26.5 101.5v8q0 137 -103 137q-50 0 -77 -34.5t-27 -100.5v-8q0 -139 104 -139zM311 -12q-124 0 -205 72t-81 195v8q0 124 81.5 199t205.5 75q123 0 204 -73.5t81 -195.5v-8q0 -125 -81 -198.5t-205 -73.5z
" />
    <glyph glyph-name="ocircumflex" unicode="&#xf4;" horiz-adv-x="622" 
d="M126 585l123 163h128l118 -163h-125l-61 56l-60 -56h-123zM312 121q50 0 76.5 35.5t26.5 101.5v8q0 137 -103 137q-50 0 -77 -34.5t-27 -100.5v-8q0 -139 104 -139zM311 -12q-124 0 -205 72t-81 195v8q0 124 81.5 199t205.5 75q123 0 204 -73.5t81 -195.5v-8
q0 -125 -81 -198.5t-205 -73.5z" />
    <glyph glyph-name="otilde" unicode="&#xf5;" horiz-adv-x="622" 
d="M312 121q50 0 76.5 35.5t26.5 101.5v8q0 137 -103 137q-50 0 -77 -34.5t-27 -100.5v-8q0 -139 104 -139zM311 -12q-124 0 -205 72t-81 195v8q0 124 81.5 199t205.5 75q123 0 204 -73.5t81 -195.5v-8q0 -125 -81 -198.5t-205 -73.5zM375 587q-31 0 -68 16.5t-49 16.5
q-26 0 -31 -32h-97q5 77 36 116.5t79 39.5q30 0 67.5 -17t51.5 -17q25 0 32 32h97q-6 -75 -38.5 -115t-79.5 -40z" />
    <glyph glyph-name="odieresis" unicode="&#xf6;" horiz-adv-x="622" 
d="M204 580q-35 0 -60 24.5t-25 58.5q0 35 25 59.5t60 24.5q36 0 61 -24.5t25 -59.5t-25 -59t-61 -24zM417 580q-36 0 -60.5 24t-24.5 59t24.5 59.5t60.5 24.5t61 -24.5t25 -59.5t-25 -59t-61 -24zM312 121q50 0 76.5 35.5t26.5 101.5v8q0 137 -103 137q-50 0 -77 -34.5
t-27 -100.5v-8q0 -139 104 -139zM311 -12q-124 0 -205 72t-81 195v8q0 124 81.5 199t205.5 75q123 0 204 -73.5t81 -195.5v-8q0 -125 -81 -198.5t-205 -73.5z" />
    <glyph glyph-name="divide" unicode="&#xf7;" horiz-adv-x="572" 
d="M286 43q-39 0 -66.5 26.5t-27.5 65.5q0 38 27.5 65.5t66.5 27.5t66.5 -27.5t27.5 -65.5q0 -39 -27.5 -65.5t-66.5 -26.5zM37 278v124h498v-124h-498zM286 452q-39 0 -66.5 27.5t-27.5 65.5q0 39 27.5 65.5t66.5 26.5t66.5 -26.5t27.5 -65.5q0 -38 -27.5 -65.5
t-66.5 -27.5z" />
    <glyph glyph-name="oslash" unicode="&#xf8;" horiz-adv-x="622" 
d="M73 -39l-52 48l66 70q-62 70 -62 176v8q0 124 81.5 199t205.5 75q92 0 163 -43l65 69l52 -48l-62 -66q67 -73 67 -181v-8q0 -125 -81 -198.5t-205 -73.5q-97 0 -170 45zM312 120q51 0 78 36t27 102v8q0 31 -6 55l-167 -178q26 -23 68 -23zM206 260q0 -30 4 -49l163 174
q-23 19 -61 19q-51 0 -78.5 -35t-27.5 -101v-8z" />
    <glyph glyph-name="ugrave" unicode="&#xf9;" horiz-adv-x="623" 
d="M225 -12q-79 0 -127.5 49.5t-48.5 144.5v341h179v-312q0 -88 74 -88q42 0 65.5 25t23.5 74v301h179v-523h-179v81q-48 -93 -166 -93zM251 583l-105 166h180l53 -166h-128z" />
    <glyph glyph-name="uacute" unicode="&#xfa;" horiz-adv-x="623" 
d="M241 583l53 166h180l-105 -166h-128zM225 -12q-79 0 -127.5 49.5t-48.5 144.5v341h179v-312q0 -88 74 -88q42 0 65.5 25t23.5 74v301h179v-523h-179v81q-48 -93 -166 -93z" />
    <glyph glyph-name="ucircumflex" unicode="&#xfb;" horiz-adv-x="623" 
d="M125 585l123 163h128l118 -163h-125l-61 56l-60 -56h-123zM225 -12q-79 0 -127.5 49.5t-48.5 144.5v341h179v-312q0 -88 74 -88q42 0 65.5 25t23.5 74v301h179v-523h-179v81q-48 -93 -166 -93z" />
    <glyph glyph-name="udieresis" unicode="&#xfc;" horiz-adv-x="623" 
d="M203 580q-35 0 -60 24.5t-25 58.5q0 35 25 59.5t60 24.5q36 0 61 -24.5t25 -59.5t-25 -59t-61 -24zM416 580q-36 0 -60.5 24t-24.5 59t24.5 59.5t60.5 24.5t61 -24.5t25 -59.5t-25 -59t-61 -24zM225 -12q-79 0 -127.5 49.5t-48.5 144.5v341h179v-312q0 -88 74 -88
q42 0 65.5 25t23.5 74v301h179v-523h-179v81q-48 -93 -166 -93z" />
    <glyph glyph-name="yacute" unicode="&#xfd;" horiz-adv-x="589" 
d="M130 -175l87 228l-209 470h194l108 -279l100 279h171l-280 -698h-171zM236 583l53 166h180l-105 -166h-128z" />
    <glyph glyph-name="thorn" unicode="&#xfe;" horiz-adv-x="643" 
d="M53 -175v928h179v-308q55 92 163 92q96 0 158.5 -71t62.5 -200v-8q0 -130 -62.5 -200t-159.5 -70q-57 0 -99.5 24.5t-62.5 64.5v-252h-179zM331 125q50 0 76.5 34t26.5 99v8q0 67 -27 101.5t-76 34.5t-76.5 -35t-27.5 -100v-8q0 -66 27 -100t77 -34z" />
    <glyph glyph-name="ydieresis" unicode="&#xff;" horiz-adv-x="589" 
d="M130 -175l87 228l-209 470h194l108 -279l100 279h171l-280 -698h-171zM198 580q-35 0 -60 24.5t-25 58.5q0 35 25 59.5t60 24.5q36 0 61 -24.5t25 -59.5t-25 -59t-61 -24zM411 580q-36 0 -60.5 24t-24.5 59t24.5 59.5t60.5 24.5t61 -24.5t25 -59.5t-25 -59t-61 -24z" />
    <glyph glyph-name="Amacron" unicode="&#x100;" horiz-adv-x="747" 
d="M13 0l229 715h265l227 -715h-217l-38 133h-237l-38 -133h-191zM210 771v107h322v-107h-322zM361 549l-79 -275h157z" />
    <glyph glyph-name="amacron" unicode="&#x101;" horiz-adv-x="578" 
d="M200 -12q-77 0 -127 39t-50 118q0 171 278 171h50v12q0 41 -14.5 62t-54.5 21q-63 0 -71 -62h-168q6 92 73 140t177 48q112 0 174 -48.5t62 -149.5v-339h-174v61q-48 -73 -155 -73zM262 109q39 0 64 20.5t25 53.5v32h-47q-55 0 -79.5 -12.5t-24.5 -44.5q0 -49 62 -49z
M137 612v100h307v-100h-307z" />
    <glyph glyph-name="Abreve" unicode="&#x102;" horiz-adv-x="747" 
d="M13 0l229 715h265l227 -715h-217l-38 133h-237l-38 -133h-191zM370 752q-73 0 -116.5 40.5t-48.5 112.5h116q5 -46 49 -46q45 0 52 46h115q-6 -71 -51 -112t-116 -41zM361 549l-79 -275h157z" />
    <glyph glyph-name="abreve" unicode="&#x103;" horiz-adv-x="578" 
d="M200 -12q-77 0 -127 39t-50 118q0 171 278 171h50v12q0 41 -14.5 62t-54.5 21q-63 0 -71 -62h-168q6 92 73 140t177 48q112 0 174 -48.5t62 -149.5v-339h-174v61q-48 -73 -155 -73zM262 109q39 0 64 20.5t25 53.5v32h-47q-55 0 -79.5 -12.5t-24.5 -44.5q0 -49 62 -49z
M290 587q-72 0 -115.5 41.5t-47.5 116.5h111q5 -48 52 -48q49 0 54 48h111q-4 -75 -49 -116.5t-116 -41.5z" />
    <glyph glyph-name="Aogonek" unicode="&#x104;" horiz-adv-x="747" 
d="M636 -182q-57 0 -90 22t-33 59q0 59 85 101h-81l-38 133h-237l-38 -133h-191l229 715h265l222 -701q-61 -37 -61 -74q0 -26 29 -26q15 0 30 5v-85q-36 -16 -91 -16zM361 549l-79 -275h157z" />
    <glyph glyph-name="aogonek" unicode="&#x105;" horiz-adv-x="578" 
d="M443 -182q-54 0 -85 21.5t-31 58.5q0 62 86 102h-58v61q-48 -73 -155 -73q-77 0 -127 39t-50 118q0 171 278 171h50v12q0 41 -14.5 62t-54.5 21q-63 0 -71 -62h-168q6 92 73 140t177 48q112 0 174 -48.5t62 -149.5v-328q-56 -40 -56 -74q0 -28 30 -28q15 0 30 5v-80
q-36 -16 -90 -16zM262 109q39 0 64 20.5t25 53.5v32h-47q-55 0 -79.5 -12.5t-24.5 -44.5q0 -49 62 -49z" />
    <glyph glyph-name="Cacute" unicode="&#x106;" horiz-adv-x="759" 
d="M405 -12q-183 0 -278 98t-95 267v8q0 163 103 264t262 101q144 0 232 -68.5t100 -206.5h-211q-12 113 -120 113q-70 0 -110 -53t-40 -149v-8q0 -97 40 -149.5t113 -52.5q55 0 90.5 29.5t42.5 87.5h204q-10 -136 -100 -208.5t-233 -72.5zM319 759l51 146h187l-103 -146
h-135z" />
    <glyph glyph-name="cacute" unicode="&#x107;" horiz-adv-x="583" 
d="M230 583l53 166h180l-105 -166h-128zM300 -12q-122 0 -198.5 69.5t-76.5 197.5v8q0 127 79.5 200.5t199.5 73.5q68 0 121.5 -19.5t91.5 -69.5t43 -126h-168q-12 76 -84 76q-48 0 -74 -34t-26 -99v-8q0 -138 103 -138q38 0 62.5 22.5t28.5 64.5h161q-4 -101 -71.5 -159.5
t-191.5 -58.5z" />
    <glyph glyph-name="Ccircumflex" unicode="&#x108;" horiz-adv-x="759" 
d="M208 759l114 146h150l110 -146h-130l-59 49l-58 -49h-127zM405 -12q-183 0 -278 98t-95 267v8q0 163 103 264t262 101q144 0 232 -68.5t100 -206.5h-211q-12 113 -120 113q-70 0 -110 -53t-40 -149v-8q0 -97 40 -149.5t113 -52.5q55 0 90.5 29.5t42.5 87.5h204
q-10 -136 -100 -208.5t-233 -72.5z" />
    <glyph glyph-name="ccircumflex" unicode="&#x109;" horiz-adv-x="583" 
d="M114 585l123 163h128l118 -163h-125l-61 56l-60 -56h-123zM300 -12q-122 0 -198.5 69.5t-76.5 197.5v8q0 127 79.5 200.5t199.5 73.5q68 0 121.5 -19.5t91.5 -69.5t43 -126h-168q-12 76 -84 76q-48 0 -74 -34t-26 -99v-8q0 -138 103 -138q38 0 62.5 22.5t28.5 64.5h161
q-4 -101 -71.5 -159.5t-191.5 -58.5z" />
    <glyph glyph-name="Cdotaccent" unicode="&#x10a;" horiz-adv-x="759" 
d="M405 -12q-183 0 -278 98t-95 267v8q0 163 103 264t262 101q144 0 232 -68.5t100 -206.5h-211q-12 113 -120 113q-70 0 -110 -53t-40 -149v-8q0 -97 40 -149.5t113 -52.5q55 0 90.5 29.5t42.5 87.5h204q-10 -136 -100 -208.5t-233 -72.5zM394 757q-41 0 -68 25.5t-27 64.5
q0 38 27 63.5t68 25.5t68 -25.5t27 -63.5q0 -39 -27 -64.5t-68 -25.5z" />
    <glyph glyph-name="cdotaccent" unicode="&#x10b;" horiz-adv-x="583" 
d="M300 -12q-122 0 -198.5 69.5t-76.5 197.5v8q0 127 79.5 200.5t199.5 73.5q68 0 121.5 -19.5t91.5 -69.5t43 -126h-168q-12 76 -84 76q-48 0 -74 -34t-26 -99v-8q0 -138 103 -138q38 0 62.5 22.5t28.5 64.5h161q-4 -101 -71.5 -159.5t-191.5 -58.5zM302 579
q-41 0 -68.5 25.5t-27.5 64.5q0 38 27.5 63.5t68.5 25.5t68 -25.5t27 -63.5q0 -39 -27 -64.5t-68 -25.5z" />
    <glyph glyph-name="Ccaron" unicode="&#x10c;" horiz-adv-x="759" 
d="M317 759l-110 146h130l58 -49l59 49h127l-114 -146h-150zM405 -12q-183 0 -278 98t-95 267v8q0 163 103 264t262 101q144 0 232 -68.5t100 -206.5h-211q-12 113 -120 113q-70 0 -110 -53t-40 -149v-8q0 -97 40 -149.5t113 -52.5q55 0 90.5 29.5t42.5 87.5h204
q-10 -136 -100 -208.5t-233 -72.5z" />
    <glyph glyph-name="ccaron" unicode="&#x10d;" horiz-adv-x="583" 
d="M233 585l-119 163h125l61 -56l61 56h122l-123 -163h-127zM300 -12q-122 0 -198.5 69.5t-76.5 197.5v8q0 127 79.5 200.5t199.5 73.5q68 0 121.5 -19.5t91.5 -69.5t43 -126h-168q-12 76 -84 76q-48 0 -74 -34t-26 -99v-8q0 -138 103 -138q38 0 62.5 22.5t28.5 64.5h161
q-4 -101 -71.5 -159.5t-191.5 -58.5z" />
    <glyph glyph-name="Dcaron" unicode="&#x10e;" horiz-adv-x="743" 
d="M259 759l-110 146h130l58 -49l59 49h127l-114 -146h-150zM275 158h47q91 0 133.5 48.5t42.5 148.5v8q0 102 -42.5 148t-135.5 46h-45v-399zM69 0v715h260q189 0 286 -90.5t97 -258.5v-8q0 -169 -98.5 -263.5t-285.5 -94.5h-259z" />
    <glyph glyph-name="dcaron" unicode="&#x10f;" horiz-adv-x="642" 
d="M625 579l9 174h133l-49 -174h-93zM247 -12q-96 0 -158 69t-62 199v8q0 129 62.5 201t159.5 72q111 0 161 -88v304h179v-753h-179v85q-21 -43 -63.5 -70t-99.5 -27zM310 125q50 0 77.5 34t27.5 100v8q0 66 -26.5 100.5t-76.5 34.5q-103 0 -103 -136v-8q0 -65 27 -99
t74 -34z" />
    <glyph glyph-name="Dcroat" unicode="&#x110;" horiz-adv-x="774" 
d="M29 290v138h59v287h259q189 0 286 -90.5t97 -258.5v-8q0 -170 -98 -264t-285 -94h-259v290h-59zM289 158h52q90 0 132.5 48.5t42.5 148.5v8q0 102 -42 148t-135 46h-50v-129h120v-138h-120v-132z" />
    <glyph glyph-name="dcroat" unicode="&#x111;" horiz-adv-x="642" 
d="M255 587v96h155v70h179v-70h57v-96h-57v-587h-179v85q-21 -43 -63.5 -70t-99.5 -27q-96 0 -158 69t-62 199v8q0 129 62.5 201t159.5 72q111 0 161 -88v138h-155zM310 125q50 0 77.5 34t27.5 100v8q0 66 -26.5 100.5t-76.5 34.5q-103 0 -103 -136v-8q0 -65 27 -99t74 -34z
" />
    <glyph glyph-name="Emacron" unicode="&#x112;" horiz-adv-x="612" 
d="M69 0v715h494v-158h-290v-123h231v-146h-231v-130h306v-158h-510zM162 771v107h322v-107h-322z" />
    <glyph glyph-name="emacron" unicode="&#x113;" horiz-adv-x="598" 
d="M309 -12q-126 0 -205 71t-79 196v8q0 123 81 198.5t202 75.5q115 0 190.5 -68t75.5 -202v-47h-368q4 -52 32.5 -80.5t76.5 -28.5q79 0 91 62h168q-12 -89 -79.5 -137t-185.5 -48zM208 321h192q-5 98 -92 98q-41 0 -67 -25.5t-33 -72.5zM149 612v100h307v-100h-307z" />
    <glyph glyph-name="Ebreve" unicode="&#x114;" horiz-adv-x="612" 
d="M69 0v715h494v-158h-290v-123h231v-146h-231v-130h306v-158h-510zM322 752q-73 0 -116.5 40.5t-48.5 112.5h116q5 -46 49 -46q45 0 52 46h115q-6 -71 -51 -112t-116 -41z" />
    <glyph glyph-name="ebreve" unicode="&#x115;" horiz-adv-x="598" 
d="M309 -12q-126 0 -205 71t-79 196v8q0 123 81 198.5t202 75.5q115 0 190.5 -68t75.5 -202v-47h-368q4 -52 32.5 -80.5t76.5 -28.5q79 0 91 62h168q-12 -89 -79.5 -137t-185.5 -48zM208 321h192q-5 98 -92 98q-41 0 -67 -25.5t-33 -72.5zM297 587q-72 0 -115.5 41.5
t-47.5 116.5h111q5 -48 52 -48q49 0 54 48h111q-4 -75 -49 -116.5t-116 -41.5z" />
    <glyph glyph-name="Edotaccent" unicode="&#x116;" horiz-adv-x="612" 
d="M324 757q-41 0 -68 25.5t-27 64.5q0 38 27 63.5t68 25.5t68 -25.5t27 -63.5q0 -39 -27 -64.5t-68 -25.5zM69 0v715h494v-158h-290v-123h231v-146h-231v-130h306v-158h-510z" />
    <glyph glyph-name="edotaccent" unicode="&#x117;" horiz-adv-x="598" 
d="M309 -12q-126 0 -205 71t-79 196v8q0 123 81 198.5t202 75.5q115 0 190.5 -68t75.5 -202v-47h-368q4 -52 32.5 -80.5t76.5 -28.5q79 0 91 62h168q-12 -89 -79.5 -137t-185.5 -48zM208 321h192q-5 98 -92 98q-41 0 -67 -25.5t-33 -72.5zM304 579q-41 0 -68.5 25.5
t-27.5 64.5q0 38 27.5 63.5t68.5 25.5t68 -25.5t27 -63.5q0 -39 -27 -64.5t-68 -25.5z" />
    <glyph glyph-name="Eogonek" unicode="&#x118;" horiz-adv-x="612" 
d="M467 -182q-56 0 -89 22t-33 59q0 58 86 101h-362v715h494v-158h-290v-123h231v-146h-231v-130h306v-158h-38q-41 -33 -41 -60q0 -26 30 -26q16 0 29 5v-85q-34 -16 -92 -16z" />
    <glyph glyph-name="eogonek" unicode="&#x119;" horiz-adv-x="598" 
d="M405 -182q-54 0 -86 21t-32 58q0 48 82 95q-23 -4 -60 -4q-126 0 -205 71t-79 196v8q0 123 81 198.5t202 75.5q115 0 190.5 -68t75.5 -202v-47h-368q4 -52 32.5 -80.5t76.5 -28.5q79 0 91 62h168q-10 -74 -71 -135q-38 -37 -54.5 -58.5t-16.5 -42.5q0 -28 31 -28
q15 0 30 5v-80q-36 -16 -88 -16zM208 321h192q-5 98 -92 98q-41 0 -67 -25.5t-33 -72.5z" />
    <glyph glyph-name="Ecaron" unicode="&#x11a;" horiz-adv-x="612" 
d="M247 759l-110 146h130l58 -49l59 49h127l-114 -146h-150zM69 0v715h494v-158h-290v-123h231v-146h-231v-130h306v-158h-510z" />
    <glyph glyph-name="ecaron" unicode="&#x11b;" horiz-adv-x="598" 
d="M237 585l-119 163h125l61 -56l61 56h122l-123 -163h-127zM309 -12q-126 0 -205 71t-79 196v8q0 123 81 198.5t202 75.5q115 0 190.5 -68t75.5 -202v-47h-368q4 -52 32.5 -80.5t76.5 -28.5q79 0 91 62h168q-12 -89 -79.5 -137t-185.5 -48zM208 321h192q-5 98 -92 98
q-41 0 -67 -25.5t-33 -72.5z" />
    <glyph glyph-name="Gcircumflex" unicode="&#x11c;" horiz-adv-x="787" 
d="M406 -12q-178 0 -276.5 100t-98.5 265v8q0 162 106 263.5t269 101.5q137 0 230 -65.5t103 -197.5h-203q-15 102 -129 102q-76 0 -119 -55t-43 -152v-8q0 -94 39.5 -150t127.5 -56q70 0 104.5 30.5t37.5 77.5h-134v143h336v-88q0 -142 -91 -230.5t-259 -88.5zM216 759
l114 146h150l110 -146h-130l-59 49l-58 -49h-127z" />
    <glyph glyph-name="gcircumflex" unicode="&#x11d;" horiz-adv-x="641" 
d="M120 585l123 163h128l118 -163h-125l-61 56l-60 -56h-123zM298 -194q-251 0 -274 194h178q14 -68 96 -68q111 0 111 110v80q-22 -41 -64.5 -68.5t-97.5 -27.5q-95 0 -158.5 67t-63.5 184v8q0 113 63.5 182.5t158.5 69.5q112 0 162 -88v74h179v-479q0 -117 -74.5 -177.5
t-215.5 -60.5zM310 158q48 0 76 32.5t28 87.5v7q0 55 -27 86.5t-76 31.5t-76 -32t-27 -87v-8q0 -54 27 -86t75 -32z" />
    <glyph glyph-name="Gbreve" unicode="&#x11e;" horiz-adv-x="787" 
d="M406 -12q-178 0 -276.5 100t-98.5 265v8q0 162 106 263.5t269 101.5q137 0 230 -65.5t103 -197.5h-203q-15 102 -129 102q-76 0 -119 -55t-43 -152v-8q0 -94 39.5 -150t127.5 -56q70 0 104.5 30.5t37.5 77.5h-134v143h336v-88q0 -142 -91 -230.5t-259 -88.5zM402 752
q-73 0 -116.5 40.5t-48.5 112.5h116q5 -46 49 -46q45 0 52 46h115q-6 -71 -51 -112t-116 -41z" />
    <glyph glyph-name="gbreve" unicode="&#x11f;" horiz-adv-x="641" 
d="M298 -194q-251 0 -274 194h178q14 -68 96 -68q111 0 111 110v80q-22 -41 -64.5 -68.5t-97.5 -27.5q-95 0 -158.5 67t-63.5 184v8q0 113 63.5 182.5t158.5 69.5q112 0 162 -88v74h179v-479q0 -117 -74.5 -177.5t-215.5 -60.5zM310 158q48 0 76 32.5t28 87.5v7
q0 55 -27 86.5t-76 31.5t-76 -32t-27 -87v-8q0 -54 27 -86t75 -32zM304 587q-72 0 -115.5 41.5t-47.5 116.5h111q5 -48 52 -48q49 0 54 48h111q-4 -75 -49 -116.5t-116 -41.5z" />
    <glyph glyph-name="Gdotaccent" unicode="&#x120;" horiz-adv-x="787" 
d="M406 -12q-178 0 -276.5 100t-98.5 265v8q0 162 106 263.5t269 101.5q137 0 230 -65.5t103 -197.5h-203q-15 102 -129 102q-76 0 -119 -55t-43 -152v-8q0 -94 39.5 -150t127.5 -56q70 0 104.5 30.5t37.5 77.5h-134v143h336v-88q0 -142 -91 -230.5t-259 -88.5zM404 757
q-41 0 -68 25.5t-27 64.5q0 38 27 63.5t68 25.5t68 -25.5t27 -63.5q0 -39 -27 -64.5t-68 -25.5z" />
    <glyph glyph-name="gdotaccent" unicode="&#x121;" horiz-adv-x="641" 
d="M298 -194q-251 0 -274 194h178q14 -68 96 -68q111 0 111 110v80q-22 -41 -64.5 -68.5t-97.5 -27.5q-95 0 -158.5 67t-63.5 184v8q0 113 63.5 182.5t158.5 69.5q112 0 162 -88v74h179v-479q0 -117 -74.5 -177.5t-215.5 -60.5zM310 158q48 0 76 32.5t28 87.5v7
q0 55 -27 86.5t-76 31.5t-76 -32t-27 -87v-8q0 -54 27 -86t75 -32zM305 579q-41 0 -68.5 25.5t-27.5 64.5q0 38 27.5 63.5t68.5 25.5t68 -25.5t27 -63.5q0 -39 -27 -64.5t-68 -25.5z" />
    <glyph glyph-name="Gcommaaccent" unicode="&#x122;" horiz-adv-x="787" 
d="M406 -12q-178 0 -276.5 100t-98.5 265v8q0 162 106 263.5t269 101.5q137 0 230 -65.5t103 -197.5h-203q-15 102 -129 102q-76 0 -119 -55t-43 -152v-8q0 -94 39.5 -150t127.5 -56q70 0 104.5 30.5t37.5 77.5h-134v143h336v-88q0 -142 -91 -230.5t-259 -88.5zM388 -232
l-101 27l42 177l158 -19z" />
    <glyph glyph-name="gcommaaccent" unicode="&#x123;" horiz-adv-x="641" 
d="M388 566l-158 19l99 185l101 -27zM298 -194q-251 0 -274 194h178q14 -68 96 -68q111 0 111 110v80q-22 -41 -64.5 -68.5t-97.5 -27.5q-95 0 -158.5 67t-63.5 184v8q0 113 63.5 182.5t158.5 69.5q112 0 162 -88v74h179v-479q0 -117 -74.5 -177.5t-215.5 -60.5zM310 158
q48 0 76 32.5t28 87.5v7q0 55 -27 86.5t-76 31.5t-76 -32t-27 -87v-8q0 -54 27 -86t75 -32z" />
    <glyph glyph-name="Hcircumflex" unicode="&#x124;" horiz-adv-x="784" 
d="M69 0v715h206v-273h235v273h205v-715h-205v282h-235v-282h-206zM205 759l114 146h150l110 -146h-130l-59 49l-58 -49h-127z" />
    <glyph glyph-name="hcircumflex" unicode="&#x125;" horiz-adv-x="624" 
d="M53 0v753h179v-314q23 44 66.5 71t105.5 27q79 0 125 -50t46 -147v-340h-179v304q0 88 -75 88q-41 0 -65 -25t-24 -74v-293h-179z" />
    <glyph glyph-name="Hbar" unicode="&#x126;" horiz-adv-x="784" 
d="M9 521v96h60v98h206v-98h235v98h205v-98h60v-96h-60v-521h-205v282h-235v-282h-206v521h-60zM275 442h235v79h-235v-79z" />
    <glyph glyph-name="hbar" unicode="&#x127;" horiz-adv-x="624" 
d="M-4 587v96h57v70h179v-70h155v-96h-155v-148q23 44 66.5 71t105.5 27q79 0 125 -50t46 -147v-340h-179v304q0 88 -75 88q-41 0 -65 -25t-24 -74v-293h-179v587h-57z" />
    <glyph glyph-name="Itilde" unicode="&#x128;" horiz-adv-x="352" 
d="M73 0v715h207v-715h-207zM242 758q-32 0 -70 17t-50 17t-20.5 -9t-10.5 -24h-102q5 75 39 114t83 39q30 0 68.5 -16.5t52.5 -16.5q25 0 32 32h101q-5 -75 -40 -114t-83 -39z" />
    <glyph glyph-name="itilde" unicode="&#x129;" horiz-adv-x="295" 
d="M58 0v523h179v-523h-179zM212 587q-31 0 -68 16.5t-49 16.5q-26 0 -31 -32h-97q5 77 36 116.5t79 39.5q30 0 67.5 -17t51.5 -17q25 0 32 32h97q-6 -75 -38.5 -115t-79.5 -40z" />
    <glyph glyph-name="Imacron" unicode="&#x12a;" horiz-adv-x="352" 
d="M73 0v715h207v-715h-207zM15 771v107h322v-107h-322z" />
    <glyph glyph-name="imacron" unicode="&#x12b;" horiz-adv-x="295" 
d="M25 612v100h245v-100h-245zM58 0v523h179v-523h-179z" />
    <glyph glyph-name="Ibreve" unicode="&#x12c;" horiz-adv-x="352" 
d="M73 0v715h207v-715h-207zM176 752q-73 0 -116.5 40.5t-48.5 112.5h116q5 -46 49 -46q45 0 52 46h115q-6 -71 -51 -112t-116 -41z" />
    <glyph glyph-name="ibreve" unicode="&#x12d;" horiz-adv-x="295" 
d="M58 0v523h179v-523h-179zM147 587q-72 0 -115.5 41.5t-47.5 116.5h111q5 -48 52 -48q49 0 54 48h111q-4 -75 -49 -116.5t-116 -41.5z" />
    <glyph glyph-name="Iogonek" unicode="&#x12e;" horiz-adv-x="352" 
d="M193 -182q-57 0 -90 22t-33 59q0 57 85 101h-82v715h207v-703q-55 -38 -55 -72q0 -26 30 -26q16 0 29 5v-85q-36 -16 -91 -16z" />
    <glyph glyph-name="iogonek" unicode="&#x12f;" horiz-adv-x="295" 
d="M154 -182q-53 0 -84.5 22t-31.5 59q0 61 86 101h-66v523h179v-514q-54 -39 -54 -72q0 -28 31 -28q15 0 30 5v-80q-36 -16 -90 -16zM147 573q-42 0 -70 26t-28 66t28 66.5t70 26.5t70.5 -26.5t28.5 -66.5t-28.5 -66t-70.5 -26z" />
    <glyph glyph-name="Idotaccent" unicode="&#x130;" horiz-adv-x="352" 
d="M73 0v715h207v-715h-207zM177 757q-41 0 -68 25.5t-27 64.5q0 38 27 63.5t68 25.5t68 -25.5t27 -63.5q0 -39 -27 -64.5t-68 -25.5z" />
    <glyph glyph-name="dotlessi" unicode="&#x131;" horiz-adv-x="295" 
d="M58 0v523h179v-523h-179z" />
    <glyph glyph-name="IJ" unicode="&#x132;" horiz-adv-x="804" 
d="M73 0v715h207v-715h-207zM488 -9q-80 0 -130 24v153q42 -14 87 -14q93 0 93 99v462h206v-464q0 -129 -65 -194.5t-191 -65.5z" />
    <glyph glyph-name="ij" unicode="&#x133;" horiz-adv-x="591" 
d="M58 0v523h179v-523h-179zM147 573q-42 0 -70 26t-28 66t28 66.5t70 26.5t70.5 -26.5t28.5 -66.5t-28.5 -66t-70.5 -26zM289 -184v130q33 2 48.5 17t15.5 45v515h178v-519q0 -92 -54 -140t-188 -48zM442 573q-42 0 -70 26t-28 66t28 66.5t70 26.5t70.5 -26.5t28.5 -66.5
t-28.5 -66t-70.5 -26z" />
    <glyph glyph-name="Jcircumflex" unicode="&#x134;" horiz-adv-x="478" 
d="M128 759l114 146h150l110 -146h-130l-59 49l-58 -49h-127zM163 -9q-80 0 -130 24v153q42 -14 87 -14q93 0 93 99v462h206v-464q0 -129 -65 -194.5t-191 -65.5z" />
    <glyph glyph-name="jcircumflex" unicode="&#x135;" horiz-adv-x="295" 
d="M-6 -184v130q33 2 48.5 17t15.5 45v515h178v-519q0 -92 -54 -140t-188 -48zM-38 585l123 163h128l118 -163h-125l-61 56l-60 -56h-123z" />
    <glyph glyph-name="Kcommaaccent" unicode="&#x136;" horiz-adv-x="726" 
d="M69 0v715h206v-283l215 283h214l-262 -332l276 -383h-237l-206 299v-299h-206zM358 -232l-101 27l42 177l158 -19z" />
    <glyph glyph-name="kcommaaccent" unicode="&#x137;" horiz-adv-x="577" 
d="M53 0v753h179v-437l141 207h186l-171 -235l185 -288h-200l-141 229v-229h-179zM286 -232l-101 27l42 177l158 -19z" />
    <glyph glyph-name="Lacute" unicode="&#x139;" horiz-adv-x="575" 
d="M99 759l51 146h187l-103 -146h-135zM69 0v715h206v-556h270v-159h-476z" />
    <glyph glyph-name="lacute" unicode="&#x13a;" horiz-adv-x="294" 
d="M58 0v753h178v-753h-178z" />
    <glyph glyph-name="Lcommaaccent" unicode="&#x13b;" horiz-adv-x="575" 
d="M289 -232l-101 27l42 177l158 -19zM69 0v715h206v-556h270v-159h-476z" />
    <glyph glyph-name="lcommaaccent" unicode="&#x13c;" horiz-adv-x="294" 
d="M133 -232l-101 27l42 177l158 -19zM58 0v753h178v-753h-178z" />
    <glyph glyph-name="Lcaron" unicode="&#x13d;" horiz-adv-x="575" 
d="M344 539l16 176h148l-61 -176h-103zM69 0v715h206v-556h270v-159h-476z" />
    <glyph glyph-name="lcaron" unicode="&#x13e;" horiz-adv-x="294" 
d="M272 579l9 174h133l-49 -174h-93zM58 0v753h178v-753h-178z" />
    <glyph glyph-name="Ldot" unicode="&#x13f;" horiz-adv-x="601" 
d="M69 0v715h206v-556h270v-159h-476zM474 299q-44 0 -73 29.5t-29 71.5t29 71.5t73 29.5q45 0 75 -29.5t30 -71.5t-30 -71.5t-75 -29.5z" />
    <glyph glyph-name="ldot" unicode="&#x140;" horiz-adv-x="455" 
d="M58 0v753h178v-753h-178zM372 258q-44 0 -73 29.5t-29 71.5t29 71.5t73 29.5q45 0 75 -29.5t30 -71.5t-30 -71.5t-75 -29.5z" />
    <glyph glyph-name="Lslash" unicode="&#x141;" horiz-adv-x="593" 
d="M25 229v108l63 22v356h205v-285l180 63v-109l-180 -62v-163h271v-159h-476v251z" />
    <glyph glyph-name="lslash" unicode="&#x142;" horiz-adv-x="333" 
d="M17 261v115l61 29v348h178v-261l64 31v-116l-64 -31v-376h-178v290z" />
    <glyph glyph-name="Nacute" unicode="&#x143;" horiz-adv-x="777" 
d="M330 759l51 146h187l-103 -146h-135zM69 0v715h231l229 -403v403h179v-715h-198l-261 449v-449h-180z" />
    <glyph glyph-name="nacute" unicode="&#x144;" horiz-adv-x="624" 
d="M244 583l53 166h180l-105 -166h-128zM53 0v523h179v-84q23 44 66.5 71t105.5 27q79 0 125 -50t46 -147v-340h-179v304q0 88 -75 88q-41 0 -65 -25t-24 -74v-293h-179z" />
    <glyph glyph-name="Ncommaaccent" unicode="&#x145;" horiz-adv-x="777" 
d="M369 -232l-101 27l42 177l158 -19zM69 0v715h231l229 -403v403h179v-715h-198l-261 449v-449h-180z" />
    <glyph glyph-name="ncommaaccent" unicode="&#x146;" horiz-adv-x="624" 
d="M298 -232l-101 27l42 177l158 -19zM53 0v523h179v-84q23 44 66.5 71t105.5 27q79 0 125 -50t46 -147v-340h-179v304q0 88 -75 88q-41 0 -65 -25t-24 -74v-293h-179z" />
    <glyph glyph-name="Ncaron" unicode="&#x147;" horiz-adv-x="777" 
d="M328 759l-110 146h130l58 -49l59 49h127l-114 -146h-150zM69 0v715h231l229 -403v403h179v-715h-198l-261 449v-449h-180z" />
    <glyph glyph-name="ncaron" unicode="&#x148;" horiz-adv-x="624" 
d="M247 585l-119 163h125l61 -56l61 56h122l-123 -163h-127zM53 0v523h179v-84q23 44 66.5 71t105.5 27q79 0 125 -50t46 -147v-340h-179v304q0 88 -75 88q-41 0 -65 -25t-24 -74v-293h-179z" />
    <glyph glyph-name="napostrophe" unicode="&#x149;" horiz-adv-x="743" 
d="M70 428l-101 39l80 261l158 -53zM171 0v523h179v-84q23 44 66.5 71t105.5 27q79 0 125 -50t46 -147v-340h-179v304q0 88 -75 88q-41 0 -65 -25t-24 -74v-293h-179z" />
    <glyph glyph-name="Eng" unicode="&#x14a;" horiz-adv-x="777" 
d="M467 -192q-75 0 -123 23v145q40 -14 78 -14q71 0 81 54l-249 450v-466h-185v715h234l221 -412v412h184v-692q0 -100 -62 -157.5t-179 -57.5z" />
    <glyph glyph-name="eng" unicode="&#x14b;" horiz-adv-x="624" 
d="M333 -184v130q33 2 48 16.5t15 45.5v296q0 88 -75 88q-41 0 -65 -25t-24 -74v-293h-179v523h179v-84q23 44 66.5 71t105.5 27q79 0 125 -50t46 -147v-336q0 -92 -54 -140t-188 -48z" />
    <glyph glyph-name="Omacron" unicode="&#x14c;" horiz-adv-x="819" 
d="M247 771v107h322v-107h-322zM410 149q76 0 120 55t44 151v8q0 95 -44.5 148.5t-120.5 53.5t-120 -53t-44 -150v-8q0 -96 45 -150.5t120 -54.5zM406 -12q-171 0 -273 101t-102 264v8q0 161 107.5 262.5t270.5 101.5q166 0 272.5 -97.5t106.5 -261.5v-8q0 -166 -104.5 -268
t-277.5 -102z" />
    <glyph glyph-name="omacron" unicode="&#x14d;" horiz-adv-x="622" 
d="M157 612v100h307v-100h-307zM312 121q50 0 76.5 35.5t26.5 101.5v8q0 137 -103 137q-50 0 -77 -34.5t-27 -100.5v-8q0 -139 104 -139zM311 -12q-124 0 -205 72t-81 195v8q0 124 81.5 199t205.5 75q123 0 204 -73.5t81 -195.5v-8q0 -125 -81 -198.5t-205 -73.5z" />
    <glyph glyph-name="Obreve" unicode="&#x14e;" horiz-adv-x="819" 
d="M407 752q-73 0 -116.5 40.5t-48.5 112.5h116q5 -46 49 -46q45 0 52 46h115q-6 -71 -51 -112t-116 -41zM410 149q76 0 120 55t44 151v8q0 95 -44.5 148.5t-120.5 53.5t-120 -53t-44 -150v-8q0 -96 45 -150.5t120 -54.5zM406 -12q-171 0 -273 101t-102 264v8
q0 161 107.5 262.5t270.5 101.5q166 0 272.5 -97.5t106.5 -261.5v-8q0 -166 -104.5 -268t-277.5 -102z" />
    <glyph glyph-name="obreve" unicode="&#x14f;" horiz-adv-x="622" 
d="M312 121q50 0 76.5 35.5t26.5 101.5v8q0 137 -103 137q-50 0 -77 -34.5t-27 -100.5v-8q0 -139 104 -139zM311 -12q-124 0 -205 72t-81 195v8q0 124 81.5 199t205.5 75q123 0 204 -73.5t81 -195.5v-8q0 -125 -81 -198.5t-205 -73.5zM310 587q-72 0 -115.5 41.5
t-47.5 116.5h111q5 -48 52 -48q49 0 54 48h111q-4 -75 -49 -116.5t-116 -41.5z" />
    <glyph glyph-name="Ohungarumlaut" unicode="&#x150;" horiz-adv-x="819" 
d="M239 759l41 146h153l-74 -146h-120zM433 759l41 146h154l-75 -146h-120zM410 149q76 0 120 55t44 151v8q0 95 -44.5 148.5t-120.5 53.5t-120 -53t-44 -150v-8q0 -96 45 -150.5t120 -54.5zM406 -12q-171 0 -273 101t-102 264v8q0 161 107.5 262.5t270.5 101.5
q166 0 272.5 -97.5t106.5 -261.5v-8q0 -166 -104.5 -268t-277.5 -102z" />
    <glyph glyph-name="ohungarumlaut" unicode="&#x151;" horiz-adv-x="622" 
d="M157 583l44 166h140l-77 -166h-107zM335 583l43 166h140l-77 -166h-106zM312 121q50 0 76.5 35.5t26.5 101.5v8q0 137 -103 137q-50 0 -77 -34.5t-27 -100.5v-8q0 -139 104 -139zM311 -12q-124 0 -205 72t-81 195v8q0 124 81.5 199t205.5 75q123 0 204 -73.5t81 -195.5
v-8q0 -125 -81 -198.5t-205 -73.5z" />
    <glyph glyph-name="OE" unicode="&#x152;" horiz-adv-x="979" 
d="M31 357q0 169 98.5 263.5t283.5 94.5h517v-158h-275v-123h216v-146h-216v-130h291v-158h-533q-187 0 -284.5 90.5t-97.5 258.5v8zM452 557h-32q-91 0 -133 -48t-42 -149v-8q0 -102 42 -148t134 -46h31v399z" />
    <glyph glyph-name="oe" unicode="&#x153;" horiz-adv-x="985" 
d="M311 -12q-124 0 -205 72t-81 195v8q0 124 81.5 199t205.5 75q120 0 193 -79q73 79 190 79q115 0 190.5 -68t75.5 -202v-47h-368q4 -52 32.5 -80.5t76.5 -28.5q79 0 91 62h168q-12 -89 -79.5 -137t-185.5 -48q-125 0 -195 76q-70 -76 -190 -76zM312 121q50 0 76.5 35.5
t26.5 101.5v8q0 137 -103 137q-50 0 -77 -34.5t-27 -100.5v-8q0 -139 104 -139zM595 321h192q-5 98 -92 98q-41 0 -67 -25.5t-33 -72.5z" />
    <glyph glyph-name="Racute" unicode="&#x154;" horiz-adv-x="697" 
d="M261 759l51 146h187l-103 -146h-135zM69 0v715h280q141 0 216 -57.5t75 -169.5v-4q0 -138 -129 -188l171 -296h-216l-145 256h-48v-256h-204zM273 389h66q103 0 103 87v4q0 81 -102 81h-67v-172z" />
    <glyph glyph-name="racute" unicode="&#x155;" horiz-adv-x="428" 
d="M165 583l53 166h180l-105 -166h-128zM53 0v523h179v-104q48 112 169 111v-167q-169 5 -169 -115v-248h-179z" />
    <glyph glyph-name="Rcommaaccent" unicode="&#x156;" horiz-adv-x="697" 
d="M351 -232l-101 27l42 177l158 -19zM69 0v715h280q141 0 216 -57.5t75 -169.5v-4q0 -138 -129 -188l171 -296h-216l-145 256h-48v-256h-204zM273 389h66q103 0 103 87v4q0 81 -102 81h-67v-172z" />
    <glyph glyph-name="rcommaaccent" unicode="&#x157;" horiz-adv-x="428" 
d="M131 -232l-101 27l42 177l158 -19zM53 0v523h179v-104q48 112 169 111v-167q-169 5 -169 -115v-248h-179z" />
    <glyph glyph-name="Rcaron" unicode="&#x158;" horiz-adv-x="697" 
d="M259 759l-110 146h130l58 -49l59 49h127l-114 -146h-150zM69 0v715h280q141 0 216 -57.5t75 -169.5v-4q0 -138 -129 -188l171 -296h-216l-145 256h-48v-256h-204zM273 389h66q103 0 103 87v4q0 81 -102 81h-67v-172z" />
    <glyph glyph-name="rcaron" unicode="&#x159;" horiz-adv-x="428" 
d="M168 585l-119 163h125l61 -56l61 56h122l-123 -163h-127zM53 0v523h179v-104q48 112 169 111v-167q-169 5 -169 -115v-248h-179z" />
    <glyph glyph-name="Sacute" unicode="&#x15a;" horiz-adv-x="647" 
d="M331 -12q-149 0 -226 61t-82 178h195q4 -44 29 -68.5t84 -24.5q43 0 67.5 19.5t24.5 51.5t-23 45.5t-90 23.5q-151 18 -210.5 68.5t-59.5 159.5q0 98 75.5 160.5t201.5 62.5q263 0 282 -223h-190q-11 77 -92 77q-40 0 -61.5 -16.5t-21.5 -44.5q0 -31 23 -46t88 -24
q144 -16 209 -63.5t65 -158.5q0 -102 -77 -170t-211 -68zM245 759l51 146h187l-103 -146h-135z" />
    <glyph glyph-name="sacute" unicode="&#x15b;" horiz-adv-x="515" 
d="M187 583l53 166h180l-105 -166h-128zM258 -12q-112 0 -174.5 45.5t-65.5 132.5h165q5 -30 21 -44.5t53 -14.5q64 0 64 43q0 19 -21.5 29t-75.5 18q-107 14 -153 51t-46 117q0 83 64 127.5t160 44.5q215 0 231 -169h-162q-10 52 -67 52q-28 0 -43.5 -11t-15.5 -30
q0 -18 19.5 -27.5t68.5 -15.5q114 -14 164.5 -50.5t50.5 -117.5q0 -91 -62.5 -135.5t-174.5 -44.5z" />
    <glyph glyph-name="Scircumflex" unicode="&#x15c;" horiz-adv-x="647" 
d="M134 759l114 146h150l110 -146h-130l-59 49l-58 -49h-127zM331 -12q-149 0 -226 61t-82 178h195q4 -44 29 -68.5t84 -24.5q43 0 67.5 19.5t24.5 51.5t-23 45.5t-90 23.5q-151 18 -210.5 68.5t-59.5 159.5q0 98 75.5 160.5t201.5 62.5q263 0 282 -223h-190q-11 77 -92 77
q-40 0 -61.5 -16.5t-21.5 -44.5q0 -31 23 -46t88 -24q144 -16 209 -63.5t65 -158.5q0 -102 -77 -170t-211 -68z" />
    <glyph glyph-name="scircumflex" unicode="&#x15d;" horiz-adv-x="515" 
d="M69 585l123 163h128l118 -163h-125l-61 56l-60 -56h-123zM258 -12q-112 0 -174.5 45.5t-65.5 132.5h165q5 -30 21 -44.5t53 -14.5q64 0 64 43q0 19 -21.5 29t-75.5 18q-107 14 -153 51t-46 117q0 83 64 127.5t160 44.5q215 0 231 -169h-162q-10 52 -67 52
q-28 0 -43.5 -11t-15.5 -30q0 -18 19.5 -27.5t68.5 -15.5q114 -14 164.5 -50.5t50.5 -117.5q0 -91 -62.5 -135.5t-174.5 -44.5z" />
    <glyph glyph-name="Scedilla" unicode="&#x15e;" horiz-adv-x="647" 
d="M305 -226q-54 0 -87 24t-40 69h84q7 -28 36 -28q15 0 23.5 8.5t8.5 21.5q0 14 -9 22.5t-24 8.5q-19 0 -32 -11l-39 38l42 64q-237 24 -245 236h195q4 -44 29 -68.5t84 -24.5q43 0 67.5 19.5t24.5 51.5t-23 45.5t-90 23.5q-151 18 -210.5 68.5t-59.5 159.5
q0 98 75.5 160.5t201.5 62.5q263 0 282 -223h-190q-11 77 -92 77q-40 0 -61.5 -16.5t-21.5 -44.5q0 -31 23 -46t88 -24q144 -16 209 -63.5t65 -158.5q0 -101 -75.5 -168.5t-206.5 -69.5l-22 -33q47 5 79 -17.5t32 -68.5q0 -45 -33 -70t-88 -25z" />
    <glyph glyph-name="scedilla" unicode="&#x15f;" horiz-adv-x="515" 
d="M240 -226q-54 0 -87 24t-40 69h84q7 -28 36 -28q15 0 23.5 8.5t8.5 21.5q0 14 -9 22.5t-24 8.5q-19 0 -32 -11l-39 38l42 64q-88 11 -135.5 55.5t-49.5 119.5h165q5 -30 21 -44.5t53 -14.5q64 0 64 43q0 19 -21.5 29t-75.5 18q-107 14 -153 51t-46 117q0 83 64 127.5
t160 44.5q215 0 231 -169h-162q-10 52 -67 52q-28 0 -43.5 -11t-15.5 -30q0 -18 19.5 -27.5t68.5 -15.5q114 -14 164.5 -50.5t50.5 -117.5q0 -88 -58.5 -132.5t-163.5 -47.5l-23 -33q47 5 79 -17.5t32 -68.5q0 -45 -33 -70t-88 -25z" />
    <glyph glyph-name="Scaron" unicode="&#x160;" horiz-adv-x="647" 
d="M243 759l-110 146h130l58 -49l59 49h127l-114 -146h-150zM331 -12q-149 0 -226 61t-82 178h195q4 -44 29 -68.5t84 -24.5q43 0 67.5 19.5t24.5 51.5t-23 45.5t-90 23.5q-151 18 -210.5 68.5t-59.5 159.5q0 98 75.5 160.5t201.5 62.5q263 0 282 -223h-190q-11 77 -92 77
q-40 0 -61.5 -16.5t-21.5 -44.5q0 -31 23 -46t88 -24q144 -16 209 -63.5t65 -158.5q0 -102 -77 -170t-211 -68z" />
    <glyph glyph-name="scaron" unicode="&#x161;" horiz-adv-x="515" 
d="M185 585l-119 163h125l61 -56l61 56h122l-123 -163h-127zM258 -12q-112 0 -174.5 45.5t-65.5 132.5h165q5 -30 21 -44.5t53 -14.5q64 0 64 43q0 19 -21.5 29t-75.5 18q-107 14 -153 51t-46 117q0 83 64 127.5t160 44.5q215 0 231 -169h-162q-10 52 -67 52
q-28 0 -43.5 -11t-15.5 -30q0 -18 19.5 -27.5t68.5 -15.5q114 -14 164.5 -50.5t50.5 -117.5q0 -91 -62.5 -135.5t-174.5 -44.5z" />
    <glyph glyph-name="Tcommaaccent" unicode="&#x162;" horiz-adv-x="618" 
d="M293 -232l-101 27l42 177l158 -19zM206 0v557h-185v158h576v-158h-185v-557h-206z" />
    <glyph glyph-name="tcommaaccent" unicode="&#x163;" horiz-adv-x="389" 
d="M195 -232l-101 27l42 177l158 -19zM261 -12q-184 0 -184 180v233h-63v122h63v109h179v-109h103v-122h-103v-216q0 -55 53 -55q27 0 51 9v-136q-58 -15 -99 -15z" />
    <glyph glyph-name="Tcaron" unicode="&#x164;" horiz-adv-x="618" 
d="M230 759l-110 146h130l58 -49l59 49h127l-114 -146h-150zM206 0v557h-185v158h576v-158h-185v-557h-206z" />
    <glyph glyph-name="tcaron" unicode="&#x165;" horiz-adv-x="389" 
d="M301 579l9 174h133l-49 -174h-93zM261 -12q-184 0 -184 180v233h-63v122h63v109h179v-109h103v-122h-103v-216q0 -55 53 -55q27 0 51 9v-136q-58 -15 -99 -15z" />
    <glyph glyph-name="Tbar" unicode="&#x166;" horiz-adv-x="618" 
d="M80 279v128h126v150h-185v158h576v-158h-185v-150h126v-128h-126v-279h-206v279h-126z" />
    <glyph glyph-name="tbar" unicode="&#x167;" horiz-adv-x="389" 
d="M14 233v99h63v69h-63v122h63v109h179v-109h103v-122h-103v-69h103v-99h-103v-48q0 -55 53 -55q27 0 51 9v-136q-58 -15 -99 -15q-184 0 -184 180v65h-63z" />
    <glyph glyph-name="Utilde" unicode="&#x168;" horiz-adv-x="764" 
d="M381 -12q-153 0 -235 76.5t-82 225.5v425h205v-416q0 -79 24.5 -114.5t87.5 -35.5q62 0 87 35.5t25 117.5v413h207v-422q0 -152 -83.5 -228.5t-235.5 -76.5zM445 758q-32 0 -70 17t-50 17t-20.5 -9t-10.5 -24h-102q5 75 39 114t83 39q30 0 68.5 -16.5t52.5 -16.5
q25 0 32 32h101q-5 -75 -40 -114t-83 -39z" />
    <glyph glyph-name="utilde" unicode="&#x169;" horiz-adv-x="623" 
d="M225 -12q-79 0 -127.5 49.5t-48.5 144.5v341h179v-312q0 -88 74 -88q42 0 65.5 25t23.5 74v301h179v-523h-179v81q-48 -93 -166 -93zM374 587q-31 0 -68 16.5t-49 16.5q-26 0 -31 -32h-97q5 77 36 116.5t79 39.5q30 0 67.5 -17t51.5 -17q25 0 32 32h97q-6 -75 -38.5 -115
t-79.5 -40z" />
    <glyph glyph-name="Umacron" unicode="&#x16a;" horiz-adv-x="764" 
d="M381 -12q-153 0 -235 76.5t-82 225.5v425h205v-416q0 -79 24.5 -114.5t87.5 -35.5q62 0 87 35.5t25 117.5v413h207v-422q0 -152 -83.5 -228.5t-235.5 -76.5zM219 771v107h322v-107h-322z" />
    <glyph glyph-name="umacron" unicode="&#x16b;" horiz-adv-x="623" 
d="M225 -12q-79 0 -127.5 49.5t-48.5 144.5v341h179v-312q0 -88 74 -88q42 0 65.5 25t23.5 74v301h179v-523h-179v81q-48 -93 -166 -93zM156 612v100h307v-100h-307z" />
    <glyph glyph-name="Ubreve" unicode="&#x16c;" horiz-adv-x="764" 
d="M381 -12q-153 0 -235 76.5t-82 225.5v425h205v-416q0 -79 24.5 -114.5t87.5 -35.5q62 0 87 35.5t25 117.5v413h207v-422q0 -152 -83.5 -228.5t-235.5 -76.5zM379 752q-73 0 -116.5 40.5t-48.5 112.5h116q5 -46 49 -46q45 0 52 46h115q-6 -71 -51 -112t-116 -41z" />
    <glyph glyph-name="ubreve" unicode="&#x16d;" horiz-adv-x="623" 
d="M225 -12q-79 0 -127.5 49.5t-48.5 144.5v341h179v-312q0 -88 74 -88q42 0 65.5 25t23.5 74v301h179v-523h-179v81q-48 -93 -166 -93zM309 587q-72 0 -115.5 41.5t-47.5 116.5h111q5 -48 52 -48q49 0 54 48h111q-4 -75 -49 -116.5t-116 -41.5z" />
    <glyph glyph-name="Uring" unicode="&#x16e;" horiz-adv-x="764" 
d="M381 -12q-153 0 -235 76.5t-82 225.5v425h205v-416q0 -79 24.5 -114.5t87.5 -35.5q62 0 87 35.5t25 117.5v413h207v-422q0 -152 -83.5 -228.5t-235.5 -76.5zM380 790q20 0 33 14t13 36t-13 36.5t-33 14.5q-21 0 -33.5 -14t-12.5 -37q0 -22 12.5 -36t33.5 -14zM380 724
q-49 0 -84.5 34.5t-35.5 81.5q0 48 35 82t85 34t85 -34t35 -82q0 -47 -35.5 -81.5t-84.5 -34.5z" />
    <glyph glyph-name="uring" unicode="&#x16f;" horiz-adv-x="623" 
d="M309 619q20 0 33 14t13 36t-13 36t-33 14t-33 -14t-13 -36t13 -36t33 -14zM309 555q-49 0 -83.5 33.5t-34.5 80.5t34.5 81t83.5 34t83.5 -34t34.5 -81t-34.5 -80.5t-83.5 -33.5zM225 -12q-79 0 -127.5 49.5t-48.5 144.5v341h179v-312q0 -88 74 -88q42 0 65.5 25t23.5 74
v301h179v-523h-179v81q-48 -93 -166 -93z" />
    <glyph glyph-name="Uhungarumlaut" unicode="&#x170;" horiz-adv-x="764" 
d="M211 759l41 146h153l-74 -146h-120zM405 759l41 146h154l-75 -146h-120zM381 -12q-153 0 -235 76.5t-82 225.5v425h205v-416q0 -79 24.5 -114.5t87.5 -35.5q62 0 87 35.5t25 117.5v413h207v-422q0 -152 -83.5 -228.5t-235.5 -76.5z" />
    <glyph glyph-name="uhungarumlaut" unicode="&#x171;" horiz-adv-x="623" 
d="M225 -12q-79 0 -127.5 49.5t-48.5 144.5v341h179v-312q0 -88 74 -88q42 0 65.5 25t23.5 74v301h179v-523h-179v81q-48 -93 -166 -93zM156 583l44 166h140l-77 -166h-107zM334 583l43 166h140l-77 -166h-106z" />
    <glyph glyph-name="Uogonek" unicode="&#x172;" horiz-adv-x="764" 
d="M420 -182q-55 0 -87.5 21.5t-32.5 58.5q0 51 64 90q-145 5 -222.5 81t-77.5 221v425h205v-416q0 -79 24.5 -114.5t87.5 -35.5q62 0 87 35.5t25 117.5v413h207v-422q0 -205 -154 -276q-65 -29 -80 -45q-13 -14 -13 -31q0 -27 31 -27q15 0 30 5v-85q-36 -16 -94 -16z" />
    <glyph glyph-name="uogonek" unicode="&#x173;" horiz-adv-x="623" 
d="M485 -182q-53 0 -84.5 22t-31.5 59q0 61 86 101h-64v81q-48 -93 -166 -93q-79 0 -127.5 49.5t-48.5 144.5v341h179v-312q0 -88 74 -88q42 0 65.5 25t23.5 74v301h179v-511q-55 -42 -55 -75q0 -28 30 -28q15 0 30 5v-80q-36 -16 -90 -16z" />
    <glyph glyph-name="Wcircumflex" unicode="&#x174;" horiz-adv-x="996" 
d="M312 759l114 146h150l110 -146h-130l-59 49l-58 -49h-127zM180 0l-166 715h207l92 -446l96 446h182l104 -450l97 450h190l-167 -715h-214l-110 454l-111 -454h-200z" />
    <glyph glyph-name="wcircumflex" unicode="&#x175;" horiz-adv-x="845" 
d="M237 585l123 163h128l118 -163h-125l-61 56l-60 -56h-123zM167 0l-158 523h187l76 -313l88 313h144l78 -313l85 313h170l-166 -523h-171l-78 292l-81 -292h-174z" />
    <glyph glyph-name="Ycircumflex" unicode="&#x176;" horiz-adv-x="677" 
d="M241 0v306l-233 409h223l121 -241l121 241h196l-222 -409v-306h-206zM158 759l114 146h150l110 -146h-130l-59 49l-58 -49h-127z" />
    <glyph glyph-name="ycircumflex" unicode="&#x177;" horiz-adv-x="589" 
d="M130 -175l87 228l-209 470h194l108 -279l100 279h171l-280 -698h-171zM117 585l123 163h128l118 -163h-125l-61 56l-60 -56h-123z" />
    <glyph glyph-name="Ydieresis" unicode="&#x178;" horiz-adv-x="677" 
d="M241 0v306l-233 409h223l121 -241l121 241h196l-222 -409v-306h-206zM233 758q-35 0 -60 24.5t-25 58.5q0 35 25 59.5t60 24.5q36 0 61 -24.5t25 -59.5t-25 -59t-61 -24zM456 758q-36 0 -60.5 24t-24.5 59t24.5 59.5t60.5 24.5t61 -24.5t25 -59.5t-25 -59t-61 -24z" />
    <glyph glyph-name="Zacute" unicode="&#x179;" horiz-adv-x="627" 
d="M245 759l51 146h187l-103 -146h-135zM13 0v23l304 535h-265v157h556v-22l-300 -535h285v-158h-580z" />
    <glyph glyph-name="zacute" unicode="&#x17a;" horiz-adv-x="508" 
d="M191 583l53 166h180l-105 -166h-128zM10 0v18l229 370h-205v135h461v-19l-235 -369h223v-135h-473z" />
    <glyph glyph-name="Zdotaccent" unicode="&#x17b;" horiz-adv-x="627" 
d="M13 0v23l304 535h-265v157h556v-22l-300 -535h285v-158h-580zM322 757q-41 0 -68 25.5t-27 64.5q0 38 27 63.5t68 25.5t68 -25.5t27 -63.5q0 -39 -27 -64.5t-68 -25.5z" />
    <glyph glyph-name="zdotaccent" unicode="&#x17c;" horiz-adv-x="508" 
d="M10 0v18l229 370h-205v135h461v-19l-235 -369h223v-135h-473zM261 579q-41 0 -68.5 25.5t-27.5 64.5q0 38 27.5 63.5t68.5 25.5t68 -25.5t27 -63.5q0 -39 -27 -64.5t-68 -25.5z" />
    <glyph glyph-name="Zcaron" unicode="&#x17d;" horiz-adv-x="627" 
d="M243 759l-110 146h130l58 -49l59 49h127l-114 -146h-150zM13 0v23l304 535h-265v157h556v-22l-300 -535h285v-158h-580z" />
    <glyph glyph-name="zcaron" unicode="&#x17e;" horiz-adv-x="508" 
d="M194 585l-119 163h125l61 -56l61 56h122l-123 -163h-127zM10 0v18l229 370h-205v135h461v-19l-235 -369h223v-135h-473z" />
    <glyph glyph-name="florin" unicode="&#x192;" horiz-adv-x="447" 
d="M23 293v121h90l18 125q27 186 221 186q39 0 78 -11v-134q-24 7 -51 7q-62 0 -71 -63l-16 -110h113v-121h-130l-68 -475h-178l67 475h-73z" />
    <glyph glyph-name="Aringacute" unicode="&#x1fa;" horiz-adv-x="747" 
d="M13 0l229 715h265l227 -715h-217l-38 133h-237l-38 -133h-191zM375 741q-49 0 -84.5 34.5t-35.5 81.5q0 48 35 82t85 34t85 -34t35 -82q0 -47 -35.5 -81.5t-84.5 -34.5zM306 991l51 146h187l-103 -146h-135zM361 549l-79 -275h157zM375 807q20 0 33 14t13 36t-13 36.5
t-33 14.5q-21 0 -33.5 -14t-12.5 -37q0 -22 12.5 -36t33.5 -14z" />
    <glyph glyph-name="aringacute" unicode="&#x1fb;" horiz-adv-x="578" 
d="M200 -12q-77 0 -127 39t-50 118q0 171 278 171h50v12q0 41 -14.5 62t-54.5 21q-63 0 -71 -62h-168q6 92 73 140t177 48q112 0 174 -48.5t62 -149.5v-339h-174v61q-48 -73 -155 -73zM262 109q39 0 64 20.5t25 53.5v32h-47q-55 0 -79.5 -12.5t-24.5 -44.5q0 -49 62 -49z
M292 636q20 0 33 14t13 36t-13 36t-33 14t-33 -14t-13 -36t13 -36t33 -14zM292 572q-49 0 -83.5 33.5t-34.5 80.5t34.5 81t83.5 34t83.5 -34t34.5 -81t-34.5 -80.5t-83.5 -33.5zM229 829l51 146h187l-103 -146h-135z" />
    <glyph glyph-name="AEacute" unicode="&#x1fc;" horiz-adv-x="1002" 
d="M11 0l321 715h622v-158h-283v-123h223v-146h-223v-130h299v-158h-504v146h-197l-63 -146h-195zM537 759l51 146h187l-103 -146h-135zM446 557l-118 -273h138v273h-20z" />
    <glyph glyph-name="aeacute" unicode="&#x1fd;" horiz-adv-x="908" 
d="M627 -12q-141 0 -203 91q-69 -91 -207 -91q-86 0 -140 39t-54 118q0 174 277 174h53v9q0 41 -15 62t-55 21q-63 0 -72 -62h-168q6 92 72 140t171 48q120 0 169 -62q65 62 167 62q114 0 188 -68t74 -202v-46h-360q8 -110 104 -110q77 0 89 62h167q-12 -89 -78 -137
t-179 -48zM401 583l53 166h180l-105 -166h-128zM525 319h186q-6 100 -89 100q-40 0 -66 -26t-31 -74zM263 109q41 0 65.5 20t24.5 54v35h-50q-54 0 -78.5 -12t-24.5 -44q0 -53 63 -53z" />
    <glyph glyph-name="Oslashacute" unicode="&#x1fe;" horiz-adv-x="819" 
d="M91 -32l-59 58l80 85q-81 97 -81 242v8q0 161 107.5 262.5t270.5 101.5q131 0 227 -62l73 77l59 -58l-69 -73q89 -95 89 -243v-8q0 -166 -104.5 -268t-277.5 -102q-138 0 -233 67zM410 149q77 0 121.5 55t44.5 151v8q0 54 -16 99l-260 -273q43 -40 110 -40zM243 354
q0 -54 13 -92l255 270q-41 33 -102 33q-77 0 -121.5 -53t-44.5 -150v-8zM333 759l51 146h187l-103 -146h-135z" />
    <glyph glyph-name="oslashacute" unicode="&#x1ff;" horiz-adv-x="622" 
d="M73 -39l-52 48l66 70q-62 70 -62 176v8q0 124 81.5 199t205.5 75q92 0 163 -43l65 69l52 -48l-62 -66q67 -73 67 -181v-8q0 -125 -81 -198.5t-205 -73.5q-97 0 -170 45zM241 583l53 166h180l-105 -166h-128zM312 120q51 0 78 36t27 102v8q0 31 -6 55l-167 -178
q26 -23 68 -23zM206 260q0 -30 4 -49l163 174q-23 19 -61 19q-51 0 -78.5 -35t-27.5 -101v-8z" />
    <glyph glyph-name="Scommaaccent" unicode="&#x218;" horiz-adv-x="651" 
d="M306 -232l-101 27l42 177l158 -19zM331 -12q-149 0 -226 61t-82 178h195q4 -44 29 -68.5t84 -24.5q43 0 67.5 19.5t24.5 51.5t-23 45.5t-90 23.5q-151 18 -210.5 68.5t-59.5 159.5q0 98 75.5 160.5t201.5 62.5q263 0 282 -223h-190q-11 77 -92 77q-40 0 -61.5 -16.5
t-21.5 -44.5q0 -31 23 -46t88 -24q144 -16 209 -63.5t65 -158.5q0 -102 -77 -170t-211 -68z" />
    <glyph glyph-name="scommaaccent" unicode="&#x219;" horiz-adv-x="515" 
d="M239 -232l-101 27l42 177l158 -19zM257 -12q-112 0 -174.5 45.5t-65.5 132.5h165q5 -30 21 -44.5t53 -14.5q64 0 64 43q0 19 -21.5 29t-75.5 18q-107 14 -153 51t-46 117q0 83 64 127.5t160 44.5q215 0 231 -169h-162q-10 52 -67 52q-28 0 -43.5 -11t-15.5 -30
q0 -18 19.5 -27.5t68.5 -15.5q114 -14 164.5 -50.5t50.5 -117.5q0 -91 -62.5 -135.5t-174.5 -44.5z" />
    <glyph glyph-name="uni0237" unicode="&#x237;" horiz-adv-x="295" 
d="M-6 -184v130q33 2 48.5 17t15.5 45v515h178v-519q0 -92 -54 -140t-188 -48z" />
    <glyph glyph-name="circumflex" unicode="&#x2c6;" horiz-adv-x="400" 
d="M15 585l123 163h128l118 -163h-125l-61 56l-60 -56h-123z" />
    <glyph glyph-name="caron" unicode="&#x2c7;" horiz-adv-x="400" 
d="M134 585l-119 163h125l61 -56l61 56h122l-123 -163h-127z" />
    <glyph glyph-name="breve" unicode="&#x2d8;" horiz-adv-x="400" 
d="M199 587q-72 0 -115.5 41.5t-47.5 116.5h111q5 -48 52 -48q49 0 54 48h111q-4 -75 -49 -116.5t-116 -41.5z" />
    <glyph glyph-name="dotaccent" unicode="&#x2d9;" horiz-adv-x="400" 
d="M200 579q-41 0 -68.5 25.5t-27.5 64.5q0 38 27.5 63.5t68.5 25.5t68 -25.5t27 -63.5q0 -39 -27 -64.5t-68 -25.5z" />
    <glyph glyph-name="ring" unicode="&#x2da;" horiz-adv-x="400" 
d="M200 642q20 0 33 14t13 36t-13 36t-33 14t-33 -14t-13 -36t13 -36t33 -14zM200 578q-49 0 -83.5 33.5t-34.5 80.5t34.5 81t83.5 34t83.5 -34t34.5 -81t-34.5 -80.5t-83.5 -33.5z" />
    <glyph glyph-name="ogonek" unicode="&#x2db;" horiz-adv-x="400" 
d="M199 -182q-51 0 -84 21t-33 58q0 63 86 103h102q-42 -33 -42 -63q0 -28 30 -28q17 0 30 5v-80q-36 -16 -89 -16z" />
    <glyph glyph-name="tilde" unicode="&#x2dc;" horiz-adv-x="400" 
d="M264 587q-31 0 -68 16.5t-49 16.5q-26 0 -31 -32h-97q5 77 36 116.5t79 39.5q30 0 67.5 -17t51.5 -17q25 0 32 32h97q-6 -75 -38.5 -115t-79.5 -40z" />
    <glyph glyph-name="hungarumlaut" unicode="&#x2dd;" horiz-adv-x="400" 
d="M54 583l44 166h140l-77 -166h-107zM232 583l43 166h140l-77 -166h-106z" />
    <glyph glyph-name="Wgrave" unicode="&#x1e80;" horiz-adv-x="996" 
d="M442 759l-100 146h186l49 -146h-135zM180 0l-166 715h207l92 -446l96 446h182l104 -450l97 450h190l-167 -715h-214l-110 454l-111 -454h-200z" />
    <glyph glyph-name="wgrave" unicode="&#x1e81;" horiz-adv-x="845" 
d="M167 0l-158 523h187l76 -313l88 313h144l78 -313l85 313h170l-166 -523h-171l-78 292l-81 -292h-174zM372 583l-105 166h180l53 -166h-128z" />
    <glyph glyph-name="Wacute" unicode="&#x1e82;" horiz-adv-x="996" 
d="M430 759l51 146h187l-103 -146h-135zM180 0l-166 715h207l92 -446l96 446h182l104 -450l97 450h190l-167 -715h-214l-110 454l-111 -454h-200z" />
    <glyph glyph-name="wacute" unicode="&#x1e83;" horiz-adv-x="845" 
d="M368 583l53 166h180l-105 -166h-128zM167 0l-158 523h187l76 -313l88 313h144l78 -313l85 313h170l-166 -523h-171l-78 292l-81 -292h-174z" />
    <glyph glyph-name="Wdieresis" unicode="&#x1e84;" horiz-adv-x="996" 
d="M389 758q-35 0 -60 24.5t-25 58.5q0 35 25 59.5t60 24.5q36 0 61 -24.5t25 -59.5t-25 -59t-61 -24zM612 758q-36 0 -60.5 24t-24.5 59t24.5 59.5t60.5 24.5t61 -24.5t25 -59.5t-25 -59t-61 -24zM180 0l-166 715h207l92 -446l96 446h182l104 -450l97 450h190l-167 -715
h-214l-110 454l-111 -454h-200z" />
    <glyph glyph-name="wdieresis" unicode="&#x1e85;" horiz-adv-x="845" 
d="M324 580q-35 0 -60 24.5t-25 58.5q0 35 25 59.5t60 24.5q36 0 61 -24.5t25 -59.5t-25 -59t-61 -24zM537 580q-36 0 -60.5 24t-24.5 59t24.5 59.5t60.5 24.5t61 -24.5t25 -59.5t-25 -59t-61 -24zM167 0l-158 523h187l76 -313l88 313h144l78 -313l85 313h170l-166 -523
h-171l-78 292l-81 -292h-174z" />
    <glyph glyph-name="Ygrave" unicode="&#x1ef2;" horiz-adv-x="677" 
d="M241 0v306l-233 409h223l121 -241l121 241h196l-222 -409v-306h-206zM288 759l-100 146h186l49 -146h-135z" />
    <glyph glyph-name="ygrave" unicode="&#x1ef3;" horiz-adv-x="589" 
d="M130 -175l87 228l-209 470h194l108 -279l100 279h171l-280 -698h-171zM245 583l-105 166h180l53 -166h-128z" />
    <glyph glyph-name="uni2009" unicode="&#x2009;" horiz-adv-x="87" 
 />
    <glyph glyph-name="endash" unicode="&#x2013;" horiz-adv-x="541" 
d="M46 240v105h449v-105h-449z" />
    <glyph glyph-name="emdash" unicode="&#x2014;" horiz-adv-x="946" 
d="M46 240v105h855v-105h-855z" />
    <glyph glyph-name="quoteleft" unicode="&#x2018;" horiz-adv-x="310" 
d="M188 428l-158 53l137 247l101 -39z" />
    <glyph glyph-name="quoteright" unicode="&#x2019;" horiz-adv-x="310" 
d="M143 428l-101 39l80 261l158 -53z" />
    <glyph glyph-name="quotesinglbase" unicode="&#x201a;" horiz-adv-x="309" 
d="M140 -106l-101 39l80 261l157 -53z" />
    <glyph glyph-name="quotedblleft" unicode="&#x201c;" horiz-adv-x="536" 
d="M188 428l-158 53l137 247l101 -39zM415 428l-158 53l137 247l101 -39z" />
    <glyph glyph-name="quotedblright" unicode="&#x201d;" horiz-adv-x="536" 
d="M143 428l-101 39l80 261l158 -53zM369 428l-100 39l80 261l158 -53z" />
    <glyph glyph-name="quotedblbase" unicode="&#x201e;" horiz-adv-x="536" 
d="M140 -106l-101 39l80 261l157 -53zM366 -106l-100 39l79 261l159 -53z" />
    <glyph glyph-name="dagger" unicode="&#x2020;" horiz-adv-x="405" 
d="M130 213v259h-107v126h107v117h145v-117h107v-126h-107v-259h-145z" />
    <glyph glyph-name="daggerdbl" unicode="&#x2021;" horiz-adv-x="405" 
d="M130 427v74h-107v114h107v100h145v-100h107v-114h-107v-74h107v-114h-107v-100h-145v100h-107v114h107z" />
    <glyph glyph-name="bullet" unicode="&#x2022;" horiz-adv-x="372" 
d="M186 156q-62 0 -104.5 43t-42.5 104t42.5 103.5t104.5 42.5q63 0 104.5 -42.5t41.5 -103.5q0 -62 -41.5 -104.5t-104.5 -42.5z" />
    <glyph glyph-name="ellipsis" unicode="&#x2026;" horiz-adv-x="893" 
d="M148 -11q-44 0 -73 29.5t-29 71.5t29 71.5t73 29.5q45 0 75 -29.5t30 -71.5t-30 -71.5t-75 -29.5zM445 -11q-44 0 -73 29.5t-29 71.5t29 71.5t73 29.5q45 0 75 -29.5t30 -71.5t-30 -71.5t-75 -29.5zM742 -11q-44 0 -73 29.5t-29 71.5t29 71.5t73 29.5q45 0 75 -29.5
t30 -71.5t-30 -71.5t-75 -29.5z" />
    <glyph glyph-name="perthousand" unicode="&#x2030;" horiz-adv-x="1222" 
d="M213 472q27 0 41.5 20t14.5 55t-14.5 54.5t-41.5 19.5t-42 -19.5t-15 -53.5q0 -36 15 -56t42 -20zM212 368q-86 0 -136.5 50.5t-50.5 128.5q0 75 54 125.5t134 50.5t133.5 -49t53.5 -124q0 -79 -51.5 -130.5t-136.5 -51.5zM115 0l496 715h98l-496 -715h-98zM606 92
q27 0 41.5 20t14.5 56q0 34 -14.5 53.5t-41.5 19.5t-42 -19.5t-15 -53.5q0 -36 15 -56t42 -20zM605 -12q-86 0 -136.5 50.5t-50.5 128.5q0 75 54 125.5t134 50.5t133.5 -49t53.5 -124q0 -79 -51.5 -130.5t-136.5 -51.5zM1010 92q27 0 42 20t15 56q0 34 -15 53.5t-42 19.5
q-26 0 -41.5 -19.5t-15.5 -53.5q0 -36 15.5 -56t41.5 -20zM1010 -12q-86 0 -137 50.5t-51 128.5q0 75 54 125.5t134 50.5q81 0 134.5 -49t53.5 -124q0 -79 -52 -130.5t-136 -51.5z" />
    <glyph glyph-name="uni2032" unicode="&#x2032;" horiz-adv-x="250" 
d="M35 440l20 275h169l-63 -275h-126z" />
    <glyph glyph-name="uni2033" unicode="&#x2033;" horiz-adv-x="462" 
d="M35 440l20 275h169l-63 -275h-126zM247 440l21 275h168l-62 -275h-127z" />
    <glyph glyph-name="guilsinglleft" unicode="&#x2039;" horiz-adv-x="307" 
d="M155 70l-124 191l124 191h122l-120 -191l120 -191h-122z" />
    <glyph glyph-name="guilsinglright" unicode="&#x203a;" horiz-adv-x="307" 
d="M30 70l120 191l-120 191h121l125 -191l-125 -191h-121z" />
    <glyph glyph-name="fraction" unicode="&#x2044;" horiz-adv-x="168" 
d="M-243 0l560 715h94l-560 -715h-94z" />
    <glyph glyph-name="Euro" unicode="&#x20ac;" horiz-adv-x="720" 
d="M23 381v71h63q19 123 102 198t209 75q130 0 204.5 -65.5t85.5 -192.5h-189q-14 104 -103 104q-91 0 -111 -119h155l-12 -71h-147v-52h138l-12 -71h-122q17 -112 112 -112q49 0 75 28.5t33 87.5h188q-32 -274 -301 -274q-132 0 -210.5 73.5t-95.5 196.5h-62v71h58v52h-58z
" />
    <glyph glyph-name="trademark" unicode="&#x2122;" horiz-adv-x="760" 
d="M341 394v321h128l59 -158l60 158h131v-321h-109v183l-72 -183h-33l-71 183v-183h-93zM112 394v237h-83v84h273v-84h-83v-237h-107z" />
    <glyph glyph-name="onethird" unicode="&#x2153;" horiz-adv-x="813" 
d="M621 -7q-161 0 -168 133h116q5 -41 45 -41q39 0 39 34q0 33 -45 33h-30v74h30q45 0 45 34q0 30 -34 30q-36 0 -42 -38h-116q5 58 46 93.5t115 35.5t115 -28t41 -77q0 -63 -68 -80q34 -5 55 -27t21 -55q0 -56 -42.5 -88.5t-122.5 -32.5zM105 339v248l-82 -46v107l102 67
h114v-376h-134zM58 0l560 715h94l-560 -715h-94z" />
    <glyph glyph-name="twothirds" unicode="&#x2154;" horiz-adv-x="860" 
d="M669 -7q-161 0 -168 133h116q5 -41 45 -41q39 0 39 34q0 33 -45 33h-30v74h30q45 0 45 34q0 30 -34 30q-36 0 -42 -38h-116q5 58 46 93.5t115 35.5t115 -28t41 -77q0 -63 -68 -80q34 -5 55 -27t21 -55q0 -56 -42.5 -88.5t-122.5 -32.5zM8 339v17l128 133q36 37 52 59
t16 43q0 32 -31 32q-34 0 -40 -52h-120q2 72 46 110.5t120 38.5t115.5 -33t39.5 -87q0 -62 -77 -132l-35 -34h113v-95h-327zM121 0l560 715h94l-560 -715h-94z" />
    <glyph glyph-name="oneeighth" unicode="&#x215b;" horiz-adv-x="807" 
d="M613 -7q-83 0 -127 28.5t-44 83.5q0 69 69 91q-53 23 -53 77q0 50 44.5 79t111.5 29q70 0 113 -28t43 -80q0 -54 -53 -76q67 -20 67 -88q0 -55 -44.5 -85.5t-126.5 -30.5zM614 81q17 0 29 11t12 28t-11.5 28t-29.5 11t-30 -10.5t-12 -28.5t12 -28.5t30 -10.5zM614 227
q16 0 26.5 9.5t10.5 25.5q0 15 -10.5 24.5t-26.5 9.5q-15 0 -26 -10t-11 -25t11 -24.5t26 -9.5zM105 339v248l-82 -46v107l102 67h114v-376h-134zM49 0l560 715h94l-560 -715h-94z" />
    <glyph glyph-name="threeeighths" unicode="&#x215c;" horiz-adv-x="847" 
d="M653 -7q-83 0 -127 28.5t-44 83.5q0 69 69 91q-53 23 -53 77q0 50 44.5 79t111.5 29q70 0 113 -28t43 -80q0 -54 -53 -76q67 -20 67 -88q0 -55 -44.5 -85.5t-126.5 -30.5zM654 81q17 0 29 11t12 28t-11.5 28t-29.5 11t-30 -10.5t-12 -28.5t12 -28.5t30 -10.5zM654 227
q16 0 26.5 9.5t10.5 25.5q0 15 -10.5 24.5t-26.5 9.5q-15 0 -26 -10t-11 -25t11 -24.5t26 -9.5zM101 0l560 715h94l-560 -715h-94zM189 332q-161 0 -168 134h116q5 -42 45 -42q39 0 39 34t-45 34h-30v74h30q45 0 45 34q0 29 -34 29q-36 0 -42 -38h-116q5 59 45.5 94
t115.5 35q74 0 115 -27.5t41 -76.5q0 -62 -68 -81q34 -5 55 -27t21 -55q0 -56 -42.5 -88.5t-122.5 -32.5z" />
    <glyph glyph-name="fiveeighths" unicode="&#x215d;" horiz-adv-x="833" 
d="M639 -7q-83 0 -127 28.5t-44 83.5q0 69 69 91q-53 23 -53 77q0 50 44.5 79t111.5 29q70 0 113 -28t43 -80q0 -54 -53 -76q67 -20 67 -88q0 -55 -44.5 -85.5t-126.5 -30.5zM640 81q17 0 29 11t12 28t-11.5 28t-29.5 11t-30 -10.5t-12 -28.5t12 -28.5t30 -10.5zM640 227
q16 0 26.5 9.5t10.5 25.5q0 15 -10.5 24.5t-26.5 9.5q-15 0 -26 -10t-11 -25t11 -24.5t26 -9.5zM182 332q-79 0 -118.5 34.5t-41.5 91.5h120q5 -29 38 -29q35 0 35 41q0 40 -38 40q-30 0 -41 -24h-102l11 229h281v-93h-190l-3 -80q32 48 98 48q54 0 85.5 -30.5t31.5 -87.5
q0 -65 -43.5 -102.5t-122.5 -37.5zM86 0l560 715h94l-560 -715h-94z" />
    <glyph glyph-name="seveneighths" unicode="&#x215e;" horiz-adv-x="802" 
d="M608 -7q-83 0 -127 28.5t-44 83.5q0 69 69 91q-53 23 -53 77q0 50 44.5 79t111.5 29q70 0 113 -28t43 -80q0 -54 -53 -76q67 -20 67 -88q0 -55 -44.5 -85.5t-126.5 -30.5zM609 81q17 0 29 11t12 28t-11.5 28t-29.5 11t-30 -10.5t-12 -28.5t12 -28.5t30 -10.5zM609 227
q16 0 26.5 9.5t10.5 25.5q0 15 -10.5 24.5t-26.5 9.5q-15 0 -26 -10t-11 -25t11 -24.5t26 -9.5zM68 339l102 272h-148v104h314v-13l-136 -363h-132zM36 0l560 715h94l-560 -715h-94z" />
    <glyph glyph-name="minus" unicode="&#x2212;" horiz-adv-x="572" 
d="M37 271v138h498v-138h-498z" />
    <glyph glyph-name="approxequal" unicode="&#x2248;" horiz-adv-x="579" 
d="M37 121q6 89 45 133.5t96 44.5q44 0 119 -20t96 -20q39 0 45 44h103q-4 -86 -43.5 -132t-95.5 -46q-45 0 -120.5 20t-95.5 20q-39 0 -45 -44h-104zM37 342q6 89 45 133t96 44q44 0 119 -20t96 -20q39 0 45 44h103q-4 -86 -43.5 -131.5t-95.5 -45.5q-45 0 -120.5 20
t-95.5 20q-38 0 -45 -44h-104z" />
    <glyph glyph-name="notequal" unicode="&#x2260;" horiz-adv-x="557" 
d="M39 363v123h244l37 96h116l-38 -96h120v-123h-167l-29 -74h196v-122h-243l-37 -96h-115l37 96h-121v122h168l28 74h-196z" />
    <glyph glyph-name="lessequal" unicode="&#x2264;" horiz-adv-x="513" 
d="M463 143l-421 225v34l421 226v-160l-166 -82l166 -82v-161zM42 0v118h421v-118h-421z" />
    <glyph glyph-name="greaterequal" unicode="&#x2265;" horiz-adv-x="513" 
d="M49 143v161l166 82l-166 82v160l422 -226v-34zM49 0v118h422v-118h-422z" />
    <glyph glyph-name="uni24C5" unicode="&#x24c5;" horiz-adv-x="843" 
d="M279 158v403h159q165 0 165 -137v-3q0 -64 -40.5 -97.5t-117.5 -33.5h-41v-132h-125zM404 375h27q54 0 54 46v3q0 43 -53 43h-28v-92zM420 31q136 0 229.5 92t93.5 236q0 143 -92.5 234t-228.5 91q-138 0 -230 -91.5t-92 -235.5t93 -235t227 -91zM420 -20
q-160 0 -271.5 108.5t-111.5 268.5q0 158 112 268t273 110q163 0 273.5 -109t110.5 -267q0 -161 -111.5 -270t-274.5 -109z" />
    <glyph glyph-name="f_i" unicode="&#xfb01;" horiz-adv-x="675" 
d="M437 0v523h179v-523h-179zM526 573q-42 0 -70 26t-28 66t28 66.5t70 26.5t70.5 -26.5t28.5 -66.5t-28.5 -66t-70.5 -26zM80 0v401h-66v122h66v46q0 95 54.5 143.5t149.5 48.5q42 0 80 -10v-131q-20 6 -47 6q-59 0 -59 -57v-46h106v-122h-106v-401h-178z" />
    <glyph glyph-name="f_l" unicode="&#xfb02;" horiz-adv-x="673" 
d="M80 0v401h-66v122h66v46q0 95 54.5 143.5t149.5 48.5q42 0 80 -10v-131q-20 6 -47 6q-59 0 -59 -57v-46h106v-122h-106v-401h-178zM437 0v753h178v-753h-178z" />
    <glyph glyph-name="space_uni0326" horiz-adv-x="400" 
d="M197 -232l-101 27l42 177l158 -19z" />
    <glyph glyph-name="caron.alt" horiz-adv-x="400" 
d="M150 579l9 174h133l-49 -174h-93z" />
    <glyph glyph-name="space_uni0326.alt" horiz-adv-x="400" 
d="M275 566l-158 19l99 185l101 -27z" />
    <glyph glyph-name="grave.uc" horiz-adv-x="400" 
d="M143 759l-100 146h186l49 -146h-135z" />
    <glyph glyph-name="dieresis.uc" horiz-adv-x="400" 
d="M88 758q-35 0 -60 24.5t-25 58.5q0 35 25 59.5t60 24.5q36 0 61 -24.5t25 -59.5t-25 -59t-61 -24zM311 758q-36 0 -60.5 24t-24.5 59t24.5 59.5t60.5 24.5t61 -24.5t25 -59.5t-25 -59t-61 -24z" />
    <glyph glyph-name="macron.uc" horiz-adv-x="400" 
d="M39 771v107h322v-107h-322z" />
    <glyph glyph-name="acute.uc" horiz-adv-x="400" 
d="M122 759l51 146h187l-103 -146h-135z" />
    <glyph glyph-name="circumflex.uc" horiz-adv-x="400" 
d="M13 759l114 146h150l110 -146h-130l-59 49l-58 -49h-127z" />
    <glyph glyph-name="caron.uc" horiz-adv-x="400" 
d="M122 759l-110 146h130l58 -49l59 49h127l-114 -146h-150z" />
    <glyph glyph-name="breve.uc" horiz-adv-x="400" 
d="M199 752q-73 0 -116.5 40.5t-48.5 112.5h116q5 -46 49 -46q45 0 52 46h115q-6 -71 -51 -112t-116 -41z" />
    <glyph glyph-name="dotaccent.uc" horiz-adv-x="400" 
d="M200 757q-41 0 -68 25.5t-27 64.5q0 38 27 63.5t68 25.5t68 -25.5t27 -63.5q0 -39 -27 -64.5t-68 -25.5z" />
    <glyph glyph-name="ring.uc" horiz-adv-x="400" 
d="M200 810q20 0 33 14t13 36t-13 36.5t-33 14.5q-21 0 -33.5 -14t-12.5 -37q0 -22 12.5 -36t33.5 -14zM200 744q-49 0 -84.5 34.5t-35.5 81.5q0 48 35 82t85 34t85 -34t35 -82q0 -47 -35.5 -81.5t-84.5 -34.5z" />
    <glyph glyph-name="tilde.uc" horiz-adv-x="400" 
d="M265 758q-32 0 -70 17t-50 17t-20.5 -9t-10.5 -24h-102q5 75 39 114t83 39q30 0 68.5 -16.5t52.5 -16.5q25 0 32 32h101q-5 -75 -40 -114t-83 -39z" />
    <glyph glyph-name="hungarumlaut.uc" horiz-adv-x="400" 
d="M39 759l41 146h153l-74 -146h-120zM233 759l41 146h154l-75 -146h-120z" />
    <glyph glyph-name="idotaccent" horiz-adv-x="295" 
d="M147 573q-42 0 -70 26t-28 66t28 66.5t70 26.5t70.5 -26.5t28.5 -66.5t-28.5 -66t-70.5 -26zM58 0v523h179v-523h-179z" />
    <glyph glyph-name="registered.alt" horiz-adv-x="843" 
d="M261 159v403h163q167 0 167 -130v-2q0 -77 -68 -106l92 -165h-129l-77 139h-24v-139h-124zM385 379h32q53 0 53 45v3q0 41 -52 41h-33v-89zM420 31q136 0 229.5 92t93.5 236q0 143 -92.5 234t-228.5 91q-138 0 -230 -91.5t-92 -235.5t93 -235t227 -91zM420 -20
q-160 0 -271.5 108.5t-111.5 268.5q0 158 112 268t273 110q163 0 273.5 -109t110.5 -267q0 -161 -111.5 -270t-274.5 -109z" />
    <glyph glyph-name="dollar.old" horiz-adv-x="640" 
d="M278 -131v121q-121 9 -185 69.5t-69 159.5h180q9 -76 74 -90v141q-127 18 -182.5 69t-55.5 151q0 88 64.5 146t173.5 66v87h78v-88q219 -19 236 -209h-176q-10 59 -60 72v-133q121 -18 183 -65.5t62 -147.5q0 -94 -62 -157t-183 -72v-120h-78zM421 197q0 25 -13.5 38
t-51.5 22v-129q65 14 65 69zM214 504q0 -26 13.5 -39.5t50.5 -21.5v123q-64 -12 -64 -62z" />
    <glyph glyph-name="Euro.old" horiz-adv-x="698" 
d="M22 369v69h62q18 119 98.5 192t202.5 73q126 0 198.5 -63.5t82.5 -185.5h-183q-12 99 -100 99q-90 0 -108 -115h152l-13 -69h-143v-49h134l-11 -69h-119q17 -110 109 -110q48 0 73 28t32 85h182q-15 -128 -87.5 -197t-204.5 -69q-127 0 -203.5 71.5t-92.5 191.5h-61v69
h57v49h-57z" />
    <glyph glyph-name="sterling.old" horiz-adv-x="651" 
d="M33 278v117h50q-12 45 -12 86q0 104 75 163t192 59q130 0 195 -62t70 -172h-181q-6 44 -24.5 64t-53.5 20t-55.5 -22t-20.5 -61q0 -31 7 -75h171v-117h-152q4 -36 4 -54q0 -29 -10 -57q68 -22 88 -22q58 0 61 58h179q-4 -95 -56.5 -153.5t-144.5 -58.5q-55 0 -121 25.5
t-83 25.5q-42 0 -47 -42h-147q4 59 30 105t73 66q8 22 8 53q0 25 -8 54h-87z" />
    <glyph glyph-name="yen.old" horiz-adv-x="627" 
d="M62 286v69h133l-185 339h216l100 -227l100 227h190l-175 -339h134v-69h-156v-51h156v-69h-156v-166h-200v166h-157v69h157v51h-157z" />
    <glyph glyph-name="zero.old" horiz-adv-x="674" 
d="M338 134q113 0 113 166v22q0 164 -114 164t-114 -163v-23q0 -166 115 -166zM335 -12q-138 0 -221.5 82t-83.5 227v23q0 144 86 227.5t221 83.5q136 0 221.5 -80.5t85.5 -225.5v-23q0 -146 -85 -230t-224 -84z" />
    <glyph glyph-name="one.old" horiz-adv-x="435" 
d="M165 0v430l-133 -81v161l158 109h165v-619h-190z" />
    <glyph glyph-name="two.old" horiz-adv-x="586" 
d="M11 0v27l227 218q63 61 91 98.5t28 75.5q0 31 -18.5 49.5t-53.5 18.5q-77 0 -89 -104h-172q5 116 77.5 182t195.5 66q118 0 184.5 -54t66.5 -143q0 -59 -33.5 -109t-103.5 -115l-77 -71h220v-139h-543z" />
    <glyph glyph-name="three.old" horiz-adv-x="620" 
d="M313 -104q-141 0 -213 64t-77 179h174q8 -101 106 -101q48 0 72.5 23.5t24.5 64.5q0 85 -102 85h-58v121h54q98 0 98 83q0 36 -20.5 56.5t-58.5 20.5q-42 0 -68 -25.5t-31 -70.5h-173q6 105 77.5 170t200.5 65q119 0 186.5 -53t67.5 -142q0 -113 -118 -156
q135 -33 135 -166q0 -98 -72 -158t-205 -60z" />
    <glyph glyph-name="four.old" horiz-adv-x="669" 
d="M365 -92v132h-351v65l302 514h239v-451h93v-128h-93v-132h-190zM200 168h170v306z" />
    <glyph glyph-name="five.old" horiz-adv-x="613" 
d="M300 -104q-132 0 -202.5 63t-74.5 166h178q6 -41 27.5 -63t69.5 -22q43 0 68.5 29.5t25.5 75.5q0 47 -28 74t-75 27q-77 0 -118 -52h-118l15 425h472v-148h-331l-5 -167q55 73 167 73q95 0 153.5 -61t58.5 -170q0 -115 -75.5 -182.5t-207.5 -67.5z" />
    <glyph glyph-name="six.old" horiz-adv-x="651" 
d="M336 -12q-156 0 -229 91t-73 249v34q0 170 86.5 266.5t226.5 96.5q116 0 182.5 -53t77.5 -155h-181q-12 63 -79 63q-114 0 -120 -210q55 86 163 86q100 0 165.5 -59t65.5 -165q0 -111 -76.5 -177.5t-208.5 -66.5zM335 127q44 0 71 29t27 74q0 46 -26.5 74.5t-70.5 28.5
q-45 0 -72.5 -28.5t-27.5 -72.5q0 -47 27 -76t72 -29z" />
    <glyph glyph-name="seven.old" horiz-adv-x="571" 
d="M97 -92l214 554h-290v157h540v-22l-260 -689h-204z" />
    <glyph glyph-name="eight.old" horiz-adv-x="639" 
d="M319 -12q-133 0 -211.5 55.5t-78.5 157.5q0 61 36 106t99 68q-106 47 -106 149q0 94 75.5 147.5t187.5 53.5q114 0 188 -53t74 -147q0 -101 -106 -149q63 -22 98 -66t35 -104q0 -102 -79 -160t-212 -58zM320 127q44 0 71.5 25.5t27.5 67.5t-27.5 67t-71.5 25t-71.5 -24.5
t-27.5 -67.5t27.5 -68t71.5 -25zM321 429q38 0 62 22t24 60q0 36 -24.5 58.5t-61.5 22.5q-36 0 -61 -22.5t-25 -58.5t25 -59t61 -23z" />
    <glyph glyph-name="nine.old" horiz-adv-x="651" 
d="M305 -106q-119 0 -188.5 57t-79.5 158h180q16 -70 89 -70q61 0 87.5 47.5t30.5 162.5q-54 -85 -164 -85q-99 0 -165 58t-66 161q0 113 76.5 180.5t209.5 67.5q302 0 302 -346v-31q0 -170 -81 -265t-231 -95zM315 286q44 0 71.5 29t27.5 73q0 46 -27 75t-72 29
q-44 0 -70.5 -29t-26.5 -74t26.5 -74t70.5 -29z" />
    <glyph glyph-name="dollar.tab" 
d="M264 -135v125q-119 9 -182 71.5t-68 164.5h176q7 -79 74 -93v145q-125 19 -180 71.5t-55 155.5q0 91 63.5 151t171.5 68v89h76v-90q213 -19 230 -216h-172q-10 61 -58 74v-137q118 -18 178.5 -67t60.5 -152q0 -97 -60.5 -161.5t-178.5 -73.5v-125h-76zM200 520
q0 -27 13.5 -41.5t50.5 -22.5v128q-64 -12 -64 -64zM402 203q0 26 -13 39.5t-49 22.5v-133q62 15 62 71z" />
    <glyph glyph-name="Euro.tab" 
d="M12 382v71h47q5 128 77.5 200t186.5 72q232 0 243 -241h-166q-5 50 -22 71.5t-54 21.5q-42 0 -63 -30t-23 -94h145l-12 -71h-133v-51h124l-13 -72h-111q2 -63 22.5 -92t64.5 -29q40 0 59 23t23 78h163q-9 -251 -252 -251q-116 0 -184.5 70.5t-74.5 200.5h-47v72h47v51
h-47z" />
    <glyph glyph-name="sterling.tab" 
d="M31 293v108h45q-11 51 -11 95q0 109 70.5 169t180.5 60q123 0 183 -60t64 -178h-165q-5 46 -22.5 65t-51.5 19q-74 0 -74 -86q0 -35 7 -84h161v-108h-144q4 -42 4 -63q0 -29 -10 -57q67 -21 84 -21q57 0 61 57h165q-3 -102 -52.5 -160t-136.5 -58q-52 0 -111 26t-76 26
q-41 0 -44 -43h-142q9 129 90 172q8 26 8 59q0 30 -8 62h-75z" />
    <glyph glyph-name="yen.tab" 
d="M55 294v71h139l-174 350h205l88 -213l88 213h179l-170 -350h145v-71h-153v-51h153v-72h-153v-171h-199v171h-148v72h148v51h-148z" />
    <glyph glyph-name="zero.tab" 
d="M303 145q43 0 59 30.5t16 105.5v154q0 73 -17.5 104.5t-59.5 31.5q-43 0 -61 -32t-18 -105v-153q0 -74 18.5 -105t62.5 -31zM297 -12q-125 0 -195 75.5t-70 216.5v153q0 140 73.5 216t194.5 76q122 0 195 -72.5t73 -214.5v-153q0 -143 -72 -220t-199 -77z" />
    <glyph glyph-name="one.tab" 
d="M253 0v513l-172 -116v171l197 147h180v-715h-205z" />
    <glyph glyph-name="two.tab" 
d="M23 0v30l222 263q61 75 87 119t26 88q0 73 -62 73q-35 0 -52 -26.5t-21 -91.5h-187q10 270 268 270q125 0 190.5 -57t65.5 -156q0 -68 -36 -128t-107 -137l-87 -90h229v-157h-536z" />
    <glyph glyph-name="three.tab" 
d="M304 -12q-274 0 -283 248h179q3 -49 24.5 -74t68.5 -25q83 0 83 81q0 82 -85 82h-57v129h55q86 0 86 77q0 70 -73 70q-80 0 -87 -91h-176q5 112 74.5 176t192.5 64q118 0 184.5 -52.5t66.5 -143.5q0 -118 -114 -154q59 -13 94.5 -55.5t35.5 -105.5q0 -105 -70 -165.5
t-199 -60.5z" />
    <glyph glyph-name="four.tab" 
d="M321 0v137h-302v70l256 508h227v-443h72v-135h-72v-137h-181zM183 272h142v287z" />
    <glyph glyph-name="five.tab" 
d="M293 -12q-253 0 -262 239h176q3 -42 22 -61.5t63 -19.5q78 0 78 102q0 45 -24 70.5t-67 25.5q-69 0 -107 -52h-118l14 423h453v-151h-310l-5 -161q52 77 154 77q97 0 150.5 -61.5t53.5 -170.5q0 -121 -71 -190.5t-200 -69.5z" />
    <glyph glyph-name="six.tab" 
d="M313 -12q-143 0 -212.5 85.5t-69.5 238.5v65q0 165 80.5 256.5t214.5 91.5q229 0 239 -211h-171q-10 66 -68 66q-110 0 -111 -198q50 82 149 82q92 0 151 -58t59 -167q0 -114 -69.5 -182.5t-191.5 -68.5zM309 138q39 0 64 27t25 70q0 45 -24.5 71.5t-65.5 26.5
q-40 0 -66 -25.5t-26 -68.5q0 -46 26 -73.5t67 -27.5z" />
    <glyph glyph-name="seven.tab" 
d="M111 0l207 553h-279v162h531v-21l-254 -694h-205z" />
    <glyph glyph-name="eight.tab" 
d="M300 -12q-126 0 -199.5 55.5t-73.5 158.5q0 127 120 175q-93 46 -93 147q0 93 71 147t177 54q108 0 177.5 -53.5t69.5 -146.5q0 -102 -93 -147q118 -44 118 -171q0 -103 -74 -161t-200 -58zM301 137q40 0 65 23.5t25 63.5q0 41 -24.5 64.5t-64.5 23.5t-65.5 -23.5
t-25.5 -64.5q0 -40 25.5 -63.5t64.5 -23.5zM303 430q33 0 55.5 21.5t22.5 55.5q0 35 -22.5 56t-56.5 21q-32 0 -55 -21t-23 -55q0 -35 23 -56.5t56 -21.5z" />
    <glyph glyph-name="nine.tab" 
d="M283 -11q-239 0 -252 214h172q10 -69 76 -69q57 0 81.5 46.5t25.5 150.5q-50 -81 -150 -81q-92 0 -151 57t-59 166q0 115 70 184t192 69q139 0 210 -83.5t71 -238.5v-73q0 -164 -75 -253t-211 -89zM292 383q41 0 66.5 25t25.5 68q0 47 -26 74.5t-67 27.5q-39 0 -64 -27
t-25 -70q0 -45 24.5 -71.5t65.5 -26.5z" />
    <glyph glyph-name="cent.tab" 
d="M277 -135v125q-112 10 -181 78.5t-69 186.5v8q0 115 70 187t180 84v95h78v-94q93 -9 153.5 -62.5t67.5 -150.5h-164q-8 60 -57 78v-284q61 18 67 90h157q-5 -92 -63.5 -149t-160.5 -67v-125h-78zM204 257q0 -112 73 -139v281q-73 -26 -73 -134v-8z" />
    <glyph glyph-name="percent.tab" horiz-adv-x="800" 
d="M212 482q53 0 53 73q0 33 -14 52.5t-39 19.5t-39.5 -19t-14.5 -53q0 -35 14.5 -54t39.5 -19zM211 383q-81 0 -129.5 48.5t-48.5 122.5q0 72 51.5 120.5t127.5 48.5t127 -47t51 -119q0 -75 -49 -124.5t-130 -49.5zM111 0l484 715h97l-483 -715h-98zM589 87q53 0 53 73
q0 33 -14 52.5t-39 19.5t-39.5 -19t-14.5 -53q0 -35 14.5 -54t39.5 -19zM588 -12q-82 0 -130 48t-48 123q0 72 51.5 120.5t127.5 48.5t127 -47t51 -119q0 -76 -49.5 -125t-129.5 -49z" />
    <glyph glyph-name="perthousand.tab" horiz-adv-x="1000" 
d="M177 479q39 0 39 78q0 77 -39 77q-40 0 -40 -77q0 -42 9.5 -60t30.5 -18zM176 387q-71 0 -112.5 46t-41.5 123q0 75 44 121t111 46t110.5 -44.5t43.5 -119.5q0 -78 -42.5 -125t-112.5 -47zM47 0l483 715h95l-483 -715h-95zM490 80q39 0 39 78q0 77 -39 77q-40 0 -40 -77
q0 -78 40 -78zM490 -12q-72 0 -113.5 46t-41.5 123q0 75 44 121t111 46t110.5 -44.5t43.5 -119.5q0 -78 -42 -125t-112 -47zM824 80q39 0 39 78q0 77 -39 77q-40 0 -40 -77q0 -78 40 -78zM823 -12q-71 0 -112.5 46t-41.5 123q0 75 44 121t111 46t110.5 -44.5t43.5 -119.5
q0 -78 -42.5 -125t-112.5 -47z" />
    <glyph glyph-name="plus.tab" 
d="M228 90v185h-169v130h169v185h144v-185h169v-130h-169v-185h-144z" />
    <glyph glyph-name="minus.tab" 
d="M58 271v138h484v-138h-484z" />
    <glyph glyph-name="multiply.tab" 
d="M148 90l-94 94l152 152l-155 154l95 96l154 -156l153 153l94 -95l-153 -152l156 -154l-96 -95l-154 155z" />
    <glyph glyph-name="divide.tab" 
d="M300 43q-39 0 -66.5 26.5t-27.5 65.5q0 38 27.5 65.5t66.5 27.5t66.5 -27.5t27.5 -65.5q0 -39 -27.5 -65.5t-66.5 -26.5zM51 278v124h498v-124h-498zM300 452q-39 0 -66.5 27.5t-27.5 65.5q0 39 27.5 65.5t66.5 26.5t66.5 -26.5t27.5 -65.5q0 -38 -27.5 -65.5
t-66.5 -27.5z" />
    <glyph glyph-name="equal.tab" 
d="M67 167v122h466v-122h-466zM67 363v123h466v-123h-466z" />
    <glyph glyph-name="less.tab" 
d="M521 59l-442 246v34l442 246v-162l-204 -100l204 -106v-158z" />
    <glyph glyph-name="greater.tab" 
d="M80 60v163l204 99l-204 106v158l441 -246v-34z" />
    <glyph glyph-name="florin.tab" 
d="M87 293v121h103l18 125q27 186 221 186q39 0 78 -11v-134q-24 7 -51 7q-61 0 -72 -63l-16 -110h124v-121h-141l-67 -475h-178l67 475h-86z" />
    <glyph glyph-name="plusminus.tab" 
d="M228 176v165h-175v131h175v164h144v-164h176v-131h-176v-165h-144zM53 0v118h497v-118h-497z" />
    <glyph glyph-name="notequal.tab" 
d="M60 363v123h244l38 96h115l-37 -96h120v-123h-168l-28 -74h196v-122h-243l-37 -96h-116l37 96h-121v122h168l29 74h-197z" />
    <glyph glyph-name="approxequal.tab" 
d="M51 121q5 89 44 133.5t96 44.5q45 0 117 -20t93 -20q39 0 45 44h103q-3 -85 -42.5 -131.5t-95.5 -46.5q-46 0 -118.5 20t-93.5 20q-39 0 -45 -44h-103zM51 342q5 89 44 133t96 44q45 0 117 -20t93 -20q39 0 45 44h103q-3 -85 -42.5 -131t-95.5 -46q-46 0 -118.5 20
t-93.5 20q-38 0 -45 -44h-103z" />
    <glyph glyph-name="lessequal.tab" 
d="M507 143l-421 225v34l421 226v-160l-166 -82l166 -82v-161zM86 0v118h421v-118h-421z" />
    <glyph glyph-name="greaterequal.tab" 
d="M93 143v161l166 82l-166 82v160l421 -226v-34zM93 0v118h421v-118h-421z" />
    <glyph glyph-name="parenleft.tab" horiz-adv-x="300" 
d="M178 -148q-144 209 -144 461q0 253 144 462h127q-113 -210 -113 -462q0 -251 113 -461h-127z" />
    <glyph glyph-name="parenright.tab" horiz-adv-x="300" 
d="M-5 -148q113 210 113 461q0 252 -113 462h127q144 -209 144 -462q0 -252 -144 -461h-127z" />
    <glyph glyph-name="bracketleft.tab" horiz-adv-x="300" 
d="M46 -148v924h238v-117h-78v-690h78v-117h-238z" />
    <glyph glyph-name="bracketright.tab" horiz-adv-x="300" 
d="M16 -148v117h78v690h-78v117h238v-924h-238z" />
    <glyph glyph-name="braceleft.tab" horiz-adv-x="300" 
d="M284 -148q-140 0 -193 57t-27 178l18 88q8 37 -6.5 58t-60.5 26v112q46 5 60.5 26t6.5 58l-18 87q-27 125 25.5 180t194.5 55v-117q-48 -3 -62 -23t-5 -73l18 -98q11 -57 -13 -93t-87 -56q63 -20 87 -56t13 -94l-18 -98q-10 -53 4.5 -75t62.5 -25v-117z" />
    <glyph glyph-name="braceright.tab" horiz-adv-x="300" 
d="M16 -148v117q48 3 62.5 25t4.5 75l-18 98q-11 58 13 94t87 56q-63 20 -87 56t-13 93l18 98q9 53 -5 73t-62 23v117q142 0 194.5 -55t25.5 -180l-18 -87q-8 -37 6.5 -58t60.5 -26v-112q-46 -5 -60.5 -26t-6.5 -58l18 -88q26 -121 -27 -178t-193 -57z" />
    <glyph glyph-name="period.tab" horiz-adv-x="300" 
d="M149 -11q-44 0 -73.5 29.5t-29.5 71.5t29.5 71.5t73.5 29.5q45 0 75 -29.5t30 -71.5t-30 -71.5t-75 -29.5z" />
    <glyph glyph-name="comma.tab" horiz-adv-x="300" 
d="M116 -122l-106 41l83 263l167 -59z" />
    <glyph glyph-name="colon.tab" horiz-adv-x="300" 
d="M149 -11q-44 0 -73.5 29.5t-29.5 71.5t29.5 71.5t73.5 29.5q45 0 75 -29.5t30 -71.5t-30 -71.5t-75 -29.5zM149 275q-44 0 -73.5 29t-29.5 72q0 42 29.5 71.5t73.5 29.5q45 0 75 -29.5t30 -71.5q0 -43 -30 -72t-75 -29z" />
    <glyph glyph-name="semicolon.tab" horiz-adv-x="300" 
d="M99 -122l-106 41l84 263l166 -59zM152 275q-44 0 -73.5 29t-29.5 72q0 42 29.5 71.5t73.5 29.5q45 0 75 -29.5t30 -71.5q0 -43 -30 -72t-75 -29z" />
    <glyph glyph-name="space.tab" horiz-adv-x="300" 
 />
    <glyph glyph-name="dollar.oldtab" 
d="M265 -131v121q-118 9 -179.5 69.5t-66.5 159.5h174q9 -76 72 -90v141q-123 18 -177 69t-54 151q0 88 62.5 146t168.5 66v87h76v-88q212 -19 229 -209h-171q-10 59 -58 72v-133q118 -18 177.5 -65.5t59.5 -147.5q0 -94 -60 -157t-177 -72v-120h-76zM404 197q0 25 -13 38
t-50 22v-129q63 14 63 69zM203 504q0 -26 13 -39.5t49 -21.5v123q-62 -12 -62 -62z" />
    <glyph glyph-name="Euro.oldtab" 
d="M24 371v68h46q5 124 75.5 194t180.5 70q225 0 236 -233h-161q-4 47 -21 68t-54 21q-78 0 -82 -120h141l-13 -68h-128v-50h119l-12 -70h-107q2 -62 21.5 -89.5t62.5 -27.5q38 0 57 23t23 75h158q-9 -244 -245 -244q-113 0 -179 68.5t-72 194.5h-46v70h46v50h-46z" />
    <glyph glyph-name="sterling.oldtab" 
d="M25 277v119h43q-10 43 -10 84q0 105 74.5 164t183.5 59q240 0 248 -232h-177q-5 47 -18.5 64.5t-45.5 17.5q-68 0 -68 -83q0 -34 5 -74h149v-119h-133q3 -27 3 -53q0 -32 -9 -57q8 -2 20.5 -6.5t20 -7t17 -4.5t17.5 -2q54 0 58 56h174q-4 -97 -57 -154.5t-139 -57.5
q-50 0 -105 25.5t-71 25.5q-39 0 -43 -42h-151q3 49 26.5 91.5t62.5 67.5q10 28 10 65q0 22 -7 53h-78z" />
    <glyph glyph-name="yen.oldtab" 
d="M63 299v69h134l-170 326h199l88 -204l85 204h174l-166 -326h142v-69h-150v-51h150v-69h-150v-179h-192v179h-144v69h144v51h-144z" />
    <glyph glyph-name="zero.oldtab" 
d="M302 140q43 0 61.5 32t18.5 99v80q0 67 -19 99t-63 32q-43 0 -62.5 -31.5t-19.5 -98.5v-82q0 -66 20 -98t64 -32zM297 -12q-124 0 -193.5 75t-69.5 207v82q0 130 73.5 204.5t192.5 74.5t192.5 -71.5t73.5 -204.5v-81q0 -133 -72 -209.5t-197 -76.5z" />
    <glyph glyph-name="one.oldtab" 
d="M262 0v430l-175 -114v161l201 142h165v-619h-191z" />
    <glyph glyph-name="two.oldtab" 
d="M25 0v27l227 218q57 54 82.5 93.5t25.5 78.5q0 70 -67 70q-71 0 -83 -104h-172q7 116 77 182t191 66q116 0 181 -54t65 -143q0 -60 -33 -110t-101 -114l-77 -71h215v-139h-531z" />
    <glyph glyph-name="three.oldtab" 
d="M297 -105q-136 0 -204.5 65t-71.5 179h173q7 -102 99 -102q44 0 66.5 23t22.5 64q0 87 -92 87h-55v121h52q44 0 67 22.5t23 61.5q0 34 -19.5 55t-56.5 21q-83 0 -91 -96h-171q5 104 76.5 169.5t191.5 65.5q116 0 180.5 -52.5t64.5 -142.5q0 -120 -112 -155
q59 -13 94.5 -55t35.5 -106q0 -104 -72 -164.5t-201 -60.5z" />
    <glyph glyph-name="four.oldtab" 
d="M319 -92v132h-302v63l255 516h227v-452h75v-127h-75v-132h-180zM176 167h147v299z" />
    <glyph glyph-name="five.oldtab" 
d="M294 -104q-127 0 -191.5 60t-67.5 169h170q4 -42 23.5 -64t64.5 -22q42 0 63.5 28.5t21.5 78.5q0 49 -25 75.5t-69 26.5q-71 0 -109 -53h-113l13 424h444v-146h-305l-5 -169q53 76 153 76q93 0 146 -61t53 -165q0 -120 -70 -189t-197 -69z" />
    <glyph glyph-name="six.oldtab" 
d="M315 -12q-139 0 -208.5 84t-69.5 235v74q0 162 78.5 253t210.5 91q108 0 169.5 -51.5t67.5 -156.5h-166q-11 67 -72 67q-108 0 -109 -212q53 83 151 83q92 0 149 -55t57 -163q0 -113 -69.5 -181t-188.5 -68zM314 128q40 0 66.5 28.5t26.5 73.5q0 47 -26 75t-67 28
t-68.5 -27t-27.5 -72q0 -48 27 -77t69 -29z" />
    <glyph glyph-name="seven.oldtab" 
d="M104 -92l211 554h-277v157h528v-22l-258 -689h-204z" />
    <glyph glyph-name="eight.oldtab" 
d="M300 -12q-124 0 -196.5 55.5t-72.5 157.5q0 61 33 106t92 68q-98 43 -98 149q0 94 70 147.5t174 53.5q106 0 174 -53t68 -147q0 -105 -97 -149q59 -22 90.5 -65.5t31.5 -104.5q0 -102 -72.5 -160t-196.5 -58zM301 127q41 0 66.5 25t25.5 67t-25 67t-66 25t-67 -24.5
t-26 -67.5q0 -42 25.5 -67t66.5 -25zM303 429q34 0 56.5 22.5t22.5 59.5q0 36 -23 58.5t-57 22.5q-33 0 -56 -22.5t-23 -58.5q0 -37 23 -59.5t57 -22.5z" />
    <glyph glyph-name="nine.oldtab" 
d="M282 -106q-114 0 -178 54.5t-70 160.5h164q10 -73 84 -73q55 0 78 48t25 156q-47 -76 -148 -76q-92 0 -151 55t-59 162q0 113 71 181.5t190 68.5q138 0 206.5 -83.5t68.5 -234.5v-76q0 -165 -72.5 -254t-208.5 -89zM289 288q41 0 68 27t27 72q0 48 -27 77t-68 29
q-40 0 -66.5 -28.5t-26.5 -73.5q0 -47 26 -75t67 -28z" />
    <glyph glyph-name="zero.num" horiz-adv-x="422" 
d="M211 433q55 0 55 91v8q0 47 -13.5 68t-42.5 21q-28 0 -40.5 -21t-12.5 -69v-7q0 -47 12.5 -69t41.5 -22zM208 332q-89 0 -137 50t-48 141v8q0 89 52.5 139t135.5 50t135.5 -47.5t52.5 -138.5v-7q0 -91 -51 -143t-140 -52z" />
    <glyph glyph-name="one.num" horiz-adv-x="286" 
d="M102 339v248l-82 -46v107l102 67h114v-376h-134z" />
    <glyph glyph-name="two.num" horiz-adv-x="353" 
d="M5 339v17l128 133q36 37 52 59t16 43q0 32 -31 32q-34 0 -40 -52h-120q2 72 46 110.5t120 38.5t115.5 -33t39.5 -87q0 -62 -77 -132l-35 -34h113v-95h-327z" />
    <glyph glyph-name="three.num" horiz-adv-x="374" 
d="M186 332q-161 0 -168 134h116q5 -42 45 -42q39 0 39 34t-45 34h-30v74h30q45 0 45 34q0 29 -34 29q-36 0 -42 -38h-116q5 59 45.5 94t115.5 35q74 0 115 -27.5t41 -76.5q0 -62 -68 -81q34 -5 55 -27t21 -55q0 -56 -42.5 -88.5t-122.5 -32.5z" />
    <glyph glyph-name="four.num" horiz-adv-x="394" 
d="M199 339v70h-187v49l156 257h159v-219h48v-87h-48v-70h-128zM126 496h77v132z" />
    <glyph glyph-name="five.num" horiz-adv-x="367" 
d="M179 332q-79 0 -118.5 34.5t-41.5 91.5h120q5 -29 38 -29q35 0 35 41q0 40 -38 40q-30 0 -41 -24h-102l11 229h281v-93h-190l-3 -80q32 48 98 48q54 0 85.5 -30.5t31.5 -87.5q0 -65 -43.5 -102.5t-122.5 -37.5z" />
    <glyph glyph-name="six.num" horiz-adv-x="391" 
d="M205 332q-93 0 -137.5 50t-44.5 138v11q0 87 51.5 138t133.5 51q144 0 155 -118h-121q-4 25 -32 25q-51 0 -54 -86q27 41 88 41q56 0 91.5 -28.5t35.5 -86.5q0 -61 -44.5 -98t-121.5 -37zM203 420q19 0 30 12.5t11 32.5q0 19 -11.5 31t-29.5 12t-29 -12.5t-11 -30.5
q0 -20 10.5 -32.5t29.5 -12.5z" />
    <glyph glyph-name="seven.num" horiz-adv-x="343" 
d="M65 339l102 272h-148v104h314v-13l-136 -363h-132z" />
    <glyph glyph-name="eight.num" horiz-adv-x="380" 
d="M190 332q-83 0 -127 29t-44 84q0 69 69 91q-53 22 -53 76q0 51 44.5 79.5t111.5 28.5q70 0 113 -28t43 -79q0 -54 -53 -76q67 -21 67 -88q0 -55 -44.5 -86t-126.5 -31zM191 421q18 0 29.5 10.5t11.5 27.5t-11.5 28t-29.5 11t-30 -10.5t-12 -28.5t12 -28t30 -10zM191 566
q16 0 26.5 9.5t10.5 25.5q0 15 -10.5 24.5t-26.5 9.5q-15 0 -26 -9.5t-11 -24.5t11 -25t26 -10z" />
    <glyph glyph-name="nine.num" horiz-adv-x="391" 
d="M186 332q-72 0 -113.5 31t-46.5 88h122q5 -25 35 -25q51 0 53 84q-29 -39 -83 -39q-60 0 -96 28t-36 88q0 61 44.5 97.5t120.5 36.5q91 0 137 -51t46 -137v-10q0 -91 -47 -141t-136 -50zM186 545q19 0 30 12t11 30q0 21 -11 33.5t-30 12.5q-18 0 -29 -12.5t-11 -32.5
q0 -19 11 -31t29 -12z" />
    <glyph glyph-name="zero.den" horiz-adv-x="422" 
d="M211 94q55 0 55 91v7q0 48 -13.5 69t-42.5 21q-28 0 -40.5 -21t-12.5 -69v-8q0 -47 12.5 -68.5t41.5 -21.5zM208 -7q-89 0 -137 50t-48 141v8q0 89 52.5 139t135.5 50t135.5 -47.5t52.5 -139.5v-7q0 -91 -51 -142.5t-140 -51.5z" />
    <glyph glyph-name="one.den" horiz-adv-x="287" 
d="M102 0v248l-82 -46v107l102 67h114v-376h-134z" />
    <glyph glyph-name="two.den" horiz-adv-x="354" 
d="M5 0v17l128 133q68 68 68 101t-31 33q-34 0 -40 -53h-120q2 73 46 111.5t120 38.5t115.5 -33.5t39.5 -86.5q0 -36 -19.5 -66.5t-57.5 -66.5l-35 -33h113v-95h-327z" />
    <glyph glyph-name="three.den" horiz-adv-x="374" 
d="M186 -7q-161 0 -168 133h116q5 -41 45 -41q39 0 39 34q0 33 -45 33h-30v74h30q45 0 45 34q0 30 -34 30q-36 0 -42 -38h-116q5 58 46 93.5t115 35.5t115 -28t41 -77q0 -63 -68 -80q34 -5 55 -27t21 -55q0 -56 -42.5 -88.5t-122.5 -32.5z" />
    <glyph glyph-name="four.den" horiz-adv-x="395" 
d="M199 0v70h-187v49l156 257h159v-219h48v-87h-48v-70h-128zM126 157h77v131z" />
    <glyph glyph-name="five.den" horiz-adv-x="367" 
d="M179 -7q-79 0 -118.5 34.5t-41.5 91.5h120q5 -30 38 -30q16 0 25.5 11.5t9.5 30.5q0 39 -38 39q-30 0 -41 -23h-102l11 229h281v-93h-190l-3 -80q31 47 98 47q54 0 85.5 -30.5t31.5 -86.5q0 -65 -43.5 -102.5t-122.5 -37.5z" />
    <glyph glyph-name="six.den" horiz-adv-x="392" 
d="M205 -7q-93 0 -137.5 50t-44.5 138v11q0 87 51.5 138t133.5 51q144 0 155 -118h-121q-4 25 -32 25q-51 0 -54 -86q27 41 88 41q56 0 91.5 -28.5t35.5 -87.5q0 -61 -44.5 -97.5t-121.5 -36.5zM203 81q19 0 30 12t11 32q0 19 -11.5 31t-29.5 12t-29 -12t-11 -31
q0 -20 10.5 -32t29.5 -12z" />
    <glyph glyph-name="seven.den" horiz-adv-x="344" 
d="M65 0l102 272h-148v104h314v-14l-136 -362h-132z" />
    <glyph glyph-name="eight.den" horiz-adv-x="381" 
d="M190 -7q-83 0 -127 28.5t-44 83.5q0 69 69 91q-53 23 -53 77q0 50 44.5 79t111.5 29q70 0 113 -28t43 -80q0 -54 -53 -76q67 -20 67 -88q0 -55 -44.5 -85.5t-126.5 -30.5zM191 81q17 0 29 11t12 28t-11.5 28t-29.5 11t-30 -10.5t-12 -28.5t12 -28.5t30 -10.5zM191 227
q16 0 26.5 9.5t10.5 25.5q0 15 -10.5 24.5t-26.5 9.5q-15 0 -26 -10t-11 -25t11 -24.5t26 -9.5z" />
    <glyph glyph-name="nine.den" horiz-adv-x="392" 
d="M186 -7q-72 0 -113.5 31t-46.5 88h122q5 -25 35 -25q51 0 53 83q-30 -39 -83 -39q-59 0 -95.5 28.5t-36.5 87.5q0 61 44.5 97.5t120.5 36.5q91 0 137 -50.5t46 -136.5v-10q0 -91 -47 -141t-136 -50zM186 206q19 0 30 12t11 30q0 20 -11 32.5t-30 12.5q-18 0 -29 -12
t-11 -32q0 -19 11 -31t29 -12z" />
    <glyph glyph-name="zero.sub" horiz-adv-x="422" 
d="M211 -26q55 0 55 91v8q0 47 -13.5 68t-42.5 21q-28 0 -40.5 -21t-12.5 -69v-7q0 -47 12.5 -69t41.5 -22zM208 -127q-89 0 -137 50t-48 141v8q0 89 52.5 139t135.5 50t135.5 -47.5t52.5 -138.5v-7q0 -91 -51 -143t-140 -52z" />
    <glyph glyph-name="one.sub" horiz-adv-x="287" 
d="M102 -120v248l-82 -46v107l102 67h114v-376h-134z" />
    <glyph glyph-name="two.sub" horiz-adv-x="354" 
d="M5 -120v17l128 133q36 37 52 59t16 43q0 32 -31 32q-34 0 -40 -52h-120q2 72 46 110.5t120 38.5t115.5 -33t39.5 -87q0 -62 -77 -132l-35 -34h113v-95h-327z" />
    <glyph glyph-name="three.sub" horiz-adv-x="374" 
d="M186 -127q-161 0 -168 134h116q5 -42 45 -42q39 0 39 34t-45 34h-30v74h30q45 0 45 34q0 29 -34 29q-36 0 -42 -38h-116q5 59 45.5 94t115.5 35q74 0 115 -27.5t41 -76.5q0 -62 -68 -81q34 -5 55 -27t21 -55q0 -56 -42.5 -88.5t-122.5 -32.5z" />
    <glyph glyph-name="four.sub" horiz-adv-x="395" 
d="M199 -120v70h-187v49l156 257h159v-219h48v-87h-48v-70h-128zM126 37h77v132z" />
    <glyph glyph-name="five.sub" horiz-adv-x="367" 
d="M179 -127q-79 0 -118.5 34.5t-41.5 91.5h120q5 -29 38 -29q35 0 35 41q0 40 -38 40q-30 0 -41 -24h-102l11 229h281v-93h-190l-3 -80q32 48 98 48q54 0 85.5 -30.5t31.5 -87.5q0 -65 -43.5 -102.5t-122.5 -37.5z" />
    <glyph glyph-name="six.sub" horiz-adv-x="392" 
d="M205 -127q-93 0 -137.5 50t-44.5 138v11q0 87 51.5 138t133.5 51q144 0 155 -118h-121q-4 25 -32 25q-51 0 -54 -86q27 41 88 41q56 0 91.5 -28.5t35.5 -86.5q0 -61 -44.5 -98t-121.5 -37zM203 -39q19 0 30 12.5t11 32.5q0 19 -11.5 31t-29.5 12t-29 -12.5t-11 -30.5
q0 -20 10.5 -32.5t29.5 -12.5z" />
    <glyph glyph-name="seven.sub" horiz-adv-x="344" 
d="M65 -120l102 272h-148v104h314v-13l-136 -363h-132z" />
    <glyph glyph-name="eight.sub" horiz-adv-x="381" 
d="M190 -127q-83 0 -127 29t-44 84q0 69 69 91q-53 22 -53 76q0 51 44.5 79.5t111.5 28.5q70 0 113 -28t43 -79q0 -54 -53 -76q67 -21 67 -88q0 -55 -44.5 -86t-126.5 -31zM191 -38q18 0 29.5 10.5t11.5 27.5t-11.5 28t-29.5 11t-30 -10.5t-12 -28.5t12 -28t30 -10zM191 107
q16 0 26.5 9.5t10.5 25.5q0 15 -10.5 24.5t-26.5 9.5q-15 0 -26 -9.5t-11 -24.5t11 -25t26 -10z" />
    <glyph glyph-name="nine.sub" horiz-adv-x="392" 
d="M186 -127q-72 0 -113.5 31t-46.5 88h122q5 -25 35 -25q51 0 53 84q-29 -39 -83 -39q-60 0 -96 28t-36 88q0 61 44.5 97.5t120.5 36.5q91 0 137 -51t46 -137v-10q0 -91 -47 -141t-136 -50zM186 86q19 0 30 12t11 30q0 21 -11 33.5t-30 12.5q-18 0 -29 -12.5t-11 -32.5
q0 -19 11 -31t29 -12z" />
    <glyph glyph-name="plus.sub" horiz-adv-x="357" 
d="M131 -71v98h-96v93h96v99h95v-99h96v-93h-96v-98h-95z" />
    <glyph glyph-name="minus.sub" horiz-adv-x="357" 
d="M35 27v93h287v-93h-287z" />
    <glyph glyph-name="zero.sup" horiz-adv-x="422" 
d="M211 491q55 0 55 91v8q0 47 -13.5 68t-42.5 21q-28 0 -40.5 -21t-12.5 -69v-7q0 -47 12.5 -69t41.5 -22zM208 390q-89 0 -137 50t-48 141v8q0 89 52.5 139t135.5 50t135.5 -47.5t52.5 -138.5v-7q0 -91 -51 -143t-140 -52z" />
    <glyph glyph-name="one.sup" horiz-adv-x="287" 
d="M102 397v248l-82 -46v107l102 67h114v-376h-134z" />
    <glyph glyph-name="two.sup" horiz-adv-x="354" 
d="M5 397v17l128 133q36 37 52 59t16 43q0 32 -31 32q-34 0 -40 -52h-120q2 72 46 110.5t120 38.5t115.5 -33t39.5 -87q0 -62 -77 -132l-35 -34h113v-95h-327z" />
    <glyph glyph-name="three.sup" horiz-adv-x="374" 
d="M186 390q-161 0 -168 134h116q5 -42 45 -42q39 0 39 34t-45 34h-30v74h30q45 0 45 34q0 29 -34 29q-36 0 -42 -38h-116q5 59 45.5 94t115.5 35q74 0 115 -27.5t41 -76.5q0 -62 -68 -81q34 -5 55 -27t21 -55q0 -56 -42.5 -88.5t-122.5 -32.5z" />
    <glyph glyph-name="four.sup" horiz-adv-x="395" 
d="M199 397v70h-187v49l156 257h159v-219h48v-87h-48v-70h-128zM126 554h77v132z" />
    <glyph glyph-name="five.sup" horiz-adv-x="367" 
d="M179 390q-79 0 -118.5 34.5t-41.5 91.5h120q5 -29 38 -29q35 0 35 41q0 40 -38 40q-30 0 -41 -24h-102l11 229h281v-93h-190l-3 -80q32 48 98 48q54 0 85.5 -30.5t31.5 -87.5q0 -65 -43.5 -102.5t-122.5 -37.5z" />
    <glyph glyph-name="six.sup" horiz-adv-x="392" 
d="M205 390q-93 0 -137.5 50t-44.5 138v11q0 87 51.5 138t133.5 51q144 0 155 -118h-121q-4 25 -32 25q-51 0 -54 -86q27 41 88 41q56 0 91.5 -28.5t35.5 -86.5q0 -61 -44.5 -98t-121.5 -37zM203 478q19 0 30 12.5t11 32.5q0 19 -11.5 31t-29.5 12t-29 -12.5t-11 -30.5
q0 -20 10.5 -32.5t29.5 -12.5z" />
    <glyph glyph-name="seven.sup" horiz-adv-x="344" 
d="M65 397l102 272h-148v104h314v-13l-136 -363h-132z" />
    <glyph glyph-name="eight.sup" horiz-adv-x="381" 
d="M190 390q-83 0 -127 29t-44 84q0 69 69 91q-53 22 -53 76q0 51 44.5 79.5t111.5 28.5q70 0 113 -28t43 -79q0 -54 -53 -76q67 -21 67 -88q0 -55 -44.5 -86t-126.5 -31zM191 479q18 0 29.5 10.5t11.5 27.5t-11.5 28t-29.5 11t-30 -10.5t-12 -28.5t12 -28t30 -10zM191 624
q16 0 26.5 9.5t10.5 25.5q0 15 -10.5 24.5t-26.5 9.5q-15 0 -26 -9.5t-11 -24.5t11 -25t26 -10z" />
    <glyph glyph-name="nine.sup" horiz-adv-x="392" 
d="M186 390q-72 0 -113.5 31t-46.5 88h122q5 -25 35 -25q51 0 53 84q-29 -39 -83 -39q-60 0 -96 28t-36 88q0 61 44.5 97.5t120.5 36.5q91 0 137 -51t46 -137v-10q0 -91 -47 -141t-136 -50zM186 603q19 0 30 12t11 30q0 21 -11 33.5t-30 12.5q-18 0 -29 -12.5t-11 -32.5
q0 -19 11 -31t29 -12z" />
    <glyph glyph-name="plus.sup" horiz-adv-x="357" 
d="M131 446v98h-96v93h96v99h95v-99h96v-93h-96v-98h-95z" />
    <glyph glyph-name="minus.sup" horiz-adv-x="357" 
d="M35 544v93h287v-93h-287z" />
    <glyph glyph-name="a.alt" horiz-adv-x="634" 
d="M245 -12q-93 0 -155.5 69.5t-62.5 198.5v8q0 128 63 200.5t156 72.5q107 0 156 -87v73h179v-523h-179v84q-22 -42 -62.5 -69t-94.5 -27zM306 125q46 0 73.5 34.5t27.5 99.5v8q0 67 -26 101t-72 34q-48 0 -74 -34.5t-26 -101.5v-8q0 -65 26 -99t71 -34z" />
    <glyph glyph-name="t.alt" horiz-adv-x="379" 
d="M86 0v401h-72v122h72v109h179v-109h96v-122h-96v-401h-179z" />
    <glyph glyph-name="germandbls.alt" horiz-adv-x="692" 
d="M468 -9q-100 0 -154 44.5t-56 124.5h155q3 -53 45 -53q41 0 41 43q0 6 -1 11t-4 10t-5.5 8.5t-8.5 7.5t-9.5 6.5t-12 7t-13 6.5t-15.5 7t-17 8q-26 12 -44 23t-38.5 28t-31 40t-10.5 50q0 32 17.5 63.5t38 52t38 45t17.5 44.5q0 62 -72 62q-45 0 -70.5 -24.5t-25.5 -72.5
v-533h-179v530q0 110 76.5 172t201.5 62q111 0 178 -44.5t67 -125.5q0 -40 -18.5 -74t-40.5 -52t-40.5 -37t-18.5 -33q0 -4 1.5 -7.5t5.5 -7.5t8.5 -7t13.5 -8t17 -9l23 -11.5t27 -14.5q115 -61 115 -164q0 -86 -55 -132t-146 -46z" />
    <glyph glyph-name="aacute.alt" horiz-adv-x="634" 
d="M252 583l53 166h180l-105 -166h-128zM245 -12q-93 0 -155.5 69.5t-62.5 198.5v8q0 128 63 200.5t156 72.5q107 0 156 -87v73h179v-523h-179v84q-22 -42 -62.5 -69t-94.5 -27zM306 125q46 0 73.5 34.5t27.5 99.5v8q0 67 -26 101t-72 34q-48 0 -74 -34.5t-26 -101.5v-8
q0 -65 26 -99t71 -34z" />
    <glyph glyph-name="abreve.alt" horiz-adv-x="634" 
d="M245 -12q-93 0 -155.5 69.5t-62.5 198.5v8q0 128 63 200.5t156 72.5q107 0 156 -87v73h179v-523h-179v84q-22 -42 -62.5 -69t-94.5 -27zM306 125q46 0 73.5 34.5t27.5 99.5v8q0 67 -26 101t-72 34q-48 0 -74 -34.5t-26 -101.5v-8q0 -65 26 -99t71 -34zM321 587
q-72 0 -115.5 41.5t-47.5 116.5h111q5 -48 52 -48q49 0 54 48h111q-4 -75 -49 -116.5t-116 -41.5z" />
    <glyph glyph-name="acircumflex.alt" horiz-adv-x="634" 
d="M137 585l123 163h128l118 -163h-125l-61 56l-60 -56h-123zM245 -12q-93 0 -155.5 69.5t-62.5 198.5v8q0 128 63 200.5t156 72.5q107 0 156 -87v73h179v-523h-179v84q-22 -42 -62.5 -69t-94.5 -27zM306 125q46 0 73.5 34.5t27.5 99.5v8q0 67 -26 101t-72 34
q-48 0 -74 -34.5t-26 -101.5v-8q0 -65 26 -99t71 -34z" />
    <glyph glyph-name="adieresis.alt" horiz-adv-x="634" 
d="M216 580q-35 0 -60 24.5t-25 58.5q0 35 25 59.5t60 24.5q36 0 61 -24.5t25 -59.5t-25 -59t-61 -24zM429 580q-36 0 -60.5 24t-24.5 59t24.5 59.5t60.5 24.5t61 -24.5t25 -59.5t-25 -59t-61 -24zM245 -12q-93 0 -155.5 69.5t-62.5 198.5v8q0 128 63 200.5t156 72.5
q107 0 156 -87v73h179v-523h-179v84q-22 -42 -62.5 -69t-94.5 -27zM306 125q46 0 73.5 34.5t27.5 99.5v8q0 67 -26 101t-72 34q-48 0 -74 -34.5t-26 -101.5v-8q0 -65 26 -99t71 -34z" />
    <glyph glyph-name="agrave.alt" horiz-adv-x="634" 
d="M245 -12q-93 0 -155.5 69.5t-62.5 198.5v8q0 128 63 200.5t156 72.5q107 0 156 -87v73h179v-523h-179v84q-22 -42 -62.5 -69t-94.5 -27zM306 125q46 0 73.5 34.5t27.5 99.5v8q0 67 -26 101t-72 34q-48 0 -74 -34.5t-26 -101.5v-8q0 -65 26 -99t71 -34zM263 583l-105 166
h180l53 -166h-128z" />
    <glyph glyph-name="amacron.alt" horiz-adv-x="634" 
d="M245 -12q-93 0 -155.5 69.5t-62.5 198.5v8q0 128 63 200.5t156 72.5q107 0 156 -87v73h179v-523h-179v84q-22 -42 -62.5 -69t-94.5 -27zM306 125q46 0 73.5 34.5t27.5 99.5v8q0 67 -26 101t-72 34q-48 0 -74 -34.5t-26 -101.5v-8q0 -65 26 -99t71 -34zM168 612v100h307
v-100h-307z" />
    <glyph glyph-name="aogonek.alt" horiz-adv-x="634" 
d="M496 -182q-54 0 -85.5 22t-31.5 59q0 61 86 101h-63v84q-22 -42 -62.5 -69t-94.5 -27q-93 0 -155.5 69.5t-62.5 198.5v8q0 128 63 200.5t156 72.5q107 0 156 -87v73h179v-511q-56 -42 -56 -75q0 -28 30 -28q17 0 30 5v-80q-36 -16 -89 -16zM306 125q46 0 73.5 34.5
t27.5 99.5v8q0 67 -26 101t-72 34q-48 0 -74 -34.5t-26 -101.5v-8q0 -65 26 -99t71 -34z" />
    <glyph glyph-name="aring.alt" horiz-adv-x="634" 
d="M320 642q20 0 33 14t13 36t-13 36t-33 14t-33 -14t-13 -36t13 -36t33 -14zM320 578q-49 0 -83.5 33.5t-34.5 80.5t34.5 81t83.5 34t83.5 -34t34.5 -81t-34.5 -80.5t-83.5 -33.5zM245 -12q-93 0 -155.5 69.5t-62.5 198.5v8q0 128 63 200.5t156 72.5q107 0 156 -87v73h179
v-523h-179v84q-22 -42 -62.5 -69t-94.5 -27zM306 125q46 0 73.5 34.5t27.5 99.5v8q0 67 -26 101t-72 34q-48 0 -74 -34.5t-26 -101.5v-8q0 -65 26 -99t71 -34z" />
    <glyph glyph-name="aringacute.alt" horiz-adv-x="634" 
d="M320 636q20 0 33 14t13 36t-13 36t-33 14t-33 -14t-13 -36t13 -36t33 -14zM320 572q-49 0 -83.5 33.5t-34.5 80.5t34.5 81t83.5 34t83.5 -34t34.5 -81t-34.5 -80.5t-83.5 -33.5zM245 -12q-93 0 -155.5 69.5t-62.5 198.5v8q0 128 63 200.5t156 72.5q107 0 156 -87v73h179
v-523h-179v84q-22 -42 -62.5 -69t-94.5 -27zM306 125q46 0 73.5 34.5t27.5 99.5v8q0 67 -26 101t-72 34q-48 0 -74 -34.5t-26 -101.5v-8q0 -65 26 -99t71 -34zM257 829l51 146h187l-103 -146h-135z" />
    <glyph glyph-name="atilde.alt" horiz-adv-x="634" 
d="M245 -12q-93 0 -155.5 69.5t-62.5 198.5v8q0 128 63 200.5t156 72.5q107 0 156 -87v73h179v-523h-179v84q-22 -42 -62.5 -69t-94.5 -27zM306 125q46 0 73.5 34.5t27.5 99.5v8q0 67 -26 101t-72 34q-48 0 -74 -34.5t-26 -101.5v-8q0 -65 26 -99t71 -34zM385 587
q-31 0 -68 16.5t-49 16.5q-26 0 -31 -32h-97q5 77 36 116.5t79 39.5q30 0 67.5 -17t51.5 -17q25 0 32 32h97q-6 -75 -38.5 -115t-79.5 -40z" />
    <glyph glyph-name="tbar.alt" horiz-adv-x="379" 
d="M14 233v99h72v69h-72v122h72v109h179v-109h96v-122h-96v-69h96v-99h-96v-233h-179v233h-72z" />
    <glyph glyph-name="tcaron.alt" horiz-adv-x="379" 
d="M86 0v401h-72v122h72v109h179v-109h96v-122h-96v-401h-179zM306 579l9 174h133l-49 -174h-93z" />
    <glyph glyph-name="tcommaaccent.alt" horiz-adv-x="379" 
d="M162 -232l-101 27l42 177l158 -19zM86 0v401h-72v122h72v109h179v-109h96v-122h-96v-401h-179z" />
    <glyph glyph-name="f.short" horiz-adv-x="376" 
d="M80 0v401h-66v122h66v46q0 95 54.5 143.5t149.5 48.5q42 0 80 -10v-131q-20 6 -47 6q-59 0 -59 -57v-46h106v-122h-106v-401h-178z" />
    <glyph glyph-name="f_f.short" horiz-adv-x="706" 
d="M80 0v401h-66v122h66v40q0 95 54 143t150 48q42 0 80 -10v-131q-23 7 -48 7q-29 0 -43.5 -15.5t-14.5 -41.5v-40h152v46q0 95 54.5 143.5t150.5 48.5q41 0 79 -10v-131q-20 6 -47 6q-58 0 -58 -57v-46h105v-122h-105v-401h-179v401h-152v-401h-178z" />
    <glyph glyph-name="questiondown.uc" horiz-adv-x="556" 
d="M387 480v-19q0 -35 -17 -69t-32.5 -51.5t-47.5 -47.5q-22 -21 -33.5 -33t-22 -30.5t-10.5 -34.5q0 -60 61 -60q33 0 53.5 23t25.5 65h174q-4 -111 -76.5 -172t-189.5 -61q-116 0 -179 49t-63 139q0 79 73 150q11 11 36.5 34t37.5 35.5t25 31.5t16 36v15h169zM303 726
q45 0 76 -29t31 -70t-31 -70.5t-76 -29.5q-44 0 -75.5 29.5t-31.5 70.5t31.5 70t75.5 29z" />
    <glyph glyph-name="exclamdown.uc" horiz-adv-x="334" 
d="M66 0l27 480h148l27 -480h-202zM167 527q-44 0 -75.5 29.5t-31.5 70.5t31.5 70t75.5 29t75 -29t31 -70t-31 -70.5t-75 -29.5z" />
    <glyph glyph-name="hyphen.uc" horiz-adv-x="405" 
d="M51 255v142h303v-142h-303z" />
    <glyph glyph-name="endash.uc" horiz-adv-x="541" 
d="M46 276v105h449v-105h-449z" />
    <glyph glyph-name="emdash.uc" horiz-adv-x="946" 
d="M46 276v105h855v-105h-855z" />
    <glyph glyph-name="guilsinglleft.uc" horiz-adv-x="307" 
d="M155 106l-124 195l124 195h122l-120 -195l120 -195h-122z" />
    <glyph glyph-name="guilsinglright.uc" horiz-adv-x="307" 
d="M30 106l120 195l-120 195h121l125 -195l-125 -195h-121z" />
    <glyph glyph-name="guillemotleft.uc" horiz-adv-x="480" 
d="M155 106l-124 195l124 195h115l-119 -195l119 -195h-115zM335 106l-124 195l124 195h115l-119 -195l119 -195h-115z" />
    <glyph glyph-name="guillemotright.uc" horiz-adv-x="480" 
d="M30 106l120 195l-120 195h115l125 -195l-125 -195h-115zM210 106l120 195l-120 195h115l125 -195l-125 -195h-115z" />
    <glyph glyph-name="parenleft.uc" horiz-adv-x="356" 
d="M205 -98q-166 197 -166 441q0 245 166 442h139q-133 -208 -133 -442q0 -233 133 -441h-139z" />
    <glyph glyph-name="parenright.uc" horiz-adv-x="356" 
d="M11 -98q134 206 134 442q0 235 -134 441h140q165 -198 165 -441q0 -244 -165 -442h-140z" />
    <glyph glyph-name="bracketleft.uc" horiz-adv-x="409" 
d="M66 -93v876h305v-130h-125v-616h125v-130h-305z" />
    <glyph glyph-name="bracketright.uc" horiz-adv-x="409" 
d="M39 -93v130h124v616h-124v130h304v-876h-304z" />
    <glyph glyph-name="braceleft.uc" horiz-adv-x="418" 
d="M380 -94q-153 0 -218.5 54t-46.5 171l11 69q6 37 -17 60t-78 23v125q55 0 78 22.5t17 59.5l-11 68q-19 121 46 173.5t219 52.5v-131q-57 -2 -75.5 -20.5t-12.5 -68.5l9 -85q6 -51 -21 -85t-82 -47q55 -13 82 -47.5t21 -84.5l-9 -85q-6 -52 12.5 -71.5t75.5 -22.5v-130z
" />
    <glyph glyph-name="braceright.uc" horiz-adv-x="418" 
d="M38 -94v130q57 3 75.5 22.5t12.5 71.5l-9 85q-6 50 21 84.5t82 47.5q-55 13 -82 47t-21 85l9 85q6 50 -12.5 68.5t-75.5 20.5v131q154 0 219 -52.5t46 -173.5l-11 -68q-6 -37 17 -59.5t78 -22.5v-125q-55 0 -78 -23t-17 -60l11 -69q19 -117 -46.5 -171t-218.5 -54z" />
    <glyph glyph-name="slash.uc" horiz-adv-x="434" 
d="M-4 -84l297 861h143l-297 -861h-143z" />
    <glyph glyph-name="backslash.uc" horiz-adv-x="434" 
d="M295 -84l-297 861h143l296 -861h-142z" />
    <glyph glyph-name="bar.uc" horiz-adv-x="268" 
d="M71 -84v861h125v-861h-125z" />
    <glyph glyph-name="at.uc" horiz-adv-x="921" 
d="M460 -80q-195 0 -311 115.5t-116 289.5q0 127 63 228t164 154t218 53q178 0 294 -100t116 -261q0 -137 -62.5 -204t-151.5 -67q-125 0 -146 81q-41 -84 -133 -84q-73 0 -117 50t-44 135q0 103 56.5 167.5t139.5 64.5q82 0 107 -59l7 51h147l-33 -270q-8 -66 42 -66
q45 0 76 50.5t31 152.5q0 130 -89 209.5t-238 79.5q-156 0 -259 -101t-103 -266q0 -147 90 -240.5t256 -93.5q82 0 148 24t106 63h91q-50 -71 -143 -113.5t-206 -42.5zM443 242q33 0 56 32.5t23 83.5q0 32 -16 50.5t-47 18.5q-33 0 -54 -31t-21 -80q0 -33 15.5 -53.5
t43.5 -20.5z" />
    </font>
</defs>
</svg>
