<?xml version="1.0" standalone="no"?>
<!DOCTYPE svg PUBLIC "-//W3C//DTD SVG 1.1//EN" "http://www.w3.org/Graphics/SVG/1.1/DTD/svg11.dtd" >
<svg>
<metadata>
Created by FontForge 20120731 at Sun Aug 28 06:44:53 2016
 By ,,,
(c)2009 Commercial Type.
</metadata>
<defs>
<font id="Graphik-LightItalic" horiz-adv-x="600" >
  <font-face 
    font-family="Graphik Light"
    font-weight="300"
    font-style="italic"
    font-stretch="normal"
    units-per-em="1000"
    panose-1="2 11 4 3 3 2 2 13 2 3"
    ascent="818"
    descent="-182"
    x-height="523"
    cap-height="715"
    bbox="-250 -212 1048 1091"
    underline-thickness="50"
    underline-position="-50"
    slope="-8"
    unicode-range="U+0020-FB02"
  />
<missing-glyph horiz-adv-x="500" 
 />
    <glyph glyph-name="f_f" unicode="ff" horiz-adv-x="604" 
d="M336 0l76 478h-224l-75 -478h-53l75 478h-79l7 45h79l15 93q12 78 56 114t108 36q35 0 62 -10l-6 -43q-24 9 -54 9q-96 0 -113 -107l-15 -92h224l16 100q25 153 164 153q37 0 64 -11l-7 -43q-24 9 -55 9q-96 0 -113 -109l-16 -99h145l-7 -45h-145l-76 -478h-53z" />
    <glyph glyph-name=".notdef" horiz-adv-x="500" 
 />
    <glyph glyph-name=".null" horiz-adv-x="0" 
 />
    <glyph glyph-name="nonmarkingreturn" horiz-adv-x="333" 
 />
    <glyph glyph-name="space" unicode=" " horiz-adv-x="247" 
 />
    <glyph glyph-name="exclam" unicode="!" horiz-adv-x="271" 
d="M101 179l77 536h59l-94 -536h-42zM101 -5q-18 0 -30.5 12.5t-12.5 29.5q0 18 12.5 30.5t29.5 12.5q18 0 30.5 -12.5t12.5 -30.5q0 -17 -12.5 -29.5t-29.5 -12.5z" />
    <glyph glyph-name="quotedbl" unicode="&#x22;" horiz-adv-x="305" 
d="M105 506l24 209h58l-42 -209h-40zM236 506l24 209h57l-41 -209h-40z" />
    <glyph glyph-name="numbersign" unicode="#" horiz-adv-x="492" 
d="M251 99l46 196h-120l-46 -196h-45l46 196h-92l7 45h95l37 157h-93l7 45h97l41 173h45l-41 -173h120l41 173h45l-41 -173h93l-6 -45h-98l-37 -157h95l-6 -45h-99l-46 -196h-45zM224 497l-37 -157h120l37 157h-120z" />
    <glyph glyph-name="dollar" unicode="$" horiz-adv-x="601" 
d="M289 -8h-13l-20 -127h-40l20 131q-95 12 -149 68t-56 141h53q5 -68 45 -111.5t114 -53.5l50 311q-96 29 -140 69.5t-44 109.5q0 86 66 139.5t168 53.5h8l15 90h40l-15 -93q79 -11 126.5 -56t51.5 -121h-51q-13 113 -134 131l-45 -284q105 -31 150.5 -70.5t45.5 -113.5
q0 -97 -67.5 -155.5t-178.5 -58.5zM481 201q0 55 -33 85t-117 55l-48 -304h7q88 0 139.5 43.5t51.5 120.5zM162 532q0 -47 30.5 -76.5t108.5 -54.5l43 277h-6q-82 0 -129 -39t-47 -107z" />
    <glyph glyph-name="percent" unicode="%" horiz-adv-x="766" 
d="M132 543q1 -45 26 -74t72 -29q52 0 84.5 37t31.5 95q0 44 -25.5 75t-72.5 31q-53 0 -84.5 -39t-31.5 -96zM229 398q-63 0 -104.5 42t-41.5 105q0 71 48.5 123t118.5 52q64 0 104.5 -43t40.5 -107q0 -73 -48 -122.5t-118 -49.5zM89 0l566 715h53l-567 -715h-52zM449 138
q1 -44 26.5 -73.5t71.5 -29.5q52 0 84 37t32 96q-1 45 -26 75.5t-72 30.5q-53 0 -84.5 -39t-31.5 -97zM546 -7q-64 0 -105 42t-41 106q0 71 48 123t119 52q64 0 104.5 -43t40.5 -107q0 -73 -48 -123t-118 -50z" />
    <glyph glyph-name="ampersand" unicode="&#x26;" horiz-adv-x="658" 
d="M583 0h-63l-69 102q-96 -108 -213 -108q-85 0 -143.5 45.5t-58.5 135.5q0 86 55 139t153 92q-53 83 -53 145q0 74 47.5 121t120.5 47q63 0 102.5 -38t39.5 -98q0 -38 -15.5 -69t-45.5 -54t-57.5 -38t-66.5 -31l145 -211l120 182h53l-148 -220zM91 176q0 -64 41 -101
t107 -37q103 0 188 100l-162 235q-39 -16 -65.5 -30.5t-53.5 -38t-41 -55.5t-14 -73zM358 677q-50 0 -82 -34t-32 -88q0 -53 51 -130q35 15 55 25t47 29t40 44.5t13 57.5q0 42 -24 68.5t-68 27.5z" />
    <glyph glyph-name="quotesingle" unicode="'" horiz-adv-x="174" 
d="M105 506l24 209h58l-42 -209h-40z" />
    <glyph glyph-name="parenleft" unicode="(" horiz-adv-x="299" 
d="M160 -148q-106 157 -106 355q0 166 65.5 310t180.5 256h58q-249 -252 -249 -566q0 -188 103 -355h-52z" />
    <glyph glyph-name="parenright" unicode=")" horiz-adv-x="299" 
d="M154 775q105 -156 105 -355q0 -166 -65.5 -310t-179.5 -256h-59q250 252 250 566q0 188 -103 355h52z" />
    <glyph glyph-name="asterisk" unicode="*" horiz-adv-x="417" 
d="M150 431l-33 29l109 110l-126 48l21 43l121 -59l18 141h48l-26 -143l135 41l8 -44l-139 -31l72 -121l-41 -25l-66 126z" />
    <glyph glyph-name="plus" unicode="+" horiz-adv-x="510" 
d="M206 110l33 209h-195l8 46h194l34 209h48l-34 -209h195l-7 -46h-195l-33 -209h-48z" />
    <glyph glyph-name="comma" unicode="," horiz-adv-x="229" 
d="M18 -117l-34 19l96 182l48 -24z" />
    <glyph glyph-name="hyphen" unicode="-" horiz-adv-x="334" 
d="M58 252l8 50h209l-7 -50h-210z" />
    <glyph glyph-name="period" unicode="." horiz-adv-x="229" 
d="M78 -5q-18 0 -30.5 12.5t-12.5 29.5q0 18 12.5 30.5t29.5 12.5q18 0 30.5 -12.5t12.5 -30.5q0 -17 -12.5 -29.5t-29.5 -12.5z" />
    <glyph glyph-name="slash" unicode="/" horiz-adv-x="391" 
d="M-52 -148l434 924h52l-435 -924h-51z" />
    <glyph glyph-name="zero" unicode="0" horiz-adv-x="659" 
d="M310 -8q-123 0 -185.5 73.5t-62.5 191.5q0 48 7 89l9 58q24 150 105 234.5t201 84.5q121 0 180.5 -74t60.5 -192q0 -47 -7 -89l-10 -58q-24 -151 -101 -234.5t-197 -83.5zM312 39q196 0 242 277l9 58q6 40 6 83q0 97 -45 158.5t-143 61.5q-97 0 -161.5 -72t-86.5 -205
l-9 -57q-7 -49 -7 -86q1 -98 46.5 -158t148.5 -60z" />
    <glyph glyph-name="one" unicode="1" horiz-adv-x="368" 
d="M149 0l103 655l-181 -114l8 54l191 120h47l-113 -715h-55z" />
    <glyph glyph-name="two" unicode="2" horiz-adv-x="537" 
d="M-32 0l2 13l342 292q69 58 107 114t38 124q0 59 -36.5 96.5t-101.5 37.5q-149 2 -190 -170h-52q19 106 85.5 161t159.5 55q84 0 137.5 -49t53.5 -130q0 -80 -43.5 -141.5t-128.5 -132.5l-266 -224h375l-7 -46h-475z" />
    <glyph glyph-name="three" unicode="3" horiz-adv-x="567" 
d="M256 -8q-104 0 -167 56.5t-64 153.5h53q2 -75 48 -119.5t132 -44.5q85 0 137 45t52 133q0 60 -37.5 97.5t-111.5 37.5h-44l8 47h55q70 0 114 38t44 112q0 59 -37.5 93.5t-101.5 34.5q-70 0 -118.5 -39t-64.5 -110h-50q15 88 81 142t155 54q81 0 136 -45.5t55 -127.5
q0 -67 -37.5 -113.5t-103.5 -63.5q54 -14 84.5 -55.5t30.5 -101.5q0 -104 -70 -164t-178 -60z" />
    <glyph glyph-name="four" unicode="4" horiz-adv-x="595" 
d="M360 0l25 161h-368l4 17l428 537h79l-81 -508h99l-7 -46h-99l-25 -161h-55zM98 207h295l73 463z" />
    <glyph glyph-name="five" unicode="5" horiz-adv-x="561" 
d="M246 -8q-95 0 -155.5 51t-64.5 141h53q5 -68 48.5 -107t119.5 -39q93 0 146.5 60.5t53.5 160.5q0 71 -41.5 115.5t-116.5 44.5q-103 0 -177 -78h-21l60 374h390l-8 -48h-343l-41 -259q61 57 156 57q89 0 144 -56.5t55 -147.5q0 -117 -70.5 -193t-187.5 -76z" />
    <glyph glyph-name="six" unicode="6" 
d="M289 -8q-109 0 -169 61t-59 174q0 39 9 95l8 51q26 166 101.5 258t202.5 92q88 0 138.5 -42t54.5 -121h-52q-13 116 -143 116q-196 0 -246 -298l-6 -34q32 54 85.5 82.5t116.5 28.5q93 0 153.5 -53.5t60.5 -146.5q0 -113 -71 -188t-184 -75zM115 208q0 -76 45.5 -123.5
t128.5 -47.5q90 0 144 61t54 154q0 72 -45 115t-125 43q-85 0 -143.5 -57t-58.5 -145z" />
    <glyph glyph-name="seven" unicode="7" horiz-adv-x="504" 
d="M98 0l375 669h-383l7 46h457l-2 -9l-395 -706h-59z" />
    <glyph glyph-name="eight" unicode="8" horiz-adv-x="583" 
d="M276 -8q-95 0 -163.5 50.5t-68.5 141.5q0 83 51 137t135 70q-47 16 -76.5 54.5t-29.5 90.5q0 83 65 135t156 52q80 0 138.5 -48t58.5 -125q0 -134 -148 -167q59 -19 94.5 -64t35.5 -107q0 -105 -71.5 -162.5t-176.5 -57.5zM100 190q0 -71 51 -111t128 -40q83 0 136 44.5
t53 128.5q0 67 -48 108.5t-123 41.5q-85 0 -141 -44.5t-56 -127.5zM179 537q0 -56 42 -93t110 -37q66 0 111 35.5t45 105.5q0 56 -41 93t-105 37q-67 0 -114 -36.5t-48 -104.5z" />
    <glyph glyph-name="nine" unicode="9" horiz-adv-x="599" 
d="M253 -7q-88 0 -144 43t-64 128h54q17 -125 157 -125q96 0 154.5 69.5t83.5 226.5l6 35q-31 -53 -85 -81.5t-117 -28.5q-91 0 -152 53.5t-61 148.5q0 114 72 187.5t187 73.5q105 0 163.5 -61t58.5 -172q0 -45 -8 -96l-9 -58q-30 -183 -103 -263t-193 -80zM141 464
q0 -73 44.5 -116t118.5 -43q89 0 149 55t60 147q0 77 -44 124.5t-127 47.5q-90 0 -145.5 -60.5t-55.5 -154.5z" />
    <glyph glyph-name="colon" unicode=":" horiz-adv-x="237" 
d="M81 -5q-17 0 -29.5 12.5t-12.5 29.5q0 18 12 30.5t30 12.5q17 0 30 -12.5t13 -30.5q0 -17 -12.5 -29.5t-30.5 -12.5zM133 320q-17 0 -29.5 12t-12.5 30t12 30t30 12t30.5 -12t12.5 -30t-12.5 -30t-30.5 -12z" />
    <glyph glyph-name="semicolon" unicode=";" horiz-adv-x="237" 
d="M8 -117l-34 19l96 182l48 -24zM138 320q-18 0 -30.5 12t-12.5 30t12.5 30t29.5 12q18 0 30.5 -12t12.5 -30t-12.5 -30t-29.5 -12z" />
    <glyph glyph-name="less" unicode="&#x3c;" horiz-adv-x="496" 
d="M409 104l-351 217l2 13l417 204l-8 -54l-333 -159l281 -170z" />
    <glyph glyph-name="equal" unicode="=" horiz-adv-x="484" 
d="M31 213l8 46h404l-8 -46h-404zM57 380l8 46h404l-8 -46h-404z" />
    <glyph glyph-name="greater" unicode="&#x3e;" horiz-adv-x="496" 
d="M104 538l351 -217l-2 -13l-417 -204l8 54l333 159l-281 171z" />
    <glyph glyph-name="question" unicode="?" horiz-adv-x="477" 
d="M174 179l9 61q4 26 14 49t19 37t30.5 34t30.5 28t38 30q30 22 42.5 33t30.5 31t25 41.5t7 49.5q0 51 -35 78t-91 27q-64 0 -108 -38.5t-57 -111.5h-51q13 92 73.5 143.5t147.5 51.5q80 0 127.5 -41t47.5 -109q0 -18 -3.5 -35t-7 -29t-14 -27t-15.5 -22t-21 -21.5
t-21.5 -18.5t-25.5 -19.5t-24 -18.5q-53 -39 -78 -69.5t-33 -77.5l-9 -56h-48zM178 -5q-18 0 -30 12.5t-12 29.5q0 18 12 30.5t29 12.5q18 0 30.5 -12.5t12.5 -30.5q0 -17 -12.5 -29.5t-29.5 -12.5z" />
    <glyph glyph-name="at" unicode="@" horiz-adv-x="909" 
d="M659 460l-37 -240q-18 -110 65 -110q56 0 95.5 54t39.5 157q0 145 -92 234.5t-253 89.5q-158 0 -267.5 -109.5t-109.5 -274.5q0 -153 96 -259t268 -106t271 104h50q-39 -64 -124 -105.5t-197 -41.5q-130 0 -226 58t-142 149t-46 200q0 119 59.5 218t157.5 154.5t210 55.5
q176 0 284 -104t108 -261q0 -126 -56.5 -189.5t-126.5 -63.5q-105 0 -112 101q-20 -45 -60.5 -76.5t-94.5 -31.5q-69 0 -112 44.5t-43 122.5q0 98 57.5 168.5t143.5 70.5q52 0 85.5 -26.5t42.5 -66.5l13 84h53zM428 105q60 0 106 56.5t46 136.5q1 59 -29 93.5t-81 34.5
q-65 0 -108.5 -57t-43.5 -140q0 -58 30 -91t80 -33z" />
    <glyph glyph-name="A" unicode="A" horiz-adv-x="641" 
d="M518 0l-45 219h-322l-112 -219h-54l368 715h74l145 -715h-54zM382 670l-208 -406h290z" />
    <glyph glyph-name="B" unicode="B" horiz-adv-x="604" 
d="M50 0l113 715h193q94 0 146 -41.5t51 -121.5q0 -141 -149 -180q133 -24 135 -156q0 -101 -66.5 -158.5t-176.5 -57.5h-246zM111 45h185q88 0 138 45.5t50 126.5q0 132 -171 132h-153zM167 393h149q83 0 133 38.5t50 118.5q0 120 -145 120h-143z" />
    <glyph glyph-name="C" unicode="C" horiz-adv-x="725" 
d="M377 -8q-145 0 -230 85.5t-85 231.5q0 113 46.5 207.5t133.5 151t198 56.5q107 0 181 -59t84 -165h-52q-15 86 -70.5 132.5t-144.5 46.5q-145 0 -231.5 -106.5t-86.5 -263.5q0 -128 67 -199.5t190 -71.5q93 0 160 50.5t96 141.5h53q-30 -111 -114 -174.5t-195 -63.5z" />
    <glyph glyph-name="D" unicode="D" horiz-adv-x="688" 
d="M50 0l113 715h173q161 0 242 -83.5t82 -221.5q0 -184 -109.5 -297t-299.5 -113h-201zM113 46h136q165 0 259.5 96.5t94.5 267.5q0 116 -67 187.5t-202 71.5h-122z" />
    <glyph glyph-name="E" unicode="E" horiz-adv-x="569" 
d="M50 0l113 715h406l-8 -46h-350l-44 -279h288l-7 -46h-288l-47 -298h374l-8 -46h-429z" />
    <glyph glyph-name="F" unicode="F" horiz-adv-x="546" 
d="M50 0l113 715h407l-8 -46h-351l-45 -284h276l-7 -46h-276l-53 -339h-56z" />
    <glyph glyph-name="G" unicode="G" horiz-adv-x="758" 
d="M389 -8q-152 0 -238.5 90.5t-86.5 232.5q0 170 105.5 289t267.5 119q110 0 187 -54.5t88 -157.5h-55q-10 82 -70.5 124.5t-150.5 42.5q-141 0 -228 -104.5t-87 -258.5q0 -124 70.5 -200.5t198.5 -76.5q115 0 184 68.5t86 195.5h-225l8 47h277q-15 -182 -101 -269.5
t-230 -87.5z" />
    <glyph glyph-name="H" unicode="H" horiz-adv-x="717" 
d="M50 0l113 715h56l-53 -333h421l53 333h56l-113 -715h-56l53 335h-421l-53 -335h-56z" />
    <glyph glyph-name="I" unicode="I" horiz-adv-x="251" 
d="M55 0l113 715h56l-113 -715h-56z" />
    <glyph glyph-name="J" unicode="J" horiz-adv-x="401" 
d="M113 -7q-72 0 -115 28l7 46q50 -28 107 -28q116 0 137 133l85 543h56l-87 -548q-27 -174 -190 -174z" />
    <glyph glyph-name="K" unicode="K" horiz-adv-x="599" 
d="M532 0h-63l-304 367l398 348h66l-399 -346zM50 0l113 715h56l-113 -715h-56z" />
    <glyph glyph-name="L" unicode="L" horiz-adv-x="530" 
d="M50 0l113 715h56l-106 -669h348l-8 -46h-403z" />
    <glyph glyph-name="M" unicode="M" horiz-adv-x="851" 
d="M50 0l113 715h78l155 -614l350 614h80l-113 -715h-55l102 645l-371 -645h-18l-167 645l-102 -645h-52z" />
    <glyph glyph-name="N" unicode="N" horiz-adv-x="713" 
d="M50 0l113 715h74l300 -638l102 638h53l-113 -715h-64l-308 653l-103 -653h-54z" />
    <glyph glyph-name="O" unicode="O" horiz-adv-x="797" 
d="M763 396q0 -169 -107 -286.5t-268 -117.5q-148 0 -237 93t-89 236q0 166 109 284t271 118q146 0 233.5 -93.5t87.5 -233.5zM706 396q0 120 -71 200.5t-194 80.5q-142 0 -231 -104t-90 -252q-2 -125 72 -203.5t197 -78.5q139 0 228 103t89 254z" />
    <glyph glyph-name="P" unicode="P" horiz-adv-x="568" 
d="M50 0l113 715h180q102 0 161 -45t59 -135q0 -117 -72.5 -173t-189.5 -56h-147l-48 -306h-56zM161 351h143q204 0 204 183q0 135 -171 135h-126z" />
    <glyph glyph-name="Q" unicode="Q" horiz-adv-x="797" 
d="M388 -8q-148 0 -237 93t-89 236q0 166 109 284t271 118q146 0 233.5 -93.5t87.5 -233.5q0 -102 -42 -189t-115 -142l80 -93l-38 -32l-84 97q-81 -45 -176 -45zM389 39q80 0 144 35l-96 112l38 32l99 -116q62 48 97 125.5t35 168.5q0 120 -71 200.5t-194 80.5
q-142 0 -231 -104t-90 -252q-2 -125 72 -203.5t197 -78.5z" />
    <glyph glyph-name="R" unicode="R" horiz-adv-x="606" 
d="M50 0l113 715h186q101 0 160 -45t58 -131q0 -96 -57.5 -147.5t-154.5 -61.5l179 -330h-60l-176 326h-141l-51 -326h-56zM164 371h144q204 0 204 168q1 67 -42 98.5t-123 31.5h-136z" />
    <glyph glyph-name="S" unicode="S" 
d="M284 -8q-116 0 -184.5 58t-71.5 155h54q6 -77 58 -122t147 -45q88 -1 140.5 43.5t52.5 121.5q0 58 -37.5 89t-134.5 58q-107 31 -154 70.5t-47 109.5q0 86 63.5 139.5t166.5 53.5q99 0 158 -46.5t64 -133.5h-52q-16 134 -174 134q-82 0 -127.5 -38.5t-45.5 -106.5
q0 -49 36.5 -78t131.5 -56q111 -32 159 -73t48 -117q0 -97 -69.5 -156.5t-181.5 -59.5z" />
    <glyph glyph-name="T" unicode="T" horiz-adv-x="559" 
d="M208 0l105 669h-221l7 46h500l-8 -46h-222l-105 -669h-56z" />
    <glyph glyph-name="U" unicode="U" horiz-adv-x="682" 
d="M320 -7q-135 0 -197 72.5t-41 207.5l71 442h55l-70 -442q-36 -233 185 -233q96 0 149 50.5t70 159.5l74 465h56l-75 -472q-40 -250 -277 -250z" />
    <glyph glyph-name="V" unicode="V" horiz-adv-x="627" 
d="M239 0l-147 715h54l136 -659l335 659h53l-365 -715h-66z" />
    <glyph glyph-name="W" unicode="W" horiz-adv-x="899" 
d="M173 0l-78 715h56l66 -631l283 631h36l85 -633l268 633h53l-305 -715h-55l-80 613l-276 -613h-53z" />
    <glyph glyph-name="X" unicode="X" horiz-adv-x="614" 
d="M-10 0l304 373l-171 342h58l154 -305l243 305h60l-281 -349l183 -366h-59l-166 329l-266 -329h-59z" />
    <glyph glyph-name="Y" unicode="Y" horiz-adv-x="575" 
d="M222 0l50 318l-184 397h59l161 -351l255 351h58l-294 -401l-49 -314h-56z" />
    <glyph glyph-name="Z" unicode="Z" horiz-adv-x="587" 
d="M-15 0l2 11l543 659h-403l7 45h484l-1 -10l-539 -659h429l-8 -46h-514z" />
    <glyph glyph-name="bracketleft" unicode="[" horiz-adv-x="340" 
d="M27 -148l146 924h206l-7 -43h-152l-133 -838h153l-7 -43h-206z" />
    <glyph glyph-name="backslash" unicode="\" horiz-adv-x="391" 
d="M263 -148l-146 924h49l146 -924h-49z" />
    <glyph glyph-name="bracketright" unicode="]" horiz-adv-x="340" 
d="M-24 -148l7 43h153l132 838h-153l7 43h205l-146 -924h-205z" />
    <glyph glyph-name="asciicircum" unicode="^" horiz-adv-x="478" 
d="M70 422l212 293h53l122 -293h-53l-102 245l-176 -245h-56z" />
    <glyph glyph-name="underscore" unicode="_" horiz-adv-x="389" 
d="M-67 -151l8 44h390l-7 -44h-391z" />
    <glyph glyph-name="grave" unicode="`" horiz-adv-x="400" 
d="M238 605l-73 147h64l50 -147h-41z" />
    <glyph glyph-name="a" unicode="a" horiz-adv-x="527" 
d="M201 -8q-82 0 -126.5 40t-44.5 105q0 87 65.5 125t172.5 38h135l6 42q11 72 -17.5 108t-103.5 36q-122 0 -151 -111h-53q18 80 76 118t130 38q95 0 141 -49.5t31 -143.5l-30 -188q-14 -90 -11 -150h-51q-2 43 3 86q-26 -42 -71 -68t-101 -26zM207 35q68 0 116.5 37
t58.5 101l14 86h-127q-91 0 -138.5 -26.5t-47.5 -95.5q0 -45 31 -73.5t93 -28.5z" />
    <glyph glyph-name="b" unicode="b" horiz-adv-x="608" 
d="M311 -8q-81 0 -130.5 42.5t-65.5 99.5l-22 -134h-53l122 773h53l-57 -366q28 54 81.5 89t119.5 35q91 0 150.5 -64t59.5 -169q0 -131 -68.5 -218.5t-189.5 -87.5zM309 36q96 0 150 73t54 186q0 89 -45.5 140.5t-116.5 51.5q-97 0 -159 -75t-62 -183q-1 -89 48.5 -141
t130.5 -52z" />
    <glyph glyph-name="c" unicode="c" horiz-adv-x="547" 
d="M276 -8q-110 0 -173 65.5t-63 172.5q0 133 77.5 217t192.5 84q86 0 142.5 -46.5t61.5 -130.5h-51q-5 65 -46.5 98.5t-108.5 33.5q-95 0 -154 -71t-59 -185q0 -91 48 -142t134 -51q67 0 115 37t63 105h51q-18 -89 -80.5 -138t-149.5 -49z" />
    <glyph glyph-name="d" unicode="d" horiz-adv-x="606" 
d="M256 -8q-95 0 -156 63t-61 168q0 129 73.5 218.5t192.5 89.5q79 0 126 -42t62 -99l61 383h53l-96 -609q-15 -93 -15 -164h-51q0 54 9 117q-29 -56 -80.5 -90.5t-117.5 -34.5zM261 37q97 0 156.5 72.5t60.5 185.5q1 88 -47 139.5t-124 51.5q-98 0 -155.5 -74t-57.5 -186
q0 -88 46.5 -138.5t120.5 -50.5z" />
    <glyph glyph-name="e" unicode="e" horiz-adv-x="542" 
d="M93 215q0 -86 42 -132t126 -46q128 0 169 109h53q-24 -75 -83.5 -114.5t-140.5 -39.5q-105 0 -163 61t-58 164q0 133 75 223.5t192 90.5q110 0 163.5 -69.5t34.5 -188.5l-2 -16h-406q-2 -14 -2 -42zM303 486q-77 0 -130.5 -49t-71.5 -137h353q10 89 -28 137.5t-123 48.5z
" />
    <glyph glyph-name="f" unicode="f" horiz-adv-x="327" 
d="M56 478l7 45h80l16 100q12 79 56 116t108 37q38 0 63 -11l-6 -43q-24 9 -55 9q-96 0 -113 -109l-16 -99h145l-7 -45h-145l-76 -478h-53l76 478h-80z" />
    <glyph glyph-name="g" unicode="g" horiz-adv-x="610" 
d="M264 62q93 0 155.5 72t62.5 179q0 78 -46.5 125.5t-125.5 47.5q-94 1 -152.5 -70t-58.5 -174q0 -80 43.5 -130t121.5 -50zM570 523l-79 -502q-16 -104 -81 -156.5t-170 -52.5q-102 0 -160 43.5t-67 114.5h53q9 -53 53 -83t119 -30q173 0 200 168l18 110
q-69 -117 -197 -117q-97 0 -156 61.5t-59 160.5q0 122 74.5 206.5t189.5 84.5q75 0 123.5 -37t66.5 -95l19 124h53z" />
    <glyph glyph-name="h" unicode="h" horiz-adv-x="577" 
d="M40 0l122 773h53l-56 -357q27 49 77 82t114 33q88 0 131 -54.5t26 -164.5l-50 -312h-53l51 322q13 81 -17.5 122t-97.5 41q-72 0 -128.5 -47t-69.5 -128l-49 -310h-53z" />
    <glyph glyph-name="i" unicode="i" horiz-adv-x="221" 
d="M173 635q-16 0 -26.5 11t-10.5 26q0 16 11 27t27 11q15 0 26 -10.5t11 -26.5q0 -15 -11 -26.5t-27 -11.5zM42 0l83 523h53l-83 -523h-53z" />
    <glyph glyph-name="j" unicode="j" horiz-adv-x="221" 
d="M-64 -187l7 44q43 2 63 22.5t27 63.5l92 580h53l-92 -583q-11 -65 -46 -95.5t-104 -31.5zM173 635q-16 0 -26.5 11t-10.5 26q0 16 11 27t27 11q15 0 26 -10.5t11 -26.5q0 -15 -11 -26.5t-27 -11.5z" />
    <glyph glyph-name="k" unicode="k" horiz-adv-x="484" 
d="M40 0l122 773h53l-77 -488l286 238h68l-292 -241l225 -282h-62l-226 283l-44 -283h-53z" />
    <glyph glyph-name="l" unicode="l" horiz-adv-x="222" 
d="M42 0l122 773h54l-122 -773h-54z" />
    <glyph glyph-name="m" unicode="m" horiz-adv-x="891" 
d="M40 0l60 377q12 77 14 146h50q0 -54 -8 -109q64 117 177 117q133 0 148 -129q29 61 80.5 95t109.5 34q84 0 126 -54t24 -166l-49 -311h-53l50 318q26 167 -108 167q-64 0 -115 -45.5t-64 -126.5l-49 -313h-53l50 321q13 81 -15 122.5t-93 41.5q-64 0 -115.5 -46
t-63.5 -126l-50 -313h-53z" />
    <glyph glyph-name="n" unicode="n" horiz-adv-x="577" 
d="M40 0l60 377q12 77 14 146h50q0 -50 -9 -113q29 53 79.5 87t115.5 34q88 0 131 -54.5t26 -164.5l-50 -312h-53l51 322q13 81 -17.5 122t-97.5 41q-72 0 -128.5 -47t-69.5 -128l-49 -310h-53z" />
    <glyph glyph-name="o" unicode="o" horiz-adv-x="579" 
d="M267 -8q-103 0 -166 67t-63 168q0 127 77 215t197 88q105 0 167 -66.5t62 -166.5q0 -132 -76 -218.5t-198 -86.5zM269 37q99 0 158 73t59 186q0 83 -46.5 136.5t-129.5 53.5q-99 0 -158.5 -74.5t-59.5 -184.5q0 -83 47 -136.5t130 -53.5z" />
    <glyph glyph-name="p" unicode="p" horiz-adv-x="608" 
d="M359 531q91 0 150.5 -64t59.5 -169q0 -131 -68.5 -218.5t-189.5 -87.5q-81 0 -130.5 42.5t-65.5 98.5l-51 -315h-53l86 541q15 101 17 164h50q0 -50 -11 -123q29 59 84 95t122 36zM309 36q96 0 150 73t54 186q0 89 -45.5 140.5t-116.5 51.5q-97 0 -159 -75t-62 -183
q-1 -89 48.5 -141t130.5 -52z" />
    <glyph glyph-name="q" unicode="q" horiz-adv-x="609" 
d="M403 -182l46 292q-65 -118 -193 -118q-95 0 -156 63t-61 168q0 129 73.5 218.5t192.5 89.5q79 0 126 -42t62 -99l21 133h53l-111 -705h-53zM261 37q97 0 156.5 72.5t60.5 185.5q1 88 -47 139.5t-124 51.5q-98 0 -155.5 -74t-57.5 -186q0 -88 46.5 -138.5t120.5 -50.5z
" />
    <glyph glyph-name="r" unicode="r" horiz-adv-x="347" 
d="M40 0l60 377q12 77 14 146h50q0 -48 -9 -117q31 58 77.5 90t120.5 34l-8 -50q-177 -7 -207 -198l-45 -282h-53z" />
    <glyph glyph-name="s" unicode="s" horiz-adv-x="463" 
d="M216 -9q-93 0 -144 44.5t-53 120.5h52q8 -120 146 -120q61 0 97 27.5t36 78.5q0 40 -27 62.5t-94 40.5q-85 23 -121 54.5t-36 87.5q0 68 51 106t125 38q77 0 124.5 -34.5t53.5 -107.5h-51q-4 47 -37 72t-91 25q-57 0 -90.5 -25t-33.5 -71q0 -38 26.5 -58.5t95.5 -39.5
q83 -22 120 -53t37 -95q0 -71 -52 -112t-134 -41z" />
    <glyph glyph-name="t" unicode="t" horiz-adv-x="332" 
d="M191 -7q-65 0 -94 38t-19 105l54 342h-77l7 45h77l19 119h53l-19 -119h136l-7 -45h-135l-55 -344q-15 -96 67 -96q31 0 64 12l-7 -45q-25 -12 -64 -12z" />
    <glyph glyph-name="u" unicode="u" horiz-adv-x="573" 
d="M530 523l-59 -377q-14 -90 -12 -146h-51q-2 49 8 112q-29 -53 -79 -86.5t-115 -33.5q-87 0 -129.5 55.5t-25.5 163.5l50 312h53l-51 -322q-13 -80 17 -121.5t96 -41.5q72 0 127.5 47t68.5 128l49 310h53z" />
    <glyph glyph-name="v" unicode="v" horiz-adv-x="504" 
d="M178 0l-115 523h56l102 -472l245 472h57l-276 -523h-69z" />
    <glyph glyph-name="w" unicode="w" horiz-adv-x="759" 
d="M144 0l-77 523h56l63 -461l212 461h46l66 -461l207 461h56l-241 -523h-61l-63 439l-204 -439h-60z" />
    <glyph glyph-name="x" unicode="x" horiz-adv-x="489" 
d="M-21 0l234 275l-140 248h60l117 -210l179 210h60l-214 -254l151 -269h-61l-128 232l-197 -232h-61z" />
    <glyph glyph-name="y" unicode="y" horiz-adv-x="494" 
d="M60 -182l131 230l-128 475h54l110 -417l228 417h57l-396 -705h-56z" />
    <glyph glyph-name="z" unicode="z" horiz-adv-x="467" 
d="M-19 0l2 9l404 469h-301l7 45h386l-2 -10l-400 -466h322l-8 -47h-410z" />
    <glyph glyph-name="braceleft" unicode="{" horiz-adv-x="363" 
d="M255 -146q-104 6 -142 60t-3 150l38 107q45 126 -100 133l6 40q76 -1 108.5 29.5t30.5 93.5l-4 118q-4 105 48 148t164 45l-6 -41q-87 -3 -123 -35.5t-33 -119.5l4 -115q3 -122 -116 -146q52 -14 70.5 -54t-3.5 -106l-36 -102q-28 -83 -3 -120.5t107 -42.5z" />
    <glyph glyph-name="bar" unicode="|" horiz-adv-x="241" 
d="M111 -148v924h44v-924h-44z" />
    <glyph glyph-name="braceright" unicode="}" horiz-adv-x="363" 
d="M123 778q103 -6 141 -60t4 -150l-39 -108q-21 -57 2.5 -93.5t97.5 -42.5l-5 -40q-76 3 -109 -26t-31 -93l5 -117q4 -105 -48.5 -148.5t-164.5 -45.5l7 41q87 3 123 35.5t33 119.5l-4 118q-3 122 115 141q-52 15 -70.5 56t2.5 102l38 106q27 83 2 120.5t-106 42.5z" />
    <glyph glyph-name="asciitilde" unicode="~" horiz-adv-x="438" 
d="M44 232q10 52 37 81t65 29q35 0 82 -30t66 -30q23 0 39.5 17t21.5 45h44q-10 -52 -37.5 -81t-63.5 -29q-37 0 -84.5 30t-65.5 30q-22 0 -38 -17t-22 -45h-44z" />
    <glyph glyph-name="uni00A0" unicode="&#xa0;" horiz-adv-x="510" 
 />
    <glyph glyph-name="exclamdown" unicode="&#xa1;" horiz-adv-x="272" 
d="M181 419l-77 -536h-59l94 536h42zM182 603q17 0 29.5 -12.5t12.5 -29.5q0 -18 -12 -30.5t-30 -12.5q-17 0 -30 12.5t-13 30.5q0 17 12.5 29.5t30.5 12.5z" />
    <glyph glyph-name="cent" unicode="&#xa2;" horiz-adv-x="551" 
d="M278 -8h-13l-20 -127h-40l21 132q-87 14 -136.5 76t-49.5 156q0 132 77.5 216t192.5 86l16 98h40l-16 -101q72 -9 118 -54.5t50 -119.5h-51q-4 55 -37 88.5t-87 41.5l-71 -447h7q67 0 115 35.5t65 106.5h51q-19 -92 -82 -139.5t-150 -47.5zM95 229q0 -78 36 -126.5
t102 -61.5l70 445q-92 -3 -150 -74t-58 -183z" />
    <glyph glyph-name="sterling" unicode="&#xa3;" horiz-adv-x="589" 
d="M59 327l7 41h73q-6 68 -6 107q0 109 61.5 178.5t175.5 69.5q93 0 144 -48t53 -135h-54q-7 136 -145 136q-89 0 -134.5 -55.5t-45.5 -146.5q0 -38 6 -106h227l-6 -41h-218q3 -33 3 -70q0 -91 -38 -149q31 -6 104.5 -37t109.5 -31q43 0 72 26t36 78h48q-9 -71 -51 -111.5
t-107 -40.5q-48 0 -129.5 36.5t-112.5 36.5q-32 0 -53 -18.5t-27 -46.5h-49q8 39 36 70.5t70 38.5q39 56 39 143q0 23 -4 75h-85z" />
    <glyph glyph-name="yen" unicode="&#xa5;" horiz-adv-x="548" 
d="M78 305l6 39h172l-157 371h58l140 -340l238 340h56l-262 -371h170l-6 -39h-180l-15 -97h179l-6 -39h-179l-26 -169h-55l27 169h-182l6 39h182l15 97h-181z" />
    <glyph glyph-name="brokenbar" unicode="&#xa6;" horiz-adv-x="241" 
d="M111 -148v445h44v-445h-44zM111 367v409h44v-409h-44z" />
    <glyph glyph-name="section" unicode="&#xa7;" horiz-adv-x="535" 
d="M216 -137q-75 0 -125.5 39.5t-51.5 113.5h54q8 -107 127 -107q55 -1 91.5 30t36.5 85q0 41 -29.5 69t-104.5 56q-81 29 -121.5 65.5t-40.5 95.5q0 109 152 142q-53 42 -53 112q0 69 53 114.5t130 45.5q71 0 115 -36.5t45 -109.5h-54q-2 100 -111 100q-54 1 -89.5 -28.5
t-35.5 -82.5q0 -40 27 -68.5t99 -55.5q81 -31 121 -67.5t40 -97.5q0 -105 -145 -138q56 -41 56 -112q0 -74 -53 -119.5t-133 -45.5zM308 166q56 8 92.5 35t36.5 74q0 40 -30 67.5t-92 52.5l-76 30q-133 -20 -133 -111q0 -39 30 -66t92 -51z" />
    <glyph glyph-name="dieresis" unicode="&#xa8;" horiz-adv-x="400" 
d="M180 636q-15 0 -25.5 10.5t-10.5 25.5t11 26t26 11t25.5 -10.5t10.5 -25.5t-10.5 -26t-26.5 -11zM347 636q-15 0 -25.5 10.5t-10.5 25.5t10.5 26t26.5 11q15 0 25.5 -10.5t10.5 -25.5t-11 -26t-26 -11z" />
    <glyph glyph-name="copyright" unicode="&#xa9;" horiz-adv-x="844" 
d="M435 151q-90 0 -142.5 56t-52.5 149v7q0 90 55.5 147.5t138.5 57.5q69 0 115.5 -34.5t55.5 -98.5h-52q-17 91 -119 91q-62 0 -101 -44.5t-39 -118.5v-6q0 -76 38 -119.5t103 -43.5q50 0 83.5 26t41.5 73h49q-9 -68 -56 -105t-118 -37zM432 23q137 0 234 96t97 240
q0 143 -95.5 238t-233.5 95q-139 0 -235 -96t-96 -239q0 -144 97 -239t232 -95zM432 -9q-153 0 -259.5 105.5t-106.5 260.5q0 153 107 260t261 107q155 0 260.5 -106t105.5 -259q0 -156 -106.5 -262t-261.5 -106z" />
    <glyph glyph-name="ordfeminine" unicode="&#xaa;" horiz-adv-x="418" 
d="M191 302q-62 0 -96 30.5t-34 80.5q0 131 193 131h94l5 30q8 53 -13 80t-76 27q-89 0 -110 -81h-51q14 63 59.5 93t103.5 30q76 0 112.5 -39t24.5 -114l-22 -143q-11 -68 -8 -118h-49q-2 31 1 59q-45 -66 -134 -66zM201 342q52 0 88 26.5t44 74.5l10 64h-91
q-68 0 -104 -20t-36 -71q0 -33 22.5 -53.5t66.5 -20.5z" />
    <glyph glyph-name="guillemotleft" unicode="&#xab;" horiz-adv-x="448" 
d="M160 83l-107 179l163 177h56l-162 -180l102 -176h-52zM318 83l-107 179l163 177h56l-162 -180l102 -176h-52z" />
    <glyph glyph-name="registered" unicode="&#xae;" horiz-adv-x="514" 
d="M218 393v228h75q39 0 61 -17t22 -50v-1q0 -49 -51 -61l65 -99h-41l-61 93h-33v-93h-37zM255 514h37q48 0 48 38v1q0 39 -48 39h-37v-78zM292 310q82 0 136.5 55t54.5 138q0 84 -54 139t-137 55q-82 0 -136.5 -55.5t-54.5 -139.5t55 -138t136 -54zM292 282
q-93 0 -157.5 63.5t-64.5 156.5q0 92 64.5 157t157.5 65q94 0 158 -64t64 -157t-64.5 -157t-157.5 -64z" />
    <glyph glyph-name="macron" unicode="&#xaf;" horiz-adv-x="400" 
d="M139 647l6 42h243l-7 -42h-242z" />
    <glyph glyph-name="degree" unicode="&#xb0;" horiz-adv-x="407" 
d="M248 466q47 0 77 32t30 82q0 44 -29 74.5t-72 30.5q-46 0 -78 -32.5t-32 -81.5q0 -44 29.5 -74.5t74.5 -30.5zM247 427q-62 0 -105.5 42t-43.5 101q0 64 45.5 109t111.5 45q62 0 105 -41.5t43 -101.5q0 -64 -45 -109t-111 -45z" />
    <glyph glyph-name="plusminus" unicode="&#xb1;" horiz-adv-x="510" 
d="M209 131l32 199h-195l7 45h195l32 199h48l-32 -199h195l-8 -45h-195l-31 -199h-48zM-6 0l7 45h438l-8 -45h-437z" />
    <glyph glyph-name="twosuperior" unicode="&#xb2;" horiz-adv-x="285" 
d="M30 372l1 9l149 127q41 34 61.5 60.5t20.5 57.5q-1 26 -17.5 42t-43.5 16q-66 0 -85 -78h-41q10 53 45 83t84 30q44 0 72.5 -23.5t29.5 -67.5q1 -38 -22.5 -69t-74.5 -74l-95 -78h163l-6 -35h-241z" />
    <glyph glyph-name="threesuperior" unicode="&#xb3;" horiz-adv-x="308" 
d="M183 368q-53 0 -88.5 26t-36.5 79h42q2 -33 23.5 -52t59.5 -19q35 0 58 18.5t23 53.5q0 27 -17.5 43.5t-48.5 16.5h-24l5 33h28q31 0 50 15.5t19 45.5q0 27 -17 42t-46 15q-67 0 -84 -66h-40q7 45 41.5 72.5t83.5 27.5q45 0 75 -22t30 -66q0 -61 -67 -82q26 -6 42 -26
t16 -51q0 -48 -36.5 -76t-90.5 -28z" />
    <glyph glyph-name="acute" unicode="&#xb4;" horiz-adv-x="400" 
d="M227 605l88 147h68l-112 -147h-44z" />
    <glyph glyph-name="paragraph" unicode="&#xb6;" horiz-adv-x="559" 
d="M213 -100l72 453h-4q-89 0 -142.5 42.5t-53.5 119.5q0 98 65 149t167 51h219l-129 -815h-46l123 777h-103l-123 -777h-45z" />
    <glyph glyph-name="periodcentered" unicode="&#xb7;" horiz-adv-x="229" 
d="M123 281q-18 0 -30.5 12.5t-12.5 30.5q0 17 12.5 29.5t29.5 12.5q18 0 30.5 -12.5t12.5 -29.5q0 -18 -12.5 -30.5t-29.5 -12.5z" />
    <glyph glyph-name="cedilla" unicode="&#xb8;" horiz-adv-x="400" 
d="M143 -212q-40 0 -65.5 20t-29.5 58h44q2 -19 15.5 -30.5t35.5 -11.5q21 0 35.5 11.5t14.5 35.5q0 36 -42 36q-17 0 -33 -9l-20 22l56 80h42l-43 -59q34 7 61 -12t27 -56q0 -40 -26.5 -62.5t-71.5 -22.5z" />
    <glyph glyph-name="onesuperior" unicode="&#xb9;" horiz-adv-x="219" 
d="M125 372l47 294l-97 -60l6 42l107 67h37l-55 -343h-45z" />
    <glyph glyph-name="ordmasculine" unicode="&#xba;" horiz-adv-x="475" 
d="M258 302q-82 0 -131.5 51t-49.5 131q0 101 61 169.5t156 68.5q83 0 131.5 -51.5t48.5 -130.5q0 -103 -60 -170.5t-156 -67.5zM260 344q74 0 117.5 55t43.5 140q0 62 -34 101.5t-96 39.5q-74 0 -118 -56t-44 -140q0 -62 34.5 -101t96.5 -39z" />
    <glyph glyph-name="guillemotright" unicode="&#xbb;" horiz-adv-x="448" 
d="M286 439l107 -179l-163 -177h-56l162 180l-102 176h52zM128 439l107 -179l-163 -177h-56l162 180l-102 176h52z" />
    <glyph glyph-name="onequarter" unicode="&#xbc;" horiz-adv-x="673" 
d="M128 372l47 294l-97 -60l6 42l107 67h37l-55 -343h-45zM25 0l593 715h47l-593 -715h-47zM513 0l12 74h-179l2 16l204 253h59l-38 -235h47l-5 -34h-47l-12 -74h-43zM404 108h127l31 199z" />
    <glyph glyph-name="onehalf" unicode="&#xbd;" horiz-adv-x="680" 
d="M4 0l593 715h47l-593 -715h-47zM128 372l47 294l-97 -60l6 42l107 67h37l-55 -343h-45zM362 0l2 10l149 127q43 36 62 60.5t19 56.5q0 26 -17 42t-43 16q-67 0 -85 -78h-41q9 53 44 83t84 30q45 0 74 -24.5t29 -67.5q0 -27 -14.5 -52.5t-30.5 -41t-54 -47.5l-95 -79h165
l-6 -35h-242z" />
    <glyph glyph-name="threequarters" unicode="&#xbe;" horiz-adv-x="699" 
d="M186 368q-53 0 -88.5 26t-36.5 79h42q2 -33 23.5 -52t59.5 -19q35 0 58 18.5t23 53.5q0 27 -17.5 43.5t-48.5 16.5h-24l5 33h28q31 0 50 15.5t19 45.5q0 27 -17 42t-46 15q-67 0 -84 -66h-40q8 45 42 72.5t83 27.5q45 0 75 -22t30 -66q0 -61 -67 -82q26 -6 42 -26t16 -51
q0 -48 -36.5 -76t-90.5 -28zM72 0l593 715h47l-593 -715h-47zM540 0l12 74h-179l2 16l204 253h59l-38 -235h47l-5 -34h-47l-12 -74h-43zM431 108h127l31 199z" />
    <glyph glyph-name="questiondown" unicode="&#xbf;" horiz-adv-x="477" 
d="M311 419l-9 -61q-4 -26 -14 -49t-19 -37t-30.5 -34t-30.5 -28t-38 -30q-30 -22 -42.5 -33t-30.5 -31t-25 -41.5t-7 -49.5q0 -51 35 -78t91 -27q64 0 108 38.5t57 111.5h51q-13 -92 -73.5 -143.5t-147.5 -51.5q-80 0 -127.5 41t-47.5 109q0 18 3.5 35t7 29t14 27t15.5 22
t21 21.5t21.5 18.5t25.5 19.5t24 18.5q53 39 78 69.5t33 77.5l9 56h48zM307 603q18 0 30 -12.5t12 -29.5q0 -18 -12 -30.5t-29 -12.5q-18 0 -30.5 12.5t-12.5 30.5q0 17 12.5 29.5t29.5 12.5z" />
    <glyph glyph-name="Agrave" unicode="&#xc0;" horiz-adv-x="641" 
d="M518 0l-45 219h-322l-112 -219h-54l368 715h74l145 -715h-54zM382 670l-208 -406h290zM380 771l-73 122h65l49 -122h-41z" />
    <glyph glyph-name="Aacute" unicode="&#xc1;" horiz-adv-x="641" 
d="M518 0l-45 219h-322l-112 -219h-54l368 715h74l145 -715h-54zM382 670l-208 -406h290zM368 771l74 122h68l-97 -122h-45z" />
    <glyph glyph-name="Acircumflex" unicode="&#xc2;" horiz-adv-x="641" 
d="M518 0l-45 219h-322l-112 -219h-54l368 715h74l145 -715h-54zM382 670l-208 -406h290zM255 771l125 122h50l93 -122h-40l-82 78l-103 -78h-43z" />
    <glyph glyph-name="Atilde" unicode="&#xc3;" horiz-adv-x="641" 
d="M518 0l-45 219h-322l-112 -219h-54l368 715h74l145 -715h-54zM382 670l-208 -406h290zM460 774q-26 0 -66 26.5t-56 26.5q-17 0 -31.5 -14.5t-20.5 -39.5h-40q9 48 33.5 73.5t59.5 25.5q25 0 65 -26t57 -26t31 14t20 39h40q-10 -47 -34.5 -73t-57.5 -26z" />
    <glyph glyph-name="Adieresis" unicode="&#xc4;" horiz-adv-x="641" 
d="M518 0l-45 219h-322l-112 -219h-54l368 715h74l145 -715h-54zM382 670l-208 -406h290zM307 788q-16 0 -26.5 10.5t-10.5 25.5t11 26t26 11q16 0 26 -10.5t10 -25.5t-10.5 -26t-25.5 -11zM487 788q-15 0 -25.5 10.5t-10.5 25.5t10.5 26t26.5 11q15 0 25.5 -10.5
t10.5 -25.5t-11 -26t-26 -11z" />
    <glyph glyph-name="Aring" unicode="&#xc5;" horiz-adv-x="641" 
d="M518 0l-45 219h-322l-112 -219h-54l368 715h74l145 -715h-54zM382 670l-208 -406h290zM397 754q-41 0 -69 27.5t-28 66.5q0 40 29.5 68.5t70.5 28.5t68.5 -27t27.5 -66q0 -41 -29 -69.5t-70 -28.5zM397 786q27 0 44.5 18.5t17.5 47.5q0 27 -16 44.5t-43 17.5
q-26 0 -44.5 -19t-18.5 -47q0 -27 16.5 -44.5t43.5 -17.5z" />
    <glyph glyph-name="AE" unicode="&#xc6;" horiz-adv-x="946" 
d="M-13 0l466 715h496l-8 -46h-350l-44 -279h288l-7 -46h-288l-47 -298h373l-7 -46h-429l34 220h-276l-142 -220h-59zM480 669l-263 -405h254l64 405h-55z" />
    <glyph glyph-name="Ccedilla" unicode="&#xc7;" horiz-adv-x="725" 
d="M298 -212q-40 0 -65.5 20t-29.5 58h44q2 -19 15.5 -30.5t35.5 -11.5q21 0 35.5 11.5t14.5 35.5q0 36 -42 36q-17 0 -33 -9l-20 22l54 78q-115 19 -180 101t-65 210q0 113 46.5 207.5t133.5 151t198 56.5q107 0 181 -59t84 -165h-52q-15 86 -70.5 132.5t-144.5 46.5
q-145 0 -231.5 -106.5t-86.5 -263.5q0 -128 67 -199.5t190 -71.5q93 0 160 50.5t96 141.5h53q-30 -111 -114 -174.5t-195 -63.5q-16 0 -31 1l-38 -52q34 7 61 -12t27 -56q0 -40 -27 -62.5t-71 -22.5z" />
    <glyph glyph-name="Egrave" unicode="&#xc8;" horiz-adv-x="569" 
d="M364 771l-73 122h65l49 -122h-41zM50 0l113 715h406l-8 -46h-350l-44 -279h288l-7 -46h-288l-47 -298h374l-8 -46h-429z" />
    <glyph glyph-name="Eacute" unicode="&#xc9;" horiz-adv-x="569" 
d="M339 771l74 122h68l-97 -122h-45zM50 0l113 715h406l-8 -46h-350l-44 -279h288l-7 -46h-288l-47 -298h374l-8 -46h-429z" />
    <glyph glyph-name="Ecircumflex" unicode="&#xca;" horiz-adv-x="569" 
d="M231 771l125 122h50l93 -122h-40l-82 78l-103 -78h-43zM50 0l113 715h406l-8 -46h-350l-44 -279h288l-7 -46h-288l-47 -298h374l-8 -46h-429z" />
    <glyph glyph-name="Edieresis" unicode="&#xcb;" horiz-adv-x="569" 
d="M50 0l113 715h406l-8 -46h-350l-44 -279h288l-7 -46h-288l-47 -298h374l-8 -46h-429zM284 788q-16 0 -26.5 10.5t-10.5 25.5t11 26t26 11q16 0 26 -10.5t10 -25.5t-10.5 -26t-25.5 -11zM464 788q-15 0 -25.5 10.5t-10.5 25.5t10.5 26t26.5 11q15 0 25.5 -10.5t10.5 -25.5
t-11 -26t-26 -11z" />
    <glyph glyph-name="Igrave" unicode="&#xcc;" horiz-adv-x="251" 
d="M55 0l113 715h56l-113 -715h-56zM190 771l-73 122h65l49 -122h-41z" />
    <glyph glyph-name="Iacute" unicode="&#xcd;" horiz-adv-x="251" 
d="M55 0l113 715h56l-113 -715h-56zM177 771l74 122h68l-97 -122h-45z" />
    <glyph glyph-name="Icircumflex" unicode="&#xce;" horiz-adv-x="251" 
d="M55 0l113 715h56l-113 -715h-56zM68 771l125 122h50l93 -122h-40l-82 78l-103 -78h-43z" />
    <glyph glyph-name="Idieresis" unicode="&#xcf;" horiz-adv-x="251" 
d="M55 0l113 715h56l-113 -715h-56zM123 788q-16 0 -26.5 10.5t-10.5 25.5t11 26t26 11q16 0 26 -10.5t10 -25.5t-10.5 -26t-25.5 -11zM303 788q-15 0 -25.5 10.5t-10.5 25.5t10.5 26t26.5 11q15 0 25.5 -10.5t10.5 -25.5t-11 -26t-26 -11z" />
    <glyph glyph-name="Eth" unicode="&#xd0;" horiz-adv-x="699" 
d="M39 337l7 44h75l53 334h173q161 0 242 -83.5t82 -221.5q0 -184 -109.5 -297t-300.5 -113h-200l53 337h-75zM124 46h136q165 0 259.5 96.5t94.5 267.5q0 117 -66.5 188t-202.5 71h-122l-46 -288h208l-7 -44h-208z" />
    <glyph glyph-name="Ntilde" unicode="&#xd1;" horiz-adv-x="713" 
d="M510 774q-26 0 -66 26.5t-56 26.5q-17 0 -31.5 -14.5t-20.5 -39.5h-40q9 48 33.5 73.5t59.5 25.5q25 0 65 -26t57 -26t31 14t20 39h40q-10 -47 -34.5 -73t-57.5 -26zM50 0l113 715h74l300 -638l102 638h53l-113 -715h-64l-308 653l-103 -653h-54z" />
    <glyph glyph-name="Ograve" unicode="&#xd2;" horiz-adv-x="797" 
d="M443 771l-73 122h65l49 -122h-41zM763 396q0 -169 -107 -286.5t-268 -117.5q-148 0 -237 93t-89 236q0 166 109 284t271 118q146 0 233.5 -93.5t87.5 -233.5zM706 396q0 120 -71 200.5t-194 80.5q-142 0 -231 -104t-90 -252q-2 -125 72 -203.5t197 -78.5q139 0 228 103
t89 254z" />
    <glyph glyph-name="Oacute" unicode="&#xd3;" horiz-adv-x="797" 
d="M432 771l74 122h68l-97 -122h-45zM763 396q0 -169 -107 -286.5t-268 -117.5q-148 0 -237 93t-89 236q0 166 109 284t271 118q146 0 233.5 -93.5t87.5 -233.5zM706 396q0 120 -71 200.5t-194 80.5q-142 0 -231 -104t-90 -252q-2 -125 72 -203.5t197 -78.5q139 0 228 103
t89 254z" />
    <glyph glyph-name="Ocircumflex" unicode="&#xd4;" horiz-adv-x="797" 
d="M325 771l125 122h50l93 -122h-40l-82 78l-103 -78h-43zM763 396q0 -169 -107 -286.5t-268 -117.5q-148 0 -237 93t-89 236q0 166 109 284t271 118q146 0 233.5 -93.5t87.5 -233.5zM706 396q0 120 -71 200.5t-194 80.5q-142 0 -231 -104t-90 -252q-2 -125 72 -203.5
t197 -78.5q139 0 228 103t89 254z" />
    <glyph glyph-name="Otilde" unicode="&#xd5;" horiz-adv-x="797" 
d="M524 774q-26 0 -66 26.5t-56 26.5q-17 0 -31.5 -14.5t-20.5 -39.5h-40q9 48 33.5 73.5t59.5 25.5q25 0 65 -26t57 -26t31 14t20 39h40q-10 -47 -34.5 -73t-57.5 -26zM763 396q0 -169 -107 -286.5t-268 -117.5q-148 0 -237 93t-89 236q0 166 109 284t271 118
q146 0 233.5 -93.5t87.5 -233.5zM706 396q0 120 -71 200.5t-194 80.5q-142 0 -231 -104t-90 -252q-2 -125 72 -203.5t197 -78.5q139 0 228 103t89 254z" />
    <glyph glyph-name="Odieresis" unicode="&#xd6;" horiz-adv-x="797" 
d="M372 788q-16 0 -26.5 10.5t-10.5 25.5t11 26t26 11q16 0 26 -10.5t10 -25.5t-10.5 -26t-25.5 -11zM552 788q-15 0 -25.5 10.5t-10.5 25.5t10.5 26t26.5 11q15 0 25.5 -10.5t10.5 -25.5t-11 -26t-26 -11zM763 396q0 -169 -107 -286.5t-268 -117.5q-148 0 -237 93t-89 236
q0 166 109 284t271 118q146 0 233.5 -93.5t87.5 -233.5zM706 396q0 120 -71 200.5t-194 80.5q-142 0 -231 -104t-90 -252q-2 -125 72 -203.5t197 -78.5q139 0 228 103t89 254z" />
    <glyph glyph-name="multiply" unicode="&#xd7;" horiz-adv-x="483" 
d="M64 143l-28 32l180 161l-139 160l33 31l140 -161l180 161l29 -33l-181 -161l140 -160l-34 -30l-140 160z" />
    <glyph glyph-name="Oslash" unicode="&#xd8;" horiz-adv-x="797" 
d="M62 -24l-29 29l99 102q-70 87 -70 214q0 166 109 284t271 118q127 0 213 -75l88 91l28 -30l-87 -90q79 -91 79 -223q0 -169 -107 -286.5t-268 -117.5q-140 0 -229 84zM706 396q0 111 -57 186l-454 -469q72 -74 194 -74q139 0 228 103t89 254zM120 321q-1 -104 48 -177
l453 469q-72 64 -180 64q-142 0 -231 -104t-90 -252z" />
    <glyph glyph-name="Ugrave" unicode="&#xd9;" horiz-adv-x="682" 
d="M400 771l-73 122h65l49 -122h-41zM320 -7q-135 0 -197 72.5t-41 207.5l71 442h55l-70 -442q-36 -233 185 -233q96 0 149 50.5t70 159.5l74 465h56l-75 -472q-40 -250 -277 -250z" />
    <glyph glyph-name="Uacute" unicode="&#xda;" horiz-adv-x="682" 
d="M385 771l74 122h68l-97 -122h-45zM320 -7q-135 0 -197 72.5t-41 207.5l71 442h55l-70 -442q-36 -233 185 -233q96 0 149 50.5t70 159.5l74 465h56l-75 -472q-40 -250 -277 -250z" />
    <glyph glyph-name="Ucircumflex" unicode="&#xdb;" horiz-adv-x="682" 
d="M279 771l125 122h50l93 -122h-40l-82 78l-103 -78h-43zM320 -7q-135 0 -197 72.5t-41 207.5l71 442h55l-70 -442q-36 -233 185 -233q96 0 149 50.5t70 159.5l74 465h56l-75 -472q-40 -250 -277 -250z" />
    <glyph glyph-name="Udieresis" unicode="&#xdc;" horiz-adv-x="682" 
d="M320 -7q-135 0 -197 72.5t-41 207.5l71 442h55l-70 -442q-36 -233 185 -233q96 0 149 50.5t70 159.5l74 465h56l-75 -472q-40 -250 -277 -250zM332 788q-16 0 -26.5 10.5t-10.5 25.5t11 26t26 11q16 0 26 -10.5t10 -25.5t-10.5 -26t-25.5 -11zM512 788q-15 0 -25.5 10.5
t-10.5 25.5t10.5 26t26.5 11q15 0 25.5 -10.5t10.5 -25.5t-11 -26t-26 -11z" />
    <glyph glyph-name="Yacute" unicode="&#xdd;" horiz-adv-x="575" 
d="M222 0l50 318l-184 397h59l161 -351l255 351h58l-294 -401l-49 -314h-56zM330 771l74 122h68l-97 -122h-45z" />
    <glyph glyph-name="Thorn" unicode="&#xde;" horiz-adv-x="568" 
d="M219 715l-23 -144h127q101 0 161 -45.5t60 -132.5q0 -114 -72 -167.5t-188 -53.5h-151l-27 -172h-56l113 715h56zM318 525h-129l-49 -308h147q201 0 201 176q1 68 -43 100t-127 32z" />
    <glyph glyph-name="germandbls" unicode="&#xdf;" horiz-adv-x="569" 
d="M295 -7q-64 0 -110 24l7 44q46 -24 101 -24q79 0 125.5 52.5t46.5 139.5q0 82 -51.5 134t-135.5 53l8 45q80 2 131.5 40.5t51.5 112.5q0 56 -34.5 86.5t-91.5 31.5q-65 0 -106 -40.5t-52 -111.5l-92 -580h-53l92 583q13 89 71 140.5t141 51.5q74 0 125 -43t51 -118
q0 -68 -43.5 -114t-112.5 -62q69 -19 112.5 -75.5t43.5 -135.5q0 -108 -61.5 -171t-163.5 -63z" />
    <glyph glyph-name="agrave" unicode="&#xe0;" horiz-adv-x="527" 
d="M201 -8q-82 0 -126.5 40t-44.5 105q0 87 65.5 125t172.5 38h135l6 42q11 72 -17.5 108t-103.5 36q-122 0 -151 -111h-53q18 80 76 118t130 38q95 0 141 -49.5t31 -143.5l-30 -188q-14 -90 -11 -150h-51q-2 43 3 86q-26 -42 -71 -68t-101 -26zM207 35q68 0 116.5 37
t58.5 101l14 86h-127q-91 0 -138.5 -26.5t-47.5 -95.5q0 -45 31 -73.5t93 -28.5zM285 605l-73 147h64l50 -147h-41z" />
    <glyph glyph-name="aacute" unicode="&#xe1;" horiz-adv-x="527" 
d="M201 -8q-82 0 -126.5 40t-44.5 105q0 87 65.5 125t172.5 38h135l6 42q11 72 -17.5 108t-103.5 36q-122 0 -151 -111h-53q18 80 76 118t130 38q95 0 141 -49.5t31 -143.5l-30 -188q-14 -90 -11 -150h-51q-2 43 3 86q-26 -42 -71 -68t-101 -26zM207 35q68 0 116.5 37
t58.5 101l14 86h-127q-91 0 -138.5 -26.5t-47.5 -95.5q0 -45 31 -73.5t93 -28.5zM275 605l88 147h68l-112 -147h-44z" />
    <glyph glyph-name="acircumflex" unicode="&#xe2;" horiz-adv-x="527" 
d="M201 -8q-82 0 -126.5 40t-44.5 105q0 87 65.5 125t172.5 38h135l6 42q11 72 -17.5 108t-103.5 36q-122 0 -151 -111h-53q18 80 76 118t130 38q95 0 141 -49.5t31 -143.5l-30 -188q-14 -90 -11 -150h-51q-2 43 3 86q-26 -42 -71 -68t-101 -26zM207 35q68 0 116.5 37
t58.5 101l14 86h-127q-91 0 -138.5 -26.5t-47.5 -95.5q0 -45 31 -73.5t93 -28.5zM166 605l128 135h49l91 -135h-40l-81 91l-104 -91h-43z" />
    <glyph glyph-name="atilde" unicode="&#xe3;" horiz-adv-x="527" 
d="M201 -8q-82 0 -126.5 40t-44.5 105q0 87 65.5 125t172.5 38h135l6 42q11 72 -17.5 108t-103.5 36q-122 0 -151 -111h-53q18 80 76 118t130 38q95 0 141 -49.5t31 -143.5l-30 -188q-14 -90 -11 -150h-51q-2 43 3 86q-26 -42 -71 -68t-101 -26zM207 35q68 0 116.5 37
t58.5 101l14 86h-127q-91 0 -138.5 -26.5t-47.5 -95.5q0 -45 31 -73.5t93 -28.5zM373 616q-26 0 -66 26.5t-56 26.5q-17 0 -31.5 -14t-20.5 -39h-40q9 47 34 73t59 26q25 0 65 -26.5t57 -26.5t31 14t20 39h40q-10 -47 -34.5 -73t-57.5 -26z" />
    <glyph glyph-name="adieresis" unicode="&#xe4;" horiz-adv-x="527" 
d="M201 -8q-82 0 -126.5 40t-44.5 105q0 87 65.5 125t172.5 38h135l6 42q11 72 -17.5 108t-103.5 36q-122 0 -151 -111h-53q18 80 76 118t130 38q95 0 141 -49.5t31 -143.5l-30 -188q-14 -90 -11 -150h-51q-2 43 3 86q-26 -42 -71 -68t-101 -26zM207 35q68 0 116.5 37
t58.5 101l14 86h-127q-91 0 -138.5 -26.5t-47.5 -95.5q0 -45 31 -73.5t93 -28.5zM227 636q-15 0 -25.5 10.5t-10.5 25.5t11 26t26 11t25.5 -10.5t10.5 -25.5t-10.5 -26t-26.5 -11zM394 636q-15 0 -25.5 10.5t-10.5 25.5t10.5 26t26.5 11q15 0 25.5 -10.5t10.5 -25.5t-11 -26
t-26 -11z" />
    <glyph glyph-name="aring" unicode="&#xe5;" horiz-adv-x="527" 
d="M201 -8q-82 0 -126.5 40t-44.5 105q0 87 65.5 125t172.5 38h135l6 42q11 72 -17.5 108t-103.5 36q-122 0 -151 -111h-53q18 80 76 118t130 38q95 0 141 -49.5t31 -143.5l-30 -188q-14 -90 -11 -150h-51q-2 43 3 86q-26 -42 -71 -68t-101 -26zM207 35q68 0 116.5 37
t58.5 101l14 86h-127q-91 0 -138.5 -26.5t-47.5 -95.5q0 -45 31 -73.5t93 -28.5zM318 633q27 0 44.5 18.5t17.5 46.5q0 27 -16 44.5t-43 17.5q-26 0 -44.5 -19t-18.5 -47q0 -27 16.5 -44t43.5 -17zM318 601q-41 0 -69 27t-28 66q0 40 29.5 69t70.5 29t68.5 -27.5t27.5 -66.5
q0 -40 -29 -68.5t-70 -28.5z" />
    <glyph glyph-name="ae" unicode="&#xe6;" horiz-adv-x="888" 
d="M449 215q0 -178 163 -178q125 0 166 109h52q-25 -76 -82 -115t-138 -39q-162 0 -202 140q-24 -69 -80 -104.5t-126 -35.5q-83 0 -127.5 38t-44.5 103q0 88 67 127t173 39h133l7 43q23 144 -122 144q-122 0 -151 -111h-53q18 80 76 118t130 38q143 0 167 -108
q74 108 200 108q109 0 160.5 -69t32.5 -189l-3 -15h-396q-2 -14 -2 -43zM206 35q70 0 119 39t61 114l11 70h-128q-90 0 -138 -27.5t-48 -95.5q0 -45 31 -72.5t92 -27.5zM654 486q-76 0 -128 -49.5t-69 -137.5h343q21 187 -146 187z" />
    <glyph glyph-name="ccedilla" unicode="&#xe7;" horiz-adv-x="547" 
d="M208 -212q-40 0 -65.5 20t-29.5 58h44q2 -19 15.5 -30.5t35.5 -11.5q21 0 35.5 11.5t14.5 35.5q0 36 -42 36q-17 0 -33 -9l-20 22l54 78q-84 16 -130.5 78t-46.5 154q0 133 77.5 217t192.5 84q86 0 142.5 -46.5t61.5 -130.5h-51q-5 65 -46.5 98.5t-108.5 33.5
q-95 0 -154 -71t-59 -185q0 -91 48 -142t134 -51q67 0 115 37t63 105h51q-18 -89 -80.5 -138t-149.5 -49h-22l-36 -51q34 7 61 -12t27 -56q0 -40 -27 -62.5t-71 -22.5z" />
    <glyph glyph-name="egrave" unicode="&#xe8;" horiz-adv-x="542" 
d="M93 215q0 -86 42 -132t126 -46q128 0 169 109h53q-24 -75 -83.5 -114.5t-140.5 -39.5q-105 0 -163 61t-58 164q0 133 75 223.5t192 90.5q110 0 163.5 -69.5t34.5 -188.5l-2 -16h-406q-2 -14 -2 -42zM303 486q-77 0 -130.5 -49t-71.5 -137h353q10 89 -28 137.5t-123 48.5z
M295 605l-73 147h64l50 -147h-41z" />
    <glyph glyph-name="eacute" unicode="&#xe9;" horiz-adv-x="542" 
d="M93 215q0 -86 42 -132t126 -46q128 0 169 109h53q-24 -75 -83.5 -114.5t-140.5 -39.5q-105 0 -163 61t-58 164q0 133 75 223.5t192 90.5q110 0 163.5 -69.5t34.5 -188.5l-2 -16h-406q-2 -14 -2 -42zM303 486q-77 0 -130.5 -49t-71.5 -137h353q10 89 -28 137.5t-123 48.5z
M285 605l88 147h68l-112 -147h-44z" />
    <glyph glyph-name="ecircumflex" unicode="&#xea;" horiz-adv-x="542" 
d="M93 215q0 -86 42 -132t126 -46q128 0 169 109h53q-24 -75 -83.5 -114.5t-140.5 -39.5q-105 0 -163 61t-58 164q0 133 75 223.5t192 90.5q110 0 163.5 -69.5t34.5 -188.5l-2 -16h-406q-2 -14 -2 -42zM303 486q-77 0 -130.5 -49t-71.5 -137h353q10 89 -28 137.5t-123 48.5z
M176 605l128 135h49l91 -135h-40l-81 91l-104 -91h-43z" />
    <glyph glyph-name="edieresis" unicode="&#xeb;" horiz-adv-x="542" 
d="M93 215q0 -86 42 -132t126 -46q128 0 169 109h53q-24 -75 -83.5 -114.5t-140.5 -39.5q-105 0 -163 61t-58 164q0 133 75 223.5t192 90.5q110 0 163.5 -69.5t34.5 -188.5l-2 -16h-406q-2 -14 -2 -42zM303 486q-77 0 -130.5 -49t-71.5 -137h353q10 89 -28 137.5t-123 48.5z
M407 636q-15 0 -25.5 10.5t-10.5 25.5t10.5 26t26.5 11q15 0 25.5 -10.5t10.5 -25.5t-11 -26t-26 -11zM240 636q-15 0 -25.5 10.5t-10.5 25.5t11 26t26 11t25.5 -10.5t10.5 -25.5t-10.5 -26t-26.5 -11z" />
    <glyph glyph-name="igrave" unicode="&#xec;" horiz-adv-x="221" 
d="M42 0l83 523h53l-83 -523h-53zM144 605l-73 147h64l50 -147h-41z" />
    <glyph glyph-name="iacute" unicode="&#xed;" horiz-adv-x="221" 
d="M136 605l88 147h68l-112 -147h-44zM42 0l83 523h53l-83 -523h-53z" />
    <glyph glyph-name="icircumflex" unicode="&#xee;" horiz-adv-x="221" 
d="M25 605l128 135h49l91 -135h-40l-81 91l-104 -91h-43zM42 0l83 523h53l-83 -523h-53z" />
    <glyph glyph-name="idieresis" unicode="&#xef;" horiz-adv-x="221" 
d="M101 636q-15 0 -26 10.5t-11 25.5t11 26t26 11q16 0 26 -10.5t10 -25.5t-10.5 -26t-25.5 -11zM249 636q-16 0 -26.5 10.5t-10.5 25.5t11 26t26 11t25.5 -10.5t10.5 -25.5t-10.5 -26t-25.5 -11zM42 0l83 523h53l-83 -523h-53z" />
    <glyph glyph-name="eth" unicode="&#xf0;" horiz-adv-x="582" 
d="M196 585l-17 30l133 71q-47 42 -115 87h70q43 -25 88 -64l110 58l17 -31l-100 -52q159 -157 159 -369q0 -140 -74.5 -231.5t-201.5 -91.5q-101 0 -164 66.5t-63 169.5q0 122 74.5 212.5t192.5 90.5q115 0 172 -99q-41 130 -139 228zM92 226q0 -80 45.5 -134.5
t128.5 -54.5q100 0 160 74.5t60 184.5q0 83 -46.5 136.5t-129.5 53.5q-100 0 -159 -76t-59 -184z" />
    <glyph glyph-name="ntilde" unicode="&#xf1;" horiz-adv-x="577" 
d="M40 0l60 377q12 77 14 146h50q0 -50 -9 -113q29 53 79.5 87t115.5 34q88 0 131 -54.5t26 -164.5l-50 -312h-53l51 322q13 81 -17.5 122t-97.5 41q-72 0 -128.5 -47t-69.5 -128l-49 -310h-53zM399 616q-26 0 -66 26.5t-56 26.5q-17 0 -31.5 -14t-20.5 -39h-40q9 47 34 73
t59 26q25 0 65 -26.5t57 -26.5t31 14t20 39h40q-10 -47 -34.5 -73t-57.5 -26z" />
    <glyph glyph-name="ograve" unicode="&#xf2;" horiz-adv-x="579" 
d="M267 -8q-103 0 -166 67t-63 168q0 127 77 215t197 88q105 0 167 -66.5t62 -166.5q0 -132 -76 -218.5t-198 -86.5zM269 37q99 0 158 73t59 186q0 83 -46.5 136.5t-129.5 53.5q-99 0 -158.5 -74.5t-59.5 -184.5q0 -83 47 -136.5t130 -53.5zM310 605l-73 147h64l50 -147h-41
z" />
    <glyph glyph-name="oacute" unicode="&#xf3;" horiz-adv-x="579" 
d="M301 605l88 147h68l-112 -147h-44zM267 -8q-103 0 -166 67t-63 168q0 127 77 215t197 88q105 0 167 -66.5t62 -166.5q0 -132 -76 -218.5t-198 -86.5zM269 37q99 0 158 73t59 186q0 83 -46.5 136.5t-129.5 53.5q-99 0 -158.5 -74.5t-59.5 -184.5q0 -83 47 -136.5
t130 -53.5z" />
    <glyph glyph-name="ocircumflex" unicode="&#xf4;" horiz-adv-x="579" 
d="M190 605l128 135h49l91 -135h-40l-81 91l-104 -91h-43zM267 -8q-103 0 -166 67t-63 168q0 127 77 215t197 88q105 0 167 -66.5t62 -166.5q0 -132 -76 -218.5t-198 -86.5zM269 37q99 0 158 73t59 186q0 83 -46.5 136.5t-129.5 53.5q-99 0 -158.5 -74.5t-59.5 -184.5
q0 -83 47 -136.5t130 -53.5z" />
    <glyph glyph-name="otilde" unicode="&#xf5;" horiz-adv-x="579" 
d="M267 -8q-103 0 -166 67t-63 168q0 127 77 215t197 88q105 0 167 -66.5t62 -166.5q0 -132 -76 -218.5t-198 -86.5zM269 37q99 0 158 73t59 186q0 83 -46.5 136.5t-129.5 53.5q-99 0 -158.5 -74.5t-59.5 -184.5q0 -83 47 -136.5t130 -53.5zM393 616q-26 0 -66 26.5
t-56 26.5q-17 0 -31.5 -14t-20.5 -39h-40q9 47 34 73t59 26q25 0 65 -26.5t57 -26.5t31 14t20 39h40q-10 -47 -34.5 -73t-57.5 -26z" />
    <glyph glyph-name="odieresis" unicode="&#xf6;" horiz-adv-x="579" 
d="M249 636q-15 0 -25.5 10.5t-10.5 25.5t11 26t26 11t25.5 -10.5t10.5 -25.5t-10.5 -26t-26.5 -11zM416 636q-15 0 -25.5 10.5t-10.5 25.5t10.5 26t26.5 11q15 0 25.5 -10.5t10.5 -25.5t-11 -26t-26 -11zM267 -8q-103 0 -166 67t-63 168q0 127 77 215t197 88
q105 0 167 -66.5t62 -166.5q0 -132 -76 -218.5t-198 -86.5zM269 37q99 0 158 73t59 186q0 83 -46.5 136.5t-129.5 53.5q-99 0 -158.5 -74.5t-59.5 -184.5q0 -83 47 -136.5t130 -53.5z" />
    <glyph glyph-name="divide" unicode="&#xf7;" horiz-adv-x="510" 
d="M44 319l8 46h437l-7 -46h-438zM243 122q-17 0 -29.5 12.5t-12.5 30.5q0 17 12.5 29.5t29.5 12.5q18 0 30.5 -12.5t12.5 -29.5q0 -18 -12.5 -30.5t-30.5 -12.5zM290 477q-17 0 -29.5 12.5t-12.5 30.5q0 17 12.5 29.5t29.5 12.5q18 0 30.5 -12.5t12.5 -29.5
q0 -18 -12.5 -30.5t-30.5 -12.5z" />
    <glyph glyph-name="oslash" unicode="&#xf8;" horiz-adv-x="579" 
d="M43 -25l-28 26l72 75q-49 65 -49 151q0 127 77 215t197 88q91 0 154 -55l66 70l29 -26l-69 -72q49 -63 49 -150q0 -132 -76 -218.5t-198 -86.5q-92 0 -154 56zM269 37q99 0 158 73t59 186q0 65 -29 114l-312 -328q47 -45 124 -45zM92 227q0 -69 29 -115l312 328
q-46 46 -123 46q-99 0 -158.5 -74.5t-59.5 -184.5z" />
    <glyph glyph-name="ugrave" unicode="&#xf9;" horiz-adv-x="573" 
d="M530 523l-59 -377q-14 -90 -12 -146h-51q-2 49 8 112q-29 -53 -79 -86.5t-115 -33.5q-87 0 -129.5 55.5t-25.5 163.5l50 312h53l-51 -322q-13 -80 17 -121.5t96 -41.5q72 0 127.5 47t68.5 128l49 310h53zM315 605l-73 147h64l50 -147h-41z" />
    <glyph glyph-name="uacute" unicode="&#xfa;" horiz-adv-x="573" 
d="M300 605l88 147h68l-112 -147h-44zM530 523l-59 -377q-14 -90 -12 -146h-51q-2 49 8 112q-29 -53 -79 -86.5t-115 -33.5q-87 0 -129.5 55.5t-25.5 163.5l50 312h53l-51 -322q-13 -80 17 -121.5t96 -41.5q72 0 127.5 47t68.5 128l49 310h53z" />
    <glyph glyph-name="ucircumflex" unicode="&#xfb;" horiz-adv-x="573" 
d="M193 605l128 135h49l91 -135h-40l-81 91l-104 -91h-43zM530 523l-59 -377q-14 -90 -12 -146h-51q-2 49 8 112q-29 -53 -79 -86.5t-115 -33.5q-87 0 -129.5 55.5t-25.5 163.5l50 312h53l-51 -322q-13 -80 17 -121.5t96 -41.5q72 0 127.5 47t68.5 128l49 310h53z" />
    <glyph glyph-name="udieresis" unicode="&#xfc;" horiz-adv-x="573" 
d="M255 636q-15 0 -25.5 10.5t-10.5 25.5t11 26t26 11t25.5 -10.5t10.5 -25.5t-10.5 -26t-26.5 -11zM422 636q-15 0 -25.5 10.5t-10.5 25.5t10.5 26t26.5 11q15 0 25.5 -10.5t10.5 -25.5t-11 -26t-26 -11zM530 523l-59 -377q-14 -90 -12 -146h-51q-2 49 8 112
q-29 -53 -79 -86.5t-115 -33.5q-87 0 -129.5 55.5t-25.5 163.5l50 312h53l-51 -322q-13 -80 17 -121.5t96 -41.5q72 0 127.5 47t68.5 128l49 310h53z" />
    <glyph glyph-name="yacute" unicode="&#xfd;" horiz-adv-x="494" 
d="M60 -182l131 230l-128 475h54l110 -417l228 417h57l-396 -705h-56zM268 605l88 147h68l-112 -147h-44z" />
    <glyph glyph-name="thorn" unicode="&#xfe;" horiz-adv-x="610" 
d="M11 -182l151 955h53l-57 -366q28 54 81.5 89t119.5 35q91 0 150.5 -64t59.5 -169q0 -131 -68.5 -218.5t-189.5 -87.5q-81 0 -130.5 42.5t-65.5 99.5l-51 -316h-53zM309 36q96 0 150 73t54 186q0 89 -45.5 140.5t-116.5 51.5q-97 0 -159 -75t-62 -183q-1 -89 48.5 -141
t130.5 -52z" />
    <glyph glyph-name="ydieresis" unicode="&#xff;" horiz-adv-x="494" 
d="M60 -182l131 230l-128 475h54l110 -417l228 417h57l-396 -705h-56zM225 636q-15 0 -25.5 10.5t-10.5 25.5t11 26t26 11t25.5 -10.5t10.5 -25.5t-10.5 -26t-26.5 -11zM392 636q-15 0 -25.5 10.5t-10.5 25.5t10.5 26t26.5 11q15 0 25.5 -10.5t10.5 -25.5t-11 -26t-26 -11z
" />
    <glyph glyph-name="Amacron" unicode="&#x100;" horiz-adv-x="641" 
d="M518 0l-45 219h-322l-112 -219h-54l368 715h74l145 -715h-54zM382 670l-208 -406h290zM274 791l7 42h248l-7 -42h-248z" />
    <glyph glyph-name="amacron" unicode="&#x101;" horiz-adv-x="527" 
d="M201 -8q-82 0 -126.5 40t-44.5 105q0 87 65.5 125t172.5 38h135l6 42q11 72 -17.5 108t-103.5 36q-122 0 -151 -111h-53q18 80 76 118t130 38q95 0 141 -49.5t31 -143.5l-30 -188q-14 -90 -11 -150h-51q-2 43 3 86q-26 -42 -71 -68t-101 -26zM207 35q68 0 116.5 37
t58.5 101l14 86h-127q-91 0 -138.5 -26.5t-47.5 -95.5q0 -45 31 -73.5t93 -28.5zM192 647l6 42h243l-7 -42h-242z" />
    <glyph glyph-name="Abreve" unicode="&#x102;" horiz-adv-x="641" 
d="M518 0l-45 219h-322l-112 -219h-54l368 715h74l145 -715h-54zM382 670l-208 -406h290zM397 771q-53 0 -87 34t-34 88h44q2 -37 22 -57.5t55 -20.5q36 0 60 21t31 57h43q-6 -53 -45 -87.5t-89 -34.5z" />
    <glyph glyph-name="abreve" unicode="&#x103;" horiz-adv-x="527" 
d="M201 -8q-82 0 -126.5 40t-44.5 105q0 87 65.5 125t172.5 38h135l6 42q11 72 -17.5 108t-103.5 36q-122 0 -151 -111h-53q18 80 76 118t130 38q95 0 141 -49.5t31 -143.5l-30 -188q-14 -90 -11 -150h-51q-2 43 3 86q-26 -42 -71 -68t-101 -26zM207 35q68 0 116.5 37
t58.5 101l14 86h-127q-91 0 -138.5 -26.5t-47.5 -95.5q0 -45 31 -73.5t93 -28.5zM309 616q-52 0 -84.5 33.5t-32.5 87.5h44q2 -37 20.5 -57t52.5 -20q72 0 88 77h42q-6 -54 -43 -87.5t-87 -33.5z" />
    <glyph glyph-name="Aogonek" unicode="&#x104;" horiz-adv-x="641" 
d="M426 -107q0 58 92 108l-44 218h-323l-112 -219h-54l368 715h74l145 -715q-20 -11 -30.5 -18t-28.5 -21t-26.5 -30t-8.5 -33q0 -40 47 -40q23 0 47 8l-6 -39q-29 -9 -51 -9q-41 0 -65 19.5t-24 55.5zM382 670l-208 -406h291z" />
    <glyph glyph-name="aogonek" unicode="&#x105;" horiz-adv-x="527" 
d="M366 -182q-41 0 -65 19.5t-24 55.5q0 57 93 109q-2 44 3 84q-26 -42 -71 -68t-101 -26q-82 0 -126.5 40t-44.5 105q0 87 65.5 125t172.5 38h135l6 42q11 72 -17.5 108t-103.5 36q-122 0 -151 -111h-53q18 80 76 118t130 38q95 0 141 -49.5t31 -143.5l-30 -188
q-14 -90 -11 -150q-18 -11 -23 -14t-22.5 -16t-24.5 -21.5t-14.5 -22.5t-7.5 -28q0 -40 48 -40q22 0 46 8l-6 -39q-29 -9 -51 -9zM207 35q68 0 116.5 37t58.5 101l14 86h-127q-91 0 -138.5 -26.5t-47.5 -95.5q0 -45 31 -73.5t93 -28.5z" />
    <glyph glyph-name="Cacute" unicode="&#x106;" horiz-adv-x="725" 
d="M377 -8q-145 0 -230 85.5t-85 231.5q0 113 46.5 207.5t133.5 151t198 56.5q107 0 181 -59t84 -165h-52q-15 86 -70.5 132.5t-144.5 46.5q-145 0 -231.5 -106.5t-86.5 -263.5q0 -128 67 -199.5t190 -71.5q93 0 160 50.5t96 141.5h53q-30 -111 -114 -174.5t-195 -63.5z
M420 771l74 122h68l-97 -122h-45z" />
    <glyph glyph-name="cacute" unicode="&#x107;" horiz-adv-x="547" 
d="M291 605l88 147h68l-112 -147h-44zM276 -8q-110 0 -173 65.5t-63 172.5q0 133 77.5 217t192.5 84q86 0 142.5 -46.5t61.5 -130.5h-51q-5 65 -46.5 98.5t-108.5 33.5q-95 0 -154 -71t-59 -185q0 -91 48 -142t134 -51q67 0 115 37t63 105h51q-18 -89 -80.5 -138t-149.5 -49
z" />
    <glyph glyph-name="Ccircumflex" unicode="&#x108;" horiz-adv-x="725" 
d="M311 771l125 122h50l93 -122h-40l-82 78l-103 -78h-43zM377 -8q-145 0 -230 85.5t-85 231.5q0 113 46.5 207.5t133.5 151t198 56.5q107 0 181 -59t84 -165h-52q-15 86 -70.5 132.5t-144.5 46.5q-145 0 -231.5 -106.5t-86.5 -263.5q0 -128 67 -199.5t190 -71.5
q93 0 160 50.5t96 141.5h53q-30 -111 -114 -174.5t-195 -63.5z" />
    <glyph glyph-name="ccircumflex" unicode="&#x109;" horiz-adv-x="547" 
d="M179 605l128 135h49l91 -135h-40l-81 91l-104 -91h-43zM276 -8q-110 0 -173 65.5t-63 172.5q0 133 77.5 217t192.5 84q86 0 142.5 -46.5t61.5 -130.5h-51q-5 65 -46.5 98.5t-108.5 33.5q-95 0 -154 -71t-59 -185q0 -91 48 -142t134 -51q67 0 115 37t63 105h51
q-18 -89 -80.5 -138t-149.5 -49z" />
    <glyph glyph-name="Cdotaccent" unicode="&#x10a;" horiz-adv-x="725" 
d="M377 -8q-145 0 -230 85.5t-85 231.5q0 113 46.5 207.5t133.5 151t198 56.5q107 0 181 -59t84 -165h-52q-15 86 -70.5 132.5t-144.5 46.5q-145 0 -231.5 -106.5t-86.5 -263.5q0 -128 67 -199.5t190 -71.5q93 0 160 50.5t96 141.5h53q-30 -111 -114 -174.5t-195 -63.5z
M446 787q-16 0 -27 11t-11 26t11 26.5t27 11.5t26.5 -11t10.5 -26t-11 -26.5t-26 -11.5z" />
    <glyph glyph-name="cdotaccent" unicode="&#x10b;" horiz-adv-x="547" 
d="M276 -8q-110 0 -173 65.5t-63 172.5q0 133 77.5 217t192.5 84q86 0 142.5 -46.5t61.5 -130.5h-51q-5 65 -46.5 98.5t-108.5 33.5q-95 0 -154 -71t-59 -185q0 -91 48 -142t134 -51q67 0 115 37t63 105h51q-18 -89 -80.5 -138t-149.5 -49zM329 635q-16 0 -27 11t-11 26
q0 16 11 27t27 11t26.5 -10.5t10.5 -26.5q0 -15 -11 -26.5t-26 -11.5z" />
    <glyph glyph-name="Ccaron" unicode="&#x10c;" horiz-adv-x="725" 
d="M594 893l-126 -122h-49l-94 122h40l82 -78l104 78h43zM377 -8q-145 0 -230 85.5t-85 231.5q0 113 46.5 207.5t133.5 151t198 56.5q107 0 181 -59t84 -165h-52q-15 86 -70.5 132.5t-144.5 46.5q-145 0 -231.5 -106.5t-86.5 -263.5q0 -128 67 -199.5t190 -71.5
q93 0 160 50.5t96 141.5h53q-30 -111 -114 -174.5t-195 -63.5z" />
    <glyph glyph-name="ccaron" unicode="&#x10d;" horiz-adv-x="547" 
d="M469 748l-128 -135h-50l-90 135h40l80 -91l105 91h43zM276 -8q-110 0 -173 65.5t-63 172.5q0 133 77.5 217t192.5 84q86 0 142.5 -46.5t61.5 -130.5h-51q-5 65 -46.5 98.5t-108.5 33.5q-95 0 -154 -71t-59 -185q0 -91 48 -142t134 -51q67 0 115 37t63 105h51
q-18 -89 -80.5 -138t-149.5 -49z" />
    <glyph glyph-name="Dcaron" unicode="&#x10e;" horiz-adv-x="688" 
d="M528 893l-126 -122h-49l-94 122h40l82 -78l104 78h43zM50 0l113 715h173q161 0 242 -83.5t82 -221.5q0 -184 -109.5 -297t-299.5 -113h-201zM113 46h136q165 0 259.5 96.5t94.5 267.5q0 116 -67 187.5t-202 71.5h-122z" />
    <glyph glyph-name="dcaron" unicode="&#x10f;" horiz-adv-x="606" 
d="M636 611l38 162h58l-56 -162h-40zM256 -8q-95 0 -156 63t-61 168q0 129 73.5 218.5t192.5 89.5q79 0 126 -42t62 -99l61 383h53l-96 -609q-15 -93 -15 -164h-51q0 54 9 117q-29 -56 -80.5 -90.5t-117.5 -34.5zM261 37q97 0 156.5 72.5t60.5 185.5q1 88 -47 139.5
t-124 51.5q-98 0 -155.5 -74t-57.5 -186q0 -88 46.5 -138.5t120.5 -50.5z" />
    <glyph glyph-name="Dcroat" unicode="&#x110;" horiz-adv-x="699" 
d="M39 337l7 44h75l53 334h173q161 0 242 -83.5t82 -221.5q0 -184 -109.5 -297t-300.5 -113h-200l53 337h-75zM124 46h136q165 0 259.5 96.5t94.5 267.5q0 117 -66.5 188t-202.5 71h-122l-46 -288h208l-7 -44h-208z" />
    <glyph glyph-name="dcroat" unicode="&#x111;" horiz-adv-x="606" 
d="M343 623l7 41h186l18 109h53l-17 -109h78l-7 -41h-78l-72 -459q-15 -93 -15 -164h-51q0 54 9 117q-29 -56 -80.5 -90.5t-117.5 -34.5q-95 0 -156 63t-61 168q0 129 73.5 218.5t192.5 89.5q79 0 126 -42t62 -99l37 233h-187zM307 486q-98 0 -155.5 -74t-57.5 -186
q0 -90 45.5 -139.5t121.5 -49.5q97 0 156.5 73t60.5 187q1 89 -46 139t-125 50z" />
    <glyph glyph-name="Emacron" unicode="&#x112;" horiz-adv-x="569" 
d="M50 0l113 715h406l-8 -46h-350l-44 -279h288l-7 -46h-288l-47 -298h374l-8 -46h-429zM248 791l7 42h248l-7 -42h-248z" />
    <glyph glyph-name="emacron" unicode="&#x113;" horiz-adv-x="542" 
d="M93 215q0 -86 42 -132t126 -46q128 0 169 109h53q-24 -75 -83.5 -114.5t-140.5 -39.5q-105 0 -163 61t-58 164q0 133 75 223.5t192 90.5q110 0 163.5 -69.5t34.5 -188.5l-2 -16h-406q-2 -14 -2 -42zM303 486q-77 0 -130.5 -49t-71.5 -137h353q10 89 -28 137.5t-123 48.5z
M201 647l6 42h243l-7 -42h-242z" />
    <glyph glyph-name="Ebreve" unicode="&#x114;" horiz-adv-x="569" 
d="M50 0l113 715h406l-8 -46h-350l-44 -279h288l-7 -46h-288l-47 -298h374l-8 -46h-429zM372 771q-53 0 -87 34t-34 88h44q2 -37 22 -57.5t55 -20.5q36 0 60 21t31 57h43q-6 -53 -45 -87.5t-89 -34.5z" />
    <glyph glyph-name="ebreve" unicode="&#x115;" horiz-adv-x="542" 
d="M93 215q0 -86 42 -132t126 -46q128 0 169 109h53q-24 -75 -83.5 -114.5t-140.5 -39.5q-105 0 -163 61t-58 164q0 133 75 223.5t192 90.5q110 0 163.5 -69.5t34.5 -188.5l-2 -16h-406q-2 -14 -2 -42zM303 486q-77 0 -130.5 -49t-71.5 -137h353q10 89 -28 137.5t-123 48.5z
M319 616q-52 0 -84.5 33.5t-32.5 87.5h44q2 -37 20.5 -57t52.5 -20q72 0 88 77h42q-6 -54 -43 -87.5t-87 -33.5z" />
    <glyph glyph-name="Edotaccent" unicode="&#x116;" horiz-adv-x="569" 
d="M373 787q-16 0 -27 11t-11 26t11 26.5t27 11.5t26.5 -11t10.5 -26t-11 -26.5t-26 -11.5zM50 0l113 715h406l-8 -46h-350l-44 -279h288l-7 -46h-288l-47 -298h374l-8 -46h-429z" />
    <glyph glyph-name="edotaccent" unicode="&#x117;" horiz-adv-x="542" 
d="M93 215q0 -86 42 -132t126 -46q128 0 169 109h53q-24 -75 -83.5 -114.5t-140.5 -39.5q-105 0 -163 61t-58 164q0 133 75 223.5t192 90.5q110 0 163.5 -69.5t34.5 -188.5l-2 -16h-406q-2 -14 -2 -42zM303 486q-77 0 -130.5 -49t-71.5 -137h353q10 89 -28 137.5t-123 48.5z
M325 635q-16 0 -27 11t-11 26q0 16 11 27t27 11t26.5 -10.5t10.5 -26.5q0 -15 -11 -26.5t-26 -11.5z" />
    <glyph glyph-name="Eogonek" unicode="&#x118;" horiz-adv-x="569" 
d="M50 0l113 715h406l-8 -46h-350l-44 -279h288l-7 -46h-288l-47 -298h373l-7 -46h-45q-19 -11 -31 -18.5t-29 -21t-26 -29.5t-9 -34q0 -39 48 -39q22 0 46 8l-6 -39q-29 -9 -51 -9q-41 0 -65 19t-24 53q0 60 88 110h-325z" />
    <glyph glyph-name="eogonek" unicode="&#x119;" horiz-adv-x="542" 
d="M305 -182q-41 0 -65 19.5t-23 55.5q0 52 84 102q-23 -3 -42 -3q-105 0 -163 61t-58 164q0 133 75 223.5t192 90.5q110 0 163.5 -69.5t34.5 -188.5l-2 -16h-406q-2 -14 -2 -42q0 -86 42 -132t126 -46q128 0 169 109h53q-21 -63 -66 -101q-17 -15 -61 -45t-65.5 -52.5
t-21.5 -49.5q0 -40 47 -40q21 0 47 8l-6 -39q-29 -9 -52 -9zM303 486q-76 0 -130 -50t-72 -136h353q10 89 -28 137.5t-123 48.5z" />
    <glyph glyph-name="Ecaron" unicode="&#x11a;" horiz-adv-x="569" 
d="M515 893l-126 -122h-49l-94 122h40l82 -78l104 78h43zM50 0l113 715h406l-8 -46h-350l-44 -279h288l-7 -46h-288l-47 -298h374l-8 -46h-429z" />
    <glyph glyph-name="ecaron" unicode="&#x11b;" horiz-adv-x="542" 
d="M93 215q0 -86 42 -132t126 -46q128 0 169 109h53q-24 -75 -83.5 -114.5t-140.5 -39.5q-105 0 -163 61t-58 164q0 133 75 223.5t192 90.5q110 0 163.5 -69.5t34.5 -188.5l-2 -16h-406q-2 -14 -2 -42zM303 486q-77 0 -130.5 -49t-71.5 -137h353q10 89 -28 137.5t-123 48.5z
M466 748l-128 -135h-50l-90 135h40l80 -91l105 91h43z" />
    <glyph glyph-name="Gcircumflex" unicode="&#x11c;" horiz-adv-x="758" 
d="M309 771l125 122h50l93 -122h-40l-82 78l-103 -78h-43zM389 -8q-152 0 -238.5 90.5t-86.5 232.5q0 170 105.5 289t267.5 119q110 0 187 -54.5t88 -157.5h-55q-10 82 -70.5 124.5t-150.5 42.5q-141 0 -228 -104.5t-87 -258.5q0 -124 70.5 -200.5t198.5 -76.5
q115 0 184 68.5t86 195.5h-225l8 47h277q-15 -182 -101 -269.5t-230 -87.5z" />
    <glyph glyph-name="gcircumflex" unicode="&#x11d;" horiz-adv-x="610" 
d="M198 605l128 135h49l91 -135h-40l-81 91l-104 -91h-43zM264 62q93 0 155.5 72t62.5 179q0 78 -46.5 125.5t-125.5 47.5q-94 1 -152.5 -70t-58.5 -174q0 -80 43.5 -130t121.5 -50zM570 523l-79 -502q-16 -104 -81 -156.5t-170 -52.5q-102 0 -160 43.5t-67 114.5h53
q9 -53 53 -83t119 -30q173 0 200 168l18 110q-69 -117 -197 -117q-97 0 -156 61.5t-59 160.5q0 122 74.5 206.5t189.5 84.5q75 0 123.5 -37t66.5 -95l19 124h53z" />
    <glyph glyph-name="Gbreve" unicode="&#x11e;" horiz-adv-x="758" 
d="M445 771q-53 0 -87 34t-34 88h44q2 -37 22 -57.5t55 -20.5q36 0 60 21t31 57h43q-6 -53 -45 -87.5t-89 -34.5zM389 -8q-152 0 -238.5 90.5t-86.5 232.5q0 170 105.5 289t267.5 119q110 0 187 -54.5t88 -157.5h-55q-10 82 -70.5 124.5t-150.5 42.5q-141 0 -228 -104.5
t-87 -258.5q0 -124 70.5 -200.5t198.5 -76.5q115 0 184 68.5t86 195.5h-225l8 47h277q-15 -182 -101 -269.5t-230 -87.5z" />
    <glyph glyph-name="gbreve" unicode="&#x11f;" horiz-adv-x="610" 
d="M264 62q93 0 155.5 72t62.5 179q0 78 -46.5 125.5t-125.5 47.5q-94 1 -152.5 -70t-58.5 -174q0 -80 43.5 -130t121.5 -50zM570 523l-79 -502q-16 -104 -81 -156.5t-170 -52.5q-102 0 -160 43.5t-67 114.5h53q9 -53 53 -83t119 -30q173 0 200 168l18 110
q-69 -117 -197 -117q-97 0 -156 61.5t-59 160.5q0 122 74.5 206.5t189.5 84.5q75 0 123.5 -37t66.5 -95l19 124h53zM340 616q-52 0 -84.5 33.5t-32.5 87.5h44q2 -37 20.5 -57t52.5 -20q72 0 88 77h42q-6 -54 -43 -87.5t-87 -33.5z" />
    <glyph glyph-name="Gdotaccent" unicode="&#x120;" horiz-adv-x="758" 
d="M450 787q-16 0 -27 11t-11 26t11 26.5t27 11.5t26.5 -11t10.5 -26t-11 -26.5t-26 -11.5zM389 -8q-152 0 -238.5 90.5t-86.5 232.5q0 170 105.5 289t267.5 119q110 0 187 -54.5t88 -157.5h-55q-10 82 -70.5 124.5t-150.5 42.5q-141 0 -228 -104.5t-87 -258.5
q0 -124 70.5 -200.5t198.5 -76.5q115 0 184 68.5t86 195.5h-225l8 47h277q-15 -182 -101 -269.5t-230 -87.5z" />
    <glyph glyph-name="gdotaccent" unicode="&#x121;" horiz-adv-x="610" 
d="M264 62q93 0 155.5 72t62.5 179q0 78 -46.5 125.5t-125.5 47.5q-94 1 -152.5 -70t-58.5 -174q0 -80 43.5 -130t121.5 -50zM570 523l-79 -502q-16 -104 -81 -156.5t-170 -52.5q-102 0 -160 43.5t-67 114.5h53q9 -53 53 -83t119 -30q173 0 200 168l18 110
q-69 -117 -197 -117q-97 0 -156 61.5t-59 160.5q0 122 74.5 206.5t189.5 84.5q75 0 123.5 -37t66.5 -95l19 124h53zM349 635q-16 0 -27 11t-11 26q0 16 11 27t27 11t26.5 -10.5t10.5 -26.5q0 -15 -11 -26.5t-26 -11.5z" />
    <glyph glyph-name="Gcommaaccent" unicode="&#x122;" horiz-adv-x="758" 
d="M275 -204l-33 17l69 146l51 -15zM389 -8q-152 0 -238.5 90.5t-86.5 232.5q0 170 105.5 289t267.5 119q110 0 187 -54.5t88 -157.5h-55q-10 82 -70.5 124.5t-150.5 42.5q-141 0 -228 -104.5t-87 -258.5q0 -124 70.5 -200.5t198.5 -76.5q115 0 184 68.5t86 195.5h-225l8 47
h277q-15 -182 -101 -269.5t-230 -87.5z" />
    <glyph glyph-name="gcommaaccent" unicode="&#x123;" horiz-adv-x="610" 
d="M382 770l33 -17l-70 -146l-51 15zM264 62q93 0 155.5 72t62.5 179q0 78 -46.5 125.5t-125.5 47.5q-94 1 -152.5 -70t-58.5 -174q0 -80 43.5 -130t121.5 -50zM570 523l-79 -502q-16 -104 -81 -156.5t-170 -52.5q-102 0 -160 43.5t-67 114.5h53q9 -53 53 -83t119 -30
q173 0 200 168l18 110q-69 -117 -197 -117q-97 0 -156 61.5t-59 160.5q0 122 74.5 206.5t189.5 84.5q75 0 123.5 -37t66.5 -95l19 124h53z" />
    <glyph glyph-name="Hcircumflex" unicode="&#x124;" horiz-adv-x="717" 
d="M50 0l113 715h56l-53 -333h421l53 333h56l-113 -715h-56l53 335h-421l-53 -335h-56zM298 771l125 122h50l93 -122h-40l-82 78l-103 -78h-43z" />
    <glyph glyph-name="hcircumflex" unicode="&#x125;" horiz-adv-x="577" 
d="M40 0l122 773h53l-56 -357q27 49 77 82t114 33q88 0 131 -54.5t26 -164.5l-50 -312h-53l51 322q13 81 -17.5 122t-97.5 41q-72 0 -128.5 -47t-69.5 -128l-49 -310h-53zM231 816l125 122h50l93 -122h-40l-82 78l-103 -78h-43z" />
    <glyph glyph-name="Hbar" unicode="&#x126;" horiz-adv-x="717" 
d="M51 510l7 44h79l26 161h56l-26 -161h421l26 161h56l-26 -161h80l-7 -44h-80l-80 -510h-56l53 335h-421l-53 -335h-56l80 510h-79zM166 382h421l20 128h-421z" />
    <glyph glyph-name="hbar" unicode="&#x127;" horiz-adv-x="577" 
d="M60 623l7 41h78l17 109h53l-17 -109h186l-7 -41h-186l-32 -207q27 49 77 82t114 33q88 0 131 -54.5t26 -164.5l-50 -312h-53l51 322q26 163 -115 163q-72 0 -128.5 -47t-69.5 -128l-49 -310h-53l98 623h-78z" />
    <glyph glyph-name="Itilde" unicode="&#x128;" horiz-adv-x="251" 
d="M55 0l113 715h56l-113 -715h-56zM272 774q-26 0 -66 26.5t-56 26.5q-17 0 -31.5 -14.5t-20.5 -39.5h-40q9 48 33.5 73.5t59.5 25.5q25 0 65 -26t57 -26t31 14t20 39h40q-10 -47 -34.5 -73t-57.5 -26z" />
    <glyph glyph-name="itilde" unicode="&#x129;" horiz-adv-x="221" 
d="M42 0l83 523h53l-83 -523h-53zM231 616q-26 0 -66 26.5t-56 26.5q-17 0 -31.5 -14t-20.5 -39h-40q9 47 34 73t59 26q25 0 65 -26.5t57 -26.5t31 14t20 39h40q-10 -47 -34.5 -73t-57.5 -26z" />
    <glyph glyph-name="Imacron" unicode="&#x12a;" horiz-adv-x="251" 
d="M55 0l113 715h56l-113 -715h-56zM85 791l7 42h248l-7 -42h-248z" />
    <glyph glyph-name="imacron" unicode="&#x12b;" horiz-adv-x="221" 
d="M84 647l7 42h174l-7 -42h-174zM42 0l83 523h53l-83 -523h-53z" />
    <glyph glyph-name="Ibreve" unicode="&#x12c;" horiz-adv-x="251" 
d="M55 0l113 715h56l-113 -715h-56zM206 771q-53 0 -87 34t-34 88h44q2 -37 22 -57.5t55 -20.5q36 0 60 21t31 57h43q-6 -53 -45 -87.5t-89 -34.5z" />
    <glyph glyph-name="ibreve" unicode="&#x12d;" horiz-adv-x="221" 
d="M42 0l83 523h53l-83 -523h-53zM167 616q-52 0 -84.5 33.5t-32.5 87.5h44q2 -37 20.5 -57t52.5 -20q72 0 88 77h42q-6 -54 -43 -87.5t-87 -33.5z" />
    <glyph glyph-name="Iogonek" unicode="&#x12e;" horiz-adv-x="251" 
d="M61 -182q-41 0 -65 19.5t-23 55.5q0 58 82 107l113 715h56l-112 -712q-25 -17 -39.5 -28.5t-31 -33.5t-16.5 -43q0 -40 47 -40q21 0 47 8l-7 -39q-27 -9 -51 -9z" />
    <glyph glyph-name="iogonek" unicode="&#x12f;" horiz-adv-x="221" 
d="M43 2l82 521h53l-82 -520q-27 -19 -39 -28.5t-28.5 -32t-16.5 -44.5q0 -40 46 -40q21 0 47 8l-6 -39q-29 -9 -52 -9q-39 0 -63 19.5t-24 55.5q0 58 83 109zM173 635q-16 0 -26.5 11t-10.5 26q0 16 11 27t27 11q15 0 26 -10.5t11 -26.5q0 -15 -11 -26.5t-27 -11.5z" />
    <glyph glyph-name="Idotaccent" unicode="&#x130;" horiz-adv-x="251" 
d="M55 0l113 715h56l-113 -715h-56zM211 787q-16 0 -27 11t-11 26t11 26.5t27 11.5t26.5 -11t10.5 -26t-11 -26.5t-26 -11.5z" />
    <glyph glyph-name="dotlessi" unicode="&#x131;" horiz-adv-x="221" 
d="M42 0l83 523h53l-83 -523h-53z" />
    <glyph glyph-name="IJ" unicode="&#x132;" horiz-adv-x="616" 
d="M33 0l113 715h56l-113 -715h-56zM305 -7q-72 0 -115 28l7 46q50 -28 107 -28q116 0 137 133l85 543h56l-87 -548q-27 -174 -190 -174z" />
    <glyph glyph-name="ij" unicode="&#x133;" horiz-adv-x="443" 
d="M173 635q-16 0 -26.5 11t-10.5 26q0 16 11 27t27 11q15 0 26 -10.5t11 -26.5q0 -15 -11 -26.5t-27 -11.5zM42 0l83 523h53l-83 -523h-53zM157 -187l7 44q43 2 63 22.5t27 63.5l92 580h53l-92 -583q-11 -65 -46 -95.5t-104 -31.5zM394 635q-16 0 -26.5 11t-10.5 26
q0 16 11 27t27 11q15 0 26 -10.5t11 -26.5q0 -15 -11 -26.5t-27 -11.5z" />
    <glyph glyph-name="Jcircumflex" unicode="&#x134;" horiz-adv-x="401" 
d="M231 771l125 122h50l93 -122h-40l-82 78l-103 -78h-43zM113 -7q-72 0 -115 28l7 46q50 -28 107 -28q116 0 137 133l85 543h56l-87 -548q-27 -174 -190 -174z" />
    <glyph glyph-name="jcircumflex" unicode="&#x135;" horiz-adv-x="221" 
d="M-64 -187l7 44q43 2 63 22.5t27 63.5l92 580h53l-92 -583q-11 -65 -46 -95.5t-104 -31.5zM24 605l128 135h49l91 -135h-40l-81 91l-104 -91h-43z" />
    <glyph glyph-name="Kcommaaccent" unicode="&#x136;" horiz-adv-x="599" 
d="M215 -204l-33 17l69 146l51 -15zM532 0h-63l-304 367l398 348h66l-399 -346zM50 0l113 715h56l-113 -715h-56z" />
    <glyph glyph-name="kcommaaccent" unicode="&#x137;" horiz-adv-x="484" 
d="M40 0l122 773h53l-77 -488l286 238h68l-292 -241l225 -282h-62l-226 283l-44 -283h-53zM156 -204l-33 17l69 146l51 -15z" />
    <glyph glyph-name="Lacute" unicode="&#x139;" horiz-adv-x="530" 
d="M174 771l74 122h68l-97 -122h-45zM50 0l113 715h56l-106 -669h348l-8 -46h-403z" />
    <glyph glyph-name="lacute" unicode="&#x13a;" horiz-adv-x="222" 
d="M175 816l74 122h68l-97 -122h-45zM42 0l122 773h54l-122 -773h-54z" />
    <glyph glyph-name="Lcommaaccent" unicode="&#x13b;" horiz-adv-x="530" 
d="M184 -204l-33 17l69 146l51 -15zM50 0l113 715h56l-106 -669h348l-8 -46h-403z" />
    <glyph glyph-name="lcommaaccent" unicode="&#x13c;" horiz-adv-x="222" 
d="M5 -204l-33 17l69 146l51 -15zM42 0l122 773h54l-122 -773h-54z" />
    <glyph glyph-name="Lcaron" unicode="&#x13d;" horiz-adv-x="530" 
d="M376 558l45 157h60l-65 -157h-40zM50 0l113 715h56l-106 -669h348l-8 -46h-403z" />
    <glyph glyph-name="lcaron" unicode="&#x13e;" horiz-adv-x="222" 
d="M247 611l38 162h58l-56 -162h-40zM42 0l122 773h54l-122 -773h-54z" />
    <glyph glyph-name="Ldot" unicode="&#x13f;" horiz-adv-x="530" 
d="M50 0l113 715h56l-106 -669h348l-8 -46h-403zM443 333q-18 0 -30.5 12.5t-12.5 30.5q0 17 12.5 29.5t29.5 12.5q18 0 30.5 -12.5t12.5 -29.5q0 -18 -12.5 -30.5t-29.5 -12.5z" />
    <glyph glyph-name="ldot" unicode="&#x140;" horiz-adv-x="279" 
d="M42 0l122 773h54l-122 -773h-54zM266 330q-18 0 -30.5 12.5t-12.5 30.5q0 17 12.5 29.5t29.5 12.5q18 0 30.5 -12.5t12.5 -29.5q0 -18 -12.5 -30.5t-29.5 -12.5z" />
    <glyph glyph-name="Lslash" unicode="&#x141;" horiz-adv-x="545" 
d="M33 257l7 47l77 27l61 384h56l-58 -364l236 83l-7 -47l-236 -83l-41 -258h347l-7 -46h-403l45 284z" />
    <glyph glyph-name="lslash" unicode="&#x142;" horiz-adv-x="244" 
d="M28 331l8 49l84 47l55 346h54l-49 -312l88 50l-8 -49l-88 -50l-65 -412h-54l60 379z" />
    <glyph glyph-name="Nacute" unicode="&#x143;" horiz-adv-x="713" 
d="M419 771l74 122h68l-97 -122h-45zM50 0l113 715h74l300 -638l102 638h53l-113 -715h-64l-308 653l-103 -653h-54z" />
    <glyph glyph-name="nacute" unicode="&#x144;" horiz-adv-x="577" 
d="M307 605l88 147h68l-112 -147h-44zM40 0l60 377q12 77 14 146h50q0 -50 -9 -113q29 53 79.5 87t115.5 34q88 0 131 -54.5t26 -164.5l-50 -312h-53l51 322q13 81 -17.5 122t-97.5 41q-72 0 -128.5 -47t-69.5 -128l-49 -310h-53z" />
    <glyph glyph-name="Ncommaaccent" unicode="&#x145;" horiz-adv-x="713" 
d="M255 -204l-33 17l69 146l51 -15zM50 0l113 715h74l300 -638l102 638h53l-113 -715h-64l-308 653l-103 -653h-54z" />
    <glyph glyph-name="ncommaaccent" unicode="&#x146;" horiz-adv-x="577" 
d="M184 -204l-33 17l69 146l51 -15zM40 0l60 377q12 77 14 146h50q0 -50 -9 -113q29 53 79.5 87t115.5 34q88 0 131 -54.5t26 -164.5l-50 -312h-53l51 322q13 81 -17.5 122t-97.5 41q-72 0 -128.5 -47t-69.5 -128l-49 -310h-53z" />
    <glyph glyph-name="Ncaron" unicode="&#x147;" horiz-adv-x="713" 
d="M593 893l-126 -122h-49l-94 122h40l82 -78l104 78h43zM50 0l113 715h74l300 -638l102 638h53l-113 -715h-64l-308 653l-103 -653h-54z" />
    <glyph glyph-name="ncaron" unicode="&#x148;" horiz-adv-x="577" 
d="M485 748l-128 -135h-50l-90 135h40l80 -91l105 91h43zM40 0l60 377q12 77 14 146h50q0 -50 -9 -113q29 53 79.5 87t115.5 34q88 0 131 -54.5t26 -164.5l-50 -312h-53l51 322q13 81 -17.5 122t-97.5 41q-72 0 -128.5 -47t-69.5 -128l-49 -310h-53z" />
    <glyph glyph-name="napostrophe" unicode="&#x149;" horiz-adv-x="587" 
d="M44 528l-32 17l86 177l50 -23zM50 0l60 377q12 77 14 146h50q0 -50 -9 -113q29 53 79.5 87t115.5 34q88 0 131 -54.5t26 -164.5l-50 -312h-53l51 322q13 81 -17.5 122t-97.5 41q-72 0 -128.5 -47t-69.5 -128l-49 -310h-53z" />
    <glyph glyph-name="Eng" unicode="&#x14a;" horiz-adv-x="713" 
d="M374 -144q61 0 98 31.5t50 103.5l-315 662l-103 -653h-54l113 715h75l301 -628l100 628h53l-113 -713q-30 -192 -200 -192q-63 0 -107 22l8 46q42 -22 94 -22z" />
    <glyph glyph-name="eng" unicode="&#x14b;" horiz-adv-x="577" 
d="M40 0l60 377q12 77 14 146h50q0 -50 -9 -113q29 53 79.5 87t115.5 34q88 0 131 -54.5t26 -164.5l-57 -357q-12 -73 -47 -106t-112 -37l7 45q48 4 69.5 25.5t30.5 76.5l57 363q13 81 -17.5 122t-97.5 41q-72 0 -128.5 -47t-69.5 -128l-49 -310h-53z" />
    <glyph glyph-name="Omacron" unicode="&#x14c;" horiz-adv-x="797" 
d="M344 791l7 42h248l-7 -42h-248zM763 396q0 -169 -107 -286.5t-268 -117.5q-148 0 -237 93t-89 236q0 166 109 284t271 118q146 0 233.5 -93.5t87.5 -233.5zM706 396q0 120 -71 200.5t-194 80.5q-142 0 -231 -104t-90 -252q-2 -125 72 -203.5t197 -78.5q139 0 228 103
t89 254z" />
    <glyph glyph-name="omacron" unicode="&#x14d;" horiz-adv-x="579" 
d="M215 647l6 42h243l-7 -42h-242zM267 -8q-103 0 -166 67t-63 168q0 127 77 215t197 88q105 0 167 -66.5t62 -166.5q0 -132 -76 -218.5t-198 -86.5zM269 37q99 0 158 73t59 186q0 83 -46.5 136.5t-129.5 53.5q-99 0 -158.5 -74.5t-59.5 -184.5q0 -83 47 -136.5t130 -53.5z
" />
    <glyph glyph-name="Obreve" unicode="&#x14e;" horiz-adv-x="797" 
d="M464 771q-53 0 -87 34t-34 88h44q2 -37 22 -57.5t55 -20.5q36 0 60 21t31 57h43q-6 -53 -45 -87.5t-89 -34.5zM763 396q0 -169 -107 -286.5t-268 -117.5q-148 0 -237 93t-89 236q0 166 109 284t271 118q146 0 233.5 -93.5t87.5 -233.5zM706 396q0 120 -71 200.5
t-194 80.5q-142 0 -231 -104t-90 -252q-2 -125 72 -203.5t197 -78.5q139 0 228 103t89 254z" />
    <glyph glyph-name="obreve" unicode="&#x14f;" horiz-adv-x="579" 
d="M267 -8q-103 0 -166 67t-63 168q0 127 77 215t197 88q105 0 167 -66.5t62 -166.5q0 -132 -76 -218.5t-198 -86.5zM269 37q99 0 158 73t59 186q0 83 -46.5 136.5t-129.5 53.5q-99 0 -158.5 -74.5t-59.5 -184.5q0 -83 47 -136.5t130 -53.5zM333 616q-52 0 -84.5 33.5
t-32.5 87.5h44q2 -37 20.5 -57t52.5 -20q72 0 88 77h42q-6 -54 -43 -87.5t-87 -33.5z" />
    <glyph glyph-name="Ohungarumlaut" unicode="&#x150;" horiz-adv-x="797" 
d="M369 771l54 122h61l-75 -122h-40zM501 771l54 122h61l-75 -122h-40zM763 396q0 -169 -107 -286.5t-268 -117.5q-148 0 -237 93t-89 236q0 166 109 284t271 118q146 0 233.5 -93.5t87.5 -233.5zM706 396q0 120 -71 200.5t-194 80.5q-142 0 -231 -104t-90 -252
q-2 -125 72 -203.5t197 -78.5q139 0 228 103t89 254z" />
    <glyph glyph-name="ohungarumlaut" unicode="&#x151;" horiz-adv-x="579" 
d="M245 605l66 147h61l-86 -147h-41zM376 605l67 147h61l-86 -147h-42zM267 -8q-103 0 -166 67t-63 168q0 127 77 215t197 88q105 0 167 -66.5t62 -166.5q0 -132 -76 -218.5t-198 -86.5zM269 37q99 0 158 73t59 186q0 83 -46.5 136.5t-129.5 53.5q-99 0 -158.5 -74.5
t-59.5 -184.5q0 -83 47 -136.5t130 -53.5z" />
    <glyph glyph-name="OE" unicode="&#x152;" horiz-adv-x="958" 
d="M871 0h-482q-162 0 -244 83.5t-83 221.5q0 185 110 297.5t301 112.5h488l-8 -46h-335l-44 -279h273l-7 -46h-272l-48 -298h358zM563 669h-89q-166 0 -260.5 -96.5t-94.5 -266.5q0 -117 68 -188.5t204 -71.5h73z" />
    <glyph glyph-name="oe" unicode="&#x153;" horiz-adv-x="986" 
d="M536 215q0 -86 42 -132t126 -46q129 0 170 109h53q-24 -75 -83.5 -114.5t-141.5 -39.5q-165 0 -204 145q-33 -68 -93 -106.5t-138 -38.5q-103 0 -166 67t-63 168q0 127 77 215t197 88q80 0 134.5 -41.5t75.5 -111.5q33 71 91.5 112.5t135.5 41.5q110 0 163.5 -69.5
t34.5 -188.5l-3 -16h-406q-2 -14 -2 -42zM269 37q99 0 158 73t59 186q0 83 -46.5 136.5t-129.5 53.5q-99 0 -158.5 -74.5t-59.5 -184.5q0 -83 47 -136.5t130 -53.5zM746 486q-76 0 -130 -49.5t-72 -136.5h354q9 89 -29 137.5t-123 48.5z" />
    <glyph glyph-name="Racute" unicode="&#x154;" horiz-adv-x="606" 
d="M328 771l74 122h68l-97 -122h-45zM50 0l113 715h186q101 0 160 -45t58 -131q0 -96 -57.5 -147.5t-154.5 -61.5l179 -330h-60l-176 326h-141l-51 -326h-56zM164 371h144q204 0 204 168q1 67 -42 98.5t-123 31.5h-136z" />
    <glyph glyph-name="racute" unicode="&#x155;" horiz-adv-x="347" 
d="M216 605l88 147h68l-112 -147h-44zM40 0l60 377q12 77 14 146h50q0 -48 -9 -117q31 58 77.5 90t120.5 34l-8 -50q-177 -7 -207 -198l-45 -282h-53z" />
    <glyph glyph-name="Rcommaaccent" unicode="&#x156;" horiz-adv-x="606" 
d="M216 -204l-33 17l69 146l51 -15zM50 0l113 715h186q101 0 160 -45t58 -131q0 -96 -57.5 -147.5t-154.5 -61.5l179 -330h-60l-176 326h-141l-51 -326h-56zM164 371h144q204 0 204 168q1 67 -42 98.5t-123 31.5h-136z" />
    <glyph glyph-name="rcommaaccent" unicode="&#x157;" horiz-adv-x="347" 
d="M0 -204l-33 17l69 146l51 -15zM40 0l60 377q12 77 14 146h50q0 -48 -9 -117q31 58 77.5 90t120.5 34l-8 -50q-177 -7 -207 -198l-45 -282h-53z" />
    <glyph glyph-name="Rcaron" unicode="&#x158;" horiz-adv-x="606" 
d="M499 893l-126 -122h-49l-94 122h40l82 -78l104 78h43zM50 0l113 715h186q101 0 160 -45t58 -131q0 -96 -57.5 -147.5t-154.5 -61.5l179 -330h-60l-176 326h-141l-51 -326h-56zM164 371h144q204 0 204 168q1 67 -42 98.5t-123 31.5h-136z" />
    <glyph glyph-name="rcaron" unicode="&#x159;" horiz-adv-x="347" 
d="M393 748l-128 -135h-50l-90 135h40l80 -91l105 91h43zM40 0l60 377q12 77 14 146h50q0 -48 -9 -117q31 58 77.5 90t120.5 34l-8 -50q-177 -7 -207 -198l-45 -282h-53z" />
    <glyph glyph-name="Sacute" unicode="&#x15a;" 
d="M284 -8q-116 0 -184.5 58t-71.5 155h54q6 -77 58 -122t147 -45q88 -1 140.5 43.5t52.5 121.5q0 58 -37.5 89t-134.5 58q-107 31 -154 70.5t-47 109.5q0 86 63.5 139.5t166.5 53.5q99 0 158 -46.5t64 -133.5h-52q-16 134 -174 134q-82 0 -127.5 -38.5t-45.5 -106.5
q0 -49 36.5 -78t131.5 -56q111 -32 159 -73t48 -117q0 -97 -69.5 -156.5t-181.5 -59.5zM330 771l74 122h68l-97 -122h-45z" />
    <glyph glyph-name="sacute" unicode="&#x15b;" horiz-adv-x="463" 
d="M240 605l88 147h68l-112 -147h-44zM216 -9q-93 0 -144 44.5t-53 120.5h52q8 -120 146 -120q61 0 97 27.5t36 78.5q0 40 -27 62.5t-94 40.5q-85 23 -121 54.5t-36 87.5q0 68 51 106t125 38q77 0 124.5 -34.5t53.5 -107.5h-51q-4 47 -37 72t-91 25q-57 0 -90.5 -25
t-33.5 -71q0 -38 26.5 -58.5t95.5 -39.5q83 -22 120 -53t37 -95q0 -71 -52 -112t-134 -41z" />
    <glyph glyph-name="Scircumflex" unicode="&#x15c;" 
d="M221 771l125 122h50l93 -122h-40l-82 78l-103 -78h-43zM284 -8q-116 0 -184.5 58t-71.5 155h54q6 -77 58 -122t147 -45q88 -1 140.5 43.5t52.5 121.5q0 58 -37.5 89t-134.5 58q-107 31 -154 70.5t-47 109.5q0 86 63.5 139.5t166.5 53.5q99 0 158 -46.5t64 -133.5h-52
q-16 134 -174 134q-82 0 -127.5 -38.5t-45.5 -106.5q0 -49 36.5 -78t131.5 -56q111 -32 159 -73t48 -117q0 -97 -69.5 -156.5t-181.5 -59.5z" />
    <glyph glyph-name="scircumflex" unicode="&#x15d;" horiz-adv-x="463" 
d="M128 605l128 135h49l91 -135h-40l-81 91l-104 -91h-43zM216 -9q-93 0 -144 44.5t-53 120.5h52q8 -120 146 -120q61 0 97 27.5t36 78.5q0 40 -27 62.5t-94 40.5q-85 23 -121 54.5t-36 87.5q0 68 51 106t125 38q77 0 124.5 -34.5t53.5 -107.5h-51q-4 47 -37 72t-91 25
q-57 0 -90.5 -25t-33.5 -71q0 -38 26.5 -58.5t95.5 -39.5q83 -22 120 -53t37 -95q0 -71 -52 -112t-134 -41z" />
    <glyph glyph-name="Scedilla" unicode="&#x15e;" 
d="M220 -212q-40 0 -65.5 20t-29.5 58h44q2 -19 15.5 -30.5t35.5 -11.5q21 0 35.5 11.5t14.5 35.5q0 36 -42 36q-17 0 -33 -9l-20 22l53 76q-92 13 -145 68.5t-55 140.5h54q6 -77 58 -122t147 -45q88 -1 140.5 43.5t52.5 121.5q0 58 -37.5 89t-134.5 58q-107 31 -154 70.5
t-47 109.5q0 86 63.5 139.5t166.5 53.5q99 0 158 -46.5t64 -133.5h-52q-16 134 -174 134q-82 0 -127.5 -38.5t-45.5 -106.5q0 -49 36.5 -78t131.5 -56q111 -32 159 -73t48 -117q0 -97 -69.5 -156.5t-181.5 -59.5h-17l-37 -51q34 7 61 -12t27 -56q0 -40 -27 -62.5t-71 -22.5z
" />
    <glyph glyph-name="scedilla" unicode="&#x15f;" horiz-adv-x="463" 
d="M161 -212q-40 0 -65.5 20t-29.5 58h44q2 -19 15.5 -30.5t35.5 -11.5q21 0 35.5 11.5t14.5 35.5q0 36 -42 36q-17 0 -33 -9l-20 22l52 75q-71 10 -109 52.5t-40 108.5h52q8 -120 146 -120q61 0 97 27.5t36 78.5q0 40 -27 62.5t-94 40.5q-85 23 -121 54.5t-36 87.5
q0 68 51 106t125 38q77 0 124.5 -34.5t53.5 -107.5h-51q-4 47 -37 72t-91 25q-57 0 -90.5 -25t-33.5 -71q0 -38 26.5 -58.5t95.5 -39.5q83 -22 120 -53t37 -95q0 -71 -52 -112t-134 -41h-9l-36 -50q34 7 61 -12t27 -56q0 -40 -26.5 -62.5t-71.5 -22.5z" />
    <glyph glyph-name="Scaron" unicode="&#x160;" 
d="M499 893l-126 -122h-49l-94 122h40l82 -78l104 78h43zM284 -8q-116 0 -184.5 58t-71.5 155h54q6 -77 58 -122t147 -45q88 -1 140.5 43.5t52.5 121.5q0 58 -37.5 89t-134.5 58q-107 31 -154 70.5t-47 109.5q0 86 63.5 139.5t166.5 53.5q99 0 158 -46.5t64 -133.5h-52
q-16 134 -174 134q-82 0 -127.5 -38.5t-45.5 -106.5q0 -49 36.5 -78t131.5 -56q111 -32 159 -73t48 -117q0 -97 -69.5 -156.5t-181.5 -59.5z" />
    <glyph glyph-name="scaron" unicode="&#x161;" horiz-adv-x="463" 
d="M420 748l-128 -135h-50l-90 135h40l80 -91l105 91h43zM216 -9q-93 0 -144 44.5t-53 120.5h52q8 -120 146 -120q61 0 97 27.5t36 78.5q0 40 -27 62.5t-94 40.5q-85 23 -121 54.5t-36 87.5q0 68 51 106t125 38q77 0 124.5 -34.5t53.5 -107.5h-51q-4 47 -37 72t-91 25
q-57 0 -90.5 -25t-33.5 -71q0 -38 26.5 -58.5t95.5 -39.5q83 -22 120 -53t37 -95q0 -71 -52 -112t-134 -41z" />
    <glyph glyph-name="Tcommaaccent" unicode="&#x162;" horiz-adv-x="559" 
d="M172 -204l-33 17l69 146l51 -15zM208 0l105 669h-221l7 46h500l-8 -46h-222l-105 -669h-56z" />
    <glyph glyph-name="tcommaaccent" unicode="&#x163;" horiz-adv-x="332" 
d="M84 -204l-33 17l69 146l51 -15zM191 -7q-65 0 -94 38t-19 105l54 342h-77l7 45h77l19 119h53l-19 -119h136l-7 -45h-135l-55 -344q-15 -96 67 -96q31 0 64 12l-7 -45q-25 -12 -64 -12z" />
    <glyph glyph-name="Tcaron" unicode="&#x164;" horiz-adv-x="559" 
d="M503 893l-126 -122h-49l-94 122h40l82 -78l104 78h43zM208 0l105 669h-221l7 46h500l-8 -46h-222l-105 -669h-56z" />
    <glyph glyph-name="tcaron" unicode="&#x165;" horiz-adv-x="332" 
d="M298 611l38 162h58l-56 -162h-40zM191 -7q-65 0 -94 38t-19 105l54 342h-77l7 45h77l19 119h53l-19 -119h136l-7 -45h-135l-55 -344q-15 -96 67 -96q31 0 64 12l-7 -45q-25 -12 -64 -12z" />
    <glyph glyph-name="Tbar" unicode="&#x166;" horiz-adv-x="559" 
d="M116 365l6 43h150l41 261h-221l7 46h500l-8 -46h-222l-41 -261h153l-7 -43h-153l-57 -365h-56l57 365h-149z" />
    <glyph glyph-name="tbar" unicode="&#x167;" horiz-adv-x="332" 
d="M28 302l6 39h76l22 137h-77l7 45h77l19 119h53l-19 -119h136l-7 -45h-135l-22 -137h135l-6 -39h-135l-27 -168q-15 -96 67 -96q31 0 64 12l-7 -45q-25 -12 -64 -12q-65 0 -94 38t-19 105l26 166h-76z" />
    <glyph glyph-name="Utilde" unicode="&#x168;" horiz-adv-x="682" 
d="M320 -7q-135 0 -197 72.5t-41 207.5l71 442h55l-70 -442q-36 -233 185 -233q96 0 149 50.5t70 159.5l74 465h56l-75 -472q-40 -250 -277 -250zM483 774q-26 0 -66 26.5t-56 26.5q-17 0 -31.5 -14.5t-20.5 -39.5h-40q9 48 33.5 73.5t59.5 25.5q25 0 65 -26t57 -26t31 14
t20 39h40q-10 -47 -34.5 -73t-57.5 -26z" />
    <glyph glyph-name="utilde" unicode="&#x169;" horiz-adv-x="573" 
d="M530 523l-59 -377q-14 -90 -12 -146h-51q-2 49 8 112q-29 -53 -79 -86.5t-115 -33.5q-87 0 -129.5 55.5t-25.5 163.5l50 312h53l-51 -322q-13 -80 17 -121.5t96 -41.5q72 0 127.5 47t68.5 128l49 310h53zM395 616q-26 0 -66 26.5t-56 26.5q-17 0 -31.5 -14t-20.5 -39h-40
q9 47 34 73t59 26q25 0 65 -26.5t57 -26.5t31 14t20 39h40q-10 -47 -34.5 -73t-57.5 -26z" />
    <glyph glyph-name="Umacron" unicode="&#x16a;" horiz-adv-x="682" 
d="M320 -7q-135 0 -197 72.5t-41 207.5l71 442h55l-70 -442q-36 -233 185 -233q96 0 149 50.5t70 159.5l74 465h56l-75 -472q-40 -250 -277 -250zM296 791l7 42h248l-7 -42h-248z" />
    <glyph glyph-name="umacron" unicode="&#x16b;" horiz-adv-x="573" 
d="M530 523l-59 -377q-14 -90 -12 -146h-51q-2 49 8 112q-29 -53 -79 -86.5t-115 -33.5q-87 0 -129.5 55.5t-25.5 163.5l50 312h53l-51 -322q-13 -80 17 -121.5t96 -41.5q72 0 127.5 47t68.5 128l49 310h53zM214 647l6 42h243l-7 -42h-242z" />
    <glyph glyph-name="Ubreve" unicode="&#x16c;" horiz-adv-x="682" 
d="M320 -7q-135 0 -197 72.5t-41 207.5l71 442h55l-70 -442q-36 -233 185 -233q96 0 149 50.5t70 159.5l74 465h56l-75 -472q-40 -250 -277 -250zM417 771q-53 0 -87 34t-34 88h44q2 -37 22 -57.5t55 -20.5q36 0 60 21t31 57h43q-6 -53 -45 -87.5t-89 -34.5z" />
    <glyph glyph-name="ubreve" unicode="&#x16d;" horiz-adv-x="573" 
d="M530 523l-59 -377q-14 -90 -12 -146h-51q-2 49 8 112q-29 -53 -79 -86.5t-115 -33.5q-87 0 -129.5 55.5t-25.5 163.5l50 312h53l-51 -322q-13 -80 17 -121.5t96 -41.5q72 0 127.5 47t68.5 128l49 310h53zM334 616q-52 0 -84.5 33.5t-32.5 87.5h44q2 -37 20.5 -57
t52.5 -20q72 0 88 77h42q-6 -54 -43 -87.5t-87 -33.5z" />
    <glyph glyph-name="Uring" unicode="&#x16e;" horiz-adv-x="682" 
d="M320 -7q-135 0 -197 72.5t-41 207.5l71 442h55l-70 -442q-36 -233 185 -233q96 0 149 50.5t70 159.5l74 465h56l-75 -472q-40 -250 -277 -250zM422 762q27 0 44.5 18.5t17.5 47.5q0 27 -16 44.5t-43 17.5q-26 0 -44.5 -19t-18.5 -47q0 -27 16.5 -44.5t43.5 -17.5z
M422 730q-41 0 -69 27.5t-28 66.5q0 40 29.5 68.5t70.5 28.5t68.5 -27t27.5 -66q0 -41 -29 -69.5t-70 -28.5z" />
    <glyph glyph-name="uring" unicode="&#x16f;" horiz-adv-x="573" 
d="M341 633q27 0 44.5 18.5t17.5 46.5q0 27 -16 44.5t-43 17.5q-26 0 -44.5 -19t-18.5 -47q0 -27 16.5 -44t43.5 -17zM341 601q-41 0 -69 27t-28 66q0 40 29.5 69t70.5 29t68.5 -27.5t27.5 -66.5q0 -40 -29 -68.5t-70 -28.5zM530 523l-59 -377q-14 -90 -12 -146h-51
q-2 49 8 112q-29 -53 -79 -86.5t-115 -33.5q-87 0 -129.5 55.5t-25.5 163.5l50 312h53l-51 -322q-13 -80 17 -121.5t96 -41.5q72 0 127.5 47t68.5 128l49 310h53z" />
    <glyph glyph-name="Uhungarumlaut" unicode="&#x170;" horiz-adv-x="682" 
d="M324 771l54 122h61l-75 -122h-40zM456 771l54 122h61l-75 -122h-40zM320 -7q-135 0 -197 72.5t-41 207.5l71 442h55l-70 -442q-36 -233 185 -233q96 0 149 50.5t70 159.5l74 465h56l-75 -472q-40 -250 -277 -250z" />
    <glyph glyph-name="uhungarumlaut" unicode="&#x171;" horiz-adv-x="573" 
d="M530 523l-59 -377q-14 -90 -12 -146h-51q-2 49 8 112q-29 -53 -79 -86.5t-115 -33.5q-87 0 -129.5 55.5t-25.5 163.5l50 312h53l-51 -322q-13 -80 17 -121.5t96 -41.5q72 0 127.5 47t68.5 128l49 310h53zM247 605l66 147h61l-86 -147h-41zM378 605l67 147h61l-86 -147
h-42z" />
    <glyph glyph-name="Uogonek" unicode="&#x172;" horiz-adv-x="682" 
d="M331 -182q-41 0 -65 19.5t-24 55.5q0 62 83 100h-10q-133 2 -193.5 74.5t-39.5 205.5l71 442h55l-70 -442q-36 -233 184 -233q96 0 149 50.5t71 160.5l74 464h56l-75 -472q-27 -171 -149 -225q-7 -3 -34.5 -14t-43 -18.5t-36 -20.5t-30.5 -30t-10 -37q0 -40 47 -40
q23 0 47 8l-6 -39q-29 -9 -51 -9z" />
    <glyph glyph-name="uogonek" unicode="&#x173;" horiz-adv-x="573" 
d="M530 523l-59 -377q-14 -90 -12 -146q-19 -11 -30 -18.5t-28 -21.5t-25.5 -29.5t-8.5 -32.5q0 -40 47 -40q21 0 47 8l-7 -39q-27 -9 -51 -9q-41 0 -65 19.5t-23 55.5q0 59 93 109q-2 49 8 110q-29 -53 -79 -86.5t-115 -33.5q-87 0 -129.5 55.5t-25.5 163.5l50 312h53
l-51 -322q-13 -80 17 -121.5t96 -41.5q72 0 127.5 47t68.5 128l49 310h53z" />
    <glyph glyph-name="Wcircumflex" unicode="&#x174;" horiz-adv-x="899" 
d="M387 771l125 122h50l93 -122h-40l-82 78l-103 -78h-43zM173 0l-78 715h56l66 -631l283 631h36l85 -633l268 633h53l-305 -715h-55l-80 613l-276 -613h-53z" />
    <glyph glyph-name="wcircumflex" unicode="&#x175;" horiz-adv-x="759" 
d="M293 605l128 135h49l91 -135h-40l-81 91l-104 -91h-43zM144 0l-77 523h56l63 -461l212 461h46l66 -461l207 461h56l-241 -523h-61l-63 439l-204 -439h-60z" />
    <glyph glyph-name="Ycircumflex" unicode="&#x176;" horiz-adv-x="575" 
d="M222 0l50 318l-184 397h59l161 -351l255 351h58l-294 -401l-49 -314h-56zM227 771l125 122h50l93 -122h-40l-82 78l-103 -78h-43z" />
    <glyph glyph-name="ycircumflex" unicode="&#x177;" horiz-adv-x="494" 
d="M60 -182l131 230l-128 475h54l110 -417l228 417h57l-396 -705h-56zM156 605l128 135h49l91 -135h-40l-81 91l-104 -91h-43z" />
    <glyph glyph-name="Ydieresis" unicode="&#x178;" horiz-adv-x="575" 
d="M222 0l50 318l-184 397h59l161 -351l255 351h58l-294 -401l-49 -314h-56zM281 788q-16 0 -26.5 10.5t-10.5 25.5t11 26t26 11q16 0 26 -10.5t10 -25.5t-10.5 -26t-25.5 -11zM461 788q-15 0 -25.5 10.5t-10.5 25.5t10.5 26t26.5 11q15 0 25.5 -10.5t10.5 -25.5t-11 -26
t-26 -11z" />
    <glyph glyph-name="Zacute" unicode="&#x179;" horiz-adv-x="587" 
d="M347 771l74 122h68l-97 -122h-45zM-15 0l2 11l543 659h-403l7 45h484l-1 -10l-539 -659h429l-8 -46h-514z" />
    <glyph glyph-name="zacute" unicode="&#x17a;" horiz-adv-x="467" 
d="M261 605l88 147h68l-112 -147h-44zM-19 0l2 9l404 469h-301l7 45h386l-2 -10l-400 -466h322l-8 -47h-410z" />
    <glyph glyph-name="Zdotaccent" unicode="&#x17b;" horiz-adv-x="587" 
d="M-15 0l2 11l543 659h-403l7 45h484l-1 -10l-539 -659h429l-8 -46h-514zM381 787q-16 0 -27 11t-11 26t11 26.5t27 11.5t26.5 -11t10.5 -26t-11 -26.5t-26 -11.5z" />
    <glyph glyph-name="zdotaccent" unicode="&#x17c;" horiz-adv-x="467" 
d="M-19 0l2 9l404 469h-301l7 45h386l-2 -10l-400 -466h322l-8 -47h-410zM298 635q-16 0 -27 11t-11 26q0 16 11 27t27 11t26.5 -10.5t10.5 -26.5q0 -15 -11 -26.5t-26 -11.5z" />
    <glyph glyph-name="Zcaron" unicode="&#x17d;" horiz-adv-x="587" 
d="M522 893l-126 -122h-49l-94 122h40l82 -78l104 78h43zM-15 0l2 11l543 659h-403l7 45h484l-1 -10l-539 -659h429l-8 -46h-514z" />
    <glyph glyph-name="zcaron" unicode="&#x17e;" horiz-adv-x="467" 
d="M441 748l-128 -135h-50l-90 135h40l80 -91l105 91h43zM-19 0l2 9l404 469h-301l7 45h386l-2 -10l-400 -466h322l-8 -47h-410z" />
    <glyph glyph-name="florin" unicode="&#x192;" horiz-adv-x="384" 
d="M47 359l7 44h98l31 163q30 158 162 158q43 0 73 -15l-7 -42q-29 12 -65 12q-88 0 -110 -115l-31 -161h141l-8 -44h-141l-102 -541h-53l102 541h-97z" />
    <glyph glyph-name="Aringacute" unicode="&#x1fa;" horiz-adv-x="641" 
d="M518 0l-45 219h-322l-112 -219h-54l368 715h74l145 -715h-54zM382 670l-208 -406h290zM400 749q-41 0 -69 27.5t-28 66.5q0 40 29.5 68.5t70.5 28.5t68.5 -27t27.5 -66q0 -41 -29 -69.5t-70 -28.5zM400 781q27 0 44.5 18.5t17.5 47.5q0 27 -16 44.5t-43 17.5
q-26 0 -44.5 -19t-18.5 -47q0 -27 16.5 -44.5t43.5 -17.5zM392 969l74 122h68l-97 -122h-45z" />
    <glyph glyph-name="aringacute" unicode="&#x1fb;" horiz-adv-x="527" 
d="M201 -8q-82 0 -126.5 40t-44.5 105q0 87 65.5 125t172.5 38h135l6 42q11 72 -17.5 108t-103.5 36q-122 0 -151 -111h-53q18 80 76 118t130 38q95 0 141 -49.5t31 -143.5l-30 -188q-14 -90 -11 -150h-51q-2 43 3 86q-26 -42 -71 -68t-101 -26zM207 35q68 0 116.5 37
t58.5 101l14 86h-127q-91 0 -138.5 -26.5t-47.5 -95.5q0 -45 31 -73.5t93 -28.5zM319 623q27 0 44.5 18.5t17.5 46.5q0 27 -16 44.5t-43 17.5q-26 0 -44.5 -19t-18.5 -47q0 -27 16.5 -44t43.5 -17zM319 591q-41 0 -69 27t-28 66q0 40 29.5 69t70.5 29t68.5 -27.5t27.5 -66.5
q0 -40 -29 -68.5t-70 -28.5zM319 829l74 122h68l-97 -122h-45z" />
    <glyph glyph-name="AEacute" unicode="&#x1fc;" horiz-adv-x="946" 
d="M-13 0l466 715h496l-8 -46h-350l-44 -279h288l-7 -46h-288l-47 -298h373l-7 -46h-429l34 220h-276l-142 -220h-59zM480 669l-263 -405h254l64 405h-55zM669 771l74 122h68l-97 -122h-45z" />
    <glyph glyph-name="aeacute" unicode="&#x1fd;" horiz-adv-x="888" 
d="M449 215q0 -178 163 -178q125 0 166 109h52q-25 -76 -82 -115t-138 -39q-162 0 -202 140q-24 -69 -80 -104.5t-126 -35.5q-83 0 -127.5 38t-44.5 103q0 88 67 127t173 39h133l7 43q23 144 -122 144q-122 0 -151 -111h-53q18 80 76 118t130 38q143 0 167 -108
q74 108 200 108q109 0 160.5 -69t32.5 -189l-3 -15h-396q-2 -14 -2 -43zM206 35q70 0 119 39t61 114l11 70h-128q-90 0 -138 -27.5t-48 -95.5q0 -45 31 -72.5t92 -27.5zM654 486q-76 0 -128 -49.5t-69 -137.5h343q21 187 -146 187zM469 605l88 147h68l-112 -147h-44z" />
    <glyph glyph-name="Oslashacute" unicode="&#x1fe;" horiz-adv-x="797" 
d="M62 -24l-29 29l99 102q-70 87 -70 214q0 166 109 284t271 118q127 0 213 -75l88 91l28 -30l-87 -90q79 -91 79 -223q0 -169 -107 -286.5t-268 -117.5q-140 0 -229 84zM706 396q0 111 -57 186l-454 -469q72 -74 194 -74q139 0 228 103t89 254zM120 321q-1 -104 48 -177
l453 469q-72 64 -180 64q-142 0 -231 -104t-90 -252zM436 771l74 122h68l-97 -122h-45z" />
    <glyph glyph-name="oslashacute" unicode="&#x1ff;" horiz-adv-x="579" 
d="M43 -25l-28 26l72 75q-49 65 -49 151q0 127 77 215t197 88q91 0 154 -55l66 70l29 -26l-69 -72q49 -63 49 -150q0 -132 -76 -218.5t-198 -86.5q-92 0 -154 56zM269 37q99 0 158 73t59 186q0 65 -29 114l-312 -328q47 -45 124 -45zM92 227q0 -69 29 -115l312 328
q-46 46 -123 46q-99 0 -158.5 -74.5t-59.5 -184.5zM301 605l88 147h68l-112 -147h-44z" />
    <glyph glyph-name="Scommaaccent" unicode="&#x218;" 
d="M185 -204l-33 17l69 146l51 -15zM284 -8q-116 0 -184.5 58t-71.5 155h54q6 -77 58 -122t147 -45q88 -1 140.5 43.5t52.5 121.5q0 58 -37.5 89t-134.5 58q-107 31 -154 70.5t-47 109.5q0 86 63.5 139.5t166.5 53.5q99 0 158 -46.5t64 -133.5h-52q-16 134 -174 134
q-82 0 -127.5 -38.5t-45.5 -106.5q0 -49 36.5 -78t131.5 -56q111 -32 159 -73t48 -117q0 -97 -69.5 -156.5t-181.5 -59.5z" />
    <glyph glyph-name="scommaaccent" unicode="&#x219;" horiz-adv-x="463" 
d="M116 -204l-33 17l69 146l51 -15zM216 -9q-93 0 -144 44.5t-53 120.5h52q8 -120 146 -120q61 0 97 27.5t36 78.5q0 40 -27 62.5t-94 40.5q-85 23 -121 54.5t-36 87.5q0 68 51 106t125 38q77 0 124.5 -34.5t53.5 -107.5h-51q-4 47 -37 72t-91 25q-57 0 -90.5 -25t-33.5 -71
q0 -38 26.5 -58.5t95.5 -39.5q83 -22 120 -53t37 -95q0 -71 -52 -112t-134 -41z" />
    <glyph glyph-name="uni0237" unicode="&#x237;" horiz-adv-x="221" 
d="M-64 -187l7 44q43 2 63 22.5t27 63.5l92 580h53l-92 -583q-11 -65 -46 -95.5t-104 -31.5z" />
    <glyph glyph-name="circumflex" unicode="&#x2c6;" horiz-adv-x="400" 
d="M120 605l128 135h49l91 -135h-40l-81 91l-104 -91h-43z" />
    <glyph glyph-name="caron" unicode="&#x2c7;" horiz-adv-x="400" 
d="M408 748l-128 -135h-50l-90 135h40l80 -91l105 91h43z" />
    <glyph glyph-name="breve" unicode="&#x2d8;" horiz-adv-x="400" 
d="M266 616q-52 0 -84.5 33.5t-32.5 87.5h44q2 -37 20.5 -57t52.5 -20q72 0 88 77h42q-6 -54 -43 -87.5t-87 -33.5z" />
    <glyph glyph-name="dotaccent" unicode="&#x2d9;" horiz-adv-x="400" 
d="M264 635q-16 0 -27 11t-11 26q0 16 11 27t27 11t26.5 -10.5t10.5 -26.5q0 -15 -11 -26.5t-26 -11.5z" />
    <glyph glyph-name="ring" unicode="&#x2da;" horiz-adv-x="400" 
d="M267 633q27 0 44.5 18.5t17.5 46.5q0 27 -16 44.5t-43 17.5q-26 0 -44.5 -19t-18.5 -47q0 -27 16.5 -44t43.5 -17zM267 601q-41 0 -69 27t-28 66q0 40 29.5 69t70.5 29t68.5 -27.5t27.5 -66.5q0 -40 -29 -68.5t-70 -28.5z" />
    <glyph glyph-name="ogonek" unicode="&#x2db;" horiz-adv-x="400" 
d="M154 -182q-41 0 -65 19.5t-24 55.5q0 58 93 107h54q-19 -11 -31 -18.5t-29 -21t-26 -29.5t-9 -33q0 -40 47 -40q23 0 47 8l-6 -39q-29 -9 -51 -9z" />
    <glyph glyph-name="tilde" unicode="&#x2dc;" horiz-adv-x="400" 
d="M325 616q-26 0 -66 26.5t-56 26.5q-17 0 -31.5 -14t-20.5 -39h-40q9 47 34 73t59 26q25 0 65 -26.5t57 -26.5t31 14t20 39h40q-10 -47 -34.5 -73t-57.5 -26z" />
    <glyph glyph-name="hungarumlaut" unicode="&#x2dd;" horiz-adv-x="400" 
d="M163 605l66 147h61l-86 -147h-41zM294 605l67 147h61l-86 -147h-42z" />
    <glyph glyph-name="Wgrave" unicode="&#x1e80;" horiz-adv-x="899" 
d="M505 771l-73 122h65l49 -122h-41zM173 0l-78 715h56l66 -631l283 631h36l85 -633l268 633h53l-305 -715h-55l-80 613l-276 -613h-53z" />
    <glyph glyph-name="wgrave" unicode="&#x1e81;" horiz-adv-x="759" 
d="M144 0l-77 523h56l63 -461l212 461h46l66 -461l207 461h56l-241 -523h-61l-63 439l-204 -439h-60zM408 605l-73 147h64l50 -147h-41z" />
    <glyph glyph-name="Wacute" unicode="&#x1e82;" horiz-adv-x="899" 
d="M498 771l74 122h68l-97 -122h-45zM173 0l-78 715h56l66 -631l283 631h36l85 -633l268 633h53l-305 -715h-55l-80 613l-276 -613h-53z" />
    <glyph glyph-name="wacute" unicode="&#x1e83;" horiz-adv-x="759" 
d="M411 605l88 147h68l-112 -147h-44zM144 0l-77 523h56l63 -461l212 461h46l66 -461l207 461h56l-241 -523h-61l-63 439l-204 -439h-60z" />
    <glyph glyph-name="Wdieresis" unicode="&#x1e84;" horiz-adv-x="899" 
d="M440 788q-16 0 -26.5 10.5t-10.5 25.5t11 26t26 11q16 0 26 -10.5t10 -25.5t-10.5 -26t-25.5 -11zM620 788q-15 0 -25.5 10.5t-10.5 25.5t10.5 26t26.5 11q15 0 25.5 -10.5t10.5 -25.5t-11 -26t-26 -11zM173 0l-78 715h56l66 -631l283 631h36l85 -633l268 633h53
l-305 -715h-55l-80 613l-276 -613h-53z" />
    <glyph glyph-name="wdieresis" unicode="&#x1e85;" horiz-adv-x="759" 
d="M357 636q-15 0 -25.5 10.5t-10.5 25.5t11 26t26 11t25.5 -10.5t10.5 -25.5t-10.5 -26t-26.5 -11zM524 636q-15 0 -25.5 10.5t-10.5 25.5t10.5 26t26.5 11q15 0 25.5 -10.5t10.5 -25.5t-11 -26t-26 -11zM144 0l-77 523h56l63 -461l212 461h46l66 -461l207 461h56
l-241 -523h-61l-63 439l-204 -439h-60z" />
    <glyph glyph-name="Ygrave" unicode="&#x1ef2;" horiz-adv-x="575" 
d="M222 0l50 318l-184 397h59l161 -351l255 351h58l-294 -401l-49 -314h-56zM348 771l-73 122h65l49 -122h-41z" />
    <glyph glyph-name="ygrave" unicode="&#x1ef3;" horiz-adv-x="494" 
d="M60 -182l131 230l-128 475h54l110 -417l228 417h57l-396 -705h-56zM277 605l-73 147h64l50 -147h-41z" />
    <glyph glyph-name="uni2009" unicode="&#x2009;" horiz-adv-x="105" 
 />
    <glyph glyph-name="endash" unicode="&#x2013;" horiz-adv-x="503" 
d="M43 255l8 45h410l-7 -45h-411z" />
    <glyph glyph-name="emdash" unicode="&#x2014;" horiz-adv-x="869" 
d="M43 255l8 45h776l-8 -45h-776z" />
    <glyph glyph-name="quoteleft" unicode="&#x2018;" horiz-adv-x="207" 
d="M139 528l-50 23l104 171l33 -17z" />
    <glyph glyph-name="quoteright" unicode="&#x2019;" horiz-adv-x="207" 
d="M125 528l-32 17l86 177l50 -23z" />
    <glyph glyph-name="quotesinglbase" unicode="&#x201a;" horiz-adv-x="207" 
d="M19 -87l-31 17l86 177l49 -23z" />
    <glyph glyph-name="quotedblleft" unicode="&#x201c;" horiz-adv-x="346" 
d="M139 528l-50 23l104 171l33 -17zM278 528l-49 23l103 171l33 -17z" />
    <glyph glyph-name="quotedblright" unicode="&#x201d;" horiz-adv-x="346" 
d="M125 528l-32 17l86 177l50 -23zM265 528l-33 17l87 177l50 -23z" />
    <glyph glyph-name="quotedblbase" unicode="&#x201e;" horiz-adv-x="346" 
d="M19 -87l-31 17l86 177l49 -23zM159 -87l-32 17l87 177l49 -23z" />
    <glyph glyph-name="dagger" unicode="&#x2020;" horiz-adv-x="349" 
d="M143 221l50 315h-119l7 44h119l21 135h49l-22 -135h119l-7 -44h-118l-50 -315h-49z" />
    <glyph glyph-name="daggerdbl" unicode="&#x2021;" horiz-adv-x="349" 
d="M171 400l22 136h-119l7 44h119l21 135h49l-22 -135h119l-7 -44h-118l-22 -136h118l-7 -44h-117l-22 -135h-49l22 135h-119l6 44h119z" />
    <glyph glyph-name="bullet" unicode="&#x2022;" horiz-adv-x="316" 
d="M160 199q-44 0 -73 29.5t-29 72.5q0 46 31.5 78t78.5 32q44 0 73.5 -29.5t29.5 -71.5q0 -47 -31 -79t-80 -32z" />
    <glyph glyph-name="ellipsis" unicode="&#x2026;" horiz-adv-x="697" 
d="M78 -5q-18 0 -30.5 12.5t-12.5 29.5q0 18 12.5 30.5t29.5 12.5q18 0 30.5 -12.5t12.5 -30.5q0 -17 -12.5 -29.5t-29.5 -12.5zM312 -5q-18 0 -30.5 12.5t-12.5 29.5q0 18 12.5 30.5t29.5 12.5q18 0 30.5 -12.5t12.5 -30.5q0 -17 -12.5 -29.5t-29.5 -12.5zM546 -5
q-18 0 -30.5 12.5t-12.5 29.5q0 18 12 30.5t30 12.5q17 0 30 -12.5t13 -30.5q0 -17 -12.5 -29.5t-29.5 -12.5z" />
    <glyph glyph-name="perthousand" unicode="&#x2030;" horiz-adv-x="1105" 
d="M133 546q0 -43 25.5 -71.5t71.5 -28.5q51 0 82.5 36t31.5 93q-1 44 -26 73.5t-71 29.5q-52 0 -83 -38t-31 -94zM229 404q-63 0 -104 41t-41 103q0 70 47.5 121t117.5 51q63 0 103.5 -42t40.5 -105q0 -72 -47.5 -120.5t-116.5 -48.5zM81 0l566 715h53l-567 -715h-52z
M431 136q0 -43 25.5 -72t71.5 -29q51 0 82.5 36t31.5 93q-1 44 -26 74t-71 30q-52 0 -83 -38t-31 -94zM527 -7q-63 0 -104 41.5t-41 103.5q0 70 47.5 121t117.5 51q63 0 103.5 -42t40.5 -105q0 -72 -47.5 -121t-116.5 -49zM789 136q0 -43 25.5 -72t71.5 -29q51 0 82.5 36
t31.5 93q-1 44 -26 74t-71 30q-52 0 -83 -38t-31 -94zM885 -7q-63 0 -104 41.5t-41 103.5q0 70 47.5 121t117.5 51q62 0 102.5 -42t40.5 -105q0 -72 -47.5 -121t-115.5 -49z" />
    <glyph glyph-name="uni2032" unicode="&#x2032;" horiz-adv-x="174" 
d="M79 506l60 209h60l-80 -209h-40z" />
    <glyph glyph-name="uni2033" unicode="&#x2033;" horiz-adv-x="305" 
d="M79 506l60 209h60l-80 -209h-40zM209 506l61 209h60l-80 -209h-41z" />
    <glyph glyph-name="guilsinglleft" unicode="&#x2039;" horiz-adv-x="290" 
d="M160 83l-107 179l163 177h56l-162 -180l102 -176h-52z" />
    <glyph glyph-name="guilsinglright" unicode="&#x203a;" horiz-adv-x="290" 
d="M128 439l107 -179l-163 -177h-56l162 180l-102 176h52z" />
    <glyph glyph-name="fraction" unicode="&#x2044;" horiz-adv-x="113" 
d="M-250 0l593 715h47l-593 -715h-47z" />
    <glyph glyph-name="Euro" unicode="&#x20ac;" horiz-adv-x="653" 
d="M53 406l7 38h69q26 130 98.5 204.5t188.5 74.5q100 0 157 -53.5t61 -153.5h-53q-4 75 -46 118.5t-121 43.5q-183 0 -231 -234h249l-12 -38h-243l-16 -98h227l-12 -38h-220q-4 -46 3 -85t26.5 -73t59.5 -53.5t96 -19.5q78 0 132 44t76 132h51q-22 -109 -92 -166t-169 -57
q-128 0 -187.5 78t-49.5 200h-70l7 38h67l16 98h-69z" />
    <glyph glyph-name="trademark" unicode="&#x2122;" horiz-adv-x="675" 
d="M339 400l50 315h53l61 -248l140 248h56l-50 -315h-39l42 267l-153 -267h-13l-70 267l-42 -267h-35zM144 400l45 284h-98l5 31h234l-5 -31h-98l-45 -284h-38z" />
    <glyph glyph-name="onethird" unicode="&#x2153;" horiz-adv-x="712" 
d="M525 -4q-54 0 -89 26t-37 79h42q2 -32 24 -51.5t59 -19.5q35 0 58.5 18.5t23.5 53.5q0 27 -17.5 43.5t-49.5 16.5h-24l5 33h28q31 0 50 15.5t19 45.5q0 27 -17 42t-46 15q-66 0 -83 -66h-40q8 45 41.5 72.5t82.5 27.5q46 0 76 -22t30 -66q0 -30 -18 -51t-50 -30
q58 -16 58 -77q0 -49 -36.5 -77t-89.5 -28zM128 372l47 294l-97 -60l6 42l107 67h37l-55 -343h-45zM10 0l593 715h47l-593 -715h-47z" />
    <glyph glyph-name="twothirds" unicode="&#x2154;" horiz-adv-x="756" 
d="M569 -4q-54 0 -89 26t-37 79h42q2 -32 24 -51.5t59 -19.5q35 0 58.5 18.5t23.5 53.5q0 27 -17.5 43.5t-49.5 16.5h-24l5 33h28q31 0 50 15.5t19 45.5q0 27 -17 42t-46 15q-66 0 -83 -66h-40q8 45 41.5 72.5t82.5 27.5q46 0 76 -22t30 -66q0 -30 -18 -51t-50 -30
q58 -16 58 -77q0 -49 -36.5 -77t-89.5 -28zM33 372l1 9l149 127q44 37 63 61t19 57q0 26 -17 42t-44 16q-66 0 -85 -78h-41q10 53 45 83t84 30q44 0 73 -25t29 -68q0 -28 -14 -53t-30.5 -41t-53.5 -47l-95 -78h164l-6 -35h-241zM67 0l593 715h47l-593 -715h-47z" />
    <glyph glyph-name="oneeighth" unicode="&#x215b;" horiz-adv-x="707" 
d="M517 -4q-51 0 -86.5 24.5t-35.5 70.5q0 75 86 95q-49 19 -49 68q0 42 34 67.5t82 25.5q43 0 75 -22.5t32 -63.5q0 -60 -68 -80q59 -21 59 -80q0 -50 -36.5 -77.5t-92.5 -27.5zM440 94q0 -29 21 -46.5t58 -17.5q35 0 59 17.5t24 53.5q0 31 -21.5 48.5t-55.5 17.5
q-35 0 -60 -18.5t-25 -54.5zM475 253q0 -25 19.5 -40t47.5 -15q30 0 50.5 16t20.5 45q0 24 -19 39.5t-48 15.5q-30 0 -50.5 -16t-20.5 -45zM128 372l47 294l-97 -60l6 42l107 67h37l-55 -343h-45zM10 0l593 715h47l-593 -715h-47z" />
    <glyph glyph-name="threeeighths" unicode="&#x215c;" horiz-adv-x="750" 
d="M561 -4q-51 0 -86.5 24.5t-35.5 70.5q0 75 86 95q-49 19 -49 68q0 42 34 67.5t82 25.5q43 0 75 -22.5t32 -63.5q0 -60 -68 -80q59 -21 59 -80q0 -50 -36.5 -77.5t-92.5 -27.5zM484 94q0 -29 21 -46.5t58 -17.5q35 0 59 17.5t24 53.5q0 31 -21.5 48.5t-55.5 17.5
q-35 0 -60 -18.5t-25 -54.5zM519 253q0 -25 19.5 -40t47.5 -15q30 0 50.5 16t20.5 45q0 24 -19 39.5t-48 15.5q-30 0 -50.5 -16t-20.5 -45zM68 0l593 715h47l-593 -715h-47zM186 368q-53 0 -88.5 26t-36.5 79h42q2 -33 23.5 -52t59.5 -19q35 0 58 18.5t23 53.5
q0 27 -17.5 43.5t-48.5 16.5h-24l5 33h28q31 0 50 15.5t19 45.5q0 27 -17 42t-46 15q-67 0 -84 -66h-40q8 45 42 72.5t83 27.5q45 0 75 -22t30 -66q0 -61 -67 -82q26 -6 42 -26t16 -51q0 -48 -36.5 -76t-90.5 -28z" />
    <glyph glyph-name="fiveeighths" unicode="&#x215d;" horiz-adv-x="742" 
d="M552 -4q-51 0 -86.5 24.5t-35.5 70.5q0 75 86 95q-49 19 -49 68q0 42 34 67.5t82 25.5q43 0 75 -22.5t32 -63.5q0 -60 -68 -80q59 -21 59 -80q0 -50 -36.5 -77.5t-92.5 -27.5zM475 94q0 -29 21 -46.5t58 -17.5q35 0 59 17.5t24 53.5q0 31 -21.5 48.5t-55.5 17.5
q-35 0 -60 -18.5t-25 -54.5zM510 253q0 -25 19.5 -40t47.5 -15q30 0 50.5 16t20.5 45q0 24 -19 39.5t-48 15.5q-30 0 -50.5 -16t-20.5 -45zM173 368q-48 0 -80 24t-35 73h42q3 -29 22 -45.5t51 -16.5q38 0 60.5 24.5t22.5 66.5q0 32 -19 51t-52 19q-45 0 -77 -34h-23l32 185
h199l-5 -35h-164l-18 -109q29 27 73 27q43 0 71.5 -27.5t28.5 -73.5q-1 -59 -36 -94t-93 -35zM58 0l593 715h47l-593 -715h-47z" />
    <glyph glyph-name="seveneighths" unicode="&#x215e;" horiz-adv-x="698" 
d="M509 -4q-51 0 -86.5 24.5t-35.5 70.5q0 75 86 95q-49 19 -49 68q0 42 34 67.5t82 25.5q43 0 75 -22.5t32 -63.5q0 -60 -68 -80q59 -21 59 -80q0 -50 -36.5 -77.5t-92.5 -27.5zM432 94q0 -29 21 -46.5t58 -17.5q35 0 59 17.5t24 53.5q0 31 -21.5 48.5t-55.5 17.5
q-35 0 -60 -18.5t-25 -54.5zM467 253q0 -25 19.5 -40t47.5 -15q30 0 50.5 16t20.5 45q0 24 -19 39.5t-48 15.5q-30 0 -50.5 -16t-20.5 -45zM90 372l173 306h-182l6 37h241l-2 -6l-188 -337h-48zM0 0l593 715h47l-593 -715h-47z" />
    <glyph glyph-name="minus" unicode="&#x2212;" horiz-adv-x="510" 
d="M44 319l8 46h437l-7 -46h-438z" />
    <glyph glyph-name="approxequal" unicode="&#x2248;" horiz-adv-x="495" 
d="M57 347q8 48 37.5 75t71.5 27q39 0 108 -27t100 -27q24 0 41.5 16t22.5 40h42q-9 -48 -37.5 -75t-70.5 -27q-40 0 -109.5 26.5t-98.5 26.5q-51 0 -65 -55h-42zM30 180q8 48 37.5 75t71.5 27q39 0 108 -26.5t99 -26.5q25 0 42.5 15.5t22.5 39.5h42q-9 -48 -37.5 -75
t-70.5 -27q-40 0 -109.5 26.5t-99.5 26.5q-50 0 -64 -55h-42z" />
    <glyph glyph-name="notequal" unicode="&#x2260;" horiz-adv-x="484" 
d="M57 380l8 46h219l64 117h50l-64 -117h135l-8 -46h-152l-66 -121h200l-8 -46h-217l-63 -117h-50l63 117h-137l8 46h154l66 121h-202z" />
    <glyph glyph-name="lessequal" unicode="&#x2264;" horiz-adv-x="496" 
d="M411 117l-352 210l2 13l416 198l-8 -54l-329 -153l279 -164zM9 0l7 45h384l-8 -45h-383z" />
    <glyph glyph-name="greaterequal" unicode="&#x2265;" horiz-adv-x="496" 
d="M20 0l7 45h384l-8 -45h-383zM104 538l352 -210l-3 -13l-416 -198l9 54l329 153l-279 164z" />
    <glyph glyph-name="uni24C5" unicode="&#x24c5;" horiz-adv-x="844" 
d="M321 156v406h119q146 0 146 -119v-3q0 -61 -38.5 -90t-105.5 -29h-69v-165h-52zM373 360h67q95 0 95 80v3q0 78 -95 78h-67v-161zM432 23q137 0 234 96t97 240q0 143 -95.5 238t-233.5 95q-139 0 -235 -96t-96 -239q0 -144 97 -239t232 -95zM432 -9q-153 0 -259.5 105.5
t-106.5 260.5q0 153 107 260t261 107q155 0 260.5 -106t105.5 -259q0 -156 -106.5 -262t-261.5 -106z" />
    <glyph glyph-name="f_i" unicode="&#xfb01;" horiz-adv-x="545" 
d="M56 478l7 45h79l16 97q24 156 161 156q31 0 61 -10l-7 -43q-21 8 -53 8q-44 0 -71.5 -26t-37.5 -87l-15 -95h145l-7 -45h-145l-76 -478h-53l75 478h-79zM365 0l83 523h53l-83 -523h-53zM496 635q-16 0 -26.5 11t-10.5 26q0 16 11 27t27 11q15 0 26 -10.5t11 -26.5
q0 -15 -11 -26.5t-27 -11.5z" />
    <glyph glyph-name="f_l" unicode="&#xfb02;" horiz-adv-x="545" 
d="M56 478l7 45h79l16 97q24 156 161 156q31 0 61 -10l-7 -43q-21 8 -53 8q-44 0 -71.5 -26t-37.5 -87l-15 -95h145l-7 -45h-145l-76 -478h-53l75 478h-79zM365 0l122 773h54l-122 -773h-54z" />
    <glyph glyph-name="space_uni0326" horiz-adv-x="400" 
d="M107 -204l-33 17l69 146l51 -15z" />
    <glyph glyph-name="caron.alt" horiz-adv-x="334" 
d="M198 611l38 162h58l-56 -162h-40z" />
    <glyph glyph-name="space_uni0326.alt" horiz-adv-x="400" 
d="M312 770l33 -17l-70 -146l-51 15z" />
    <glyph glyph-name="grave.uc" horiz-adv-x="400" 
d="M265 771l-73 122h65l49 -122h-41z" />
    <glyph glyph-name="dieresis.uc" horiz-adv-x="400" 
d="M198 788q-16 0 -26.5 10.5t-10.5 25.5t11 26t26 11q16 0 26 -10.5t10 -25.5t-10.5 -26t-25.5 -11zM378 788q-15 0 -25.5 10.5t-10.5 25.5t10.5 26t26.5 11q15 0 25.5 -10.5t10.5 -25.5t-11 -26t-26 -11z" />
    <glyph glyph-name="macron.uc" horiz-adv-x="400" 
d="M159 791l7 42h248l-7 -42h-248z" />
    <glyph glyph-name="acute.uc" horiz-adv-x="400" 
d="M253 771l74 122h68l-97 -122h-45z" />
    <glyph glyph-name="circumflex.uc" horiz-adv-x="400" 
d="M146 771l125 122h50l93 -122h-40l-82 78l-103 -78h-43z" />
    <glyph glyph-name="caron.uc" horiz-adv-x="400" 
d="M432 893l-126 -122h-49l-94 122h40l82 -78l104 78h43z" />
    <glyph glyph-name="breve.uc" horiz-adv-x="400" 
d="M292 771q-53 0 -87 34t-34 88h44q2 -37 22 -57.5t55 -20.5q36 0 60 21t31 57h43q-6 -53 -45 -87.5t-89 -34.5z" />
    <glyph glyph-name="dotaccent.uc" horiz-adv-x="400" 
d="M288 787q-16 0 -27 11t-11 26t11 26.5t27 11.5t26.5 -11t10.5 -26t-11 -26.5t-26 -11.5z" />
    <glyph glyph-name="ring.uc" horiz-adv-x="400" 
d="M291 786q27 0 44.5 18.5t17.5 47.5q0 27 -16 44.5t-43 17.5q-26 0 -44.5 -19t-18.5 -47q0 -27 16.5 -44.5t43.5 -17.5zM291 754q-41 0 -69 27.5t-28 66.5q0 40 29.5 68.5t70.5 28.5t68.5 -27t27.5 -66q0 -41 -29 -69.5t-70 -28.5z" />
    <glyph glyph-name="tilde.uc" horiz-adv-x="400" 
d="M352 774q-26 0 -66 26.5t-56 26.5q-17 0 -31.5 -14.5t-20.5 -39.5h-40q9 48 33.5 73.5t59.5 25.5q25 0 65 -26t57 -26t31 14t20 39h40q-10 -47 -34.5 -73t-57.5 -26z" />
    <glyph glyph-name="hungarumlaut.uc" horiz-adv-x="400" 
d="M193 771l54 122h61l-75 -122h-40zM325 771l54 122h61l-75 -122h-40z" />
    <glyph glyph-name="idotaccent" horiz-adv-x="221" 
d="M173 635q-16 0 -26.5 11t-10.5 26q0 16 11 27t27 11q15 0 26 -10.5t11 -26.5q0 -15 -11 -26.5t-27 -11.5zM42 0l83 523h53l-83 -523h-53z" />
    <glyph glyph-name="registered.alt" horiz-adv-x="844" 
d="M307 158v408h123q145 0 145 -114v-2q0 -47 -26.5 -74.5t-71.5 -34.5l122 -183h-57l-119 176h-64v-176h-52zM359 373h70q95 0 95 75v3q0 74 -95 74h-70v-152zM432 23q137 0 234 96t97 240q0 143 -95.5 238t-233.5 95q-139 0 -235 -96t-96 -239q0 -144 97 -239t232 -95z
M432 -9q-153 0 -259.5 105.5t-106.5 260.5q0 153 107 260t261 107q155 0 260.5 -106t105.5 -259q0 -156 -106.5 -262t-261.5 -106z" />
    <glyph glyph-name="dollar.old" horiz-adv-x="588" 
d="M282 -7h-12l-19 -124h-40l20 127q-93 12 -146 66t-55 137h53q5 -66 44 -108t111 -52l47 301q-94 28 -136.5 68t-42.5 106q0 83 64.5 135t164.5 52h7l14 88h40l-14 -91q76 -11 122 -55t50 -116h-49q-13 109 -130 127l-44 -276q103 -30 147.5 -68.5t44.5 -110.5
q0 -95 -66 -150.5t-175 -55.5zM469 194q0 53 -32 82.5t-113 53.5l-47 -294h6q86 0 136 41.5t50 116.5zM159 516q0 -45 29.5 -73.5t104.5 -52.5l42 267h-5q-80 0 -125.5 -37.5t-45.5 -103.5z" />
    <glyph glyph-name="Euro.old" horiz-adv-x="646" 
d="M50 393l7 38h66q25 126 96 198t184 72q96 0 151.5 -51.5t59.5 -148.5h-52q-4 72 -45 114t-117 42q-177 0 -223 -226h241l-11 -38h-236l-16 -94h220l-11 -37h-214q-4 -44 3 -82t26 -71.5t57 -52.5t93 -19q77 0 129 43t73 129h50q-22 -106 -90 -161.5t-163 -55.5
q-124 0 -182.5 75.5t-48.5 194.5h-67l7 37h64l15 94h-66z" />
    <glyph glyph-name="sterling.old" horiz-adv-x="579" 
d="M57 318l7 40h71q-6 66 -6 103q0 106 59.5 173t170.5 67q90 0 140 -46.5t52 -130.5h-53q-7 132 -141 132q-87 0 -130.5 -53.5t-43.5 -142.5q0 -36 6 -102h220l-6 -40h-211q3 -33 3 -69q0 -88 -37 -145q30 -5 100.5 -35t106.5 -30q42 0 70 25t35 75h47q-9 -69 -50 -108
t-104 -39q-47 0 -126 35.5t-109 35.5t-50.5 -17.5t-27.5 -45.5h-47q8 38 35.5 68.5t67.5 36.5q38 56 38 140q0 23 -4 73h-83z" />
    <glyph glyph-name="yen.old" horiz-adv-x="536" 
d="M73 296l6 38h166l-152 360h56l137 -330l229 330h56l-254 -360h166l-7 -38h-174l-15 -94h174l-6 -38h-174l-25 -164h-53l25 164h-176l6 38h176l14 94h-175z" />
    <glyph glyph-name="zero.old" horiz-adv-x="626" 
d="M112 303q-5 -37 -5 -64q0 -91 47.5 -146t142.5 -55q91 0 148.5 61t75.5 177l6 41q5 27 5 63q1 93 -46 147.5t-139 54.5q-90 0 -150.5 -61.5t-78.5 -176.5zM294 -8q-117 0 -179.5 69t-62.5 180q0 30 5 65l6 42q21 132 98 205.5t187 73.5q117 0 179 -69t61 -180
q0 -32 -6 -65l-6 -41q-21 -133 -94.5 -206.5t-187.5 -73.5z" />
    <glyph glyph-name="one.old" horiz-adv-x="361" 
d="M149 0l88 559l-180 -112l8 53l189 119h46l-97 -619h-54z" />
    <glyph glyph-name="two.old" horiz-adv-x="527" 
d="M-23 0l2 13l291 222q33 25 47 36.5t42.5 38t41.5 46t24.5 48t11.5 57.5q1 59 -36.5 90.5t-99.5 31.5q-68 0 -115.5 -41.5t-65.5 -121.5h-51q17 97 81 152t154 55q80 0 135 -42.5t54 -123.5q0 -40 -14 -74t-43.5 -66t-54.5 -53.5t-70 -55.5q-11 -8 -16 -12l-203 -155h354
l-7 -45h-462z" />
    <glyph glyph-name="three.old" horiz-adv-x="565" 
d="M248 -104q-104 0 -170 55.5t-67 154.5h52q3 -78 52 -122t136 -44q83 0 133.5 45t50.5 129q0 64 -38.5 103t-112.5 39h-48l7 46h51q77 0 119.5 38.5t42.5 112.5q0 60 -38.5 94.5t-104.5 34.5q-71 0 -117.5 -39.5t-61.5 -111.5h-50q15 88 78.5 142t154.5 54q85 0 139 -46.5
t54 -125.5q0 -68 -35.5 -114t-101.5 -63q55 -15 86.5 -57.5t31.5 -104.5q0 -102 -68.5 -161t-174.5 -59z" />
    <glyph glyph-name="four.old" horiz-adv-x="595" 
d="M344 -97l26 163h-372l2 17l433 535h78l-81 -508h100l-6 -44h-100l-26 -163h-54zM77 110h300l74 466z" />
    <glyph glyph-name="five.old" horiz-adv-x="550" 
d="M7 83h51q6 -68 49 -105.5t119 -37.5q92 0 145 61t53 157q0 68 -39.5 113t-112.5 45q-99 1 -178 -76h-20l61 379h382l-7 -47h-338l-43 -270q64 58 155 58q88 0 142 -55.5t54 -142.5q0 -115 -69.5 -190.5t-186.5 -75.5q-92 0 -151.5 48.5t-65.5 138.5z" />
    <glyph glyph-name="six.old" horiz-adv-x="584" 
d="M279 -8q-109 0 -166.5 61t-57.5 160q0 36 8 92l12 71q28 177 105.5 262t191.5 85q82 0 131.5 -40.5t55.5 -118.5h-52q-14 114 -139 114q-188 0 -239 -297l-7 -42q30 51 83.5 78t116.5 27q93 0 149.5 -53.5t56.5 -145.5q0 -110 -70 -181.5t-179 -71.5zM108 207
q0 -78 45 -125t128 -47q85 0 138.5 58.5t53.5 148.5q0 72 -42.5 115t-121.5 43q-85 0 -143 -53.5t-58 -139.5z" />
    <glyph glyph-name="seven.old" horiz-adv-x="499" 
d="M69 -97l387 671h-381l7 44h450l-1 -9l-404 -706h-58z" />
    <glyph glyph-name="eight.old" horiz-adv-x="572" 
d="M265 -8q-97 0 -163 51t-66 138q0 82 53 136.5t133 68.5q-47 17 -76 54.5t-29 87.5q0 86 65 140.5t157 54.5q81 0 138 -46t57 -126q0 -68 -41 -112t-109 -61q59 -19 94.5 -62.5t35.5 -102.5q0 -101 -72 -161t-177 -60zM92 184q0 -66 48 -106t128 -40q81 0 135.5 45.5
t54.5 129.5q0 64 -46.5 104.5t-123.5 40.5q-83 0 -139.5 -46.5t-56.5 -127.5zM172 528q0 -55 40.5 -90.5t107.5 -35.5q68 0 113.5 39t45.5 109q0 57 -40 93t-103 36q-70 0 -117 -40.5t-47 -110.5z" />
    <glyph glyph-name="nine.old" horiz-adv-x="584" 
d="M320 627q108 0 165 -61.5t57 -160.5q0 -48 -7 -87l-12 -78q-55 -344 -293 -344q-89 0 -140 43t-58 126h52q16 -124 147 -124q92 0 150.5 67t85.5 223l8 49q-30 -51 -83.5 -78t-116.5 -27q-93 0 -149.5 53.5t-56.5 145.5q0 109 70.5 181t180.5 72zM489 414q0 77 -44 123
t-127 46q-86 0 -139.5 -58.5t-53.5 -148.5q0 -71 42.5 -114t120.5 -43q84 0 142.5 54.5t58.5 140.5z" />
    <glyph glyph-name="dollar.tab" 
d="M289 -8h-13l-20 -127h-39l20 131q-95 12 -149 67.5t-57 141.5h54q5 -68 45 -111.5t114 -53.5l50 311q-97 29 -141 69.5t-44 109.5q0 86 66 139.5t169 53.5h8l15 90h39l-15 -93q79 -11 126.5 -56.5t51.5 -120.5h-50q-13 113 -135 131l-45 -284q106 -31 151.5 -70.5
t45.5 -113.5q0 -97 -68 -155.5t-179 -58.5zM482 201q0 55 -33 85t-118 55l-48 -304h7q89 0 140.5 43.5t51.5 120.5zM162 532q0 -47 31 -76.5t109 -54.5l43 277h-6q-82 0 -129.5 -39t-47.5 -107z" />
    <glyph glyph-name="Euro.tab" 
d="M48 406l6 38h63q23 136 90 207t172 72q94 0 145.5 -52.5t52.5 -150.5h-52q-3 77 -38 118t-108 40q-167 0 -207 -234h228l-14 -38h-220l-16 -98h202l-13 -38h-195q-27 -231 163 -231q146 0 191 172h51q-49 -219 -242 -219q-126 0 -179 75.5t-39 202.5h-62l6 38h62l15 98
h-62z" />
    <glyph glyph-name="sterling.tab" 
d="M63 327l6 41h74q-6 68 -6 107q0 110 60 179t174 69q93 0 144 -48t53 -135h-54q-7 136 -145 136q-89 0 -133 -55t-44 -147q0 -38 6 -106h227l-7 -41h-217q3 -33 3 -70q0 -91 -38 -150q31 -6 102.5 -36.5t107.5 -30.5q43 0 72 26t36 78h49q-10 -72 -51.5 -112t-106.5 -40
q-49 0 -129 36.5t-111 36.5t-52 -18t-28 -47h-48q8 39 36 70.5t70 38.5q39 56 39 143q0 23 -4 75h-85z" />
    <glyph glyph-name="yen.tab" 
d="M104 305l6 39h172l-151 371h58l135 -340l232 340h56l-257 -371h171l-7 -39h-179l-15 -97h179l-7 -39h-178l-27 -169h-54l26 169h-182l6 39h182l15 97h-181z" />
    <glyph glyph-name="zero.tab" 
d="M117 297q-7 -46 -7 -77q1 -82 41.5 -131.5t126.5 -49.5q90 0 141.5 57t70.5 177l23 143q6 38 6 73q0 85 -40.5 136.5t-126.5 51.5q-175 0 -213 -236zM279 -8q-110 0 -166.5 62t-57.5 165q0 36 7 83l23 143q22 136 91 207t177 71q111 0 166 -64t54 -170q0 -38 -6 -77
l-23 -143q-43 -277 -265 -277z" />
    <glyph glyph-name="one.tab" 
d="M289 0l103 653l-253 -176l8 55l258 183h52l-113 -715h-55z" />
    <glyph glyph-name="two.tab" 
d="M4 0l2 13l342 292q69 59 107 114.5t38 123.5q0 59 -36.5 96.5t-101.5 37.5q-149 2 -190 -170h-52q19 106 85 161t160 55q84 0 137.5 -49t53.5 -130q0 -79 -43.5 -141t-128.5 -133l-266 -224h375l-7 -46h-475z" />
    <glyph glyph-name="three.tab" 
d="M273 -8q-104 0 -167 56.5t-64 153.5h53q2 -75 48 -119.5t132 -44.5q85 0 137 45t52 133q0 60 -37.5 97.5t-111.5 37.5h-44l7 47h56q70 0 114 38t44 112q0 59 -37.5 93.5t-101.5 34.5q-70 0 -118.5 -39t-64.5 -110h-50q15 88 81 142t155 54q81 0 136 -45.5t55 -127.5
q0 -67 -37.5 -113.5t-103.5 -63.5q54 -14 84.5 -55.5t30.5 -101.5q0 -104 -70 -164t-178 -60z" />
    <glyph glyph-name="four.tab" 
d="M360 0l25 161h-358l3 17l419 537h79l-80 -508h91l-8 -46h-91l-25 -161h-55zM109 207h284l73 463z" />
    <glyph glyph-name="five.tab" 
d="M265 -8q-95 0 -155.5 51t-64.5 141h53q5 -68 48.5 -107t119.5 -39q93 0 146.5 60.5t53.5 160.5q0 71 -41.5 115.5t-116.5 44.5q-103 0 -177 -78h-21l60 374h390l-8 -48h-343l-41 -259q61 57 156 57q89 0 144 -56.5t55 -147.5q0 -117 -70.5 -193t-187.5 -76z" />
    <glyph glyph-name="six.tab" 
d="M289 -8q-109 0 -169 61t-59 174q0 39 9 95l8 51q26 167 102 258.5t203 91.5q87 0 137.5 -42t55.5 -121h-53q-13 116 -143 116q-195 0 -247 -299l-5 -34q32 53 86 82.5t117 29.5q92 0 152.5 -53.5t60.5 -146.5q0 -113 -71 -188t-184 -75zM115 208q0 -77 46 -124t129 -47
q89 0 143.5 61t54.5 154q0 72 -45.5 115t-125.5 43q-86 0 -144 -56t-58 -146z" />
    <glyph glyph-name="seven.tab" 
d="M136 0l375 669h-389l7 46h462l-1 -9l-396 -706h-58z" />
    <glyph glyph-name="eight.tab" 
d="M284 -8q-95 0 -163.5 50.5t-68.5 141.5q0 83 51 137t135 70q-47 16 -76.5 54.5t-29.5 90.5q0 83 65 135t156 52q81 0 139.5 -48t58.5 -125q0 -134 -149 -167q59 -19 95 -64.5t36 -106.5q0 -105 -72 -162.5t-177 -57.5zM108 190q0 -71 51 -111t128 -40q83 0 136 44.5
t53 128.5q0 67 -48 108.5t-123 41.5q-84 0 -140.5 -45t-56.5 -127zM187 537q0 -56 42 -93t110 -37q67 0 112 35.5t45 105.5q0 56 -41.5 93t-105.5 37q-66 0 -113.5 -37t-48.5 -104z" />
    <glyph glyph-name="nine.tab" 
d="M254 -7q-88 0 -144 43t-64 128h54q17 -125 158 -125q95 0 154 69.5t84 226.5l5 35q-31 -53 -84.5 -81.5t-117.5 -28.5q-91 0 -152 53.5t-61 148.5q0 114 72 187.5t187 73.5q105 0 164 -61t59 -172q0 -38 -9 -96l-9 -58q-29 -183 -102 -263t-194 -80zM142 464
q0 -73 44.5 -116t119.5 -43q88 0 148 55t60 147q0 77 -44 124.5t-126 47.5q-91 0 -146.5 -60.5t-55.5 -154.5z" />
    <glyph glyph-name="cent.tab" 
d="M300 -8h-9l-20 -127h-40l20 131q-87 14 -136 76.5t-49 156.5q0 132 78 216.5t192 85.5l16 98h40l-16 -101q72 -9 117.5 -54.5t49.5 -119.5h-51q-2 55 -35.5 88.5t-87.5 41.5l-71 -447h4q67 0 115 36t65 106h51q-20 -91 -83 -139t-150 -48zM120 229q0 -79 36.5 -128
t101.5 -61l71 446q-93 -3 -151 -74.5t-58 -182.5z" />
    <glyph glyph-name="percent.tab" horiz-adv-x="800" 
d="M142 543q0 -45 25.5 -74t72.5 -29q52 0 84 37t31 95q0 44 -25.5 75t-72.5 31q-52 0 -83.5 -39t-31.5 -96zM238 398q-63 0 -104.5 42t-41.5 105q0 71 48.5 123t118.5 52q64 0 105 -43t41 -107q0 -73 -48.5 -122.5t-118.5 -49.5zM105 0l566 715h53l-567 -715h-52zM472 138
q1 -44 26 -73.5t72 -29.5q52 0 84 37t32 96q-1 45 -26 75.5t-72 30.5q-53 0 -84.5 -39t-31.5 -97zM569 -7q-64 0 -105 42t-41 106q0 71 48 123t119 52q64 0 104.5 -43t40.5 -107q0 -73 -48 -123t-118 -50z" />
    <glyph glyph-name="perthousand.tab" horiz-adv-x="1000" 
d="M139 542q1 -39 23 -63.5t58 -24.5q49 0 76 40t27 94q-1 41 -21.5 66.5t-58.5 25.5q-49 0 -76.5 -41.5t-27.5 -96.5zM219 413q-55 0 -91.5 36t-35.5 96q0 71 42 123.5t110 52.5q55 0 90.5 -36.5t35.5 -96.5q0 -71 -41.5 -123t-109.5 -52zM44 0l567 715h52l-567 -715h-52z
M383 123q0 -40 22 -64t59 -24q48 0 75 40t27 93q-1 41 -21.5 67t-58.5 26q-48 0 -75.5 -42t-27.5 -96zM463 -7q-56 0 -92.5 36t-35.5 96q0 71 42 124t110 53q55 0 91 -36.5t36 -97.5q0 -70 -41.5 -122.5t-109.5 -52.5zM705 123q1 -40 22.5 -64t58.5 -24q49 0 76 40t27 93
q-1 41 -21.5 67t-58.5 26q-49 0 -76.5 -42t-27.5 -96zM785 -7q-55 0 -91.5 36t-35.5 96q0 71 42 124t110 53q55 0 90.5 -36.5t35.5 -97.5q0 -71 -41.5 -123t-109.5 -52z" />
    <glyph glyph-name="plus.tab" 
d="M251 110l33 209h-195l8 46h195l33 209h48l-34 -209h195l-7 -46h-195l-33 -209h-48z" />
    <glyph glyph-name="minus.tab" 
d="M89 319l8 46h437l-7 -46h-438z" />
    <glyph glyph-name="multiply.tab" 
d="M124 143l-29 32l180 161l-138 160l33 31l139 -160l180 160l30 -33l-181 -161l140 -160l-34 -30l-140 160z" />
    <glyph glyph-name="divide.tab" 
d="M89 319l8 46h437l-7 -46h-438zM288 122q-17 0 -29.5 12.5t-12.5 30.5q0 17 12.5 29.5t29.5 12.5q18 0 30.5 -12.5t12.5 -29.5q0 -18 -12.5 -30.5t-30.5 -12.5zM336 477q-18 0 -30.5 12.5t-12.5 30.5q0 17 12.5 29.5t30.5 12.5q17 0 29.5 -12.5t12.5 -29.5
q0 -18 -12.5 -30.5t-29.5 -12.5z" />
    <glyph glyph-name="equal.tab" 
d="M89 213l8 46h404l-8 -46h-404zM115 380l8 46h404l-8 -46h-404z" />
    <glyph glyph-name="less.tab" 
d="M461 104l-351 217l2 13l417 204l-7 -54l-333 -159l280 -170z" />
    <glyph glyph-name="greater.tab" 
d="M156 538l351 -217l-2 -13l-417 -204l8 54l333 159l-281 171z" />
    <glyph glyph-name="florin.tab" 
d="M127 359l7 44h117l29 149q17 88 66.5 130t116.5 42q52 0 86 -17l-6 -43q-32 15 -79 15q-48 0 -83 -30.5t-48 -98.5l-28 -147h172l-7 -44h-174l-103 -541h-53l103 541h-116z" />
    <glyph glyph-name="plusminus.tab" 
d="M255 131l31 199h-195l7 45h195l32 199h48l-32 -199h195l-8 -45h-194l-32 -199h-47zM39 0l7 45h438l-8 -45h-437z" />
    <glyph glyph-name="notequal.tab" 
d="M115 380l8 46h219l64 117h50l-64 -117h135l-8 -46h-152l-66 -121h200l-8 -46h-217l-63 -117h-50l63 117h-137l8 46h154l66 121h-202z" />
    <glyph glyph-name="approxequal.tab" 
d="M111 347q8 48 37.5 75t71.5 27q39 0 108 -27t99 -27q25 0 42.5 15.5t22.5 40.5h42q-9 -48 -37.5 -75t-70.5 -27q-40 0 -109.5 26.5t-99.5 26.5q-50 0 -64 -55h-42zM84 180q8 48 37 75t71 27q39 0 108.5 -26.5t99.5 -26.5q25 0 42.5 15.5t21.5 39.5h43q-9 -48 -38 -75
t-70 -27q-40 0 -109.5 26.5t-99.5 26.5q-25 0 -42 -15t-22 -40h-42z" />
    <glyph glyph-name="lessequal.tab" 
d="M463 117l-352 210l2 13l416 198l-8 -54l-329 -153l279 -164zM61 0l7 45h384l-8 -45h-383z" />
    <glyph glyph-name="greaterequal.tab" 
d="M72 0l7 45h384l-7 -45h-384zM156 538l352 -210l-2 -13l-416 -198l8 54l329 153l-279 164z" />
    <glyph glyph-name="parenleft.tab" horiz-adv-x="300" 
d="M151 -148q-91 162 -91 355q0 157 62 303t169 263h55q-109 -123 -169.5 -267.5t-60.5 -296.5q-1 -191 88 -357h-53z" />
    <glyph glyph-name="parenright.tab" horiz-adv-x="300" 
d="M164 773q91 -162 91 -355q0 -157 -61.5 -302t-168.5 -264h-56q109 123 170 267.5t61 296.5q0 190 -88 357h52z" />
    <glyph glyph-name="bracketleft.tab" horiz-adv-x="300" 
d="M10 -148l146 924h185l-7 -43h-131l-133 -838h132l-7 -43h-185z" />
    <glyph glyph-name="bracketright.tab" horiz-adv-x="300" 
d="M-27 -148l8 43h131l133 838h-132l7 43h184l-146 -924h-185z" />
    <glyph glyph-name="braceleft.tab" horiz-adv-x="300" 
d="M195 -146q-95 6 -127.5 59t1.5 148l40 111q40 112 -76 133l7 41q120 13 115 118l-3 128q-3 101 44.5 142t145.5 43l-6 -41q-72 -2 -103.5 -32.5t-29.5 -113.5l2 -124q1 -64 -28.5 -96t-85.5 -47q108 -38 66 -156l-38 -110q-27 -81 -7 -118.5t90 -42.5z" />
    <glyph glyph-name="braceright.tab" horiz-adv-x="300" 
d="M119 777q95 -5 128 -58t-1 -148l-40 -111q-42 -113 75 -134l-6 -40q-119 -12 -116 -119l3 -127q4 -101 -43.5 -142.5t-146.5 -43.5l7 41q71 2 102.5 32.5t30.5 114.5l-2 124q-1 63 28 95t85 47q-107 38 -66 157l39 110q27 80 6.5 118t-89.5 43z" />
    <glyph glyph-name="period.tab" horiz-adv-x="300" 
d="M113 -5q-17 0 -29.5 12.5t-12.5 29.5q0 18 12 30.5t30 12.5q17 0 30 -12.5t13 -30.5q0 -17 -12.5 -29.5t-30.5 -12.5z" />
    <glyph glyph-name="comma.tab" horiz-adv-x="300" 
d="M51 -117l-34 19l96 182l48 -24z" />
    <glyph glyph-name="colon.tab" horiz-adv-x="300" 
d="M113 -5q-17 0 -29.5 12.5t-12.5 29.5q0 18 12 30.5t30 12.5q17 0 30 -12.5t13 -30.5q0 -17 -12.5 -29.5t-30.5 -12.5zM165 320q-17 0 -29.5 12t-12.5 30t12 30t30 12t30.5 -12t12.5 -30t-12.5 -30t-30.5 -12z" />
    <glyph glyph-name="semicolon.tab" horiz-adv-x="300" 
d="M40 -117l-34 19l96 182l49 -24zM170 320q-18 0 -30.5 12t-12.5 30t12.5 30t29.5 12q18 0 30.5 -12t12.5 -30t-12.5 -30t-29.5 -12z" />
    <glyph glyph-name="space.tab" horiz-adv-x="300" 
 />
    <glyph glyph-name="dollar.oldtab" 
d="M291 -7h-13l-19 -124h-39l20 127q-93 12 -146 65.5t-56 137.5h53q5 -66 44.5 -108.5t111.5 -51.5l47 301q-94 29 -136.5 68.5t-42.5 105.5q0 83 64 135t164 52h8l14 88h39l-14 -91q77 -11 123 -54.5t50 -116.5h-50q-13 109 -130 127l-44 -276q103 -30 147.5 -68.5
t44.5 -110.5q0 -94 -66 -150t-174 -56zM477 194q0 53 -32 82.5t-113 53.5l-47 -294h6q86 0 136 41.5t50 116.5zM167 516q0 -46 29.5 -74t105.5 -52l42 267h-5q-80 0 -126 -37.5t-46 -103.5z" />
    <glyph glyph-name="Euro.oldtab" 
d="M51 393l6 38h61q22 131 89.5 200t169.5 70q91 0 142 -51t52 -146h-51q-3 74 -38 114t-106 39q-164 0 -204 -226h226l-13 -38h-219l-14 -94h200l-13 -37h-193q-27 -225 161 -225q142 0 187 168h50q-48 -213 -238 -213q-122 0 -174.5 73.5t-39.5 196.5h-62l7 37h61l15 94
h-62z" />
    <glyph glyph-name="sterling.oldtab" 
d="M65 318l7 40h71q-6 66 -6 103q0 106 59.5 173t170.5 67q90 0 140 -46.5t52 -130.5h-53q-7 132 -141 132q-87 0 -131 -54t-44 -142q0 -36 6 -102h221l-7 -40h-210q3 -66 3 -69q0 -88 -37 -145q30 -5 100.5 -35t106.5 -30q42 0 70 25t35 75h47q-9 -68 -50 -107.5
t-104 -39.5q-47 0 -126 35.5t-109 35.5t-50.5 -17.5t-27.5 -45.5h-47q8 38 35.5 68.5t67.5 36.5q38 56 38 140q0 23 -4 73h-83z" />
    <glyph glyph-name="yen.oldtab" 
d="M105 296l6 38h166l-147 360h56l132 -330l226 330h54l-249 -360h165l-6 -38h-174l-15 -94h174l-6 -38h-174l-25 -164h-53l25 164h-176l7 38h175l14 94h-175z" />
    <glyph glyph-name="zero.oldtab" 
d="M115 279q-5 -38 -5 -67q2 -80 43 -127t126 -47q172 0 206 215l14 87q5 35 5 60q-1 84 -43.5 133t-122.5 49q-85 0 -139 -56.5t-70 -159.5zM278 -8q-107 0 -164 60.5t-58 159.5q0 40 4 69l14 87q19 121 89.5 190t177.5 69q104 0 160.5 -63t56.5 -163q0 -30 -5 -65l-13 -87
q-20 -124 -87 -190.5t-175 -66.5z" />
    <glyph glyph-name="one.oldtab" 
d="M289 0l88 559l-245 -163l8 53l253 170h47l-98 -619h-53z" />
    <glyph glyph-name="two.oldtab" 
d="M14 0l2 13l291 222q42 32 60 47.5t49.5 47.5t45 64t13.5 67q0 59 -37.5 90.5t-99.5 31.5q-68 0 -115.5 -41.5t-65.5 -121.5h-51q17 97 81 152t154 55q80 0 135 -42.5t54 -123.5q0 -40 -14 -74t-43.5 -66t-54.5 -53.5t-70 -55.5q-11 -8 -16 -12l-203 -155h354l-7 -45h-462
z" />
    <glyph glyph-name="three.oldtab" 
d="M266 -104q-104 0 -170 55.5t-67 154.5h52q3 -78 52 -122t136 -44q84 0 134.5 45t50.5 129q0 64 -39 103t-113 39h-47l6 46h52q77 0 119.5 38.5t42.5 112.5q0 60 -39 94.5t-105 34.5q-70 0 -116.5 -39.5t-62.5 -111.5h-49q14 88 78 142t155 54q85 0 139 -46.5t54 -125.5
q0 -68 -36 -114t-102 -63q55 -15 86.5 -57t31.5 -105q0 -102 -68 -161t-175 -59z" />
    <glyph glyph-name="four.oldtab" 
d="M346 -97l27 163h-362l2 17l422 535h78l-80 -508h96l-7 -44h-96l-26 -163h-54zM88 110h291l75 466z" />
    <glyph glyph-name="five.oldtab" 
d="M37 83h51q6 -68 49 -105.5t119 -37.5q92 0 145 61t53 157q0 68 -39.5 113t-112.5 45q-99 1 -178 -76h-19l60 379h382l-7 -47h-338l-43 -270q64 58 155 58q88 0 142 -55.5t54 -142.5q0 -115 -69.5 -190.5t-186.5 -75.5q-92 0 -151.5 48.5t-65.5 138.5z" />
    <glyph glyph-name="six.oldtab" 
d="M289 -8q-107 0 -162.5 60.5t-55.5 160.5q0 36 8 92l12 71q28 176 105.5 261.5t186.5 85.5q86 0 134.5 -40.5t54.5 -118.5h-53q-13 114 -137 114q-86 0 -148.5 -71.5t-88.5 -225.5l-7 -42q30 51 82.5 78t114.5 27q93 0 147.5 -53.5t54.5 -145.5q0 -110 -69.5 -181.5
t-178.5 -71.5zM124 207q0 -79 42.5 -125.5t124.5 -46.5q85 0 137.5 58.5t52.5 148.5q0 72 -40.5 115t-118.5 43q-84 0 -141 -53.5t-57 -139.5z" />
    <glyph glyph-name="seven.oldtab" 
d="M110 -97l387 671h-381l7 44h450l-1 -9l-404 -706h-58z" />
    <glyph glyph-name="eight.oldtab" 
d="M281 -8q-94 0 -159.5 51t-65.5 138q0 82 52 136t132 68q-47 18 -75 55.5t-28 87.5q0 86 64 140.5t154 54.5q79 0 135 -46t56 -126q0 -69 -40 -113.5t-108 -60.5q58 -18 93 -61.5t35 -102.5q0 -101 -71 -161t-174 -60zM111 184q0 -66 47 -106t126 -40q80 0 133.5 45.5
t53.5 129.5q0 64 -45.5 104.5t-121.5 40.5q-81 0 -137 -46.5t-56 -127.5zM191 528q0 -55 39.5 -90.5t105.5 -35.5q67 0 111.5 39t44.5 109q0 57 -38.5 93t-101.5 36q-69 0 -115 -40.5t-46 -110.5z" />
    <glyph glyph-name="nine.oldtab" 
d="M323 627q107 0 163 -62t56 -164q0 -38 -8 -83l-12 -78q-29 -181 -102.5 -262.5t-187.5 -81.5q-89 0 -140 43t-58 126h53q14 -124 146 -124q92 0 149 66.5t84 223.5l8 49q-30 -51 -82 -78t-115 -27q-91 0 -146.5 53.5t-55.5 145.5q0 108 70.5 180.5t177.5 72.5zM489 414
q0 77 -43 123t-125 46q-84 0 -137.5 -58.5t-53.5 -148.5q0 -72 41.5 -114.5t118.5 -42.5q84 0 141.5 54.5t57.5 140.5z" />
    <glyph glyph-name="zero.num" horiz-adv-x="350" 
d="M118 501q0 -42 21.5 -69.5t65.5 -27.5q58 0 85.5 51.5t27.5 128.5q0 42 -21.5 70.5t-63.5 28.5q-60 0 -87.5 -54t-27.5 -128zM204 368q-62 0 -96 36.5t-34 98.5q0 91 41 153.5t118 62.5q61 0 95 -36.5t34 -100.5q0 -93 -39.5 -153.5t-118.5 -60.5z" />
    <glyph glyph-name="one.num" horiz-adv-x="219" 
d="M125 372l47 294l-97 -60l6 42l107 67h37l-55 -343h-45z" />
    <glyph glyph-name="two.num" horiz-adv-x="285" 
d="M30 372l1 9l149 127q44 37 63 61t19 57q0 26 -17 42t-44 16q-66 0 -85 -78h-41q10 53 45 83t84 30q44 0 73 -25t29 -68q0 -28 -14 -53t-30.5 -41t-53.5 -47l-95 -78h164l-6 -35h-241z" />
    <glyph glyph-name="three.num" horiz-adv-x="308" 
d="M183 368q-53 0 -88.5 26t-36.5 79h42q2 -33 23.5 -52t59.5 -19q35 0 58 18.5t23 53.5q0 27 -17.5 43.5t-48.5 16.5h-24l5 33h28q31 0 50 15.5t19 45.5q0 27 -17 42t-46 15q-67 0 -84 -66h-40q7 45 41.5 72.5t83.5 27.5q45 0 75 -22t30 -66q0 -61 -67 -82q26 -6 42 -26
t16 -51q0 -48 -36.5 -76t-90.5 -28z" />
    <glyph glyph-name="four.num" horiz-adv-x="310" 
d="M212 372l12 74h-179l3 15l204 254h58l-38 -235h48l-6 -34h-46l-12 -74h-44zM103 480h127l32 199z" />
    <glyph glyph-name="five.num" horiz-adv-x="295" 
d="M170 368q-48 0 -80 24t-35 73h42q3 -29 22 -45.5t51 -16.5q38 0 60.5 24.5t22.5 66.5q0 32 -19 51t-52 19q-45 0 -77 -34h-23l32 185h199l-5 -35h-164l-18 -109q29 27 73 27q43 0 71.5 -27.5t28.5 -73.5q-1 -59 -36 -94t-93 -35z" />
    <glyph glyph-name="six.num" horiz-adv-x="317" 
d="M190 368q-54 0 -85 32t-31 83q0 27 4 50l3 22q13 81 53.5 122.5t99.5 41.5q42 0 69.5 -21.5t29.5 -63.5h-40q-6 48 -62 50q-85 0 -106 -128l-2 -9q31 45 93 45q44 0 74.5 -26t30.5 -71q0 -56 -36.5 -91.5t-94.5 -35.5zM117 475q0 -31 19.5 -52.5t54.5 -21.5
q38 0 61.5 24.5t23.5 65.5q0 31 -18.5 50t-52.5 19q-38 0 -63 -22.5t-25 -62.5z" />
    <glyph glyph-name="seven.num" horiz-adv-x="269" 
d="M87 372l173 306h-182l6 37h241l-2 -6l-188 -337h-48z" />
    <glyph glyph-name="eight.num" horiz-adv-x="314" 
d="M186 368q-50 0 -86 24.5t-36 69.5q0 76 87 96q-50 20 -50 67q0 43 34.5 68.5t81.5 25.5q43 0 75.5 -23t32.5 -64q0 -60 -69 -79q60 -23 60 -81q0 -50 -36.5 -77t-93.5 -27zM109 466q1 -29 21.5 -46.5t57.5 -17.5q36 0 59.5 17.5t23.5 53.5q0 30 -21.5 48t-55.5 18
q-35 0 -60 -18.5t-25 -54.5zM144 624q0 -25 19.5 -39.5t47.5 -14.5q30 0 50.5 15.5t20.5 44.5q0 25 -19 40t-48 15q-30 0 -50.5 -15.5t-20.5 -45.5z" />
    <glyph glyph-name="nine.num" horiz-adv-x="317" 
d="M215 719q54 0 84.5 -30.5t31.5 -80.5q0 -24 -4 -58l-3 -21q-26 -161 -149 -161q-48 0 -77 22.5t-31 65.5h41q6 -53 69 -53q83 0 104 128l1 9q-31 -45 -93 -45q-44 0 -74.5 25.5t-30.5 71.5q0 55 37 91t94 36zM288 612q0 31 -19.5 52t-54.5 21q-37 0 -61 -24.5t-24 -64.5
q0 -32 18.5 -50.5t53.5 -18.5q37 0 62 22.5t25 62.5z" />
    <glyph glyph-name="zero.den" horiz-adv-x="350" 
d="M60 130q0 -43 21 -70.5t65 -27.5q58 0 85.5 51.5t27.5 129.5q0 43 -21 70.5t-64 27.5q-60 0 -87 -53.5t-27 -127.5zM146 -4q-62 0 -96.5 36.5t-34.5 98.5q0 92 41 154t119 62q60 0 94.5 -36.5t34.5 -99.5q0 -93 -39.5 -154t-118.5 -61z" />
    <glyph glyph-name="one.den" horiz-adv-x="219" 
d="M67 0l46 295l-96 -61l6 42l106 67h37l-54 -343h-45z" />
    <glyph glyph-name="two.den" horiz-adv-x="285" 
d="M-29 0l2 10l149 127q43 36 62 60.5t19 56.5q0 26 -17 42t-43 16q-67 0 -85 -78h-41q9 53 44 83t84 30q45 0 74 -24.5t29 -67.5q0 -27 -14.5 -52.5t-30.5 -41t-54 -47.5l-95 -79h165l-6 -35h-242z" />
    <glyph glyph-name="three.den" horiz-adv-x="308" 
d="M125 -4q-54 0 -89 26t-37 79h42q2 -32 24 -51.5t59 -19.5q35 0 58.5 18.5t23.5 53.5q0 27 -17.5 43.5t-49.5 16.5h-24l5 33h28q31 0 50 15.5t19 45.5q0 27 -17 42t-46 15q-66 0 -83 -66h-40q8 45 41.5 72.5t82.5 27.5q46 0 76 -22t30 -66q0 -30 -18 -51t-50 -30
q58 -16 58 -77q0 -49 -36.5 -77t-89.5 -28z" />
    <glyph glyph-name="four.den" horiz-adv-x="310" 
d="M154 0l12 74h-179l2 16l204 253h59l-38 -235h47l-5 -34h-47l-12 -74h-43zM45 108h127l31 199z" />
    <glyph glyph-name="five.den" horiz-adv-x="295" 
d="M112 -4q-49 0 -81 24t-35 73h43q5 -62 73 -62q37 0 60 24.5t23 66.5q0 32 -19 51t-52 19q-47 0 -78 -34h-22l31 185h200l-6 -35h-164l-18 -108q30 26 73 26t72 -27.5t28 -73.5q0 -58 -35 -93.5t-93 -35.5z" />
    <glyph glyph-name="six.den" horiz-adv-x="317" 
d="M132 -4q-54 0 -85 32t-32 84q0 16 4 50l4 21q12 82 52 123t100 41q42 0 69.5 -21t30.5 -63h-40q-8 49 -62 49q-85 0 -107 -128l-1 -9q31 45 93 45q44 0 74 -25.5t30 -71.5q0 -56 -36 -91.5t-94 -35.5zM59 103q0 -31 19.5 -52t54.5 -21q38 0 61.5 24.5t23.5 64.5
q0 31 -19 50.5t-53 19.5q-37 0 -62 -23t-25 -63z" />
    <glyph glyph-name="seven.den" horiz-adv-x="269" 
d="M29 0l172 306h-181l6 37h240l-1 -6l-188 -337h-48z" />
    <glyph glyph-name="eight.den" horiz-adv-x="314" 
d="M128 -4q-51 0 -86.5 24.5t-35.5 70.5q0 75 86 95q-49 19 -49 68q0 42 34 67.5t82 25.5q43 0 75 -22.5t32 -63.5q0 -60 -68 -80q59 -21 59 -80q0 -50 -36.5 -77.5t-92.5 -27.5zM51 94q0 -29 21 -46.5t58 -17.5q35 0 59 17.5t24 53.5q0 31 -21.5 48.5t-55.5 17.5
q-35 0 -60 -18.5t-25 -54.5zM86 253q0 -25 19.5 -40t47.5 -15q30 0 50.5 16t20.5 45q0 24 -19 39.5t-48 15.5q-30 0 -50.5 -16t-20.5 -45z" />
    <glyph glyph-name="nine.den" horiz-adv-x="317" 
d="M156 347q54 0 85 -30.5t31 -79.5q0 -37 -4 -58l-3 -22q-26 -161 -149 -161q-48 0 -77 22.5t-30 65.5h40q8 -53 70 -53q82 0 103 128l1 9q-31 -45 -93 -45q-44 0 -74 26t-30 71q0 55 37 91t93 36zM230 240q0 32 -19.5 53t-54.5 21q-38 0 -62 -25t-24 -65q0 -32 19 -50.5
t53 -18.5q37 0 62.5 22.5t25.5 62.5z" />
    <glyph glyph-name="zero.sub" horiz-adv-x="350" 
d="M48 43q0 -43 21.5 -70.5t65.5 -27.5q58 0 85.5 52t27.5 129q0 42 -21.5 70t-63.5 28q-60 0 -87.5 -54t-27.5 -127zM134 -91q-62 0 -96 37t-34 99q0 92 40.5 153.5t118.5 61.5q61 0 95 -36.5t34 -99.5q0 -93 -39.5 -154t-118.5 -61z" />
    <glyph glyph-name="one.sub" horiz-adv-x="219" 
d="M55 -87l47 295l-97 -60l6 42l106 67h37l-54 -344h-45z" />
    <glyph glyph-name="two.sub" horiz-adv-x="285" 
d="M-41 -87l2 10l149 127q44 36 62.5 60.5t18.5 57.5q0 26 -16.5 41.5t-43.5 15.5q-66 0 -85 -78h-41q9 53 44 83t84 30q45 0 74 -24.5t29 -67.5q0 -27 -14.5 -52.5t-30.5 -41t-54 -47.5l-94 -79h164l-6 -35h-242z" />
    <glyph glyph-name="three.sub" horiz-adv-x="308" 
d="M113 -91q-53 0 -88.5 26.5t-37.5 78.5h43q2 -32 24 -51t59 -19q34 0 57.5 18.5t23.5 53.5q0 27 -17.5 43.5t-49.5 16.5h-24l6 32h27q31 0 50.5 16t19.5 45q0 57 -64 57q-66 0 -83 -66h-40q7 46 41 73t83 27q46 0 76 -21.5t30 -65.5q0 -62 -67 -82q25 -6 41 -26t16 -51
q0 -48 -36.5 -76.5t-89.5 -28.5z" />
    <glyph glyph-name="four.sub" horiz-adv-x="310" 
d="M142 -87l12 75h-179l3 15l203 254h59l-38 -236h48l-6 -33h-47l-11 -75h-44zM33 21h127l31 200z" />
    <glyph glyph-name="five.sub" horiz-adv-x="295" 
d="M100 -91q-48 0 -80.5 24t-34.5 73h42q6 -61 73 -61q38 0 60.5 24.5t22.5 66.5q0 32 -19 51t-52 19q-46 0 -78 -34h-22l32 185h199l-6 -36h-164l-17 -108q27 27 73 27q43 0 71.5 -27.5t27.5 -73.5q0 -58 -35 -93.5t-93 -36.5z" />
    <glyph glyph-name="six.sub" horiz-adv-x="317" 
d="M120 -91q-54 0 -85 32t-32 84q0 16 4 50l4 21q13 82 53 123t99 41q42 0 70 -21t30 -63h-40q-7 49 -62 49q-41 1 -68 -30t-39 -97l-1 -9q31 45 93 45q44 0 74 -26t30 -71q0 -57 -36 -92.5t-94 -35.5zM47 17q0 -32 19.5 -53t54.5 -21q38 0 61.5 25t23.5 65q0 31 -19 50
t-53 19q-37 0 -62 -22.5t-25 -62.5z" />
    <glyph glyph-name="seven.sub" horiz-adv-x="269" 
d="M17 -87l172 307h-181l6 37h241l-2 -6l-188 -338h-48z" />
    <glyph glyph-name="eight.sub" horiz-adv-x="314" 
d="M116 -91q-50 0 -86 25t-36 70q0 76 87 95q-50 21 -50 68q0 42 34.5 67.5t81.5 25.5q43 0 75.5 -22.5t32.5 -63.5q0 -60 -69 -79q60 -23 60 -81q0 -50 -36.5 -77.5t-93.5 -27.5zM39 8q1 -29 21.5 -46.5t57.5 -17.5q36 0 59.5 17.5t23.5 53.5q0 30 -21.5 48t-55.5 18
q-35 0 -60 -19t-25 -54zM74 166q0 -25 19.5 -40t47.5 -15q30 0 50.5 16t20.5 45q0 25 -19 40t-48 15q-30 0 -50.5 -15.5t-20.5 -45.5z" />
    <glyph glyph-name="nine.sub" horiz-adv-x="317" 
d="M145 261q54 0 84.5 -30.5t31.5 -80.5q0 -24 -4 -58l-4 -21q-26 -162 -148 -162q-48 0 -77 23t-31 66h40q4 -27 20 -40t50 -13q83 0 103 128l2 8q-30 -44 -93 -44q-44 0 -74.5 25.5t-30.5 71.5q0 55 37 91t94 36zM218 154q0 31 -19.5 52t-54.5 21q-38 0 -61.5 -24.5
t-23.5 -65.5q0 -31 18.5 -50t52.5 -19q38 0 63 23t25 63z" />
    <glyph glyph-name="plus.sub" horiz-adv-x="323" 
d="M95 -44l17 108h-105l7 36h104l18 110h38l-18 -110h106l-7 -36h-105l-17 -108h-38z" />
    <glyph glyph-name="minus.sub" horiz-adv-x="323" 
d="M7 64l7 36h248l-7 -36h-248z" />
    <glyph glyph-name="zero.sup" horiz-adv-x="350" 
d="M127 559q0 -42 21.5 -69.5t65.5 -27.5q58 0 85.5 51.5t27.5 128.5q0 42 -21.5 70.5t-63.5 28.5q-60 0 -87.5 -54t-27.5 -128zM213 426q-62 0 -96 36.5t-34 98.5q0 91 41 153.5t118 62.5q61 0 95 -36.5t34 -100.5q0 -93 -39.5 -153.5t-118.5 -60.5z" />
    <glyph glyph-name="one.sup" horiz-adv-x="219" 
d="M134 430l47 294l-97 -60l6 42l107 67h37l-55 -343h-45z" />
    <glyph glyph-name="two.sup" horiz-adv-x="285" 
d="M39 430l1 9l149 127q44 37 63 61t19 57q0 26 -17 42t-44 16q-66 0 -85 -78h-41q10 53 45 83t84 30q44 0 73 -25t29 -68q0 -28 -14 -53t-30.5 -41t-53.5 -47l-95 -78h164l-6 -35h-241z" />
    <glyph glyph-name="three.sup" horiz-adv-x="308" 
d="M192 426q-53 0 -88.5 26t-36.5 79h42q2 -33 23.5 -52t59.5 -19q35 0 58 18.5t23 53.5q0 27 -17.5 43.5t-48.5 16.5h-24l5 33h28q31 0 50 15.5t19 45.5q0 27 -17 42t-46 15q-67 0 -84 -66h-40q8 45 42 72.5t83 27.5q45 0 75 -22t30 -66q0 -61 -67 -82q26 -6 42 -26t16 -51
q0 -48 -36.5 -76t-90.5 -28z" />
    <glyph glyph-name="four.sup" horiz-adv-x="310" 
d="M221 430l12 74h-179l3 15l204 254h58l-38 -235h48l-6 -34h-46l-12 -74h-44zM112 538h127l32 199z" />
    <glyph glyph-name="five.sup" horiz-adv-x="295" 
d="M179 426q-48 0 -80 24t-35 73h42q3 -29 22 -45.5t51 -16.5q38 0 60.5 24.5t22.5 66.5q0 32 -19 51t-52 19q-45 0 -77 -34h-23l32 185h199l-5 -35h-164l-18 -109q29 27 73 27q43 0 71.5 -27.5t28.5 -73.5q-1 -59 -36 -94t-93 -35z" />
    <glyph glyph-name="six.sup" horiz-adv-x="317" 
d="M199 426q-54 0 -85 32t-31 83q0 27 4 50l3 22q13 81 53.5 122.5t99.5 41.5q42 0 69.5 -21.5t29.5 -63.5h-40q-6 48 -62 50q-85 0 -106 -128l-2 -9q31 45 93 45q44 0 74.5 -26t30.5 -71q0 -56 -36.5 -91.5t-94.5 -35.5zM126 533q0 -31 19.5 -52.5t54.5 -21.5
q38 0 61.5 24.5t23.5 65.5q0 31 -18.5 50t-52.5 19q-38 0 -63 -22.5t-25 -62.5z" />
    <glyph glyph-name="seven.sup" horiz-adv-x="269" 
d="M96 430l173 306h-182l6 37h241l-2 -6l-188 -337h-48z" />
    <glyph glyph-name="eight.sup" horiz-adv-x="314" 
d="M195 426q-50 0 -86 24.5t-36 69.5q0 76 87 96q-50 20 -50 67q0 43 34.5 68.5t81.5 25.5q43 0 75.5 -23t32.5 -64q0 -60 -69 -79q60 -23 60 -81q0 -50 -36.5 -77t-93.5 -27zM118 524q1 -29 21.5 -46.5t57.5 -17.5q36 0 59.5 17.5t23.5 53.5q0 30 -21.5 48t-55.5 18
q-35 0 -60 -18.5t-25 -54.5zM153 682q0 -25 19.5 -39.5t47.5 -14.5q30 0 50.5 15.5t20.5 44.5q0 25 -19 40t-48 15q-30 0 -50.5 -15.5t-20.5 -45.5z" />
    <glyph glyph-name="nine.sup" horiz-adv-x="317" 
d="M224 777q54 0 84.5 -30.5t31.5 -80.5q0 -24 -4 -58l-3 -21q-26 -161 -149 -161q-48 0 -77 22.5t-31 65.5h41q6 -53 69 -53q83 0 104 128l1 9q-31 -45 -93 -45q-44 0 -74.5 25.5t-30.5 71.5q0 55 37 91t94 36zM297 670q0 31 -19.5 52t-54.5 21q-37 0 -61 -24.5t-24 -64.5
q0 -32 19 -50.5t53 -18.5q37 0 62 22.5t25 62.5z" />
    <glyph glyph-name="plus.sup" horiz-adv-x="323" 
d="M175 474l17 108h-105l6 36h105l18 110h38l-18 -110h105l-6 -36h-105l-17 -108h-38z" />
    <glyph glyph-name="minus.sup" horiz-adv-x="323" 
d="M87 582l6 36h248l-6 -36h-248z" />
    <glyph glyph-name="a.alt" horiz-adv-x="593" 
d="M302 486q-95 0 -151.5 -74t-56.5 -186q0 -88 45 -138.5t119 -50.5q90 0 148.5 76.5t59.5 184.5q1 85 -45 136.5t-119 51.5zM249 -8q-93 0 -152 63.5t-59 168.5q0 129 72.5 218t190.5 89q76 0 120.5 -40.5t60.5 -96.5l20 129h53l-57 -359q-14 -95 -14 -164h-51
q-2 53 9 119q-64 -127 -193 -127z" />
    <glyph glyph-name="t.alt" horiz-adv-x="319" 
d="M70 0l75 478h-88l8 45h87l19 119h53l-19 -119h127l-7 -45h-127l-75 -478h-53z" />
    <glyph glyph-name="germandbls.alt" horiz-adv-x="595" 
d="M364 -7q-72 0 -116.5 37t-48.5 107h52q5 -47 34 -73t80 -26t85.5 28t34.5 76q0 40 -24 67t-73 59q-53 34 -78 60t-25 62q0 30 21 56t50.5 46.5t59.5 41t51 48t21 58.5q0 44 -33 68t-87 24q-75 0 -124 -44t-62 -128l-89 -560h-53l89 564q16 101 82 156.5t161 55.5
q69 0 118 -34.5t49 -99.5q0 -37 -21 -69t-50.5 -53.5t-59.5 -40.5t-51 -40t-21 -42q0 -28 79 -82q11 -8 17 -12q53 -37 80 -72t27 -87q0 -66 -50 -108.5t-125 -42.5z" />
    <glyph glyph-name="aacute.alt" horiz-adv-x="593" 
d="M302 605l88 147h68l-112 -147h-44zM302 486q-95 0 -151.5 -74t-56.5 -186q0 -88 45 -138.5t119 -50.5q90 0 148.5 76.5t59.5 184.5q1 85 -45 136.5t-119 51.5zM249 -8q-93 0 -152 63.5t-59 168.5q0 129 72.5 218t190.5 89q76 0 120.5 -40.5t60.5 -96.5l20 129h53
l-57 -359q-14 -95 -14 -164h-51q-2 53 9 119q-64 -127 -193 -127z" />
    <glyph glyph-name="abreve.alt" horiz-adv-x="593" 
d="M302 486q-95 0 -151.5 -74t-56.5 -186q0 -88 45 -138.5t119 -50.5q90 0 148.5 76.5t59.5 184.5q1 85 -45 136.5t-119 51.5zM249 -8q-93 0 -152 63.5t-59 168.5q0 129 72.5 218t190.5 89q76 0 120.5 -40.5t60.5 -96.5l20 129h53l-57 -359q-14 -95 -14 -164h-51
q-2 53 9 119q-64 -127 -193 -127zM335 616q-52 0 -84.5 33.5t-32.5 87.5h44q2 -37 20.5 -57t52.5 -20q72 0 88 77h42q-6 -54 -43 -87.5t-87 -33.5z" />
    <glyph glyph-name="acircumflex.alt" horiz-adv-x="593" 
d="M193 605l128 135h49l91 -135h-40l-81 91l-104 -91h-43zM302 486q-95 0 -151.5 -74t-56.5 -186q0 -88 45 -138.5t119 -50.5q90 0 148.5 76.5t59.5 184.5q1 85 -45 136.5t-119 51.5zM249 -8q-93 0 -152 63.5t-59 168.5q0 129 72.5 218t190.5 89q76 0 120.5 -40.5
t60.5 -96.5l20 129h53l-57 -359q-14 -95 -14 -164h-51q-2 53 9 119q-64 -127 -193 -127z" />
    <glyph glyph-name="adieresis.alt" horiz-adv-x="593" 
d="M256 636q-15 0 -25.5 10.5t-10.5 25.5t11 26t26 11t25.5 -10.5t10.5 -25.5t-10.5 -26t-26.5 -11zM423 636q-15 0 -25.5 10.5t-10.5 25.5t10.5 26t26.5 11q15 0 25.5 -10.5t10.5 -25.5t-11 -26t-26 -11zM302 486q-95 0 -151.5 -74t-56.5 -186q0 -88 45 -138.5t119 -50.5
q90 0 148.5 76.5t59.5 184.5q1 85 -45 136.5t-119 51.5zM249 -8q-93 0 -152 63.5t-59 168.5q0 129 72.5 218t190.5 89q76 0 120.5 -40.5t60.5 -96.5l20 129h53l-57 -359q-14 -95 -14 -164h-51q-2 53 9 119q-64 -127 -193 -127z" />
    <glyph glyph-name="agrave.alt" horiz-adv-x="593" 
d="M302 486q-95 0 -151.5 -74t-56.5 -186q0 -88 45 -138.5t119 -50.5q90 0 148.5 76.5t59.5 184.5q1 85 -45 136.5t-119 51.5zM249 -8q-93 0 -152 63.5t-59 168.5q0 129 72.5 218t190.5 89q76 0 120.5 -40.5t60.5 -96.5l20 129h53l-57 -359q-14 -95 -14 -164h-51
q-2 53 9 119q-64 -127 -193 -127zM312 605l-73 147h64l50 -147h-41z" />
    <glyph glyph-name="amacron.alt" horiz-adv-x="593" 
d="M302 486q-95 0 -151.5 -74t-56.5 -186q0 -88 45 -138.5t119 -50.5q90 0 148.5 76.5t59.5 184.5q1 85 -45 136.5t-119 51.5zM249 -8q-93 0 -152 63.5t-59 168.5q0 129 72.5 218t190.5 89q76 0 120.5 -40.5t60.5 -96.5l20 129h53l-57 -359q-14 -95 -14 -164h-51
q-2 53 9 119q-64 -127 -193 -127zM218 647l6 42h243l-7 -42h-242z" />
    <glyph glyph-name="aogonek.alt" horiz-adv-x="593" 
d="M484 0q-19 -11 -30 -18.5t-28.5 -21.5t-26 -29.5t-8.5 -32.5q0 -40 48 -40q22 0 46 8l-6 -39q-29 -9 -51 -9q-41 0 -65 19.5t-24 55.5q0 58 94 109q-2 51 9 117q-64 -127 -193 -127q-93 0 -152 63.5t-59 168.5q0 129 72.5 218t190.5 89q76 0 120.5 -40.5t60.5 -96.5
l20 129h53l-57 -359q-14 -95 -14 -164zM302 486q-95 0 -151.5 -74t-56.5 -186q0 -88 45 -138.5t119 -50.5q90 0 148.5 76.5t59.5 184.5q1 85 -45 136.5t-119 51.5z" />
    <glyph glyph-name="aring.alt" horiz-adv-x="593" 
d="M347 633q27 0 44.5 18.5t17.5 46.5q0 27 -16 44.5t-43 17.5q-26 0 -44.5 -19t-18.5 -47q0 -27 16.5 -44t43.5 -17zM347 601q-41 0 -69 27t-28 66q0 40 29.5 69t70.5 29t68.5 -27.5t27.5 -66.5q0 -40 -29 -68.5t-70 -28.5zM302 486q-95 0 -151.5 -74t-56.5 -186
q0 -88 45 -138.5t119 -50.5q90 0 148.5 76.5t59.5 184.5q1 85 -45 136.5t-119 51.5zM249 -8q-93 0 -152 63.5t-59 168.5q0 129 72.5 218t190.5 89q76 0 120.5 -40.5t60.5 -96.5l20 129h53l-57 -359q-14 -95 -14 -164h-51q-2 53 9 119q-64 -127 -193 -127z" />
    <glyph glyph-name="aringacute.alt" horiz-adv-x="593" 
d="M341 623q27 0 44.5 18.5t17.5 46.5q0 27 -16 44.5t-43 17.5q-26 0 -44.5 -19t-18.5 -47q0 -27 16.5 -44t43.5 -17zM341 591q-41 0 -69 27t-28 66q0 40 29.5 69t70.5 29t68.5 -27.5t27.5 -66.5q0 -40 -29 -68.5t-70 -28.5zM302 486q-95 0 -151.5 -74t-56.5 -186
q0 -88 45 -138.5t119 -50.5q90 0 148.5 76.5t59.5 184.5q1 85 -45 136.5t-119 51.5zM249 -8q-93 0 -152 63.5t-59 168.5q0 129 72.5 218t190.5 89q76 0 120.5 -40.5t60.5 -96.5l20 129h53l-57 -359q-14 -95 -14 -164h-51q-2 53 9 119q-64 -127 -193 -127zM341 829l74 122h68
l-97 -122h-45z" />
    <glyph glyph-name="atilde.alt" horiz-adv-x="593" 
d="M302 486q-95 0 -151.5 -74t-56.5 -186q0 -88 45 -138.5t119 -50.5q90 0 148.5 76.5t59.5 184.5q1 85 -45 136.5t-119 51.5zM249 -8q-93 0 -152 63.5t-59 168.5q0 129 72.5 218t190.5 89q76 0 120.5 -40.5t60.5 -96.5l20 129h53l-57 -359q-14 -95 -14 -164h-51
q-2 53 9 119q-64 -127 -193 -127zM399 616q-26 0 -66 26.5t-56 26.5q-17 0 -31.5 -14t-20.5 -39h-40q9 47 34 73t59 26q25 0 65 -26.5t57 -26.5t31 14t20 39h40q-10 -47 -34.5 -73t-57.5 -26z" />
    <glyph glyph-name="tbar.alt" horiz-adv-x="319" 
d="M29 301l7 40h87l22 137h-88l8 45h87l19 119h53l-19 -119h127l-7 -45h-127l-22 -137h127l-6 -40h-127l-47 -301h-53l47 301h-88z" />
    <glyph glyph-name="tcaron.alt" horiz-adv-x="319" 
d="M70 0l75 478h-88l8 45h87l19 119h53l-19 -119h127l-7 -45h-127l-75 -478h-53zM299 611l38 162h58l-56 -162h-40z" />
    <glyph glyph-name="tcommaaccent.alt" horiz-adv-x="319" 
d="M27 -204l-33 17l69 146l51 -15zM70 0l75 478h-88l8 45h87l19 119h53l-19 -119h127l-7 -45h-127l-75 -478h-53z" />
    <glyph glyph-name="f.short" horiz-adv-x="323" 
d="M56 478l7 45h79l16 97q24 156 161 156q31 0 61 -10l-7 -43q-21 8 -53 8q-44 0 -71.5 -26t-37.5 -87l-15 -95h145l-7 -45h-145l-76 -478h-53l75 478h-79z" />
    <glyph glyph-name="f_f.short" horiz-adv-x="599" 
d="M56 478l7 45h79l15 93q12 78 56 114t108 36q35 0 62 -10l-6 -43q-24 9 -54 9q-96 0 -113 -107l-15 -92h223l16 97q26 156 161 156q33 0 61 -10l-7 -43q-21 8 -52 8q-45 0 -72.5 -26t-37.5 -87l-15 -95h145l-7 -45h-145l-76 -478h-53l75 478h-223l-75 -478h-53l75 478h-79
z" />
    <glyph glyph-name="questiondown.uc" horiz-adv-x="477" 
d="M331 536l-9 -61q-5 -32 -15.5 -56.5t-34.5 -49t-35 -34t-47 -38.5q-30 -22 -42.5 -33t-30.5 -31t-25 -41.5t-7 -49.5q0 -51 34.5 -78t90.5 -27q64 0 108.5 38.5t56.5 111.5h51q-13 -92 -73.5 -143.5t-147.5 -51.5q-80 0 -127.5 41t-47.5 109q0 18 3.5 35t7 29t14.5 27
t15.5 22t21.5 21.5t21 18t25.5 20t24.5 18.5q35 27 53.5 43.5t35.5 43.5t22 60l9 56h48zM327 720q17 0 29.5 -12.5t12.5 -29.5q0 -18 -12 -30.5t-30 -12.5q-17 0 -30 12.5t-13 30.5q0 17 12.5 29.5t30.5 12.5z" />
    <glyph glyph-name="exclamdown.uc" horiz-adv-x="272" 
d="M200 536l-77 -536h-59l94 536h42zM201 720q17 0 29.5 -12.5t12.5 -29.5q0 -18 -12 -30.5t-30 -12.5q-17 0 -30 12.5t-13 30.5q0 17 12.5 29.5t30.5 12.5z" />
    <glyph glyph-name="hyphen.uc" horiz-adv-x="358" 
d="M68 308l8 50h235l-8 -50h-235z" />
    <glyph glyph-name="endash.uc" horiz-adv-x="503" 
d="M53 309l7 46h411l-8 -46h-410z" />
    <glyph glyph-name="emdash.uc" horiz-adv-x="869" 
d="M53 309l7 46h777l-8 -46h-776z" />
    <glyph glyph-name="guilsinglleft.uc" horiz-adv-x="290" 
d="M163 118l-107 184l163 182h56l-163 -185l103 -181h-52z" />
    <glyph glyph-name="guilsinglright.uc" horiz-adv-x="290" 
d="M140 484l108 -184l-164 -182h-56l164 185l-104 181h52z" />
    <glyph glyph-name="guillemotleft.uc" horiz-adv-x="448" 
d="M163 118l-107 184l163 182h56l-163 -185l103 -181h-52zM321 118l-108 184l164 182h56l-164 -185l104 -181h-52z" />
    <glyph glyph-name="guillemotright.uc" horiz-adv-x="448" 
d="M298 484l108 -184l-164 -182h-56l164 185l-104 181h52zM140 484l108 -184l-164 -182h-56l164 185l-104 181h52z" />
    <glyph glyph-name="parenleft.uc" horiz-adv-x="297" 
d="M161 -98q-99 152 -99 342q0 305 236 539h57q-238 -249 -238 -538q0 -184 96 -343h-52z" />
    <glyph glyph-name="parenright.uc" horiz-adv-x="297" 
d="M160 783q100 -154 100 -342q0 -304 -237 -539h-57q238 249 238 538q0 184 -96 343h52z" />
    <glyph glyph-name="bracketleft.uc" horiz-adv-x="340" 
d="M37 -84l137 862h206l-8 -43h-152l-123 -776h153l-7 -43h-206z" />
    <glyph glyph-name="bracketright.uc" horiz-adv-x="340" 
d="M-14 -84l7 43h153l122 776h-153l8 43h205l-137 -862h-205z" />
    <glyph glyph-name="braceleft.uc" horiz-adv-x="363" 
d="M265 -88q-104 6 -140.5 58.5t-3.5 149.5l27 78q44 130 -97 135l7 41q77 -1 109 28.5t29 92.5l-6 95q-6 103 46.5 145.5t165.5 43.5l-7 -41q-87 -2 -123.5 -34t-31.5 -116l6 -93q5 -119 -115 -144q52 -14 69 -55t-4 -103l-26 -76q-27 -83 -2.5 -121t104.5 -43z" />
    <glyph glyph-name="braceright.uc" horiz-adv-x="364" 
d="M123 779q210 -12 144 -208l-27 -77q-45 -129 96 -136l-6 -40q-77 1 -109 -28.5t-29 -92.5l6 -96q6 -102 -46.5 -144.5t-165.5 -43.5l6 40q87 3 123.5 34.5t31.5 116.5l-5 93q-6 120 114 145q-51 14 -68 54t4 103l26 76q27 82 2.5 120t-104.5 43z" />
    <glyph glyph-name="slash.uc" horiz-adv-x="391" 
d="M-23 -84l406 862h52l-407 -862h-51z" />
    <glyph glyph-name="backslash.uc" horiz-adv-x="391" 
d="M253 -84l-136 862h49l136 -862h-49z" />
    <glyph glyph-name="bar.uc" horiz-adv-x="241" 
d="M111 -84l-1 862h45v-862h-44z" />
    <glyph glyph-name="at.uc" horiz-adv-x="898" 
d="M460 -58q-94 0 -170.5 32t-124.5 86t-73.5 122t-25.5 143q0 120 60 219t156.5 153t206.5 54q169 0 271.5 -98.5t102.5 -246.5q0 -128 -55.5 -191t-125.5 -63q-104 0 -107 96q-21 -42 -62.5 -72.5t-90.5 -30.5q-67 0 -107.5 42.5t-41.5 113.5q-1 98 56.5 167.5t139.5 69.5
q50 0 83 -25.5t41 -64.5l13 82h52l-36 -233q-18 -106 61 -106q55 0 93 53.5t38 160.5q0 133 -86.5 217.5t-240.5 84.5q-155 0 -262.5 -108t-107.5 -275q1 -142 90.5 -240t254.5 -98q172 0 264 97h51q-39 -62 -123.5 -101.5t-193.5 -39.5zM433 186q58 0 102.5 53t45.5 133
q0 58 -29 91t-81 33q-61 0 -102.5 -55.5t-40.5 -137.5q0 -54 28 -85.5t77 -31.5z" />
    </font>
</defs>
</svg>
