<?xml version="1.0" standalone="no"?>
<!DOCTYPE svg PUBLIC "-//W3C//DTD SVG 1.1//EN" "http://www.w3.org/Graphics/SVG/1.1/DTD/svg11.dtd" >
<svg>
<metadata>
Created by FontForge 20120731 at Sun Aug 28 06:45:00 2016
 By ,,,
(c)2009 Commercial Type.
</metadata>
<defs>
<font id="Graphik-Regular" horiz-adv-x="600" >
  <font-face 
    font-family="Graphik Regular"
    font-weight="400"
    font-stretch="normal"
    units-per-em="1000"
    panose-1="2 11 5 3 3 2 2 6 2 3"
    ascent="818"
    descent="-182"
    x-height="523"
    cap-height="715"
    bbox="-230 -220 1092 1113"
    underline-thickness="50"
    underline-position="-50"
    unicode-range="U+0020-FB02"
  />
<missing-glyph horiz-adv-x="500" 
 />
    <glyph glyph-name="f_f" unicode="ff" horiz-adv-x="634" 
d="M102 0v453h-75v70h75v78q0 81 39.5 124.5t116.5 43.5q32 0 62 -10v-70q-28 11 -59 11q-76 0 -76 -90v-87h205v85q0 81 39.5 124.5t116.5 43.5q32 0 62 -10v-70q-28 11 -59 11q-76 0 -76 -90v-94h128v-70h-128v-453h-83v453h-205v-453h-83z" />
    <glyph glyph-name=".notdef" horiz-adv-x="500" 
 />
    <glyph glyph-name=".null" horiz-adv-x="0" 
 />
    <glyph glyph-name="nonmarkingreturn" horiz-adv-x="333" 
 />
    <glyph glyph-name="space" unicode=" " horiz-adv-x="265" 
 />
    <glyph glyph-name="exclam" unicode="!" horiz-adv-x="286" 
d="M143 -5q-26 0 -45 18.5t-19 45.5t19 45.5t45 18.5t45 -18.5t19 -45.5t-19 -45.5t-45 -18.5zM112 202l-14 513h92l-14 -513h-64z" />
    <glyph glyph-name="quotedbl" unicode="&#x22;" horiz-adv-x="375" 
d="M76 470l-15 245h90l-15 -245h-60zM239 470l-15 245h90l-15 -245h-60z" />
    <glyph glyph-name="numbersign" unicode="#" horiz-adv-x="503" 
d="M252 99l26 183h-97l-26 -183h-68l26 183h-83v70h94l19 132h-85v70h95l24 161h68l-24 -161h97l24 161h68l-24 -161h87v-70h-97l-19 -132h88v-70h-99l-26 -183h-68zM211 484l-19 -132h97l19 132h-97z" />
    <glyph glyph-name="dollar" unicode="$" horiz-adv-x="627" 
d="M285 -135v127q-218 15 -240 226h84q9 -70 41 -110t115 -48v278q-106 20 -158.5 63.5t-52.5 128.5q0 78 59 132.5t152 60.5v90h59v-91q91 -8 144.5 -58t63.5 -137h-78q-11 58 -42.5 88.5t-87.5 38.5v-250q116 -21 169.5 -65t53.5 -137q0 -86 -63 -145t-160 -65v-127h-59z
M484 196q0 57 -30 86t-110 46v-268q61 6 100.5 43.5t39.5 92.5zM153 538q0 -51 26.5 -79.5t105.5 -44.5v241q-62 -5 -97 -37t-35 -80z" />
    <glyph glyph-name="percent" unicode="%" horiz-adv-x="784" 
d="M198 448q41 0 64.5 27t23.5 77q0 48 -23.5 76t-64.5 28q-40 0 -64 -27.5t-24 -77.5t23.5 -76.5t64.5 -26.5zM198 383q-66 0 -115 48t-49 119q0 73 48.5 122t115.5 49q68 0 116 -48.5t48 -120.5t-49 -120.5t-115 -48.5zM135 0l437 715h76l-437 -715h-76zM586 57
q41 0 64.5 27t23.5 77q0 48 -23.5 76t-64.5 28q-40 0 -64 -27.5t-24 -77.5t23.5 -76.5t64.5 -26.5zM586 -8q-66 0 -115 48t-49 119q0 73 48.5 122t115.5 49q68 0 116 -48.5t48 -120.5t-49 -120.5t-115 -48.5z" />
    <glyph glyph-name="ampersand" unicode="&#x26;" horiz-adv-x="686" 
d="M644 369l-117 -223l120 -146h-101l-71 86q-80 -93 -198 -93q-99 0 -162.5 54t-63.5 142q0 78 42.5 127t121.5 88q-63 81 -63 151q0 77 51.5 120.5t123.5 43.5q67 0 111.5 -41.5t44.5 -105.5q0 -119 -153 -185l150 -183l87 165h77zM280 61q88 0 152 78l-178 217
q-59 -28 -89 -64t-30 -95q0 -64 38.5 -100t106.5 -36zM232 554q0 -43 62 -121q61 27 86 58.5t25 82.5q0 35 -22.5 57.5t-58.5 22.5q-40 0 -66 -25t-26 -75z" />
    <glyph glyph-name="quotesingle" unicode="'" horiz-adv-x="212" 
d="M76 470l-15 245h90l-15 -245h-60z" />
    <glyph glyph-name="parenleft" unicode="(" horiz-adv-x="322" 
d="M219 -148q-166 195 -166 460q0 266 166 461h83q-162 -202 -162 -461q0 -258 162 -460h-83z" />
    <glyph glyph-name="parenright" unicode=")" horiz-adv-x="322" 
d="M20 -145q162 202 162 461q0 258 -162 460h83q166 -195 166 -460q0 -266 -166 -461h-83z" />
    <glyph glyph-name="asterisk" unicode="*" horiz-adv-x="422" 
d="M139 409l-57 41l83 111l-123 29l22 67l118 -48l-7 134h73l-7 -134l117 48l22 -67l-124 -29l83 -111l-56 -41l-74 120z" />
    <glyph glyph-name="plus" unicode="+" horiz-adv-x="519" 
d="M223 105v202h-187v70h187v202h73v-202h187v-70h-187v-202h-73z" />
    <glyph glyph-name="comma" unicode="," horiz-adv-x="282" 
d="M90 -123l-54 28l96 219l81 -38z" />
    <glyph glyph-name="hyphen" unicode="-" horiz-adv-x="334" 
d="M60 236v78h214v-78h-214z" />
    <glyph glyph-name="period" unicode="." horiz-adv-x="282" 
d="M141 -5q-26 0 -45 18.5t-19 45.5t19 45.5t45 18.5t45 -18.5t19 -45.5t-19 -45.5t-45 -18.5z" />
    <glyph glyph-name="slash" unicode="/" horiz-adv-x="403" 
d="M6 -148l291 924h76l-291 -924h-76z" />
    <glyph glyph-name="zero" unicode="0" horiz-adv-x="681" 
d="M344 63q93 0 141 70.5t48 206.5v40q0 126 -50.5 200t-140.5 74q-91 0 -142 -72.5t-51 -203.5v-40q0 -133 52 -204t143 -71zM344 -9q-128 0 -206 95t-78 251v40q0 159 75.5 253t206.5 94q130 0 204.5 -95t74.5 -250v-40q0 -158 -73.5 -253t-203.5 -95z" />
    <glyph glyph-name="one" unicode="1" horiz-adv-x="399" 
d="M193 0v629l-160 -115v81l166 120h81v-715h-87z" />
    <glyph glyph-name="two" unicode="2" horiz-adv-x="554" 
d="M19 0v20l284 299q103 109 103 207q0 60 -33.5 94t-94.5 34q-131 0 -151 -159h-81q8 106 69.5 167.5t162.5 61.5q99 0 157.5 -54.5t58.5 -146.5q0 -119 -144 -260l-197 -192h345v-71h-479z" />
    <glyph glyph-name="three" unicode="3" horiz-adv-x="604" 
d="M290 -9q-111 0 -178.5 62t-71.5 158h80q6 -68 48.5 -109t123.5 -41q82 0 122.5 36.5t40.5 101.5q0 139 -151 139h-54v73h50q134 0 134 122q0 53 -33.5 86.5t-96.5 33.5q-66 0 -108.5 -37t-49.5 -98h-76q4 87 69 146.5t165 59.5q98 0 156.5 -55.5t58.5 -133.5
q0 -109 -113 -156q65 -17 101.5 -62.5t36.5 -117.5q0 -96 -70.5 -152t-183.5 -56z" />
    <glyph glyph-name="four" unicode="4" horiz-adv-x="617" 
d="M397 0v150h-358v28l327 537h116v-494h99v-71h-99v-150h-85zM149 221h248v428z" />
    <glyph glyph-name="five" unicode="5" horiz-adv-x="587" 
d="M281 -9q-111 0 -170.5 55t-67.5 147h83q12 -65 45 -98.5t109 -33.5q73 0 115 46t42 127q0 76 -41 121.5t-109 45.5q-108 0 -169 -69h-32v383h402v-75h-330v-218q53 49 146 49q98 0 160 -64.5t62 -172.5q0 -110 -70 -176.5t-175 -66.5z" />
    <glyph glyph-name="six" unicode="6" horiz-adv-x="619" 
d="M317 -9q-71 0 -122 25t-80 71t-42 102.5t-13 126.5v17q0 188 76.5 289.5t203.5 101.5q85 0 140 -44t69 -129h-83q-12 52 -43 77t-89 25q-83 0 -134 -74t-54 -212q26 44 74.5 70.5t109.5 26.5q105 0 169.5 -67t64.5 -167q0 -108 -67 -173.5t-180 -65.5zM317 59
q71 0 114.5 46t43.5 121q0 77 -43 123.5t-116 46.5q-72 0 -118 -44t-46 -114q0 -85 45.5 -132t119.5 -47z" />
    <glyph glyph-name="seven" unicode="7" horiz-adv-x="525" 
d="M146 0l249 645h-363v70h471v-12l-268 -703h-89z" />
    <glyph glyph-name="eight" unicode="8" horiz-adv-x="607" 
d="M304 -9q-61 0 -116 22.5t-93 72.5t-38 117q0 69 37 116t98 69q-51 20 -79.5 59t-28.5 91q0 83 66.5 134.5t153.5 51.5t153 -51.5t66 -132.5q0 -103 -110 -151q137 -50 137 -184q0 -101 -73.5 -157.5t-172.5 -56.5zM304 62q69 0 113 38.5t44 107.5q0 68 -44 105t-111 37
q-68 0 -114 -38t-46 -106q0 -67 46 -105.5t112 -38.5zM307 419q58 0 93 32t35 88q0 51 -37.5 84t-93.5 33q-57 0 -94.5 -32.5t-37.5 -86.5t39 -86t96 -32z" />
    <glyph glyph-name="nine" unicode="9" horiz-adv-x="620" 
d="M290 -8q-98 0 -157 48.5t-73 135.5h84q13 -56 47.5 -84.5t100.5 -28.5q87 0 134.5 71.5t48.5 212.5q-26 -44 -75 -69.5t-110 -25.5q-104 0 -169.5 66t-65.5 168q0 108 67 173.5t180 65.5q126 0 191.5 -82.5t65.5 -237.5v-45q0 -177 -70 -272.5t-199 -95.5zM303 320
q72 0 118 43t46 112q0 86 -45.5 134t-119.5 48q-71 0 -114.5 -46t-43.5 -121q0 -77 43 -123.5t116 -46.5z" />
    <glyph glyph-name="colon" unicode=":" horiz-adv-x="292" 
d="M146 -5q-26 0 -45 18.5t-19 45.5t19 45.5t45 18.5t45 -18.5t19 -45.5t-19 -45.5t-45 -18.5zM146 292q-26 0 -45 18.5t-19 45.5t19 45.5t45 18.5t45 -18.5t19 -45.5t-19 -45.5t-45 -18.5z" />
    <glyph glyph-name="semicolon" unicode=";" horiz-adv-x="292" 
d="M75 -123l-54 28l96 219l81 -38zM155 292q-26 0 -45 18.5t-19 45.5t19 45.5t45 18.5t45 -18.5t19 -45.5t-19 -45.5t-45 -18.5z" />
    <glyph glyph-name="less" unicode="&#x3c;" horiz-adv-x="504" 
d="M437 95l-384 217v20l384 217v-80l-263 -147l263 -147v-80z" />
    <glyph glyph-name="equal" unicode="=" horiz-adv-x="484" 
d="M40 196v72h404v-72h-404zM40 376v72h404v-72h-404z" />
    <glyph glyph-name="greater" unicode="&#x3e;" horiz-adv-x="504" 
d="M67 95v80l263 147l-263 147v80l384 -217v-20z" />
    <glyph glyph-name="question" unicode="?" horiz-adv-x="489" 
d="M179 202v50q0 38 18 74t34 54t51 52q24 24 37 39.5t24.5 38t11.5 45.5q0 46 -26.5 73t-80.5 27q-56 0 -92 -35.5t-41 -94.5h-78q5 89 63 144t149 55q95 0 142.5 -48t47.5 -118q0 -34 -16.5 -67.5t-32.5 -51t-49 -48.5q-29 -28 -44 -44.5t-29.5 -44.5t-14.5 -57v-43h-74z
M214 -5q-26 0 -45 18.5t-19 45.5t19 45.5t45 18.5t45 -18.5t19 -45.5t-19 -45.5t-45 -18.5z" />
    <glyph glyph-name="at" unicode="@" horiz-adv-x="915" 
d="M459 -147q-97 0 -177 33.5t-131 90.5t-78.5 129.5t-27.5 153.5q0 181 125.5 304.5t301.5 123.5q177 0 287.5 -104.5t110.5 -261.5q0 -67 -18 -118.5t-46.5 -80t-60 -42.5t-63.5 -14q-57 0 -82.5 22t-32.5 64q-23 -40 -63.5 -66.5t-85.5 -26.5q-73 0 -117 47t-44 127
q0 100 57 166t140 66q93 0 121 -68l7 60h83l-30 -252q-10 -79 48 -79q47 0 81 49t34 144q0 136 -87 219t-239 83t-251 -101t-99 -259q0 -69 21.5 -130.5t62.5 -109t106.5 -75.5t146.5 -28q79 0 133 19.5t103 61.5h77q-39 -66 -123 -106.5t-190 -40.5zM436 124q50 0 89 44
t39 119q0 56 -27 84.5t-77 28.5q-49 0 -83.5 -44.5t-34.5 -120.5q0 -51 26.5 -81t67.5 -30z" />
    <glyph glyph-name="A" unicode="A" horiz-adv-x="674" 
d="M36 0l246 715h114l242 -715h-86l-70 206h-295l-69 -206h-82zM335 643l-124 -368h248z" />
    <glyph glyph-name="B" unicode="B" horiz-adv-x="622" 
d="M90 0v715h215q230 0 230 -185v-4q0 -114 -108 -151q77 -18 110 -59t33 -112v-4q0 -99 -62.5 -149.5t-172.5 -50.5h-245zM175 68h158q152 0 152 133v4q0 67 -39.5 98.5t-124.5 31.5h-146v-267zM175 403h130q78 0 111.5 29.5t33.5 96.5v4q0 60 -35.5 87t-111.5 27h-128
v-244z" />
    <glyph glyph-name="C" unicode="C" horiz-adv-x="730" 
d="M389 -9q-155 0 -244.5 98t-89.5 264v8q0 159 95 262t241 103q117 0 198 -61t92 -173h-86q-27 165 -203 165q-111 0 -179 -80.5t-68 -214.5v-8q0 -137 65.5 -214.5t180.5 -77.5q89 0 146 44.5t70 130.5h81q-18 -121 -97 -183.5t-202 -62.5z" />
    <glyph glyph-name="D" unicode="D" horiz-adv-x="696" 
d="M177 71h98q135 0 205.5 75.5t70.5 209.5v8q0 131 -67.5 206t-209.5 75h-97v-574zM90 0v715h189q177 0 269.5 -97t92.5 -254v-9q0 -157 -92.5 -256t-271.5 -99h-187z" />
    <glyph glyph-name="E" unicode="E" horiz-adv-x="566" 
d="M90 0v715h417v-71h-330v-243h266v-71h-266v-259h348v-71h-435z" />
    <glyph glyph-name="F" unicode="F" horiz-adv-x="546" 
d="M90 0v715h418v-71h-331v-253h258v-71h-258v-320h-87z" />
    <glyph glyph-name="G" unicode="G" horiz-adv-x="767" 
d="M401 -9q-161 0 -253.5 100.5t-92.5 261.5v8q0 158 96.5 261.5t249.5 103.5q115 0 195 -56.5t96 -170.5h-87q-28 158 -202 158q-121 0 -189.5 -80.5t-68.5 -214.5v-8q0 -136 66 -214.5t190 -78.5q111 0 167 63t58 165h-209v72h294v-53q0 -152 -84.5 -234.5t-225.5 -82.5z
" />
    <glyph glyph-name="H" unicode="H" horiz-adv-x="730" 
d="M90 0v715h87v-324h376v324h87v-715h-87v318h-376v-318h-87z" />
    <glyph glyph-name="I" unicode="I" horiz-adv-x="277" 
d="M95 0v715h87v-715h-87z" />
    <glyph glyph-name="J" unicode="J" horiz-adv-x="420" 
d="M138 -9q-64 0 -100 19v72q47 -20 95 -20q116 0 116 136v517h87v-521q0 -102 -55 -152.5t-143 -50.5z" />
    <glyph glyph-name="K" unicode="K" horiz-adv-x="616" 
d="M90 0v715h87v-344l311 345h97l-318 -348l334 -368h-105l-319 349v-349h-87z" />
    <glyph glyph-name="L" unicode="L" horiz-adv-x="535" 
d="M90 0v715h87v-644h327v-71h-414z" />
    <glyph glyph-name="M" unicode="M" horiz-adv-x="856" 
d="M90 0v715h121l221 -557l214 557h120v-715h-87v602l-237 -602h-27l-245 602v-602h-80z" />
    <glyph glyph-name="N" unicode="N" horiz-adv-x="724" 
d="M90 0v715h113l348 -591v591h83v-715h-100l-361 613v-613h-83z" />
    <glyph glyph-name="O" unicode="O" horiz-adv-x="811" 
d="M409 63q118 0 187.5 81t69.5 212v8q0 125 -69.5 207.5t-189.5 82.5q-122 0 -192 -81t-70 -211v-8q0 -128 75.5 -209.5t188.5 -81.5zM409 -9q-156 0 -255 104.5t-99 257.5v8q0 155 98.5 259t253.5 104t252 -103.5t97 -257.5v-8q0 -154 -97 -259t-250 -105z" />
    <glyph glyph-name="P" unicode="P" horiz-adv-x="581" 
d="M90 0v715h203q111 0 180.5 -51.5t69.5 -157.5v-4q0 -108 -69.5 -159.5t-180.5 -51.5h-116v-291h-87zM177 360h122q76 0 116.5 36.5t40.5 105.5v4q0 139 -157 139h-122v-285z" />
    <glyph glyph-name="Q" unicode="Q" horiz-adv-x="811" 
d="M659 -89l-100 112q-67 -32 -150 -32q-156 0 -255 104.5t-99 257.5v8q0 155 98.5 259t253.5 104t252 -103.5t97 -257.5v-8q0 -90 -35.5 -166.5t-98.5 -126.5l90 -100zM409 63q55 0 98 18l-80 90l53 51l91 -103q95 81 95 237v8q0 125 -69.5 207.5t-189.5 82.5
q-122 0 -192 -81t-70 -211v-8q0 -128 75.5 -209.5t188.5 -81.5z" />
    <glyph glyph-name="R" unicode="R" horiz-adv-x="628" 
d="M90 0v715h215q111 0 180.5 -49t69.5 -150v-4q0 -83 -48.5 -131.5t-128.5 -63.5l219 -317h-97l-213 311h-110v-311h-87zM177 380h134q157 0 157 132v4q0 70 -40 99.5t-117 29.5h-134v-265z" />
    <glyph glyph-name="S" unicode="S" horiz-adv-x="627" 
d="M321 -9q-133 0 -197.5 62.5t-75.5 164.5h84q5 -35 14.5 -61t29.5 -49t56.5 -35t88.5 -12q70 0 116.5 37.5t46.5 97.5q0 62 -36 91.5t-137 45.5q-121 18 -180 62.5t-59 134.5q0 83 65 138.5t165 55.5q108 0 172 -51t74 -146h-78q-13 67 -53 97t-115 30q-71 0 -110 -32
t-39 -84q0 -56 34 -84t138 -44q126 -20 184.5 -65.5t58.5 -142.5q0 -90 -70.5 -150.5t-176.5 -60.5z" />
    <glyph glyph-name="T" unicode="T" horiz-adv-x="561" 
d="M237 0v644h-208v71h503v-71h-208v-644h-87z" />
    <glyph glyph-name="U" unicode="U" horiz-adv-x="696" 
d="M341 -9q-123 0 -190 70t-67 200v454h87v-444q0 -111 41 -159.5t131 -48.5q92 0 137 48t45 173v431h87v-443q0 -134 -68 -207.5t-203 -73.5z" />
    <glyph glyph-name="V" unicode="V" horiz-adv-x="654" 
d="M273 0l-243 715h86l213 -631l213 631h82l-247 -715h-104z" />
    <glyph glyph-name="W" unicode="W" horiz-adv-x="928" 
d="M220 0l-186 715h89l145 -577l168 577h62l168 -579l147 579h81l-186 -715h-80l-162 565l-167 -565h-79z" />
    <glyph glyph-name="X" unicode="X" horiz-adv-x="657" 
d="M45 0l236 367l-220 348h96l178 -281l177 281h89l-222 -348l233 -367h-98l-191 301l-191 -301h-87z" />
    <glyph glyph-name="Y" unicode="Y" horiz-adv-x="598" 
d="M262 0v312l-239 403h98l187 -332l180 332h87l-226 -404v-311h-87z" />
    <glyph glyph-name="Z" unicode="Z" horiz-adv-x="595" 
d="M28 0v14l405 630h-369v71h489v-13l-394 -628h388v-74h-519z" />
    <glyph glyph-name="bracketleft" unicode="[" horiz-adv-x="356" 
d="M88 -148v924h224v-66h-141v-792h141v-66h-224z" />
    <glyph glyph-name="backslash" unicode="\" horiz-adv-x="403" 
d="M321 -148l-291 924h76l291 -924h-76z" />
    <glyph glyph-name="bracketright" unicode="]" horiz-adv-x="356" 
d="M44 -148v66h141v792h-141v66h224v-924h-224z" />
    <glyph glyph-name="asciicircum" unicode="^" horiz-adv-x="507" 
d="M44 408l167 307h85l167 -307h-84l-127 236l-126 -236h-82z" />
    <glyph glyph-name="underscore" unicode="_" horiz-adv-x="394" 
d="M-1 -158v66h396v-66h-396z" />
    <glyph glyph-name="grave" unicode="`" horiz-adv-x="400" 
d="M177 613l-104 147h104l62 -147h-62z" />
    <glyph glyph-name="a" unicode="a" horiz-adv-x="540" 
d="M215 -9q-77 0 -125.5 38.5t-48.5 115.5q0 84 74.5 123t187.5 39h75v38q0 63 -26 90.5t-86 27.5q-108 0 -120 -94h-83q8 84 66 123.5t141 39.5q191 0 191 -187v-345h-83v66q-60 -75 -163 -75zM223 57q68 0 111.5 33.5t43.5 92.5v65h-72q-182 0 -182 -103q0 -88 99 -88z
" />
    <glyph glyph-name="b" unicode="b" horiz-adv-x="627" 
d="M344 -9q-61 0 -107 26.5t-70 68.5v-86h-83v773h83v-338q24 40 73 68.5t104 28.5q105 0 171.5 -71.5t66.5 -191.5v-8q0 -121 -65.5 -195.5t-172.5 -74.5zM336 60q78 0 119 51t41 146v8q0 95 -45.5 146.5t-115.5 51.5q-76 0 -123.5 -50.5t-47.5 -147.5v-8q0 -97 46.5 -147
t125.5 -50z" />
    <glyph glyph-name="c" unicode="c" horiz-adv-x="570" 
d="M301 -9q-111 0 -183.5 72.5t-72.5 192.5v8q0 118 73.5 193t180.5 75q90 0 153 -44.5t74 -138.5h-82q-18 114 -145 114q-73 0 -120.5 -54.5t-47.5 -144.5v-8q0 -94 46.5 -145t124.5 -51q59 0 101.5 33.5t48.5 94.5h77q-8 -86 -71.5 -141.5t-156.5 -55.5z" />
    <glyph glyph-name="d" unicode="d" horiz-adv-x="627" 
d="M281 -9q-105 0 -170.5 70t-65.5 190v8q0 120 68 196.5t176 76.5q116 0 171 -93v334h83v-773h-83v90q-24 -40 -74 -69.5t-105 -29.5zM290 60q77 0 125 50.5t48 147.5v8q0 98 -43.5 147.5t-122.5 49.5q-78 0 -122 -52.5t-44 -147.5v-8q0 -95 44.5 -145t114.5 -50z" />
    <glyph glyph-name="e" unicode="e" horiz-adv-x="568" 
d="M298 -9q-112 0 -182.5 72.5t-70.5 192.5v8q0 118 68.5 193t176.5 75q100 0 167.5 -64.5t67.5 -195.5v-27h-394q3 -90 45.5 -137.5t122.5 -47.5q123 0 139 91h83q-13 -77 -73 -118.5t-150 -41.5zM134 312h306q-11 151 -150 151q-63 0 -104 -40.5t-52 -110.5z" />
    <glyph glyph-name="f" unicode="f" horiz-adv-x="346" 
d="M102 0v453h-75v70h75v85q0 81 39.5 124.5t116.5 43.5q32 0 62 -10v-70q-28 11 -59 11q-76 0 -76 -90v-94h128v-70h-128v-453h-83z" />
    <glyph glyph-name="g" unicode="g" horiz-adv-x="627" 
d="M293 -191q-109 0 -167.5 44.5t-69.5 116.5h85q18 -91 151 -91q80 0 124 39.5t44 121.5v76q-24 -41 -73 -70t-104 -29q-103 0 -170.5 70t-67.5 178v7q0 109 69 184.5t175 75.5q116 0 171 -93v84h83v-488q-1 -111 -69 -168.5t-181 -57.5zM292 86q75 0 123 49.5t48 135.5v7
q0 87 -44.5 136t-121.5 49t-121.5 -51.5t-44.5 -135.5v-8q0 -83 46.5 -132.5t114.5 -49.5z" />
    <glyph glyph-name="h" unicode="h" horiz-adv-x="598" 
d="M84 0v773h83v-333q19 40 63 66t105 26q86 0 135 -51t49 -160v-321h-83v327q0 69 -30 101t-93 32q-61 0 -103.5 -38t-42.5 -105v-317h-83z" />
    <glyph glyph-name="i" unicode="i" horiz-adv-x="255" 
d="M86 0v523h83v-523h-83zM126 632q-22 0 -38.5 16t-16.5 39t16.5 39t38.5 16t38.5 -16t16.5 -39t-16.5 -39t-38.5 -16z" />
    <glyph glyph-name="j" unicode="j" horiz-adv-x="255" 
d="M9 -191v70q42 4 59.5 24t17.5 57v563h83v-556q0 -77 -37.5 -116t-122.5 -42zM126 632q-22 0 -38.5 16t-16.5 39t16.5 39t38.5 16t38.5 -16t16.5 -39t-16.5 -39t-38.5 -16z" />
    <glyph glyph-name="k" unicode="k" horiz-adv-x="516" 
d="M84 0v773h83v-491l217 241h97l-224 -243l243 -280h-101l-232 271v-271h-83z" />
    <glyph glyph-name="l" unicode="l" horiz-adv-x="256" 
d="M86 0v773h84v-773h-84z" />
    <glyph glyph-name="m" unicode="m" horiz-adv-x="910" 
d="M84 0v523h83v-80q19 39 60.5 64t95.5 25q115 0 153 -98q25 48 75.5 73t103.5 25q77 0 126.5 -50.5t49.5 -157.5v-324h-83v330q0 130 -111 130q-56 0 -97 -37t-41 -103v-320h-83v330q0 130 -111 130q-56 0 -97 -37t-41 -103v-320h-83z" />
    <glyph glyph-name="n" unicode="n" horiz-adv-x="598" 
d="M84 0v523h83v-83q19 40 63 66t105 26q86 0 135 -51t49 -160v-321h-83v327q0 69 -30 101t-93 32q-61 0 -103.5 -38t-42.5 -105v-317h-83z" />
    <glyph glyph-name="o" unicode="o" horiz-adv-x="604" 
d="M302 60q78 0 124.5 54t46.5 143v7q0 91 -46.5 145t-124.5 54q-79 0 -125 -54t-46 -144v-8q0 -90 46 -143.5t125 -53.5zM301 -9q-111 0 -183.5 75.5t-72.5 190.5v8q0 117 72.5 192t184.5 75t184.5 -74.5t72.5 -191.5v-8q0 -118 -73 -192.5t-185 -74.5z" />
    <glyph glyph-name="p" unicode="p" horiz-adv-x="627" 
d="M84 -182v705h83v-88q24 40 73 68.5t104 28.5q105 0 171.5 -71.5t66.5 -191.5v-8q0 -121 -65.5 -195.5t-172.5 -74.5q-61 0 -107 26.5t-70 68.5v-268h-83zM336 60q78 0 119 51t41 146v8q0 95 -45.5 146.5t-115.5 51.5q-76 0 -123.5 -50.5t-47.5 -147.5v-8q0 -97 46.5 -147
t125.5 -50z" />
    <glyph glyph-name="q" unicode="q" horiz-adv-x="627" 
d="M460 -182v272q-24 -40 -74 -69.5t-105 -29.5q-105 0 -170.5 70t-65.5 190v8q0 120 68 196.5t176 76.5q116 0 171 -93v84h83v-705h-83zM290 60q77 0 125 50.5t48 147.5v8q0 98 -43.5 147.5t-122.5 49.5q-78 0 -122 -52.5t-44 -147.5v-8q0 -95 44.5 -145t114.5 -50z" />
    <glyph glyph-name="r" unicode="r" horiz-adv-x="376" 
d="M84 0v523h83v-94q27 49 66.5 75t105.5 28v-78q-86 -4 -129 -40t-43 -127v-287h-83z" />
    <glyph glyph-name="s" unicode="s" horiz-adv-x="480" 
d="M246 -9q-94 0 -147.5 45t-57.5 125h81q10 -101 123 -101q114 0 114 83q0 39 -28.5 57.5t-93.5 30.5q-102 19 -142 52.5t-40 101.5t54.5 107.5t122.5 39.5q170 0 189 -151h-80q-9 43 -35 62.5t-75 19.5q-45 0 -72 -20.5t-27 -54.5q0 -36 25.5 -53t96.5 -30
q47 -9 75.5 -17.5t56 -25.5t40 -44.5t12.5 -67.5q0 -73 -49.5 -116t-142.5 -43z" />
    <glyph glyph-name="t" unicode="t" horiz-adv-x="355" 
d="M243 -7q-69 0 -105 37t-36 101v322h-75v70h75v119h83v-119h122v-70h-122v-314q0 -76 65 -76q36 0 64 11v-70q-31 -11 -71 -11z" />
    <glyph glyph-name="u" unicode="u" horiz-adv-x="594" 
d="M261 -9q-83 0 -132.5 49t-49.5 152v331h83v-327q0 -69 29.5 -101t91.5 -32q59 0 101.5 38t42.5 105v317h83v-523h-83v83q-19 -40 -62.5 -66t-103.5 -26z" />
    <glyph glyph-name="v" unicode="v" horiz-adv-x="534" 
d="M215 0l-190 523h90l155 -439l153 439h86l-188 -523h-106z" />
    <glyph glyph-name="w" unicode="w" horiz-adv-x="794" 
d="M189 0l-161 523h90l122 -421l127 421h72l119 -421l123 421h85l-163 -523h-92l-109 392l-122 -392h-91z" />
    <glyph glyph-name="x" unicode="x" horiz-adv-x="528" 
d="M28 0l187 269l-175 254h97l128 -190l127 190h90l-173 -248l191 -275h-98l-141 211l-144 -211h-89z" />
    <glyph glyph-name="y" unicode="y" horiz-adv-x="529" 
d="M131 -182l99 236l-205 469h89l160 -375l145 375h85l-289 -705h-84z" />
    <glyph glyph-name="z" unicode="z" horiz-adv-x="483" 
d="M21 0v12l309 441h-279v70h407v-15l-302 -435h298v-73h-433z" />
    <glyph glyph-name="braceleft" unicode="{" horiz-adv-x="381" 
d="M337 -147q-115 0 -166.5 49t-31.5 159l19 104q9 50 -19 85t-99 35v62q71 0 99 35t19 85l-19 104q-20 110 31.5 159t166.5 49v-63q-76 -1 -104 -32.5t-15 -114.5l19 -115q9 -54 -18 -89.5t-80 -48.5q53 -13 80 -48.5t18 -89.5l-19 -115q-13 -83 15 -114.5t104 -32.5v-63z
" />
    <glyph glyph-name="bar" unicode="|" horiz-adv-x="253" 
d="M93 -148v924h67v-924h-67z" />
    <glyph glyph-name="braceright" unicode="}" horiz-adv-x="381" 
d="M44 -147v63q76 1 104 32.5t15 114.5l-19 115q-9 54 18 89.5t80 48.5q-53 13 -80 48.5t-18 89.5l19 115q13 83 -15 114.5t-104 32.5v63q115 0 166.5 -49t31.5 -159l-19 -104q-9 -50 19 -85t99 -35v-62q-71 0 -99 -35t-19 -85l19 -104q20 -110 -31.5 -159t-166.5 -49z" />
    <glyph glyph-name="asciitilde" unicode="~" horiz-adv-x="445" 
d="M44 223q5 62 35.5 95t70.5 33q37 0 82.5 -25.5t57.5 -25.5q17 0 30 13.5t15 39.5h66q-4 -63 -34 -95.5t-69 -32.5t-85 25.5t-57 25.5q-17 0 -29.5 -14t-16.5 -39h-66z" />
    <glyph glyph-name="uni00A0" unicode="&#xa0;" horiz-adv-x="280" 
 />
    <glyph glyph-name="exclamdown" unicode="&#xa1;" horiz-adv-x="288" 
d="M97 -117l14 513h64l14 -513h-92zM144 475q-26 0 -45 18.5t-19 45.5t19 45.5t45 18.5t45 -18.5t19 -45.5t-19 -45.5t-45 -18.5z" />
    <glyph glyph-name="cent" unicode="&#xa2;" horiz-adv-x="565" 
d="M267 -135v128q-99 10 -160.5 81t-61.5 182v8q0 109 62.5 182t159.5 84v99h59v-99q80 -7 134.5 -51t65.5 -130h-82q-15 98 -118 112v-399q50 7 85 39.5t41 86.5h77q-8 -79 -63.5 -133.5t-139.5 -61.5v-128h-59zM131 256q0 -84 36 -133.5t100 -60.5v398
q-61 -11 -98.5 -63.5t-37.5 -132.5v-8z" />
    <glyph glyph-name="sterling" unicode="&#xa3;" horiz-adv-x="596" 
d="M48 315v62h65q-18 76 -18 141q0 90 63 148t157 58q95 0 151 -51t63 -138h-84q-11 60 -40.5 89t-89.5 29q-58 0 -95 -37.5t-37 -98.5t17 -140h213v-62h-199q15 -75 15 -132q0 -34 -13 -65q27 -7 87.5 -30.5t84.5 -23.5q86 0 91 86h73q-5 -71 -45 -115t-109 -44
q-48 0 -122.5 31.5t-99.5 31.5q-30 0 -46 -16t-19 -38h-73q4 40 30 76.5t73 45.5q12 29 12 62q0 45 -23 131h-82z" />
    <glyph glyph-name="yen" unicode="&#xa5;" horiz-adv-x="576" 
d="M84 281v58h156l-212 376h94l175 -324l167 324h84l-200 -376h157v-58h-168v-78h168v-58h-168v-145h-85v145h-168v58h168v78h-168z" />
    <glyph glyph-name="brokenbar" unicode="&#xa6;" horiz-adv-x="260" 
d="M93 -148v445h67v-445h-67zM93 367v409h67v-409h-67z" />
    <glyph glyph-name="section" unicode="&#xa7;" horiz-adv-x="539" 
d="M266 -137q-85 0 -136 43t-52 120h85q8 -93 101 -93q50 0 76 25t26 65t-28.5 63t-112.5 44q-90 23 -136.5 61t-46.5 108q0 49 30 84.5t83 50.5q-61 43 -61 127q0 69 53.5 116t124.5 47q83 0 132 -41t51 -116h-84q-3 43 -25 65t-72 22t-75 -25.5t-25 -65.5t26.5 -62.5
t107.5 -42.5q95 -24 142 -60.5t47 -111.5q0 -44 -29.5 -81t-80.5 -53q59 -43 59 -127q0 -68 -52.5 -115t-127.5 -47zM326 185q89 22 89 94q0 41 -29.5 62.5t-95.5 38.5l-79 21q-40 -8 -63.5 -33.5t-23.5 -61.5q0 -38 30 -60t97 -40z" />
    <glyph glyph-name="dieresis" unicode="&#xa8;" horiz-adv-x="400" 
d="M106 634q-22 0 -37.5 15.5t-15.5 37.5t15.5 37.5t37.5 15.5t37.5 -15.5t15.5 -37.5t-15.5 -37.5t-37.5 -15.5zM294 634q-22 0 -37.5 15.5t-15.5 37.5t15.5 37.5t37.5 15.5t37.5 -15.5t15.5 -37.5t-15.5 -37.5t-37.5 -15.5z" />
    <glyph glyph-name="copyright" unicode="&#xa9;" horiz-adv-x="844" 
d="M423 155q-90 0 -141 53.5t-51 144.5v8q0 89 54 144t138 55q70 0 116.5 -35.5t52.5 -102.5h-76q-12 78 -93 78q-52 0 -82.5 -37t-30.5 -102v-7q0 -66 29.5 -102t83.5 -36q89 0 101 83h72q-7 -70 -53.5 -107t-119.5 -37zM421 33q131 0 225.5 92.5t94.5 233.5
q0 140 -93 231.5t-225 91.5q-134 0 -227 -92t-93 -233t94.5 -232.5t223.5 -91.5zM421 -9q-153 0 -259.5 105.5t-106.5 260.5q0 153 107 260t261 107q155 0 260.5 -106t105.5 -259q0 -156 -106.5 -262t-261.5 -106z" />
    <glyph glyph-name="ordfeminine" unicode="&#xaa;" horiz-adv-x="419" 
d="M170 290q-62 0 -101 31.5t-39 92.5q0 68 59.5 99.5t152.5 31.5h58v26q0 47 -20 68.5t-65 21.5q-79 0 -90 -68h-77q6 66 53.5 98.5t117.5 32.5q159 0 159 -152v-274h-78v52q-46 -60 -130 -60zM184 351q51 0 83.5 25t32.5 69v46h-56q-135 0 -135 -75q0 -65 75 -65z" />
    <glyph glyph-name="guillemotleft" unicode="&#xab;" horiz-adv-x="500" 
d="M189 83l-130 178l130 178h82l-125 -178l125 -178h-82zM367 83l-130 178l130 178h82l-125 -178l125 -178h-82z" />
    <glyph glyph-name="registered" unicode="&#xae;" horiz-adv-x="514" 
d="M181 396v219h77q84 0 84 -66v-1q0 -45 -45 -59l58 -93h-50l-53 85h-23v-85h-48zM229 514h28q38 0 38 32v1q0 31 -38 31h-28v-64zM257 318q78 0 130 52t52 133q0 82 -51 133.5t-131 51.5t-131 -52t-51 -134q0 -81 52 -132.5t130 -51.5zM257 282q-93 0 -157.5 63.5
t-64.5 156.5q0 92 64.5 157t157.5 65q94 0 158 -64t64 -157t-64.5 -157t-157.5 -64z" />
    <glyph glyph-name="macron" unicode="&#xaf;" horiz-adv-x="400" 
d="M69 648v64h262v-64h-262z" />
    <glyph glyph-name="degree" unicode="&#xb0;" horiz-adv-x="427" 
d="M214 464q39 0 64 28.5t25 71.5q0 44 -25 73t-64 29q-40 0 -66.5 -29t-26.5 -73q0 -42 26.5 -71t66.5 -29zM214 406q-68 0 -116 46.5t-48 111.5q0 66 48 113t116 47q67 0 115 -47t48 -113q0 -65 -48 -111.5t-115 -46.5z" />
    <glyph glyph-name="plusminus" unicode="&#xb1;" horiz-adv-x="519" 
d="M223 145v182h-187v70h187v182h73v-182h187v-70h-187v-182h-73zM36 0v70h447v-70h-447z" />
    <glyph glyph-name="twosuperior" unicode="&#xb2;" horiz-adv-x="286" 
d="M8 373v11l128 136q54 56 54 97q0 23 -13 36.5t-37 13.5q-52 0 -60 -66h-61q3 56 35.5 87t87.5 31q53 0 83.5 -27.5t30.5 -73.5q0 -58 -66 -122l-73 -72h142v-51h-251z" />
    <glyph glyph-name="threesuperior" unicode="&#xb3;" horiz-adv-x="311" 
d="M152 368q-61 0 -95 30t-36 81h61q7 -61 68 -61q63 0 63 54t-60 54h-26v47h25q56 0 56 49q0 21 -13.5 34t-38.5 13q-26 0 -42.5 -14.5t-19.5 -40.5h-61q3 47 36.5 76t87.5 29q53 0 84 -26t31 -66q0 -54 -57 -74q67 -15 67 -82q0 -48 -35 -75.5t-95 -27.5z" />
    <glyph glyph-name="acute" unicode="&#xb4;" horiz-adv-x="400" 
d="M161 613l62 147h104l-104 -147h-62z" />
    <glyph glyph-name="paragraph" unicode="&#xb6;" horiz-adv-x="588" 
d="M276 -100v446h-14q-99 0 -158 46.5t-59 134.5q0 92 60 140t157 48h232v-815h-69v758h-81v-758h-68z" />
    <glyph glyph-name="periodcentered" unicode="&#xb7;" horiz-adv-x="282" 
d="M141 263q-26 0 -45 18.5t-19 45.5t19 45.5t45 18.5t45 -18.5t19 -45.5t-19 -45.5t-45 -18.5z" />
    <glyph glyph-name="cedilla" unicode="&#xb8;" horiz-adv-x="400" 
d="M208 -214q-43 0 -70 23t-30 61h54q8 -36 43 -36q18 0 29 10t11 26t-10 25t-26 9q-15 0 -28 -8l-32 28l42 76h53l-29 -53q37 5 65.5 -16.5t28.5 -64.5q0 -39 -29 -59.5t-72 -20.5z" />
    <glyph glyph-name="onesuperior" unicode="&#xb9;" horiz-adv-x="231" 
d="M105 373v276l-81 -54v59l89 61h60v-342h-68z" />
    <glyph glyph-name="ordmasculine" unicode="&#xba;" horiz-adv-x="493" 
d="M247 354q59 0 93 41t34 109v6q0 68 -34.5 109t-92.5 41q-59 0 -93.5 -40.5t-34.5 -109.5v-6q0 -69 34 -109.5t94 -40.5zM246 290q-91 0 -150 60t-59 153v6q0 95 59.5 155t150.5 60t150 -59.5t59 -153.5v-6q0 -96 -59 -155.5t-151 -59.5z" />
    <glyph glyph-name="guillemotright" unicode="&#xbb;" horiz-adv-x="500" 
d="M51 83l125 178l-125 178h82l130 -178l-130 -178h-82zM229 83l125 178l-125 178h82l130 -178l-130 -178h-82z" />
    <glyph glyph-name="onequarter" unicode="&#xbc;" horiz-adv-x="678" 
d="M108 373v276l-81 -54v59l89 61h60v-342h-68zM49 0l507 715h66l-507 -715h-66zM546 0v69h-172v24l153 249h83v-224h45v-49h-45v-69h-64zM446 118h101v173z" />
    <glyph glyph-name="onehalf" unicode="&#xbd;" horiz-adv-x="677" 
d="M108 373v276l-81 -54v59l89 61h60v-342h-68zM36 0l507 715h66l-507 -715h-66zM395 0v11l128 136q54 56 54 97q0 23 -13 36.5t-37 13.5q-52 0 -60 -66h-61q3 56 35.5 87t87.5 31q53 0 83.5 -27.5t30.5 -73.5q0 -58 -66 -122l-73 -72h142v-51h-251z" />
    <glyph glyph-name="threequarters" unicode="&#xbe;" horiz-adv-x="681" 
d="M155 368q-61 0 -95 30t-36 81h61q7 -61 68 -61q63 0 63 54t-60 54h-26v47h25q56 0 56 49q0 21 -13.5 34t-38.5 13q-26 0 -42.5 -14.5t-19.5 -40.5h-61q3 47 36.5 76t87.5 29q53 0 84 -26t31 -66q0 -54 -57 -74q67 -15 67 -82q0 -48 -35 -75.5t-95 -27.5zM85 0l507 715h66
l-507 -715h-66zM546 0v69h-172v24l153 249h83v-224h45v-49h-45v-69h-64zM446 118h101v173z" />
    <glyph glyph-name="questiondown" unicode="&#xbf;" horiz-adv-x="489" 
d="M310 396v-50q0 -38 -18 -74t-34 -54t-51 -52q-24 -24 -37 -39.5t-24.5 -38t-11.5 -45.5q0 -46 26.5 -73t80.5 -27q56 0 92 35.5t41 94.5h78q-5 -89 -63 -144t-149 -55q-95 0 -142.5 48t-47.5 118q0 34 16.5 67.5t32.5 51t49 48.5q29 28 44 44.5t29.5 44.5t14.5 57v43h74z
M275 603q26 0 45 -18.5t19 -45.5t-19 -45.5t-45 -18.5t-45 18.5t-19 45.5t19 45.5t45 18.5z" />
    <glyph glyph-name="Agrave" unicode="&#xc0;" horiz-adv-x="674" 
d="M36 0l246 715h114l242 -715h-86l-70 206h-295l-69 -206h-82zM335 643l-124 -368h248zM312 771l-98 127h104l56 -127h-62z" />
    <glyph glyph-name="Aacute" unicode="&#xc1;" horiz-adv-x="674" 
d="M36 0l246 715h114l242 -715h-86l-70 206h-295l-69 -206h-82zM335 643l-124 -368h248zM300 771l56 127h104l-98 -127h-62z" />
    <glyph glyph-name="Acircumflex" unicode="&#xc2;" horiz-adv-x="674" 
d="M36 0l246 715h114l242 -715h-86l-70 206h-295l-69 -206h-82zM335 643l-124 -368h248zM192 771l108 127h75l107 -127h-61l-85 58l-85 -58h-59z" />
    <glyph glyph-name="Atilde" unicode="&#xc3;" horiz-adv-x="674" 
d="M36 0l246 715h114l242 -715h-86l-70 206h-295l-69 -206h-82zM335 643l-124 -368h248zM391 774q-23 0 -59 21.5t-49 21.5q-14 0 -25 -12.5t-15 -32.5h-60q6 53 34 84.5t67 31.5q23 0 58.5 -21.5t48.5 -21.5q14 0 25 12.5t15 32.5h60q-6 -53 -33.5 -84.5t-66.5 -31.5z" />
    <glyph glyph-name="Adieresis" unicode="&#xc4;" horiz-adv-x="674" 
d="M36 0l246 715h114l242 -715h-86l-70 206h-295l-69 -206h-82zM335 643l-124 -368h248zM235 789q-22 0 -37.5 15.5t-15.5 37.5t15.5 37.5t37.5 15.5t37.5 -15.5t15.5 -37.5t-15.5 -37.5t-37.5 -15.5zM438 789q-22 0 -37.5 15.5t-15.5 37.5t15.5 37.5t37.5 15.5t37.5 -15.5
t15.5 -37.5t-15.5 -37.5t-37.5 -15.5z" />
    <glyph glyph-name="Aring" unicode="&#xc5;" horiz-adv-x="674" 
d="M36 0l246 715h114l242 -715h-86l-70 206h-295l-69 -206h-82zM335 643l-124 -368h248zM337 759q-44 0 -75.5 30.5t-31.5 73.5t31.5 73.5t75.5 30.5t75.5 -30.5t31.5 -73.5t-31.5 -73.5t-75.5 -30.5zM337 805q23 0 38 16.5t15 41.5t-15 41.5t-38 16.5t-38 -16.5t-15 -41.5
t15 -41.5t38 -16.5z" />
    <glyph glyph-name="AE" unicode="&#xc6;" horiz-adv-x="950" 
d="M29 0l370 715h492v-71h-330v-243h266v-71h-266v-259h348v-71h-435v207h-252l-105 -207h-88zM443 644l-187 -369h218v369h-31z" />
    <glyph glyph-name="Ccedilla" unicode="&#xc7;" horiz-adv-x="730" 
d="M381 -214q-43 0 -70 23t-30 61h54q8 -36 43 -36q18 0 29 10t11 26t-10 25t-26 9q-15 0 -28 -8l-32 28l37 68q-142 10 -223 106.5t-81 254.5v8q0 159 95 262t241 103q117 0 198 -61t92 -173h-86q-27 165 -203 165q-111 0 -179 -80.5t-68 -214.5v-8q0 -137 65.5 -214.5
t180.5 -77.5q89 0 146 44.5t70 130.5h81q-18 -115 -90 -177.5t-186 -67.5l-24 -45q37 5 65.5 -16.5t28.5 -64.5q0 -39 -29 -59.5t-72 -20.5z" />
    <glyph glyph-name="Egrave" unicode="&#xc8;" horiz-adv-x="566" 
d="M90 0v715h417v-71h-330v-243h266v-71h-266v-259h348v-71h-435zM281 771l-98 127h104l56 -127h-62z" />
    <glyph glyph-name="Eacute" unicode="&#xc9;" horiz-adv-x="566" 
d="M90 0v715h417v-71h-330v-243h266v-71h-266v-259h348v-71h-435zM269 771l56 127h104l-98 -127h-62z" />
    <glyph glyph-name="Ecircumflex" unicode="&#xca;" horiz-adv-x="566" 
d="M90 0v715h417v-71h-330v-243h266v-71h-266v-259h348v-71h-435zM161 771l108 127h75l107 -127h-61l-85 58l-85 -58h-59z" />
    <glyph glyph-name="Edieresis" unicode="&#xcb;" horiz-adv-x="566" 
d="M90 0v715h417v-71h-330v-243h266v-71h-266v-259h348v-71h-435zM204 789q-22 0 -37.5 15.5t-15.5 37.5t15.5 37.5t37.5 15.5t37.5 -15.5t15.5 -37.5t-15.5 -37.5t-37.5 -15.5zM407 789q-22 0 -37.5 15.5t-15.5 37.5t15.5 37.5t37.5 15.5t37.5 -15.5t15.5 -37.5
t-15.5 -37.5t-37.5 -15.5z" />
    <glyph glyph-name="Igrave" unicode="&#xcc;" horiz-adv-x="277" 
d="M95 0v715h87v-715h-87zM113 771l-98 127h104l56 -127h-62z" />
    <glyph glyph-name="Iacute" unicode="&#xcd;" horiz-adv-x="277" 
d="M95 0v715h87v-715h-87zM101 771l56 127h104l-98 -127h-62z" />
    <glyph glyph-name="Icircumflex" unicode="&#xce;" horiz-adv-x="277" 
d="M95 0v715h87v-715h-87zM-7 771l108 127h75l107 -127h-61l-85 58l-85 -58h-59z" />
    <glyph glyph-name="Idieresis" unicode="&#xcf;" horiz-adv-x="277" 
d="M95 0v715h87v-715h-87zM36 789q-22 0 -37.5 15.5t-15.5 37.5t15.5 37.5t37.5 15.5t37.5 -15.5t15.5 -37.5t-15.5 -37.5t-37.5 -15.5zM239 789q-22 0 -37.5 15.5t-15.5 37.5t15.5 37.5t37.5 15.5t37.5 -15.5t15.5 -37.5t-15.5 -37.5t-37.5 -15.5z" />
    <glyph glyph-name="Eth" unicode="&#xd0;" horiz-adv-x="716" 
d="M34 325v67h76v323h189q177 0 269.5 -97t92.5 -254v-9q0 -157 -92.5 -256t-271.5 -99h-187v325h-76zM197 71h98q135 0 205.5 75.5t70.5 209.5v8q0 131 -67.5 206t-209.5 75h-97v-253h207v-67h-207v-254z" />
    <glyph glyph-name="Ntilde" unicode="&#xd1;" horiz-adv-x="724" 
d="M90 0v715h113l348 -591v591h83v-715h-100l-361 613v-613h-83zM426 774q-23 0 -59 21.5t-49 21.5q-14 0 -25 -12.5t-15 -32.5h-60q6 53 34 84.5t67 31.5q23 0 58.5 -21.5t48.5 -21.5q14 0 25 12.5t15 32.5h60q-6 -53 -33.5 -84.5t-66.5 -31.5z" />
    <glyph glyph-name="Ograve" unicode="&#xd2;" horiz-adv-x="811" 
d="M409 63q118 0 187.5 81t69.5 212v8q0 125 -69.5 207.5t-189.5 82.5q-122 0 -192 -81t-70 -211v-8q0 -128 75.5 -209.5t188.5 -81.5zM409 -9q-156 0 -255 104.5t-99 257.5v8q0 155 98.5 259t253.5 104t252 -103.5t97 -257.5v-8q0 -154 -97 -259t-250 -105zM380 771
l-98 127h104l56 -127h-62z" />
    <glyph glyph-name="Oacute" unicode="&#xd3;" horiz-adv-x="811" 
d="M409 63q118 0 187.5 81t69.5 212v8q0 125 -69.5 207.5t-189.5 82.5q-122 0 -192 -81t-70 -211v-8q0 -128 75.5 -209.5t188.5 -81.5zM409 -9q-156 0 -255 104.5t-99 257.5v8q0 155 98.5 259t253.5 104t252 -103.5t97 -257.5v-8q0 -154 -97 -259t-250 -105zM368 771l56 127
h104l-98 -127h-62z" />
    <glyph glyph-name="Ocircumflex" unicode="&#xd4;" horiz-adv-x="811" 
d="M409 63q118 0 187.5 81t69.5 212v8q0 125 -69.5 207.5t-189.5 82.5q-122 0 -192 -81t-70 -211v-8q0 -128 75.5 -209.5t188.5 -81.5zM409 -9q-156 0 -255 104.5t-99 257.5v8q0 155 98.5 259t253.5 104t252 -103.5t97 -257.5v-8q0 -154 -97 -259t-250 -105zM260 771
l108 127h75l107 -127h-61l-85 58l-85 -58h-59z" />
    <glyph glyph-name="Otilde" unicode="&#xd5;" horiz-adv-x="811" 
d="M409 63q118 0 187.5 81t69.5 212v8q0 125 -69.5 207.5t-189.5 82.5q-122 0 -192 -81t-70 -211v-8q0 -128 75.5 -209.5t188.5 -81.5zM409 -9q-156 0 -255 104.5t-99 257.5v8q0 155 98.5 259t253.5 104t252 -103.5t97 -257.5v-8q0 -154 -97 -259t-250 -105zM459 774
q-23 0 -59 21.5t-49 21.5q-14 0 -25 -12.5t-15 -32.5h-60q6 53 34 84.5t67 31.5q23 0 58.5 -21.5t48.5 -21.5q14 0 25 12.5t15 32.5h60q-6 -53 -33.5 -84.5t-66.5 -31.5z" />
    <glyph glyph-name="Odieresis" unicode="&#xd6;" horiz-adv-x="811" 
d="M409 63q118 0 187.5 81t69.5 212v8q0 125 -69.5 207.5t-189.5 82.5q-122 0 -192 -81t-70 -211v-8q0 -128 75.5 -209.5t188.5 -81.5zM409 -9q-156 0 -255 104.5t-99 257.5v8q0 155 98.5 259t253.5 104t252 -103.5t97 -257.5v-8q0 -154 -97 -259t-250 -105zM303 789
q-22 0 -37.5 15.5t-15.5 37.5t15.5 37.5t37.5 15.5t37.5 -15.5t15.5 -37.5t-15.5 -37.5t-37.5 -15.5zM506 789q-22 0 -37.5 15.5t-15.5 37.5t15.5 37.5t37.5 15.5t37.5 -15.5t15.5 -37.5t-15.5 -37.5t-37.5 -15.5z" />
    <glyph glyph-name="multiply" unicode="&#xd7;" horiz-adv-x="469" 
d="M80 131l-47 48l154 154l-154 154l47 48l154 -155l154 155l48 -48l-154 -154l154 -154l-48 -48l-154 155z" />
    <glyph glyph-name="Oslash" unicode="&#xd8;" horiz-adv-x="811" 
d="M80 -33l-45 45l98 107q-78 98 -78 234v8q0 155 98.5 259t253.5 104q123 0 214 -70l81 88l45 -45l-79 -87q88 -101 88 -247v-8q0 -154 -97 -259t-250 -105q-136 0 -232 82zM409 63q118 0 187.5 81t69.5 212v8q0 112 -52 188l-384 -421q70 -68 179 -68zM145 354
q0 -101 44 -173l382 418q-66 55 -164 55q-122 0 -192 -81t-70 -211v-8z" />
    <glyph glyph-name="Ugrave" unicode="&#xd9;" horiz-adv-x="696" 
d="M341 -9q-123 0 -190 70t-67 200v454h87v-444q0 -111 41 -159.5t131 -48.5q92 0 137 48t45 173v431h87v-443q0 -134 -68 -207.5t-203 -73.5zM323 771l-98 127h104l56 -127h-62z" />
    <glyph glyph-name="Uacute" unicode="&#xda;" horiz-adv-x="696" 
d="M341 -9q-123 0 -190 70t-67 200v454h87v-444q0 -111 41 -159.5t131 -48.5q92 0 137 48t45 173v431h87v-443q0 -134 -68 -207.5t-203 -73.5zM311 771l56 127h104l-98 -127h-62z" />
    <glyph glyph-name="Ucircumflex" unicode="&#xdb;" horiz-adv-x="696" 
d="M341 -9q-123 0 -190 70t-67 200v454h87v-444q0 -111 41 -159.5t131 -48.5q92 0 137 48t45 173v431h87v-443q0 -134 -68 -207.5t-203 -73.5zM203 771l108 127h75l107 -127h-61l-85 58l-85 -58h-59z" />
    <glyph glyph-name="Udieresis" unicode="&#xdc;" horiz-adv-x="696" 
d="M341 -9q-123 0 -190 70t-67 200v454h87v-444q0 -111 41 -159.5t131 -48.5q92 0 137 48t45 173v431h87v-443q0 -134 -68 -207.5t-203 -73.5zM246 789q-22 0 -37.5 15.5t-15.5 37.5t15.5 37.5t37.5 15.5t37.5 -15.5t15.5 -37.5t-15.5 -37.5t-37.5 -15.5zM449 789
q-22 0 -37.5 15.5t-15.5 37.5t15.5 37.5t37.5 15.5t37.5 -15.5t15.5 -37.5t-15.5 -37.5t-37.5 -15.5z" />
    <glyph glyph-name="Yacute" unicode="&#xdd;" horiz-adv-x="598" 
d="M262 0v312l-239 403h98l187 -332l180 332h87l-226 -404v-311h-87zM262 771l56 127h104l-98 -127h-62z" />
    <glyph glyph-name="Thorn" unicode="&#xde;" horiz-adv-x="581" 
d="M90 0v715h87v-134h116q112 0 181 -50t69 -155v-4q0 -107 -69.5 -157t-180.5 -50h-116v-165h-87zM177 234h122q157 0 157 138v4q0 73 -40 104t-117 31h-122v-277z" />
    <glyph glyph-name="germandbls" unicode="&#xdf;" horiz-adv-x="590" 
d="M335 -9q-52 0 -92 16v71q38 -18 88 -18q130 0 130 150v7q0 81 -53 129t-143 45v71q77 -2 113 37.5t36 93.5v4q0 53 -31.5 82t-90.5 29q-57 0 -91 -37.5t-34 -100.5v-570h-83v566q0 93 61 151.5t148 58.5q89 0 144.5 -49.5t55.5 -129.5v-4q0 -50 -31.5 -96t-87.5 -65
q78 -20 125.5 -78t47.5 -136v-6q0 -117 -60 -169t-152 -52z" />
    <glyph glyph-name="agrave" unicode="&#xe0;" horiz-adv-x="540" 
d="M215 -9q-77 0 -125.5 38.5t-48.5 115.5q0 84 74.5 123t187.5 39h75v38q0 63 -26 90.5t-86 27.5q-108 0 -120 -94h-83q8 84 66 123.5t141 39.5q191 0 191 -187v-345h-83v66q-60 -75 -163 -75zM223 57q68 0 111.5 33.5t43.5 92.5v65h-72q-182 0 -182 -103q0 -88 99 -88z
M246 613l-104 147h104l62 -147h-62z" />
    <glyph glyph-name="aacute" unicode="&#xe1;" horiz-adv-x="540" 
d="M215 -9q-77 0 -125.5 38.5t-48.5 115.5q0 84 74.5 123t187.5 39h75v38q0 63 -26 90.5t-86 27.5q-108 0 -120 -94h-83q8 84 66 123.5t141 39.5q191 0 191 -187v-345h-83v66q-60 -75 -163 -75zM223 57q68 0 111.5 33.5t43.5 92.5v65h-72q-182 0 -182 -103q0 -88 99 -88z
M234 613l62 147h104l-104 -147h-62z" />
    <glyph glyph-name="acircumflex" unicode="&#xe2;" horiz-adv-x="540" 
d="M215 -9q-77 0 -125.5 38.5t-48.5 115.5q0 84 74.5 123t187.5 39h75v38q0 63 -26 90.5t-86 27.5q-108 0 -120 -94h-83q8 84 66 123.5t141 39.5q191 0 191 -187v-345h-83v66q-60 -75 -163 -75zM223 57q68 0 111.5 33.5t43.5 92.5v65h-72q-182 0 -182 -103q0 -88 99 -88z
M115 613l108 144h75l107 -144h-61l-85 75l-85 -75h-59z" />
    <glyph glyph-name="atilde" unicode="&#xe3;" horiz-adv-x="540" 
d="M215 -9q-77 0 -125.5 38.5t-48.5 115.5q0 84 74.5 123t187.5 39h75v38q0 63 -26 90.5t-86 27.5q-108 0 -120 -94h-83q8 84 66 123.5t141 39.5q191 0 191 -187v-345h-83v66q-60 -75 -163 -75zM223 57q68 0 111.5 33.5t43.5 92.5v65h-72q-182 0 -182 -103q0 -88 99 -88z
M325 619q-23 0 -59 21.5t-49 21.5q-14 0 -25 -12.5t-15 -32.5h-60q6 53 34 84.5t67 31.5q23 0 58.5 -21.5t48.5 -21.5q14 0 25 12.5t15 32.5h60q-6 -53 -33.5 -84.5t-66.5 -31.5z" />
    <glyph glyph-name="adieresis" unicode="&#xe4;" horiz-adv-x="540" 
d="M215 -9q-77 0 -125.5 38.5t-48.5 115.5q0 84 74.5 123t187.5 39h75v38q0 63 -26 90.5t-86 27.5q-108 0 -120 -94h-83q8 84 66 123.5t141 39.5q191 0 191 -187v-345h-83v66q-60 -75 -163 -75zM223 57q68 0 111.5 33.5t43.5 92.5v65h-72q-182 0 -182 -103q0 -88 99 -88z
M177 634q-22 0 -37.5 15.5t-15.5 37.5t15.5 37.5t37.5 15.5t37.5 -15.5t15.5 -37.5t-15.5 -37.5t-37.5 -15.5zM365 634q-22 0 -37.5 15.5t-15.5 37.5t15.5 37.5t37.5 15.5t37.5 -15.5t15.5 -37.5t-15.5 -37.5t-37.5 -15.5z" />
    <glyph glyph-name="aring" unicode="&#xe5;" horiz-adv-x="540" 
d="M215 -9q-77 0 -125.5 38.5t-48.5 115.5q0 84 74.5 123t187.5 39h75v38q0 63 -26 90.5t-86 27.5q-108 0 -120 -94h-83q8 84 66 123.5t141 39.5q191 0 191 -187v-345h-83v66q-60 -75 -163 -75zM223 57q68 0 111.5 33.5t43.5 92.5v65h-72q-182 0 -182 -103q0 -88 99 -88z
M271 644q23 0 38 16.5t15 41.5t-15 41.5t-38 16.5t-38 -16.5t-15 -41.5t15 -41.5t38 -16.5zM271 598q-44 0 -75.5 30.5t-31.5 73.5t31.5 73.5t75.5 30.5t75.5 -30.5t31.5 -73.5t-31.5 -73.5t-75.5 -30.5z" />
    <glyph glyph-name="ae" unicode="&#xe6;" horiz-adv-x="880" 
d="M616 -9q-133 0 -197 108q-36 -57 -84 -82.5t-120 -25.5q-77 0 -125.5 38.5t-48.5 115.5q0 85 73.5 125t185.5 40h78v34q0 62 -27 90.5t-85 28.5q-108 0 -120 -94h-83q8 84 66 123.5t141 39.5q124 0 164 -89q64 89 176 89q97 0 162 -64t65 -196v-25h-379q3 -91 43 -139
t116 -48q117 0 133 91h83q-13 -77 -71.5 -118.5t-145.5 -41.5zM223 57q68 0 111.5 33.5t43.5 92.5v64h-75q-179 0 -179 -102q0 -88 99 -88zM461 310h291q-11 153 -142 153q-60 0 -99.5 -41t-49.5 -112z" />
    <glyph glyph-name="ccedilla" unicode="&#xe7;" horiz-adv-x="570" 
d="M286 -214q-43 0 -70 23t-30 61h54q8 -36 43 -36q18 0 29 10t11 26t-10 25t-26 9q-15 0 -28 -8l-32 28l38 69q-98 11 -159 82t-61 181v8q0 118 73.5 193t180.5 75q90 0 153 -44.5t74 -138.5h-82q-18 114 -145 114q-73 0 -120.5 -54.5t-47.5 -144.5v-8q0 -94 46.5 -145
t124.5 -51q59 0 101.5 33.5t48.5 94.5h77q-8 -82 -66 -136.5t-146 -59.5l-24 -45q37 5 65.5 -16.5t28.5 -64.5q0 -39 -29 -59.5t-72 -20.5z" />
    <glyph glyph-name="egrave" unicode="&#xe8;" horiz-adv-x="568" 
d="M298 -9q-112 0 -182.5 72.5t-70.5 192.5v8q0 118 68.5 193t176.5 75q100 0 167.5 -64.5t67.5 -195.5v-27h-394q3 -90 45.5 -137.5t122.5 -47.5q123 0 139 91h83q-13 -77 -73 -118.5t-150 -41.5zM134 312h306q-11 151 -150 151q-63 0 -104 -40.5t-52 -110.5zM265 613
l-104 147h104l62 -147h-62z" />
    <glyph glyph-name="eacute" unicode="&#xe9;" horiz-adv-x="568" 
d="M298 -9q-112 0 -182.5 72.5t-70.5 192.5v8q0 118 68.5 193t176.5 75q100 0 167.5 -64.5t67.5 -195.5v-27h-394q3 -90 45.5 -137.5t122.5 -47.5q123 0 139 91h83q-13 -77 -73 -118.5t-150 -41.5zM134 312h306q-11 151 -150 151q-63 0 -104 -40.5t-52 -110.5zM253 613
l62 147h104l-104 -147h-62z" />
    <glyph glyph-name="ecircumflex" unicode="&#xea;" horiz-adv-x="568" 
d="M298 -9q-112 0 -182.5 72.5t-70.5 192.5v8q0 118 68.5 193t176.5 75q100 0 167.5 -64.5t67.5 -195.5v-27h-394q3 -90 45.5 -137.5t122.5 -47.5q123 0 139 91h83q-13 -77 -73 -118.5t-150 -41.5zM134 312h306q-11 151 -150 151q-63 0 -104 -40.5t-52 -110.5zM145 613
l108 144h75l107 -144h-61l-85 75l-85 -75h-59z" />
    <glyph glyph-name="edieresis" unicode="&#xeb;" horiz-adv-x="568" 
d="M298 -9q-112 0 -182.5 72.5t-70.5 192.5v8q0 118 68.5 193t176.5 75q100 0 167.5 -64.5t67.5 -195.5v-27h-394q3 -90 45.5 -137.5t122.5 -47.5q123 0 139 91h83q-13 -77 -73 -118.5t-150 -41.5zM134 312h306q-11 151 -150 151q-63 0 -104 -40.5t-52 -110.5zM196 634
q-22 0 -37.5 15.5t-15.5 37.5t15.5 37.5t37.5 15.5t37.5 -15.5t15.5 -37.5t-15.5 -37.5t-37.5 -15.5zM384 634q-22 0 -37.5 15.5t-15.5 37.5t15.5 37.5t37.5 15.5t37.5 -15.5t15.5 -37.5t-15.5 -37.5t-37.5 -15.5z" />
    <glyph glyph-name="igrave" unicode="&#xec;" horiz-adv-x="255" 
d="M86 0v523h83v-523h-83zM102 613l-104 147h104l62 -147h-62z" />
    <glyph glyph-name="iacute" unicode="&#xed;" horiz-adv-x="255" 
d="M86 0v523h83v-523h-83zM90 613l62 147h104l-104 -147h-62z" />
    <glyph glyph-name="icircumflex" unicode="&#xee;" horiz-adv-x="255" 
d="M86 0v523h83v-523h-83zM-18 613l108 144h75l107 -144h-61l-85 75l-85 -75h-59z" />
    <glyph glyph-name="idieresis" unicode="&#xef;" horiz-adv-x="255" 
d="M37 634q-22 0 -37.5 15.5t-15.5 37.5t15.5 37.5t37.5 15.5t37.5 -15.5t15.5 -37.5t-15.5 -37.5t-37.5 -15.5zM217 634q-22 0 -37.5 15.5t-15.5 37.5t15.5 37.5t37.5 15.5t37.5 -15.5t15.5 -37.5t-15.5 -37.5t-37.5 -15.5zM86 0v523h83v-523h-83z" />
    <glyph glyph-name="eth" unicode="&#xf0;" horiz-adv-x="604" 
d="M185 573l-29 48l97 57q-54 47 -124 95h107q45 -25 84 -55l83 49l29 -49l-67 -39q84 -78 139 -179.5t55 -215.5v-22q0 -118 -73 -194.5t-185 -76.5q-111 0 -183.5 75.5t-72.5 190.5v8q0 115 70 191t168 76q93 0 151 -72q-45 91 -137 179zM302 60q78 0 124.5 54t46.5 143v7
q0 91 -46 145t-124 54q-79 0 -125.5 -54t-46.5 -144v-8q0 -90 46 -143.5t125 -53.5z" />
    <glyph glyph-name="ntilde" unicode="&#xf1;" horiz-adv-x="598" 
d="M84 0v523h83v-83q19 40 63 66t105 26q86 0 135 -51t49 -160v-321h-83v327q0 69 -30 101t-93 32q-61 0 -103.5 -38t-42.5 -105v-317h-83zM352 619q-23 0 -59 21.5t-49 21.5q-14 0 -25 -12.5t-15 -32.5h-60q6 53 34 84.5t67 31.5q23 0 58.5 -21.5t48.5 -21.5q14 0 25 12.5
t15 32.5h60q-6 -53 -33.5 -84.5t-66.5 -31.5z" />
    <glyph glyph-name="ograve" unicode="&#xf2;" horiz-adv-x="604" 
d="M302 60q78 0 124.5 54t46.5 143v7q0 91 -46.5 145t-124.5 54q-79 0 -125 -54t-46 -144v-8q0 -90 46 -143.5t125 -53.5zM301 -9q-111 0 -183.5 75.5t-72.5 190.5v8q0 117 72.5 192t184.5 75t184.5 -74.5t72.5 -191.5v-8q0 -118 -73 -192.5t-185 -74.5zM277 613l-104 147
h104l62 -147h-62z" />
    <glyph glyph-name="oacute" unicode="&#xf3;" horiz-adv-x="604" 
d="M302 60q78 0 124.5 54t46.5 143v7q0 91 -46.5 145t-124.5 54q-79 0 -125 -54t-46 -144v-8q0 -90 46 -143.5t125 -53.5zM301 -9q-111 0 -183.5 75.5t-72.5 190.5v8q0 117 72.5 192t184.5 75t184.5 -74.5t72.5 -191.5v-8q0 -118 -73 -192.5t-185 -74.5zM265 613l62 147h104
l-104 -147h-62z" />
    <glyph glyph-name="ocircumflex" unicode="&#xf4;" horiz-adv-x="604" 
d="M302 60q78 0 124.5 54t46.5 143v7q0 91 -46.5 145t-124.5 54q-79 0 -125 -54t-46 -144v-8q0 -90 46 -143.5t125 -53.5zM301 -9q-111 0 -183.5 75.5t-72.5 190.5v8q0 117 72.5 192t184.5 75t184.5 -74.5t72.5 -191.5v-8q0 -118 -73 -192.5t-185 -74.5zM157 613l108 144h75
l107 -144h-61l-85 75l-85 -75h-59z" />
    <glyph glyph-name="otilde" unicode="&#xf5;" horiz-adv-x="604" 
d="M302 60q78 0 124.5 54t46.5 143v7q0 91 -46.5 145t-124.5 54q-79 0 -125 -54t-46 -144v-8q0 -90 46 -143.5t125 -53.5zM301 -9q-111 0 -183.5 75.5t-72.5 190.5v8q0 117 72.5 192t184.5 75t184.5 -74.5t72.5 -191.5v-8q0 -118 -73 -192.5t-185 -74.5zM356 619
q-23 0 -59 21.5t-49 21.5q-14 0 -25 -12.5t-15 -32.5h-60q6 53 34 84.5t67 31.5q23 0 58.5 -21.5t48.5 -21.5q14 0 25 12.5t15 32.5h60q-6 -53 -33.5 -84.5t-66.5 -31.5z" />
    <glyph glyph-name="odieresis" unicode="&#xf6;" horiz-adv-x="604" 
d="M302 60q78 0 124.5 54t46.5 143v7q0 91 -46.5 145t-124.5 54q-79 0 -125 -54t-46 -144v-8q0 -90 46 -143.5t125 -53.5zM301 -9q-111 0 -183.5 75.5t-72.5 190.5v8q0 117 72.5 192t184.5 75t184.5 -74.5t72.5 -191.5v-8q0 -118 -73 -192.5t-185 -74.5zM208 634
q-22 0 -37.5 15.5t-15.5 37.5t15.5 37.5t37.5 15.5t37.5 -15.5t15.5 -37.5t-15.5 -37.5t-37.5 -15.5zM396 634q-22 0 -37.5 15.5t-15.5 37.5t15.5 37.5t37.5 15.5t37.5 -15.5t15.5 -37.5t-15.5 -37.5t-37.5 -15.5z" />
    <glyph glyph-name="divide" unicode="&#xf7;" horiz-adv-x="519" 
d="M259 89q-26 0 -45 18.5t-19 45.5t19 45.5t45 18.5t45 -18.5t19 -45.5t-19 -45.5t-45 -18.5zM36 307v70h447v-70h-447zM259 467q-26 0 -45 18.5t-19 45.5t19 45.5t45 18.5t45 -18.5t19 -45.5t-19 -45.5t-45 -18.5z" />
    <glyph glyph-name="oslash" unicode="&#xf8;" horiz-adv-x="604" 
d="M67 -37l-44 38l77 85q-55 71 -55 171v8q0 117 72.5 192t184.5 75q90 0 156 -50l68 74l44 -38l-70 -77q59 -73 59 -175v-8q0 -118 -73 -192.5t-185 -74.5q-92 0 -160 54zM302 60q78 0 124.5 54t46.5 143v7q0 66 -27 117l-256 -281q45 -40 112 -40zM131 257q0 -65 24 -111
l253 280q-43 37 -106 37q-79 0 -125 -54t-46 -144v-8z" />
    <glyph glyph-name="ugrave" unicode="&#xf9;" horiz-adv-x="594" 
d="M261 -9q-83 0 -132.5 49t-49.5 152v331h83v-327q0 -69 29.5 -101t91.5 -32q59 0 101.5 38t42.5 105v317h83v-523h-83v83q-19 -40 -62.5 -66t-103.5 -26zM272 613l-104 147h104l62 -147h-62z" />
    <glyph glyph-name="uacute" unicode="&#xfa;" horiz-adv-x="594" 
d="M261 -9q-83 0 -132.5 49t-49.5 152v331h83v-327q0 -69 29.5 -101t91.5 -32q59 0 101.5 38t42.5 105v317h83v-523h-83v83q-19 -40 -62.5 -66t-103.5 -26zM260 613l62 147h104l-104 -147h-62z" />
    <glyph glyph-name="ucircumflex" unicode="&#xfb;" horiz-adv-x="594" 
d="M261 -9q-83 0 -132.5 49t-49.5 152v331h83v-327q0 -69 29.5 -101t91.5 -32q59 0 101.5 38t42.5 105v317h83v-523h-83v83q-19 -40 -62.5 -66t-103.5 -26zM152 613l108 144h75l107 -144h-61l-85 75l-85 -75h-59z" />
    <glyph glyph-name="udieresis" unicode="&#xfc;" horiz-adv-x="594" 
d="M261 -9q-83 0 -132.5 49t-49.5 152v331h83v-327q0 -69 29.5 -101t91.5 -32q59 0 101.5 38t42.5 105v317h83v-523h-83v83q-19 -40 -62.5 -66t-103.5 -26zM203 634q-22 0 -37.5 15.5t-15.5 37.5t15.5 37.5t37.5 15.5t37.5 -15.5t15.5 -37.5t-15.5 -37.5t-37.5 -15.5z
M391 634q-22 0 -37.5 15.5t-15.5 37.5t15.5 37.5t37.5 15.5t37.5 -15.5t15.5 -37.5t-15.5 -37.5t-37.5 -15.5z" />
    <glyph glyph-name="yacute" unicode="&#xfd;" horiz-adv-x="529" 
d="M131 -182l99 236l-205 469h89l160 -375l145 375h85l-289 -705h-84zM235 613l62 147h104l-104 -147h-62z" />
    <glyph glyph-name="thorn" unicode="&#xfe;" horiz-adv-x="627" 
d="M84 -182v955h83v-338q24 40 73 68.5t104 28.5q105 0 171.5 -71.5t66.5 -191.5v-8q0 -121 -65.5 -195.5t-172.5 -74.5q-61 0 -107 26.5t-70 68.5v-268h-83zM336 60q78 0 119 51t41 146v8q0 95 -45.5 146.5t-115.5 51.5q-76 0 -123.5 -50.5t-47.5 -147.5v-8
q0 -97 46.5 -147t125.5 -50z" />
    <glyph glyph-name="ydieresis" unicode="&#xff;" horiz-adv-x="529" 
d="M131 -182l99 236l-205 469h89l160 -375l145 375h85l-289 -705h-84zM178 634q-22 0 -37.5 15.5t-15.5 37.5t15.5 37.5t37.5 15.5t37.5 -15.5t15.5 -37.5t-15.5 -37.5t-37.5 -15.5zM366 634q-22 0 -37.5 15.5t-15.5 37.5t15.5 37.5t37.5 15.5t37.5 -15.5t15.5 -37.5
t-15.5 -37.5t-37.5 -15.5z" />
    <glyph glyph-name="Amacron" unicode="&#x100;" horiz-adv-x="674" 
d="M36 0l246 715h114l242 -715h-86l-70 206h-295l-69 -206h-82zM335 643l-124 -368h248zM204 786v64h266v-64h-266z" />
    <glyph glyph-name="amacron" unicode="&#x101;" horiz-adv-x="540" 
d="M215 -9q-77 0 -125.5 38.5t-48.5 115.5q0 84 74.5 123t187.5 39h75v38q0 63 -26 90.5t-86 27.5q-108 0 -120 -94h-83q8 84 66 123.5t141 39.5q191 0 191 -187v-345h-83v66q-60 -75 -163 -75zM223 57q68 0 111.5 33.5t43.5 92.5v65h-72q-182 0 -182 -103q0 -88 99 -88z
M140 648v64h262v-64h-262z" />
    <glyph glyph-name="Abreve" unicode="&#x102;" horiz-adv-x="674" 
d="M36 0l246 715h114l242 -715h-86l-70 206h-295l-69 -206h-82zM335 643l-124 -368h248zM335 767q-54 0 -91.5 37.5t-40.5 94.5h66q11 -64 66 -64q59 0 72 64h64q-3 -57 -42.5 -94.5t-93.5 -37.5z" />
    <glyph glyph-name="abreve" unicode="&#x103;" horiz-adv-x="540" 
d="M215 -9q-77 0 -125.5 38.5t-48.5 115.5q0 84 74.5 123t187.5 39h75v38q0 63 -26 90.5t-86 27.5q-108 0 -120 -94h-83q8 84 66 123.5t141 39.5q191 0 191 -187v-345h-83v66q-60 -75 -163 -75zM223 57q68 0 111.5 33.5t43.5 92.5v65h-72q-182 0 -182 -103q0 -88 99 -88z
M269 619q-54 0 -91.5 37.5t-40.5 94.5h66q11 -64 66 -64q59 0 72 64h64q-3 -57 -42.5 -94.5t-93.5 -37.5z" />
    <glyph glyph-name="Aogonek" unicode="&#x104;" horiz-adv-x="674" 
d="M585 -182q-47 0 -75.5 21.5t-28.5 58.5q0 30 20 56t52 43l-71 209h-295l-69 -206h-82l246 715h114l241 -712q-77 -45 -77 -89q0 -36 38 -36q31 0 52 11v-59q-29 -12 -65 -12zM335 643l-124 -368h248z" />
    <glyph glyph-name="aogonek" unicode="&#x105;" horiz-adv-x="540" 
d="M407 -182q-47 0 -75.5 21.5t-28.5 58.5q0 30 21 57t54 44v67q-60 -75 -163 -75q-77 0 -125.5 38.5t-48.5 115.5q0 84 74.5 123t187.5 39h75v38q0 63 -26 90.5t-86 27.5q-108 0 -120 -94h-83q8 84 66 123.5t141 39.5q191 0 191 -187v-341q-79 -45 -79 -90q0 -36 38 -36
q31 0 52 11v-59q-29 -12 -65 -12zM223 57q68 0 111.5 33.5t43.5 92.5v65h-72q-182 0 -182 -103q0 -88 99 -88z" />
    <glyph glyph-name="Cacute" unicode="&#x106;" horiz-adv-x="730" 
d="M389 -9q-155 0 -244.5 98t-89.5 264v8q0 159 95 262t241 103q117 0 198 -61t92 -173h-86q-27 165 -203 165q-111 0 -179 -80.5t-68 -214.5v-8q0 -137 65.5 -214.5t180.5 -77.5q89 0 146 44.5t70 130.5h81q-18 -121 -97 -183.5t-202 -62.5zM356 771l56 127h104l-98 -127
h-62z" />
    <glyph glyph-name="cacute" unicode="&#x107;" horiz-adv-x="570" 
d="M301 -9q-111 0 -183.5 72.5t-72.5 192.5v8q0 118 73.5 193t180.5 75q90 0 153 -44.5t74 -138.5h-82q-18 114 -145 114q-73 0 -120.5 -54.5t-47.5 -144.5v-8q0 -94 46.5 -145t124.5 -51q59 0 101.5 33.5t48.5 94.5h77q-8 -86 -71.5 -141.5t-156.5 -55.5zM261 613l62 147
h104l-104 -147h-62z" />
    <glyph glyph-name="Ccircumflex" unicode="&#x108;" horiz-adv-x="730" 
d="M389 -9q-155 0 -244.5 98t-89.5 264v8q0 159 95 262t241 103q117 0 198 -61t92 -173h-86q-27 165 -203 165q-111 0 -179 -80.5t-68 -214.5v-8q0 -137 65.5 -214.5t180.5 -77.5q89 0 146 44.5t70 130.5h81q-18 -121 -97 -183.5t-202 -62.5zM248 771l108 127h75l107 -127
h-61l-85 58l-85 -58h-59z" />
    <glyph glyph-name="ccircumflex" unicode="&#x109;" horiz-adv-x="570" 
d="M301 -9q-111 0 -183.5 72.5t-72.5 192.5v8q0 118 73.5 193t180.5 75q90 0 153 -44.5t74 -138.5h-82q-18 114 -145 114q-73 0 -120.5 -54.5t-47.5 -144.5v-8q0 -94 46.5 -145t124.5 -51q59 0 101.5 33.5t48.5 94.5h77q-8 -86 -71.5 -141.5t-156.5 -55.5zM153 613l108 144
h75l107 -144h-61l-85 75l-85 -75h-59z" />
    <glyph glyph-name="Cdotaccent" unicode="&#x10a;" horiz-adv-x="730" 
d="M389 -9q-155 0 -244.5 98t-89.5 264v8q0 159 95 262t241 103q117 0 198 -61t92 -173h-86q-27 165 -203 165q-111 0 -179 -80.5t-68 -214.5v-8q0 -137 65.5 -214.5t180.5 -77.5q89 0 146 44.5t70 130.5h81q-18 -121 -97 -183.5t-202 -62.5zM389 787q-23 0 -39 16.5
t-16 38.5t16 38.5t39 16.5t39 -16.5t16 -38.5t-16 -38.5t-39 -16.5z" />
    <glyph glyph-name="cdotaccent" unicode="&#x10b;" horiz-adv-x="570" 
d="M301 -9q-111 0 -183.5 72.5t-72.5 192.5v8q0 118 73.5 193t180.5 75q90 0 153 -44.5t74 -138.5h-82q-18 114 -145 114q-73 0 -120.5 -54.5t-47.5 -144.5v-8q0 -94 46.5 -145t124.5 -51q59 0 101.5 33.5t48.5 94.5h77q-8 -86 -71.5 -141.5t-156.5 -55.5zM298 632
q-22 0 -38.5 16t-16.5 39t16.5 39t38.5 16t38.5 -16t16.5 -39t-16.5 -39t-38.5 -16z" />
    <glyph glyph-name="Ccaron" unicode="&#x10c;" horiz-adv-x="730" 
d="M389 -9q-155 0 -244.5 98t-89.5 264v8q0 159 95 262t241 103q117 0 198 -61t92 -173h-86q-27 165 -203 165q-111 0 -179 -80.5t-68 -214.5v-8q0 -137 65.5 -214.5t180.5 -77.5q89 0 146 44.5t70 130.5h81q-18 -121 -97 -183.5t-202 -62.5zM355 771l-107 127h61l85 -58
l85 58h59l-108 -127h-75z" />
    <glyph glyph-name="ccaron" unicode="&#x10d;" horiz-adv-x="570" 
d="M301 -9q-111 0 -183.5 72.5t-72.5 192.5v8q0 118 73.5 193t180.5 75q90 0 153 -44.5t74 -138.5h-82q-18 114 -145 114q-73 0 -120.5 -54.5t-47.5 -144.5v-8q0 -94 46.5 -145t124.5 -51q59 0 101.5 33.5t48.5 94.5h77q-8 -86 -71.5 -141.5t-156.5 -55.5zM260 613l-107 144
h61l85 -75l85 75h59l-108 -144h-75z" />
    <glyph glyph-name="Dcaron" unicode="&#x10e;" horiz-adv-x="696" 
d="M177 71h98q135 0 205.5 75.5t70.5 209.5v8q0 131 -67.5 206t-209.5 75h-97v-574zM90 0v715h189q177 0 269.5 -97t92.5 -254v-9q0 -157 -92.5 -256t-271.5 -99h-187zM278 771l-107 127h61l85 -58l85 58h59l-108 -127h-75z" />
    <glyph glyph-name="dcaron" unicode="&#x10f;" horiz-adv-x="627" 
d="M281 -9q-105 0 -170.5 70t-65.5 190v8q0 120 68 196.5t176 76.5q116 0 171 -93v334h83v-773h-83v90q-24 -40 -74 -69.5t-105 -29.5zM290 60q77 0 125 50.5t48 147.5v8q0 98 -43.5 147.5t-122.5 49.5q-78 0 -122 -52.5t-44 -147.5v-8q0 -95 44.5 -145t114.5 -50zM591 598
l12 175h94l-48 -175h-58z" />
    <glyph glyph-name="Dcroat" unicode="&#x110;" horiz-adv-x="716" 
d="M34 325v67h76v323h189q177 0 269.5 -97t92.5 -254v-9q0 -157 -92.5 -256t-271.5 -99h-187v325h-76zM197 71h98q135 0 205.5 75.5t70.5 209.5v8q0 131 -67.5 206t-209.5 75h-97v-253h207v-67h-207v-254z" />
    <glyph glyph-name="dcroat" unicode="&#x111;" horiz-adv-x="627" 
d="M282 615v61h178v97h83v-97h75v-61h-75v-615h-83v90q-24 -40 -74 -69.5t-105 -29.5q-105 0 -170.5 70t-65.5 190v8q0 120 68 196.5t176 76.5q116 0 171 -93v176h-178zM290 60q77 0 125 50.5t48 147.5v8q0 98 -43.5 147.5t-122.5 49.5q-78 0 -122 -52.5t-44 -147.5v-8
q0 -95 44.5 -145t114.5 -50z" />
    <glyph glyph-name="Emacron" unicode="&#x112;" horiz-adv-x="566" 
d="M90 0v715h417v-71h-330v-243h266v-71h-266v-259h348v-71h-435zM173 786v64h266v-64h-266z" />
    <glyph glyph-name="emacron" unicode="&#x113;" horiz-adv-x="568" 
d="M298 -9q-112 0 -182.5 72.5t-70.5 192.5v8q0 118 68.5 193t176.5 75q100 0 167.5 -64.5t67.5 -195.5v-27h-394q3 -90 45.5 -137.5t122.5 -47.5q123 0 139 91h83q-13 -77 -73 -118.5t-150 -41.5zM134 312h306q-11 151 -150 151q-63 0 -104 -40.5t-52 -110.5zM159 648v64
h262v-64h-262z" />
    <glyph glyph-name="Ebreve" unicode="&#x114;" horiz-adv-x="566" 
d="M90 0v715h417v-71h-330v-243h266v-71h-266v-259h348v-71h-435zM311 767q-54 0 -91.5 37.5t-40.5 94.5h66q11 -64 66 -64q59 0 72 64h64q-3 -57 -42.5 -94.5t-93.5 -37.5z" />
    <glyph glyph-name="ebreve" unicode="&#x115;" horiz-adv-x="568" 
d="M298 -9q-112 0 -182.5 72.5t-70.5 192.5v8q0 118 68.5 193t176.5 75q100 0 167.5 -64.5t67.5 -195.5v-27h-394q3 -90 45.5 -137.5t122.5 -47.5q123 0 139 91h83q-13 -77 -73 -118.5t-150 -41.5zM134 312h306q-11 151 -150 151q-63 0 -104 -40.5t-52 -110.5zM280 619
q-54 0 -91.5 37.5t-40.5 94.5h66q11 -64 66 -64q59 0 72 64h64q-3 -57 -42.5 -94.5t-93.5 -37.5z" />
    <glyph glyph-name="Edotaccent" unicode="&#x116;" horiz-adv-x="566" 
d="M90 0v715h417v-71h-330v-243h266v-71h-266v-259h348v-71h-435zM306 787q-22 0 -38.5 16.5t-16.5 38.5t16.5 38.5t38.5 16.5t38.5 -16.5t16.5 -38.5t-16.5 -38.5t-38.5 -16.5z" />
    <glyph glyph-name="edotaccent" unicode="&#x117;" horiz-adv-x="568" 
d="M298 -9q-112 0 -182.5 72.5t-70.5 192.5v8q0 118 68.5 193t176.5 75q100 0 167.5 -64.5t67.5 -195.5v-27h-394q3 -90 45.5 -137.5t122.5 -47.5q123 0 139 91h83q-13 -77 -73 -118.5t-150 -41.5zM134 312h306q-11 151 -150 151q-63 0 -104 -40.5t-52 -110.5zM290 632
q-22 0 -38.5 16t-16.5 39t16.5 39t38.5 16t38.5 -16t16.5 -39t-16.5 -39t-38.5 -16z" />
    <glyph glyph-name="Eogonek" unicode="&#x118;" horiz-adv-x="566" 
d="M454 -182q-47 0 -75.5 21.5t-28.5 58.5q0 31 22 58t56 44h-338v715h417v-71h-330v-243h266v-71h-266v-259h348v-71h-28q-68 -45 -68 -86q0 -36 38 -36q31 0 52 11v-59q-29 -12 -65 -12z" />
    <glyph glyph-name="eogonek" unicode="&#x119;" horiz-adv-x="568" 
d="M388 -182q-47 0 -75.5 21.5t-28.5 58.5q0 29 19 55t50 42q-24 -4 -55 -4q-112 0 -182.5 72.5t-70.5 192.5v8q0 118 68.5 193t176.5 75q100 0 167.5 -64.5t67.5 -195.5v-27h-394q3 -90 45.5 -137.5t122.5 -47.5q123 0 139 91h83q-2 -12 -5.5 -23t-7 -20t-9 -18.5t-9 -16
t-10.5 -14.5t-10.5 -12.5t-11 -11t-10 -9t-10 -8.5t-8.5 -7q-67 -57 -67 -97q0 -36 38 -36q31 0 52 11v-59q-29 -12 -65 -12zM134 312h306q-11 151 -150 151q-63 0 -104 -40.5t-52 -110.5z" />
    <glyph glyph-name="Ecaron" unicode="&#x11a;" horiz-adv-x="566" 
d="M90 0v715h417v-71h-330v-243h266v-71h-266v-259h348v-71h-435zM272 771l-107 127h61l85 -58l85 58h59l-108 -127h-75z" />
    <glyph glyph-name="ecaron" unicode="&#x11b;" horiz-adv-x="568" 
d="M298 -9q-112 0 -182.5 72.5t-70.5 192.5v8q0 118 68.5 193t176.5 75q100 0 167.5 -64.5t67.5 -195.5v-27h-394q3 -90 45.5 -137.5t122.5 -47.5q123 0 139 91h83q-13 -77 -73 -118.5t-150 -41.5zM134 312h306q-11 151 -150 151q-63 0 -104 -40.5t-52 -110.5zM252 613
l-107 144h61l85 -75l85 75h59l-108 -144h-75z" />
    <glyph glyph-name="Gcircumflex" unicode="&#x11c;" horiz-adv-x="767" 
d="M401 -9q-161 0 -253.5 100.5t-92.5 261.5v8q0 158 96.5 261.5t249.5 103.5q115 0 195 -56.5t96 -170.5h-87q-28 158 -202 158q-121 0 -189.5 -80.5t-68.5 -214.5v-8q0 -136 66 -214.5t190 -78.5q111 0 167 63t58 165h-209v72h294v-53q0 -152 -84.5 -234.5t-225.5 -82.5z
M250 771l108 127h75l107 -127h-61l-85 58l-85 -58h-59z" />
    <glyph glyph-name="gcircumflex" unicode="&#x11d;" horiz-adv-x="627" 
d="M293 -191q-109 0 -167.5 44.5t-69.5 116.5h85q18 -91 151 -91q80 0 124 39.5t44 121.5v76q-24 -41 -73 -70t-104 -29q-103 0 -170.5 70t-67.5 178v7q0 109 69 184.5t175 75.5q116 0 171 -93v84h83v-488q-1 -111 -69 -168.5t-181 -57.5zM292 86q75 0 123 49.5t48 135.5v7
q0 87 -44.5 136t-121.5 49t-121.5 -51.5t-44.5 -135.5v-8q0 -83 46.5 -132.5t114.5 -49.5zM149 613l108 144h75l107 -144h-61l-85 75l-85 -75h-59z" />
    <glyph glyph-name="Gbreve" unicode="&#x11e;" horiz-adv-x="767" 
d="M401 -9q-161 0 -253.5 100.5t-92.5 261.5v8q0 158 96.5 261.5t249.5 103.5q115 0 195 -56.5t96 -170.5h-87q-28 158 -202 158q-121 0 -189.5 -80.5t-68.5 -214.5v-8q0 -136 66 -214.5t190 -78.5q111 0 167 63t58 165h-209v72h294v-53q0 -152 -84.5 -234.5t-225.5 -82.5z
M393 767q-54 0 -91.5 37.5t-40.5 94.5h66q11 -64 66 -64q59 0 72 64h64q-3 -57 -42.5 -94.5t-93.5 -37.5z" />
    <glyph glyph-name="gbreve" unicode="&#x11f;" horiz-adv-x="627" 
d="M293 -191q-109 0 -167.5 44.5t-69.5 116.5h85q18 -91 151 -91q80 0 124 39.5t44 121.5v76q-24 -41 -73 -70t-104 -29q-103 0 -170.5 70t-67.5 178v7q0 109 69 184.5t175 75.5q116 0 171 -93v84h83v-488q-1 -111 -69 -168.5t-181 -57.5zM292 86q75 0 123 49.5t48 135.5v7
q0 87 -44.5 136t-121.5 49t-121.5 -51.5t-44.5 -135.5v-8q0 -83 46.5 -132.5t114.5 -49.5zM292 619q-54 0 -91.5 37.5t-40.5 94.5h66q11 -64 66 -64q59 0 72 64h64q-3 -57 -42.5 -94.5t-93.5 -37.5z" />
    <glyph glyph-name="Gdotaccent" unicode="&#x120;" horiz-adv-x="767" 
d="M401 -9q-161 0 -253.5 100.5t-92.5 261.5v8q0 158 96.5 261.5t249.5 103.5q115 0 195 -56.5t96 -170.5h-87q-28 158 -202 158q-121 0 -189.5 -80.5t-68.5 -214.5v-8q0 -136 66 -214.5t190 -78.5q111 0 167 63t58 165h-209v72h294v-53q0 -152 -84.5 -234.5t-225.5 -82.5z
M395 787q-23 0 -39 16.5t-16 38.5t16 38.5t39 16.5t39 -16.5t16 -38.5t-16 -38.5t-39 -16.5z" />
    <glyph glyph-name="gdotaccent" unicode="&#x121;" horiz-adv-x="627" 
d="M293 -191q-109 0 -167.5 44.5t-69.5 116.5h85q18 -91 151 -91q80 0 124 39.5t44 121.5v76q-24 -41 -73 -70t-104 -29q-103 0 -170.5 70t-67.5 178v7q0 109 69 184.5t175 75.5q116 0 171 -93v84h83v-488q-1 -111 -69 -168.5t-181 -57.5zM292 86q75 0 123 49.5t48 135.5v7
q0 87 -44.5 136t-121.5 49t-121.5 -51.5t-44.5 -135.5v-8q0 -83 46.5 -132.5t114.5 -49.5zM294 632q-22 0 -38.5 16t-16.5 39t16.5 39t38.5 16t38.5 -16t16.5 -39t-16.5 -39t-38.5 -16z" />
    <glyph glyph-name="Gcommaaccent" unicode="&#x122;" horiz-adv-x="767" 
d="M401 -9q-161 0 -253.5 100.5t-92.5 261.5v8q0 158 96.5 261.5t249.5 103.5q115 0 195 -56.5t96 -170.5h-87q-28 158 -202 158q-121 0 -189.5 -80.5t-68.5 -214.5v-8q0 -136 66 -214.5t190 -78.5q111 0 167 63t58 165h-209v72h294v-53q0 -152 -84.5 -234.5t-225.5 -82.5z
M362 -220l-51 26l58 157l80 -24z" />
    <glyph glyph-name="gcommaaccent" unicode="&#x123;" horiz-adv-x="627" 
d="M293 -191q-109 0 -167.5 44.5t-69.5 116.5h85q18 -91 151 -91q80 0 124 39.5t44 121.5v76q-24 -41 -73 -70t-104 -29q-103 0 -170.5 70t-67.5 178v7q0 109 69 184.5t175 75.5q116 0 171 -93v84h83v-488q-1 -111 -69 -168.5t-181 -57.5zM292 86q75 0 123 49.5t48 135.5v7
q0 87 -44.5 136t-121.5 49t-121.5 -51.5t-44.5 -135.5v-8q0 -83 46.5 -132.5t114.5 -49.5zM334 602l-80 24l87 159l51 -26z" />
    <glyph glyph-name="Hcircumflex" unicode="&#x124;" horiz-adv-x="730" 
d="M90 0v715h87v-324h376v324h87v-715h-87v318h-376v-318h-87zM220 771l108 127h75l107 -127h-61l-85 58l-85 -58h-59z" />
    <glyph glyph-name="hcircumflex" unicode="&#x125;" horiz-adv-x="598" 
d="M84 0v773h83v-333q19 40 63 66t105 26q86 0 135 -51t49 -160v-321h-83v327q0 69 -30 101t-93 32q-61 0 -103.5 -38t-42.5 -105v-317h-83zM168 821l108 127h75l107 -127h-61l-85 58l-85 -58h-59z" />
    <glyph glyph-name="Hbar" unicode="&#x126;" horiz-adv-x="730" 
d="M20 493v67h70v155h87v-155h376v155h87v-155h70v-67h-70v-493h-87v318h-376v-318h-87v493h-70zM177 391h376v102h-376v-102z" />
    <glyph glyph-name="hbar" unicode="&#x127;" horiz-adv-x="598" 
d="M9 615v61h75v97h83v-97h178v-61h-178v-175q19 40 63 66t105 26q86 0 135 -51t49 -160v-321h-83v327q0 69 -30 101t-93 32q-61 0 -103.5 -38t-42.5 -105v-317h-83v615h-75z" />
    <glyph glyph-name="Itilde" unicode="&#x128;" horiz-adv-x="277" 
d="M95 0v715h87v-715h-87zM194 774q-23 0 -59 21.5t-49 21.5q-14 0 -25 -12.5t-15 -32.5h-60q6 53 34 84.5t67 31.5q23 0 58.5 -21.5t48.5 -21.5q14 0 25 12.5t15 32.5h60q-6 -53 -33.5 -84.5t-66.5 -31.5z" />
    <glyph glyph-name="itilde" unicode="&#x129;" horiz-adv-x="255" 
d="M86 0v523h83v-523h-83zM182 619q-23 0 -59 21.5t-49 21.5q-14 0 -25 -12.5t-15 -32.5h-60q6 53 34 84.5t67 31.5q23 0 58.5 -21.5t48.5 -21.5q14 0 25 12.5t15 32.5h60q-6 -53 -33.5 -84.5t-66.5 -31.5z" />
    <glyph glyph-name="Imacron" unicode="&#x12a;" horiz-adv-x="277" 
d="M95 0v715h87v-715h-87zM5 786v64h266v-64h-266z" />
    <glyph glyph-name="imacron" unicode="&#x12b;" horiz-adv-x="255" 
d="M30 648v64h194v-64h-194zM86 0v523h83v-523h-83z" />
    <glyph glyph-name="Ibreve" unicode="&#x12c;" horiz-adv-x="277" 
d="M95 0v715h87v-715h-87zM138 767q-54 0 -91.5 37.5t-40.5 94.5h66q11 -64 66 -64q59 0 72 64h64q-3 -57 -42.5 -94.5t-93.5 -37.5z" />
    <glyph glyph-name="ibreve" unicode="&#x12d;" horiz-adv-x="255" 
d="M86 0v523h83v-523h-83zM126 619q-54 0 -91.5 37.5t-40.5 94.5h66q11 -64 66 -64q59 0 72 64h64q-3 -57 -42.5 -94.5t-93.5 -37.5z" />
    <glyph glyph-name="Iogonek" unicode="&#x12e;" horiz-adv-x="277" 
d="M130 -182q-47 0 -75.5 21.5t-28.5 58.5q0 59 69 98v719h87v-711q-77 -44 -77 -90q0 -36 38 -36q31 0 52 11v-59q-29 -12 -65 -12z" />
    <glyph glyph-name="iogonek" unicode="&#x12f;" horiz-adv-x="255" 
d="M120 -182q-47 0 -75.5 21.5t-28.5 58.5q0 61 70 98v527h83v-520q-74 -45 -74 -89q0 -36 38 -36q31 0 52 11v-59q-29 -12 -65 -12zM126 632q-22 0 -38.5 16t-16.5 39t16.5 39t38.5 16t38.5 -16t16.5 -39t-16.5 -39t-38.5 -16z" />
    <glyph glyph-name="Idotaccent" unicode="&#x130;" horiz-adv-x="277" 
d="M95 0v715h87v-715h-87zM138 787q-22 0 -38.5 16.5t-16.5 38.5t16.5 38.5t38.5 16.5t38.5 -16.5t16.5 -38.5t-16.5 -38.5t-38.5 -16.5z" />
    <glyph glyph-name="dotlessi" unicode="&#x131;" horiz-adv-x="255" 
d="M86 0v523h83v-523h-83z" />
    <glyph glyph-name="IJ" unicode="&#x132;" horiz-adv-x="657" 
d="M95 0v715h87v-715h-87zM375 -9q-64 0 -100 19v72q47 -20 95 -20q116 0 116 136v517h87v-521q0 -102 -55 -152.5t-143 -50.5z" />
    <glyph glyph-name="ij" unicode="&#x133;" horiz-adv-x="510" 
d="M86 0v523h83v-523h-83zM126 632q-22 0 -38.5 16t-16.5 39t16.5 39t38.5 16t38.5 -16t16.5 -39t-16.5 -39t-38.5 -16zM264 -191v70q42 4 59.5 24t17.5 57v563h83v-556q0 -77 -37.5 -116t-122.5 -42zM381 632q-23 0 -39 16t-16 39t16 39t39 16t39 -16t16 -39t-16 -39
t-39 -16z" />
    <glyph glyph-name="Jcircumflex" unicode="&#x134;" horiz-adv-x="420" 
d="M138 -9q-64 0 -100 19v72q47 -20 95 -20q116 0 116 136v517h87v-521q0 -102 -55 -152.5t-143 -50.5zM145 771l108 127h75l107 -127h-61l-85 58l-85 -58h-59z" />
    <glyph glyph-name="jcircumflex" unicode="&#x135;" horiz-adv-x="255" 
d="M9 -191v70q42 4 59.5 24t17.5 57v563h83v-556q0 -77 -37.5 -116t-122.5 -42zM-19 613l108 144h75l107 -144h-61l-85 75l-85 -75h-59z" />
    <glyph glyph-name="Kcommaaccent" unicode="&#x136;" horiz-adv-x="616" 
d="M90 0v715h87v-344l311 345h97l-318 -348l334 -368h-105l-319 349v-349h-87zM289 -220l-51 26l58 157l80 -24z" />
    <glyph glyph-name="kcommaaccent" unicode="&#x137;" horiz-adv-x="516" 
d="M84 0v773h83v-491l217 241h97l-224 -243l243 -280h-101l-232 271v-271h-83zM237 -220l-51 26l58 157l80 -24z" />
    <glyph glyph-name="Lacute" unicode="&#x139;" horiz-adv-x="535" 
d="M90 0v715h87v-644h327v-71h-414zM98 771l56 127h104l-98 -127h-62z" />
    <glyph glyph-name="lacute" unicode="&#x13a;" horiz-adv-x="256" 
d="M86 0v773h84v-773h-84zM92 821l56 127h104l-98 -127h-62z" />
    <glyph glyph-name="Lcommaaccent" unicode="&#x13b;" horiz-adv-x="535" 
d="M90 0v715h87v-644h327v-71h-414zM265 -220l-51 26l58 157l80 -24z" />
    <glyph glyph-name="lcommaaccent" unicode="&#x13c;" horiz-adv-x="256" 
d="M86 0v773h84v-773h-84zM95 -220l-51 26l58 157l80 -24z" />
    <glyph glyph-name="Lcaron" unicode="&#x13d;" horiz-adv-x="535" 
d="M293 558l22 157h94l-58 -157h-58zM90 0v715h87v-644h327v-71h-414z" />
    <glyph glyph-name="lcaron" unicode="&#x13e;" horiz-adv-x="256" 
d="M86 0v773h84v-773h-84zM218 598l12 175h94l-48 -175h-58z" />
    <glyph glyph-name="Ldot" unicode="&#x13f;" horiz-adv-x="535" 
d="M90 0v715h87v-644h327v-71h-414zM400 320q-26 0 -45 18.5t-19 45.5t19 45.5t45 18.5t45 -18.5t19 -45.5t-19 -45.5t-45 -18.5z" />
    <glyph glyph-name="ldot" unicode="&#x140;" horiz-adv-x="328" 
d="M86 0v773h84v-773h-84zM290 303q-26 0 -45 18.5t-19 45.5t19 45.5t45 18.5t45 -18.5t19 -45.5t-19 -45.5t-45 -18.5z" />
    <glyph glyph-name="Lslash" unicode="&#x141;" horiz-adv-x="555" 
d="M42 251v68l68 25v371h87v-339l199 73v-68l-199 -73v-237h327v-71h-414v276z" />
    <glyph glyph-name="lslash" unicode="&#x142;" horiz-adv-x="276" 
d="M20 311v70l76 43v349h84v-301l80 46v-70l-80 -46v-402h-84v354z" />
    <glyph glyph-name="Nacute" unicode="&#x143;" horiz-adv-x="724" 
d="M90 0v715h113l348 -591v591h83v-715h-100l-361 613v-613h-83zM335 771l56 127h104l-98 -127h-62z" />
    <glyph glyph-name="nacute" unicode="&#x144;" horiz-adv-x="598" 
d="M84 0v523h83v-83q19 40 63 66t105 26q86 0 135 -51t49 -160v-321h-83v327q0 69 -30 101t-93 32q-61 0 -103.5 -38t-42.5 -105v-317h-83zM261 613l62 147h104l-104 -147h-62z" />
    <glyph glyph-name="Ncommaaccent" unicode="&#x145;" horiz-adv-x="724" 
d="M90 0v715h113l348 -591v591h83v-715h-100l-361 613v-613h-83zM317 -220l-51 26l58 157l80 -24z" />
    <glyph glyph-name="ncommaaccent" unicode="&#x146;" horiz-adv-x="598" 
d="M84 0v523h83v-83q19 40 63 66t105 26q86 0 135 -51t49 -160v-321h-83v327q0 69 -30 101t-93 32q-61 0 -103.5 -38t-42.5 -105v-317h-83zM265 -220l-51 26l58 157l80 -24z" />
    <glyph glyph-name="Ncaron" unicode="&#x147;" horiz-adv-x="724" 
d="M90 0v715h113l348 -591v591h83v-715h-100l-361 613v-613h-83zM334 771l-107 127h61l85 -58l85 58h59l-108 -127h-75z" />
    <glyph glyph-name="ncaron" unicode="&#x148;" horiz-adv-x="598" 
d="M84 0v523h83v-83q19 40 63 66t105 26q86 0 135 -51t49 -160v-321h-83v327q0 69 -30 101t-93 32q-61 0 -103.5 -38t-42.5 -105v-317h-83zM260 613l-107 144h61l85 -75l85 75h59l-108 -144h-75z" />
    <glyph glyph-name="napostrophe" unicode="&#x149;" horiz-adv-x="598" 
d="M84 0v523h83v-83q19 40 63 66t105 26q86 0 135 -51t49 -160v-321h-83v327q0 69 -30 101t-93 32q-61 0 -103.5 -38t-42.5 -105v-317h-83zM7 488l-51 26l89 212l79 -36z" />
    <glyph glyph-name="Eng" unicode="&#x14a;" horiz-adv-x="724" 
d="M436 -193q-64 0 -100 19v72q47 -20 95 -20q54 0 85.5 30.5t32.5 90.5l-376 614v-613h-83v715h113l348 -568v568h83v-705q0 -102 -55 -152.5t-143 -50.5z" />
    <glyph glyph-name="eng" unicode="&#x14b;" horiz-adv-x="598" 
d="M359 -191v70q42 4 59.5 24t17.5 57v367q0 69 -30 101t-93 32q-61 0 -103.5 -38t-42.5 -105v-317h-83v523h83v-83q19 40 63 66t105 26q86 0 135 -51t49 -160v-354q0 -77 -37.5 -116t-122.5 -42z" />
    <glyph glyph-name="Omacron" unicode="&#x14c;" horiz-adv-x="811" 
d="M409 63q118 0 187.5 81t69.5 212v8q0 125 -69.5 207.5t-189.5 82.5q-122 0 -192 -81t-70 -211v-8q0 -128 75.5 -209.5t188.5 -81.5zM409 -9q-156 0 -255 104.5t-99 257.5v8q0 155 98.5 259t253.5 104t252 -103.5t97 -257.5v-8q0 -154 -97 -259t-250 -105zM272 786v64h266
v-64h-266z" />
    <glyph glyph-name="omacron" unicode="&#x14d;" horiz-adv-x="604" 
d="M302 60q78 0 124.5 54t46.5 143v7q0 91 -46.5 145t-124.5 54q-79 0 -125 -54t-46 -144v-8q0 -90 46 -143.5t125 -53.5zM301 -9q-111 0 -183.5 75.5t-72.5 190.5v8q0 117 72.5 192t184.5 75t184.5 -74.5t72.5 -191.5v-8q0 -118 -73 -192.5t-185 -74.5zM171 648v64h262v-64
h-262z" />
    <glyph glyph-name="Obreve" unicode="&#x14e;" horiz-adv-x="811" 
d="M409 63q118 0 187.5 81t69.5 212v8q0 125 -69.5 207.5t-189.5 82.5q-122 0 -192 -81t-70 -211v-8q0 -128 75.5 -209.5t188.5 -81.5zM409 -9q-156 0 -255 104.5t-99 257.5v8q0 155 98.5 259t253.5 104t252 -103.5t97 -257.5v-8q0 -154 -97 -259t-250 -105zM403 767
q-54 0 -91.5 37.5t-40.5 94.5h66q11 -64 66 -64q59 0 72 64h64q-3 -57 -42.5 -94.5t-93.5 -37.5z" />
    <glyph glyph-name="obreve" unicode="&#x14f;" horiz-adv-x="604" 
d="M302 60q78 0 124.5 54t46.5 143v7q0 91 -46.5 145t-124.5 54q-79 0 -125 -54t-46 -144v-8q0 -90 46 -143.5t125 -53.5zM301 -9q-111 0 -183.5 75.5t-72.5 190.5v8q0 117 72.5 192t184.5 75t184.5 -74.5t72.5 -191.5v-8q0 -118 -73 -192.5t-185 -74.5zM300 619
q-54 0 -91.5 37.5t-40.5 94.5h66q11 -64 66 -64q59 0 72 64h64q-3 -57 -42.5 -94.5t-93.5 -37.5z" />
    <glyph glyph-name="Ohungarumlaut" unicode="&#x150;" horiz-adv-x="811" 
d="M409 63q118 0 187.5 81t69.5 212v8q0 125 -69.5 207.5t-189.5 82.5q-122 0 -192 -81t-70 -211v-8q0 -128 75.5 -209.5t188.5 -81.5zM409 -9q-156 0 -255 104.5t-99 257.5v8q0 155 98.5 259t253.5 104t252 -103.5t97 -257.5v-8q0 -154 -97 -259t-250 -105zM293 771l37 127
h95l-72 -127h-60zM447 771l37 127h95l-72 -127h-60z" />
    <glyph glyph-name="ohungarumlaut" unicode="&#x151;" horiz-adv-x="604" 
d="M302 60q78 0 124.5 54t46.5 143v7q0 91 -46.5 145t-124.5 54q-79 0 -125 -54t-46 -144v-8q0 -90 46 -143.5t125 -53.5zM301 -9q-111 0 -183.5 75.5t-72.5 190.5v8q0 117 72.5 192t184.5 75t184.5 -74.5t72.5 -191.5v-8q0 -118 -73 -192.5t-185 -74.5zM190 613l40 147h95
l-75 -147h-60zM344 613l40 147h95l-75 -147h-60z" />
    <glyph glyph-name="OE" unicode="&#x152;" horiz-adv-x="955" 
d="M55 360q0 157 92.5 256t271.5 99h477v-71h-314v-243h250v-71h-250v-259h332v-71h-497q-177 0 -269.5 97t-92.5 254v9zM495 644h-74q-135 0 -205.5 -75.5t-70.5 -209.5v-8q0 -131 67.5 -206t209.5 -75h73v574z" />
    <glyph glyph-name="oe" unicode="&#x153;" horiz-adv-x="995" 
d="M301 -9q-111 0 -183.5 75.5t-72.5 190.5v8q0 117 72.5 192t184.5 75q72 0 127 -33.5t85 -92.5q28 60 80.5 93t122.5 33q100 0 167.5 -64.5t67.5 -195.5v-27h-394q3 -90 45.5 -137.5t122.5 -47.5q123 0 139 91h83q-13 -77 -73 -118.5t-150 -41.5q-74 0 -128 32.5t-83 92.5
q-30 -59 -85 -92t-128 -33zM302 60q78 0 124.5 54t46.5 143v7q0 91 -46.5 145t-124.5 54q-79 0 -125 -54t-46 -144v-8q0 -90 46 -143.5t125 -53.5zM561 312h306q-11 151 -150 151q-63 0 -104 -40.5t-52 -110.5z" />
    <glyph glyph-name="Racute" unicode="&#x154;" horiz-adv-x="628" 
d="M90 0v715h215q111 0 180.5 -49t69.5 -150v-4q0 -83 -48.5 -131.5t-128.5 -63.5l219 -317h-97l-213 311h-110v-311h-87zM177 380h134q157 0 157 132v4q0 70 -40 99.5t-117 29.5h-134v-265zM273 771l56 127h104l-98 -127h-62z" />
    <glyph glyph-name="racute" unicode="&#x155;" horiz-adv-x="376" 
d="M84 0v523h83v-94q27 49 66.5 75t105.5 28v-78q-86 -4 -129 -40t-43 -127v-287h-83zM168 613l62 147h104l-104 -147h-62z" />
    <glyph glyph-name="Rcommaaccent" unicode="&#x156;" horiz-adv-x="628" 
d="M90 0v715h215q111 0 180.5 -49t69.5 -150v-4q0 -83 -48.5 -131.5t-128.5 -63.5l219 -317h-97l-213 311h-110v-311h-87zM177 380h134q157 0 157 132v4q0 70 -40 99.5t-117 29.5h-134v-265zM277 -220l-51 26l58 157l80 -24z" />
    <glyph glyph-name="rcommaaccent" unicode="&#x157;" horiz-adv-x="376" 
d="M84 0v523h83v-94q27 49 66.5 75t105.5 28v-78q-86 -4 -129 -40t-43 -127v-287h-83zM90 -220l-51 26l58 157l80 -24z" />
    <glyph glyph-name="Rcaron" unicode="&#x158;" horiz-adv-x="628" 
d="M90 0v715h215q111 0 180.5 -49t69.5 -150v-4q0 -83 -48.5 -131.5t-128.5 -63.5l219 -317h-97l-213 311h-110v-311h-87zM177 380h134q157 0 157 132v4q0 70 -40 99.5t-117 29.5h-134v-265zM272 771l-107 127h61l85 -58l85 58h59l-108 -127h-75z" />
    <glyph glyph-name="rcaron" unicode="&#x159;" horiz-adv-x="376" 
d="M84 0v523h83v-94q27 49 66.5 75t105.5 28v-78q-86 -4 -129 -40t-43 -127v-287h-83zM167 613l-107 144h61l85 -75l85 75h59l-108 -144h-75z" />
    <glyph glyph-name="Sacute" unicode="&#x15a;" horiz-adv-x="627" 
d="M321 -9q-133 0 -197.5 62.5t-75.5 164.5h84q5 -35 14.5 -61t29.5 -49t56.5 -35t88.5 -12q70 0 116.5 37.5t46.5 97.5q0 62 -36 91.5t-137 45.5q-121 18 -180 62.5t-59 134.5q0 83 65 138.5t165 55.5q108 0 172 -51t74 -146h-78q-13 67 -53 97t-115 30q-71 0 -110 -32
t-39 -84q0 -56 34 -84t138 -44q126 -20 184.5 -65.5t58.5 -142.5q0 -90 -70.5 -150.5t-176.5 -60.5zM265 771l56 127h104l-98 -127h-62z" />
    <glyph glyph-name="sacute" unicode="&#x15b;" horiz-adv-x="480" 
d="M246 -9q-94 0 -147.5 45t-57.5 125h81q10 -101 123 -101q114 0 114 83q0 39 -28.5 57.5t-93.5 30.5q-102 19 -142 52.5t-40 101.5t54.5 107.5t122.5 39.5q170 0 189 -151h-80q-9 43 -35 62.5t-75 19.5q-45 0 -72 -20.5t-27 -54.5q0 -36 25.5 -53t96.5 -30
q47 -9 75.5 -17.5t56 -25.5t40 -44.5t12.5 -67.5q0 -73 -49.5 -116t-142.5 -43zM201 613l62 147h104l-104 -147h-62z" />
    <glyph glyph-name="Scircumflex" unicode="&#x15c;" horiz-adv-x="627" 
d="M321 -9q-133 0 -197.5 62.5t-75.5 164.5h84q5 -35 14.5 -61t29.5 -49t56.5 -35t88.5 -12q70 0 116.5 37.5t46.5 97.5q0 62 -36 91.5t-137 45.5q-121 18 -180 62.5t-59 134.5q0 83 65 138.5t165 55.5q108 0 172 -51t74 -146h-78q-13 67 -53 97t-115 30q-71 0 -110 -32
t-39 -84q0 -56 34 -84t138 -44q126 -20 184.5 -65.5t58.5 -142.5q0 -90 -70.5 -150.5t-176.5 -60.5zM157 771l108 127h75l107 -127h-61l-85 58l-85 -58h-59z" />
    <glyph glyph-name="scircumflex" unicode="&#x15d;" horiz-adv-x="480" 
d="M246 -9q-94 0 -147.5 45t-57.5 125h81q10 -101 123 -101q114 0 114 83q0 39 -28.5 57.5t-93.5 30.5q-102 19 -142 52.5t-40 101.5t54.5 107.5t122.5 39.5q170 0 189 -151h-80q-9 43 -35 62.5t-75 19.5q-45 0 -72 -20.5t-27 -54.5q0 -36 25.5 -53t96.5 -30
q47 -9 75.5 -17.5t56 -25.5t40 -44.5t12.5 -67.5q0 -73 -49.5 -116t-142.5 -43zM93 613l108 144h75l107 -144h-61l-85 75l-85 -75h-59z" />
    <glyph glyph-name="Scedilla" unicode="&#x15e;" horiz-adv-x="627" 
d="M290 -214q-43 0 -70 23t-30 61h54q8 -36 43 -36q18 0 29 10t11 26t-10 25t-26 9q-15 0 -28 -8l-32 28l38 70q-199 22 -221 224h84q5 -35 14.5 -61t29.5 -49t56.5 -35t88.5 -12q70 0 116.5 37.5t46.5 97.5q0 62 -36 91.5t-137 45.5q-121 18 -180 62.5t-59 134.5
q0 83 65 138.5t165 55.5q108 0 172 -51t74 -146h-78q-13 67 -53 97t-115 30q-71 0 -110 -32t-39 -84q0 -56 34 -84t138 -44q126 -20 184.5 -65.5t58.5 -142.5q0 -90 -70.5 -150.5t-176.5 -60.5l-24 -44q37 5 65.5 -16.5t28.5 -64.5q0 -39 -29 -59.5t-72 -20.5z" />
    <glyph glyph-name="scedilla" unicode="&#x15f;" horiz-adv-x="480" 
d="M227 -214q-43 0 -70 23t-30 61h54q8 -36 43 -36q18 0 29 10t11 26t-10 25t-26 9q-15 0 -28 -8l-32 28l38 70q-76 8 -119 52t-46 115h81q10 -101 123 -101q114 0 114 83q0 39 -28.5 57.5t-93.5 30.5q-102 19 -142 52.5t-40 101.5t54.5 107.5t122.5 39.5q170 0 189 -151
h-80q-9 43 -35 62.5t-75 19.5q-45 0 -72 -20.5t-27 -54.5q0 -36 25.5 -53t96.5 -30q47 -9 75.5 -17.5t56 -25.5t40 -44.5t12.5 -67.5q0 -71 -46.5 -113.5t-133.5 -45.5l-24 -44q37 5 65.5 -16.5t28.5 -64.5q0 -39 -29 -59.5t-72 -20.5z" />
    <glyph glyph-name="Scaron" unicode="&#x160;" horiz-adv-x="627" 
d="M321 -9q-133 0 -197.5 62.5t-75.5 164.5h84q5 -35 14.5 -61t29.5 -49t56.5 -35t88.5 -12q70 0 116.5 37.5t46.5 97.5q0 62 -36 91.5t-137 45.5q-121 18 -180 62.5t-59 134.5q0 83 65 138.5t165 55.5q108 0 172 -51t74 -146h-78q-13 67 -53 97t-115 30q-71 0 -110 -32
t-39 -84q0 -56 34 -84t138 -44q126 -20 184.5 -65.5t58.5 -142.5q0 -90 -70.5 -150.5t-176.5 -60.5zM264 771l-107 127h61l85 -58l85 58h59l-108 -127h-75z" />
    <glyph glyph-name="scaron" unicode="&#x161;" horiz-adv-x="480" 
d="M246 -9q-94 0 -147.5 45t-57.5 125h81q10 -101 123 -101q114 0 114 83q0 39 -28.5 57.5t-93.5 30.5q-102 19 -142 52.5t-40 101.5t54.5 107.5t122.5 39.5q170 0 189 -151h-80q-9 43 -35 62.5t-75 19.5q-45 0 -72 -20.5t-27 -54.5q0 -36 25.5 -53t96.5 -30
q47 -9 75.5 -17.5t56 -25.5t40 -44.5t12.5 -67.5q0 -73 -49.5 -116t-142.5 -43zM200 613l-107 144h61l85 -75l85 75h59l-108 -144h-75z" />
    <glyph glyph-name="Tcommaaccent" unicode="&#x162;" horiz-adv-x="561" 
d="M237 0v644h-208v71h503v-71h-208v-644h-87zM247 -220l-51 26l58 157l80 -24z" />
    <glyph glyph-name="tcommaaccent" unicode="&#x163;" horiz-adv-x="355" 
d="M243 -7q-69 0 -105 37t-36 101v322h-75v70h75v119h83v-119h122v-70h-122v-314q0 -76 65 -76q36 0 64 11v-70q-31 -11 -71 -11zM158 -220l-51 26l58 157l80 -24z" />
    <glyph glyph-name="Tcaron" unicode="&#x164;" horiz-adv-x="561" 
d="M237 0v644h-208v71h503v-71h-208v-644h-87zM242 771l-107 127h61l85 -58l85 58h59l-108 -127h-75z" />
    <glyph glyph-name="tcaron" unicode="&#x165;" horiz-adv-x="355" 
d="M243 -7q-69 0 -105 37t-36 101v322h-75v70h75v119h83v-119h122v-70h-122v-314q0 -76 65 -76q36 0 64 11v-70q-31 -11 -71 -11zM257 598l12 175h94l-48 -175h-58z" />
    <glyph glyph-name="Tbar" unicode="&#x166;" horiz-adv-x="561" 
d="M92 338v66h145v240h-208v71h503v-71h-208v-240h145v-66h-145v-338h-87v338h-145z" />
    <glyph glyph-name="tbar" unicode="&#x167;" horiz-adv-x="355" 
d="M27 280v59h75v114h-75v70h75v119h83v-119h122v-70h-122v-114h122v-59h-122v-141q0 -76 65 -76q36 0 64 11v-70q-31 -11 -71 -11q-69 0 -105 37t-36 101v149h-75z" />
    <glyph glyph-name="Utilde" unicode="&#x168;" horiz-adv-x="696" 
d="M341 -9q-123 0 -190 70t-67 200v454h87v-444q0 -111 41 -159.5t131 -48.5q92 0 137 48t45 173v431h87v-443q0 -134 -68 -207.5t-203 -73.5zM402 774q-23 0 -59 21.5t-49 21.5q-14 0 -25 -12.5t-15 -32.5h-60q6 53 34 84.5t67 31.5q23 0 58.5 -21.5t48.5 -21.5
q14 0 25 12.5t15 32.5h60q-6 -53 -33.5 -84.5t-66.5 -31.5z" />
    <glyph glyph-name="utilde" unicode="&#x169;" horiz-adv-x="594" 
d="M261 -9q-83 0 -132.5 49t-49.5 152v331h83v-327q0 -69 29.5 -101t91.5 -32q59 0 101.5 38t42.5 105v317h83v-523h-83v83q-19 -40 -62.5 -66t-103.5 -26zM351 619q-23 0 -59 21.5t-49 21.5q-14 0 -25 -12.5t-15 -32.5h-60q6 53 34 84.5t67 31.5q23 0 58.5 -21.5
t48.5 -21.5q14 0 25 12.5t15 32.5h60q-6 -53 -33.5 -84.5t-66.5 -31.5z" />
    <glyph glyph-name="Umacron" unicode="&#x16a;" horiz-adv-x="696" 
d="M341 -9q-123 0 -190 70t-67 200v454h87v-444q0 -111 41 -159.5t131 -48.5q92 0 137 48t45 173v431h87v-443q0 -134 -68 -207.5t-203 -73.5zM215 786v64h266v-64h-266z" />
    <glyph glyph-name="umacron" unicode="&#x16b;" horiz-adv-x="594" 
d="M261 -9q-83 0 -132.5 49t-49.5 152v331h83v-327q0 -69 29.5 -101t91.5 -32q59 0 101.5 38t42.5 105v317h83v-523h-83v83q-19 -40 -62.5 -66t-103.5 -26zM166 648v64h262v-64h-262z" />
    <glyph glyph-name="Ubreve" unicode="&#x16c;" horiz-adv-x="696" 
d="M341 -9q-123 0 -190 70t-67 200v454h87v-444q0 -111 41 -159.5t131 -48.5q92 0 137 48t45 173v431h87v-443q0 -134 -68 -207.5t-203 -73.5zM346 767q-54 0 -91.5 37.5t-40.5 94.5h66q11 -64 66 -64q59 0 72 64h64q-3 -57 -42.5 -94.5t-93.5 -37.5z" />
    <glyph glyph-name="ubreve" unicode="&#x16d;" horiz-adv-x="594" 
d="M261 -9q-83 0 -132.5 49t-49.5 152v331h83v-327q0 -69 29.5 -101t91.5 -32q59 0 101.5 38t42.5 105v317h83v-523h-83v83q-19 -40 -62.5 -66t-103.5 -26zM295 619q-54 0 -91.5 37.5t-40.5 94.5h66q11 -64 66 -64q59 0 72 64h64q-3 -57 -42.5 -94.5t-93.5 -37.5z" />
    <glyph glyph-name="Uring" unicode="&#x16e;" horiz-adv-x="696" 
d="M341 -9q-123 0 -190 70t-67 200v454h87v-444q0 -111 41 -159.5t131 -48.5q92 0 137 48t45 173v431h87v-443q0 -134 -68 -207.5t-203 -73.5zM348 785q23 0 38 16.5t15 41.5t-15 41.5t-38 16.5t-38 -16.5t-15 -41.5t15 -41.5t38 -16.5zM348 739q-44 0 -75.5 30.5
t-31.5 73.5t31.5 73.5t75.5 30.5t75.5 -30.5t31.5 -73.5t-31.5 -73.5t-75.5 -30.5z" />
    <glyph glyph-name="uring" unicode="&#x16f;" horiz-adv-x="594" 
d="M261 -9q-83 0 -132.5 49t-49.5 152v331h83v-327q0 -69 29.5 -101t91.5 -32q59 0 101.5 38t42.5 105v317h83v-523h-83v83q-19 -40 -62.5 -66t-103.5 -26zM294 614q23 0 38 16.5t15 41.5t-15 41.5t-38 16.5t-38 -16.5t-15 -41.5t15 -41.5t38 -16.5zM294 568
q-44 0 -75.5 30.5t-31.5 73.5t31.5 73.5t75.5 30.5t75.5 -30.5t31.5 -73.5t-31.5 -73.5t-75.5 -30.5z" />
    <glyph glyph-name="Uhungarumlaut" unicode="&#x170;" horiz-adv-x="696" 
d="M341 -9q-123 0 -190 70t-67 200v454h87v-444q0 -111 41 -159.5t131 -48.5q92 0 137 48t45 173v431h87v-443q0 -134 -68 -207.5t-203 -73.5zM236 771l37 127h95l-72 -127h-60zM390 771l37 127h95l-72 -127h-60z" />
    <glyph glyph-name="uhungarumlaut" unicode="&#x171;" horiz-adv-x="594" 
d="M261 -9q-83 0 -132.5 49t-49.5 152v331h83v-327q0 -69 29.5 -101t91.5 -32q59 0 101.5 38t42.5 105v317h83v-523h-83v83q-19 -40 -62.5 -66t-103.5 -26zM185 613l40 147h95l-75 -147h-60zM339 613l40 147h95l-75 -147h-60z" />
    <glyph glyph-name="Uogonek" unicode="&#x172;" horiz-adv-x="696" 
d="M384 -182q-47 0 -75.5 21.5t-28.5 58.5q0 54 62 93h-1q-123 0 -190 70t-67 200v454h87v-444q0 -111 41 -159.5t131 -48.5q92 0 137 48t45 173v431h87v-443q0 -192 -133 -254q-35 -17 -49 -24t-35 -21t-28.5 -27.5t-7.5 -31.5q0 -36 38 -36q31 0 52 11v-59
q-29 -12 -65 -12z" />
    <glyph glyph-name="uogonek" unicode="&#x173;" horiz-adv-x="594" 
d="M459 -182q-47 0 -75.5 21.5t-28.5 58.5q0 30 20 56t52 43v86q-19 -40 -62.5 -66t-103.5 -26q-83 0 -132.5 49t-49.5 152v331h83v-327q0 -69 29.5 -101t91.5 -32q59 0 101.5 38t42.5 105v317h83v-518q-76 -48 -76 -91q0 -36 38 -36q31 0 52 11v-59q-29 -12 -65 -12z" />
    <glyph glyph-name="Wcircumflex" unicode="&#x174;" horiz-adv-x="928" 
d="M220 0l-186 715h89l145 -577l168 577h62l168 -579l147 579h81l-186 -715h-80l-162 565l-167 -565h-79zM319 771l108 127h75l107 -127h-61l-85 58l-85 -58h-59z" />
    <glyph glyph-name="wcircumflex" unicode="&#x175;" horiz-adv-x="794" 
d="M189 0l-161 523h90l122 -421l127 421h72l119 -421l123 421h85l-163 -523h-92l-109 392l-122 -392h-91zM252 613l108 144h75l107 -144h-61l-85 75l-85 -75h-59z" />
    <glyph glyph-name="Ycircumflex" unicode="&#x176;" horiz-adv-x="598" 
d="M262 0v312l-239 403h98l187 -332l180 332h87l-226 -404v-311h-87zM154 771l108 127h75l107 -127h-61l-85 58l-85 -58h-59z" />
    <glyph glyph-name="ycircumflex" unicode="&#x177;" horiz-adv-x="529" 
d="M131 -182l99 236l-205 469h89l160 -375l145 375h85l-289 -705h-84zM119 613l108 144h75l107 -144h-61l-85 75l-85 -75h-59z" />
    <glyph glyph-name="Ydieresis" unicode="&#x178;" horiz-adv-x="598" 
d="M262 0v312l-239 403h98l187 -332l180 332h87l-226 -404v-311h-87zM197 789q-22 0 -37.5 15.5t-15.5 37.5t15.5 37.5t37.5 15.5t37.5 -15.5t15.5 -37.5t-15.5 -37.5t-37.5 -15.5zM400 789q-22 0 -37.5 15.5t-15.5 37.5t15.5 37.5t37.5 15.5t37.5 -15.5t15.5 -37.5
t-15.5 -37.5t-37.5 -15.5z" />
    <glyph glyph-name="Zacute" unicode="&#x179;" horiz-adv-x="595" 
d="M28 0v14l405 630h-369v71h489v-13l-394 -628h388v-74h-519zM258 771l56 127h104l-98 -127h-62z" />
    <glyph glyph-name="zacute" unicode="&#x17a;" horiz-adv-x="483" 
d="M21 0v12l309 441h-279v70h407v-15l-302 -435h298v-73h-433zM211 613l62 147h104l-104 -147h-62z" />
    <glyph glyph-name="Zdotaccent" unicode="&#x17b;" horiz-adv-x="595" 
d="M28 0v14l405 630h-369v71h489v-13l-394 -628h388v-74h-519zM295 787q-23 0 -39 16.5t-16 38.5t16 38.5t39 16.5t39 -16.5t16 -38.5t-16 -38.5t-39 -16.5z" />
    <glyph glyph-name="zdotaccent" unicode="&#x17c;" horiz-adv-x="483" 
d="M21 0v12l309 441h-279v70h407v-15l-302 -435h298v-73h-433zM248 632q-22 0 -38.5 16t-16.5 39t16.5 39t38.5 16t38.5 -16t16.5 -39t-16.5 -39t-38.5 -16z" />
    <glyph glyph-name="Zcaron" unicode="&#x17d;" horiz-adv-x="595" 
d="M28 0v14l405 630h-369v71h489v-13l-394 -628h388v-74h-519zM257 771l-107 127h61l85 -58l85 58h59l-108 -127h-75z" />
    <glyph glyph-name="zcaron" unicode="&#x17e;" horiz-adv-x="483" 
d="M21 0v12l309 441h-279v70h407v-15l-302 -435h298v-73h-433zM210 613l-107 144h61l85 -75l85 75h59l-108 -144h-75z" />
    <glyph glyph-name="florin" unicode="&#x192;" horiz-adv-x="397" 
d="M29 345v68h97l23 152q25 159 169 159q38 0 68 -11v-70q-30 12 -66 12q-75 0 -89 -94l-23 -148h132v-68h-142l-80 -527h-83l80 527h-86z" />
    <glyph glyph-name="Aringacute" unicode="&#x1fa;" horiz-adv-x="674" 
d="M36 0l246 715h114l242 -715h-86l-70 206h-295l-69 -206h-82zM335 643l-124 -368h248zM344 749q-44 0 -75.5 30.5t-31.5 73.5t31.5 73.5t75.5 30.5t75.5 -30.5t31.5 -73.5t-31.5 -73.5t-75.5 -30.5zM311 986l56 127h104l-98 -127h-62zM344 795q23 0 38 16.5t15 41.5
t-15 41.5t-38 16.5t-38 -16.5t-15 -41.5t15 -41.5t38 -16.5z" />
    <glyph glyph-name="aringacute" unicode="&#x1fb;" horiz-adv-x="540" 
d="M215 -9q-77 0 -125.5 38.5t-48.5 115.5q0 84 74.5 123t187.5 39h75v38q0 63 -26 90.5t-86 27.5q-108 0 -120 -94h-83q8 84 66 123.5t141 39.5q191 0 191 -187v-345h-83v66q-60 -75 -163 -75zM223 57q68 0 111.5 33.5t43.5 92.5v65h-72q-182 0 -182 -103q0 -88 99 -88z
M273 624q23 0 38 16.5t15 41.5t-15 41.5t-38 16.5t-38 -16.5t-15 -41.5t15 -41.5t38 -16.5zM273 578q-44 0 -75.5 30.5t-31.5 73.5t31.5 73.5t75.5 30.5t75.5 -30.5t31.5 -73.5t-31.5 -73.5t-75.5 -30.5zM247 829l56 127h104l-98 -127h-62z" />
    <glyph glyph-name="AEacute" unicode="&#x1fc;" horiz-adv-x="950" 
d="M29 0l370 715h492v-71h-330v-243h266v-71h-266v-259h348v-71h-435v207h-252l-105 -207h-88zM443 644l-187 -369h218v369h-31zM573 771l56 127h104l-98 -127h-62z" />
    <glyph glyph-name="aeacute" unicode="&#x1fd;" horiz-adv-x="880" 
d="M616 -9q-133 0 -197 108q-36 -57 -84 -82.5t-120 -25.5q-77 0 -125.5 38.5t-48.5 115.5q0 85 73.5 125t185.5 40h78v34q0 62 -27 90.5t-85 28.5q-108 0 -120 -94h-83q8 84 66 123.5t141 39.5q124 0 164 -89q64 89 176 89q97 0 162 -64t65 -196v-25h-379q3 -91 43 -139
t116 -48q117 0 133 91h83q-13 -77 -71.5 -118.5t-145.5 -41.5zM223 57q68 0 111.5 33.5t43.5 92.5v64h-75q-179 0 -179 -102q0 -88 99 -88zM461 310h291q-11 153 -142 153q-60 0 -99.5 -41t-49.5 -112zM407 613l62 147h104l-104 -147h-62z" />
    <glyph glyph-name="Oslashacute" unicode="&#x1fe;" horiz-adv-x="811" 
d="M80 -33l-45 45l98 107q-78 98 -78 234v8q0 155 98.5 259t253.5 104q123 0 214 -70l81 88l45 -45l-79 -87q88 -101 88 -247v-8q0 -154 -97 -259t-250 -105q-136 0 -232 82zM409 63q118 0 187.5 81t69.5 212v8q0 112 -52 188l-384 -421q70 -68 179 -68zM145 354
q0 -101 44 -173l382 418q-66 55 -164 55q-122 0 -192 -81t-70 -211v-8zM369 771l56 127h104l-98 -127h-62z" />
    <glyph glyph-name="oslashacute" unicode="&#x1ff;" horiz-adv-x="604" 
d="M67 -37l-44 38l77 85q-55 71 -55 171v8q0 117 72.5 192t184.5 75q90 0 156 -50l68 74l44 -38l-70 -77q59 -73 59 -175v-8q0 -118 -73 -192.5t-185 -74.5q-92 0 -160 54zM302 60q78 0 124.5 54t46.5 143v7q0 66 -27 117l-256 -281q45 -40 112 -40zM131 257q0 -65 24 -111
l253 280q-43 37 -106 37q-79 0 -125 -54t-46 -144v-8zM264 613l62 147h104l-104 -147h-62z" />
    <glyph glyph-name="Scommaaccent" unicode="&#x218;" horiz-adv-x="627" 
d="M321 -9q-133 0 -197.5 62.5t-75.5 164.5h84q5 -35 14.5 -61t29.5 -49t56.5 -35t88.5 -12q70 0 116.5 37.5t46.5 97.5q0 62 -36 91.5t-137 45.5q-121 18 -180 62.5t-59 134.5q0 83 65 138.5t165 55.5q108 0 172 -51t74 -146h-78q-13 67 -53 97t-115 30q-71 0 -110 -32
t-39 -84q0 -56 34 -84t138 -44q126 -20 184.5 -65.5t58.5 -142.5q0 -90 -70.5 -150.5t-176.5 -60.5zM269 -220l-51 26l58 157l80 -24z" />
    <glyph glyph-name="scommaaccent" unicode="&#x219;" horiz-adv-x="480" 
d="M246 -9q-94 0 -147.5 45t-57.5 125h81q10 -101 123 -101q114 0 114 83q0 39 -28.5 57.5t-93.5 30.5q-102 19 -142 52.5t-40 101.5t54.5 107.5t122.5 39.5q170 0 189 -151h-80q-9 43 -35 62.5t-75 19.5q-45 0 -72 -20.5t-27 -54.5q0 -36 25.5 -53t96.5 -30
q47 -9 75.5 -17.5t56 -25.5t40 -44.5t12.5 -67.5q0 -73 -49.5 -116t-142.5 -43zM205 -220l-51 26l58 157l80 -24z" />
    <glyph glyph-name="uni0237" unicode="&#x237;" horiz-adv-x="255" 
d="M9 -191v70q42 4 59.5 24t17.5 57v563h83v-556q0 -77 -37.5 -116t-122.5 -42z" />
    <glyph glyph-name="circumflex" unicode="&#x2c6;" horiz-adv-x="400" 
d="M55 613l108 144h75l107 -144h-61l-85 75l-85 -75h-59z" />
    <glyph glyph-name="caron" unicode="&#x2c7;" horiz-adv-x="400" 
d="M162 613l-107 144h61l85 -75l85 75h59l-108 -144h-75z" />
    <glyph glyph-name="breve" unicode="&#x2d8;" horiz-adv-x="400" 
d="M198 619q-54 0 -91.5 37.5t-40.5 94.5h66q11 -64 66 -64q59 0 72 64h64q-3 -57 -42.5 -94.5t-93.5 -37.5z" />
    <glyph glyph-name="dotaccent" unicode="&#x2d9;" horiz-adv-x="400" 
d="M200 632q-22 0 -38.5 16t-16.5 39t16.5 39t38.5 16t38.5 -16t16.5 -39t-16.5 -39t-38.5 -16z" />
    <glyph glyph-name="ring" unicode="&#x2da;" horiz-adv-x="400" 
d="M200 644q23 0 38 16.5t15 41.5t-15 41.5t-38 16.5t-38 -16.5t-15 -41.5t15 -41.5t38 -16.5zM200 598q-44 0 -75.5 30.5t-31.5 73.5t31.5 73.5t75.5 30.5t75.5 -30.5t31.5 -73.5t-31.5 -73.5t-75.5 -30.5z" />
    <glyph glyph-name="ogonek" unicode="&#x2db;" horiz-adv-x="400" 
d="M223 -182q-47 0 -75.5 21.5t-28.5 58.5q0 31 22 58t56 44h69q-68 -45 -68 -86q0 -36 38 -36q31 0 52 11v-59q-29 -12 -65 -12z" />
    <glyph glyph-name="tilde" unicode="&#x2dc;" horiz-adv-x="400" 
d="M254 619q-23 0 -59 21.5t-49 21.5q-14 0 -25 -12.5t-15 -32.5h-60q6 53 34 84.5t67 31.5q23 0 58.5 -21.5t48.5 -21.5q14 0 25 12.5t15 32.5h60q-6 -53 -33.5 -84.5t-66.5 -31.5z" />
    <glyph glyph-name="hungarumlaut" unicode="&#x2dd;" horiz-adv-x="400" 
d="M96 613l40 147h95l-75 -147h-60zM250 613l40 147h95l-75 -147h-60z" />
    <glyph glyph-name="Wgrave" unicode="&#x1e80;" horiz-adv-x="928" 
d="M220 0l-186 715h89l145 -577l168 577h62l168 -579l147 579h81l-186 -715h-80l-162 565l-167 -565h-79zM442 771l-98 127h104l56 -127h-62z" />
    <glyph glyph-name="wgrave" unicode="&#x1e81;" horiz-adv-x="794" 
d="M189 0l-161 523h90l122 -421l127 421h72l119 -421l123 421h85l-163 -523h-92l-109 392l-122 -392h-91zM381 613l-104 147h104l62 -147h-62z" />
    <glyph glyph-name="Wacute" unicode="&#x1e82;" horiz-adv-x="928" 
d="M220 0l-186 715h89l145 -577l168 577h62l168 -579l147 579h81l-186 -715h-80l-162 565l-167 -565h-79zM440 771l56 127h104l-98 -127h-62z" />
    <glyph glyph-name="wacute" unicode="&#x1e83;" horiz-adv-x="794" 
d="M189 0l-161 523h90l122 -421l127 421h72l119 -421l123 421h85l-163 -523h-92l-109 392l-122 -392h-91zM370 613l62 147h104l-104 -147h-62z" />
    <glyph glyph-name="Wdieresis" unicode="&#x1e84;" horiz-adv-x="928" 
d="M220 0l-186 715h89l145 -577l168 577h62l168 -579l147 579h81l-186 -715h-80l-162 565l-167 -565h-79zM365 789q-22 0 -37.5 15.5t-15.5 37.5t15.5 37.5t37.5 15.5t37.5 -15.5t15.5 -37.5t-15.5 -37.5t-37.5 -15.5zM568 789q-22 0 -37.5 15.5t-15.5 37.5t15.5 37.5
t37.5 15.5t37.5 -15.5t15.5 -37.5t-15.5 -37.5t-37.5 -15.5z" />
    <glyph glyph-name="wdieresis" unicode="&#x1e85;" horiz-adv-x="794" 
d="M189 0l-161 523h90l122 -421l127 421h72l119 -421l123 421h85l-163 -523h-92l-109 392l-122 -392h-91zM308 634q-22 0 -37.5 15.5t-15.5 37.5t15.5 37.5t37.5 15.5t37.5 -15.5t15.5 -37.5t-15.5 -37.5t-37.5 -15.5zM496 634q-22 0 -37.5 15.5t-15.5 37.5t15.5 37.5
t37.5 15.5t37.5 -15.5t15.5 -37.5t-15.5 -37.5t-37.5 -15.5z" />
    <glyph glyph-name="Ygrave" unicode="&#x1ef2;" horiz-adv-x="598" 
d="M262 0v312l-239 403h98l187 -332l180 332h87l-226 -404v-311h-87zM284 771l-98 127h104l56 -127h-62z" />
    <glyph glyph-name="ygrave" unicode="&#x1ef3;" horiz-adv-x="529" 
d="M131 -182l99 236l-205 469h89l160 -375l145 375h85l-289 -705h-84zM243 613l-104 147h104l62 -147h-62z" />
    <glyph glyph-name="uni2009" unicode="&#x2009;" horiz-adv-x="110" 
 />
    <glyph glyph-name="endash" unicode="&#x2013;" horiz-adv-x="526" 
d="M45 241v70h436v-70h-436z" />
    <glyph glyph-name="emdash" unicode="&#x2014;" horiz-adv-x="885" 
d="M45 241v70h795v-70h-795z" />
    <glyph glyph-name="quoteleft" unicode="&#x2018;" horiz-adv-x="255" 
d="M119 488l-79 36l117 202l51 -26z" />
    <glyph glyph-name="quoteright" unicode="&#x2019;" horiz-adv-x="255" 
d="M98 488l-51 26l89 212l79 -36z" />
    <glyph glyph-name="quotesinglbase" unicode="&#x201a;" horiz-adv-x="255" 
d="M98 -114l-51 26l89 212l79 -36z" />
    <glyph glyph-name="quotedblleft" unicode="&#x201c;" horiz-adv-x="432" 
d="M119 488l-79 36l117 202l51 -26zM296 488l-79 36l117 202l51 -26z" />
    <glyph glyph-name="quotedblright" unicode="&#x201d;" horiz-adv-x="432" 
d="M98 488l-51 26l89 212l79 -36zM275 488l-51 26l89 212l79 -36z" />
    <glyph glyph-name="quotedblbase" unicode="&#x201e;" horiz-adv-x="432" 
d="M98 -114l-51 26l89 212l79 -36zM275 -114l-51 26l89 212l79 -36z" />
    <glyph glyph-name="dagger" unicode="&#x2020;" horiz-adv-x="374" 
d="M150 213v306h-116v67h116v129h75v-129h115v-67h-115v-306h-75z" />
    <glyph glyph-name="daggerdbl" unicode="&#x2021;" horiz-adv-x="374" 
d="M150 409v110h-116v67h116v129h75v-129h115v-67h-115v-110h115v-67h-115v-129h-75v129h-116v67h116z" />
    <glyph glyph-name="bullet" unicode="&#x2022;" horiz-adv-x="332" 
d="M166 190q-49 0 -82.5 34t-33.5 82t33.5 82t82.5 34q50 0 83 -33.5t33 -82.5t-33 -82.5t-83 -33.5z" />
    <glyph glyph-name="ellipsis" unicode="&#x2026;" horiz-adv-x="806" 
d="M141 -5q-26 0 -45 18.5t-19 45.5t19 45.5t45 18.5t45 -18.5t19 -45.5t-19 -45.5t-45 -18.5zM403 -5q-26 0 -45 18.5t-19 45.5t19 45.5t45 18.5t45 -18.5t19 -45.5t-19 -45.5t-45 -18.5zM665 -5q-26 0 -45 18.5t-19 45.5t19 45.5t45 18.5t45 -18.5t19 -45.5t-19 -45.5
t-45 -18.5z" />
    <glyph glyph-name="perthousand" unicode="&#x2030;" horiz-adv-x="1126" 
d="M193 459q39 0 61.5 26.5t22.5 72.5q0 45 -23 72t-61 27t-61 -26.5t-23 -73.5q0 -46 23 -72t61 -26zM193 395q-63 0 -111 46.5t-48 114.5q0 70 47 117.5t112 47.5t112 -46.5t47 -116.5t-47.5 -116.5t-111.5 -46.5zM126 0l437 715h76l-437 -715h-76zM565 56q39 0 61.5 26.5
t22.5 72.5q0 45 -23 72t-61 27t-61 -26.5t-23 -73.5q0 -46 23 -72t61 -26zM565 -8q-63 0 -111 46.5t-48 114.5q0 71 47 118t112 47t112 -47t47 -116q0 -70 -47.5 -116.5t-111.5 -46.5zM933 56q39 0 61.5 26.5t22.5 72.5q0 45 -23 72t-61 27t-61 -26.5t-23 -73.5
q0 -46 23 -72t61 -26zM933 -8q-63 0 -111 46.5t-48 114.5q0 71 47 118t112 47t112 -47t47 -116q0 -70 -47.5 -116.5t-111.5 -46.5z" />
    <glyph glyph-name="uni2032" unicode="&#x2032;" horiz-adv-x="212" 
d="M46 470l25 245h90l-55 -245h-60z" />
    <glyph glyph-name="uni2033" unicode="&#x2033;" horiz-adv-x="375" 
d="M46 470l25 245h90l-55 -245h-60zM209 470l25 245h90l-55 -245h-60z" />
    <glyph glyph-name="guilsinglleft" unicode="&#x2039;" horiz-adv-x="322" 
d="M189 83l-130 178l130 178h82l-125 -178l125 -178h-82z" />
    <glyph glyph-name="guilsinglright" unicode="&#x203a;" horiz-adv-x="322" 
d="M51 83l125 178l-125 178h82l130 -178l-130 -178h-82z" />
    <glyph glyph-name="fraction" unicode="&#x2044;" horiz-adv-x="113" 
d="M-230 0l507 715h66l-507 -715h-66z" />
    <glyph glyph-name="Euro" unicode="&#x20ac;" horiz-adv-x="674" 
d="M32 394v58h74q13 120 83 196t184 76q103 0 167.5 -58t76.5 -161h-82q-10 72 -53 111.5t-109 39.5q-79 0 -125.5 -54.5t-56.5 -149.5h239l-11 -58h-230v-78h215l-11 -58h-201q10 -94 56.5 -145t126.5 -51q70 0 113.5 41.5t55.5 122.5h81q-12 -111 -78.5 -173t-171.5 -62
q-112 0 -183.5 74t-85.5 193h-74v58h71v78h-71z" />
    <glyph glyph-name="trademark" unicode="&#x2122;" horiz-adv-x="716" 
d="M342 393v322h77l90 -226l88 226h78v-322h-56v251l-103 -251h-19l-104 251v-251h-51zM132 393v278h-98v44h251v-44h-97v-278h-56z" />
    <glyph glyph-name="onethird" unicode="&#x2153;" horiz-adv-x="723" 
d="M108 373v276l-81 -54v59l89 61h60v-342h-68zM45 0l507 715h66l-507 -715h-66zM560 -5q-61 0 -95 30t-36 81h61q7 -61 68 -61q63 0 63 54t-60 54h-26v47h25q56 0 56 49q0 21 -13.5 34t-38.5 13q-26 0 -42.5 -14.5t-19.5 -40.5h-61q3 47 36.5 76t87.5 29q53 0 84 -26
t31 -66q0 -54 -57 -74q67 -15 67 -82q0 -48 -35 -75.5t-95 -27.5z" />
    <glyph glyph-name="twothirds" unicode="&#x2154;" horiz-adv-x="760" 
d="M11 373v11l128 136q54 56 54 97q0 23 -13 36.5t-37 13.5q-52 0 -60 -66h-61q3 56 35.5 87t87.5 31q53 0 83.5 -27.5t30.5 -73.5q0 -58 -66 -122l-73 -72h142v-51h-251zM96 0l507 715h66l-507 -715h-66zM597 -5q-61 0 -95 30t-36 81h61q7 -61 68 -61q63 0 63 54t-60 54
h-26v47h25q56 0 56 49q0 21 -13.5 34t-38.5 13q-26 0 -42.5 -14.5t-19.5 -40.5h-61q3 47 36.5 76t87.5 29q53 0 84 -26t31 -66q0 -54 -57 -74q67 -15 67 -82q0 -48 -35 -75.5t-95 -27.5z" />
    <glyph glyph-name="oneeighth" unicode="&#x215b;" horiz-adv-x="714" 
d="M108 373v276l-81 -54v59l89 61h60v-342h-68zM45 0l507 715h66l-507 -715h-66zM553 -5q-55 0 -92 26.5t-37 74.5q0 65 63 87q-50 21 -50 71q0 42 34.5 67t82.5 25t82 -25t34 -66q0 -50 -51 -71q64 -24 64 -86q0 -49 -37 -76t-93 -27zM554 45q27 0 44.5 15t17.5 43
q0 26 -17.5 41.5t-44.5 15.5t-44.5 -15.5t-17.5 -42.5t17.5 -42t44.5 -15zM554 203q24 0 38 13t14 35q0 21 -15 34t-37 13q-23 0 -38 -13t-15 -35t15.5 -34.5t37.5 -12.5z" />
    <glyph glyph-name="threeeighths" unicode="&#x215c;" horiz-adv-x="744" 
d="M155 368q-61 0 -95 30t-36 81h61q7 -61 68 -61q63 0 63 54t-60 54h-26v47h25q56 0 56 49q0 21 -13.5 34t-38.5 13q-26 0 -42.5 -14.5t-19.5 -40.5h-61q3 47 36.5 76t87.5 29q53 0 84 -26t31 -66q0 -54 -57 -74q67 -15 67 -82q0 -48 -35 -75.5t-95 -27.5zM87 0l507 715h66
l-507 -715h-66zM583 -5q-55 0 -92 26.5t-37 74.5q0 65 63 87q-50 21 -50 71q0 42 34.5 67t82.5 25t82 -25t34 -66q0 -50 -51 -71q64 -24 64 -86q0 -49 -37 -76t-93 -27zM584 45q27 0 44.5 15t17.5 43q0 26 -17.5 41.5t-44.5 15.5t-44.5 -15.5t-17.5 -42.5t17.5 -42t44.5 -15
zM584 203q24 0 38 13t14 35q0 21 -15 34t-37 13q-23 0 -38 -13t-15 -35t15.5 -34.5t37.5 -12.5z" />
    <glyph glyph-name="fiveeighths" unicode="&#x215d;" horiz-adv-x="738" 
d="M148 368q-58 0 -89.5 28.5t-34.5 75.5h63q4 -26 17 -39t44 -13q27 0 42.5 18t15.5 49q0 30 -15.5 47.5t-43.5 17.5q-46 0 -70 -29h-36l4 192h210v-52h-159l-1 -92q26 30 75 30q47 0 76 -31t29 -84q0 -54 -35 -86t-92 -32zM80 0l507 715h66l-507 -715h-66zM577 -5
q-55 0 -92 26.5t-37 74.5q0 65 63 87q-50 21 -50 71q0 42 34.5 67t82.5 25t82 -25t34 -66q0 -50 -51 -71q64 -24 64 -86q0 -49 -37 -76t-93 -27zM578 45q27 0 44.5 15t17.5 43q0 26 -17.5 41.5t-44.5 15.5t-44.5 -15.5t-17.5 -42.5t17.5 -42t44.5 -15zM578 203q24 0 38 13
t14 35q0 21 -15 34t-37 13q-23 0 -38 -13t-15 -35t15.5 -34.5t37.5 -12.5z" />
    <glyph glyph-name="seveneighths" unicode="&#x215e;" horiz-adv-x="710" 
d="M69 373l108 287h-157v55h241v-8l-124 -334h-68zM33 0l507 715h66l-507 -715h-66zM549 -5q-55 0 -92 26.5t-37 74.5q0 65 63 87q-50 21 -50 71q0 42 34.5 67t82.5 25t82 -25t34 -66q0 -50 -51 -71q64 -24 64 -86q0 -49 -37 -76t-93 -27zM550 45q27 0 44.5 15t17.5 43
q0 26 -17.5 41.5t-44.5 15.5t-44.5 -15.5t-17.5 -42.5t17.5 -42t44.5 -15zM550 203q24 0 38 13t14 35q0 21 -15 34t-37 13q-23 0 -38 -13t-15 -35t15.5 -34.5t37.5 -12.5z" />
    <glyph glyph-name="minus" unicode="&#x2212;" horiz-adv-x="519" 
d="M36 307v70h447v-70h-447z" />
    <glyph glyph-name="approxequal" unicode="&#x2248;" horiz-adv-x="498" 
d="M44 166q5 58 35.5 88.5t74.5 30.5q41 0 104.5 -22t87.5 -22q17 0 30 11.5t15 34.5h63q-4 -58 -34.5 -88.5t-72.5 -30.5q-43 0 -107 22t-87 22q-17 0 -29.5 -12t-16.5 -34h-63zM44 343q5 58 35.5 88.5t74.5 30.5q41 0 104.5 -22t87.5 -22q17 0 30 11.5t15 34.5h63
q-4 -58 -34.5 -88.5t-72.5 -30.5q-43 0 -107 22t-87 22q-17 0 -29.5 -12t-16.5 -34h-63z" />
    <glyph glyph-name="notequal" unicode="&#x2260;" horiz-adv-x="484" 
d="M40 376v72h215l40 103h76l-40 -103h113v-72h-141l-41 -108h182v-72h-210l-40 -103h-76l40 103h-118v72h146l41 108h-187z" />
    <glyph glyph-name="lessequal" unicode="&#x2264;" horiz-adv-x="504" 
d="M437 119l-384 205v20l384 205v-80l-260 -135l260 -135v-80zM53 0v70h384v-70h-384z" />
    <glyph glyph-name="greaterequal" unicode="&#x2265;" horiz-adv-x="504" 
d="M67 119v80l260 135l-260 135v80l384 -205v-20zM67 0v70h384v-70h-384z" />
    <glyph glyph-name="uni24C5" unicode="&#x24c5;" horiz-adv-x="844" 
d="M304 162v395h128q69 0 108 -30.5t39 -91.5v-3q0 -61 -38.5 -91t-105.5 -30h-55v-149h-76zM380 366h52q74 0 74 66v3q0 63 -74 63h-52v-132zM421 33q131 0 225.5 92.5t94.5 233.5q0 140 -93 231.5t-225 91.5q-134 0 -227 -92t-93 -233t94.5 -232.5t223.5 -91.5zM421 -9
q-153 0 -259.5 105.5t-106.5 260.5q0 153 107 260t261 107q155 0 260.5 -106t105.5 -259q0 -156 -106.5 -262t-261.5 -106z" />
    <glyph glyph-name="f_i" unicode="&#xfb01;" horiz-adv-x="597" 
d="M102 0v453h-75v70h75v85q0 81 39 124.5t115 43.5q36 0 57 -8v-70q-22 9 -54 9q-74 0 -74 -90v-94h128v-70h-128v-453h-83zM428 0v523h83v-523h-83zM468 632q-22 0 -38.5 16t-16.5 39t16.5 39t38.5 16t38.5 -16t16.5 -39t-16.5 -39t-38.5 -16z" />
    <glyph glyph-name="f_l" unicode="&#xfb02;" horiz-adv-x="598" 
d="M102 0v453h-75v70h75v85q0 81 39 124.5t115 43.5q36 0 57 -8v-70q-22 9 -54 9q-74 0 -74 -90v-94h128v-70h-128v-453h-83zM428 0v773h84v-773h-84z" />
    <glyph glyph-name="space_uni0326" horiz-adv-x="400" 
d="M179 -220l-51 26l58 157l80 -24z" />
    <glyph glyph-name="caron.alt" horiz-adv-x="400" 
d="M182 598l12 175h94l-48 -175h-58z" />
    <glyph glyph-name="space_uni0326.alt" horiz-adv-x="400" 
d="M230 602l-80 24l87 159l51 -26z" />
    <glyph glyph-name="grave.uc" horiz-adv-x="400" 
d="M177 771l-98 127h104l56 -127h-62z" />
    <glyph glyph-name="dieresis.uc" horiz-adv-x="400" 
d="M98 789q-22 0 -37.5 15.5t-15.5 37.5t15.5 37.5t37.5 15.5t37.5 -15.5t15.5 -37.5t-15.5 -37.5t-37.5 -15.5zM301 789q-22 0 -37.5 15.5t-15.5 37.5t15.5 37.5t37.5 15.5t37.5 -15.5t15.5 -37.5t-15.5 -37.5t-37.5 -15.5z" />
    <glyph glyph-name="macron.uc" horiz-adv-x="400" 
d="M67 786v64h266v-64h-266z" />
    <glyph glyph-name="acute.uc" horiz-adv-x="400" 
d="M161 771l56 127h104l-98 -127h-62z" />
    <glyph glyph-name="circumflex.uc" horiz-adv-x="400" 
d="M55 771l108 127h75l107 -127h-61l-85 58l-85 -58h-59z" />
    <glyph glyph-name="caron.uc" horiz-adv-x="400" 
d="M162 771l-107 127h61l85 -58l85 58h59l-108 -127h-75z" />
    <glyph glyph-name="breve.uc" horiz-adv-x="400" 
d="M198 767q-54 0 -91.5 37.5t-40.5 94.5h66q11 -64 66 -64q59 0 72 64h64q-3 -57 -42.5 -94.5t-93.5 -37.5z" />
    <glyph glyph-name="dotaccent.uc" horiz-adv-x="400" 
d="M200 787q-22 0 -38.5 16.5t-16.5 38.5t16.5 38.5t38.5 16.5t38.5 -16.5t16.5 -38.5t-16.5 -38.5t-38.5 -16.5z" />
    <glyph glyph-name="ring.uc" horiz-adv-x="400" 
d="M200 805q23 0 38 16.5t15 41.5t-15 41.5t-38 16.5t-38 -16.5t-15 -41.5t15 -41.5t38 -16.5zM200 759q-44 0 -75.5 30.5t-31.5 73.5t31.5 73.5t75.5 30.5t75.5 -30.5t31.5 -73.5t-31.5 -73.5t-75.5 -30.5z" />
    <glyph glyph-name="tilde.uc" horiz-adv-x="400" 
d="M254 774q-23 0 -59 21.5t-49 21.5q-14 0 -25 -12.5t-15 -32.5h-60q6 53 34 84.5t67 31.5q23 0 58.5 -21.5t48.5 -21.5q14 0 25 12.5t15 32.5h60q-6 -53 -33.5 -84.5t-66.5 -31.5z" />
    <glyph glyph-name="hungarumlaut.uc" horiz-adv-x="400" 
d="M96 771l37 127h95l-72 -127h-60zM250 771l37 127h95l-72 -127h-60z" />
    <glyph glyph-name="idotaccent" horiz-adv-x="255" 
d="M126 632q-22 0 -38.5 16t-16.5 39t16.5 39t38.5 16t38.5 -16t16.5 -39t-16.5 -39t-38.5 -16zM86 0v523h83v-523h-83z" />
    <glyph glyph-name="registered.alt" horiz-adv-x="844" 
d="M287 163v395h135q68 0 107.5 -28.5t39.5 -87.5v-2q0 -85 -87 -106l110 -171h-79l-103 159h-48v-159h-75zM362 375h59q73 0 73 62v3q0 60 -73 60h-59v-125zM421 33q131 0 225.5 92.5t94.5 233.5q0 140 -93 231.5t-225 91.5q-134 0 -227 -92t-93 -233t94.5 -232.5
t223.5 -91.5zM421 -9q-153 0 -259.5 105.5t-106.5 260.5q0 153 107 260t261 107q155 0 260.5 -106t105.5 -259q0 -156 -106.5 -262t-261.5 -106z" />
    <glyph glyph-name="dollar.old" horiz-adv-x="608" 
d="M276 -131v123q-212 15 -232 219h81q4 -32 11.5 -54.5t23 -45t45 -36t71.5 -17.5v270q-103 19 -153.5 61t-50.5 125q0 76 57 129t147 58v88h58v-89q88 -9 140 -57.5t61 -131.5h-75q-22 109 -126 122v-242q112 -19 164 -62t52 -133q0 -82 -61 -139.5t-155 -64.5v-123h-58z
M469 190q0 55 -29 84t-106 44v-260q59 6 97 42.5t38 89.5zM148 522q0 -49 26 -76.5t102 -43.5v233q-60 -5 -94 -36t-34 -77z" />
    <glyph glyph-name="Euro.old" horiz-adv-x="654" 
d="M31 382v56h71q13 117 81 190.5t179 73.5q100 0 162.5 -56t73.5 -156h-79q-10 70 -51.5 108t-105.5 38q-77 0 -122 -52.5t-55 -145.5h232l-11 -56h-223v-75h209l-11 -57h-195q10 -91 54.5 -140.5t123.5 -49.5q68 0 110 40.5t54 118.5h78q-11 -107 -75.5 -167.5
t-166.5 -60.5q-109 0 -178.5 71.5t-82.5 187.5h-72v57h69v75h-69z" />
    <glyph glyph-name="sterling.old" horiz-adv-x="578" 
d="M47 306v60h62q-17 70 -17 136q0 88 61 144t153 56t146 -49t61 -134h-81q-11 58 -39.5 86t-86.5 28q-57 0 -92.5 -36t-35.5 -96q0 -62 16 -135h207v-60h-194q15 -73 15 -128q0 -33 -13 -64q27 -6 86 -29t81 -23q84 0 89 83h70q-4 -69 -43 -111.5t-106 -42.5
q-46 0 -118.5 30.5t-96.5 30.5q-30 0 -45 -15t-18 -37h-71q4 38 29 73.5t70 44.5q12 29 12 60q0 44 -23 128h-78z" />
    <glyph glyph-name="yen.old" horiz-adv-x="559" 
d="M81 273v56h151l-205 365h91l170 -315l162 315h82l-194 -365h152v-56h-163v-76h163v-56h-163v-141h-83v141h-163v56h163v76h-163z" />
    <glyph glyph-name="zero.old" horiz-adv-x="643" 
d="M323 62q86 0 132 59.5t46 171.5v36q0 108 -47 169t-132 61t-132.5 -60t-47.5 -170v-37q0 -111 48 -170.5t133 -59.5zM323 -9q-120 0 -194 82.5t-74 217.5v37q0 137 73 218.5t194 81.5t193.5 -81.5t72.5 -216.5v-37q0 -138 -72 -220t-193 -82z" />
    <glyph glyph-name="one.old" horiz-adv-x="387" 
d="M193 0v534l-158 -112v80l164 117h79v-619h-85z" />
    <glyph glyph-name="two.old" horiz-adv-x="541" 
d="M23 0v20l251 234q61 57 90 98t29 91q0 54 -33.5 85.5t-92.5 31.5q-126 0 -146 -153h-77q8 100 67.5 160.5t155.5 60.5t154.5 -51t58.5 -134q0 -43 -25.5 -87.5t-52.5 -71.5t-87 -83l-141 -131h312v-70h-463z" />
    <glyph glyph-name="three.old" horiz-adv-x="593" 
d="M288 -105q-111 0 -176.5 61.5t-69.5 158.5h79q14 -152 169 -152q81 0 121 37.5t40 105.5q0 137 -153 137h-50v71h46q133 0 133 125q0 55 -32 87.5t-95 32.5q-66 0 -107 -37t-48 -100h-75q4 87 67.5 146.5t162.5 59.5q98 0 154 -54.5t56 -132.5q0 -113 -109 -158
q137 -36 137 -177q0 -97 -69 -154t-181 -57z" />
    <glyph glyph-name="four.old" horiz-adv-x="617" 
d="M397 -97v154h-367v28l336 533h114v-494h101v-67h-101v-154h-83zM137 124h260v428z" />
    <glyph glyph-name="five.old" horiz-adv-x="569" 
d="M276 -105q-108 0 -166.5 53t-66.5 142h79q11 -62 45 -94.5t108 -32.5q70 0 111 45.5t41 124.5q0 73 -40 118t-105 45q-108 0 -167 -67h-30v390h392v-73h-323v-229q51 47 144 47q94 0 155 -63.5t61 -167.5q0 -107 -68.5 -172.5t-169.5 -65.5z" />
    <glyph glyph-name="six.old" horiz-adv-x="611" 
d="M313 -9q-134 0 -194 87t-60 232v30q0 184 75 284t199 100q84 0 138.5 -43.5t68.5 -126.5h-81q-12 51 -43.5 76t-88.5 25q-82 0 -131 -75t-52 -219q25 42 73.5 68t107.5 26q103 0 167 -65.5t64 -164.5q0 -105 -66 -169.5t-177 -64.5zM313 58q69 0 112.5 44.5t43.5 118.5
q0 76 -43 121.5t-114 45.5t-117 -43.5t-46 -111.5q0 -83 45.5 -129t118.5 -46z" />
    <glyph glyph-name="seven.old" horiz-adv-x="523" 
d="M121 -97l270 647h-362v68h468v-12l-289 -703h-87z" />
    <glyph glyph-name="eight.old" horiz-adv-x="595" 
d="M298 -9q-96 0 -170.5 56t-74.5 153q0 68 39 114.5t101 67.5q-52 19 -82.5 59t-30.5 95q0 85 65 136.5t153 51.5q87 0 152 -51.5t65 -134.5q0 -109 -115 -155q65 -23 103.5 -69t38.5 -112q0 -99 -73 -155t-171 -56zM298 61q68 0 112.5 38.5t44.5 105.5q0 66 -44 103
t-111 37t-113.5 -38t-46.5 -104q0 -65 46 -103.5t112 -38.5zM301 413q58 0 93 33t35 91q0 53 -37.5 86.5t-93.5 33.5q-57 0 -94.5 -33t-37.5 -89t39 -89t96 -33z" />
    <glyph glyph-name="nine.old" horiz-adv-x="611" 
d="M284 -105q-94 0 -152 48.5t-71 131.5h81q28 -111 149 -111q93 0 133 71t43 223q-25 -42 -73.5 -68t-107.5 -26q-103 0 -167 65.5t-64 164.5q0 105 66 169.5t177 64.5q134 0 194 -87t60 -232v-30q0 -189 -67.5 -286.5t-200.5 -97.5zM299 231q71 0 117 43.5t46 111.5
q0 83 -45.5 129t-118.5 46q-69 0 -112.5 -44.5t-43.5 -118.5q0 -76 43 -121.5t114 -45.5z" />
    <glyph glyph-name="dollar.tab" 
d="M272 -135v127q-218 14 -240 226h84q9 -71 41 -111.5t115 -47.5v279q-105 20 -158 64t-53 129q0 77 59 131t152 61v90h59v-91q91 -8 144.5 -59t63.5 -136h-78q-22 113 -130 127v-250q116 -20 169.5 -65t53.5 -138q0 -85 -62 -143.5t-161 -65.5v-127h-59zM471 196
q0 57 -30 86.5t-110 45.5v-269q63 8 101.5 45t38.5 92zM140 538q0 -51 27 -79.5t105 -44.5v241q-63 -5 -97.5 -37.5t-34.5 -79.5z" />
    <glyph glyph-name="Euro.tab" 
d="M15 394v58h61q8 127 72.5 199.5t174.5 72.5q92 0 148.5 -56t68.5 -160h-82q-22 148 -135 148q-149 0 -160 -204h220l-11 -58h-210v-78h195l-11 -58h-183q5 -99 44.5 -147.5t117.5 -48.5q63 0 98.5 39.5t47.5 120.5h81q-12 -110 -72 -170.5t-155 -60.5q-109 0 -175 69.5
t-73 197.5h-62v58h61v78h-61z" />
    <glyph glyph-name="sterling.tab" 
d="M50 315v62h65q-18 76 -18 141q0 90 63 148t157 58q95 0 151 -51t63 -138h-84q-11 60 -40.5 89t-89.5 29q-58 0 -95 -37.5t-37 -98.5t17 -140h213v-62h-198q15 -75 15 -133q0 -33 -13 -64q25 -6 86 -30t85 -24q86 0 91 86h73q-5 -71 -45 -115t-109 -44q-48 0 -122.5 31.5
t-99.5 31.5q-30 0 -46 -16t-19 -38h-73q4 40 30 76t74 45q12 25 12 62q0 47 -24 132h-82z" />
    <glyph glyph-name="yen.tab" 
d="M96 281v58h156l-202 376h94l165 -324l157 324h84l-190 -376h157v-58h-168v-78h168v-58h-168v-145h-85v145h-168v58h168v78h-168z" />
    <glyph glyph-name="zero.tab" 
d="M304 63q84 0 120.5 53.5t36.5 178.5v130q0 229 -159 229q-162 0 -162 -236v-125q0 -122 41 -176t123 -54zM304 -9q-116 0 -184.5 77.5t-68.5 223.5v125q0 149 67 228t184 79t182 -77t65 -223v-130q0 -148 -64 -225.5t-181 -77.5z" />
    <glyph glyph-name="one.tab" 
d="M314 0v627l-205 -164v81l201 171h91v-715h-87z" />
    <glyph glyph-name="two.tab" 
d="M42 0v20l284 299q103 109 103 207q0 60 -33.5 94t-94.5 34q-131 0 -151 -159h-81q8 106 69.5 167.5t162.5 61.5q99 0 157.5 -54.5t58.5 -146.5q0 -119 -144 -260l-197 -192h345v-71h-479z" />
    <glyph glyph-name="three.tab" 
d="M288 -9q-109 0 -174.5 62t-69.5 158h80q14 -150 166 -150q81 0 121 36.5t40 101.5q0 139 -151 139h-54v73h50q137 0 137 122q0 54 -32.5 87t-95.5 33q-66 0 -107.5 -36.5t-48.5 -98.5h-76q4 87 68 146.5t164 59.5q98 0 155.5 -55.5t57.5 -133.5q0 -109 -116 -156
q65 -17 101.5 -62.5t36.5 -117.5q0 -96 -69.5 -152t-182.5 -56z" />
    <glyph glyph-name="four.tab" 
d="M389 0v150h-348v28l317 537h116v-494h84v-71h-84v-150h-85zM149 221h240v423z" />
    <glyph glyph-name="five.tab" 
d="M288 -9q-111 0 -170.5 55t-67.5 147h83q12 -65 45 -98.5t109 -33.5q73 0 115 46t42 127q0 76 -41 121.5t-109 45.5q-108 0 -169 -69h-32v383h402v-75h-330v-218q53 49 146 49q98 0 160 -64.5t62 -172.5q0 -110 -70 -176.5t-175 -66.5z" />
    <glyph glyph-name="six.tab" 
d="M308 -9q-71 0 -122 25t-80 71t-42 102.5t-13 126.5v17q0 188 76.5 289.5t203.5 101.5q85 0 140 -44t69 -129h-83q-12 52 -43 77t-89 25q-83 0 -134 -74t-54 -212q26 44 74.5 70.5t109.5 26.5q105 0 169.5 -67t64.5 -167q0 -108 -67 -173.5t-180 -65.5zM308 59
q71 0 114.5 46t43.5 121q0 77 -43 123.5t-116 46.5q-72 0 -118 -44t-46 -114q0 -85 45.5 -132t119.5 -47z" />
    <glyph glyph-name="seven.tab" 
d="M166 0l263 645h-359v70h471v-12l-286 -703h-89z" />
    <glyph glyph-name="eight.tab" 
d="M301 -9q-61 0 -116 22.5t-93 72.5t-38 117q0 69 37 116t98 69q-51 20 -79.5 59t-28.5 91q0 83 66.5 134.5t153.5 51.5t153 -51.5t66 -132.5q0 -103 -110 -151q137 -50 137 -184q0 -101 -73.5 -157.5t-172.5 -56.5zM301 62q69 0 113 38.5t44 107.5q0 68 -44 105t-111 37
q-68 0 -114 -38t-46 -106q0 -67 46 -105.5t112 -38.5zM304 419q58 0 93 32t35 88q0 51 -37.5 84t-93.5 33q-57 0 -94.5 -32.5t-37.5 -86.5t39 -86t96 -32z" />
    <glyph glyph-name="nine.tab" 
d="M280 -8q-98 0 -157 48.5t-73 135.5h84q13 -56 47.5 -84.5t100.5 -28.5q87 0 134.5 71.5t48.5 212.5q-26 -44 -75 -69.5t-110 -25.5q-104 0 -169.5 66t-65.5 168q0 108 67 173.5t180 65.5q126 0 191.5 -82.5t65.5 -237.5v-45q0 -177 -70 -272.5t-199 -95.5zM293 320
q72 0 118 43t46 112q0 86 -45.5 134t-119.5 48q-71 0 -114.5 -46t-43.5 -121q0 -77 43 -123.5t116 -46.5z" />
    <glyph glyph-name="cent.tab" 
d="M285 -135v128q-99 10 -160.5 81t-61.5 182v8q0 109 62.5 182t159.5 84v99h59v-99q80 -7 134.5 -51t65.5 -130h-82q-8 51 -39.5 78.5t-78.5 33.5v-399q50 7 85 39.5t41 86.5h77q-8 -79 -63.5 -133.5t-139.5 -61.5v-128h-59zM149 256q0 -84 36 -133.5t100 -60.5v398
q-61 -11 -98.5 -63.5t-37.5 -132.5v-8z" />
    <glyph glyph-name="percent.tab" horiz-adv-x="800" 
d="M206 448q41 0 64.5 27t23.5 77q0 48 -23.5 76t-64.5 28q-40 0 -64 -27.5t-24 -77.5t23.5 -76.5t64.5 -26.5zM206 383q-66 0 -115 48t-49 119q0 73 48.5 122t115.5 49q68 0 116 -48.5t48 -120.5t-49 -120.5t-115 -48.5zM143 0l437 715h76l-437 -715h-76zM594 57
q41 0 64.5 27t23.5 77q0 48 -23.5 76t-64.5 28q-40 0 -64 -27.5t-24 -77.5t23.5 -76.5t64.5 -26.5zM594 -8q-66 0 -115 48t-49 119q0 73 48.5 122t115.5 49q68 0 116 -48.5t48 -120.5t-49 -120.5t-115 -48.5z" />
    <glyph glyph-name="perthousand.tab" horiz-adv-x="1000" 
d="M180 459q29 0 45 26t16 73q0 46 -16 72.5t-45 26.5q-61 0 -61 -100q0 -98 61 -98zM180 395q-55 0 -95 44t-40 117q0 76 39.5 120.5t95.5 44.5q57 0 96 -44t39 -119t-39.5 -119t-95.5 -44zM91 0l437 715h76l-437 -715h-76zM512 56q29 0 45 26t16 73q0 46 -16 72.5
t-45 26.5q-61 0 -61 -100q0 -98 61 -98zM512 -8q-55 0 -95 44t-40 117q0 76 39.5 120.5t95.5 44.5q57 0 96 -44t39 -119t-39.5 -119t-95.5 -44zM820 56q29 0 45 26t16 73q0 46 -16 72.5t-45 26.5q-61 0 -61 -100q0 -98 61 -98zM820 -8q-55 0 -95 44t-40 117q0 76 39.5 120.5
t95.5 44.5q57 0 96 -44t39 -119t-39.5 -119t-95.5 -44z" />
    <glyph glyph-name="plus.tab" 
d="M264 105v202h-187v70h187v202h73v-202h187v-70h-187v-202h-73z" />
    <glyph glyph-name="minus.tab" 
d="M77 307v70h447v-70h-447z" />
    <glyph glyph-name="multiply.tab" 
d="M146 131l-47 48l154 154l-154 154l47 48l154 -155l154 155l48 -48l-154 -154l154 -154l-48 -48l-154 155z" />
    <glyph glyph-name="divide.tab" 
d="M300 89q-26 0 -45 18.5t-19 45.5t19 45.5t45 18.5t45 -18.5t19 -45.5t-19 -45.5t-45 -18.5zM77 307v70h447v-70h-447zM300 467q-26 0 -45 18.5t-19 45.5t19 45.5t45 18.5t45 -18.5t19 -45.5t-19 -45.5t-45 -18.5z" />
    <glyph glyph-name="equal.tab" 
d="M98 196v72h404v-72h-404zM98 376v72h404v-72h-404z" />
    <glyph glyph-name="less.tab" 
d="M485 95l-384 217v20l384 217v-80l-263 -147l263 -147v-80z" />
    <glyph glyph-name="greater.tab" 
d="M115 95v80l263 147l-263 147v80l384 -217v-20z" />
    <glyph glyph-name="florin.tab" 
d="M111 345v68h117l23 152q25 159 169 159q38 0 68 -11v-70q-30 12 -66 12q-75 0 -89 -94l-23 -148h142v-68h-152l-80 -527h-83l80 527h-106z" />
    <glyph glyph-name="plusminus.tab" 
d="M264 145v182h-187v70h187v182h73v-182h187v-70h-187v-182h-73zM77 0v70h447v-70h-447z" />
    <glyph glyph-name="notequal.tab" 
d="M98 376v72h215l40 103h76l-40 -103h113v-72h-141l-41 -108h182v-72h-210l-40 -103h-76l40 103h-118v72h146l41 108h-187z" />
    <glyph glyph-name="approxequal.tab" 
d="M95 166q5 58 36 88.5t74 30.5q41 0 104.5 -22t87.5 -22q17 0 30 11.5t15 34.5h63q-4 -58 -34.5 -88.5t-72.5 -30.5q-43 0 -107 22t-87 22q-17 0 -29.5 -12t-16.5 -34h-63zM95 343q5 58 36 88.5t74 30.5q41 0 104.5 -22t87.5 -22q17 0 30 11.5t15 34.5h63
q-4 -58 -34.5 -88.5t-72.5 -30.5q-43 0 -107 22t-87 22q-17 0 -29.5 -12t-16.5 -34h-63z" />
    <glyph glyph-name="lessequal.tab" 
d="M485 119l-384 205v20l384 205v-80l-260 -135l260 -135v-80zM101 0v70h384v-70h-384z" />
    <glyph glyph-name="greaterequal.tab" 
d="M115 119v80l260 135l-260 135v80l384 -205v-20zM115 0v70h384v-70h-384z" />
    <glyph glyph-name="parenleft.tab" horiz-adv-x="300" 
d="M188 -148q-136 204 -136 460q0 257 136 461h83q-132 -211 -132 -461q0 -249 132 -460h-83z" />
    <glyph glyph-name="parenright.tab" horiz-adv-x="300" 
d="M29 -148q132 211 132 460q0 250 -132 461h83q136 -204 136 -461q0 -256 -136 -460h-83z" />
    <glyph glyph-name="bracketleft.tab" horiz-adv-x="300" 
d="M70 -148v924h194v-66h-111v-792h111v-66h-194z" />
    <glyph glyph-name="bracketright.tab" horiz-adv-x="300" 
d="M36 -148v66h111v792h-111v66h194v-924h-194z" />
    <glyph glyph-name="braceleft.tab" horiz-adv-x="300" 
d="M264 -147q-100 0 -144.5 49.5t-24.5 158.5l19 104q9 47 -10 76.5t-78 43.5v62q59 14 78 43.5t10 76.5l-19 104q-20 109 24.5 158.5t144.5 49.5v-63q-61 -1 -82 -32.5t-8 -114.5l19 -115q8 -53 -17.5 -84.5t-80.5 -53.5q55 -22 80.5 -53.5t17.5 -84.5l-19 -115
q-13 -83 8 -114.5t82 -32.5v-63z" />
    <glyph glyph-name="braceright.tab" horiz-adv-x="300" 
d="M36 -147v63q61 1 82 32.5t8 114.5l-19 115q-8 53 17.5 84.5t80.5 53.5q-55 22 -80.5 53.5t-17.5 84.5l19 115q13 83 -8 114.5t-82 32.5v63q100 0 144.5 -49.5t24.5 -158.5l-19 -104q-9 -47 10 -76.5t78 -43.5v-62q-59 -14 -78 -43.5t-10 -76.5l19 -104
q20 -109 -24.5 -158.5t-144.5 -49.5z" />
    <glyph glyph-name="period.tab" horiz-adv-x="300" 
d="M150 -5q-26 0 -45 18.5t-19 45.5t19 45.5t45 18.5t45 -18.5t19 -45.5t-19 -45.5t-45 -18.5z" />
    <glyph glyph-name="comma.tab" horiz-adv-x="300" 
d="M99 -123l-54 28l96 219l81 -38z" />
    <glyph glyph-name="colon.tab" horiz-adv-x="300" 
d="M150 -5q-26 0 -45 18.5t-19 45.5t19 45.5t45 18.5t45 -18.5t19 -45.5t-19 -45.5t-45 -18.5zM150 292q-26 0 -45 18.5t-19 45.5t19 45.5t45 18.5t45 -18.5t19 -45.5t-19 -45.5t-45 -18.5z" />
    <glyph glyph-name="semicolon.tab" horiz-adv-x="300" 
d="M79 -123l-54 28l96 219l81 -38zM159 292q-26 0 -45 18.5t-19 45.5t19 45.5t45 18.5t45 -18.5t19 -45.5t-19 -45.5t-45 -18.5z" />
    <glyph glyph-name="space.tab" horiz-adv-x="300" 
 />
    <glyph glyph-name="dollar.oldtab" 
d="M272 -131v123q-212 15 -232 219h81q4 -32 11.5 -54.5t23 -45t45 -36t71.5 -17.5v270q-103 19 -153.5 61t-50.5 125q0 76 57 129t147 58v88h58v-89q88 -9 140 -57.5t61 -131.5h-75q-22 109 -126 122v-242q112 -19 164 -62t52 -133q0 -82 -61 -139.5t-155 -64.5v-123h-58z
M465 190q0 55 -29 84t-106 44v-260q59 6 97 42.5t38 89.5zM144 522q0 -49 26 -76.5t102 -43.5v233q-60 -5 -94 -36t-34 -77z" />
    <glyph glyph-name="Euro.oldtab" 
d="M35 382v56h59q7 123 69.5 193.5t169.5 70.5q90 0 144.5 -54t66.5 -155h-80q-20 143 -131 143q-146 0 -155 -198h214l-11 -56h-204v-75h189l-10 -57h-178q10 -190 157 -190q61 0 95.5 38t46.5 117h78q-11 -106 -69.5 -165t-150.5 -59q-106 0 -169.5 67.5t-70.5 191.5h-60
v57h59v75h-59z" />
    <glyph glyph-name="sterling.oldtab" 
d="M58 306v60h62q-17 70 -17 136q0 88 61 144t153 56t146 -49t61 -134h-81q-11 58 -39.5 86t-86.5 28q-57 0 -92.5 -36t-35.5 -96q0 -62 16 -135h207v-60h-194q15 -73 15 -128q0 -33 -13 -64q27 -6 86 -29t81 -23q84 0 89 83h70q-4 -69 -43 -111.5t-106 -42.5
q-46 0 -118.5 30.5t-96.5 30.5q-30 0 -45 -15t-18 -37h-71q4 38 29 73.5t70 44.5q12 29 12 60q0 44 -23 128h-78z" />
    <glyph glyph-name="yen.oldtab" 
d="M102 273v56h151l-196 365h92l160 -315l153 315h81l-184 -365h152v-56h-163v-76h163v-56h-163v-141h-83v141h-163v56h163v76h-163z" />
    <glyph glyph-name="zero.oldtab" 
d="M302 62q78 0 117.5 52t39.5 146v102q0 90 -41 143.5t-117 53.5q-77 0 -118.5 -53t-41.5 -144v-103q0 -92 42 -144.5t119 -52.5zM302 -9q-111 0 -179.5 75t-68.5 192v103q0 118 67.5 192.5t179.5 74.5t178.5 -74.5t66.5 -190.5v-103q0 -120 -66 -194.5t-178 -74.5z" />
    <glyph glyph-name="one.oldtab" 
d="M319 0v534l-204 -148v80l210 153h79v-619h-85z" />
    <glyph glyph-name="two.oldtab" 
d="M53 0v20l251 234q61 57 90 98t29 91q0 54 -33.5 85.5t-92.5 31.5q-126 0 -146 -153h-77q8 100 67.5 160.5t155.5 60.5t154.5 -51t58.5 -134q0 -43 -25.5 -87.5t-52.5 -71.5t-87 -83l-141 -131h312v-70h-463z" />
    <glyph glyph-name="three.oldtab" 
d="M292 -105q-111 0 -176.5 61.5t-69.5 158.5h79q14 -152 169 -152q81 0 121 37.5t40 105.5q0 137 -153 137h-50v71h46q133 0 133 125q0 55 -32 87.5t-95 32.5q-66 0 -107 -37t-48 -100h-75q4 87 67.5 146.5t162.5 59.5q98 0 154 -54.5t56 -132.5q0 -113 -109 -158
q137 -36 137 -177q0 -97 -69 -154t-181 -57z" />
    <glyph glyph-name="four.oldtab" 
d="M383 -97v154h-347v28l312 533h118v-494h93v-67h-93v-154h-83zM140 124h243v428z" />
    <glyph glyph-name="five.oldtab" 
d="M296 -105q-108 0 -166.5 53t-66.5 142h79q11 -62 45 -94.5t108 -32.5q70 0 111 45.5t41 124.5q0 73 -40 118t-105 45q-108 0 -167 -67h-30v390h392v-73h-323v-229q51 47 144 47q94 0 155 -63.5t61 -167.5q0 -107 -68.5 -172.5t-169.5 -65.5z" />
    <glyph glyph-name="six.oldtab" 
d="M310 -9q-125 0 -185.5 84.5t-60.5 225.5v50q0 178 71.5 275.5t192.5 97.5q82 0 137.5 -43.5t69.5 -126.5h-81q-25 101 -132 101q-79 0 -124.5 -74.5t-48.5 -219.5q56 94 173 94q103 0 164 -65.5t61 -164.5q0 -105 -64.5 -169.5t-172.5 -64.5zM310 58q65 0 107.5 45
t42.5 118q0 75 -42 121t-109 46t-111 -43.5t-44 -111.5q0 -83 43.5 -129t112.5 -46z" />
    <glyph glyph-name="seven.oldtab" 
d="M148 -97l278 647h-358v68h468v-12l-301 -703h-87z" />
    <glyph glyph-name="eight.oldtab" 
d="M301 -9q-93 0 -165 56t-72 153q0 69 37 115t98 67q-108 40 -108 154q0 85 62.5 136.5t147.5 51.5t147 -51.5t62 -134.5q0 -111 -110 -155q137 -48 137 -181q0 -99 -70.5 -155t-165.5 -56zM301 61q66 0 107.5 38.5t41.5 105.5q0 66 -41.5 103t-105.5 37q-65 0 -108.5 -38
t-43.5 -104t43.5 -104t106.5 -38zM304 413q55 0 87.5 33t32.5 91q0 53 -35 86.5t-88 33.5q-54 0 -89 -33t-35 -89t36.5 -89t90.5 -33z" />
    <glyph glyph-name="nine.oldtab" 
d="M279 -105q-93 0 -149 48t-69 132h81q28 -111 144 -111q84 0 123.5 72t42.5 222q-26 -43 -70 -68.5t-101 -25.5q-100 0 -163 66t-63 164q0 105 66 169.5t172 64.5q126 0 185 -82.5t59 -223.5v-57q0 -370 -258 -370zM294 231q66 0 109.5 43.5t43.5 111.5q0 83 -43 129
t-111 46q-66 0 -108.5 -45t-42.5 -118q0 -75 42.5 -121t109.5 -46z" />
    <glyph glyph-name="zero.num" horiz-adv-x="350" 
d="M176 422q77 0 77 116v14q0 55 -20 85t-58 30q-77 0 -77 -116v-14q0 -115 78 -115zM175 368q-67 0 -106 46t-39 122v14q0 77 39.5 123t105.5 46t105.5 -45.5t39.5 -121.5v-14q0 -77 -39 -123.5t-106 -46.5z" />
    <glyph glyph-name="one.num" horiz-adv-x="231" 
d="M105 373v276l-81 -54v59l89 61h60v-342h-68z" />
    <glyph glyph-name="two.num" horiz-adv-x="286" 
d="M8 373v11l128 136q54 56 54 97q0 23 -13 36.5t-37 13.5q-52 0 -60 -66h-61q3 56 35.5 87t87.5 31q53 0 83.5 -27.5t30.5 -73.5q0 -58 -66 -122l-73 -72h142v-51h-251z" />
    <glyph glyph-name="three.num" horiz-adv-x="311" 
d="M152 368q-61 0 -95 30t-36 81h61q7 -61 68 -61q63 0 63 54t-60 54h-26v47h25q56 0 56 49q0 21 -13.5 34t-38.5 13q-26 0 -42.5 -14.5t-19.5 -40.5h-61q3 47 36.5 76t87.5 29q53 0 84 -26t31 -66q0 -54 -57 -74q67 -15 67 -82q0 -48 -35 -75.5t-95 -27.5z" />
    <glyph glyph-name="four.num" horiz-adv-x="317" 
d="M189 373v69h-172v24l153 249h83v-224h45v-49h-45v-69h-64zM89 491h101v173z" />
    <glyph glyph-name="five.num" horiz-adv-x="302" 
d="M145 368q-58 0 -89.5 28.5t-34.5 75.5h63q4 -26 17 -39t44 -13q27 0 42.5 18t15.5 49q0 30 -15.5 47.5t-43.5 17.5q-46 0 -70 -29h-36l4 192h210v-52h-159l-1 -92q26 30 75 30q47 0 76 -31t29 -84q0 -54 -35 -86t-92 -32z" />
    <glyph glyph-name="six.num" horiz-adv-x="320" 
d="M165 368q-135 0 -135 161v9q0 86 40 133.5t106 47.5q98 0 110 -91h-62q-10 40 -51 40q-35 0 -55 -30t-21 -86q27 44 84 44q49 0 81 -30.5t32 -80.5q0 -53 -35 -85t-94 -32zM165 417q28 0 45 18.5t17 47.5q0 30 -17 48.5t-45 18.5q-29 0 -47 -17.5t-18 -45.5q0 -32 18 -51
t47 -19z" />
    <glyph glyph-name="seven.num" horiz-adv-x="268" 
d="M66 373l108 287h-157v55h241v-8l-124 -334h-68z" />
    <glyph glyph-name="eight.num" horiz-adv-x="313" 
d="M156 368q-55 0 -92 26.5t-37 74.5q0 65 63 87q-50 21 -50 71q0 42 34.5 67t82.5 25t82 -25t34 -66q0 -50 -51 -71q64 -24 64 -86q0 -49 -37 -76t-93 -27zM157 418q27 0 44.5 15t17.5 43q0 26 -17.5 41.5t-44.5 15.5t-44.5 -15.5t-17.5 -42.5t17.5 -42t44.5 -15zM157 576
q24 0 38 13t14 35q0 21 -15 34t-37 13q-23 0 -38 -13t-15 -35t15.5 -34.5t37.5 -12.5z" />
    <glyph glyph-name="nine.num" horiz-adv-x="320" 
d="M151 368q-52 0 -83 25t-37 70h63q10 -43 57 -43q72 0 74 114q-28 -43 -83 -43q-50 0 -82 30.5t-32 80.5q0 54 34.5 86t93.5 32q67 0 101.5 -42t34.5 -118v-17q0 -84 -36.5 -129.5t-104.5 -45.5zM156 538q28 0 46 17.5t18 44.5q0 33 -17.5 52t-46.5 19q-28 0 -45 -18.5
t-17 -48.5t17 -48t45 -18z" />
    <glyph glyph-name="zero.den" horiz-adv-x="350" 
d="M176 49q77 0 77 116v14q0 55 -20 85t-58 30q-77 0 -77 -116v-14q0 -115 78 -115zM175 -5q-67 0 -106 46t-39 122v14q0 77 39.5 123t105.5 46t105.5 -45.5t39.5 -121.5v-14q0 -77 -39 -123.5t-106 -46.5z" />
    <glyph glyph-name="one.den" horiz-adv-x="232" 
d="M105 0v276l-81 -54v59l89 61h60v-342h-68z" />
    <glyph glyph-name="two.den" horiz-adv-x="287" 
d="M8 0v11l128 136q54 56 54 97q0 23 -13 36.5t-37 13.5q-52 0 -60 -66h-61q3 56 35.5 87t87.5 31q53 0 83.5 -27.5t30.5 -73.5q0 -58 -66 -122l-73 -72h142v-51h-251z" />
    <glyph glyph-name="three.den" horiz-adv-x="312" 
d="M152 -5q-61 0 -95 30t-36 81h61q7 -61 68 -61q63 0 63 54t-60 54h-26v47h25q56 0 56 49q0 21 -13.5 34t-38.5 13q-26 0 -42.5 -14.5t-19.5 -40.5h-61q3 47 36.5 76t87.5 29q53 0 84 -26t31 -66q0 -54 -57 -74q67 -15 67 -82q0 -48 -35 -75.5t-95 -27.5z" />
    <glyph glyph-name="four.den" horiz-adv-x="318" 
d="M189 0v69h-172v24l153 249h83v-224h45v-49h-45v-69h-64zM89 118h101v173z" />
    <glyph glyph-name="five.den" horiz-adv-x="303" 
d="M145 -5q-58 0 -89.5 28.5t-34.5 75.5h63q4 -26 17 -39t44 -13q27 0 42.5 18t15.5 49q0 30 -15.5 47.5t-43.5 17.5q-46 0 -70 -29h-36l4 192h210v-52h-159l-1 -92q26 30 75 30q47 0 76 -31t29 -84q0 -54 -35 -86t-92 -32z" />
    <glyph glyph-name="six.den" horiz-adv-x="321" 
d="M165 -5q-135 0 -135 161v9q0 86 40 133.5t106 47.5q98 0 110 -91h-62q-10 40 -51 40q-35 0 -55 -30t-21 -86q27 44 84 44q49 0 81 -30.5t32 -80.5q0 -53 -35 -85t-94 -32zM165 44q28 0 45 18.5t17 47.5q0 30 -17 48.5t-45 18.5q-29 0 -47 -17.5t-18 -45.5q0 -32 18 -51
t47 -19z" />
    <glyph glyph-name="seven.den" horiz-adv-x="269" 
d="M66 0l108 287h-157v55h241v-8l-124 -334h-68z" />
    <glyph glyph-name="eight.den" horiz-adv-x="314" 
d="M156 -5q-55 0 -92 26.5t-37 74.5q0 65 63 87q-50 21 -50 71q0 42 34.5 67t82.5 25t82 -25t34 -66q0 -50 -51 -71q64 -24 64 -86q0 -49 -37 -76t-93 -27zM157 45q27 0 44.5 15t17.5 43q0 26 -17.5 41.5t-44.5 15.5t-44.5 -15.5t-17.5 -42.5t17.5 -42t44.5 -15zM157 203
q24 0 38 13t14 35q0 21 -15 34t-37 13q-23 0 -38 -13t-15 -35t15.5 -34.5t37.5 -12.5z" />
    <glyph glyph-name="nine.den" horiz-adv-x="321" 
d="M151 -5q-52 0 -83 25t-37 70h63q10 -43 57 -43q72 0 74 114q-28 -43 -83 -43q-50 0 -82 30.5t-32 80.5q0 54 34.5 86t93.5 32q67 0 101.5 -42t34.5 -118v-17q0 -84 -36.5 -129.5t-104.5 -45.5zM156 165q28 0 46 17.5t18 44.5q0 33 -17.5 52t-46.5 19q-28 0 -45 -18.5
t-17 -48.5t17 -48t45 -18z" />
    <glyph glyph-name="zero.sub" horiz-adv-x="350" 
d="M176 -37q77 0 77 116v14q0 55 -20 85t-58 30q-77 0 -77 -116v-14q0 -115 78 -115zM175 -91q-67 0 -106 46t-39 122v14q0 77 39.5 123t105.5 46t105.5 -45.5t39.5 -121.5v-14q0 -77 -39 -123.5t-106 -46.5z" />
    <glyph glyph-name="one.sub" horiz-adv-x="232" 
d="M105 -87v276l-81 -54v59l89 61h60v-342h-68z" />
    <glyph glyph-name="two.sub" horiz-adv-x="287" 
d="M8 -86v11l128 136q54 56 54 97q0 23 -13 36.5t-37 13.5q-52 0 -60 -66h-61q3 56 35.5 87t87.5 31q53 0 83.5 -27.5t30.5 -73.5q0 -58 -66 -122l-73 -72h142v-51h-251z" />
    <glyph glyph-name="three.sub" horiz-adv-x="312" 
d="M152 -91q-61 0 -95 30t-36 81h61q7 -61 68 -61q63 0 63 54t-60 54h-26v47h25q56 0 56 49q0 21 -13.5 34t-38.5 13q-26 0 -42.5 -14.5t-19.5 -40.5h-61q3 47 36.5 76t87.5 29q53 0 84 -26t31 -66q0 -54 -57 -74q67 -15 67 -82q0 -48 -35 -75.5t-95 -27.5z" />
    <glyph glyph-name="four.sub" horiz-adv-x="318" 
d="M189 -86v69h-172v24l153 249h83v-224h45v-49h-45v-69h-64zM89 32h101v173z" />
    <glyph glyph-name="five.sub" horiz-adv-x="303" 
d="M145 -91q-58 0 -89.5 28.5t-34.5 75.5h63q4 -26 17 -39t44 -13q27 0 42.5 18t15.5 49q0 30 -15.5 47.5t-43.5 17.5q-46 0 -70 -29h-36l4 192h210v-52h-159l-1 -92q26 30 75 30q47 0 76 -31t29 -84q0 -54 -35 -86t-92 -32z" />
    <glyph glyph-name="six.sub" horiz-adv-x="321" 
d="M165 -91q-135 0 -135 161v9q0 86 40 133.5t106 47.5q98 0 110 -91h-62q-10 40 -51 40q-35 0 -55 -30t-21 -86q27 44 84 44q49 0 81 -30.5t32 -80.5q0 -53 -35 -85t-94 -32zM165 -42q28 0 45 18.5t17 47.5q0 30 -17 48.5t-45 18.5q-29 0 -47 -17.5t-18 -45.5q0 -32 18 -51
t47 -19z" />
    <glyph glyph-name="seven.sub" horiz-adv-x="269" 
d="M66 -86l108 287h-157v55h241v-8l-124 -334h-68z" />
    <glyph glyph-name="eight.sub" horiz-adv-x="314" 
d="M156 -91q-55 0 -92 26.5t-37 74.5q0 65 63 87q-50 21 -50 71q0 42 34.5 67t82.5 25t82 -25t34 -66q0 -50 -51 -71q64 -24 64 -86q0 -49 -37 -76t-93 -27zM157 -41q27 0 44.5 15t17.5 43q0 26 -17.5 41.5t-44.5 15.5t-44.5 -15.5t-17.5 -42.5t17.5 -42t44.5 -15zM157 117
q24 0 38 13t14 35q0 21 -15 34t-37 13q-23 0 -38 -13t-15 -35t15.5 -34.5t37.5 -12.5z" />
    <glyph glyph-name="nine.sub" horiz-adv-x="321" 
d="M151 -91q-52 0 -83 25t-37 70h63q10 -43 57 -43q72 0 74 114q-28 -43 -83 -43q-50 0 -82 30.5t-32 80.5q0 54 34.5 86t93.5 32q67 0 101.5 -42t34.5 -118v-17q0 -84 -36.5 -129.5t-104.5 -45.5zM156 79q28 0 46 17.5t18 44.5q0 33 -17.5 52t-46.5 19q-28 0 -45 -18.5
t-17 -48.5t17 -48t45 -18z" />
    <glyph glyph-name="plus.sub" horiz-adv-x="339" 
d="M142 -49v105h-101v53h101v106h55v-106h101v-53h-101v-105h-55z" />
    <glyph glyph-name="minus.sub" horiz-adv-x="339" 
d="M41 56v53h257v-53h-257z" />
    <glyph glyph-name="zero.sup" horiz-adv-x="350" 
d="M176 480q77 0 77 116v14q0 55 -20 85t-58 30q-77 0 -77 -116v-14q0 -115 78 -115zM175 426q-67 0 -106 46t-39 122v14q0 77 39.5 123t105.5 46t105.5 -45.5t39.5 -121.5v-14q0 -77 -39 -123.5t-106 -46.5z" />
    <glyph glyph-name="one.sup" horiz-adv-x="232" 
d="M105 431v276l-81 -54v59l89 61h60v-342h-68z" />
    <glyph glyph-name="two.sup" horiz-adv-x="287" 
d="M8 431v11l128 136q54 56 54 97q0 23 -13 36.5t-37 13.5q-52 0 -60 -66h-61q3 56 35.5 87t87.5 31q53 0 83.5 -27.5t30.5 -73.5q0 -58 -66 -122l-73 -72h142v-51h-251z" />
    <glyph glyph-name="three.sup" horiz-adv-x="312" 
d="M152 426q-61 0 -95 30t-36 81h61q7 -61 68 -61q63 0 63 54t-60 54h-26v47h25q56 0 56 49q0 21 -13.5 34t-38.5 13q-26 0 -42.5 -14.5t-19.5 -40.5h-61q3 47 36.5 76t87.5 29q53 0 84 -26t31 -66q0 -54 -57 -74q67 -15 67 -82q0 -48 -35 -75.5t-95 -27.5z" />
    <glyph glyph-name="four.sup" horiz-adv-x="318" 
d="M189 431v69h-172v24l153 249h83v-224h45v-49h-45v-69h-64zM89 549h101v173z" />
    <glyph glyph-name="five.sup" horiz-adv-x="303" 
d="M145 426q-58 0 -89.5 28.5t-34.5 75.5h63q4 -26 17 -39t44 -13q27 0 42.5 18t15.5 49q0 30 -15.5 47.5t-43.5 17.5q-46 0 -70 -29h-36l4 192h210v-52h-159l-1 -92q26 30 75 30q47 0 76 -31t29 -84q0 -54 -35 -86t-92 -32z" />
    <glyph glyph-name="six.sup" horiz-adv-x="321" 
d="M165 426q-135 0 -135 161v9q0 86 40 133.5t106 47.5q98 0 110 -91h-62q-10 40 -51 40q-35 0 -55 -30t-21 -86q27 44 84 44q49 0 81 -30.5t32 -80.5q0 -53 -35 -85t-94 -32zM165 475q28 0 45 18.5t17 47.5q0 30 -17 48.5t-45 18.5q-29 0 -47 -17.5t-18 -45.5q0 -32 18 -51
t47 -19z" />
    <glyph glyph-name="seven.sup" horiz-adv-x="269" 
d="M66 431l108 287h-157v55h241v-8l-124 -334h-68z" />
    <glyph glyph-name="eight.sup" horiz-adv-x="314" 
d="M156 426q-55 0 -92 26.5t-37 74.5q0 65 63 87q-50 21 -50 71q0 42 34.5 67t82.5 25t82 -25t34 -66q0 -50 -51 -71q64 -24 64 -86q0 -49 -37 -76t-93 -27zM157 476q27 0 44.5 15t17.5 43q0 26 -17.5 41.5t-44.5 15.5t-44.5 -15.5t-17.5 -42.5t17.5 -42t44.5 -15zM157 634
q24 0 38 13t14 35q0 21 -15 34t-37 13q-23 0 -38 -13t-15 -35t15.5 -34.5t37.5 -12.5z" />
    <glyph glyph-name="nine.sup" horiz-adv-x="321" 
d="M151 426q-52 0 -83 25t-37 70h63q10 -43 57 -43q72 0 74 114q-28 -43 -83 -43q-50 0 -82 30.5t-32 80.5q0 54 34.5 86t93.5 32q67 0 101.5 -42t34.5 -118v-17q0 -84 -36.5 -129.5t-104.5 -45.5zM156 596q28 0 46 17.5t18 44.5q0 33 -17.5 52t-46.5 19q-28 0 -45 -18.5
t-17 -48.5t17 -48t45 -18z" />
    <glyph glyph-name="plus.sup" horiz-adv-x="339" 
d="M142 469v105h-101v53h101v106h55v-106h101v-53h-101v-105h-55z" />
    <glyph glyph-name="minus.sup" horiz-adv-x="339" 
d="M41 574v53h257v-53h-257z" />
    <glyph glyph-name="a.alt" horiz-adv-x="615" 
d="M276 -9q-97 0 -164 71t-67 189v8q0 118 69.5 195.5t169.5 77.5q110 0 164 -91v82h83v-523h-83v88q-23 -40 -72 -68.5t-100 -28.5zM285 60q71 0 118.5 51t47.5 147v8q0 97 -43 147t-116 50t-117 -53t-44 -147v-8q0 -94 44 -144.5t110 -50.5z" />
    <glyph glyph-name="t.alt" horiz-adv-x="338" 
d="M109 0v453h-82v70h82v119h83v-119h115v-70h-115v-453h-83z" />
    <glyph glyph-name="germandbls.alt" horiz-adv-x="615" 
d="M407 -9q-74 0 -120.5 40.5t-48.5 109.5h80q2 -36 25 -58.5t64 -22.5q86 0 86 89q0 18 -7 33t-23.5 29t-29.5 22.5t-38 23.5q-30 17 -45 27t-35.5 28.5t-30 39.5t-9.5 47q0 27 15 52t36.5 45t43.5 39t37 41t15 45q0 42 -29.5 64.5t-82.5 22.5q-68 0 -105.5 -40.5
t-37.5 -117.5v-550h-83v546q0 103 64 166.5t162 63.5q82 0 136.5 -41t54.5 -111q0 -39 -23 -73.5t-50.5 -54.5t-50.5 -45t-23 -49q0 -6 1.5 -11.5t6.5 -11t10 -9.5t15.5 -11t19 -12t25 -15t28.5 -18q54 -35 86.5 -72.5t32.5 -90.5q0 -76 -47 -118t-125 -42z" />
    <glyph glyph-name="aacute.alt" horiz-adv-x="615" 
d="M276 -9q-97 0 -164 71t-67 189v8q0 118 69.5 195.5t169.5 77.5q110 0 164 -91v82h83v-523h-83v88q-23 -40 -72 -68.5t-100 -28.5zM285 60q71 0 118.5 51t47.5 147v8q0 97 -43 147t-116 50t-117 -53t-44 -147v-8q0 -94 44 -144.5t110 -50.5zM261 613l62 147h104l-104 -147
h-62z" />
    <glyph glyph-name="abreve.alt" horiz-adv-x="615" 
d="M276 -9q-97 0 -164 71t-67 189v8q0 118 69.5 195.5t169.5 77.5q110 0 164 -91v82h83v-523h-83v88q-23 -40 -72 -68.5t-100 -28.5zM285 60q71 0 118.5 51t47.5 147v8q0 97 -43 147t-116 50t-117 -53t-44 -147v-8q0 -94 44 -144.5t110 -50.5zM298 619q-54 0 -91.5 37.5
t-40.5 94.5h66q11 -64 66 -64q59 0 72 64h64q-3 -57 -42.5 -94.5t-93.5 -37.5z" />
    <glyph glyph-name="acircumflex.alt" horiz-adv-x="615" 
d="M276 -9q-97 0 -164 71t-67 189v8q0 118 69.5 195.5t169.5 77.5q110 0 164 -91v82h83v-523h-83v88q-23 -40 -72 -68.5t-100 -28.5zM285 60q71 0 118.5 51t47.5 147v8q0 97 -43 147t-116 50t-117 -53t-44 -147v-8q0 -94 44 -144.5t110 -50.5zM155 613l108 144h75l107 -144
h-61l-85 75l-85 -75h-59z" />
    <glyph glyph-name="adieresis.alt" horiz-adv-x="615" 
d="M276 -9q-97 0 -164 71t-67 189v8q0 118 69.5 195.5t169.5 77.5q110 0 164 -91v82h83v-523h-83v88q-23 -40 -72 -68.5t-100 -28.5zM285 60q71 0 118.5 51t47.5 147v8q0 97 -43 147t-116 50t-117 -53t-44 -147v-8q0 -94 44 -144.5t110 -50.5zM208 634q-22 0 -37.5 15.5
t-15.5 37.5t15.5 37.5t37.5 15.5t37.5 -15.5t15.5 -37.5t-15.5 -37.5t-37.5 -15.5zM396 634q-22 0 -37.5 15.5t-15.5 37.5t15.5 37.5t37.5 15.5t37.5 -15.5t15.5 -37.5t-15.5 -37.5t-37.5 -15.5z" />
    <glyph glyph-name="agrave.alt" horiz-adv-x="615" 
d="M276 -9q-97 0 -164 71t-67 189v8q0 118 69.5 195.5t169.5 77.5q110 0 164 -91v82h83v-523h-83v88q-23 -40 -72 -68.5t-100 -28.5zM285 60q71 0 118.5 51t47.5 147v8q0 97 -43 147t-116 50t-117 -53t-44 -147v-8q0 -94 44 -144.5t110 -50.5zM276 613l-104 147h104l62 -147
h-62z" />
    <glyph glyph-name="amacron.alt" horiz-adv-x="615" 
d="M276 -9q-97 0 -164 71t-67 189v8q0 118 69.5 195.5t169.5 77.5q110 0 164 -91v82h83v-523h-83v88q-23 -40 -72 -68.5t-100 -28.5zM285 60q71 0 118.5 51t47.5 147v8q0 97 -43 147t-116 50t-117 -53t-44 -147v-8q0 -94 44 -144.5t110 -50.5zM169 648v64h262v-64h-262z" />
    <glyph glyph-name="aogonek.alt" horiz-adv-x="615" 
d="M479 -182q-47 0 -75.5 21.5t-28.5 58.5q0 61 73 100v90q-23 -40 -72 -68.5t-100 -28.5q-97 0 -164 71t-67 189v8q0 118 69.5 195.5t169.5 77.5q110 0 164 -91v82h83v-518q-77 -47 -77 -91q0 -36 38 -36q31 0 52 11v-59q-29 -12 -65 -12zM285 60q71 0 118.5 51t47.5 147v8
q0 97 -43 147t-116 50t-117 -53t-44 -147v-8q0 -94 44 -144.5t110 -50.5z" />
    <glyph glyph-name="aring.alt" horiz-adv-x="615" 
d="M276 -9q-97 0 -164 71t-67 189v8q0 118 69.5 195.5t169.5 77.5q110 0 164 -91v82h83v-523h-83v88q-23 -40 -72 -68.5t-100 -28.5zM285 60q71 0 118.5 51t47.5 147v8q0 97 -43 147t-116 50t-117 -53t-44 -147v-8q0 -94 44 -144.5t110 -50.5zM294 644q23 0 38 16.5t15 41.5
t-15 41.5t-38 16.5t-38 -16.5t-15 -41.5t15 -41.5t38 -16.5zM294 598q-44 0 -75.5 30.5t-31.5 73.5t31.5 73.5t75.5 30.5t75.5 -30.5t31.5 -73.5t-31.5 -73.5t-75.5 -30.5z" />
    <glyph glyph-name="aringacute.alt" horiz-adv-x="615" 
d="M276 -9q-97 0 -164 71t-67 189v8q0 118 69.5 195.5t169.5 77.5q110 0 164 -91v82h83v-523h-83v88q-23 -40 -72 -68.5t-100 -28.5zM285 60q71 0 118.5 51t47.5 147v8q0 97 -43 147t-116 50t-117 -53t-44 -147v-8q0 -94 44 -144.5t110 -50.5zM294 624q23 0 38 16.5t15 41.5
t-15 41.5t-38 16.5t-38 -16.5t-15 -41.5t15 -41.5t38 -16.5zM294 578q-44 0 -75.5 30.5t-31.5 73.5t31.5 73.5t75.5 30.5t75.5 -30.5t31.5 -73.5t-31.5 -73.5t-75.5 -30.5zM268 829l56 127h104l-98 -127h-62z" />
    <glyph glyph-name="atilde.alt" horiz-adv-x="615" 
d="M276 -9q-97 0 -164 71t-67 189v8q0 118 69.5 195.5t169.5 77.5q110 0 164 -91v82h83v-523h-83v88q-23 -40 -72 -68.5t-100 -28.5zM285 60q71 0 118.5 51t47.5 147v8q0 97 -43 147t-116 50t-117 -53t-44 -147v-8q0 -94 44 -144.5t110 -50.5zM352 619q-23 0 -59 21.5
t-49 21.5q-14 0 -25 -12.5t-15 -32.5h-60q6 53 34 84.5t67 31.5q23 0 58.5 -21.5t48.5 -21.5q14 0 25 12.5t15 32.5h60q-6 -53 -33.5 -84.5t-66.5 -31.5z" />
    <glyph glyph-name="tbar.alt" horiz-adv-x="338" 
d="M27 279v60h82v114h-82v70h82v119h83v-119h115v-70h-115v-114h115v-60h-115v-279h-83v279h-82z" />
    <glyph glyph-name="tcaron.alt" horiz-adv-x="338" 
d="M109 0v453h-82v70h82v119h83v-119h115v-70h-115v-453h-83zM255 598l12 175h94l-48 -175h-58z" />
    <glyph glyph-name="tcommaaccent.alt" horiz-adv-x="338" 
d="M116 -220l-51 26l58 157l80 -24zM109 0v453h-82v70h82v119h83v-119h115v-70h-115v-453h-83z" />
    <glyph glyph-name="f.short" horiz-adv-x="331" 
d="M102 0v453h-75v70h75v85q0 81 39 124.5t115 43.5q36 0 57 -8v-70q-22 9 -54 9q-74 0 -74 -90v-94h128v-70h-128v-453h-83z" />
    <glyph glyph-name="f_f.short" horiz-adv-x="619" 
d="M102 0v453h-75v70h75v78q0 81 39.5 124.5t116.5 43.5q32 0 62 -10v-70q-28 11 -59 11q-76 0 -76 -90v-87h205v85q0 81 39 124.5t115 43.5q36 0 57 -8v-70q-22 9 -54 9q-74 0 -74 -90v-94h128v-70h-128v-453h-83v453h-205v-453h-83z" />
    <glyph glyph-name="questiondown.uc" horiz-adv-x="489" 
d="M310 513v-50q0 -38 -18 -74t-34 -54t-51 -52q-24 -24 -37 -39.5t-24.5 -38t-11.5 -45.5q0 -46 26.5 -73t80.5 -27q56 0 92 35.5t41 94.5h78q-5 -89 -63 -144t-149 -55q-95 0 -142.5 48t-47.5 118q0 34 16.5 67.5t32.5 51t49 48.5q29 28 44 44.5t29.5 44.5t14.5 57v43h74z
M275 720q26 0 45 -18.5t19 -45.5t-19 -45.5t-45 -18.5t-45 18.5t-19 45.5t19 45.5t45 18.5z" />
    <glyph glyph-name="exclamdown.uc" horiz-adv-x="288" 
d="M97 0l14 513h64l14 -513h-92zM144 592q-26 0 -45 18.5t-19 45.5t19 45.5t45 18.5t45 -18.5t19 -45.5t-19 -45.5t-45 -18.5z" />
    <glyph glyph-name="hyphen.uc" horiz-adv-x="364" 
d="M60 288v78h244v-78h-244z" />
    <glyph glyph-name="endash.uc" horiz-adv-x="526" 
d="M45 291v70h436v-70h-436z" />
    <glyph glyph-name="emdash.uc" horiz-adv-x="885" 
d="M45 291v70h795v-70h-795z" />
    <glyph glyph-name="guilsinglleft.uc" horiz-adv-x="322" 
d="M189 113l-130 188l130 188h82l-125 -188l125 -188h-82z" />
    <glyph glyph-name="guilsinglright.uc" horiz-adv-x="322" 
d="M51 113l125 188l-125 188h82l130 -188l-130 -188h-82z" />
    <glyph glyph-name="guillemotleft.uc" horiz-adv-x="500" 
d="M189 113l-130 188l130 188h82l-125 -188l125 -188h-82zM367 113l-130 188l130 188h82l-125 -188l125 -188h-82z" />
    <glyph glyph-name="guillemotright.uc" horiz-adv-x="500" 
d="M51 113l125 188l-125 188h82l130 -188l-130 -188h-82zM229 113l125 188l-125 188h82l130 -188l-130 -188h-82z" />
    <glyph glyph-name="parenleft.uc" horiz-adv-x="322" 
d="M220 -98q-71 83 -117 198t-46 242t46 242.5t117 198.5h82q-69 -87 -113.5 -202t-44.5 -239t44.5 -238.5t113.5 -201.5h-82z" />
    <glyph glyph-name="parenright.uc" horiz-adv-x="322" 
d="M20 -98q69 87 113.5 202t44.5 239t-44.5 238.5t-113.5 201.5h82q71 -83 117 -198t46 -242t-46 -242.5t-117 -198.5h-82z" />
    <glyph glyph-name="bracketleft.uc" horiz-adv-x="356" 
d="M88 -84v862h224v-66h-141v-730h141v-66h-224z" />
    <glyph glyph-name="bracketright.uc" horiz-adv-x="356" 
d="M44 -84v66h141v730h-141v66h224v-862h-224z" />
    <glyph glyph-name="braceleft.uc" horiz-adv-x="381" 
d="M337 -87q-114 0 -163.5 44t-34.5 147l14 95q8 51 -17 83.5t-96 32.5v62q71 0 96 32.5t17 83.5l-14 95q-15 103 34.5 147t163.5 44v-63q-75 -1 -102 -28t-17 -102l14 -106q14 -106 -98 -134q112 -28 98 -134l-14 -106q-10 -75 17 -102t102 -28v-63z" />
    <glyph glyph-name="braceright.uc" horiz-adv-x="381" 
d="M44 -87v63q75 1 102 28t17 102l-14 106q-14 106 98 134q-112 28 -98 134l14 106q10 75 -17 102t-102 28v63q114 0 163.5 -44t34.5 -147l-14 -95q-8 -51 17 -83.5t96 -32.5v-62q-71 0 -96 -32.5t-17 -83.5l14 -95q15 -103 -34.5 -147t-163.5 -44z" />
    <glyph glyph-name="slash.uc" horiz-adv-x="403" 
d="M24 -84l273 862h76l-273 -862h-76z" />
    <glyph glyph-name="backslash.uc" horiz-adv-x="403" 
d="M302 -84l-272 862h76l272 -862h-76z" />
    <glyph glyph-name="bar.uc" horiz-adv-x="253" 
d="M93 -84v862h67v-862h-67z" />
    <glyph glyph-name="at.uc" horiz-adv-x="915" 
d="M459 -58q-125 0 -218 56t-138.5 144.5t-45.5 193.5q0 176 121.5 295.5t291.5 119.5q171 0 279.5 -101.5t108.5 -253.5q0 -65 -17.5 -115t-45.5 -77.5t-58.5 -41t-61.5 -13.5q-55 0 -80 21.5t-31 62.5q-22 -39 -61.5 -65t-83.5 -26q-71 0 -113.5 45.5t-42.5 123.5
q0 97 55.5 161t135.5 64q91 0 117 -66l7 58h83l-29 -244q-11 -77 44 -77q46 0 77.5 47t31.5 140q0 132 -84 211t-231 79q-148 0 -241.5 -96t-93.5 -250q0 -140 84.5 -234.5t239.5 -94.5q77 0 129 17.5t98 57.5h77q-38 -64 -119.5 -103t-184.5 -39zM437 204q49 0 86.5 43
t37.5 116q0 54 -26.5 81.5t-74.5 27.5t-80.5 -43t-32.5 -117q0 -50 25 -79t65 -29z" />
    </font>
</defs>
</svg>
