<?xml version="1.0" standalone="no"?>
<!DOCTYPE svg PUBLIC "-//W3C//DTD SVG 1.1//EN" "http://www.w3.org/Graphics/SVG/1.1/DTD/svg11.dtd" >
<svg>
<metadata>
Created by FontForge 20120731 at Sun Aug 28 06:44:42 2016
 By ,,,
(c)2009 Commercial Type.
</metadata>
<defs>
<font id="Graphik-RegularItalic" horiz-adv-x="600" >
  <font-face 
    font-family="Graphik Regular"
    font-weight="400"
    font-style="italic"
    font-stretch="normal"
    units-per-em="1000"
    panose-1="2 11 5 3 3 2 2 13 2 3"
    ascent="818"
    descent="-182"
    x-height="523"
    cap-height="715"
    bbox="-263 -220 1071 1113"
    underline-thickness="50"
    underline-position="-50"
    slope="-8"
    unicode-range="U+0020-FB02"
  />
<missing-glyph horiz-adv-x="500" 
 />
    <glyph glyph-name="f_f" unicode="ff" horiz-adv-x="620" 
d="M338 0l72 453h-202l-71 -453h-83l71 453h-74l11 70h74l15 92q12 73 57 112t113 39q43 0 69 -13l-10 -66q-23 10 -55 10q-77 0 -91 -84l-15 -90h202l16 102q12 73 57 112t113 39q43 0 69 -13l-10 -66q-23 10 -55 10q-77 0 -91 -84l-16 -100h128l-11 -70h-128l-72 -453h-83
z" />
    <glyph glyph-name=".notdef" horiz-adv-x="500" 
 />
    <glyph glyph-name=".null" horiz-adv-x="0" 
 />
    <glyph glyph-name="nonmarkingreturn" horiz-adv-x="333" 
 />
    <glyph glyph-name="space" unicode=" " horiz-adv-x="265" 
 />
    <glyph glyph-name="exclam" unicode="!" horiz-adv-x="286" 
d="M101 202l68 513h92l-96 -513h-64zM113 -5q-26 0 -45 18.5t-19 45.5t18.5 45.5t44.5 18.5q27 0 46 -18.5t19 -45.5t-19 -45.5t-45 -18.5z" />
    <glyph glyph-name="quotedbl" unicode="&#x22;" horiz-adv-x="375" 
d="M109 470l22 245h90l-52 -245h-60zM272 470l22 245h90l-52 -245h-60z" />
    <glyph glyph-name="numbersign" unicode="#" horiz-adv-x="503" 
d="M246 99l43 183h-97l-43 -183h-68l43 183h-87l11 70h92l31 132h-88l11 70h94l38 161h68l-38 -161h97l38 161h68l-38 -161h88l-11 -70h-94l-31 -132h90l-11 -70h-95l-43 -183h-68zM239 484l-31 -132h97l31 132h-97z" />
    <glyph glyph-name="dollar" unicode="$" horiz-adv-x="617" 
d="M300 -9h-5l-20 -126h-59l20 131q-99 16 -151 77.5t-53 144.5h84q2 -56 34 -98t97 -55l44 274q-95 30 -138 71.5t-43 115.5q0 82 68 139.5t174 58.5l14 89h59l-15 -94q80 -13 127.5 -62.5t49.5 -129.5h-78q-10 101 -110 123l-40 -251q103 -32 148.5 -74t45.5 -116
q0 -96 -68.5 -157t-184.5 -61zM469 201q0 45 -26 71.5t-96 49.5l-41 -262q78 1 120.5 38.5t42.5 102.5zM192 529q0 -39 23.5 -64t87.5 -48l38 238q-73 -1 -111 -36t-38 -90z" />
    <glyph glyph-name="percent" unicode="%" horiz-adv-x="784" 
d="M149 535q0 -88 80 -88q44 0 69.5 33t25.5 85q0 38 -19 65t-60 27q-47 0 -71.5 -34.5t-24.5 -87.5zM227 383q-68 0 -111 44.5t-43 111.5q0 74 51 128t124 54q69 0 110.5 -45.5t41.5 -113.5q0 -73 -50.5 -126t-122.5 -53zM96 0l547 715h79l-547 -715h-79zM493 144
q0 -88 80 -88q44 0 69.5 33t25.5 85q0 38 -19 65t-60 27q-47 0 -71.5 -34.5t-24.5 -87.5zM571 -8q-68 0 -111 44.5t-43 111.5q0 74 51 128t124 54q69 0 110.5 -45.5t41.5 -113.5q0 -73 -50.5 -126t-122.5 -53z" />
    <glyph glyph-name="ampersand" unicode="&#x26;" horiz-adv-x="680" 
d="M603 0h-97l-57 85q-38 -39 -90 -64.5t-109 -26.5q-87 0 -149.5 45t-62.5 141q0 84 52 137.5t146 90.5q-42 72 -42 132q0 81 51 130t127 49q67 0 111 -38.5t44 -103.5q0 -71 -47.5 -114t-131.5 -78l119 -181l108 165h80l-148 -224zM124 182q0 -57 35 -89t94 -32
q88 0 161 78l-146 219q-66 -26 -105 -66t-39 -110zM370 655q-42 0 -68.5 -29t-26.5 -78q0 -44 42 -112q30 12 48.5 21.5t40 25.5t32 39t10.5 53q0 33 -20 56.5t-58 23.5z" />
    <glyph glyph-name="quotesingle" unicode="'" horiz-adv-x="212" 
d="M109 470l22 245h90l-52 -245h-60z" />
    <glyph glyph-name="parenleft" unicode="(" horiz-adv-x="322" 
d="M155 -148q-105 153 -105 350q0 325 246 571h91q-251 -259 -251 -571q0 -187 99 -350h-80z" />
    <glyph glyph-name="parenright" unicode=")" horiz-adv-x="322" 
d="M181 776q105 -153 105 -350q0 -325 -246 -571h-91q251 259 251 571q0 187 -99 350h80z" />
    <glyph glyph-name="asterisk" unicode="*" horiz-adv-x="422" 
d="M162 416l-50 44l99 105l-118 36l33 65l110 -54l14 131h73l-28 -134l125 40l11 -67l-129 -22l67 -115l-63 -37l-56 123z" />
    <glyph glyph-name="plus" unicode="+" horiz-adv-x="519" 
d="M197 105l32 202h-187l11 70h187l32 202h73l-32 -202h187l-11 -70h-187l-32 -202h-73z" />
    <glyph glyph-name="comma" unicode="," horiz-adv-x="282" 
d="M41 -123l-50 28l118 219l75 -38z" />
    <glyph glyph-name="hyphen" unicode="-" horiz-adv-x="335" 
d="M55 236l12 78h214l-12 -78h-214z" />
    <glyph glyph-name="period" unicode="." horiz-adv-x="282" 
d="M108 -5q-26 0 -45 18.5t-19 45.5t18.5 45.5t44.5 18.5q27 0 46 -18.5t19 -45.5t-19 -45.5t-45 -18.5z" />
    <glyph glyph-name="slash" unicode="/" horiz-adv-x="403" 
d="M-59 -148l434 924h78l-435 -924h-77z" />
    <glyph glyph-name="zero" unicode="0" horiz-adv-x="681" 
d="M318 -9q-124 0 -187 77t-64 198q0 50 7 89l6 37q25 153 109.5 242.5t208.5 89.5q122 0 183 -78t61 -200q0 -47 -7 -88l-6 -37q-24 -151 -106.5 -240.5t-204.5 -89.5zM323 63q87 0 143 68.5t77 199.5l6 37q6 36 6 78q0 90 -37.5 149t-124.5 59q-86 0 -145.5 -70.5
t-80.5 -197.5l-6 -37q-7 -44 -7 -84q0 -56 13 -98t52.5 -73t103.5 -31z" />
    <glyph glyph-name="one" unicode="1" horiz-adv-x="399" 
d="M151 0l99 627l-178 -115l13 83l185 120h81l-113 -715h-87z" />
    <glyph glyph-name="two" unicode="2" horiz-adv-x="554" 
d="M-33 0l3 20l341 296q131 113 131 221q0 49 -30 83t-84 34q-131 2 -170 -159h-82q18 114 87 172t170 57q85 0 141 -50t56 -135q0 -79 -45.5 -143t-133.5 -138l-221 -187h337l-11 -71h-489z" />
    <glyph glyph-name="three" unicode="3" horiz-adv-x="604" 
d="M271 -9q-110 0 -175.5 59.5t-65.5 160.5h82q2 -67 41.5 -108.5t121.5 -41.5q81 0 125 39.5t44 118.5q0 55 -34 87t-103 32h-46l12 73h62q62 0 100.5 32t38.5 98q0 53 -32 82.5t-89 29.5q-65 0 -109 -34.5t-60 -100.5h-77q13 92 83 149t168 57q83 0 142.5 -46t59.5 -134
q0 -62 -36.5 -108t-99.5 -64q52 -17 80.5 -56.5t28.5 -96.5q0 -105 -72.5 -166.5t-189.5 -61.5z" />
    <glyph glyph-name="four" unicode="4" horiz-adv-x="617" 
d="M355 0l23 150h-356l5 28l410 537h116l-78 -494h99l-12 -71h-99l-23 -150h-85zM143 221h247l66 420z" />
    <glyph glyph-name="five" unicode="5" horiz-adv-x="587" 
d="M258 -9q-98 0 -160 52.5t-66 149.5h84q8 -132 143 -132q82 0 129.5 53.5t47.5 145.5q0 64 -36 102.5t-106 38.5q-93 0 -166 -69h-32l61 383h402l-12 -75h-330l-34 -214q58 45 140 45q91 0 147 -57t56 -150q0 -117 -75 -195t-193 -78z" />
    <glyph glyph-name="six" unicode="6" horiz-adv-x="619" 
d="M299 -9q-116 0 -177 63.5t-61 183.5q0 36 9 97l5 31q11 70 33.5 130t59 113t94.5 84t131 31q92 0 143.5 -45.5t55.5 -127.5h-82q-6 49 -34 75.5t-88 26.5q-174 0 -225 -277q68 88 184 88q92 0 152 -57.5t60 -150.5q0 -113 -72.5 -189t-187.5 -76zM146 211q0 -66 39 -109
t115 -43t123 55t47 138q0 62 -37.5 103t-110.5 41q-75 0 -125.5 -53.5t-50.5 -131.5z" />
    <glyph glyph-name="seven" unicode="7" horiz-adv-x="525" 
d="M88 0l357 645h-357l11 70h471l-2 -12l-389 -703h-91z" />
    <glyph glyph-name="eight" unicode="8" horiz-adv-x="607" 
d="M287 -9q-96 0 -166.5 52t-70.5 143q0 77 44.5 131t120.5 76q-41 19 -64.5 55t-23.5 79q0 86 67.5 141.5t164.5 55.5q82 0 144 -49t62 -129q0 -118 -133 -162q52 -21 82.5 -65.5t30.5 -99.5q0 -106 -74 -167t-184 -61zM139 197q0 -61 43 -98t110 -37q74 0 119 41t45 115
q0 60 -41 96t-104 36q-76 0 -124 -40t-48 -113zM214 530q0 -47 36 -79t94 -32q57 0 95.5 30.5t38.5 92.5q0 49 -35 81.5t-91 32.5q-59 0 -98.5 -32.5t-39.5 -93.5z" />
    <glyph glyph-name="nine" unicode="9" horiz-adv-x="620" 
d="M260 -8q-92 0 -151.5 45.5t-66.5 138.5h85q9 -62 43 -87.5t97 -25.5q82 0 137.5 68.5t77.5 204.5q-30 -40 -78.5 -62t-105.5 -22q-89 0 -150 55.5t-61 151.5q0 115 75.5 190.5t192.5 75.5q110 0 168 -63.5t59 -179.5q0 -52 -8 -100l-7 -44q-56 -346 -307 -346zM176 463
q0 -65 35 -104t99 -39q83 0 136 47.5t53 136.5q0 65 -36.5 109t-110.5 44q-78 0 -127 -54.5t-49 -139.5z" />
    <glyph glyph-name="colon" unicode=":" horiz-adv-x="292" 
d="M112 -5q-26 0 -45 18.5t-19 45.5t18.5 45.5t44.5 18.5q27 0 46 -18.5t19 -45.5t-19 -45.5t-45 -18.5zM160 292q-26 0 -45 18.5t-19 45.5t18.5 45.5t44.5 18.5q27 0 46 -18.5t19 -45.5t-19 -45.5t-45 -18.5z" />
    <glyph glyph-name="semicolon" unicode=";" horiz-adv-x="292" 
d="M26 -123l-50 28l118 219l75 -38zM168 292q-26 0 -45 18.5t-19 45.5t18.5 45.5t44.5 18.5q27 0 46 -18.5t19 -45.5t-19 -45.5t-45 -18.5z" />
    <glyph glyph-name="less" unicode="&#x3c;" horiz-adv-x="504" 
d="M410 95l-350 221l3 20l418 213l-12 -82l-288 -143l241 -151z" />
    <glyph glyph-name="equal" unicode="=" horiz-adv-x="484" 
d="M29 196l11 72h404l-11 -72h-404zM57 376l11 72h404l-11 -72h-404z" />
    <glyph glyph-name="greater" unicode="&#x3e;" horiz-adv-x="504" 
d="M111 549l350 -221l-3 -20l-418 -213l12 84l288 143l-241 151z" />
    <glyph glyph-name="question" unicode="?" horiz-adv-x="489" 
d="M168 202l8 51q2 14 6 27.5t8 24t12 22t12.5 19t15.5 18.5t15.5 16t17.5 15t17 13.5t18 14t17 12.5q44 33 64 60.5t20 69.5t-27.5 66t-77.5 24q-54 0 -92 -34t-48 -96h-79q12 94 75.5 147t152.5 52q89 0 135 -45.5t46 -112.5q0 -35 -9 -62t-32 -51t-37.5 -35.5
t-49.5 -36.5q-32 -23 -49.5 -38t-35 -41t-22.5 -56l-7 -44h-74zM188 -5q-26 0 -45 18.5t-19 45.5t18.5 45.5t44.5 18.5q27 0 46 -18.5t19 -45.5t-19 -45.5t-45 -18.5z" />
    <glyph glyph-name="at" unicode="@" horiz-adv-x="915" 
d="M674 458l-39 -252q-10 -79 48 -79q48 0 84 49t36 144q0 136 -87 219t-239 83t-251 -101t-99 -259q0 -69 21.5 -130.5t62.5 -109t106.5 -75.5t146.5 -28q79 0 133 19.5t103 61.5h77q-39 -66 -123 -106.5t-190 -40.5q-97 0 -177 33.5t-131 90.5t-78.5 129.5t-27.5 153.5
q0 181 125.5 304.5t301.5 123.5q177 0 287.5 -104.5t110.5 -261.5q0 -67 -18.5 -118.5t-48.5 -80t-62 -42.5t-64 -14q-103 0 -117 86q-49 -93 -147 -93q-73 0 -116.5 45.5t-43.5 125.5q0 101 58.5 168t145.5 67q49 0 79 -19.5t40 -48.5l10 60h83zM434 124q52 0 92 48t40 123
q0 51 -26 78t-70 27q-55 0 -91 -46t-36 -125q0 -50 25.5 -77.5t65.5 -27.5z" />
    <glyph glyph-name="A" unicode="A" horiz-adv-x="650" 
d="M500 0l-37 206h-295l-102 -206h-84l359 715h114l129 -715h-84zM384 643l-182 -368h248z" />
    <glyph glyph-name="B" unicode="B" horiz-adv-x="622" 
d="M48 0l113 715h204q102 0 156 -40.5t53 -126.5q0 -134 -135 -176q121 -30 122 -156q0 -99 -68.5 -157.5t-183.5 -58.5h-261zM143 68h166q82 0 124.5 40.5t42.5 109.5q0 59 -36 88t-117 29h-137zM196 403h132q161 0 161 141q0 53 -30 78t-97 25h-127z" />
    <glyph glyph-name="C" unicode="C" horiz-adv-x="728" 
d="M386 -9q-147 0 -232.5 85t-85.5 228q0 178 107 300t273 122q112 0 185.5 -61t80.5 -173h-82q-26 165 -188 165q-131 0 -208.5 -100.5t-77.5 -252.5q0 -117 58 -180t171 -63q84 0 141 47t83 129h83q-28 -113 -111.5 -179.5t-196.5 -66.5z" />
    <glyph glyph-name="D" unicode="D" horiz-adv-x="698" 
d="M48 0l113 715h174q169 0 251 -83t83 -222q0 -178 -109 -294t-303 -116h-209zM146 71h108q154 0 240 89.5t86 248.5q0 109 -60 172.5t-189 63.5h-94z" />
    <glyph glyph-name="E" unicode="E" horiz-adv-x="572" 
d="M48 0l113 715h413l-12 -71h-326l-38 -243h266l-11 -71h-266l-41 -259h348l-11 -71h-435z" />
    <glyph glyph-name="F" unicode="F" horiz-adv-x="556" 
d="M48 0l113 715h418l-12 -71h-331l-40 -253h258l-11 -71h-258l-50 -320h-87z" />
    <glyph glyph-name="G" unicode="G" horiz-adv-x="770" 
d="M394 -9q-152 0 -238.5 90.5t-86.5 232.5q0 170 107 290t267 120q115 0 193.5 -57.5t85.5 -167.5h-86q-7 78 -59.5 117t-135.5 39q-128 0 -205 -98t-77 -243q0 -117 61 -185t176 -68q103 0 162.5 61.5t76.5 166.5h-212l12 72h295q-32 -370 -336 -370z" />
    <glyph glyph-name="H" unicode="H" horiz-adv-x="730" 
d="M48 0l113 715h87l-52 -324h376l52 324h87l-113 -715h-87l50 318h-376l-50 -318h-87z" />
    <glyph glyph-name="I" unicode="I" horiz-adv-x="279" 
d="M53 0l113 715h87l-113 -715h-87z" />
    <glyph glyph-name="J" unicode="J" horiz-adv-x="420" 
d="M113 -9q-72 0 -115 26l11 70q52 -25 101 -25q55 0 86 30.5t41 95.5l83 527h87l-85 -535q-15 -96 -70.5 -142.5t-138.5 -46.5z" />
    <glyph glyph-name="K" unicode="K" horiz-adv-x="616" 
d="M48 0l113 715h87l-54 -340l363 340h101l-373 -345l272 -370h-97l-268 359l-57 -359h-87z" />
    <glyph glyph-name="L" unicode="L" horiz-adv-x="535" 
d="M48 0l113 715h87l-102 -644h327l-11 -71h-414z" />
    <glyph glyph-name="M" unicode="M" horiz-adv-x="856" 
d="M48 0l113 715h118l133 -557l302 557h123l-113 -715h-87l95 602l-332 -602h-27l-150 602l-95 -602h-80z" />
    <glyph glyph-name="N" unicode="N" horiz-adv-x="724" 
d="M48 0l113 715h111l256 -591l94 591h83l-113 -715h-98l-266 613l-97 -613h-83z" />
    <glyph glyph-name="O" unicode="O" horiz-adv-x="811" 
d="M773 402q0 -176 -109.5 -293.5t-268.5 -117.5q-147 0 -237 90.5t-90 230.5q0 172 111 292t273 120q149 0 235 -92.5t86 -229.5zM683 402q0 109 -61.5 180.5t-170.5 71.5q-131 0 -212 -99.5t-81 -242.5q0 -115 66 -182.5t172 -67.5q127 0 207 96.5t80 243.5z" />
    <glyph glyph-name="P" unicode="P" horiz-adv-x="581" 
d="M48 0l113 715h199q101 0 160.5 -47.5t59.5 -138.5q0 -122 -78 -180t-195 -58h-126l-46 -291h-87zM192 360h120q90 0 136 43.5t46 124.5q0 60 -35 88.5t-108 28.5h-114z" />
    <glyph glyph-name="Q" unicode="Q" horiz-adv-x="811" 
d="M773 402q0 -109 -44.5 -199t-121.5 -145l80 -98l-60 -49l-89 109q-67 -29 -143 -29q-147 0 -237 90.5t-90 230.5q0 172 111 292t273 120q149 0 235 -92.5t86 -229.5zM683 402q0 109 -61.5 180.5t-170.5 71.5q-131 0 -212 -99.5t-81 -242.5q0 -115 66 -182.5t172 -67.5
q53 0 95 16l-75 93l60 49l84 -104q58 45 90.5 119.5t32.5 166.5z" />
    <glyph glyph-name="R" unicode="R" horiz-adv-x="628" 
d="M48 0l113 715h211q98 0 158.5 -47t59.5 -135q0 -93 -57 -148t-147 -67l175 -318h-94l-170 311h-113l-49 -311h-87zM195 380h134q175 0 175 153q1 58 -34 85t-103 27h-130z" />
    <glyph glyph-name="S" unicode="S" horiz-adv-x="627" 
d="M300 -9q-128 0 -196.5 66t-69.5 161h86q3 -67 48.5 -112t136.5 -45q79 -1 123.5 37.5t44.5 103.5q0 49 -32.5 77t-121.5 54q-109 32 -158.5 73.5t-49.5 119.5q0 83 66.5 140.5t173.5 57.5q105 0 167 -51.5t64 -145.5h-80q-12 127 -159 127q-74 0 -111.5 -34.5
t-37.5 -90.5q0 -43 31.5 -68.5t123.5 -53.5q112 -34 160.5 -76.5t48.5 -119.5q0 -96 -70.5 -158t-187.5 -62z" />
    <glyph glyph-name="T" unicode="T" horiz-adv-x="561" 
d="M194 0l101 644h-208l12 71h503l-12 -71h-208l-101 -644h-87z" />
    <glyph glyph-name="U" unicode="U" horiz-adv-x="696" 
d="M325 -9q-137 0 -199.5 74.5t-39.5 217.5l69 432h87l-69 -433q-18 -117 20.5 -168t135.5 -51q83 0 130.5 46.5t64.5 151.5l72 454h87l-74 -466q-20 -122 -90 -190t-194 -68z" />
    <glyph glyph-name="V" unicode="V" horiz-adv-x="636" 
d="M222 0l-130 715h85l113 -631l313 631h83l-360 -715h-104z" />
    <glyph glyph-name="W" unicode="W" horiz-adv-x="890" 
d="M166 0l-73 715h87l54 -583l253 583h56l78 -585l235 585h83l-295 -715h-81l-72 561l-247 -561h-78z" />
    <glyph glyph-name="X" unicode="X" horiz-adv-x="607" 
d="M-19 0l292 373l-163 342h90l137 -285l217 285h90l-274 -355l172 -360h-94l-144 303l-233 -303h-90z" />
    <glyph glyph-name="Y" unicode="Y" horiz-adv-x="592" 
d="M217 0l49 312l-175 403h93l138 -332l232 332h89l-291 -410l-48 -305h-87z" />
    <glyph glyph-name="Z" unicode="Z" horiz-adv-x="595" 
d="M-14 0l2 14l501 633h-365l11 68h489l-2 -13l-492 -631h386l-11 -71h-519z" />
    <glyph glyph-name="bracketleft" unicode="[" horiz-adv-x="356" 
d="M22 -148l146 924h224l-10 -66h-141l-125 -792h141l-11 -66h-224z" />
    <glyph glyph-name="backslash" unicode="\" horiz-adv-x="403" 
d="M257 -148l-147 924h74l147 -924h-74z" />
    <glyph glyph-name="bracketright" unicode="]" horiz-adv-x="356" 
d="M-22 -148l11 66h141l125 792h-141l10 66h224l-146 -924h-224z" />
    <glyph glyph-name="asciicircum" unicode="^" horiz-adv-x="507" 
d="M66 408l213 307h85l121 -307h-81l-93 236l-160 -236h-85z" />
    <glyph glyph-name="underscore" unicode="_" horiz-adv-x="394" 
d="M-68 -158l11 66h395l-11 -66h-395z" />
    <glyph glyph-name="grave" unicode="`" horiz-adv-x="400" 
d="M233 613l-88 147h102l47 -147h-61z" />
    <glyph glyph-name="a" unicode="a" horiz-adv-x="538" 
d="M197 -8q-79 0 -124 40t-45 108q0 167 254 167h101l6 38q10 61 -13 89.5t-85 28.5q-105 0 -125 -94h-83q11 59 47 97t77 52t87 14q94 0 143.5 -47t33.5 -147l-29 -182q-16 -97 -9 -156h-78q-5 42 -1 83q-56 -91 -157 -91zM208 57q61 0 103.5 34t52.5 100l9 57h-89
q-90 0 -132 -24.5t-42 -83.5q0 -37 25 -60t73 -23z" />
    <glyph glyph-name="b" unicode="b" horiz-adv-x="627" 
d="M325 -9q-73 0 -118.5 31t-65.5 76l-16 -98h-83l122 773h83l-54 -342q27 45 76.5 73t106.5 28q93 0 151.5 -63t58.5 -167q0 -131 -71 -221t-190 -90zM320 59q83 0 130.5 66.5t47.5 171.5q0 80 -37 123.5t-101 43.5q-87 0 -144 -66t-57 -176q0 -76 43.5 -119.5t117.5 -43.5
z" />
    <glyph glyph-name="c" unicode="c" horiz-adv-x="554" 
d="M283 -8q-115 0 -179.5 65.5t-64.5 172.5q0 139 79.5 220t191.5 81q91 0 149 -46.5t63 -137.5h-79q-7 64 -42 89.5t-95 25.5q-81 0 -131.5 -61t-50.5 -171q0 -83 40.5 -126.5t120.5 -43.5q57 0 99 33.5t52 92.5h78q-16 -91 -79 -142.5t-152 -51.5z" />
    <glyph glyph-name="d" unicode="d" horiz-adv-x="622" 
d="M261 -9q-98 0 -159.5 63t-61.5 168q0 130 74.5 220t196.5 90q125 0 175 -104l54 345h83l-97 -617q-14 -91 -11 -156h-79q-3 43 4 95q-28 -48 -75.5 -76t-103.5 -28zM271 60q87 0 141.5 63t54.5 180q0 73 -42.5 116.5t-110.5 43.5q-87 0 -136.5 -66t-49.5 -171
q0 -78 38 -122t105 -44z" />
    <glyph glyph-name="e" unicode="e" horiz-adv-x="553" 
d="M123 211q0 -151 144 -151q114 0 144 91h83q-23 -78 -85 -119t-145 -41q-105 0 -165.5 62t-60.5 162q0 138 78 227t195 89q111 0 167 -68.5t36 -198.5l-3 -19h-387q-1 -11 -1 -34zM306 463q-60 0 -107 -37.5t-65 -113.5h303q6 78 -26.5 114.5t-104.5 36.5z" />
    <glyph glyph-name="f" unicode="f" horiz-adv-x="336" 
d="M51 453l11 70h75l16 102q12 73 57 112t113 39q43 0 69 -13l-10 -66q-23 10 -55 10q-77 0 -91 -84l-16 -100h128l-11 -70h-128l-72 -453h-83l72 453h-75z" />
    <glyph glyph-name="g" unicode="g" horiz-adv-x="623" 
d="M272 86q81 0 138 61.5t57 163.5q0 70 -43.5 111t-111.5 41q-81 0 -130.5 -63.5t-49.5 -153.5q0 -73 36.5 -116.5t103.5 -43.5zM584 523l-78 -497q-17 -107 -83.5 -161.5t-176.5 -54.5q-115 0 -169.5 46.5t-63.5 113.5h84q17 -90 147 -90q82 0 124 38t55 116l12 73
q-61 -88 -172 -88q-96 0 -157 62t-61 161q0 120 75.5 205t188.5 85q127 0 177 -104l15 95h83z" />
    <glyph glyph-name="h" unicode="h" horiz-adv-x="592" 
d="M42 0l122 773h83l-54 -343q26 43 71.5 72.5t104.5 29.5q87 0 128.5 -53t23.5 -166l-50 -313h-83l53 332q21 129 -90 129q-67 0 -116.5 -42t-61.5 -115l-48 -304h-83z" />
    <glyph glyph-name="i" unicode="i" horiz-adv-x="255" 
d="M192 632q-23 0 -39 16t-16 38t16.5 39t39.5 17t38.5 -16t15.5 -38q0 -23 -16.5 -39.5t-38.5 -16.5zM44 0l83 523h83l-83 -523h-83z" />
    <glyph glyph-name="j" unicode="j" horiz-adv-x="255" 
d="M-63 -190l11 69q43 2 63.5 21.5t26.5 58.5l89 564h83l-90 -569q-22 -144 -183 -144zM192 632q-23 0 -39 16t-16 38t16.5 39t39.5 17t38.5 -16t15.5 -38q0 -23 -16.5 -39.5t-38.5 -16.5z" />
    <glyph glyph-name="k" unicode="k" horiz-adv-x="511" 
d="M42 0l122 773h83l-76 -481l249 231h103l-264 -240l195 -283h-95l-190 279l-44 -279h-83z" />
    <glyph glyph-name="l" unicode="l" horiz-adv-x="256" 
d="M44 0l122 773h84l-122 -773h-84z" />
    <glyph glyph-name="m" unicode="m" horiz-adv-x="897" 
d="M42 0l58 367q12 79 14 156h78q0 -55 -5 -99q28 50 71.5 79t94.5 29q122 0 143 -114q32 58 81.5 86t99.5 28q82 0 124.5 -53t24.5 -168l-49 -311h-83l51 324q11 71 -10 104t-76 33q-56 0 -101.5 -39t-57.5 -112l-49 -310h-83l52 330q21 131 -87 131q-56 0 -102 -40
t-57 -111l-49 -310h-83z" />
    <glyph glyph-name="n" unicode="n" horiz-adv-x="592" 
d="M42 0l58 367q12 79 14 156h78q0 -51 -6 -104q65 113 183 113q87 0 128.5 -53t23.5 -166l-50 -313h-83l53 332q21 129 -90 129q-67 0 -116.5 -42t-61.5 -115l-48 -304h-83z" />
    <glyph glyph-name="o" unicode="o" horiz-adv-x="589" 
d="M271 -8q-107 0 -170 65t-63 167q0 131 80 219t198 88q107 0 170.5 -63.5t63.5 -166.5q0 -134 -78.5 -221.5t-200.5 -87.5zM275 60q87 0 137.5 67t50.5 172q0 76 -39 120t-113 44q-83 0 -135 -68t-52 -171q0 -76 38 -120t113 -44z" />
    <glyph glyph-name="p" unicode="p" horiz-adv-x="627" 
d="M376 532q93 0 151.5 -63t58.5 -167q0 -131 -71 -221t-190 -90q-73 0 -118.5 31t-65.5 76l-45 -280h-83l87 549q12 79 14 156h78q0 -53 -6 -102q28 50 80 80.5t110 30.5zM320 59q83 0 130.5 66.5t47.5 171.5q0 80 -37 123.5t-101 43.5q-87 0 -144 -66t-57 -176
q0 -76 43.5 -119.5t117.5 -43.5z" />
    <glyph glyph-name="q" unicode="q" horiz-adv-x="627" 
d="M389 -182l42 263q-63 -90 -170 -90q-98 0 -159.5 63t-61.5 168q0 130 74.5 220t196.5 90q125 0 175 -104l15 95h83l-112 -705h-83zM271 60q87 0 141.5 63t54.5 180q0 73 -42.5 116.5t-110.5 43.5q-87 0 -136.5 -66t-49.5 -171q0 -78 38 -122t105 -44z" />
    <glyph glyph-name="r" unicode="r" horiz-adv-x="374" 
d="M42 0l58 367q12 79 14 156h78q0 -47 -6 -107q37 58 79 86.5t114 29.5l-12 -78q-84 -4 -134 -45.5t-65 -136.5l-43 -272h-83z" />
    <glyph glyph-name="s" unicode="s" horiz-adv-x="480" 
d="M229 -9q-99 0 -150.5 48.5t-53.5 121.5h81q7 -101 126 -101q107 0 107 86q0 33 -23 51.5t-83 33.5q-87 22 -123 55.5t-36 93.5q0 71 53.5 111.5t128.5 40.5q81 0 131 -37.5t54 -113.5h-78q-2 38 -31.5 60t-77.5 22q-49 0 -75.5 -20.5t-26.5 -57.5q0 -30 22.5 -47.5
t83.5 -32.5q85 -21 123.5 -54t38.5 -101q0 -72 -52 -115.5t-139 -43.5z" />
    <glyph glyph-name="t" unicode="t" horiz-adv-x="343" 
d="M204 -7q-74 0 -105.5 41.5t-21.5 108.5l49 310h-75l11 70h75l19 119h83l-19 -119h119l-11 -70h-119l-50 -313q-7 -42 7.5 -59.5t50.5 -17.5q32 0 62 11l-11 -69q-27 -12 -64 -12z" />
    <glyph glyph-name="u" unicode="u" horiz-adv-x="588" 
d="M545 523l-58 -367q-14 -91 -11 -156h-79q-3 47 5 104q-66 -113 -182 -113q-85 0 -126 54.5t-24 164.5l50 313h83l-53 -332q-20 -129 88 -129q67 0 115.5 42t60.5 115l48 304h83z" />
    <glyph glyph-name="v" unicode="v" horiz-adv-x="514" 
d="M163 0l-103 523h88l81 -443l219 443h88l-267 -523h-106z" />
    <glyph glyph-name="w" unicode="w" horiz-adv-x="767" 
d="M135 0l-71 523h88l48 -426l192 426h72l50 -426l184 426h87l-240 -523h-92l-45 397l-182 -397h-91z" />
    <glyph glyph-name="x" unicode="x" horiz-adv-x="492" 
d="M-29 0l227 276l-133 247h93l98 -187l153 187h93l-209 -256l144 -267h-94l-107 209l-172 -209h-93z" />
    <glyph glyph-name="y" unicode="y" horiz-adv-x="505" 
d="M44 -182l140 241l-124 464h85l94 -375l199 375h89l-395 -705h-88z" />
    <glyph glyph-name="z" unicode="z" horiz-adv-x="475" 
d="M-21 0l2 12l366 441h-269l11 70h399l-3 -15l-357 -435h288l-12 -73h-425z" />
    <glyph glyph-name="braceleft" unicode="{" horiz-adv-x="381" 
d="M271 -147q-112 6 -154 63t-6 160l33 91q19 54 -3.5 87t-95.5 35l8 61q75 -1 106.5 27.5t29.5 89.5l-3 106q-3 113 54 160.5t178 45.5l-10 -62q-83 -1 -114 -32.5t-30 -116.5l2 -101q1 -123 -118 -152q54 -15 72 -55.5t-4 -106.5l-29 -81q-27 -83 -5.5 -117t99.5 -39z" />
    <glyph glyph-name="bar" unicode="|" horiz-adv-x="253" 
d="M108 -148v924h67v-924h-67z" />
    <glyph glyph-name="braceright" unicode="}" horiz-adv-x="381" 
d="M125 779q112 -6 154 -63t6 -160l-33 -93q-19 -52 3.5 -87t95.5 -41l-8 -61q-75 6 -106.5 -20.5t-29.5 -88.5l3 -106q3 -113 -54 -160.5t-178 -45.5l10 62q83 1 114 32.5t30 116.5l-2 107q-1 123 118 142q-53 17 -72 59t1 100l32 88q27 83 5.5 117t-99.5 39z" />
    <glyph glyph-name="asciitilde" unicode="~" horiz-adv-x="445" 
d="M40 223q12 63 42.5 95.5t70.5 32.5q37 0 82 -25.5t57 -25.5q17 0 32.5 14t19.5 39h66q-11 -63 -42.5 -95.5t-69.5 -32.5q-39 0 -84.5 25.5t-56.5 25.5q-17 0 -31 -14t-20 -39h-66z" />
    <glyph glyph-name="uni00A0" unicode="&#xa0;" horiz-adv-x="280" 
 />
    <glyph glyph-name="exclamdown" unicode="&#xa1;" horiz-adv-x="288" 
d="M197 396l-68 -513h-92l96 513h64zM185 603q26 0 45 -18.5t19 -45.5t-18.5 -45.5t-44.5 -18.5q-27 0 -46 18.5t-19 45.5t19 45.5t45 18.5z" />
    <glyph glyph-name="cent" unicode="&#xa2;" horiz-adv-x="562" 
d="M287 -8h-7l-20 -127h-59l21 133q-87 17 -135 78t-48 152q0 136 78.5 217.5t188.5 85.5l16 98h59l-16 -102q71 -12 115.5 -57t49.5 -123h-79q-8 94 -97 111l-63 -398q55 0 97 30.5t55 95.5h78q-16 -96 -81 -145t-153 -49zM124 228q0 -136 109 -162l62 395
q-75 -6 -123 -67.5t-48 -165.5z" />
    <glyph glyph-name="sterling" unicode="&#xa3;" horiz-adv-x="596" 
d="M57 315l10 62h70q-4 40 -4 94q0 110 62 181.5t179 71.5q93 0 147 -48t55 -141h-85q-3 56 -31 87t-90 31q-80 0 -115.5 -50.5t-35.5 -132.5q0 -33 2 -93h211l-10 -62h-197q1 -21 1 -69q0 -81 -30 -131q22 -6 84.5 -28.5t87.5 -22.5q81 0 94 86h74q-11 -74 -53.5 -116.5
t-117.5 -42.5q-45 0 -122 31.5t-102 31.5q-54 0 -66 -54h-72q7 41 37.5 78t77.5 44q28 47 28 116q0 21 -4 77h-85z" />
    <glyph glyph-name="yen" unicode="&#xa5;" horiz-adv-x="576" 
d="M85 281l9 58h156l-151 376h91l123 -324l219 324h87l-260 -376h156l-9 -58h-168l-12 -78h167l-9 -58h-167l-23 -145h-85l23 145h-169l9 58h169l12 78h-168z" />
    <glyph glyph-name="brokenbar" unicode="&#xa6;" horiz-adv-x="253" 
d="M108 -148v445h67v-445h-67zM108 367v409h67v-409h-67z" />
    <glyph glyph-name="section" unicode="&#xa7;" horiz-adv-x="539" 
d="M217 -137q-79 0 -132.5 42t-49.5 121h84q2 -93 105 -93q46 0 76.5 26t30.5 71q0 34 -27 57.5t-101 50.5q-79 29 -118.5 66t-39.5 98q0 57 38 93.5t98 50.5q-42 40 -42 106q0 77 57.5 124.5t140.5 47.5q76 0 122 -39t48 -118h-85q-1 87 -93 87q-48 0 -78 -23.5t-30 -73.5
q0 -34 25 -57t92 -47q81 -29 122.5 -67t41.5 -103q0 -103 -133 -140q45 -40 45 -106q0 -81 -56 -127.5t-141 -46.5zM313 180q105 21 105 97q0 63 -104 101l-82 30q-41 -6 -72 -31t-31 -68q0 -32 24 -54.5t76 -42.5z" />
    <glyph glyph-name="dieresis" unicode="&#xa8;" horiz-adv-x="400" 
d="M172 634q-22 0 -37.5 15t-15.5 37t16 38t38 16t37 -15t15 -37t-15.5 -38t-37.5 -16zM360 634q-22 0 -37.5 15t-15.5 37t16 38t38 16t37 -15t15 -37t-15.5 -38t-37.5 -16z" />
    <glyph glyph-name="copyright" unicode="&#xa9;" horiz-adv-x="844" 
d="M434 155q-90 0 -141 53.5t-51 144.5v8q0 89 54 144t138 55q70 0 116.5 -35.5t52.5 -102.5h-76q-12 78 -93 78q-52 0 -82.5 -37t-30.5 -102v-7q0 -66 29.5 -102t83.5 -36q89 0 101 83h72q-7 -70 -53.5 -107t-119.5 -37zM432 33q131 0 225.5 92.5t94.5 233.5
q0 140 -93 231.5t-225 91.5q-134 0 -227 -92t-93 -233t94.5 -232.5t223.5 -91.5zM432 -9q-153 0 -259.5 105.5t-106.5 260.5q0 153 107 260t261 107q155 0 260.5 -106t105.5 -259q0 -156 -106.5 -262t-261.5 -106z" />
    <glyph glyph-name="ordfeminine" unicode="&#xaa;" horiz-adv-x="419" 
d="M184 290q-61 0 -96 31.5t-35 84.5q0 139 210 139h73l4 26q7 46 -10 68t-64 22q-76 0 -91 -68h-78q14 68 63 99.5t110 31.5q79 0 119.5 -39t27.5 -120l-22 -140q-12 -74 -6 -127h-75q-4 26 -2 55q-45 -63 -128 -63zM201 350q104 0 120 97l7 44h-68q-66 0 -97.5 -19
t-31.5 -62q0 -27 18 -43.5t52 -16.5z" />
    <glyph glyph-name="guillemotleft" unicode="&#xab;" horiz-adv-x="500" 
d="M160 83l-102 179l158 177h85l-156 -181l95 -175h-80zM338 83l-102 179l158 177h85l-156 -181l95 -175h-80z" />
    <glyph glyph-name="registered" unicode="&#xae;" horiz-adv-x="514" 
d="M215 396v219h77q84 0 84 -66v-1q0 -45 -45 -59l58 -93h-50l-53 85h-23v-85h-48zM263 514h28q38 0 38 32v1q0 31 -38 31h-28v-64zM291 318q78 0 130 52t52 133q0 82 -51 133.5t-131 51.5t-131 -52t-51 -134q0 -81 52 -132.5t130 -51.5zM291 282q-93 0 -157.5 63.5
t-64.5 156.5q0 92 64.5 157t157.5 65q94 0 158 -64t64 -157t-64.5 -157t-157.5 -64z" />
    <glyph glyph-name="macron" unicode="&#xaf;" horiz-adv-x="400" 
d="M129 648l10 64h262l-10 -64h-262z" />
    <glyph glyph-name="degree" unicode="&#xb0;" horiz-adv-x="427" 
d="M257 464q40 0 65.5 28.5t25.5 75.5q0 42 -24.5 70t-62.5 28q-41 0 -68 -29t-27 -76q0 -41 26 -69t65 -28zM255 406q-67 0 -113.5 44.5t-46.5 108.5q0 70 48 117.5t120 47.5q67 0 113 -45t46 -110q0 -68 -48 -115.5t-119 -47.5z" />
    <glyph glyph-name="plusminus" unicode="&#xb1;" horiz-adv-x="519" 
d="M203 145l29 182h-187l11 70h187l29 182h73l-29 -182h187l-11 -70h-187l-29 -182h-73zM-6 0l11 70h447l-11 -70h-447z" />
    <glyph glyph-name="twosuperior" unicode="&#xb2;" horiz-adv-x="286" 
d="M24 373l2 12l148 131q73 66 72 106q-1 22 -13.5 33.5t-32.5 11.5q-52 0 -67 -66h-62q9 55 45.5 86.5t87.5 31.5q46 0 76.5 -22t32.5 -71q1 -34 -22.5 -66.5t-73.5 -75.5l-69 -60h136l-8 -51h-252z" />
    <glyph glyph-name="threesuperior" unicode="&#xb3;" horiz-adv-x="311" 
d="M183 368q-56 0 -92 26.5t-37 84.5h63q2 -28 18 -44.5t47 -16.5q27 0 46.5 15t19.5 44q0 49 -55 49h-24l7 47h27q28 0 44 13t16 37q0 46 -49 46q-55 0 -68 -55h-60q6 48 42.5 76.5t87.5 28.5q49 0 80.5 -22t31.5 -68q0 -28 -18 -49t-49 -31q56 -13 56 -75
q0 -49 -39.5 -77.5t-94.5 -28.5z" />
    <glyph glyph-name="acute" unicode="&#xb4;" horiz-adv-x="400" 
d="M214 613l79 147h108l-121 -147h-66z" />
    <glyph glyph-name="paragraph" unicode="&#xb6;" horiz-adv-x="588" 
d="M218 -100l70 446h-3q-92 0 -146 42.5t-54 120.5q0 98 67 152t169 54h244l-129 -815h-69l120 758h-81l-120 -758h-68z" />
    <glyph glyph-name="periodcentered" unicode="&#xb7;" horiz-adv-x="282" 
d="M150 263q-26 0 -45 18.5t-19 45.5t18.5 45.5t44.5 18.5q27 0 46 -18.5t19 -45.5t-19 -45.5t-45 -18.5z" />
    <glyph glyph-name="cedilla" unicode="&#xb8;" horiz-adv-x="400" 
d="M143 -214q-41 0 -68 21.5t-31 62.5h56q4 -36 42 -36q40 0 40 38q0 15 -10 23.5t-25 8.5q-14 0 -26 -8l-27 30l57 74h53l-40 -53q32 3 56.5 -16.5t24.5 -55.5q0 -43 -27.5 -66t-74.5 -23z" />
    <glyph glyph-name="onesuperior" unicode="&#xb9;" horiz-adv-x="231" 
d="M122 373l43 274l-89 -54l9 61l99 61h60l-54 -342h-68z" />
    <glyph glyph-name="ordmasculine" unicode="&#xba;" horiz-adv-x="493" 
d="M264 290q-87 0 -138 51.5t-51 134.5q0 106 65.5 177t161.5 71q87 0 138 -51.5t51 -134.5q0 -108 -64 -178t-163 -70zM268 354q66 0 104 51.5t38 131.5q0 57 -29 90t-84 33q-64 0 -102.5 -52t-38.5 -132q0 -58 28 -90t84 -32z" />
    <glyph glyph-name="guillemotright" unicode="&#xbb;" horiz-adv-x="500" 
d="M338 439l102 -179l-158 -177h-85l156 181l-95 175h80zM160 439l102 -179l-158 -177h-85l156 181l-95 175h80z" />
    <glyph glyph-name="onequarter" unicode="&#xbc;" horiz-adv-x="684" 
d="M125 373l43 274l-89 -54l9 61l99 61h60l-54 -342h-68zM20 0l597 715h69l-597 -715h-69zM510 0l11 69h-172l4 24l192 249h84l-36 -224h46l-8 -49h-45l-11 -69h-65zM431 118h99l26 169z" />
    <glyph glyph-name="onehalf" unicode="&#xbd;" horiz-adv-x="697" 
d="M125 373l43 274l-89 -54l9 61l99 61h60l-54 -342h-68zM7 0l597 715h69l-597 -715h-69zM373 0l2 12l148 131q40 35 56 57t16 49q0 22 -13 33.5t-33 11.5q-52 0 -67 -66h-62q9 55 45.5 86.5t87.5 31.5q46 0 77.5 -24t31.5 -72q0 -36 -21 -63t-77 -76l-69 -60h138l-8 -51
h-252z" />
    <glyph glyph-name="threequarters" unicode="&#xbe;" horiz-adv-x="710" 
d="M186 368q-56 0 -92 26.5t-37 84.5h63q2 -28 18 -44.5t47 -16.5q27 0 46.5 15t19.5 44q0 49 -55 49h-24l7 47h27q28 0 44 13t16 37q0 46 -49 46q-55 0 -68 -55h-60q6 48 42.5 76.5t87.5 28.5q49 0 80.5 -22t31.5 -68q0 -28 -18 -49t-49 -31q56 -13 56 -75
q0 -49 -39.5 -77.5t-94.5 -28.5zM60 0l597 715h69l-597 -715h-69zM536 0l11 69h-172l4 24l192 249h84l-36 -224h46l-8 -49h-45l-11 -69h-65zM457 118h99l26 169z" />
    <glyph glyph-name="questiondown" unicode="&#xbf;" horiz-adv-x="489" 
d="M328 396l-8 -51q-2 -14 -6 -27.5t-8 -24t-12 -22t-12.5 -19t-15.5 -18.5t-15.5 -16t-17.5 -15t-17 -13.5t-18 -14t-17 -12.5q-44 -33 -64 -60.5t-20 -69.5t27.5 -66t77.5 -24q54 0 92 34t48 96h79q-12 -94 -75.5 -147t-152.5 -52q-89 0 -135 45.5t-46 112.5q0 35 9 62
t32 51t37.5 35.5t49.5 36.5q32 23 49.5 38t35 41t22.5 56l7 44h74zM308 603q26 0 45 -18.5t19 -45.5t-18.5 -45.5t-44.5 -18.5q-27 0 -46 18.5t-19 45.5t19 45.5t45 18.5z" />
    <glyph glyph-name="Agrave" unicode="&#xc0;" horiz-adv-x="650" 
d="M500 0l-37 206h-295l-102 -206h-84l359 715h114l129 -715h-84zM384 643l-182 -368h248zM379 771l-80 127h101l39 -127h-60z" />
    <glyph glyph-name="Aacute" unicode="&#xc1;" horiz-adv-x="650" 
d="M500 0l-37 206h-295l-102 -206h-84l359 715h114l129 -715h-84zM384 643l-182 -368h248zM364 771l68 127h106l-108 -127h-66z" />
    <glyph glyph-name="Acircumflex" unicode="&#xc2;" horiz-adv-x="650" 
d="M500 0l-37 206h-295l-102 -206h-84l359 715h114l129 -715h-84zM384 643l-182 -368h248zM251 771l124 127h75l91 -127h-58l-77 58l-93 -58h-62z" />
    <glyph glyph-name="Atilde" unicode="&#xc3;" horiz-adv-x="650" 
d="M500 0l-37 206h-295l-102 -206h-84l359 715h114l129 -715h-84zM384 643l-182 -368h248zM465 774q-26 0 -62.5 21.5t-48.5 21.5q-15 0 -28 -12.5t-18 -32.5h-60q10 54 39 85t68 31q25 0 61.5 -21.5t48.5 -21.5q15 0 27.5 12t17.5 33h60q-10 -54 -38.5 -85t-66.5 -31z" />
    <glyph glyph-name="Adieresis" unicode="&#xc4;" horiz-adv-x="650" 
d="M500 0l-37 206h-295l-102 -206h-84l359 715h114l129 -715h-84zM384 643l-182 -368h248zM305 789q-22 0 -37.5 15t-15.5 37t16 38t38 16t37 -15t15 -37t-15.5 -38t-37.5 -16zM508 789q-22 0 -37.5 15t-15.5 37t16 38t38 16t37 -15t15 -37t-15.5 -38t-37.5 -16z" />
    <glyph glyph-name="Aring" unicode="&#xc5;" horiz-adv-x="650" 
d="M500 0l-37 206h-295l-102 -206h-84l359 715h114l129 -715h-84zM384 643l-182 -368h248zM405 759q-44 0 -74.5 29.5t-30.5 72.5q0 44 32 75t77 31q44 0 74.5 -29.5t30.5 -72.5q0 -44 -32 -75t-77 -31zM405 805q23 0 39 17t16 43q0 25 -14 40.5t-37 15.5t-39 -17t-16 -43
q0 -25 14 -40.5t37 -15.5z" />
    <glyph glyph-name="AE" unicode="&#xc6;" horiz-adv-x="950" 
d="M-13 0l466 715h505l-12 -71h-326l-38 -243h266l-11 -71h-266l-41 -259h348l-11 -71h-435l32 207h-253l-133 -207h-91zM493 644l-238 -369h220l58 369h-40z" />
    <glyph glyph-name="Ccedilla" unicode="&#xc7;" horiz-adv-x="728" 
d="M302 -214q-41 0 -68 21.5t-31 62.5h56q4 -36 42 -36q40 0 40 38q0 15 -10 23.5t-25 8.5q-14 0 -26 -8l-27 30l55 72q-113 21 -176.5 102t-63.5 204q0 178 107 300t273 122q112 0 185.5 -61t80.5 -173h-82q-26 165 -188 165q-131 0 -208.5 -100.5t-77.5 -252.5
q0 -117 58 -180t171 -63q84 0 141 47t83 129h83q-28 -113 -111.5 -179.5t-196.5 -66.5q-15 0 -29 1l-34 -45q32 3 56.5 -16.5t24.5 -55.5q0 -43 -27.5 -66t-74.5 -23z" />
    <glyph glyph-name="Egrave" unicode="&#xc8;" horiz-adv-x="572" 
d="M48 0l113 715h413l-12 -71h-326l-38 -243h266l-11 -71h-266l-41 -259h348l-11 -71h-435zM361 771l-80 127h101l39 -127h-60z" />
    <glyph glyph-name="Eacute" unicode="&#xc9;" horiz-adv-x="572" 
d="M48 0l113 715h413l-12 -71h-326l-38 -243h266l-11 -71h-266l-41 -259h348l-11 -71h-435zM333 771l68 127h106l-108 -127h-66z" />
    <glyph glyph-name="Ecircumflex" unicode="&#xca;" horiz-adv-x="572" 
d="M48 0l113 715h413l-12 -71h-326l-38 -243h266l-11 -71h-266l-41 -259h348l-11 -71h-435zM222 771l124 127h75l91 -127h-58l-77 58l-93 -58h-62z" />
    <glyph glyph-name="Edieresis" unicode="&#xcb;" horiz-adv-x="572" 
d="M48 0l113 715h413l-12 -71h-326l-38 -243h266l-11 -71h-266l-41 -259h348l-11 -71h-435zM278 789q-22 0 -37.5 15t-15.5 37t16 38t38 16t37 -15t15 -37t-15.5 -38t-37.5 -16zM481 789q-22 0 -37.5 15t-15.5 37t16 38t38 16t37 -15t15 -37t-15.5 -38t-37.5 -16z" />
    <glyph glyph-name="Igrave" unicode="&#xcc;" horiz-adv-x="279" 
d="M53 0l113 715h87l-113 -715h-87zM194 771l-80 127h101l39 -127h-60z" />
    <glyph glyph-name="Iacute" unicode="&#xcd;" horiz-adv-x="279" 
d="M53 0l113 715h87l-113 -715h-87zM179 771l68 127h106l-108 -127h-66z" />
    <glyph glyph-name="Icircumflex" unicode="&#xce;" horiz-adv-x="279" 
d="M53 0l113 715h87l-113 -715h-87zM68 771l124 127h75l91 -127h-58l-77 58l-93 -58h-62z" />
    <glyph glyph-name="Idieresis" unicode="&#xcf;" horiz-adv-x="279" 
d="M53 0l113 715h87l-113 -715h-87zM127 789q-22 0 -37.5 15t-15.5 37t16 38t38 16t37 -15t15 -37t-15.5 -38t-37.5 -16zM330 789q-22 0 -37.5 15t-15.5 37t16 38t38 16t37 -15t15 -37t-15.5 -38t-37.5 -16z" />
    <glyph glyph-name="Eth" unicode="&#xd0;" horiz-adv-x="718" 
d="M43 325l11 67h76l51 323h174q169 0 251 -83t83 -222q0 -178 -109 -294t-303 -116h-209l51 325h-76zM166 71h108q154 0 240 89.5t86 248.5q0 109 -60 172.5t-189 63.5h-94l-40 -253h207l-11 -67h-207z" />
    <glyph glyph-name="Ntilde" unicode="&#xd1;" horiz-adv-x="724" 
d="M48 0l113 715h111l256 -591l94 591h83l-113 -715h-98l-266 613l-97 -613h-83zM514 774q-26 0 -62.5 21.5t-48.5 21.5q-15 0 -28 -12.5t-18 -32.5h-60q10 54 39 85t68 31q25 0 61.5 -21.5t48.5 -21.5q15 0 27.5 12t17.5 33h60q-10 -54 -38.5 -85t-66.5 -31z" />
    <glyph glyph-name="Ograve" unicode="&#xd2;" horiz-adv-x="811" 
d="M773 402q0 -176 -109.5 -293.5t-268.5 -117.5q-147 0 -237 90.5t-90 230.5q0 172 111 292t273 120q149 0 235 -92.5t86 -229.5zM683 402q0 109 -61.5 180.5t-170.5 71.5q-131 0 -212 -99.5t-81 -242.5q0 -115 66 -182.5t172 -67.5q127 0 207 96.5t80 243.5zM446 771
l-80 127h101l39 -127h-60z" />
    <glyph glyph-name="Oacute" unicode="&#xd3;" horiz-adv-x="811" 
d="M773 402q0 -176 -109.5 -293.5t-268.5 -117.5q-147 0 -237 90.5t-90 230.5q0 172 111 292t273 120q149 0 235 -92.5t86 -229.5zM683 402q0 109 -61.5 180.5t-170.5 71.5q-131 0 -212 -99.5t-81 -242.5q0 -115 66 -182.5t172 -67.5q127 0 207 96.5t80 243.5zM434 771
l68 127h106l-108 -127h-66z" />
    <glyph glyph-name="Ocircumflex" unicode="&#xd4;" horiz-adv-x="811" 
d="M773 402q0 -176 -109.5 -293.5t-268.5 -117.5q-147 0 -237 90.5t-90 230.5q0 172 111 292t273 120q149 0 235 -92.5t86 -229.5zM683 402q0 109 -61.5 180.5t-170.5 71.5q-131 0 -212 -99.5t-81 -242.5q0 -115 66 -182.5t172 -67.5q127 0 207 96.5t80 243.5zM330 771
l124 127h75l91 -127h-58l-77 58l-93 -58h-62z" />
    <glyph glyph-name="Otilde" unicode="&#xd5;" horiz-adv-x="811" 
d="M773 402q0 -176 -109.5 -293.5t-268.5 -117.5q-147 0 -237 90.5t-90 230.5q0 172 111 292t273 120q149 0 235 -92.5t86 -229.5zM683 402q0 109 -61.5 180.5t-170.5 71.5q-131 0 -212 -99.5t-81 -242.5q0 -115 66 -182.5t172 -67.5q127 0 207 96.5t80 243.5zM535 774
q-26 0 -62.5 21.5t-48.5 21.5q-15 0 -28 -12.5t-18 -32.5h-60q10 54 39 85t68 31q25 0 61.5 -21.5t48.5 -21.5q15 0 27.5 12t17.5 33h60q-10 -54 -38.5 -85t-66.5 -31z" />
    <glyph glyph-name="Odieresis" unicode="&#xd6;" horiz-adv-x="811" 
d="M773 402q0 -176 -109.5 -293.5t-268.5 -117.5q-147 0 -237 90.5t-90 230.5q0 172 111 292t273 120q149 0 235 -92.5t86 -229.5zM683 402q0 109 -61.5 180.5t-170.5 71.5q-131 0 -212 -99.5t-81 -242.5q0 -115 66 -182.5t172 -67.5q127 0 207 96.5t80 243.5zM378 789
q-22 0 -37.5 15t-15.5 37t16 38t38 16t37 -15t15 -37t-15.5 -38t-37.5 -16zM581 789q-22 0 -37.5 15t-15.5 37t16 38t38 16t37 -15t15 -37t-15.5 -38t-37.5 -16z" />
    <glyph glyph-name="multiply" unicode="&#xd7;" horiz-adv-x="469" 
d="M67 131l-43 50l172 154l-132 153l50 47l134 -154l172 154l45 -50l-174 -155l134 -153l-52 -46l-133 153z" />
    <glyph glyph-name="Oslash" unicode="&#xd8;" horiz-adv-x="811" 
d="M73 -33l-43 45l100 102q-62 84 -62 198q0 172 111 292t273 120q123 0 207 -68l84 86l43 -45l-83 -84q70 -87 70 -211q0 -176 -109.5 -293.5t-268.5 -117.5q-135 0 -223 77zM683 402q0 89 -38 151l-419 -429q64 -62 170 -62q127 0 207 96.5t80 243.5zM158 312
q0 -81 31 -138l417 427q-61 53 -155 53q-131 0 -212 -99.5t-81 -242.5z" />
    <glyph glyph-name="Ugrave" unicode="&#xd9;" horiz-adv-x="696" 
d="M325 -9q-137 0 -199.5 74.5t-39.5 217.5l69 432h87l-69 -433q-18 -117 20.5 -168t135.5 -51q83 0 130.5 46.5t64.5 151.5l72 454h87l-74 -466q-20 -122 -90 -190t-194 -68zM398 771l-80 127h101l39 -127h-60z" />
    <glyph glyph-name="Uacute" unicode="&#xda;" horiz-adv-x="696" 
d="M325 -9q-137 0 -199.5 74.5t-39.5 217.5l69 432h87l-69 -433q-18 -117 20.5 -168t135.5 -51q83 0 130.5 46.5t64.5 151.5l72 454h87l-74 -466q-20 -122 -90 -190t-194 -68zM383 771l68 127h106l-108 -127h-66z" />
    <glyph glyph-name="Ucircumflex" unicode="&#xdb;" horiz-adv-x="696" 
d="M325 -9q-137 0 -199.5 74.5t-39.5 217.5l69 432h87l-69 -433q-18 -117 20.5 -168t135.5 -51q83 0 130.5 46.5t64.5 151.5l72 454h87l-74 -466q-20 -122 -90 -190t-194 -68zM272 771l124 127h75l91 -127h-58l-77 58l-93 -58h-62z" />
    <glyph glyph-name="Udieresis" unicode="&#xdc;" horiz-adv-x="696" 
d="M325 -9q-137 0 -199.5 74.5t-39.5 217.5l69 432h87l-69 -433q-18 -117 20.5 -168t135.5 -51q83 0 130.5 46.5t64.5 151.5l72 454h87l-74 -466q-20 -122 -90 -190t-194 -68zM331 789q-22 0 -37.5 15t-15.5 37t16 38t38 16t37 -15t15 -37t-15.5 -38t-37.5 -16zM534 789
q-22 0 -37.5 15t-15.5 37t16 38t38 16t37 -15t15 -37t-15.5 -38t-37.5 -16z" />
    <glyph glyph-name="Yacute" unicode="&#xdd;" horiz-adv-x="592" 
d="M217 0l49 312l-175 403h93l138 -332l232 332h89l-291 -410l-48 -305h-87zM333 771l68 127h106l-108 -127h-66z" />
    <glyph glyph-name="Thorn" unicode="&#xde;" horiz-adv-x="581" 
d="M248 715l-21 -134h114q100 0 160.5 -47t59.5 -135q0 -81 -40 -135.5t-98.5 -76.5t-129.5 -22h-132l-26 -165h-87l113 715h87zM332 511h-116l-44 -277h126q86 0 131.5 42.5t45.5 121.5q1 58 -34.5 85.5t-108.5 27.5z" />
    <glyph glyph-name="germandbls" unicode="&#xdf;" horiz-adv-x="593" 
d="M315 -9q-64 0 -112 25l11 67q46 -24 97 -24q69 0 107 47.5t38 122.5q0 77 -45.5 120.5t-126.5 43.5l12 70q74 0 122 33.5t48 105.5q0 51 -30.5 78.5t-84.5 27.5q-55 0 -90 -35.5t-45 -97.5l-91 -575h-83l91 580q14 90 75 142.5t145 52.5q79 0 135.5 -46t56.5 -128
q0 -64 -39 -109.5t-106 -65.5q67 -22 104.5 -75t37.5 -126q0 -107 -61.5 -170.5t-165.5 -63.5z" />
    <glyph glyph-name="agrave" unicode="&#xe0;" horiz-adv-x="538" 
d="M197 -8q-79 0 -124 40t-45 108q0 167 254 167h101l6 38q10 61 -13 89.5t-85 28.5q-105 0 -125 -94h-83q11 59 47 97t77 52t87 14q94 0 143.5 -47t33.5 -147l-29 -182q-16 -97 -9 -156h-78q-5 42 -1 83q-56 -91 -157 -91zM208 57q61 0 103.5 34t52.5 100l9 57h-89
q-90 0 -132 -24.5t-42 -83.5q0 -37 25 -60t73 -23zM282 613l-88 147h102l47 -147h-61z" />
    <glyph glyph-name="aacute" unicode="&#xe1;" horiz-adv-x="538" 
d="M197 -8q-79 0 -124 40t-45 108q0 167 254 167h101l6 38q10 61 -13 89.5t-85 28.5q-105 0 -125 -94h-83q11 59 47 97t77 52t87 14q94 0 143.5 -47t33.5 -147l-29 -182q-16 -97 -9 -156h-78q-5 42 -1 83q-56 -91 -157 -91zM208 57q61 0 103.5 34t52.5 100l9 57h-89
q-90 0 -132 -24.5t-42 -83.5q0 -37 25 -60t73 -23zM269 613l79 147h108l-121 -147h-66z" />
    <glyph glyph-name="acircumflex" unicode="&#xe2;" horiz-adv-x="538" 
d="M197 -8q-79 0 -124 40t-45 108q0 167 254 167h101l6 38q10 61 -13 89.5t-85 28.5q-105 0 -125 -94h-83q11 59 47 97t77 52t87 14q94 0 143.5 -47t33.5 -147l-29 -182q-16 -97 -9 -156h-78q-5 42 -1 83q-56 -91 -157 -91zM208 57q61 0 103.5 34t52.5 100l9 57h-89
q-90 0 -132 -24.5t-42 -83.5q0 -37 25 -60t73 -23zM157 613l129 144h75l86 -144h-58l-74 75l-96 -75h-62z" />
    <glyph glyph-name="atilde" unicode="&#xe3;" horiz-adv-x="538" 
d="M197 -8q-79 0 -124 40t-45 108q0 167 254 167h101l6 38q10 61 -13 89.5t-85 28.5q-105 0 -125 -94h-83q11 59 47 97t77 52t87 14q94 0 143.5 -47t33.5 -147l-29 -182q-16 -97 -9 -156h-78q-5 42 -1 83q-56 -91 -157 -91zM208 57q61 0 103.5 34t52.5 100l9 57h-89
q-90 0 -132 -24.5t-42 -83.5q0 -37 25 -60t73 -23zM376 619q-26 0 -62.5 21.5t-48.5 21.5q-15 0 -28 -12.5t-18 -32.5h-60q10 54 39 85t68 31q25 0 61.5 -21.5t48.5 -21.5q15 0 27.5 12t17.5 33h60q-10 -54 -38.5 -85t-66.5 -31z" />
    <glyph glyph-name="adieresis" unicode="&#xe4;" horiz-adv-x="538" 
d="M197 -8q-79 0 -124 40t-45 108q0 167 254 167h101l6 38q10 61 -13 89.5t-85 28.5q-105 0 -125 -94h-83q11 59 47 97t77 52t87 14q94 0 143.5 -47t33.5 -147l-29 -182q-16 -97 -9 -156h-78q-5 42 -1 83q-56 -91 -157 -91zM208 57q61 0 103.5 34t52.5 100l9 57h-89
q-90 0 -132 -24.5t-42 -83.5q0 -37 25 -60t73 -23zM223 634q-22 0 -37.5 15t-15.5 37t16 38t38 16t37 -15t15 -37t-15.5 -38t-37.5 -16zM411 634q-22 0 -37.5 15t-15.5 37t16 38t38 16t37 -15t15 -37t-15.5 -38t-37.5 -16z" />
    <glyph glyph-name="aring" unicode="&#xe5;" horiz-adv-x="538" 
d="M197 -8q-79 0 -124 40t-45 108q0 167 254 167h101l6 38q10 61 -13 89.5t-85 28.5q-105 0 -125 -94h-83q11 59 47 97t77 52t87 14q94 0 143.5 -47t33.5 -147l-29 -182q-16 -97 -9 -156h-78q-5 42 -1 83q-56 -91 -157 -91zM208 57q61 0 103.5 34t52.5 100l9 57h-89
q-90 0 -132 -24.5t-42 -83.5q0 -37 25 -60t73 -23zM324 644q23 0 39 17t16 43q0 25 -14 40.5t-37 15.5t-39 -17t-16 -43q0 -25 14 -40.5t37 -15.5zM324 598q-44 0 -74.5 29.5t-30.5 72.5q0 44 32 75t77 31q44 0 74.5 -29.5t30.5 -72.5q0 -44 -32 -75t-77 -31z" />
    <glyph glyph-name="ae" unicode="&#xe6;" horiz-adv-x="875" 
d="M458 211q0 -151 138 -151q109 0 139 91h81q-23 -79 -82 -119.5t-141 -40.5q-145 0 -196 118q-30 -56 -81.5 -86.5t-116.5 -30.5q-82 0 -126.5 37.5t-44.5 104.5q0 62 37 102.5t93 57t129 16.5h97l6 35q10 61 -13.5 89.5t-85.5 28.5q-105 0 -125 -94h-83q11 59 47 97
t77 52t87 14q131 0 163 -86q74 85 183 85q110 0 163 -68t33 -199l-3 -17h-374q-1 -12 -1 -36zM206 57q63 0 106 34t53 100l9 56h-90q-89 0 -131.5 -25.5t-42.5 -84.5q0 -36 24.5 -58t71.5 -22zM635 463q-60 0 -104.5 -37.5t-62.5 -115.5h291q6 79 -23.5 116t-100.5 37z" />
    <glyph glyph-name="ccedilla" unicode="&#xe7;" horiz-adv-x="554" 
d="M209 -214q-41 0 -68 21.5t-31 62.5h56q4 -36 42 -36q40 0 40 38q0 15 -10 23.5t-25 8.5q-14 0 -26 -8l-27 30l56 73q-85 17 -131 78.5t-46 152.5q0 139 79.5 220t191.5 81q91 0 149 -46.5t63 -137.5h-79q-7 64 -42 89.5t-95 25.5q-81 0 -131.5 -61t-50.5 -171
q0 -83 40.5 -126.5t120.5 -43.5q57 0 99 33.5t52 92.5h78q-16 -91 -79 -142.5t-152 -51.5h-20l-33 -45q32 3 56.5 -16.5t24.5 -55.5q0 -43 -27.5 -66t-74.5 -23z" />
    <glyph glyph-name="egrave" unicode="&#xe8;" horiz-adv-x="553" 
d="M123 211q0 -151 144 -151q114 0 144 91h83q-23 -78 -85 -119t-145 -41q-105 0 -165.5 62t-60.5 162q0 138 78 227t195 89q111 0 167 -68.5t36 -198.5l-3 -19h-387q-1 -11 -1 -34zM306 463q-60 0 -107 -37.5t-65 -113.5h303q6 78 -26.5 114.5t-104.5 36.5zM294 613
l-88 147h102l47 -147h-61z" />
    <glyph glyph-name="eacute" unicode="&#xe9;" horiz-adv-x="553" 
d="M123 211q0 -151 144 -151q114 0 144 91h83q-23 -78 -85 -119t-145 -41q-105 0 -165.5 62t-60.5 162q0 138 78 227t195 89q111 0 167 -68.5t36 -198.5l-3 -19h-387q-1 -11 -1 -34zM306 463q-60 0 -107 -37.5t-65 -113.5h303q6 78 -26.5 114.5t-104.5 36.5zM281 613l79 147
h108l-121 -147h-66z" />
    <glyph glyph-name="ecircumflex" unicode="&#xea;" horiz-adv-x="553" 
d="M123 211q0 -151 144 -151q114 0 144 91h83q-23 -78 -85 -119t-145 -41q-105 0 -165.5 62t-60.5 162q0 138 78 227t195 89q111 0 167 -68.5t36 -198.5l-3 -19h-387q-1 -11 -1 -34zM306 463q-60 0 -107 -37.5t-65 -113.5h303q6 78 -26.5 114.5t-104.5 36.5zM169 613
l129 144h75l86 -144h-58l-74 75l-96 -75h-62z" />
    <glyph glyph-name="edieresis" unicode="&#xeb;" horiz-adv-x="553" 
d="M123 211q0 -151 144 -151q114 0 144 91h83q-23 -78 -85 -119t-145 -41q-105 0 -165.5 62t-60.5 162q0 138 78 227t195 89q111 0 167 -68.5t36 -198.5l-3 -19h-387q-1 -11 -1 -34zM306 463q-60 0 -107 -37.5t-65 -113.5h303q6 78 -26.5 114.5t-104.5 36.5zM241 634
q-22 0 -37.5 15t-15.5 37t16 38t38 16t37 -15t15 -37t-15.5 -38t-37.5 -16zM429 634q-22 0 -37.5 15t-15.5 37t16 38t38 16t37 -15t15 -37t-15.5 -38t-37.5 -16z" />
    <glyph glyph-name="igrave" unicode="&#xec;" horiz-adv-x="255" 
d="M44 0l83 523h83l-83 -523h-83zM153 613l-88 147h102l47 -147h-61z" />
    <glyph glyph-name="iacute" unicode="&#xed;" horiz-adv-x="255" 
d="M44 0l83 523h83l-83 -523h-83zM140 613l79 147h108l-121 -147h-66z" />
    <glyph glyph-name="icircumflex" unicode="&#xee;" horiz-adv-x="255" 
d="M44 0l83 523h83l-83 -523h-83zM28 613l129 144h75l86 -144h-58l-74 75l-96 -75h-62z" />
    <glyph glyph-name="idieresis" unicode="&#xef;" horiz-adv-x="255" 
d="M105 634q-22 0 -37.5 15t-15.5 37t16 38t38 16t37 -15t15 -37t-15.5 -38t-37.5 -16zM283 634q-22 0 -37.5 15t-15.5 37t16 38t38 16t37 -15t15 -37t-15.5 -38t-37.5 -16zM44 0l83 523h83l-83 -523h-83z" />
    <glyph glyph-name="eth" unicode="&#xf0;" horiz-adv-x="592" 
d="M227 574l-26 45l109 59q-45 45 -115 95h106q37 -22 77 -59l93 51l26 -46l-82 -44q135 -155 135 -345q0 -148 -75.5 -243.5t-206.5 -95.5q-102 0 -166 64.5t-64 169.5q0 121 75 214t191 93q101 0 150 -80q-40 107 -107 186zM124 222q0 -70 36 -116t110 -46q89 0 141 69.5
t52 169.5q0 70 -37 117t-113 47q-87 0 -138 -70.5t-51 -170.5z" />
    <glyph glyph-name="ntilde" unicode="&#xf1;" horiz-adv-x="592" 
d="M42 0l58 367q12 79 14 156h78q0 -51 -6 -104q65 113 183 113q87 0 128.5 -53t23.5 -166l-50 -313h-83l53 332q21 129 -90 129q-67 0 -116.5 -42t-61.5 -115l-48 -304h-83zM409 619q-26 0 -62.5 21.5t-48.5 21.5q-15 0 -28 -12.5t-18 -32.5h-60q10 54 39 85t68 31
q25 0 61.5 -21.5t48.5 -21.5q15 0 27.5 12t17.5 33h60q-10 -54 -38.5 -85t-66.5 -31z" />
    <glyph glyph-name="ograve" unicode="&#xf2;" horiz-adv-x="589" 
d="M271 -8q-107 0 -170 65t-63 167q0 131 80 219t198 88q107 0 170.5 -63.5t63.5 -166.5q0 -134 -78.5 -221.5t-200.5 -87.5zM275 60q87 0 137.5 67t50.5 172q0 76 -39 120t-113 44q-83 0 -135 -68t-52 -171q0 -76 38 -120t113 -44zM307 613l-88 147h102l47 -147h-61z" />
    <glyph glyph-name="oacute" unicode="&#xf3;" horiz-adv-x="589" 
d="M271 -8q-107 0 -170 65t-63 167q0 131 80 219t198 88q107 0 170.5 -63.5t63.5 -166.5q0 -134 -78.5 -221.5t-200.5 -87.5zM275 60q87 0 137.5 67t50.5 172q0 76 -39 120t-113 44q-83 0 -135 -68t-52 -171q0 -76 38 -120t113 -44zM294 613l79 147h108l-121 -147h-66z" />
    <glyph glyph-name="ocircumflex" unicode="&#xf4;" horiz-adv-x="589" 
d="M271 -8q-107 0 -170 65t-63 167q0 131 80 219t198 88q107 0 170.5 -63.5t63.5 -166.5q0 -134 -78.5 -221.5t-200.5 -87.5zM275 60q87 0 137.5 67t50.5 172q0 76 -39 120t-113 44q-83 0 -135 -68t-52 -171q0 -76 38 -120t113 -44zM182 613l129 144h75l86 -144h-58l-74 75
l-96 -75h-62z" />
    <glyph glyph-name="otilde" unicode="&#xf5;" horiz-adv-x="589" 
d="M271 -8q-107 0 -170 65t-63 167q0 131 80 219t198 88q107 0 170.5 -63.5t63.5 -166.5q0 -134 -78.5 -221.5t-200.5 -87.5zM275 60q87 0 137.5 67t50.5 172q0 76 -39 120t-113 44q-83 0 -135 -68t-52 -171q0 -76 38 -120t113 -44zM396 619q-26 0 -62.5 21.5t-48.5 21.5
q-15 0 -28 -12.5t-18 -32.5h-60q10 54 39 85t68 31q25 0 61.5 -21.5t48.5 -21.5q15 0 27.5 12t17.5 33h60q-10 -54 -38.5 -85t-66.5 -31z" />
    <glyph glyph-name="odieresis" unicode="&#xf6;" horiz-adv-x="589" 
d="M271 -8q-107 0 -170 65t-63 167q0 131 80 219t198 88q107 0 170.5 -63.5t63.5 -166.5q0 -134 -78.5 -221.5t-200.5 -87.5zM275 60q87 0 137.5 67t50.5 172q0 76 -39 120t-113 44q-83 0 -135 -68t-52 -171q0 -76 38 -120t113 -44zM246 634q-22 0 -37.5 15t-15.5 37t16 38
t38 16t37 -15t15 -37t-15.5 -38t-37.5 -16zM434 634q-22 0 -37.5 15t-15.5 37t16 38t38 16t37 -15t15 -37t-15.5 -38t-37.5 -16z" />
    <glyph glyph-name="divide" unicode="&#xf7;" horiz-adv-x="519" 
d="M42 307l11 70h447l-11 -70h-447zM247 89q-26 0 -45 18.5t-19 45.5t19 45.5t45 18.5t45 -18.5t19 -45.5t-19 -45.5t-45 -18.5zM295 467q-26 0 -45 18.5t-19 45.5t19 45.5t45 18.5t45 -18.5t19 -45.5t-19 -45.5t-45 -18.5z" />
    <glyph glyph-name="oslash" unicode="&#xf8;" horiz-adv-x="589" 
d="M51 -37l-40 38l72 77q-45 61 -45 146q0 131 80 219t198 88q88 0 149 -47l67 72l41 -38l-69 -73q46 -58 46 -144q0 -134 -78.5 -221.5t-200.5 -87.5q-88 0 -149 47zM275 60q87 0 137.5 67t50.5 172q0 50 -16 85l-275 -293q37 -31 103 -31zM124 224q0 -53 15 -87l275 293
q-38 33 -103 33q-83 0 -135 -68t-52 -171z" />
    <glyph glyph-name="ugrave" unicode="&#xf9;" horiz-adv-x="588" 
d="M545 523l-58 -367q-14 -91 -11 -156h-79q-3 47 5 104q-66 -113 -182 -113q-85 0 -126 54.5t-24 164.5l50 313h83l-53 -332q-20 -129 88 -129q67 0 115.5 42t60.5 115l48 304h83zM319 613l-88 147h102l47 -147h-61z" />
    <glyph glyph-name="uacute" unicode="&#xfa;" horiz-adv-x="588" 
d="M545 523l-58 -367q-14 -91 -11 -156h-79q-3 47 5 104q-66 -113 -182 -113q-85 0 -126 54.5t-24 164.5l50 313h83l-53 -332q-20 -129 88 -129q67 0 115.5 42t60.5 115l48 304h83zM300 613l79 147h108l-121 -147h-66z" />
    <glyph glyph-name="ucircumflex" unicode="&#xfb;" horiz-adv-x="588" 
d="M545 523l-58 -367q-14 -91 -11 -156h-79q-3 47 5 104q-66 -113 -182 -113q-85 0 -126 54.5t-24 164.5l50 313h83l-53 -332q-20 -129 88 -129q67 0 115.5 42t60.5 115l48 304h83zM194 613l129 144h75l86 -144h-58l-74 75l-96 -75h-62z" />
    <glyph glyph-name="udieresis" unicode="&#xfc;" horiz-adv-x="588" 
d="M545 523l-58 -367q-14 -91 -11 -156h-79q-3 47 5 104q-66 -113 -182 -113q-85 0 -126 54.5t-24 164.5l50 313h83l-53 -332q-20 -129 88 -129q67 0 115.5 42t60.5 115l48 304h83zM256 634q-22 0 -37.5 15t-15.5 37t16 38t38 16t37 -15t15 -37t-15.5 -38t-37.5 -16z
M444 634q-22 0 -37.5 15t-15.5 37t16 38t38 16t37 -15t15 -37t-15.5 -38t-37.5 -16z" />
    <glyph glyph-name="yacute" unicode="&#xfd;" horiz-adv-x="505" 
d="M44 -182l140 241l-124 464h85l94 -375l199 375h89l-395 -705h-88zM263 613l79 147h108l-121 -147h-66z" />
    <glyph glyph-name="thorn" unicode="&#xfe;" horiz-adv-x="631" 
d="M13 -182l151 955h83l-54 -342q27 45 76.5 73t106.5 28q93 0 151.5 -63t58.5 -167q0 -131 -71 -221t-190 -90q-73 0 -118.5 31t-65.5 76l-45 -280h-83zM320 59q83 0 130.5 66.5t47.5 171.5q0 80 -37 123.5t-101 43.5q-87 0 -144 -66t-57 -176q0 -76 43.5 -119.5
t117.5 -43.5z" />
    <glyph glyph-name="ydieresis" unicode="&#xff;" horiz-adv-x="505" 
d="M44 -182l140 241l-124 464h85l94 -375l199 375h89l-395 -705h-88zM223 634q-22 0 -37.5 15t-15.5 37t16 38t38 16t37 -15t15 -37t-15.5 -38t-37.5 -16zM411 634q-22 0 -37.5 15t-15.5 37t16 38t38 16t37 -15t15 -37t-15.5 -38t-37.5 -16z" />
    <glyph glyph-name="Amacron" unicode="&#x100;" horiz-adv-x="650" 
d="M500 0l-37 206h-295l-102 -206h-84l359 715h114l129 -715h-84zM384 643l-182 -368h248zM273 786l10 64h266l-10 -64h-266z" />
    <glyph glyph-name="amacron" unicode="&#x101;" horiz-adv-x="538" 
d="M197 -8q-79 0 -124 40t-45 108q0 167 254 167h101l6 38q10 61 -13 89.5t-85 28.5q-105 0 -125 -94h-83q11 59 47 97t77 52t87 14q94 0 143.5 -47t33.5 -147l-29 -182q-16 -97 -9 -156h-78q-5 42 -1 83q-56 -91 -157 -91zM208 57q61 0 103.5 34t52.5 100l9 57h-89
q-90 0 -132 -24.5t-42 -83.5q0 -37 25 -60t73 -23zM186 648l10 64h262l-10 -64h-262z" />
    <glyph glyph-name="Abreve" unicode="&#x102;" horiz-adv-x="650" 
d="M500 0l-37 206h-295l-102 -206h-84l359 715h114l129 -715h-84zM384 643l-182 -368h248zM406 767q-56 0 -93 36.5t-37 95.5h66q8 -64 65 -64q61 0 73 64h64q-4 -58 -44.5 -95t-93.5 -37z" />
    <glyph glyph-name="abreve" unicode="&#x103;" horiz-adv-x="538" 
d="M197 -8q-79 0 -124 40t-45 108q0 167 254 167h101l6 38q10 61 -13 89.5t-85 28.5q-105 0 -125 -94h-83q11 59 47 97t77 52t87 14q94 0 143.5 -47t33.5 -147l-29 -182q-16 -97 -9 -156h-78q-5 42 -1 83q-56 -91 -157 -91zM208 57q61 0 103.5 34t52.5 100l9 57h-89
q-90 0 -132 -24.5t-42 -83.5q0 -37 25 -60t73 -23zM315 619q-56 0 -93 36.5t-37 95.5h66q8 -64 65 -64q61 0 73 64h64q-4 -58 -44.5 -95t-93.5 -37z" />
    <glyph glyph-name="Aogonek" unicode="&#x104;" horiz-adv-x="650" 
d="M418 -101q0 58 82 99l-37 208h-295l-102 -206h-84l359 715h114l129 -715q-2 -1 -12.5 -7.5t-14.5 -8.5t-13.5 -8.5t-14 -11l-11.5 -11.5t-10.5 -13t-6 -14.5t-2.5 -16.5q0 -31 37 -31q25 0 48 10l-9 -59q-29 -11 -58 -11q-43 0 -71.5 20t-27.5 61zM384 643l-182 -368h248
z" />
    <glyph glyph-name="aogonek" unicode="&#x105;" horiz-adv-x="538" 
d="M370 -182q-43 0 -71.5 20t-27.5 61q0 58 84 101q-5 42 -1 83q-56 -91 -157 -91q-79 0 -124 40t-45 108q0 167 254 167h101l6 38q10 61 -13 89.5t-85 28.5q-105 0 -125 -94h-83q11 59 47 97t77 52t87 14q94 0 143.5 -47t33.5 -147l-29 -182q-16 -97 -9 -156
q-2 -1 -15.5 -9.5t-19 -12.5t-16.5 -13t-16 -16.5t-9.5 -18t-4.5 -21.5q0 -31 37 -31q25 0 48 10l-9 -59q-29 -11 -58 -11zM208 57q61 0 103.5 34t52.5 100l9 57h-89q-90 0 -132 -24.5t-42 -83.5q0 -37 25 -60t73 -23z" />
    <glyph glyph-name="Cacute" unicode="&#x106;" horiz-adv-x="728" 
d="M386 -9q-147 0 -232.5 85t-85.5 228q0 178 107 300t273 122q112 0 185.5 -61t80.5 -173h-82q-26 165 -188 165q-131 0 -208.5 -100.5t-77.5 -252.5q0 -117 58 -180t171 -63q84 0 141 47t83 129h83q-28 -113 -111.5 -179.5t-196.5 -66.5zM421 771l68 127h106l-108 -127
h-66z" />
    <glyph glyph-name="cacute" unicode="&#x107;" horiz-adv-x="554" 
d="M283 -8q-115 0 -179.5 65.5t-64.5 172.5q0 139 79.5 220t191.5 81q91 0 149 -46.5t63 -137.5h-79q-7 64 -42 89.5t-95 25.5q-81 0 -131.5 -61t-50.5 -171q0 -83 40.5 -126.5t120.5 -43.5q57 0 99 33.5t52 92.5h78q-16 -91 -79 -142.5t-152 -51.5zM284 613l79 147h108
l-121 -147h-66z" />
    <glyph glyph-name="Ccircumflex" unicode="&#x108;" horiz-adv-x="728" 
d="M386 -9q-147 0 -232.5 85t-85.5 228q0 178 107 300t273 122q112 0 185.5 -61t80.5 -173h-82q-26 165 -188 165q-131 0 -208.5 -100.5t-77.5 -252.5q0 -117 58 -180t171 -63q84 0 141 47t83 129h83q-28 -113 -111.5 -179.5t-196.5 -66.5zM310 771l124 127h75l91 -127h-58
l-77 58l-93 -58h-62z" />
    <glyph glyph-name="ccircumflex" unicode="&#x109;" horiz-adv-x="554" 
d="M283 -8q-115 0 -179.5 65.5t-64.5 172.5q0 139 79.5 220t191.5 81q91 0 149 -46.5t63 -137.5h-79q-7 64 -42 89.5t-95 25.5q-81 0 -131.5 -61t-50.5 -171q0 -83 40.5 -126.5t120.5 -43.5q57 0 99 33.5t52 92.5h78q-16 -91 -79 -142.5t-152 -51.5zM172 613l129 144h75
l86 -144h-58l-74 75l-96 -75h-62z" />
    <glyph glyph-name="Cdotaccent" unicode="&#x10a;" horiz-adv-x="728" 
d="M386 -9q-147 0 -232.5 85t-85.5 228q0 178 107 300t273 122q112 0 185.5 -61t80.5 -173h-82q-26 165 -188 165q-131 0 -208.5 -100.5t-77.5 -252.5q0 -117 58 -180t171 -63q84 0 141 47t83 129h83q-28 -113 -111.5 -179.5t-196.5 -66.5zM463 787q-23 0 -39 16t-16 38
q0 23 17 39.5t39 16.5t38 -15.5t16 -38.5t-16.5 -39.5t-38.5 -16.5z" />
    <glyph glyph-name="cdotaccent" unicode="&#x10b;" horiz-adv-x="554" 
d="M283 -8q-115 0 -179.5 65.5t-64.5 172.5q0 139 79.5 220t191.5 81q91 0 149 -46.5t63 -137.5h-79q-7 64 -42 89.5t-95 25.5q-81 0 -131.5 -61t-50.5 -171q0 -83 40.5 -126.5t120.5 -43.5q57 0 99 33.5t52 92.5h78q-16 -91 -79 -142.5t-152 -51.5zM340 632q-23 0 -39 16
t-16 38t16.5 39t39.5 17t38.5 -16t15.5 -38q0 -23 -16.5 -39.5t-38.5 -16.5z" />
    <glyph glyph-name="Ccaron" unicode="&#x10c;" horiz-adv-x="728" 
d="M386 -9q-147 0 -232.5 85t-85.5 228q0 178 107 300t273 122q112 0 185.5 -61t80.5 -173h-82q-26 165 -188 165q-131 0 -208.5 -100.5t-77.5 -252.5q0 -117 58 -180t171 -63q84 0 141 47t83 129h83q-28 -113 -111.5 -179.5t-196.5 -66.5zM611 898l-124 -127h-75l-91 127
h58l77 -58l93 58h62z" />
    <glyph glyph-name="ccaron" unicode="&#x10d;" horiz-adv-x="554" 
d="M283 -8q-115 0 -179.5 65.5t-64.5 172.5q0 139 79.5 220t191.5 81q91 0 149 -46.5t63 -137.5h-79q-7 64 -42 89.5t-95 25.5q-81 0 -131.5 -61t-50.5 -171q0 -83 40.5 -126.5t120.5 -43.5q57 0 99 33.5t52 92.5h78q-16 -91 -79 -142.5t-152 -51.5zM484 757l-129 -144h-75
l-86 144h58l74 -75l96 75h62z" />
    <glyph glyph-name="Dcaron" unicode="&#x10e;" horiz-adv-x="698" 
d="M48 0l113 715h174q169 0 251 -83t83 -222q0 -178 -109 -294t-303 -116h-209zM146 71h108q154 0 240 89.5t86 248.5q0 109 -60 172.5t-189 63.5h-94zM540 898l-124 -127h-75l-91 127h58l77 -58l93 58h62z" />
    <glyph glyph-name="dcaron" unicode="&#x10f;" horiz-adv-x="622" 
d="M261 -9q-98 0 -159.5 63t-61.5 168q0 130 74.5 220t196.5 90q125 0 175 -104l54 345h83l-97 -617q-14 -91 -11 -156h-79q-3 43 4 95q-28 -48 -75.5 -76t-103.5 -28zM271 60q87 0 141.5 63t54.5 180q0 73 -42.5 116.5t-110.5 43.5q-87 0 -136.5 -66t-49.5 -171
q0 -78 38 -122t105 -44zM645 598l38 175h91l-70 -175h-59z" />
    <glyph glyph-name="Dcroat" unicode="&#x110;" horiz-adv-x="718" 
d="M43 325l11 67h76l51 323h174q169 0 251 -83t83 -222q0 -178 -109 -294t-303 -116h-209l51 325h-76zM166 71h108q154 0 240 89.5t86 248.5q0 109 -60 172.5t-189 63.5h-94l-40 -253h207l-11 -67h-207z" />
    <glyph glyph-name="dcroat" unicode="&#x111;" horiz-adv-x="622" 
d="M337 615l10 61h178l15 97h83l-16 -97h76l-10 -61h-75l-72 -459q-14 -91 -11 -156h-79q-3 43 4 95q-28 -48 -75.5 -76t-103.5 -28q-98 0 -159.5 63t-61.5 168q0 130 74.5 220t196.5 90q125 0 175 -104l29 187h-178zM314 463q-87 0 -136.5 -66t-49.5 -171q0 -80 37 -123
t106 -43q87 0 141.5 63.5t54.5 182.5q0 75 -41.5 116t-111.5 41z" />
    <glyph glyph-name="Emacron" unicode="&#x112;" horiz-adv-x="572" 
d="M48 0l113 715h413l-12 -71h-326l-38 -243h266l-11 -71h-266l-41 -259h348l-11 -71h-435zM242 786l10 64h266l-10 -64h-266z" />
    <glyph glyph-name="emacron" unicode="&#x113;" horiz-adv-x="553" 
d="M123 211q0 -151 144 -151q114 0 144 91h83q-23 -78 -85 -119t-145 -41q-105 0 -165.5 62t-60.5 162q0 138 78 227t195 89q111 0 167 -68.5t36 -198.5l-3 -19h-387q-1 -11 -1 -34zM306 463q-60 0 -107 -37.5t-65 -113.5h303q6 78 -26.5 114.5t-104.5 36.5zM198 648l10 64
h262l-10 -64h-262z" />
    <glyph glyph-name="Ebreve" unicode="&#x114;" horiz-adv-x="572" 
d="M48 0l113 715h413l-12 -71h-326l-38 -243h266l-11 -71h-266l-41 -259h348l-11 -71h-435zM375 767q-56 0 -93 36.5t-37 95.5h66q8 -64 65 -64q61 0 73 64h64q-4 -58 -44.5 -95t-93.5 -37z" />
    <glyph glyph-name="ebreve" unicode="&#x115;" horiz-adv-x="553" 
d="M123 211q0 -151 144 -151q114 0 144 91h83q-23 -78 -85 -119t-145 -41q-105 0 -165.5 62t-60.5 162q0 138 78 227t195 89q111 0 167 -68.5t36 -198.5l-3 -19h-387q-1 -11 -1 -34zM306 463q-60 0 -107 -37.5t-65 -113.5h303q6 78 -26.5 114.5t-104.5 36.5zM327 619
q-56 0 -93 36.5t-37 95.5h66q8 -64 65 -64q61 0 73 64h64q-4 -58 -44.5 -95t-93.5 -37z" />
    <glyph glyph-name="Edotaccent" unicode="&#x116;" horiz-adv-x="572" 
d="M48 0l113 715h413l-12 -71h-326l-38 -243h266l-11 -71h-266l-41 -259h348l-11 -71h-435zM379 787q-23 0 -39 16t-16 38q0 23 17 39.5t39 16.5t38 -15.5t16 -38.5t-16.5 -39.5t-38.5 -16.5z" />
    <glyph glyph-name="edotaccent" unicode="&#x117;" horiz-adv-x="553" 
d="M123 211q0 -151 144 -151q114 0 144 91h83q-23 -78 -85 -119t-145 -41q-105 0 -165.5 62t-60.5 162q0 138 78 227t195 89q111 0 167 -68.5t36 -198.5l-3 -19h-387q-1 -11 -1 -34zM306 463q-60 0 -107 -37.5t-65 -113.5h303q6 78 -26.5 114.5t-104.5 36.5zM337 632
q-23 0 -39 16t-16 38t17 39t39 17t38 -16t16 -38q0 -23 -16.5 -39.5t-38.5 -16.5z" />
    <glyph glyph-name="Eogonek" unicode="&#x118;" horiz-adv-x="572" 
d="M48 0l113 715h413l-12 -71h-326l-38 -243h266l-11 -71h-266l-41 -259h348l-11 -71h-31q-2 -1 -14 -8.5t-16.5 -10.5t-15 -10.5t-15.5 -13t-11.5 -14t-9 -17.5t-2.5 -19q0 -29 37 -29q25 0 48 10l-9 -59q-29 -11 -58 -11q-43 0 -71.5 19t-27.5 57q0 63 80 106h-319z" />
    <glyph glyph-name="eogonek" unicode="&#x119;" horiz-adv-x="553" 
d="M316 -182q-43 0 -71.5 20t-27.5 61q0 50 77 94q-20 -2 -30 -2q-105 0 -165.5 62t-60.5 162q0 138 78 227t195 89q111 0 167 -68.5t36 -198.5l-3 -19h-387q-1 -11 -1 -34q0 -151 144 -151q114 0 144 91h83q-18 -57 -56 -97q-16 -16 -54.5 -44t-62 -52t-23.5 -49
q0 -31 37 -31q25 0 48 10l-9 -59q-29 -11 -58 -11zM306 463q-60 0 -107 -37.5t-65 -113.5h303q6 78 -26.5 114.5t-104.5 36.5z" />
    <glyph glyph-name="Ecaron" unicode="&#x11a;" horiz-adv-x="572" 
d="M48 0l113 715h413l-12 -71h-326l-38 -243h266l-11 -71h-266l-41 -259h348l-11 -71h-435zM525 898l-124 -127h-75l-91 127h58l77 -58l93 58h62z" />
    <glyph glyph-name="ecaron" unicode="&#x11b;" horiz-adv-x="553" 
d="M123 211q0 -151 144 -151q114 0 144 91h83q-23 -78 -85 -119t-145 -41q-105 0 -165.5 62t-60.5 162q0 138 78 227t195 89q111 0 167 -68.5t36 -198.5l-3 -19h-387q-1 -11 -1 -34zM306 463q-60 0 -107 -37.5t-65 -113.5h303q6 78 -26.5 114.5t-104.5 36.5zM484 757
l-129 -144h-75l-86 144h58l74 -75l96 75h62z" />
    <glyph glyph-name="Gcircumflex" unicode="&#x11c;" horiz-adv-x="770" 
d="M394 -9q-152 0 -238.5 90.5t-86.5 232.5q0 170 107 290t267 120q115 0 193.5 -57.5t85.5 -167.5h-86q-7 78 -59.5 117t-135.5 39q-128 0 -205 -98t-77 -243q0 -117 61 -185t176 -68q103 0 162.5 61.5t76.5 166.5h-212l12 72h295q-32 -370 -336 -370zM302 771l124 127h75
l91 -127h-58l-77 58l-93 -58h-62z" />
    <glyph glyph-name="gcircumflex" unicode="&#x11d;" horiz-adv-x="623" 
d="M272 86q81 0 138 61.5t57 163.5q0 70 -43.5 111t-111.5 41q-81 0 -130.5 -63.5t-49.5 -153.5q0 -73 36.5 -116.5t103.5 -43.5zM584 523l-78 -497q-17 -107 -83.5 -161.5t-176.5 -54.5q-115 0 -169.5 46.5t-63.5 113.5h84q17 -90 147 -90q82 0 124 38t55 116l12 73
q-61 -88 -172 -88q-96 0 -157 62t-61 161q0 120 75.5 205t188.5 85q127 0 177 -104l15 95h83zM196 613l129 144h75l86 -144h-58l-74 75l-96 -75h-62z" />
    <glyph glyph-name="Gbreve" unicode="&#x11e;" horiz-adv-x="770" 
d="M394 -9q-152 0 -238.5 90.5t-86.5 232.5q0 170 107 290t267 120q115 0 193.5 -57.5t85.5 -167.5h-86q-7 78 -59.5 117t-135.5 39q-128 0 -205 -98t-77 -243q0 -117 61 -185t176 -68q103 0 162.5 61.5t76.5 166.5h-212l12 72h295q-32 -370 -336 -370zM455 767
q-56 0 -93 36.5t-37 95.5h66q8 -64 65 -64q61 0 73 64h64q-4 -58 -44.5 -95t-93.5 -37z" />
    <glyph glyph-name="gbreve" unicode="&#x11f;" horiz-adv-x="623" 
d="M272 86q81 0 138 61.5t57 163.5q0 70 -43.5 111t-111.5 41q-81 0 -130.5 -63.5t-49.5 -153.5q0 -73 36.5 -116.5t103.5 -43.5zM584 523l-78 -497q-17 -107 -83.5 -161.5t-176.5 -54.5q-115 0 -169.5 46.5t-63.5 113.5h84q17 -90 147 -90q82 0 124 38t55 116l12 73
q-61 -88 -172 -88q-96 0 -157 62t-61 161q0 120 75.5 205t188.5 85q127 0 177 -104l15 95h83zM354 619q-56 0 -93 36.5t-37 95.5h66q8 -64 65 -64q61 0 73 64h64q-4 -58 -44.5 -95t-93.5 -37z" />
    <glyph glyph-name="Gdotaccent" unicode="&#x120;" horiz-adv-x="770" 
d="M394 -9q-152 0 -238.5 90.5t-86.5 232.5q0 170 107 290t267 120q115 0 193.5 -57.5t85.5 -167.5h-86q-7 78 -59.5 117t-135.5 39q-128 0 -205 -98t-77 -243q0 -117 61 -185t176 -68q103 0 162.5 61.5t76.5 166.5h-212l12 72h295q-32 -370 -336 -370zM457 787
q-23 0 -39 16t-16 38q0 23 17 39.5t39 16.5t38 -15.5t16 -38.5t-16.5 -39.5t-38.5 -16.5z" />
    <glyph glyph-name="gdotaccent" unicode="&#x121;" horiz-adv-x="623" 
d="M272 86q81 0 138 61.5t57 163.5q0 70 -43.5 111t-111.5 41q-81 0 -130.5 -63.5t-49.5 -153.5q0 -73 36.5 -116.5t103.5 -43.5zM584 523l-78 -497q-17 -107 -83.5 -161.5t-176.5 -54.5q-115 0 -169.5 46.5t-63.5 113.5h84q17 -90 147 -90q82 0 124 38t55 116l12 73
q-61 -88 -172 -88q-96 0 -157 62t-61 161q0 120 75.5 205t188.5 85q127 0 177 -104l15 95h83zM365 632q-23 0 -39 16t-16 38t17 39t39 17t38 -16t16 -38q0 -23 -16.5 -39.5t-38.5 -16.5z" />
    <glyph glyph-name="Gcommaaccent" unicode="&#x122;" horiz-adv-x="770" 
d="M394 -9q-152 0 -238.5 90.5t-86.5 232.5q0 170 107 290t267 120q115 0 193.5 -57.5t85.5 -167.5h-86q-7 78 -59.5 117t-135.5 39q-128 0 -205 -98t-77 -243q0 -117 61 -185t176 -68q103 0 162.5 61.5t76.5 166.5h-212l12 72h295q-32 -370 -336 -370zM281 -220l-49 26
l72 157l78 -24z" />
    <glyph glyph-name="gcommaaccent" unicode="&#x123;" horiz-adv-x="623" 
d="M272 86q81 0 138 61.5t57 163.5q0 70 -43.5 111t-111.5 41q-81 0 -130.5 -63.5t-49.5 -153.5q0 -73 36.5 -116.5t103.5 -43.5zM584 523l-78 -497q-17 -107 -83.5 -161.5t-176.5 -54.5q-115 0 -169.5 46.5t-63.5 113.5h84q17 -90 147 -90q82 0 124 38t55 116l12 73
q-61 -88 -172 -88q-96 0 -157 62t-61 161q0 120 75.5 205t188.5 85q127 0 177 -104l15 95h83zM387 785l49 -26l-72 -157l-78 24z" />
    <glyph glyph-name="Hcircumflex" unicode="&#x124;" horiz-adv-x="730" 
d="M48 0l113 715h87l-52 -324h376l52 324h87l-113 -715h-87l50 318h-376l-50 -318h-87zM296 771l124 127h75l91 -127h-58l-77 58l-93 -58h-62z" />
    <glyph glyph-name="hcircumflex" unicode="&#x125;" horiz-adv-x="592" 
d="M42 0l122 773h83l-54 -343q26 43 71.5 72.5t104.5 29.5q87 0 128.5 -53t23.5 -166l-50 -313h-83l53 332q21 129 -90 129q-67 0 -116.5 -42t-61.5 -115l-48 -304h-83zM234 821l124 127h75l91 -127h-58l-77 58l-93 -58h-62z" />
    <glyph glyph-name="Hbar" unicode="&#x126;" horiz-adv-x="730" 
d="M56 493l10 67h70l25 155h87l-25 -155h376l25 155h87l-25 -155h70l-10 -67h-70l-78 -493h-87l50 318h-376l-50 -318h-87l78 493h-70zM196 391h376l16 102h-376z" />
    <glyph glyph-name="hbar" unicode="&#x127;" horiz-adv-x="592" 
d="M64 615l10 61h74l16 97h83l-16 -97h179l-10 -61h-178l-29 -185q26 43 71.5 72.5t104.5 29.5q87 0 128.5 -53t23.5 -166l-50 -313h-83l53 332q11 68 -11 98.5t-79 30.5q-67 0 -116.5 -42t-61.5 -115l-48 -304h-83l97 615h-75z" />
    <glyph glyph-name="Itilde" unicode="&#x128;" horiz-adv-x="279" 
d="M53 0l113 715h87l-113 -715h-87zM285 774q-26 0 -62.5 21.5t-48.5 21.5q-15 0 -28 -12.5t-18 -32.5h-60q10 54 39 85t68 31q25 0 61.5 -21.5t48.5 -21.5q15 0 27.5 12t17.5 33h60q-10 -54 -38.5 -85t-66.5 -31z" />
    <glyph glyph-name="itilde" unicode="&#x129;" horiz-adv-x="255" 
d="M44 0l83 523h83l-83 -523h-83zM247 619q-26 0 -62.5 21.5t-48.5 21.5q-15 0 -28 -12.5t-18 -32.5h-60q10 54 39 85t68 31q25 0 61.5 -21.5t48.5 -21.5q15 0 27.5 12t17.5 33h60q-10 -54 -38.5 -85t-66.5 -31z" />
    <glyph glyph-name="Imacron" unicode="&#x12a;" horiz-adv-x="279" 
d="M53 0l113 715h87l-113 -715h-87zM88 786l10 64h266l-10 -64h-266z" />
    <glyph glyph-name="imacron" unicode="&#x12b;" horiz-adv-x="255" 
d="M91 648l10 64h194l-10 -64h-194zM44 0l83 523h83l-83 -523h-83z" />
    <glyph glyph-name="Ibreve" unicode="&#x12c;" horiz-adv-x="279" 
d="M53 0l113 715h87l-113 -715h-87zM221 767q-56 0 -93 36.5t-37 95.5h66q8 -64 65 -64q61 0 73 64h64q-4 -58 -44.5 -95t-93.5 -37z" />
    <glyph glyph-name="ibreve" unicode="&#x12d;" horiz-adv-x="255" 
d="M44 0l83 523h83l-83 -523h-83zM186 619q-56 0 -93 36.5t-37 95.5h66q8 -64 65 -64q61 0 73 64h64q-4 -58 -44.5 -95t-93.5 -37z" />
    <glyph glyph-name="Iogonek" unicode="&#x12e;" horiz-adv-x="279" 
d="M71 -182q-43 0 -71.5 20t-27.5 61q0 57 80 98l114 718h87l-112 -709q-88 -55 -88 -97q0 -31 37 -31q25 0 48 10l-9 -59q-29 -11 -58 -11z" />
    <glyph glyph-name="iogonek" unicode="&#x12f;" horiz-adv-x="255" 
d="M44 0l83 523h83l-82 -517q-2 -1 -12 -7.5t-13 -8.5t-12 -8.5t-13 -10t-11 -10t-10.5 -12t-7.5 -12t-5.5 -14t-1.5 -14.5q0 -31 35 -31q25 0 48 10l-9 -59q-29 -11 -58 -11q-41 0 -69.5 20t-27.5 61q0 59 83 101zM192 632q-23 0 -39 16t-16 38t16.5 39t39.5 17t38.5 -16
t15.5 -38q0 -23 -16.5 -39.5t-38.5 -16.5z" />
    <glyph glyph-name="Idotaccent" unicode="&#x130;" horiz-adv-x="279" 
d="M53 0l113 715h87l-113 -715h-87zM225 787q-23 0 -39 16t-16 38q0 23 17 39.5t39 16.5t38 -15.5t16 -38.5t-16.5 -39.5t-38.5 -16.5z" />
    <glyph glyph-name="dotlessi" unicode="&#x131;" horiz-adv-x="255" 
d="M44 0l83 523h83l-83 -523h-83z" />
    <glyph glyph-name="IJ" unicode="&#x132;" horiz-adv-x="657" 
d="M11 0l113 715h87l-113 -715h-87zM308 -9q-72 0 -115 26l11 70q52 -25 101 -25q55 0 86 30.5t41 95.5l83 527h87l-85 -535q-15 -96 -70.5 -142.5t-138.5 -46.5z" />
    <glyph glyph-name="ij" unicode="&#x133;" horiz-adv-x="510" 
d="M192 632q-23 0 -39 16t-16 38t16.5 39t39.5 17t38.5 -16t15.5 -38q0 -23 -16.5 -39.5t-38.5 -16.5zM44 0l83 523h83l-83 -523h-83zM192 -190l11 69q43 2 63.5 21.5t26.5 58.5l89 564h83l-90 -569q-22 -144 -183 -144zM447 632q-23 0 -39 16t-16 38t17 39t39 17t38 -16
t16 -38q0 -23 -16.5 -39.5t-38.5 -16.5z" />
    <glyph glyph-name="Jcircumflex" unicode="&#x134;" horiz-adv-x="420" 
d="M113 -9q-72 0 -115 26l11 70q52 -25 101 -25q55 0 86 30.5t41 95.5l83 527h87l-85 -535q-15 -96 -70.5 -142.5t-138.5 -46.5zM225 771l124 127h75l91 -127h-58l-77 58l-93 -58h-62z" />
    <glyph glyph-name="jcircumflex" unicode="&#x135;" horiz-adv-x="255" 
d="M-63 -190l11 69q43 2 63.5 21.5t26.5 58.5l89 564h83l-90 -569q-22 -144 -183 -144zM28 613l129 144h75l86 -144h-58l-74 75l-96 -75h-62z" />
    <glyph glyph-name="Kcommaaccent" unicode="&#x136;" horiz-adv-x="616" 
d="M48 0l113 715h87l-54 -340l363 340h101l-373 -345l272 -370h-97l-268 359l-57 -359h-87zM224 -220l-49 26l72 157l78 -24z" />
    <glyph glyph-name="kcommaaccent" unicode="&#x137;" horiz-adv-x="511" 
d="M42 0l122 773h83l-76 -481l249 231h103l-264 -240l195 -283h-95l-190 278l-44 -278h-83zM178 -220l-49 26l72 157l78 -24z" />
    <glyph glyph-name="Lacute" unicode="&#x139;" horiz-adv-x="535" 
d="M48 0l113 715h87l-102 -644h327l-11 -71h-414zM176 771l68 127h106l-108 -127h-66z" />
    <glyph glyph-name="lacute" unicode="&#x13a;" horiz-adv-x="256" 
d="M44 0l122 773h84l-122 -773h-84zM179 821l68 127h106l-108 -127h-66z" />
    <glyph glyph-name="Lcommaaccent" unicode="&#x13b;" horiz-adv-x="535" 
d="M48 0l113 715h87l-102 -644h327l-11 -71h-414zM190 -220l-49 26l72 157l78 -24z" />
    <glyph glyph-name="lcommaaccent" unicode="&#x13c;" horiz-adv-x="256" 
d="M44 0l122 773h84l-122 -773h-84zM23 -220l-49 26l72 157l78 -24z" />
    <glyph glyph-name="Lcaron" unicode="&#x13d;" horiz-adv-x="535" 
d="M384 558l43 157h95l-79 -157h-59zM48 0l113 715h87l-102 -644h327l-11 -71h-414z" />
    <glyph glyph-name="lcaron" unicode="&#x13e;" horiz-adv-x="256" 
d="M44 0l122 773h84l-122 -773h-84zM272 598l38 175h91l-70 -175h-59z" />
    <glyph glyph-name="Ldot" unicode="&#x13f;" horiz-adv-x="535" 
d="M48 0l113 715h87l-102 -644h327l-11 -71h-414zM448 320q-26 0 -45 18.5t-19 45.5t18.5 45.5t44.5 18.5q27 0 46 -18.5t19 -45.5t-19 -45.5t-45 -18.5z" />
    <glyph glyph-name="ldot" unicode="&#x140;" horiz-adv-x="328" 
d="M44 0l122 773h84l-122 -773h-84zM307 303q-26 0 -45 18.5t-19 45.5t18.5 45.5t44.5 18.5q27 0 46 -18.5t19 -45.5t-19 -45.5t-45 -18.5z" />
    <glyph glyph-name="Lslash" unicode="&#x141;" horiz-adv-x="555" 
d="M39 248l11 71l72 25l59 371h87l-54 -339l211 73l-11 -71l-211 -73l-37 -234h327l-11 -71h-414l43 273z" />
    <glyph glyph-name="lslash" unicode="&#x142;" horiz-adv-x="276" 
d="M27 311l12 73l82 42l55 347h84l-48 -300l88 45l-13 -73l-86 -45l-63 -400h-84l56 353z" />
    <glyph glyph-name="Nacute" unicode="&#x143;" horiz-adv-x="724" 
d="M48 0l113 715h111l256 -591l94 591h83l-113 -715h-98l-266 613l-97 -613h-83zM414 771l68 127h106l-108 -127h-66z" />
    <glyph glyph-name="nacute" unicode="&#x144;" horiz-adv-x="592" 
d="M42 0l58 367q12 79 14 156h78q0 -51 -6 -104q65 113 183 113q87 0 128.5 -53t23.5 -166l-50 -313h-83l53 332q21 129 -90 129q-67 0 -116.5 -42t-61.5 -115l-48 -304h-83zM303 613l79 147h108l-121 -147h-66z" />
    <glyph glyph-name="Ncommaaccent" unicode="&#x145;" horiz-adv-x="724" 
d="M48 0l113 715h111l256 -591l94 591h83l-113 -715h-98l-266 613l-97 -613h-83zM262 -220l-49 26l72 157l78 -24z" />
    <glyph glyph-name="ncommaaccent" unicode="&#x146;" horiz-adv-x="592" 
d="M42 0l58 367q12 79 14 156h78q0 -51 -6 -104q65 113 183 113q87 0 128.5 -53t23.5 -166l-50 -313h-83l53 332q21 129 -90 129q-67 0 -116.5 -42t-61.5 -115l-48 -304h-83zM185 -220l-49 26l72 157l78 -24z" />
    <glyph glyph-name="Ncaron" unicode="&#x147;" horiz-adv-x="724" 
d="M48 0l113 715h111l256 -591l94 591h83l-113 -715h-98l-266 613l-97 -613h-83zM606 898l-124 -127h-75l-91 127h58l77 -58l93 58h62z" />
    <glyph glyph-name="ncaron" unicode="&#x148;" horiz-adv-x="592" 
d="M42 0l58 367q12 79 14 156h78q0 -51 -6 -104q65 113 183 113q87 0 128.5 -53t23.5 -166l-50 -313h-83l53 332q21 129 -90 129q-67 0 -116.5 -42t-61.5 -115l-48 -304h-83zM505 757l-129 -144h-75l-86 144h58l74 -75l96 75h62z" />
    <glyph glyph-name="napostrophe" unicode="&#x149;" horiz-adv-x="598" 
d="M48 0l58 367q12 79 14 156h78q0 -51 -6 -104q65 113 183 113q87 0 128.5 -53t23.5 -166l-50 -313h-83l53 332q21 129 -90 129q-67 0 -116.5 -42t-61.5 -115l-48 -304h-83zM41 488l-49 26l103 212l77 -36z" />
    <glyph glyph-name="Eng" unicode="&#x14a;" horiz-adv-x="724" 
d="M374 -122q54 0 86 26.5t44 86.5l-276 622l-97 -613h-83l113 715h114l256 -573l91 573h83l-112 -705q-32 -203 -210 -203q-70 0 -111 24l11 70q44 -23 91 -23z" />
    <glyph glyph-name="eng" unicode="&#x14b;" horiz-adv-x="592" 
d="M42 0l58 367q12 79 14 156h78q0 -51 -6 -104q65 113 183 113q87 0 128.5 -53t23.5 -166l-57 -359q-11 -70 -53 -106.5t-130 -38.5l11 70q44 3 64 22.5t26 59.5l59 371q21 129 -90 129q-67 0 -116.5 -42t-61.5 -115l-48 -304h-83z" />
    <glyph glyph-name="Omacron" unicode="&#x14c;" horiz-adv-x="811" 
d="M773 402q0 -176 -109.5 -293.5t-268.5 -117.5q-147 0 -237 90.5t-90 230.5q0 172 111 292t273 120q149 0 235 -92.5t86 -229.5zM683 402q0 109 -61.5 180.5t-170.5 71.5q-131 0 -212 -99.5t-81 -242.5q0 -115 66 -182.5t172 -67.5q127 0 207 96.5t80 243.5zM350 786
l10 64h266l-10 -64h-266z" />
    <glyph glyph-name="omacron" unicode="&#x14d;" horiz-adv-x="589" 
d="M271 -8q-107 0 -170 65t-63 167q0 131 80 219t198 88q107 0 170.5 -63.5t63.5 -166.5q0 -134 -78.5 -221.5t-200.5 -87.5zM275 60q87 0 137.5 67t50.5 172q0 76 -39 120t-113 44q-83 0 -135 -68t-52 -171q0 -76 38 -120t113 -44zM211 648l10 64h262l-10 -64h-262z" />
    <glyph glyph-name="Obreve" unicode="&#x14e;" horiz-adv-x="811" 
d="M773 402q0 -176 -109.5 -293.5t-268.5 -117.5q-147 0 -237 90.5t-90 230.5q0 172 111 292t273 120q149 0 235 -92.5t86 -229.5zM683 402q0 109 -61.5 180.5t-170.5 71.5q-131 0 -212 -99.5t-81 -242.5q0 -115 66 -182.5t172 -67.5q127 0 207 96.5t80 243.5zM483 767
q-56 0 -93 36.5t-37 95.5h66q8 -64 65 -64q61 0 73 64h64q-4 -58 -44.5 -95t-93.5 -37z" />
    <glyph glyph-name="obreve" unicode="&#x14f;" horiz-adv-x="589" 
d="M271 -8q-107 0 -170 65t-63 167q0 131 80 219t198 88q107 0 170.5 -63.5t63.5 -166.5q0 -134 -78.5 -221.5t-200.5 -87.5zM275 60q87 0 137.5 67t50.5 172q0 76 -39 120t-113 44q-83 0 -135 -68t-52 -171q0 -76 38 -120t113 -44zM340 619q-56 0 -93 36.5t-37 95.5h66
q8 -64 65 -64q61 0 73 64h64q-4 -58 -44.5 -95t-93.5 -37z" />
    <glyph glyph-name="Ohungarumlaut" unicode="&#x150;" horiz-adv-x="811" 
d="M773 402q0 -176 -109.5 -293.5t-268.5 -117.5q-147 0 -237 90.5t-90 230.5q0 172 111 292t273 120q149 0 235 -92.5t86 -229.5zM683 402q0 109 -61.5 180.5t-170.5 71.5q-131 0 -212 -99.5t-81 -242.5q0 -115 66 -182.5t172 -67.5q127 0 207 96.5t80 243.5zM362 771
l46 127h96l-81 -127h-61zM516 771l46 127h96l-81 -127h-61z" />
    <glyph glyph-name="ohungarumlaut" unicode="&#x151;" horiz-adv-x="589" 
d="M271 -8q-107 0 -170 65t-63 167q0 131 80 219t198 88q107 0 170.5 -63.5t63.5 -166.5q0 -134 -78.5 -221.5t-200.5 -87.5zM275 60q87 0 137.5 67t50.5 172q0 76 -39 120t-113 44q-83 0 -135 -68t-52 -171q0 -76 38 -120t113 -44zM228 613l53 147h96l-88 -147h-61z
M382 613l53 147h96l-88 -147h-61z" />
    <glyph glyph-name="OE" unicode="&#x152;" horiz-adv-x="960" 
d="M877 0h-471q-169 0 -253 83.5t-85 222.5q0 177 110 293t304 116h486l-12 -71h-310l-38 -243h250l-11 -71h-250l-41 -259h332zM559 644h-74q-154 0 -241 -89.5t-87 -247.5q0 -108 62 -172.5t191 -64.5h59z" />
    <glyph glyph-name="oe" unicode="&#x153;" horiz-adv-x="974" 
d="M544 211q0 -151 144 -151q114 0 144 91h83q-23 -78 -85 -119t-145 -41q-150 0 -197 122q-35 -57 -91 -89t-126 -32q-107 0 -170 65t-63 167q0 131 80 219t198 88q73 0 125 -33.5t77 -92.5q35 60 90 93t124 33q111 0 167 -68.5t36 -198.5l-3 -19h-387q-1 -11 -1 -34z
M275 60q87 0 137.5 67t50.5 172q0 76 -39 120t-113 44q-83 0 -135 -68t-52 -171q0 -76 38 -120t113 -44zM727 463q-60 0 -107 -37.5t-65 -113.5h303q6 78 -26.5 114.5t-104.5 36.5z" />
    <glyph glyph-name="Racute" unicode="&#x154;" horiz-adv-x="628" 
d="M48 0l113 715h211q98 0 158.5 -47t59.5 -135q0 -93 -57 -148t-147 -67l175 -318h-94l-170 311h-113l-49 -311h-87zM195 380h134q175 0 175 153q1 58 -34 85t-103 27h-130zM333 771l68 127h106l-108 -127h-66z" />
    <glyph glyph-name="racute" unicode="&#x155;" horiz-adv-x="374" 
d="M42 0l58 367q12 79 14 156h78q0 -47 -6 -107q37 58 79 86.5t114 29.5l-12 -78q-84 -4 -134 -45.5t-65 -136.5l-43 -272h-83zM225 613l79 147h108l-121 -147h-66z" />
    <glyph glyph-name="Rcommaaccent" unicode="&#x156;" horiz-adv-x="628" 
d="M48 0l113 715h211q98 0 158.5 -47t59.5 -135q0 -93 -57 -148t-147 -67l175 -318h-94l-170 311h-113l-49 -311h-87zM195 380h134q175 0 175 153q1 58 -34 85t-103 27h-130zM229 -220l-49 26l72 157l78 -24z" />
    <glyph glyph-name="rcommaaccent" unicode="&#x157;" horiz-adv-x="374" 
d="M42 0l58 367q12 79 14 156h78q0 -47 -6 -107q37 58 79 86.5t114 29.5l-12 -78q-84 -4 -134 -45.5t-65 -136.5l-43 -272h-83zM17 -220l-49 26l72 157l78 -24z" />
    <glyph glyph-name="Rcaron" unicode="&#x158;" horiz-adv-x="628" 
d="M48 0l113 715h211q98 0 158.5 -47t59.5 -135q0 -93 -57 -148t-147 -67l175 -318h-94l-170 311h-113l-49 -311h-87zM195 380h134q175 0 175 153q1 58 -34 85t-103 27h-130zM518 898l-124 -127h-75l-91 127h58l77 -58l93 58h62z" />
    <glyph glyph-name="rcaron" unicode="&#x159;" horiz-adv-x="374" 
d="M42 0l58 367q12 79 14 156h78q0 -47 -6 -107q37 58 79 86.5t114 29.5l-12 -78q-84 -4 -134 -45.5t-65 -136.5l-43 -272h-83zM422 757l-129 -144h-75l-86 144h58l74 -75l96 75h62z" />
    <glyph glyph-name="Sacute" unicode="&#x15a;" horiz-adv-x="627" 
d="M300 -9q-128 0 -196.5 66t-69.5 161h86q3 -67 48.5 -112t136.5 -45q79 -1 123.5 37.5t44.5 103.5q0 49 -32.5 77t-121.5 54q-109 32 -158.5 73.5t-49.5 119.5q0 83 66.5 140.5t173.5 57.5q105 0 167 -51.5t64 -145.5h-80q-12 127 -159 127q-74 0 -111.5 -34.5
t-37.5 -90.5q0 -43 31.5 -68.5t123.5 -53.5q112 -34 160.5 -76.5t48.5 -119.5q0 -96 -70.5 -158t-187.5 -62zM339 771l68 127h106l-108 -127h-66z" />
    <glyph glyph-name="sacute" unicode="&#x15b;" horiz-adv-x="480" 
d="M229 -9q-99 0 -150.5 48.5t-53.5 121.5h81q7 -101 126 -101q107 0 107 86q0 33 -23 51.5t-83 33.5q-87 22 -123 55.5t-36 93.5q0 71 53.5 111.5t128.5 40.5q81 0 131 -37.5t54 -113.5h-78q-2 38 -31.5 60t-77.5 22q-49 0 -75.5 -20.5t-26.5 -57.5q0 -30 22.5 -47.5
t83.5 -32.5q85 -21 123.5 -54t38.5 -101q0 -72 -52 -115.5t-139 -43.5zM239 613l79 147h108l-121 -147h-66z" />
    <glyph glyph-name="Scircumflex" unicode="&#x15c;" horiz-adv-x="627" 
d="M300 -9q-128 0 -196.5 66t-69.5 161h86q3 -67 48.5 -112t136.5 -45q79 -1 123.5 37.5t44.5 103.5q0 49 -32.5 77t-121.5 54q-109 32 -158.5 73.5t-49.5 119.5q0 83 66.5 140.5t173.5 57.5q105 0 167 -51.5t64 -145.5h-80q-12 127 -159 127q-74 0 -111.5 -34.5
t-37.5 -90.5q0 -43 31.5 -68.5t123.5 -53.5q112 -34 160.5 -76.5t48.5 -119.5q0 -96 -70.5 -158t-187.5 -62zM228 771l124 127h75l91 -127h-58l-77 58l-93 -58h-62z" />
    <glyph glyph-name="scircumflex" unicode="&#x15d;" horiz-adv-x="480" 
d="M229 -9q-99 0 -150.5 48.5t-53.5 121.5h81q7 -101 126 -101q107 0 107 86q0 33 -23 51.5t-83 33.5q-87 22 -123 55.5t-36 93.5q0 71 53.5 111.5t128.5 40.5q81 0 131 -37.5t54 -113.5h-78q-2 38 -31.5 60t-77.5 22q-49 0 -75.5 -20.5t-26.5 -57.5q0 -30 22.5 -47.5
t83.5 -32.5q85 -21 123.5 -54t38.5 -101q0 -72 -52 -115.5t-139 -43.5zM127 613l129 144h75l86 -144h-58l-74 75l-96 -75h-62z" />
    <glyph glyph-name="Scedilla" unicode="&#x15e;" horiz-adv-x="627" 
d="M232 -214q-41 0 -68 21.5t-31 62.5h56q4 -36 42 -36q40 0 40 38q0 15 -10 23.5t-25 8.5q-14 0 -26 -8l-27 30l54 70q-98 16 -150 77.5t-53 144.5h86q3 -67 48.5 -112t136.5 -45q79 -1 123.5 37.5t44.5 103.5q0 49 -32.5 77t-121.5 54q-109 32 -158.5 73.5t-49.5 119.5
q0 83 66.5 140.5t173.5 57.5q105 0 167 -51.5t64 -145.5h-80q-12 127 -159 127q-74 0 -111.5 -34.5t-37.5 -90.5q0 -43 31.5 -68.5t123.5 -53.5q112 -34 160.5 -76.5t48.5 -119.5q0 -96 -70.5 -158t-187.5 -62h-14l-33 -44q32 3 56.5 -16.5t24.5 -55.5q0 -43 -27.5 -66
t-74.5 -23z" />
    <glyph glyph-name="scedilla" unicode="&#x15f;" horiz-adv-x="480" 
d="M169 -214q-41 0 -68 21.5t-31 62.5h56q4 -36 42 -36q40 0 40 38q0 15 -10 23.5t-25 8.5q-14 0 -26 -8l-27 30l53 70q-72 13 -109.5 58.5t-38.5 106.5h81q7 -101 126 -101q107 0 107 86q0 33 -23 51.5t-83 33.5q-87 22 -123 55.5t-36 93.5q0 71 53.5 111.5t128.5 40.5
q81 0 131 -37.5t54 -113.5h-78q-2 38 -31.5 60t-77.5 22q-49 0 -75.5 -20.5t-26.5 -57.5q0 -30 22.5 -47.5t83.5 -32.5q85 -21 123.5 -54t38.5 -101q0 -72 -52 -115.5t-139 -43.5h-6l-33 -44q32 3 56.5 -16.5t24.5 -55.5q0 -43 -27.5 -66t-74.5 -23z" />
    <glyph glyph-name="Scaron" unicode="&#x160;" horiz-adv-x="627" 
d="M300 -9q-128 0 -196.5 66t-69.5 161h86q3 -67 48.5 -112t136.5 -45q79 -1 123.5 37.5t44.5 103.5q0 49 -32.5 77t-121.5 54q-109 32 -158.5 73.5t-49.5 119.5q0 83 66.5 140.5t173.5 57.5q105 0 167 -51.5t64 -145.5h-80q-12 127 -159 127q-74 0 -111.5 -34.5
t-37.5 -90.5q0 -43 31.5 -68.5t123.5 -53.5q112 -34 160.5 -76.5t48.5 -119.5q0 -96 -70.5 -158t-187.5 -62zM520 898l-124 -127h-75l-91 127h58l77 -58l93 58h62z" />
    <glyph glyph-name="scaron" unicode="&#x161;" horiz-adv-x="480" 
d="M229 -9q-99 0 -150.5 48.5t-53.5 121.5h81q7 -101 126 -101q107 0 107 86q0 33 -23 51.5t-83 33.5q-87 22 -123 55.5t-36 93.5q0 71 53.5 111.5t128.5 40.5q81 0 131 -37.5t54 -113.5h-78q-2 38 -31.5 60t-77.5 22q-49 0 -75.5 -20.5t-26.5 -57.5q0 -30 22.5 -47.5
t83.5 -32.5q85 -21 123.5 -54t38.5 -101q0 -72 -52 -115.5t-139 -43.5zM442 757l-129 -144h-75l-86 144h58l74 -75l96 75h62z" />
    <glyph glyph-name="Tcommaaccent" unicode="&#x162;" horiz-adv-x="561" 
d="M194 0l101 644h-208l12 71h503l-12 -71h-208l-101 -644h-87zM174 -220l-49 26l72 157l78 -24z" />
    <glyph glyph-name="tcommaaccent" unicode="&#x163;" horiz-adv-x="343" 
d="M204 -7q-74 0 -105.5 41.5t-21.5 108.5l49 310h-75l11 70h75l19 119h83l-19 -119h119l-11 -70h-119l-50 -313q-7 -42 7.5 -59.5t50.5 -17.5q32 0 62 11l-11 -69q-27 -12 -64 -12zM90 -220l-49 26l72 157l78 -24z" />
    <glyph glyph-name="Tcaron" unicode="&#x164;" horiz-adv-x="561" 
d="M194 0l101 644h-208l12 71h503l-12 -71h-208l-101 -644h-87zM511 898l-124 -127h-75l-91 127h58l77 -58l93 58h62z" />
    <glyph glyph-name="tcaron" unicode="&#x165;" horiz-adv-x="343" 
d="M204 -7q-74 0 -105.5 41.5t-21.5 108.5l49 310h-75l11 70h75l19 119h83l-19 -119h119l-11 -70h-119l-50 -313q-7 -42 7.5 -59.5t50.5 -17.5q32 0 62 11l-11 -69q-27 -12 -64 -12zM311 598l38 175h91l-70 -175h-59z" />
    <glyph glyph-name="Tbar" unicode="&#x166;" horiz-adv-x="561" 
d="M104 338l10 66h143l38 240h-208l12 71h503l-12 -71h-208l-38 -240h145l-10 -66h-145l-53 -338h-87l53 338h-143z" />
    <glyph glyph-name="tbar" unicode="&#x167;" horiz-adv-x="343" 
d="M24 280l9 59h75l18 114h-75l11 70h75l19 119h83l-19 -119h119l-11 -70h-119l-18 -114h119l-9 -59h-120l-22 -140q-7 -42 7.5 -59.5t50.5 -17.5q32 0 62 11l-11 -69q-27 -12 -64 -12q-74 0 -105.5 41.5t-21.5 108.5l21 137h-74z" />
    <glyph glyph-name="Utilde" unicode="&#x168;" horiz-adv-x="696" 
d="M325 -9q-137 0 -199.5 74.5t-39.5 217.5l69 432h87l-69 -433q-18 -117 20.5 -168t135.5 -51q83 0 130.5 46.5t64.5 151.5l72 454h87l-74 -466q-20 -122 -90 -190t-194 -68zM490 774q-26 0 -62.5 21.5t-48.5 21.5q-15 0 -28 -12.5t-18 -32.5h-60q10 54 39 85t68 31
q25 0 61.5 -21.5t48.5 -21.5q15 0 27.5 12t17.5 33h60q-10 -54 -38.5 -85t-66.5 -31z" />
    <glyph glyph-name="utilde" unicode="&#x169;" horiz-adv-x="588" 
d="M545 523l-58 -367q-14 -91 -11 -156h-79q-3 47 5 104q-66 -113 -182 -113q-85 0 -126 54.5t-24 164.5l50 313h83l-53 -332q-20 -129 88 -129q67 0 115.5 42t60.5 115l48 304h83zM402 619q-26 0 -62.5 21.5t-48.5 21.5q-15 0 -28 -12.5t-18 -32.5h-60q10 54 39 85t68 31
q25 0 61.5 -21.5t48.5 -21.5q15 0 27.5 12t17.5 33h60q-10 -54 -38.5 -85t-66.5 -31z" />
    <glyph glyph-name="Umacron" unicode="&#x16a;" horiz-adv-x="696" 
d="M325 -9q-137 0 -199.5 74.5t-39.5 217.5l69 432h87l-69 -433q-18 -117 20.5 -168t135.5 -51q83 0 130.5 46.5t64.5 151.5l72 454h87l-74 -466q-20 -122 -90 -190t-194 -68zM293 786l10 64h266l-10 -64h-266z" />
    <glyph glyph-name="umacron" unicode="&#x16b;" horiz-adv-x="588" 
d="M545 523l-58 -367q-14 -91 -11 -156h-79q-3 47 5 104q-66 -113 -182 -113q-85 0 -126 54.5t-24 164.5l50 313h83l-53 -332q-20 -129 88 -129q67 0 115.5 42t60.5 115l48 304h83zM213 648l10 64h262l-10 -64h-262z" />
    <glyph glyph-name="Ubreve" unicode="&#x16c;" horiz-adv-x="696" 
d="M325 -9q-137 0 -199.5 74.5t-39.5 217.5l69 432h87l-69 -433q-18 -117 20.5 -168t135.5 -51q83 0 130.5 46.5t64.5 151.5l72 454h87l-74 -466q-20 -122 -90 -190t-194 -68zM426 767q-56 0 -93 36.5t-37 95.5h66q8 -64 65 -64q61 0 73 64h64q-4 -58 -44.5 -95t-93.5 -37z
" />
    <glyph glyph-name="ubreve" unicode="&#x16d;" horiz-adv-x="588" 
d="M545 523l-58 -367q-14 -91 -11 -156h-79q-3 47 5 104q-66 -113 -182 -113q-85 0 -126 54.5t-24 164.5l50 313h83l-53 -332q-20 -129 88 -129q67 0 115.5 42t60.5 115l48 304h83zM347 619q-56 0 -93 36.5t-37 95.5h66q8 -64 65 -64q61 0 73 64h64q-4 -58 -44.5 -95
t-93.5 -37z" />
    <glyph glyph-name="Uring" unicode="&#x16e;" horiz-adv-x="696" 
d="M325 -9q-137 0 -199.5 74.5t-39.5 217.5l69 432h87l-69 -433q-18 -117 20.5 -168t135.5 -51q83 0 130.5 46.5t64.5 151.5l72 454h87l-74 -466q-20 -122 -90 -190t-194 -68zM433 785q23 0 39 17t16 43q0 25 -14 40.5t-37 15.5t-39 -17t-16 -43q0 -25 14 -40.5t37 -15.5z
M433 739q-44 0 -74.5 29.5t-30.5 72.5q0 44 32 75t77 31q44 0 74.5 -29.5t30.5 -72.5q0 -44 -32 -75t-77 -31z" />
    <glyph glyph-name="uring" unicode="&#x16f;" horiz-adv-x="588" 
d="M545 523l-58 -367q-14 -91 -11 -156h-79q-3 47 5 104q-66 -113 -182 -113q-85 0 -126 54.5t-24 164.5l50 313h83l-53 -332q-20 -129 88 -129q67 0 115.5 42t60.5 115l48 304h83zM347 644q23 0 39 17t16 43q0 25 -14 40.5t-37 15.5t-39 -17t-16 -43q0 -25 14 -40.5
t37 -15.5zM347 598q-44 0 -74.5 29.5t-30.5 72.5q0 44 32 75t77 31q44 0 74.5 -29.5t30.5 -72.5q0 -44 -32 -75t-77 -31z" />
    <glyph glyph-name="Uhungarumlaut" unicode="&#x170;" horiz-adv-x="696" 
d="M325 -9q-137 0 -199.5 74.5t-39.5 217.5l69 432h87l-69 -433q-18 -117 20.5 -168t135.5 -51q83 0 130.5 46.5t64.5 151.5l72 454h87l-74 -466q-20 -122 -90 -190t-194 -68zM313 771l46 127h96l-81 -127h-61zM467 771l46 127h96l-81 -127h-61z" />
    <glyph glyph-name="uhungarumlaut" unicode="&#x171;" horiz-adv-x="588" 
d="M545 523l-58 -367q-14 -91 -11 -156h-79q-3 47 5 104q-66 -113 -182 -113q-85 0 -126 54.5t-24 164.5l50 313h83l-53 -332q-20 -129 88 -129q67 0 115.5 42t60.5 115l48 304h83zM239 613l53 147h96l-88 -147h-61zM393 613l53 147h96l-88 -147h-61z" />
    <glyph glyph-name="Uogonek" unicode="&#x172;" horiz-adv-x="696" 
d="M344 -182q-43 0 -71.5 20t-27.5 61q0 53 70 92q-132 2 -192 76.5t-37 215.5l69 432h87l-69 -433q-18 -117 20 -168t135 -51q83 0 131 46.5t65 151.5l72 454h87l-74 -466q-25 -162 -140 -226q-9 -5 -39 -18t-49.5 -23.5t-37 -30t-17.5 -42.5q0 -31 37 -31q25 0 48 10
l-9 -59q-29 -11 -58 -11z" />
    <glyph glyph-name="uogonek" unicode="&#x173;" horiz-adv-x="588" 
d="M545 523l-58 -367q-14 -91 -11 -156q-1 -1 -9.5 -6t-11 -6.5t-10.5 -7t-11.5 -8t-10.5 -8.5t-10 -9.5t-7.5 -9.5t-7 -11.5t-4 -12t-1.5 -12.5q0 -31 37 -31q25 0 48 10l-9 -59q-29 -11 -58 -11q-43 0 -71.5 20t-27.5 61q0 59 85 101q-3 47 5 104q-66 -113 -182 -113
q-85 0 -126 54.5t-24 164.5l50 313h83l-53 -332q-20 -129 88 -129q67 0 115.5 42t60.5 115l48 304h83z" />
    <glyph glyph-name="Wcircumflex" unicode="&#x174;" horiz-adv-x="890" 
d="M166 0l-73 715h87l54 -583l253 583h56l78 -585l235 585h83l-295 -715h-81l-72 561l-247 -561h-78zM371 771l124 127h75l91 -127h-58l-77 58l-93 -58h-62z" />
    <glyph glyph-name="wcircumflex" unicode="&#x175;" horiz-adv-x="767" 
d="M135 0l-71 523h88l48 -426l192 426h72l50 -426l184 426h87l-240 -523h-92l-45 397l-182 -397h-91zM289 613l129 144h75l86 -144h-58l-74 75l-96 -75h-62z" />
    <glyph glyph-name="Ycircumflex" unicode="&#x176;" horiz-adv-x="592" 
d="M217 0l49 312l-175 403h93l138 -332l232 332h89l-291 -410l-48 -305h-87zM222 771l124 127h75l91 -127h-58l-77 58l-93 -58h-62z" />
    <glyph glyph-name="ycircumflex" unicode="&#x177;" horiz-adv-x="505" 
d="M44 -182l140 241l-124 464h85l94 -375l199 375h89l-395 -705h-88zM151 613l129 144h75l86 -144h-58l-74 75l-96 -75h-62z" />
    <glyph glyph-name="Ydieresis" unicode="&#x178;" horiz-adv-x="592" 
d="M217 0l49 312l-175 403h93l138 -332l232 332h89l-291 -410l-48 -305h-87zM281 789q-22 0 -37.5 15t-15.5 37t16 38t38 16t37 -15t15 -37t-15.5 -38t-37.5 -16zM484 789q-22 0 -37.5 15t-15.5 37t16 38t38 16t37 -15t15 -37t-15.5 -38t-37.5 -16z" />
    <glyph glyph-name="Zacute" unicode="&#x179;" horiz-adv-x="595" 
d="M-14 0l2 14l501 633h-365l11 68h489l-2 -13l-492 -631h386l-11 -71h-519zM337 771l68 127h106l-108 -127h-66z" />
    <glyph glyph-name="zacute" unicode="&#x17a;" horiz-adv-x="475" 
d="M-21 0l2 12l366 441h-269l11 70h399l-3 -15l-357 -435h288l-12 -73h-425zM252 613l79 147h108l-121 -147h-66z" />
    <glyph glyph-name="Zdotaccent" unicode="&#x17b;" horiz-adv-x="595" 
d="M-14 0l2 14l501 633h-365l11 68h489l-2 -13l-492 -631h386l-11 -71h-519zM383 787q-23 0 -39 16t-16 38q0 23 17 39.5t39 16.5t38 -15.5t16 -38.5t-16.5 -39.5t-38.5 -16.5z" />
    <glyph glyph-name="zdotaccent" unicode="&#x17c;" horiz-adv-x="475" 
d="M-21 0l2 12l366 441h-269l11 70h399l-3 -15l-357 -435h288l-12 -73h-425zM304 632q-23 0 -39 16t-16 38t16.5 39t39.5 17t38.5 -16t15.5 -38q0 -23 -16.5 -39.5t-38.5 -16.5z" />
    <glyph glyph-name="Zcaron" unicode="&#x17d;" horiz-adv-x="595" 
d="M-14 0l2 14l501 633h-365l11 68h489l-2 -13l-492 -631h386l-11 -71h-519zM533 898l-124 -127h-75l-91 127h58l77 -58l93 58h62z" />
    <glyph glyph-name="zcaron" unicode="&#x17e;" horiz-adv-x="475" 
d="M-21 0l2 12l366 441h-269l11 70h399l-3 -15l-357 -435h288l-12 -73h-425zM451 757l-129 -144h-75l-86 144h58l74 -75l96 75h62z" />
    <glyph glyph-name="florin" unicode="&#x192;" horiz-adv-x="397" 
d="M38 345l11 68h96l29 152q14 77 58 118t112 41q46 0 74 -16l-10 -65q-29 12 -63 12q-72 0 -89 -94l-28 -148h132l-11 -68h-133l-99 -527h-83l99 527h-95z" />
    <glyph glyph-name="Aringacute" unicode="&#x1fa;" horiz-adv-x="650" 
d="M500 0l-37 206h-295l-102 -206h-84l359 715h114l129 -715h-84zM384 643l-182 -368h248zM410 749q-44 0 -74.5 29.5t-30.5 72.5q0 44 32 75t77 31q44 0 74.5 -29.5t30.5 -72.5q0 -44 -32 -75t-77 -31zM391 986l68 127h106l-108 -127h-66zM410 795q23 0 39 17t16 43
q0 25 -14 40.5t-37 15.5t-39 -17t-16 -43q0 -25 14 -40.5t37 -15.5z" />
    <glyph glyph-name="aringacute" unicode="&#x1fb;" horiz-adv-x="538" 
d="M197 -8q-79 0 -124 40t-45 108q0 167 254 167h101l6 38q10 61 -13 89.5t-85 28.5q-105 0 -125 -94h-83q11 59 47 97t77 52t87 14q94 0 143.5 -47t33.5 -147l-29 -182q-16 -97 -9 -156h-78q-5 42 -1 83q-56 -91 -157 -91zM208 57q61 0 103.5 34t52.5 100l9 57h-89
q-90 0 -132 -24.5t-42 -83.5q0 -37 25 -60t73 -23zM326 624q23 0 39 17t16 43q0 25 -14 40.5t-37 15.5t-39 -17t-16 -43q0 -25 14 -40.5t37 -15.5zM326 578q-44 0 -74.5 29.5t-30.5 72.5q0 44 32 75t77 31q44 0 74.5 -29.5t30.5 -72.5q0 -44 -32 -75t-77 -31zM312 829
l68 127h106l-108 -127h-66z" />
    <glyph glyph-name="AEacute" unicode="&#x1fc;" horiz-adv-x="950" 
d="M-13 0l466 715h505l-12 -71h-326l-38 -243h266l-11 -71h-266l-41 -259h348l-11 -71h-435l32 207h-253l-133 -207h-91zM493 644l-238 -369h220l58 369h-40zM662 771l68 127h106l-108 -127h-66z" />
    <glyph glyph-name="aeacute" unicode="&#x1fd;" horiz-adv-x="875" 
d="M458 211q0 -151 138 -151q109 0 139 91h81q-23 -79 -82 -119.5t-141 -40.5q-145 0 -196 118q-30 -56 -81.5 -86.5t-116.5 -30.5q-82 0 -126.5 37.5t-44.5 104.5q0 62 37 102.5t93 57t129 16.5h97l6 35q10 61 -13.5 89.5t-85.5 28.5q-105 0 -125 -94h-83q11 59 47 97
t77 52t87 14q131 0 163 -86q74 85 183 85q110 0 163 -68t33 -199l-3 -17h-374q-1 -12 -1 -36zM206 57q63 0 106 34t53 100l9 56h-90q-89 0 -131.5 -25.5t-42.5 -84.5q0 -36 24.5 -58t71.5 -22zM635 463q-60 0 -104.5 -37.5t-62.5 -115.5h291q6 79 -23.5 116t-100.5 37z
M446 613l79 147h108l-121 -147h-66z" />
    <glyph glyph-name="Oslashacute" unicode="&#x1fe;" horiz-adv-x="811" 
d="M73 -33l-43 45l100 102q-62 84 -62 198q0 172 111 292t273 120q123 0 207 -68l84 86l43 -45l-83 -84q70 -87 70 -211q0 -176 -109.5 -293.5t-268.5 -117.5q-135 0 -223 77zM683 402q0 89 -38 151l-419 -429q64 -62 170 -62q127 0 207 96.5t80 243.5zM158 312
q0 -81 31 -138l417 427q-61 53 -155 53q-131 0 -212 -99.5t-81 -242.5zM441 771l68 127h106l-108 -127h-66z" />
    <glyph glyph-name="oslashacute" unicode="&#x1ff;" horiz-adv-x="589" 
d="M51 -37l-40 38l72 77q-45 61 -45 146q0 131 80 219t198 88q88 0 149 -47l67 72l41 -38l-69 -73q46 -58 46 -144q0 -134 -78.5 -221.5t-200.5 -87.5q-88 0 -149 47zM275 60q87 0 137.5 67t50.5 172q0 50 -16 85l-275 -293q37 -31 103 -31zM124 224q0 -53 15 -87l275 293
q-38 33 -103 33q-83 0 -135 -68t-52 -171zM294 613l79 147h108l-121 -147h-66z" />
    <glyph glyph-name="Scommaaccent" unicode="&#x218;" horiz-adv-x="627" 
d="M300 -9q-128 0 -196.5 66t-69.5 161h86q3 -67 48.5 -112t136.5 -45q79 -1 123.5 37.5t44.5 103.5q0 49 -32.5 77t-121.5 54q-109 32 -158.5 73.5t-49.5 119.5q0 83 66.5 140.5t173.5 57.5q105 0 167 -51.5t64 -145.5h-80q-12 127 -159 127q-74 0 -111.5 -34.5
t-37.5 -90.5q0 -43 31.5 -68.5t123.5 -53.5q112 -34 160.5 -76.5t48.5 -119.5q0 -96 -70.5 -158t-187.5 -62zM194 -220l-49 26l72 157l78 -24z" />
    <glyph glyph-name="scommaaccent" unicode="&#x219;" horiz-adv-x="480" 
d="M229 -9q-99 0 -150.5 48.5t-53.5 121.5h81q7 -101 126 -101q107 0 107 86q0 33 -23 51.5t-83 33.5q-87 22 -123 55.5t-36 93.5q0 71 53.5 111.5t128.5 40.5q81 0 131 -37.5t54 -113.5h-78q-2 38 -31.5 60t-77.5 22q-49 0 -75.5 -20.5t-26.5 -57.5q0 -30 22.5 -47.5
t83.5 -32.5q85 -21 123.5 -54t38.5 -101q0 -72 -52 -115.5t-139 -43.5zM130 -220l-49 26l72 157l78 -24z" />
    <glyph glyph-name="uni0237" unicode="&#x237;" horiz-adv-x="255" 
d="M-63 -190l11 69q43 2 63.5 21.5t26.5 58.5l89 564h83l-90 -569q-22 -144 -183 -144z" />
    <glyph glyph-name="circumflex" unicode="&#x2c6;" horiz-adv-x="400" 
d="M110 613l129 144h75l86 -144h-58l-74 75l-96 -75h-62z" />
    <glyph glyph-name="caron" unicode="&#x2c7;" horiz-adv-x="400" 
d="M422 757l-129 -144h-75l-86 144h58l74 -75l96 75h62z" />
    <glyph glyph-name="breve" unicode="&#x2d8;" horiz-adv-x="400" 
d="M268 619q-56 0 -93 36.5t-37 95.5h66q8 -64 65 -64q61 0 73 64h64q-4 -58 -44.5 -95t-93.5 -37z" />
    <glyph glyph-name="dotaccent" unicode="&#x2d9;" horiz-adv-x="400" 
d="M266 632q-23 0 -39 16t-16 38t16.5 39t39.5 17t38.5 -16t15.5 -38q0 -23 -16.5 -39.5t-38.5 -16.5z" />
    <glyph glyph-name="ring" unicode="&#x2da;" horiz-adv-x="400" 
d="M267 644q23 0 39 17t16 43q0 25 -14 40.5t-37 15.5t-39 -17t-16 -43q0 -25 14 -40.5t37 -15.5zM267 598q-44 0 -74.5 29.5t-30.5 72.5q0 44 32 75t77 31q44 0 74.5 -29.5t30.5 -72.5q0 -44 -32 -75t-77 -31z" />
    <glyph glyph-name="ogonek" unicode="&#x2db;" horiz-adv-x="400" 
d="M161 -182q-43 0 -71.5 20t-27.5 61q0 59 87 101h78q-2 -1 -14 -8t-16.5 -10.5t-15 -10.5t-15.5 -13t-11.5 -14t-9 -16.5t-2.5 -18.5q0 -31 37 -31q25 0 48 10l-9 -59q-29 -11 -58 -11z" />
    <glyph glyph-name="tilde" unicode="&#x2dc;" horiz-adv-x="400" 
d="M319 619q-26 0 -62.5 21.5t-48.5 21.5q-15 0 -28 -12.5t-18 -32.5h-60q10 54 39 85t68 31q25 0 61.5 -21.5t48.5 -21.5q15 0 27.5 12t17.5 33h60q-10 -54 -38.5 -85t-66.5 -31z" />
    <glyph glyph-name="hungarumlaut" unicode="&#x2dd;" horiz-adv-x="400" 
d="M146 613l53 147h96l-88 -147h-61zM300 613l53 147h96l-88 -147h-61z" />
    <glyph glyph-name="Wgrave" unicode="&#x1e80;" horiz-adv-x="890" 
d="M166 0l-73 715h87l54 -583l253 583h56l78 -585l235 585h83l-295 -715h-81l-72 561l-247 -561h-78zM491 771l-80 127h101l39 -127h-60z" />
    <glyph glyph-name="wgrave" unicode="&#x1e81;" horiz-adv-x="767" 
d="M135 0l-71 523h88l48 -426l192 426h72l50 -426l184 426h87l-240 -523h-92l-45 397l-182 -397h-91zM405 613l-88 147h102l47 -147h-61z" />
    <glyph glyph-name="Wacute" unicode="&#x1e82;" horiz-adv-x="890" 
d="M166 0l-73 715h87l54 -583l253 583h56l78 -585l235 585h83l-295 -715h-81l-72 561l-247 -561h-78zM486 771l68 127h106l-108 -127h-66z" />
    <glyph glyph-name="wacute" unicode="&#x1e83;" horiz-adv-x="767" 
d="M135 0l-71 523h88l48 -426l192 426h72l50 -426l184 426h87l-240 -523h-92l-45 397l-182 -397h-91zM411 613l79 147h108l-121 -147h-66z" />
    <glyph glyph-name="Wdieresis" unicode="&#x1e84;" horiz-adv-x="890" 
d="M166 0l-73 715h87l54 -583l253 583h56l78 -585l235 585h83l-295 -715h-81l-72 561l-247 -561h-78zM427 789q-22 0 -37.5 15t-15.5 37t16 38t38 16t37 -15t15 -37t-15.5 -38t-37.5 -16zM630 789q-22 0 -37.5 15t-15.5 37t16 38t38 16t37 -15t15 -37t-15.5 -38t-37.5 -16z
" />
    <glyph glyph-name="wdieresis" unicode="&#x1e85;" horiz-adv-x="767" 
d="M135 0l-71 523h88l48 -426l192 426h72l50 -426l184 426h87l-240 -523h-92l-45 397l-182 -397h-91zM355 634q-22 0 -37.5 15t-15.5 37t16 38t38 16t37 -15t15 -37t-15.5 -38t-37.5 -16zM543 634q-22 0 -37.5 15t-15.5 37t16 38t38 16t37 -15t15 -37t-15.5 -38t-37.5 -16z
" />
    <glyph glyph-name="Ygrave" unicode="&#x1ef2;" horiz-adv-x="592" 
d="M217 0l49 312l-175 403h93l138 -332l232 332h89l-291 -410l-48 -305h-87zM348 771l-80 127h101l39 -127h-60z" />
    <glyph glyph-name="ygrave" unicode="&#x1ef3;" horiz-adv-x="505" 
d="M44 -182l140 241l-124 464h85l94 -375l199 375h89l-395 -705h-88zM276 613l-88 147h102l47 -147h-61z" />
    <glyph glyph-name="uni2009" unicode="&#x2009;" horiz-adv-x="100" 
 />
    <glyph glyph-name="endash" unicode="&#x2013;" horiz-adv-x="526" 
d="M41 241l11 70h436l-11 -70h-436z" />
    <glyph glyph-name="emdash" unicode="&#x2014;" horiz-adv-x="885" 
d="M41 241l11 70h795l-11 -70h-795z" />
    <glyph glyph-name="quoteleft" unicode="&#x2018;" horiz-adv-x="241" 
d="M157 488l-77 36l131 202l49 -26z" />
    <glyph glyph-name="quoteright" unicode="&#x2019;" horiz-adv-x="241" 
d="M136 488l-49 26l103 212l77 -36z" />
    <glyph glyph-name="quotesinglbase" unicode="&#x201a;" horiz-adv-x="241" 
d="M25 -114l-47 26l102 212l76 -36z" />
    <glyph glyph-name="quotedblleft" unicode="&#x201c;" horiz-adv-x="418" 
d="M157 488l-77 36l131 202l49 -26zM334 488l-77 36l131 202l49 -26z" />
    <glyph glyph-name="quotedblright" unicode="&#x201d;" horiz-adv-x="418" 
d="M136 488l-49 26l103 212l77 -36zM313 488l-49 26l103 212l77 -36z" />
    <glyph glyph-name="quotedblbase" unicode="&#x201e;" horiz-adv-x="418" 
d="M25 -114l-47 26l102 212l76 -36zM202 -114l-48 26l103 212l76 -36z" />
    <glyph glyph-name="dagger" unicode="&#x2020;" horiz-adv-x="374" 
d="M141 213l49 306h-116l10 67h116l21 129h75l-21 -129h115l-10 -67h-115l-49 -306h-75z" />
    <glyph glyph-name="daggerdbl" unicode="&#x2021;" horiz-adv-x="374" 
d="M172 409l18 110h-116l10 67h116l21 129h75l-21 -129h115l-10 -67h-115l-18 -110h115l-10 -67h-115l-21 -129h-75l21 129h-116l10 67h116z" />
    <glyph glyph-name="bullet" unicode="&#x2022;" horiz-adv-x="332" 
d="M168 190q-47 0 -79 32.5t-32 78.5q0 51 34 86t86 35q48 0 80 -32.5t32 -78.5q0 -51 -34 -86t-87 -35z" />
    <glyph glyph-name="ellipsis" unicode="&#x2026;" horiz-adv-x="806" 
d="M108 -5q-26 0 -45 18.5t-19 45.5t18.5 45.5t44.5 18.5q27 0 46 -18.5t19 -45.5t-19 -45.5t-45 -18.5zM370 -5q-26 0 -45 18.5t-19 45.5t18.5 45.5t44.5 18.5q27 0 46 -18.5t19 -45.5t-19 -45.5t-45 -18.5zM632 -5q-26 0 -45 18.5t-19 45.5t18.5 45.5t44.5 18.5
q27 0 46 -18.5t19 -45.5t-19 -45.5t-45 -18.5z" />
    <glyph glyph-name="perthousand" unicode="&#x2030;" horiz-adv-x="1116" 
d="M150 541q0 -35 18.5 -59t59.5 -24t66.5 31.5t25.5 80.5q0 36 -19 61.5t-58 25.5q-44 0 -68.5 -33t-24.5 -83zM226 394q-66 0 -108.5 43.5t-42.5 107.5q0 71 50 123.5t121 52.5q67 0 108 -44t41 -110q0 -70 -49.5 -121.5t-119.5 -51.5zM81 0l547 715h79l-547 -715h-79z
M459 139q0 -35 18.5 -59t59.5 -24t66.5 31.5t25.5 80.5q0 36 -19 61.5t-58 25.5q-44 0 -68.5 -33t-24.5 -83zM535 -8q-66 0 -108.5 43.5t-42.5 107.5q0 71 50 123.5t121 52.5q67 0 108 -44t41 -110q0 -70 -49.5 -121.5t-119.5 -51.5zM826 139q0 -35 18.5 -59t59.5 -24
t66.5 31.5t25.5 80.5q0 36 -19 61.5t-58 25.5q-44 0 -68.5 -33t-24.5 -83zM902 -8q-66 0 -108.5 43.5t-42.5 107.5q0 71 50 123.5t121 52.5q67 0 108 -44t41 -110q0 -70 -49.5 -121.5t-119.5 -51.5z" />
    <glyph glyph-name="uni2032" unicode="&#x2032;" horiz-adv-x="212" 
d="M73 470l65 245h94l-98 -245h-61z" />
    <glyph glyph-name="uni2033" unicode="&#x2033;" horiz-adv-x="375" 
d="M73 470l65 245h94l-98 -245h-61zM236 470l65 245h94l-98 -245h-61z" />
    <glyph glyph-name="guilsinglleft" unicode="&#x2039;" horiz-adv-x="322" 
d="M160 83l-102 179l158 177h85l-156 -181l95 -175h-80z" />
    <glyph glyph-name="guilsinglright" unicode="&#x203a;" horiz-adv-x="322" 
d="M160 439l102 -179l-158 -177h-85l156 181l-95 175h80z" />
    <glyph glyph-name="fraction" unicode="&#x2044;" horiz-adv-x="113" 
d="M-263 0l597 715h69l-597 -715h-69z" />
    <glyph glyph-name="Euro" unicode="&#x20ac;" horiz-adv-x="668" 
d="M53 394l9 58h72q26 122 100 197t191 75q103 0 161.5 -57t61.5 -162h-83q-2 65 -38 108t-106 43q-157 0 -201 -204h232l-18 -58h-224l-12 -78h212l-18 -58h-201q-2 -38 4 -70t22 -61.5t50.5 -47t84.5 -17.5q146 0 187 164h80q-23 -116 -96 -175.5t-174 -59.5
q-125 0 -186 75.5t-57 191.5h-74l9 58h71l12 78h-71z" />
    <glyph glyph-name="trademark" unicode="&#x2122;" horiz-adv-x="716" 
d="M352 393l51 322h75l54 -226l124 226h80l-51 -322h-56l39 251l-142 -251h-19l-65 251l-39 -251h-51zM142 393l44 278h-98l7 44h251l-7 -44h-97l-44 -278h-56z" />
    <glyph glyph-name="onethird" unicode="&#x2153;" horiz-adv-x="732" 
d="M125 373l43 274l-89 -54l9 61l99 61h60l-54 -342h-68zM17 0l597 715h69l-597 -715h-69zM542 -5q-56 0 -92 26.5t-37 84.5h63q2 -28 18 -44.5t47 -16.5q27 0 46.5 15t19.5 44q0 49 -55 49h-24l7 47h27q28 0 44 13t16 37q0 46 -49 46q-55 0 -68 -55h-60q6 48 42.5 76.5
t87.5 28.5q49 0 80.5 -22t31.5 -68q0 -28 -18 -49t-49 -31q56 -13 56 -75q0 -49 -39.5 -77.5t-94.5 -28.5z" />
    <glyph glyph-name="twothirds" unicode="&#x2154;" horiz-adv-x="770" 
d="M27 373l2 12l148 131q40 35 56 57t16 49q0 22 -13 33.5t-33 11.5q-52 0 -67 -66h-62q9 55 45.5 86.5t87.5 31.5q46 0 77.5 -24t31.5 -72q0 -36 -21 -63t-77 -76l-69 -60h138l-8 -51h-252zM64 0l597 715h69l-597 -715h-69zM580 -5q-56 0 -92 26.5t-37 84.5h63
q2 -28 18 -44.5t47 -16.5q27 0 46.5 15t19.5 44q0 49 -55 49h-24l7 47h27q28 0 44 13t16 37q0 46 -49 46q-55 0 -68 -55h-60q6 48 42.5 76.5t87.5 28.5q49 0 80.5 -22t31.5 -68q0 -28 -18 -49t-49 -31q56 -13 56 -75q0 -49 -39.5 -77.5t-94.5 -28.5z" />
    <glyph glyph-name="oneeighth" unicode="&#x215b;" horiz-adv-x="722" 
d="M125 373l43 274l-89 -54l9 61l99 61h60l-54 -342h-68zM16 0l597 715h69l-597 -715h-69zM533 -5q-51 0 -87.5 24t-36.5 72q0 72 77 95q-41 20 -41 63q0 44 36 70.5t86 26.5q43 0 77 -22.5t34 -65.5q0 -54 -60 -77q50 -23 50 -77q0 -52 -39 -80.5t-96 -28.5zM477 98
q0 -24 15 -38.5t44 -14.5q27 0 46 15t19 45q0 25 -15.5 40t-42.5 15t-46.5 -16.5t-19.5 -45.5zM509 247q0 -20 14 -32t35 -12q26 0 41 13t15 38q0 19 -14 31.5t-37 12.5t-38.5 -13.5t-15.5 -37.5z" />
    <glyph glyph-name="threeeighths" unicode="&#x215c;" horiz-adv-x="758" 
d="M186 368q-56 0 -92 26.5t-37 84.5h63q2 -28 18 -44.5t47 -16.5q27 0 46.5 15t19.5 44q0 49 -55 49h-24l7 47h27q28 0 44 13t16 37q0 46 -49 46q-55 0 -68 -55h-60q6 48 42.5 76.5t87.5 28.5q49 0 80.5 -22t31.5 -68q0 -28 -18 -49t-49 -31q56 -13 56 -75
q0 -49 -39.5 -77.5t-94.5 -28.5zM62 0l597 715h69l-597 -715h-69zM569 -5q-51 0 -87.5 24t-36.5 72q0 72 77 95q-41 20 -41 63q0 44 36 70.5t86 26.5q43 0 77 -22.5t34 -65.5q0 -54 -60 -77q50 -23 50 -77q0 -52 -39 -80.5t-96 -28.5zM513 98q0 -24 15 -38.5t44 -14.5
q27 0 46 15t19 45q0 25 -15.5 40t-42.5 15t-46.5 -16.5t-19.5 -45.5zM545 247q0 -20 14 -32t35 -12q26 0 41 13t15 38q0 19 -14 31.5t-37 12.5t-38.5 -13.5t-15.5 -37.5z" />
    <glyph glyph-name="fiveeighths" unicode="&#x215d;" horiz-adv-x="751" 
d="M177 368q-118 0 -122 104h63q5 -52 59 -52q29 0 46.5 20t17.5 55q0 57 -58 57q-40 0 -67 -29h-35l35 192h210l-8 -52h-159l-15 -86q26 24 69 24q42 0 70 -27t27 -74q-1 -60 -37 -95.5t-96 -36.5zM55 0l597 715h69l-597 -715h-69zM562 -5q-51 0 -87.5 24t-36.5 72
q0 72 77 95q-41 20 -41 63q0 44 36 70.5t86 26.5q44 0 77.5 -22.5t33.5 -65.5q0 -54 -60 -77q50 -23 50 -77q0 -52 -39 -80.5t-96 -28.5zM506 98q0 -24 15 -38.5t44 -14.5q27 0 46 15t19 45q0 25 -15.5 40t-42.5 15t-46.5 -16.5t-19.5 -45.5zM538 247q0 -20 14 -32t35 -12
q26 0 41 13t15 38q0 19 -14 31.5t-37 12.5t-38.5 -13.5t-15.5 -37.5z" />
    <glyph glyph-name="seveneighths" unicode="&#x215e;" horiz-adv-x="709" 
d="M83 373l153 287h-160l9 55h247l-2 -8l-176 -334h-71zM0 0l597 715h69l-597 -715h-69zM520 -5q-51 0 -87.5 24t-36.5 72q0 72 77 95q-41 20 -41 63q0 44 36 70.5t86 26.5q44 0 77.5 -22.5t33.5 -65.5q0 -54 -60 -77q50 -23 50 -77q0 -52 -39 -80.5t-96 -28.5zM464 98
q0 -24 15 -38.5t44 -14.5q27 0 46 15t19 45q0 25 -15.5 40t-42.5 15t-46.5 -16.5t-19.5 -45.5zM496 247q0 -20 14 -32t35 -12q26 0 41 13t15 38q0 19 -14 31.5t-37 12.5t-38.5 -13.5t-15.5 -37.5z" />
    <glyph glyph-name="minus" unicode="&#x2212;" horiz-adv-x="519" 
d="M42 307l11 70h447l-11 -70h-447z" />
    <glyph glyph-name="approxequal" unicode="&#x2248;" horiz-adv-x="498" 
d="M61 343q9 58 42 88.5t76 30.5q38 0 101.5 -22t87.5 -22q17 0 31.5 12t18.5 34h63q-9 -58 -41 -88.5t-74 -30.5q-40 0 -104 22t-87 22q-39 0 -51 -46h-63zM32 166q9 58 42 88.5t76 30.5q38 0 101.5 -22t87.5 -22q17 0 31.5 12t18.5 34h63q-9 -58 -41 -88.5t-74 -30.5
q-40 0 -104 22t-87 22q-39 0 -51 -46h-63z" />
    <glyph glyph-name="notequal" unicode="&#x2260;" horiz-adv-x="484" 
d="M57 376l11 72h210l52 103h76l-52 -103h118l-11 -72h-143l-55 -108h181l-11 -72h-206l-51 -103h-76l51 103h-122l11 72h147l55 108h-185z" />
    <glyph glyph-name="lessequal" unicode="&#x2264;" horiz-adv-x="504" 
d="M413 119l-351 208l3 20l416 202l-13 -83l-281 -132l238 -138zM11 0l11 70h384l-11 -70h-384z" />
    <glyph glyph-name="greaterequal" unicode="&#x2265;" horiz-adv-x="504" 
d="M25 0l11 70h384l-11 -70h-384zM111 549l351 -208l-3 -20l-416 -202l13 83l281 132l-238 138z" />
    <glyph glyph-name="uni24C5" unicode="&#x24c5;" horiz-adv-x="844" 
d="M315 162v395h128q69 0 108 -30.5t39 -91.5v-3q0 -61 -38.5 -91t-105.5 -30h-55v-149h-76zM391 366h52q74 0 74 66v3q0 63 -74 63h-52v-132zM432 33q131 0 225.5 92.5t94.5 233.5q0 140 -93 231.5t-225 91.5q-134 0 -227 -92t-93 -233t94.5 -232.5t223.5 -91.5zM432 -9
q-153 0 -259.5 105.5t-106.5 260.5q0 153 107 260t261 107q155 0 260.5 -106t105.5 -259q0 -156 -106.5 -262t-261.5 -106z" />
    <glyph glyph-name="f_i" unicode="&#xfb01;" horiz-adv-x="591" 
d="M51 453l11 70h74l16 96q12 79 55.5 118t109.5 39q41 0 69 -13l-10 -66q-24 10 -56 10q-70 0 -85 -90l-15 -94h128l-11 -70h-128l-72 -453h-83l71 453h-74zM380 0l83 523h83l-83 -523h-83zM528 632q-23 0 -39 16t-16 38t16.5 39t39.5 17t38.5 -16t15.5 -38
q0 -23 -16.5 -39.5t-38.5 -16.5z" />
    <glyph glyph-name="f_l" unicode="&#xfb02;" horiz-adv-x="592" 
d="M51 453l11 70h74l16 96q12 79 55.5 118t109.5 39q41 0 69 -13l-10 -66q-24 10 -56 10q-70 0 -85 -90l-15 -94h128l-11 -70h-128l-72 -453h-83l71 453h-74zM380 0l122 773h84l-122 -773h-84z" />
    <glyph glyph-name="space_uni0326" horiz-adv-x="400" 
d="M108 -220l-49 26l72 157l78 -24z" />
    <glyph glyph-name="caron.alt" horiz-adv-x="400" 
d="M236 598l38 175h91l-70 -175h-59z" />
    <glyph glyph-name="space_uni0326.alt" horiz-adv-x="400" 
d="M312 785l49 -26l-72 -157l-78 24z" />
    <glyph glyph-name="grave.uc" horiz-adv-x="400" 
d="M259 771l-80 127h101l39 -127h-60z" />
    <glyph glyph-name="dieresis.uc" horiz-adv-x="400" 
d="M189 789q-22 0 -37.5 15t-15.5 37t16 38t38 16t37 -15t15 -37t-15.5 -38t-37.5 -16zM392 789q-22 0 -37.5 15t-15.5 37t16 38t38 16t37 -15t15 -37t-15.5 -38t-37.5 -16z" />
    <glyph glyph-name="macron.uc" horiz-adv-x="400" 
d="M149 786l10 64h266l-10 -64h-266z" />
    <glyph glyph-name="acute.uc" horiz-adv-x="400" 
d="M240 771l68 127h106l-108 -127h-66z" />
    <glyph glyph-name="circumflex.uc" horiz-adv-x="400" 
d="M135 771l124 127h75l91 -127h-58l-77 58l-93 -58h-62z" />
    <glyph glyph-name="caron.uc" horiz-adv-x="400" 
d="M445 898l-124 -127h-75l-91 127h58l77 -58l93 58h62z" />
    <glyph glyph-name="breve.uc" horiz-adv-x="400" 
d="M294 767q-56 0 -93 36.5t-37 95.5h66q8 -64 65 -64q61 0 73 64h64q-4 -58 -44.5 -95t-93.5 -37z" />
    <glyph glyph-name="dotaccent.uc" horiz-adv-x="400" 
d="M290 787q-23 0 -39 16t-16 38q0 23 16.5 39.5t39.5 16.5t38.5 -15.5t15.5 -38.5t-16.5 -39.5t-38.5 -16.5z" />
    <glyph glyph-name="ring.uc" horiz-adv-x="400" 
d="M292 805q23 0 39 17t16 43q0 25 -14 40.5t-37 15.5t-39 -17t-16 -43q0 -25 14 -40.5t37 -15.5zM292 759q-44 0 -74.5 29.5t-30.5 72.5q0 44 32 75t77 31q44 0 74.5 -29.5t30.5 -72.5q0 -44 -32 -75t-77 -31z" />
    <glyph glyph-name="tilde.uc" horiz-adv-x="400" 
d="M345 774q-26 0 -62.5 21.5t-48.5 21.5q-15 0 -28 -12.5t-18 -32.5h-60q10 54 39 85t68 31q25 0 61.5 -21.5t48.5 -21.5q15 0 27.5 12t17.5 33h60q-10 -54 -38.5 -85t-66.5 -31z" />
    <glyph glyph-name="hungarumlaut.uc" horiz-adv-x="400" 
d="M177 771l46 127h96l-81 -127h-61zM331 771l46 127h96l-81 -127h-61z" />
    <glyph glyph-name="idotaccent" horiz-adv-x="255" 
d="M192 632q-23 0 -39 16t-16 38t16.5 39t39.5 17t38.5 -16t15.5 -38q0 -23 -16.5 -39.5t-38.5 -16.5zM44 0l83 523h83l-83 -523h-83z" />
    <glyph glyph-name="registered.alt" horiz-adv-x="844" 
d="M298 163v395h135q68 0 107.5 -28.5t39.5 -87.5v-2q0 -85 -87 -106l110 -171h-79l-103 159h-48v-159h-75zM373 375h59q73 0 73 62v3q0 60 -73 60h-59v-125zM432 33q131 0 225.5 92.5t94.5 233.5q0 140 -93 231.5t-225 91.5q-134 0 -227 -92t-93 -233t94.5 -232.5
t223.5 -91.5zM432 -9q-153 0 -259.5 105.5t-106.5 260.5q0 153 107 260t261 107q155 0 260.5 -106t105.5 -259q0 -156 -106.5 -262t-261.5 -106z" />
    <glyph glyph-name="dollar.old" horiz-adv-x="608" 
d="M295 -8h-5l-19 -123h-58l20 128q-97 15 -148.5 74.5t-52.5 139.5h82q2 -54 34 -95t95 -54l42 266q-92 29 -134.5 69.5t-42.5 112.5q0 80 66.5 135.5t169.5 56.5l14 87h58l-15 -91q79 -12 125 -60.5t48 -126.5h-76q-10 100 -107 120l-39 -244q101 -32 146 -73t45 -113
q0 -93 -67 -151t-181 -58zM459 193q0 45 -25 70.5t-94 48.5l-40 -255q76 1 117.5 37t41.5 99zM189 513q0 -38 22.5 -61.5t85.5 -46.5l37 231q-71 -1 -108 -35.5t-37 -87.5z" />
    <glyph glyph-name="Euro.old" horiz-adv-x="654" 
d="M49 382l9 56h70q26 119 97 191.5t185 72.5q100 0 157 -55t60 -157h-81q-2 62 -37 104t-103 42q-151 0 -194 -198h224l-17 -56h-217l-12 -75h206l-17 -56h-196q-1 -29 1.5 -54.5t12.5 -51t27 -44t46.5 -30t68.5 -11.5q143 0 182 159h77q-22 -113 -92.5 -170.5
t-168.5 -57.5q-121 0 -181 73.5t-55 186.5h-72l9 56h69l11 75h-69z" />
    <glyph glyph-name="sterling.old" horiz-adv-x="578" 
d="M55 306l10 60h68q-4 39 -4 91q0 107 60 176t174 69q90 0 142.5 -46.5t53.5 -136.5h-83q-3 55 -30 84.5t-87 29.5q-78 0 -112.5 -49t-34.5 -128q0 -34 2 -90h205l-10 -60h-191q1 -21 1 -67q0 -78 -29 -127q21 -5 81.5 -27.5t85.5 -22.5q78 0 91 83h72q-11 -72 -52.5 -113
t-113.5 -41q-44 0 -118.5 30.5t-98.5 30.5q-52 0 -64 -52h-70q7 40 36.5 75.5t74.5 42.5q28 46 28 113q0 21 -4 75h-83z" />
    <glyph glyph-name="yen.old" horiz-adv-x="559" 
d="M82 273l9 56h151l-146 365h87l120 -315l212 315h85l-251 -365h151l-9 -56h-163l-12 -76h162l-9 -56h-162l-22 -141h-82l22 141h-164l9 56h163l12 76h-163z" />
    <glyph glyph-name="zero.old" horiz-adv-x="643" 
d="M149 304q-5 -37 -5 -65q0 -83 40.5 -130t123.5 -47q160 0 194 216l6 38q5 29 5 69q0 83 -40.5 128.5t-117.5 45.5q-81 0 -132.5 -55.5t-67.5 -161.5zM304 -9q-118 0 -182 69t-64 183q0 31 5 68l6 38q21 130 98.5 204.5t189.5 74.5q118 0 180.5 -67t62.5 -180
q0 -37 -6 -73l-6 -38q-20 -131 -94.5 -205t-189.5 -74z" />
    <glyph glyph-name="one.old" horiz-adv-x="387" 
d="M151 0l84 532l-176 -112l13 82l183 117h79l-98 -619h-85z" />
    <glyph glyph-name="two.old" horiz-adv-x="541" 
d="M-27 0l3 20l290 223q34 27 55.5 45.5t47.5 46.5t38.5 57t12.5 60q0 53 -30.5 80.5t-85.5 27.5q-126 0 -160 -153h-78q16 103 82 162t162 59q83 0 140.5 -45t56.5 -130q-1 -39 -13 -71.5t-42 -65t-56 -54t-77 -61.5q-11 -9 -17 -13l-153 -118h313l-11 -70h-478z" />
    <glyph glyph-name="three.old" horiz-adv-x="593" 
d="M260 -105q-107 0 -174.5 57t-68.5 163h80q8 -152 168 -152q73 0 118 39.5t45 112.5q0 128 -138 128h-46l11 71h50q145 0 145 133q0 57 -34 84.5t-91 27.5q-63 0 -105 -35.5t-57 -101.5h-77q15 93 82.5 149.5t164.5 56.5q85 0 143 -45t58 -132q0 -131 -131 -174
q112 -37 112 -158q0 -101 -72.5 -162.5t-182.5 -61.5z" />
    <glyph glyph-name="four.old" horiz-adv-x="617" 
d="M339 -97l25 154h-365l4 28l416 533h116l-78 -494h101l-10 -67h-101l-25 -154h-83zM117 124h257l68 426z" />
    <glyph glyph-name="five.old" horiz-adv-x="569" 
d="M14 90h80q13 -127 144 -127q83 0 127 53t44 141q0 58 -33.5 98.5t-101.5 40.5q-93 0 -165 -67h-30l62 390h392l-12 -73h-323l-36 -228q57 46 135 46q89 0 144.5 -56.5t55.5 -144.5q0 -118 -70 -193t-192 -75q-96 0 -155.5 50t-65.5 145z" />
    <glyph glyph-name="six.old" horiz-adv-x="611" 
d="M291 -9q-115 0 -173 64.5t-58 165.5q0 48 10 110l5 31q29 178 110.5 270t200.5 92q87 0 140.5 -43.5t58.5 -126.5h-82q-13 101 -124 101q-79 0 -135.5 -69.5t-82.5 -214.5q64 84 183 84q93 0 150 -56t57 -150q0 -111 -73.5 -184.5t-186.5 -73.5zM142 215q0 -70 38 -113.5
t115 -43.5q74 0 121 53t47 133q0 63 -36.5 103.5t-106.5 40.5q-75 0 -126.5 -48.5t-51.5 -124.5z" />
    <glyph glyph-name="seven.old" horiz-adv-x="523" 
d="M56 -97l377 647h-359l10 68h468l-2 -12l-404 -703h-90z" />
    <glyph glyph-name="eight.old" horiz-adv-x="595" 
d="M275 -9q-94 0 -164 51t-70 140q0 78 47.5 131.5t120.5 72.5q-91 42 -91 136q0 88 68.5 145t164.5 57q83 0 143 -45.5t60 -130.5q0 -123 -138 -171q54 -22 85 -63t31 -96q0 -103 -75 -165t-182 -62zM129 189q0 -56 40.5 -92t110.5 -36q68 0 116 40.5t48 115.5
q0 57 -38.5 92.5t-106.5 35.5q-72 0 -121 -41.5t-49 -114.5zM204 521q0 -48 35.5 -78t92.5 -30q58 0 97 35t39 97q0 49 -33 80.5t-89 31.5q-61 0 -101.5 -36.5t-40.5 -99.5z" />
    <glyph glyph-name="nine.old" horiz-adv-x="611" 
d="M336 628q114 0 171.5 -65t57.5 -166q0 -51 -8 -101l-5 -31q-59 -370 -311 -370q-93 0 -147 45.5t-61 134.5h82q14 -111 128 -111q88 0 141 66.5t80 217.5q-64 -84 -183 -84q-93 0 -150 56t-57 150q0 110 75 184t187 74zM483 408q0 70 -37 111.5t-114 41.5
q-74 0 -122 -53.5t-48 -132.5q0 -63 36.5 -103.5t106.5 -40.5q75 0 126.5 50.5t51.5 126.5z" />
    <glyph glyph-name="dollar.tab" 
d="M291 -9h-5l-20 -126h-59l20 131q-99 16 -151 77.5t-53 144.5h84q2 -56 34 -98t97 -55l44 274q-95 30 -138 71.5t-43 115.5q0 82 68 139.5t174 58.5l14 89h59l-15 -94q80 -13 127.5 -62.5t49.5 -129.5h-78q-10 101 -110 123l-40 -251q103 -32 148.5 -74t45.5 -116
q0 -96 -68.5 -157t-184.5 -61zM460 201q0 45 -26 71.5t-96 49.5l-41 -262q78 1 120.5 38.5t42.5 102.5zM183 529q0 -39 23.5 -64t87.5 -48l38 238q-73 -1 -111 -36t-38 -90z" />
    <glyph glyph-name="Euro.tab" 
d="M35 394l9 58h63q25 132 94 202t174 70q98 0 150.5 -56.5t53.5 -159.5h-82q-5 148 -124 148q-73 0 -116 -49.5t-63 -154.5h218l-20 -58h-208l-12 -78h193l-20 -58h-181q-17 -196 142 -196q62 0 103 37.5t63 122.5h80q-50 -231 -247 -231q-120 0 -177.5 71.5t-48.5 195.5
h-65l9 58h63l12 78h-63z" />
    <glyph glyph-name="sterling.tab" 
d="M57 315l10 62h70q-4 40 -4 94q0 110 62 181.5t179 71.5q93 0 147 -48t55 -141h-85q-3 56 -31 87t-90 31q-80 0 -115.5 -50.5t-35.5 -132.5q0 -33 2 -93h211l-10 -62h-197q1 -21 1 -69q0 -81 -30 -131q22 -6 84.5 -28.5t87.5 -22.5q81 0 94 86h74q-11 -74 -53.5 -116.5
t-117.5 -42.5q-45 0 -122 31.5t-102 31.5q-54 0 -66 -54h-72q7 41 37.5 78t77.5 44q28 47 28 116q0 21 -4 77h-85z" />
    <glyph glyph-name="yen.tab" 
d="M98 281l9 58h157l-142 376h91l113 -324l209 324h87l-251 -376h157l-9 -58h-168l-12 -78h167l-9 -58h-167l-23 -145h-85l23 145h-169l9 58h169l12 78h-168z" />
    <glyph glyph-name="zero.tab" 
d="M146 303q-7 -47 -7 -79q0 -161 140 -161q80 0 122.5 51t61.5 169l20 126q7 47 7 80q0 165 -137 165q-78 0 -123.5 -55t-63.5 -170zM279 -9q-110 0 -168.5 63.5t-57.5 167.5q0 41 7 88l20 126q23 144 93 216t181 72q113 0 167 -63t54 -171q0 -46 -7 -89l-20 -126
q-46 -284 -269 -284z" />
    <glyph glyph-name="one.tab" 
d="M272 0l99 624l-233 -161l13 84l232 168h89l-113 -715h-87z" />
    <glyph glyph-name="two.tab" 
d="M-8 0l3 20l341 296q131 113 131 221q0 49 -30 83t-84 34q-131 2 -170 -159h-82q18 114 87 172t170 57q85 0 141 -50t56 -135q0 -79 -45.5 -143t-133.5 -138l-221 -187h337l-11 -71h-489z" />
    <glyph glyph-name="three.tab" 
d="M270 -9q-110 0 -175.5 59.5t-65.5 160.5h82q2 -67 41.5 -108.5t121.5 -41.5q81 0 125 39.5t44 118.5q0 55 -34 87t-103 32h-46l12 73h62q62 0 100.5 32t38.5 98q0 53 -32 82.5t-89 29.5q-65 0 -109 -34.5t-60 -100.5h-77q13 92 83 149t168 57q83 0 142.5 -46t59.5 -134
q0 -62 -36.5 -108t-99.5 -64q52 -17 80.5 -56.5t28.5 -96.5q0 -105 -72.5 -166.5t-189.5 -61.5z" />
    <glyph glyph-name="four.tab" 
d="M347 0l23 150h-348l5 28l400 537h118l-78 -494h84l-12 -71h-84l-23 -150h-85zM146 221h236l66 420z" />
    <glyph glyph-name="five.tab" 
d="M265 -9q-98 0 -160 52.5t-66 149.5h84q8 -132 143 -132q82 0 129.5 53.5t47.5 145.5q0 64 -36 102.5t-106 38.5q-93 0 -166 -69h-32l61 383h402l-12 -75h-330l-34 -214q58 45 140 45q91 0 147 -57t56 -150q0 -117 -75 -195t-193 -78z" />
    <glyph glyph-name="six.tab" 
d="M290 -9q-116 0 -177 63.5t-61 183.5q0 36 9 97l5 31q11 70 33.5 130t59 113t94.5 84t131 31q92 0 143.5 -45.5t55.5 -127.5h-82q-6 49 -34 75.5t-88 26.5q-49 0 -89 -23t-66.5 -64t-43.5 -88t-27 -104q69 90 185 90q92 0 152 -57.5t60 -150.5q0 -113 -72.5 -189
t-187.5 -76zM137 211q0 -66 39 -109t115 -43t123 55t47 138q0 62 -37.5 103t-110.5 41q-77 0 -126.5 -51.5t-49.5 -133.5z" />
    <glyph glyph-name="seven.tab" 
d="M123 0l357 645h-369l11 70h481l-2 -12l-389 -703h-89z" />
    <glyph glyph-name="eight.tab" 
d="M282 -9q-96 0 -166.5 52t-70.5 143q0 77 44.5 131t120.5 76q-41 19 -64.5 55t-23.5 79q0 86 67.5 141.5t164.5 55.5q82 0 144 -49t62 -129q0 -118 -133 -162q52 -21 82.5 -65.5t30.5 -99.5q0 -106 -74 -167t-184 -61zM134 197q0 -61 43 -98t110 -37q74 0 119 41t45 115
q0 60 -41 96t-104 36q-76 0 -124 -40t-48 -113zM209 530q0 -47 36 -79t94 -32q57 0 95.5 30.5t38.5 92.5q0 49 -35 81.5t-91 32.5q-59 0 -98.5 -32.5t-39.5 -93.5z" />
    <glyph glyph-name="nine.tab" 
d="M253 -8q-92 0 -151.5 45.5t-66.5 138.5h85q9 -62 43 -87.5t97 -25.5q82 0 137.5 68.5t77.5 204.5q-30 -40 -78.5 -62t-105.5 -22q-89 0 -150 55.5t-61 151.5q0 115 75.5 190.5t192.5 75.5q110 0 168 -63.5t59 -179.5q0 -52 -8 -100l-7 -44q-56 -346 -307 -346zM169 463
q0 -65 35 -104t99 -39q83 0 136 47.5t53 136.5q0 65 -36.5 109t-110.5 44q-78 0 -127 -54.5t-49 -139.5z" />
    <glyph glyph-name="cent.tab" 
d="M224 -135l21 132q-86 16 -135.5 77.5t-49.5 153.5q0 136 79 218t190 85l16 98h59l-16 -102q71 -12 115.5 -57.5t47.5 -122.5h-79q-4 92 -95 111l-63 -398q54 2 93 33t53 93h79q-20 -94 -83.5 -143.5t-152.5 -50.5l-20 -127h-59zM145 228q0 -138 111 -163l62 396
q-76 -5 -124.5 -67t-48.5 -166z" />
    <glyph glyph-name="percent.tab" horiz-adv-x="800" 
d="M160 535q0 -88 80 -88q44 0 69.5 33t25.5 85q0 38 -19 65t-60 27q-47 0 -71.5 -34.5t-24.5 -87.5zM238 383q-68 0 -111 44.5t-43 111.5q0 74 51 128t124 54q69 0 110.5 -45.5t41.5 -113.5q0 -73 -50.5 -126t-122.5 -53zM101 0l547 715h79l-547 -715h-79zM492 144
q0 -88 80 -88q44 0 69.5 33t25.5 85q0 38 -19 65t-60 27q-47 0 -71.5 -34.5t-24.5 -87.5zM570 -8q-68 0 -111 44.5t-43 111.5q0 74 51 128t124 54q69 0 110.5 -45.5t41.5 -113.5q0 -73 -50.5 -126t-122.5 -53z" />
    <glyph glyph-name="perthousand.tab" horiz-adv-x="1000" 
d="M161 525q0 -67 53 -67q40 0 58.5 40t18.5 88q0 72 -52 72q-28 0 -46.5 -22.5t-25 -51t-6.5 -59.5zM212 395q-54 0 -89.5 36t-34.5 98q1 77 41.5 134.5t111.5 57.5q55 0 89 -35.5t34 -99.5q0 -72 -40 -131.5t-112 -59.5zM49 0l547 715h79l-547 -715h-79zM429 122
q0 -67 53 -67q40 0 58.5 40t18.5 88q0 72 -52 72q-28 0 -46.5 -22.5t-25 -51t-6.5 -59.5zM480 -8q-54 0 -89.5 36t-34.5 98q1 77 41.5 134.5t111.5 57.5q55 0 89 -35.5t34 -99.5q0 -72 -40 -131.5t-112 -59.5zM738 122q0 -67 53 -67q40 0 58.5 40t18.5 88q0 72 -52 72
q-28 0 -46.5 -22.5t-25 -51t-6.5 -59.5zM789 -8q-54 0 -89.5 36t-34.5 98q1 77 41.5 134.5t111.5 57.5q55 0 89 -35.5t34 -99.5q0 -72 -40 -131.5t-112 -59.5z" />
    <glyph glyph-name="plus.tab" 
d="M238 105l32 202h-187l11 70h187l32 202h73l-32 -202h187l-11 -70h-187l-32 -202h-73z" />
    <glyph glyph-name="minus.tab" 
d="M83 307l11 70h447l-11 -70h-447z" />
    <glyph glyph-name="multiply.tab" 
d="M135 131l-43 50l172 154l-132 153l50 47l134 -154l172 154l45 -50l-174 -155l134 -153l-52 -46l-133 153z" />
    <glyph glyph-name="divide.tab" 
d="M83 307l11 70h447l-11 -70h-447zM288 89q-26 0 -45 18.5t-19 45.5t19 45.5t45 18.5t45 -18.5t19 -45.5t-19 -45.5t-45 -18.5zM336 467q-26 0 -45 18.5t-19 45.5t19 45.5t45 18.5t45 -18.5t19 -45.5t-19 -45.5t-45 -18.5z" />
    <glyph glyph-name="equal.tab" 
d="M87 196l11 72h404l-11 -72h-404zM115 376l11 72h404l-11 -72h-404z" />
    <glyph glyph-name="less.tab" 
d="M458 95l-350 221l3 20l418 213l-12 -82l-288 -143l241 -151z" />
    <glyph glyph-name="greater.tab" 
d="M159 549l350 -221l-3 -20l-418 -213l12 84l288 143l-241 151z" />
    <glyph glyph-name="florin.tab" 
d="M127 345l11 68h111l27 141q16 85 66 127.5t122 42.5q51 0 79 -16l-10 -65q-29 12 -68 12q-87 0 -107 -105l-26 -137h147l-11 -68h-148l-99 -527h-83l99 527h-110z" />
    <glyph glyph-name="plusminus.tab" 
d="M244 145l29 182h-187l11 70h187l29 182h73l-29 -182h187l-11 -70h-187l-29 -182h-73zM35 0l11 70h447l-11 -70h-447z" />
    <glyph glyph-name="notequal.tab" 
d="M115 376l11 72h210l52 103h76l-52 -103h118l-11 -72h-143l-55 -108h181l-11 -72h-206l-51 -103h-76l51 103h-122l11 72h147l55 108h-185z" />
    <glyph glyph-name="approxequal.tab" 
d="M113 343q9 58 42 88.5t76 30.5q38 0 101.5 -22t87.5 -22q17 0 31.5 12t18.5 34h63q-9 -58 -41 -88.5t-74 -30.5q-40 0 -104 22t-87 22q-39 0 -51 -46h-63zM84 166q9 58 42 88.5t76 30.5q38 0 101.5 -22t87.5 -22q17 0 31.5 12t18.5 34h63q-9 -58 -41 -88.5t-74 -30.5
q-40 0 -104 22t-87 22q-39 0 -51 -46h-63z" />
    <glyph glyph-name="lessequal.tab" 
d="M461 119l-351 208l3 20l416 202l-13 -83l-281 -132l238 -138zM59 0l11 70h384l-11 -70h-384z" />
    <glyph glyph-name="greaterequal.tab" 
d="M73 0l11 70h384l-11 -70h-384zM159 549l351 -208l-3 -20l-416 -202l13 83l281 132l-238 138z" />
    <glyph glyph-name="parenleft.tab" horiz-adv-x="300" 
d="M126 -148q-37 77 -57.5 157t-20.5 192q0 300 218 572h85q-101 -128 -158.5 -274.5t-57.5 -293.5q-1 -193 72 -353h-81z" />
    <glyph glyph-name="parenright.tab" horiz-adv-x="300" 
d="M188 773q37 -77 57.5 -157t20.5 -192q0 -300 -218 -572h-85q101 128 158.5 274.5t57.5 293.5q1 193 -72 353h81z" />
    <glyph glyph-name="bracketleft.tab" horiz-adv-x="300" 
d="M4 -148l146 924h194l-10 -66h-111l-125 -792h111l-11 -66h-194z" />
    <glyph glyph-name="bracketright.tab" horiz-adv-x="300" 
d="M-30 -148l11 66h111l125 792h-111l10 66h194l-146 -924h-194z" />
    <glyph glyph-name="braceleft.tab" horiz-adv-x="300" 
d="M198 -147q-102 4 -137 61t1 157l36 98q19 45 4 75.5t-71 47.5l9 61q61 12 83.5 39t21.5 71v123q-2 105 48.5 149t152.5 43l-10 -62q-61 0 -86.5 -28t-25.5 -105l-2 -118q0 -61 -30 -93.5t-88 -51.5q52 -22 71.5 -57.5t-1.5 -98.5l-33 -96q-27 -80 -11.5 -114t78.5 -38z
" />
    <glyph glyph-name="braceright.tab" horiz-adv-x="300" 
d="M117 778q102 -4 137 -61t-1 -157l-36 -98q-19 -45 -4 -75.5t71 -47.5l-9 -61q-61 -12 -83.5 -39t-21.5 -71v-123q2 -105 -48.5 -149t-152.5 -43l10 62q61 0 86.5 28t25.5 105l2 118q0 61 30 93.5t88 51.5q-52 22 -71.5 57.5t1.5 98.5l33 96q27 80 11.5 114t-78.5 38z" />
    <glyph glyph-name="period.tab" horiz-adv-x="300" 
d="M117 -5q-26 0 -45 18.5t-19 45.5t18.5 45.5t44.5 18.5q27 0 46 -18.5t19 -45.5t-19 -45.5t-45 -18.5z" />
    <glyph glyph-name="comma.tab" horiz-adv-x="300" 
d="M46 -123l-50 28l118 219l75 -38z" />
    <glyph glyph-name="colon.tab" horiz-adv-x="300" 
d="M117 -5q-26 0 -45 18.5t-19 45.5t18.5 45.5t44.5 18.5q27 0 46 -18.5t19 -45.5t-19 -45.5t-45 -18.5zM165 292q-26 0 -45 18.5t-19 45.5t18.5 45.5t44.5 18.5q27 0 46 -18.5t19 -45.5t-19 -45.5t-45 -18.5z" />
    <glyph glyph-name="semicolon.tab" horiz-adv-x="300" 
d="M31 -123l-50 28l118 219l75 -38zM173 292q-26 0 -45 18.5t-19 45.5t18.5 45.5t44.5 18.5q27 0 46 -18.5t19 -45.5t-19 -45.5t-45 -18.5z" />
    <glyph glyph-name="space.tab" horiz-adv-x="300" 
 />
    <glyph glyph-name="dollar.oldtab" 
d="M291 -8h-5l-19 -123h-58l20 128q-97 15 -148.5 74.5t-52.5 139.5h82q2 -54 34 -95t95 -54l42 266q-92 29 -134.5 69.5t-42.5 112.5q0 80 66.5 135.5t169.5 56.5l14 87h58l-15 -91q79 -12 125 -60.5t48 -126.5h-76q-10 100 -107 120l-39 -244q101 -32 146 -73t45 -113
q0 -93 -67 -151t-181 -58zM455 193q0 45 -25 70.5t-94 48.5l-40 -255q76 1 117.5 37t41.5 99zM185 513q0 -38 22.5 -61.5t85.5 -46.5l37 231q-71 -1 -108 -35.5t-37 -87.5z" />
    <glyph glyph-name="Euro.oldtab" 
d="M50 382l9 56h61q23 128 90.5 196t169.5 68q95 0 146 -54.5t52 -154.5h-80q-5 143 -120 143q-71 0 -113 -48t-61 -150h212l-20 -56h-201l-12 -75h187l-20 -56h-174q-5 -37 0 -72t18 -61t43.5 -42t75.5 -16q122 0 161 155h77q-48 -224 -239 -224q-117 0 -172.5 69.5
t-47.5 190.5h-63l9 56h61l12 75h-61z" />
    <glyph glyph-name="sterling.oldtab" 
d="M62 306l10 60h68q-4 39 -4 91q0 107 60 176t174 69q90 0 142.5 -46.5t53.5 -136.5h-83q-3 55 -30 84.5t-87 29.5q-78 0 -112.5 -49t-34.5 -128q0 -34 2 -90h205l-10 -60h-191q1 -21 1 -67q0 -78 -29 -127q21 -5 81.5 -27.5t85.5 -22.5q78 0 91 83h72q-11 -72 -52.5 -113
t-113.5 -41q-44 0 -118.5 30.5t-98.5 30.5q-52 0 -64 -52h-70q7 40 36.5 75.5t74.5 42.5q28 46 28 113q0 21 -4 75h-83z" />
    <glyph glyph-name="yen.oldtab" 
d="M102 273l9 56h152l-139 365h88l112 -315l204 315h84l-244 -365h152l-9 -56h-163l-12 -76h163l-9 -56h-163l-22 -141h-82l22 141h-163l9 56h162l12 76h-163z" />
    <glyph glyph-name="zero.oldtab" 
d="M144 269q-5 -35 -5 -61q2 -146 139 -146q147 1 176 187l16 102q5 35 5 56q-1 73 -36 112.5t-99 39.5q-75 0 -120.5 -49.5t-59.5 -138.5zM275 -9q-104 0 -163 60t-59 157q0 39 4 64l16 102q18 117 90.5 185.5t180.5 68.5q103 0 160 -62t57 -158q0 -30 -5 -63l-16 -102
q-19 -120 -88.5 -186t-176.5 -66z" />
    <glyph glyph-name="one.oldtab" 
d="M277 0l84 531l-227 -146l12 83l235 151h79l-98 -619h-85z" />
    <glyph glyph-name="two.oldtab" 
d="M1 0l3 20l290 223q34 27 55.5 45.5t47.5 46.5t38.5 57t12.5 60q0 53 -30.5 80.5t-85.5 27.5q-126 0 -160 -153h-78q16 103 82 162t162 59q83 0 140.5 -45t56.5 -130q-1 -39 -13 -71.5t-42 -65t-56 -54t-77 -61.5q-11 -9 -17 -13l-153 -118h313l-11 -70h-478z" />
    <glyph glyph-name="three.oldtab" 
d="M266 -105q-107 0 -174.5 57t-68.5 163h80q8 -152 168 -152q73 0 118 39.5t45 112.5q0 128 -138 128h-46l11 71h50q145 0 145 133q0 57 -34 84.5t-91 27.5q-63 0 -105 -35.5t-57 -101.5h-77q15 93 82.5 149.5t164.5 56.5q85 0 143 -45t58 -132q0 -131 -131 -174
q112 -37 112 -158q0 -101 -72.5 -162.5t-182.5 -61.5z" />
    <glyph glyph-name="four.oldtab" 
d="M328 -97l25 154h-345l4 28l394 533h118l-78 -494h94l-10 -67h-94l-25 -154h-83zM123 124h240l68 426z" />
    <glyph glyph-name="five.oldtab" 
d="M34 90h80q13 -127 144 -127q83 0 127 53t44 141q0 58 -33.5 98.5t-101.5 40.5q-93 0 -165 -67h-30l62 390h392l-12 -73h-323l-36 -228q57 46 135 46q89 0 144.5 -56.5t55.5 -144.5q0 -118 -70 -193t-192 -75q-96 0 -155.5 50t-65.5 145z" />
    <glyph glyph-name="six.oldtab" 
d="M285 -9q-111 0 -166 64.5t-55 164.5q0 49 10 111l5 31q28 176 110 269t193 93q190 0 201 -170h-82q-6 50 -34.5 75.5t-86.5 25.5q-74 0 -131.5 -70.5t-83.5 -213.5q64 84 178 84q92 0 145 -55.5t53 -150.5q0 -111 -72 -184.5t-184 -73.5zM146 215q0 -71 34.5 -114
t108.5 -43q72 0 118 53t46 133q0 64 -32.5 104t-101.5 40q-75 0 -124 -48t-49 -125z" />
    <glyph glyph-name="seven.oldtab" 
d="M91 -97l377 647h-359l10 68h468l-2 -12l-404 -703h-90z" />
    <glyph glyph-name="eight.oldtab" 
d="M280 -9q-91 0 -159 51t-68 140q0 78 46 131t119 72q-88 40 -88 137q0 88 66.5 145t159.5 57q80 0 138 -45.5t58 -130.5q0 -125 -135 -172q113 -47 113 -158q0 -103 -73 -165t-177 -62zM140 189q0 -56 38.5 -92t106.5 -36q66 0 112 40.5t46 115.5q0 57 -36.5 92.5
t-102.5 35.5q-70 0 -117 -41.5t-47 -114.5zM215 521q0 -48 33 -78t89 -30t93 35t37 97q0 50 -31 81t-85 31q-59 0 -97.5 -36.5t-38.5 -99.5z" />
    <glyph glyph-name="nine.oldtab" 
d="M320 628q112 0 167 -66t55 -173q0 -43 -8 -93l-5 -31q-30 -190 -106 -280t-199 -90q-94 0 -147.5 45.5t-60.5 134.5h82q14 -111 128 -111q88 0 137.5 65.5t77.5 218.5q-64 -84 -177 -84q-90 0 -145.5 56t-55.5 150q0 109 75 183.5t182 74.5zM460 408q0 70 -35 111.5
t-109 41.5q-70 0 -117.5 -53.5t-47.5 -132.5q0 -64 34.5 -104t102.5 -40q73 0 122.5 50t49.5 127z" />
    <glyph glyph-name="zero.num" horiz-adv-x="350" 
d="M138 504q0 -34 16.5 -58.5t53.5 -24.5q46 0 68.5 47t22.5 114q0 34 -16.5 59t-50.5 25q-27 0 -46.5 -16t-29 -42.5t-14 -52t-4.5 -51.5zM206 368q-64 0 -99.5 37.5t-35.5 101.5q0 88 42.5 150t119.5 62q62 0 97.5 -37.5t35.5 -103.5q0 -90 -40.5 -150t-119.5 -60z" />
    <glyph glyph-name="one.num" horiz-adv-x="231" 
d="M122 373l43 274l-89 -54l9 61l99 61h60l-54 -342h-68z" />
    <glyph glyph-name="two.num" horiz-adv-x="286" 
d="M24 373l2 12l148 131q40 35 56 57t16 49q0 22 -13 33.5t-33 11.5q-52 0 -67 -66h-62q9 55 45.5 86.5t87.5 31.5q46 0 77.5 -24t31.5 -72q0 -36 -21 -63t-77 -76l-69 -60h138l-8 -51h-252z" />
    <glyph glyph-name="three.num" horiz-adv-x="311" 
d="M183 368q-56 0 -92 26.5t-37 84.5h63q2 -28 18 -44.5t47 -16.5q27 0 46.5 15t19.5 44q0 49 -55 49h-24l7 47h27q28 0 44 13t16 37q0 46 -49 46q-55 0 -68 -55h-60q6 48 42.5 76.5t87.5 28.5q49 0 80.5 -22t31.5 -68q0 -28 -18 -49t-49 -31q56 -13 56 -75
q0 -49 -39.5 -77.5t-94.5 -28.5z" />
    <glyph glyph-name="four.num" horiz-adv-x="317" 
d="M205 373l11 69h-172l4 24l192 249h84l-36 -224h46l-8 -49h-45l-11 -69h-65zM126 491h99l26 169z" />
    <glyph glyph-name="five.num" horiz-adv-x="302" 
d="M174 368q-118 0 -122 104h63q5 -52 59 -52q29 0 46.5 20t17.5 55q0 57 -58 57q-40 0 -67 -29h-35l35 192h210l-8 -52h-159l-15 -86q26 24 69 24q42 0 70 -27t27 -74q-1 -60 -37 -95.5t-96 -36.5z" />
    <glyph glyph-name="six.num" horiz-adv-x="320" 
d="M193 368q-57 0 -89.5 33t-33.5 90q0 13 4 45l2 13q13 81 55.5 125.5t104.5 44.5q45 0 74.5 -22.5t32.5 -68.5h-61q-7 40 -50 40q-68 0 -89 -109q31 37 84 37q41 0 71.5 -26.5t30.5 -70.5q0 -59 -38 -95t-98 -36zM135 477q0 -25 15.5 -42.5t44.5 -17.5t48 20.5t19 54.5
q0 26 -14 42t-43 16q-30 0 -50 -19.5t-20 -53.5z" />
    <glyph glyph-name="seven.num" horiz-adv-x="268" 
d="M80 373l153 287h-160l9 55h247l-2 -8l-176 -334h-71z" />
    <glyph glyph-name="eight.num" horiz-adv-x="313" 
d="M186 368q-51 0 -87.5 24t-36.5 72q0 72 77 95q-41 20 -41 63q0 44 36 70.5t86 26.5q44 0 77.5 -22.5t33.5 -65.5q0 -54 -60 -77q50 -23 50 -77q0 -52 -39 -80.5t-96 -28.5zM130 471q0 -24 15 -38.5t44 -14.5q27 0 46 15t19 45q0 25 -15.5 40t-42.5 15t-46.5 -16.5
t-19.5 -45.5zM162 620q0 -20 14 -32t35 -12q26 0 41 13t15 38q0 19 -14 31.5t-37 12.5t-38.5 -13.5t-15.5 -37.5z" />
    <glyph glyph-name="nine.num" horiz-adv-x="320" 
d="M214 720q57 0 89 -31t33 -83q0 -28 -4 -60l-2 -13q-26 -165 -156 -165q-110 0 -114 95h61q3 -22 15.5 -32.5t41.5 -10.5q67 0 86 109q-31 -37 -84 -37q-41 0 -71.5 26.5t-30.5 70.5q0 57 39 94t97 37zM272 611q0 25 -15 42.5t-44 17.5q-28 0 -48 -20.5t-20 -54.5
q0 -58 57 -58q30 0 50 19.5t20 53.5z" />
    <glyph glyph-name="zero.den" horiz-adv-x="350" 
d="M79 131q0 -34 16.5 -58.5t53.5 -24.5q46 0 68.5 47t22.5 114q0 34 -16.5 59t-50.5 25q-27 0 -46.5 -16t-29 -42.5t-14 -52t-4.5 -51.5zM147 -5q-64 0 -99.5 37.5t-35.5 101.5q0 88 42.5 150t119.5 62q62 0 97.5 -37.5t35.5 -103.5q0 -90 -40.5 -150t-119.5 -60z" />
    <glyph glyph-name="one.den" horiz-adv-x="231" 
d="M63 0l43 274l-89 -54l9 61l99 61h60l-54 -342h-68z" />
    <glyph glyph-name="two.den" horiz-adv-x="286" 
d="M-35 0l2 12l148 131q40 35 56 57t16 49q0 22 -13 33.5t-33 11.5q-52 0 -67 -66h-62q9 55 45.5 86.5t87.5 31.5q46 0 77.5 -24t31.5 -72q0 -36 -21 -63t-77 -76l-69 -60h138l-8 -51h-252z" />
    <glyph glyph-name="three.den" horiz-adv-x="311" 
d="M124 -5q-56 0 -92 26.5t-37 84.5h63q2 -28 18 -44.5t47 -16.5q27 0 46.5 15t19.5 44q0 49 -55 49h-24l7 47h27q28 0 44 13t16 37q0 46 -49 46q-55 0 -68 -55h-60q6 48 42.5 76.5t87.5 28.5q49 0 80.5 -22t31.5 -68q0 -28 -18 -49t-49 -31q56 -13 56 -75
q0 -49 -39.5 -77.5t-94.5 -28.5z" />
    <glyph glyph-name="four.den" horiz-adv-x="317" 
d="M146 0l11 69h-172l4 24l192 249h84l-36 -224h46l-8 -49h-45l-11 -69h-65zM67 118h99l26 169z" />
    <glyph glyph-name="five.den" horiz-adv-x="302" 
d="M115 -5q-118 0 -122 104h63q5 -52 59 -52q29 0 46.5 20t17.5 55q0 57 -58 57q-40 0 -67 -29h-35l35 192h210l-8 -52h-159l-15 -86q26 24 69 24q42 0 70 -27t27 -74q-1 -60 -37 -95.5t-96 -36.5z" />
    <glyph glyph-name="six.den" horiz-adv-x="320" 
d="M134 -5q-57 0 -89.5 33t-33.5 90q0 13 4 45l2 13q13 81 55.5 125.5t104.5 44.5q45 0 74.5 -22.5t32.5 -68.5h-61q-7 40 -50 40q-68 0 -89 -109q31 37 84 37q41 0 71.5 -26.5t30.5 -70.5q0 -59 -38 -95t-98 -36zM76 104q0 -25 15.5 -42.5t44.5 -17.5t48 20.5t19 54.5
q0 26 -14 42t-43 16q-30 0 -50 -19.5t-20 -53.5z" />
    <glyph glyph-name="seven.den" horiz-adv-x="268" 
d="M21 0l153 287h-160l9 55h247l-2 -8l-176 -334h-71z" />
    <glyph glyph-name="eight.den" horiz-adv-x="313" 
d="M127 -5q-51 0 -87.5 24t-36.5 72q0 72 77 95q-41 20 -41 63q0 44 36 70.5t86 26.5q44 0 77.5 -22.5t33.5 -65.5q0 -54 -60 -77q50 -23 50 -77q0 -52 -39 -80.5t-96 -28.5zM71 98q0 -24 15 -38.5t44 -14.5q27 0 46 15t19 45q0 25 -15.5 40t-42.5 15t-46.5 -16.5
t-19.5 -45.5zM103 247q0 -20 14 -32t35 -12q26 0 41 13t15 38q0 19 -14 31.5t-37 12.5t-38.5 -13.5t-15.5 -37.5z" />
    <glyph glyph-name="nine.den" horiz-adv-x="320" 
d="M155 347q57 0 89 -31t33 -83q0 -28 -4 -60l-2 -13q-25 -165 -156 -165q-110 0 -114 95h61q3 -22 15.5 -32.5t41.5 -10.5q67 0 86 109q-31 -37 -84 -37q-41 0 -71.5 26.5t-30.5 70.5q0 57 39 94t97 37zM213 238q0 25 -15 42.5t-44 17.5q-28 0 -48 -20.5t-20 -54.5
q0 -58 57 -58q30 0 50 19.5t20 53.5z" />
    <glyph glyph-name="zero.sub" horiz-adv-x="350" 
d="M65 44q0 -34 16.5 -58.5t53.5 -24.5q46 0 68.5 47t22.5 114q0 34 -16.5 59t-50.5 25q-27 0 -46.5 -16t-29 -42.5t-14 -52t-4.5 -51.5zM133 -92q-64 0 -99.5 37.5t-35.5 101.5q0 88 42.5 150t119.5 62q62 0 97.5 -37.5t35.5 -103.5q0 -90 -40.5 -150t-119.5 -60z" />
    <glyph glyph-name="one.sub" horiz-adv-x="231" 
d="M49 -87l43 274l-89 -54l9 61l99 61h60l-54 -342h-68z" />
    <glyph glyph-name="two.sub" horiz-adv-x="286" 
d="M-49 -87l2 12l148 131q40 35 56 57t16 49q0 22 -13 33.5t-33 11.5q-52 0 -67 -66h-62q9 55 45.5 86.5t87.5 31.5q46 0 77.5 -24t31.5 -72q0 -36 -21 -63t-77 -76l-69 -60h138l-8 -51h-252z" />
    <glyph glyph-name="three.sub" horiz-adv-x="311" 
d="M110 -92q-56 0 -92 26.5t-37 84.5h63q2 -28 18 -44.5t47 -16.5q27 0 46.5 15t19.5 44q0 49 -55 49h-24l7 47h27q28 0 44 13t16 37q0 46 -49 46q-55 0 -68 -55h-60q6 48 42.5 76.5t87.5 28.5q49 0 80.5 -22t31.5 -68q0 -28 -18 -49t-49 -31q56 -13 56 -75
q0 -49 -39.5 -77.5t-94.5 -28.5z" />
    <glyph glyph-name="four.sub" horiz-adv-x="317" 
d="M132 -87l11 69h-172l4 24l192 249h84l-36 -224h46l-8 -49h-45l-11 -69h-65zM53 31h99l26 169z" />
    <glyph glyph-name="five.sub" horiz-adv-x="302" 
d="M101 -92q-118 0 -122 104h63q5 -52 59 -52q29 0 46.5 20t17.5 55q0 57 -58 57q-40 0 -67 -29h-35l35 192h210l-8 -52h-159l-15 -86q26 24 69 24q42 0 70 -27t27 -74q-1 -60 -37 -95.5t-96 -36.5z" />
    <glyph glyph-name="six.sub" horiz-adv-x="320" 
d="M120 -92q-57 0 -89.5 33t-33.5 90q0 13 4 45l2 13q13 81 55.5 125.5t104.5 44.5q45 0 74.5 -22.5t32.5 -68.5h-61q-7 40 -50 40q-68 0 -89 -109q31 37 84 37q41 0 71.5 -26.5t30.5 -70.5q0 -59 -38 -95t-98 -36zM62 17q0 -25 15.5 -42.5t44.5 -17.5t48 20.5t19 54.5
q0 26 -14 42t-43 16q-30 0 -50 -19.5t-20 -53.5z" />
    <glyph glyph-name="seven.sub" horiz-adv-x="268" 
d="M7 -87l153 287h-160l9 55h247l-2 -8l-176 -334h-71z" />
    <glyph glyph-name="eight.sub" horiz-adv-x="313" 
d="M113 -92q-51 0 -87.5 24t-36.5 72q0 72 77 95q-41 20 -41 63q0 44 36 70.5t86 26.5q43 0 77 -22.5t34 -65.5q0 -54 -60 -77q50 -23 50 -77q0 -52 -39 -80.5t-96 -28.5zM57 11q0 -24 15 -38.5t44 -14.5q27 0 46 15t19 45q0 25 -15.5 40t-42.5 15t-46.5 -16.5t-19.5 -45.5z
M89 160q0 -20 14 -32t35 -12q26 0 41 13t15 38q0 19 -14 31.5t-37 12.5t-38.5 -13.5t-15.5 -37.5z" />
    <glyph glyph-name="nine.sub" horiz-adv-x="320" 
d="M141 260q57 0 89 -31t33 -83q0 -28 -4 -60l-2 -13q-25 -165 -156 -165q-110 0 -114 95h61q3 -22 15.5 -32.5t41.5 -10.5q67 0 86 109q-31 -37 -84 -37q-41 0 -71.5 26.5t-30.5 70.5q0 57 39 94t97 37zM199 151q0 25 -15 42.5t-44 17.5q-28 0 -48 -20.5t-20 -54.5
q0 -58 57 -58q30 0 50 19.5t20 53.5z" />
    <glyph glyph-name="plus.sub" horiz-adv-x="339" 
d="M92 -49l16 105h-101l9 53h101l17 106h55l-17 -106h101l-9 -53h-101l-16 -105h-55z" />
    <glyph glyph-name="minus.sub" horiz-adv-x="339" 
d="M7 56l9 53h257l-9 -53h-257z" />
    <glyph glyph-name="zero.sup" horiz-adv-x="350" 
d="M147 562q0 -34 16.5 -58.5t53.5 -24.5q46 0 68.5 47t22.5 114q0 34 -16.5 59t-50.5 25q-27 0 -46.5 -16t-29 -42.5t-14 -52t-4.5 -51.5zM215 426q-64 0 -99.5 37.5t-35.5 101.5q0 88 42.5 150t119.5 62q62 0 97.5 -37.5t35.5 -103.5q0 -90 -40.5 -150t-119.5 -60z" />
    <glyph glyph-name="one.sup" horiz-adv-x="231" 
d="M131 431l43 274l-89 -54l9 61l99 61h60l-54 -342h-68z" />
    <glyph glyph-name="two.sup" horiz-adv-x="286" 
d="M33 431l2 12l148 131q40 35 56 57t16 49q0 22 -13 33.5t-33 11.5q-52 0 -67 -66h-62q9 55 45.5 86.5t87.5 31.5q46 0 77.5 -24t31.5 -72q0 -36 -21 -63t-77 -76l-69 -60h138l-8 -51h-252z" />
    <glyph glyph-name="three.sup" horiz-adv-x="311" 
d="M192 426q-56 0 -92 26.5t-37 84.5h63q2 -28 18 -44.5t47 -16.5q27 0 46.5 15t19.5 44q0 49 -55 49h-24l7 47h27q28 0 44 13t16 37q0 46 -49 46q-55 0 -68 -55h-60q6 48 42.5 76.5t87.5 28.5q49 0 80.5 -22t31.5 -68q0 -28 -18 -49t-49 -31q56 -13 56 -75
q0 -49 -39.5 -77.5t-94.5 -28.5z" />
    <glyph glyph-name="four.sup" horiz-adv-x="317" 
d="M214 431l11 69h-172l4 24l192 249h84l-36 -224h46l-8 -49h-45l-11 -69h-65zM135 549h99l26 169z" />
    <glyph glyph-name="five.sup" horiz-adv-x="302" 
d="M183 426q-118 0 -122 104h63q5 -52 59 -52q29 0 46.5 20t17.5 55q0 57 -58 57q-40 0 -67 -29h-35l35 192h210l-8 -52h-159l-15 -86q26 24 69 24q42 0 70 -27t27 -74q-1 -60 -37 -95.5t-96 -36.5z" />
    <glyph glyph-name="six.sup" horiz-adv-x="320" 
d="M202 426q-57 0 -89.5 33t-33.5 90q0 13 4 45l2 13q13 81 55.5 125.5t104.5 44.5q45 0 74.5 -22.5t32.5 -68.5h-61q-7 40 -50 40q-68 0 -89 -109q31 37 84 37q41 0 71.5 -26.5t30.5 -70.5q0 -59 -38 -95t-98 -36zM144 535q0 -25 15.5 -42.5t44.5 -17.5t48 20.5t19 54.5
q0 26 -14 42t-43 16q-30 0 -50 -19.5t-20 -53.5z" />
    <glyph glyph-name="seven.sup" horiz-adv-x="268" 
d="M89 431l153 287h-160l9 55h247l-2 -8l-176 -334h-71z" />
    <glyph glyph-name="eight.sup" horiz-adv-x="313" 
d="M195 426q-51 0 -87.5 24t-36.5 72q0 72 77 95q-41 20 -41 63q0 44 36 70.5t86 26.5q43 0 77 -22.5t34 -65.5q0 -54 -60 -77q50 -23 50 -77q0 -52 -39 -80.5t-96 -28.5zM139 529q0 -24 15 -38.5t44 -14.5q27 0 46 15t19 45q0 25 -15.5 40t-42.5 15t-46.5 -16.5
t-19.5 -45.5zM171 678q0 -20 14 -32t35 -12q26 0 41 13t15 38q0 19 -14 31.5t-37 12.5t-38.5 -13.5t-15.5 -37.5z" />
    <glyph glyph-name="nine.sup" horiz-adv-x="320" 
d="M223 778q57 0 89 -31t33 -83q0 -28 -4 -60l-2 -13q-26 -165 -156 -165q-110 0 -114 95h61q3 -22 15.5 -32.5t41.5 -10.5q67 0 86 109q-31 -37 -84 -37q-41 0 -71.5 26.5t-30.5 70.5q0 57 39 94t97 37zM281 669q0 25 -15 42.5t-44 17.5q-28 0 -48 -20.5t-20 -54.5
q0 -58 57 -58q30 0 50 19.5t20 53.5z" />
    <glyph glyph-name="plus.sup" horiz-adv-x="339" 
d="M174 469l16 105h-101l9 53h101l17 106h55l-17 -106h101l-9 -53h-101l-16 -105h-55z" />
    <glyph glyph-name="minus.sup" horiz-adv-x="339" 
d="M89 574l9 53h257l-9 -53h-257z" />
    <glyph glyph-name="a.alt" horiz-adv-x="604" 
d="M304 463q-84 0 -130.5 -65.5t-46.5 -170.5q0 -79 36 -123t105 -44q77 0 129 66t52 174q0 73 -40.5 118t-104.5 45zM251 -9q-95 0 -153.5 63.5t-58.5 168.5q0 130 71.5 219.5t190.5 89.5q117 0 167 -104l15 95h83l-58 -367q-14 -91 -11 -156h-79q-3 43 4 95
q-60 -104 -171 -104z" />
    <glyph glyph-name="t.alt" horiz-adv-x="338" 
d="M67 0l71 453h-82l11 70h82l19 119h83l-19 -119h115l-11 -70h-115l-71 -453h-83z" />
    <glyph glyph-name="germandbls.alt" horiz-adv-x="615" 
d="M377 -9q-74 0 -116.5 38.5t-46.5 111.5h81q9 -81 84 -81q40 0 67 22t27 63q0 32 -20.5 55.5t-60.5 50.5q-45 31 -71 60.5t-26 67.5q0 33 19 62t46 50.5t54 42t46 45.5t19 53q0 37 -27.5 56.5t-75.5 19.5q-65 0 -108 -37.5t-55 -114.5l-88 -556h-83l89 564
q16 103 85.5 157.5t166.5 54.5q72 0 123.5 -36t51.5 -104q0 -37 -19 -69t-46 -54t-53.5 -41t-45.5 -39t-19 -40q0 -4 1 -7.5t3.5 -8t5 -8t8 -8.5t10 -8.5t12.5 -10t14 -11t17.5 -13t19.5 -14.5q45 -34 68.5 -69.5t23.5 -85.5q0 -69 -52 -113.5t-129 -44.5z" />
    <glyph glyph-name="aacute.alt" horiz-adv-x="604" 
d="M304 463q-84 0 -130.5 -65.5t-46.5 -170.5q0 -79 36 -123t105 -44q77 0 129 66t52 174q0 73 -40.5 118t-104.5 45zM251 -9q-95 0 -153.5 63.5t-58.5 168.5q0 130 71.5 219.5t190.5 89.5q117 0 167 -104l15 95h83l-58 -367q-14 -91 -11 -156h-79q-3 43 4 95
q-60 -104 -171 -104zM295 613l79 147h108l-121 -147h-66z" />
    <glyph glyph-name="abreve.alt" horiz-adv-x="604" 
d="M304 463q-84 0 -130.5 -65.5t-46.5 -170.5q0 -79 36 -123t105 -44q77 0 129 66t52 174q0 73 -40.5 118t-104.5 45zM251 -9q-95 0 -153.5 63.5t-58.5 168.5q0 130 71.5 219.5t190.5 89.5q117 0 167 -104l15 95h83l-58 -367q-14 -91 -11 -156h-79q-3 43 4 95
q-60 -104 -171 -104zM341 619q-56 0 -93 36.5t-37 95.5h66q8 -64 65 -64q61 0 73 64h64q-4 -58 -44.5 -95t-93.5 -37z" />
    <glyph glyph-name="acircumflex.alt" horiz-adv-x="604" 
d="M304 463q-84 0 -130.5 -65.5t-46.5 -170.5q0 -79 36 -123t105 -44q77 0 129 66t52 174q0 73 -40.5 118t-104.5 45zM251 -9q-95 0 -153.5 63.5t-58.5 168.5q0 130 71.5 219.5t190.5 89.5q117 0 167 -104l15 95h83l-58 -367q-14 -91 -11 -156h-79q-3 43 4 95
q-60 -104 -171 -104zM183 613l129 144h75l86 -144h-58l-74 75l-96 -75h-62z" />
    <glyph glyph-name="adieresis.alt" horiz-adv-x="604" 
d="M304 463q-84 0 -130.5 -65.5t-46.5 -170.5q0 -79 36 -123t105 -44q77 0 129 66t52 174q0 73 -40.5 118t-104.5 45zM251 -9q-95 0 -153.5 63.5t-58.5 168.5q0 130 71.5 219.5t190.5 89.5q117 0 167 -104l15 95h83l-58 -367q-14 -91 -11 -156h-79q-3 43 4 95
q-60 -104 -171 -104zM249 634q-22 0 -37.5 15t-15.5 37t16 38t38 16t37 -15t15 -37t-15.5 -38t-37.5 -16zM437 634q-22 0 -37.5 15t-15.5 37t16 38t38 16t37 -15t15 -37t-15.5 -38t-37.5 -16z" />
    <glyph glyph-name="agrave.alt" horiz-adv-x="604" 
d="M304 463q-84 0 -130.5 -65.5t-46.5 -170.5q0 -79 36 -123t105 -44q77 0 129 66t52 174q0 73 -40.5 118t-104.5 45zM251 -9q-95 0 -153.5 63.5t-58.5 168.5q0 130 71.5 219.5t190.5 89.5q117 0 167 -104l15 95h83l-58 -367q-14 -91 -11 -156h-79q-3 43 4 95
q-60 -104 -171 -104zM308 613l-88 147h102l47 -147h-61z" />
    <glyph glyph-name="amacron.alt" horiz-adv-x="604" 
d="M304 463q-84 0 -130.5 -65.5t-46.5 -170.5q0 -79 36 -123t105 -44q77 0 129 66t52 174q0 73 -40.5 118t-104.5 45zM251 -9q-95 0 -153.5 63.5t-58.5 168.5q0 130 71.5 219.5t190.5 89.5q117 0 167 -104l15 95h83l-58 -367q-14 -91 -11 -156h-79q-3 43 4 95
q-60 -104 -171 -104zM212 648l10 64h262l-10 -64h-262z" />
    <glyph glyph-name="aogonek.alt" horiz-adv-x="604" 
d="M497 0q-1 -1 -9.5 -6t-11 -6.5t-10.5 -7t-11.5 -8t-10.5 -8.5t-10 -9.5t-7.5 -9.5t-7 -11.5t-4 -12t-1.5 -12.5q0 -31 37 -31q25 0 48 10l-9 -59q-29 -11 -58 -11q-43 0 -71.5 20t-27.5 61q0 59 85 101q-3 43 4 95q-60 -104 -171 -104q-95 0 -153.5 63.5t-58.5 168.5
q0 130 71.5 219.5t190.5 89.5q117 0 167 -104l15 95h83l-58 -367q-14 -91 -11 -156zM304 463q-84 0 -130.5 -65.5t-46.5 -170.5q0 -79 36 -123t105 -44q77 0 129 66t52 174q0 73 -40.5 118t-104.5 45z" />
    <glyph glyph-name="aring.alt" horiz-adv-x="604" 
d="M304 463q-84 0 -130.5 -65.5t-46.5 -170.5q0 -79 36 -123t105 -44q77 0 129 66t52 174q0 73 -40.5 118t-104.5 45zM251 -9q-95 0 -153.5 63.5t-58.5 168.5q0 130 71.5 219.5t190.5 89.5q117 0 167 -104l15 95h83l-58 -367q-14 -91 -11 -156h-79q-3 43 4 95
q-60 -104 -171 -104zM349 644q23 0 39 17t16 43q0 25 -14 40.5t-37 15.5t-39 -17t-16 -43q0 -25 14 -40.5t37 -15.5zM349 598q-44 0 -74.5 29.5t-30.5 72.5q0 44 32 75t77 31q44 0 74.5 -29.5t30.5 -72.5q0 -44 -32 -75t-77 -31z" />
    <glyph glyph-name="aringacute.alt" horiz-adv-x="604" 
d="M304 463q-84 0 -130.5 -65.5t-46.5 -170.5q0 -79 36 -123t105 -44q77 0 129 66t52 174q0 73 -40.5 118t-104.5 45zM251 -9q-95 0 -153.5 63.5t-58.5 168.5q0 130 71.5 219.5t190.5 89.5q117 0 167 -104l15 95h83l-58 -367q-14 -91 -11 -156h-79q-3 43 4 95
q-60 -104 -171 -104zM347 624q23 0 39 17t16 43q0 25 -14 40.5t-37 15.5t-39 -17t-16 -43q0 -25 14 -40.5t37 -15.5zM347 578q-44 0 -74.5 29.5t-30.5 72.5q0 44 32 75t77 31q44 0 74.5 -29.5t30.5 -72.5q0 -44 -32 -75t-77 -31zM333 829l68 127h106l-108 -127h-66z" />
    <glyph glyph-name="atilde.alt" horiz-adv-x="604" 
d="M304 463q-84 0 -130.5 -65.5t-46.5 -170.5q0 -79 36 -123t105 -44q77 0 129 66t52 174q0 73 -40.5 118t-104.5 45zM251 -9q-95 0 -153.5 63.5t-58.5 168.5q0 130 71.5 219.5t190.5 89.5q117 0 167 -104l15 95h83l-58 -367q-14 -91 -11 -156h-79q-3 43 4 95
q-60 -104 -171 -104zM401 619q-26 0 -62.5 21.5t-48.5 21.5q-15 0 -28 -12.5t-18 -32.5h-60q10 54 39 85t68 31q25 0 61.5 -21.5t48.5 -21.5q15 0 27.5 12t17.5 33h60q-10 -54 -38.5 -85t-66.5 -31z" />
    <glyph glyph-name="tbar.alt" horiz-adv-x="338" 
d="M29 279l9 60h82l18 114h-82l11 70h82l19 119h83l-19 -119h115l-11 -70h-115l-18 -114h115l-9 -60h-116l-43 -279h-83l43 279h-81z" />
    <glyph glyph-name="tcaron.alt" horiz-adv-x="338" 
d="M67 0l71 453h-82l11 70h82l19 119h83l-19 -119h115l-11 -70h-115l-71 -453h-83zM313 598l38 175h91l-70 -175h-59z" />
    <glyph glyph-name="tcommaaccent.alt" horiz-adv-x="338" 
d="M67 0l71 453h-82l11 70h82l19 119h83l-19 -119h115l-11 -70h-115l-71 -453h-83zM38 -220l-49 26l72 157l78 -24z" />
    <glyph glyph-name="f.short" horiz-adv-x="336" 
d="M51 453l11 70h74l16 96q12 79 55.5 118t109.5 39q41 0 69 -13l-10 -66q-24 10 -56 10q-70 0 -85 -90l-15 -94h128l-11 -70h-128l-72 -453h-83l71 453h-74z" />
    <glyph glyph-name="f_f.short" horiz-adv-x="620" 
d="M51 453l11 70h74l15 92q12 73 57 112t113 39q43 0 69 -13l-10 -66q-23 10 -55 10q-77 0 -91 -84l-15 -90h201l16 96q12 79 55.5 118t109.5 39q41 0 69 -13l-10 -66q-24 10 -56 10q-70 0 -85 -90l-15 -94h128l-11 -70h-128l-72 -453h-83l71 453h-201l-71 -453h-83l71 453
h-74z" />
    <glyph glyph-name="questiondown.uc" horiz-adv-x="489" 
d="M348 513l-8 -51q-2 -14 -6 -27.5t-8 -24t-12 -22t-12.5 -19t-15.5 -18.5t-15.5 -16t-17.5 -15t-17 -13.5t-18 -14t-17 -12.5q-44 -33 -64 -60.5t-20 -69.5t27.5 -66t77.5 -24q54 0 92 34t48 96h79q-12 -94 -75.5 -147t-152.5 -52q-89 0 -135 45.5t-46 112.5q0 35 9 62
t32 51t37.5 35.5t49.5 36.5q32 23 49.5 38t35 41t22.5 56l7 44h74zM328 720q26 0 45 -18.5t19 -45.5t-18.5 -45.5t-44.5 -18.5q-27 0 -46 18.5t-19 45.5t19 45.5t45 18.5z" />
    <glyph glyph-name="exclamdown.uc" horiz-adv-x="288" 
d="M216 513l-68 -513h-92l96 513h64zM204 720q26 0 45 -18.5t19 -45.5t-18.5 -45.5t-44.5 -18.5q-27 0 -46 18.5t-19 45.5t19 45.5t45 18.5z" />
    <glyph glyph-name="hyphen.uc" horiz-adv-x="364" 
d="M63 288l12 78h244l-12 -78h-244z" />
    <glyph glyph-name="endash.uc" horiz-adv-x="526" 
d="M49 291l11 70h436l-11 -70h-436z" />
    <glyph glyph-name="emdash.uc" horiz-adv-x="885" 
d="M49 291l11 70h795l-11 -70h-795z" />
    <glyph glyph-name="guilsinglleft.uc" horiz-adv-x="322" 
d="M161 113l-104 189l160 187h85l-159 -190l98 -186h-80z" />
    <glyph glyph-name="guilsinglright.uc" horiz-adv-x="322" 
d="M177 489l104 -189l-160 -187h-85l159 190l-98 186h80z" />
    <glyph glyph-name="guillemotleft.uc" horiz-adv-x="500" 
d="M161 113l-104 189l160 187h85l-159 -190l98 -186h-80zM339 113l-104 189l160 187h85l-159 -190l98 -186h-80z" />
    <glyph glyph-name="guillemotright.uc" horiz-adv-x="500" 
d="M355 489l104 -189l-160 -187h-85l159 190l-98 186h80zM177 489l104 -189l-160 -187h-85l159 190l-98 186h80z" />
    <glyph glyph-name="parenleft.uc" horiz-adv-x="322" 
d="M164 -98q-102 154 -102 342q0 297 237 539h88q-118 -129 -178 -256.5t-60 -280.5q0 -183 95 -344h-80z" />
    <glyph glyph-name="parenright.uc" horiz-adv-x="322" 
d="M183 783q102 -154 102 -342q0 -297 -237 -539h-88q118 129 178 256.5t60 280.5q0 183 -95 344h80z" />
    <glyph glyph-name="bracketleft.uc" horiz-adv-x="356" 
d="M32 -84l137 862h224l-11 -66h-141l-115 -730h141l-11 -66h-224z" />
    <glyph glyph-name="bracketright.uc" horiz-adv-x="356" 
d="M-12 -84l11 66h141l115 730h-141l11 66h224l-137 -862h-224z" />
    <glyph glyph-name="braceleft.uc" horiz-adv-x="381" 
d="M281 -87q-227 12 -158 221l20 59q41 123 -95 127l10 61q75 -1 105 26t28 88l-4 86q-5 108 52.5 154t178.5 44l-10 -62q-83 -1 -114 -31t-28 -110l3 -81q2 -66 -28.5 -100t-87.5 -48q52 -14 69 -56.5t-3 -102.5l-19 -58q-26 -81 -4.5 -115t95.5 -39z" />
    <glyph glyph-name="braceright.uc" horiz-adv-x="381" 
d="M125 779q227 -12 158 -221l-20 -59q-41 -123 95 -127l-10 -61q-75 1 -105 -26t-28 -88l4 -86q5 -108 -52.5 -154t-178.5 -44l10 62q83 1 114 31t28 110l-3 81q-4 120 116 150q-52 14 -69 55.5t3 101.5l19 58q26 81 4.5 115t-95.5 39z" />
    <glyph glyph-name="slash.uc" horiz-adv-x="403" 
d="M-29 -84l405 862h78l-406 -862h-77z" />
    <glyph glyph-name="backslash.uc" horiz-adv-x="403" 
d="M247 -84l-137 862h74l137 -862h-74z" />
    <glyph glyph-name="bar.uc" horiz-adv-x="253" 
d="M108 -84l-1 862h67l1 -862h-67z" />
    <glyph glyph-name="at.uc" horiz-adv-x="915" 
d="M460 -58q-94 0 -169.5 32.5t-122.5 86t-72 120t-25 137.5q0 124 60.5 224.5t158.5 154.5t210 54q169 0 272 -97t103 -239q0 -72 -19 -126t-49 -83t-61.5 -43t-63.5 -14q-102 0 -110 84q-23 -39 -64 -65t-85 -26q-69 0 -109 43t-41 113q-1 104 57.5 171t140.5 67
q48 0 77 -19t39 -47l9 58h83l-38 -244q-12 -77 42 -77q48 0 83.5 51t35.5 156q0 119 -80 194.5t-225 75.5q-151 0 -250 -100.5t-98 -268.5q0 -59 19.5 -113t56.5 -97.5t98.5 -69.5t139.5 -26t131 18t100 57h77q-40 -64 -124 -103t-187 -39zM444 204q50 0 89.5 44.5
t39.5 121.5q0 49 -25.5 75.5t-72.5 26.5q-49 0 -84 -45.5t-34 -125.5q1 -43 24.5 -70t62.5 -27z" />
    </font>
</defs>
</svg>
