<?xml version="1.0" standalone="no"?>
<!DOCTYPE svg PUBLIC "-//W3C//DTD SVG 1.1//EN" "http://www.w3.org/Graphics/SVG/1.1/DTD/svg11.dtd" >
<svg>
<metadata>
Created by FontForge 20120731 at Sun Aug 28 06:44:47 2016
 By ,,,
(c)2009 Commercial Type.
</metadata>
<defs>
<font id="Graphik-Semibold" horiz-adv-x="600" >
  <font-face 
    font-family="Graphik Semibold"
    font-weight="600"
    font-stretch="normal"
    units-per-em="1000"
    panose-1="2 11 7 3 3 2 2 6 2 3"
    ascent="822"
    descent="-178"
    x-height="523"
    cap-height="715"
    bbox="-238 -228 1159 1128"
    underline-thickness="50"
    underline-position="-50"
    unicode-range="U+0020-FB02"
  />
<missing-glyph horiz-adv-x="512" 
 />
    <glyph glyph-name="f_f" unicode="ff" horiz-adv-x="686" 
d="M88 0v420h-69v103h69v54q0 90 49 136.5t137 46.5q38 0 74 -11v-108q-28 8 -52 8q-64 0 -64 -69v-57h171v60q0 90 49 136.5t138 46.5q42 0 75 -10v-109q-25 9 -53 9q-65 0 -65 -69v-64h114v-103h-114v-420h-144v420h-171v-420h-144z" />
    <glyph glyph-name=".notdef" horiz-adv-x="512" 
 />
    <glyph glyph-name=".null" horiz-adv-x="0" 
 />
    <glyph glyph-name="nonmarkingreturn" horiz-adv-x="333" 
 />
    <glyph glyph-name="space" unicode=" " horiz-adv-x="222" 
 />
    <glyph glyph-name="exclam" unicode="!" horiz-adv-x="316" 
d="M158 -9q-38 0 -64.5 25t-26.5 61q0 37 26.5 62t64.5 25t64.5 -25t26.5 -62q0 -36 -26.5 -61t-64.5 -25zM100 223l-22 492h162l-22 -492h-118z" />
    <glyph glyph-name="quotedbl" unicode="&#x22;" horiz-adv-x="430" 
d="M67 451l-19 264h140l-19 -264h-102zM261 451l-19 264h140l-18 -264h-103z" />
    <glyph glyph-name="numbersign" unicode="#" horiz-adv-x="549" 
d="M264 99l23 157h-75l-23 -157h-102l23 157h-74v115h91l14 96h-80v111h96l21 137h101l-20 -137h75l21 137h101l-21 -137h78v-111h-94l-14 -96h83v-115h-100l-23 -157h-101zM243 467l-14 -96h75l14 96h-75z" />
    <glyph glyph-name="dollar" unicode="$" horiz-adv-x="640" 
d="M287 -135v125q-124 9 -186.5 71t-68.5 162h148q6 -49 29 -79t78 -38v193q-122 19 -178.5 68.5t-56.5 146.5q0 87 64 145t171 65v89h71v-90q212 -19 230 -209h-143q-14 80 -87 94v-179q121 -19 181.5 -66t60.5 -146q0 -93 -63.5 -156t-178.5 -71v-125h-71zM452 200
q0 37 -20 56.5t-74 31.5v-182q44 8 69 32.5t25 61.5zM196 527q0 -36 19 -55.5t72 -30.5v169q-43 -6 -67 -28.5t-24 -54.5z" />
    <glyph glyph-name="percent" unicode="%" horiz-adv-x="811" 
d="M209 461q32 0 50 23t18 64q0 40 -18 63t-50 23t-51 -23t-19 -63q0 -42 18.5 -64.5t51.5 -22.5zM208 371q-79 0 -129.5 50t-50.5 126q0 75 52.5 125t128.5 50t127.5 -49t51.5 -124q0 -77 -51 -127.5t-129 -50.5zM124 0l475 715h90l-475 -715h-90zM603 80q33 0 51 22.5
t18 63.5t-18 63.5t-51 22.5q-32 0 -50.5 -22.5t-18.5 -63.5t18.5 -63.5t50.5 -22.5zM603 -11q-79 0 -129.5 50t-50.5 126q0 75 52 125.5t128 50.5t128 -49t52 -124q0 -77 -51 -128t-129 -51z" />
    <glyph glyph-name="ampersand" unicode="&#x26;" horiz-adv-x="734" 
d="M710 371l-116 -225l119 -146h-185l-52 64q-81 -74 -195 -74q-110 0 -176 56t-66 153q0 133 159 210q-50 69 -50 135q0 84 60.5 131t149.5 47q82 0 138 -43t56 -117q0 -118 -146 -179l112 -137l64 125h128zM302 109q58 0 99 48l-136 165q-74 -38 -74 -107q0 -49 29 -77.5
t82 -28.5zM289 542q0 -37 48 -95q46 21 66 46t20 61q0 28 -17.5 46t-45.5 18q-31 0 -51 -20t-20 -56z" />
    <glyph glyph-name="quotesingle" unicode="'" horiz-adv-x="240" 
d="M67 451l-19 264h144l-19 -264h-106z" />
    <glyph glyph-name="parenleft" unicode="(" horiz-adv-x="343" 
d="M210 -148q-167 197 -167 461t167 461h119q-145 -203 -145 -461q0 -256 145 -461h-119z" />
    <glyph glyph-name="parenright" unicode=")" horiz-adv-x="343" 
d="M15 -146q144 204 144 461q0 255 -144 461h119q166 -198 166 -461t-166 -461h-119z" />
    <glyph glyph-name="asterisk" unicode="*" horiz-adv-x="434" 
d="M155 384l-89 64l87 97l-119 19l30 103l112 -51l-17 127h117l-18 -127l112 51l30 -103l-120 -19l87 -97l-89 -64l-62 117z" />
    <glyph glyph-name="plus" unicode="+" horiz-adv-x="551" 
d="M217 91v195h-180v109h180v195h118v-195h180v-109h-180v-195h-118z" />
    <glyph glyph-name="comma" unicode="," horiz-adv-x="298" 
d="M111 -123l-88 37l88 247l136 -51z" />
    <glyph glyph-name="hyphen" unicode="-" horiz-adv-x="364" 
d="M54 224v115h256v-115h-256z" />
    <glyph glyph-name="period" unicode="." horiz-adv-x="293" 
d="M146 -9q-37 0 -63 25.5t-26 62.5q0 36 26 61.5t63 25.5q38 0 64 -25.5t26 -61.5q0 -37 -26 -62.5t-64 -25.5z" />
    <glyph glyph-name="slash" unicode="/" horiz-adv-x="423" 
d="M-13 -148l307 924h119l-308 -924h-118z" />
    <glyph glyph-name="zero" unicode="0" horiz-adv-x="713" 
d="M360 116q147 0 147 227v32q0 109 -37.5 167t-111.5 58q-151 0 -151 -225v-34q0 -225 153 -225zM356 -11q-143 0 -227 94t-84 257v34q0 163 86 257t226 94q141 0 226 -92t85 -256v-33q0 -164 -83.5 -259.5t-228.5 -95.5z" />
    <glyph glyph-name="one" unicode="1" horiz-adv-x="431" 
d="M177 0v555l-145 -95v138l165 117h142v-715h-162z" />
    <glyph glyph-name="two" unicode="2" horiz-adv-x="593" 
d="M12 0v26l262 277q56 59 84.5 107t28.5 94q0 45 -24.5 71t-70.5 26q-99 0 -114 -131h-147q6 123 76.5 189t191.5 66q117 0 182.5 -59.5t65.5 -157.5q0 -67 -35 -127.5t-103 -125.5l-135 -132h278v-123h-540z" />
    <glyph glyph-name="three" unicode="3" horiz-adv-x="635" 
d="M313 -11q-133 0 -204.5 63t-76.5 175h146q10 -119 129 -119t119 103t-115 103h-56v108h52q109 0 109 95q0 40 -25.5 64.5t-73.5 24.5q-50 0 -81 -28.5t-37 -79.5h-143q6 101 75.5 164t188.5 63q115 0 182 -54t67 -140q0 -113 -118 -155q64 -14 101.5 -57.5t37.5 -110.5
q0 -101 -73.5 -160t-203.5 -59z" />
    <glyph glyph-name="four" unicode="4" horiz-adv-x="656" 
d="M377 0v142h-351v59l309 514h199v-457h94v-116h-94v-142h-157zM188 258h192v335z" />
    <glyph glyph-name="five" unicode="5" horiz-adv-x="615" 
d="M297 -11q-126 0 -192.5 61.5t-72.5 162.5h149q7 -50 32 -75t83 -25q54 0 83 34.5t29 92.5t-31 91.5t-85 33.5q-87 0 -137 -57h-90l10 407h453v-123h-332l-3 -179q54 66 159 66q99 0 159 -64.5t60 -176.5q0 -114 -75 -181.5t-199 -67.5z" />
    <glyph glyph-name="six" unicode="6" horiz-adv-x="654" 
d="M339 -11q-154 0 -224 92t-70 249v18q0 177 85.5 277t220.5 100q108 0 172 -50.5t76 -147.5h-150q-8 38 -30 57t-66 19q-67 0 -106 -58t-42 -167q55 89 173 89q103 0 169.5 -63t66.5 -169q0 -111 -74.5 -178.5t-200.5 -67.5zM337 106q53 0 85.5 35t32.5 92t-32 92t-86 35
t-88 -34.5t-34 -87.5q0 -61 33.5 -96.5t88.5 -35.5z" />
    <glyph glyph-name="seven" unicode="7" horiz-adv-x="558" 
d="M124 0l218 584h-315v131h518v-18l-256 -697h-165z" />
    <glyph glyph-name="eight" unicode="8" horiz-adv-x="639" 
d="M320 -11q-123 0 -201.5 55.5t-78.5 157.5q0 64 35 110.5t97 68.5q-104 43 -104 149q0 89 74 142t179 53q107 0 179 -52.5t72 -141.5q0 -103 -104 -149q63 -22 97 -67t34 -109q0 -102 -78 -159.5t-201 -57.5zM320 107q52 0 85.5 29.5t33.5 81.5q0 51 -33 80t-85 29
t-86 -29.5t-34 -80.5q0 -52 34 -81t85 -29zM322 426q44 0 72 25.5t28 68.5q0 41 -29 66.5t-72 25.5q-44 0 -73 -25.5t-29 -67.5t30 -67.5t73 -25.5z" />
    <glyph glyph-name="nine" unicode="9" horiz-adv-x="655" 
d="M310 -10q-116 0 -183.5 53t-79.5 150h151q16 -80 107 -80q140 0 145 221q-55 -87 -171 -87q-106 0 -172.5 62t-66.5 169q0 112 75 180t202 68q144 0 218 -90t74 -249v-32q0 -176 -77.5 -270.5t-221.5 -94.5zM315 355q54 0 88 33.5t34 86.5q0 62 -33.5 98t-88.5 36
q-53 0 -85.5 -35t-32.5 -92t32 -92t86 -35z" />
    <glyph glyph-name="colon" unicode=":" horiz-adv-x="300" 
d="M149 -9q-37 0 -62.5 25.5t-25.5 62.5q0 36 25.5 61.5t62.5 25.5q38 0 64 -25.5t26 -61.5q0 -37 -26 -62.5t-64 -25.5zM149 281q-37 0 -62.5 25.5t-25.5 62.5q0 36 25.5 61.5t62.5 25.5q38 0 64 -25.5t26 -61.5q0 -37 -26 -62.5t-64 -25.5z" />
    <glyph glyph-name="semicolon" unicode=";" horiz-adv-x="310" 
d="M101 -123l-87 37l88 247l135 -51zM167 281q-37 0 -62.5 25.5t-25.5 62.5q0 36 25.5 61.5t62.5 25.5q38 0 64 -25.5t26 -61.5q0 -37 -26 -62.5t-64 -25.5z" />
    <glyph glyph-name="less" unicode="&#x3c;" horiz-adv-x="509" 
d="M454 72l-408 236v29l408 235v-132l-217 -117l217 -121v-130z" />
    <glyph glyph-name="equal" unicode="=" horiz-adv-x="530" 
d="M39 178v103h452v-103h-452zM39 368v104h452v-104h-452z" />
    <glyph glyph-name="greater" unicode="&#x3e;" horiz-adv-x="509" 
d="M56 73v132l216 117l-216 121v130l408 -236v-29z" />
    <glyph glyph-name="question" unicode="?" horiz-adv-x="532" 
d="M173 223v30q0 28 7.5 52t25.5 48t29.5 36t36.5 37q23 22 35 35t22.5 33t10.5 39q0 74 -77 74q-41 0 -67.5 -27.5t-31.5 -75.5h-139q4 103 71.5 162t175.5 59q107 0 164.5 -49t57.5 -131q0 -47 -21.5 -83t-60.5 -74q-4 -4 -23 -22t-25 -23.5t-19.5 -21t-19 -24.5
t-11.5 -22.5t-7 -26.5v-25h-134zM239 -9q-38 0 -65 25t-27 61q0 37 27 62t65 25t64.5 -25t26.5 -62q0 -36 -26.5 -61t-64.5 -25z" />
    <glyph glyph-name="at" unicode="@" horiz-adv-x="919" 
d="M460 -154q-195 0 -310 118t-115 291q0 188 130.5 311.5t310.5 123.5q179 0 293.5 -102.5t114.5 -262.5q0 -135 -61.5 -201t-144.5 -66q-116 0 -135 83q-44 -87 -140 -87q-74 0 -118 48.5t-44 132.5q0 103 57 168.5t140 65.5q86 0 114 -63l7 55h124l-32 -265
q-11 -71 45 -71q46 0 78.5 50.5t32.5 149.5q0 134 -89 215.5t-241 81.5q-155 0 -257.5 -102t-102.5 -266q0 -147 90 -243.5t255 -96.5q156 0 249 86h86q-46 -70 -136 -112t-201 -42zM440 152q40 0 69 36.5t29 96.5q0 86 -79 86q-39 0 -65 -36t-26 -95q0 -40 19.5 -64
t52.5 -24z" />
    <glyph glyph-name="A" unicode="A" horiz-adv-x="720" 
d="M21 0l235 715h211l232 -715h-169l-49 159h-259l-49 -159h-152zM352 583l-95 -309h189z" />
    <glyph glyph-name="B" unicode="B" horiz-adv-x="659" 
d="M77 0v715h281q117 0 177 -47t60 -139v-4q0 -120 -116 -153q143 -29 143 -168v-4q0 -98 -63.5 -149t-187.5 -51h-294zM235 112h111q116 0 116 101v4q0 50 -29.5 75t-94.5 25h-103v-205zM235 421h97q58 0 83.5 22t25.5 70v4q0 45 -26.5 66t-83.5 21h-96v-183z" />
    <glyph glyph-name="C" unicode="C" horiz-adv-x="748" 
d="M399 -11q-172 0 -265.5 98t-93.5 266v8q0 161 100.5 263t254.5 102q134 0 219.5 -66t97.5 -194h-166q-18 132 -150 132q-85 0 -135 -63t-50 -173v-8q0 -111 49 -172.5t137 -61.5q68 0 111 34.5t53 102.5h159q-13 -130 -99.5 -199t-221.5 -69z" />
    <glyph glyph-name="D" unicode="D" horiz-adv-x="726" 
d="M239 126h66q212 0 212 229v8q0 113 -51.5 169.5t-162.5 56.5h-64v-463zM77 0v715h234q184 0 279.5 -93t95.5 -257v-8q0 -165 -96 -261t-280 -96h-233z" />
    <glyph glyph-name="E" unicode="E" horiz-adv-x="595" 
d="M77 0v715h466v-126h-305v-167h244v-118h-244v-178h321v-126h-482z" />
    <glyph glyph-name="F" unicode="F" horiz-adv-x="567" 
d="M77 0v715h459v-127h-297v-189h235v-122h-235v-277h-162z" />
    <glyph glyph-name="G" unicode="G" horiz-adv-x="780" 
d="M404 -11q-172 0 -268 100.5t-96 263.5v8q0 161 102.5 263t261.5 102q83 0 149.5 -24.5t113.5 -82.5t55 -143h-161q-20 122 -155 122q-92 0 -144.5 -64.5t-52.5 -174.5v-8q0 -109 49 -173t150 -64q85 0 127.5 42t44.5 109h-161v118h321v-76q0 -145 -89 -231.5t-247 -86.5z
" />
    <glyph glyph-name="H" unicode="H" horiz-adv-x="764" 
d="M77 0v715h162v-292h287v292h162v-715h-162v295h-287v-295h-162z" />
    <glyph glyph-name="I" unicode="I" horiz-adv-x="325" 
d="M81 0v715h163v-715h-163z" />
    <glyph glyph-name="J" unicode="J" horiz-adv-x="457" 
d="M154 -9q-77 0 -119 22v124q45 -17 90 -17q101 0 101 113v482h163v-484q0 -119 -61.5 -179.5t-173.5 -60.5z" />
    <glyph glyph-name="K" unicode="K" horiz-adv-x="686" 
d="M77 0v715h162v-308l250 309h172l-283 -339l297 -377h-189l-247 321v-321h-162z" />
    <glyph glyph-name="L" unicode="L" horiz-adv-x="560" 
d="M77 0v715h162v-588h291v-127h-453z" />
    <glyph glyph-name="M" unicode="M" horiz-adv-x="911" 
d="M77 0v715h214l167 -445l165 445h210v-715h-161v502l-198 -502h-53l-199 502v-502h-145z" />
    <glyph glyph-name="N" unicode="N" horiz-adv-x="758" 
d="M77 0v715h188l272 -471v471h144v-715h-162l-298 509v-509h-144z" />
    <glyph glyph-name="O" unicode="O" horiz-adv-x="816" 
d="M410 118q91 0 144 64.5t53 172.5v8q0 106 -53 170t-146 64t-146 -63.5t-53 -171.5v-8q0 -108 56 -172t145 -64zM407 -11q-166 0 -266.5 102.5t-100.5 261.5v8q0 159 104 261.5t264 102.5q162 0 265 -100t103 -260v-8q0 -161 -101.5 -264.5t-267.5 -103.5z" />
    <glyph glyph-name="P" unicode="P" horiz-adv-x="626" 
d="M77 0v715h247q132 0 202.5 -58t70.5 -170v-4q0 -110 -71 -166.5t-197 -56.5h-91v-260h-161zM238 373h82q121 0 121 109v4q0 106 -121 106h-82v-219z" />
    <glyph glyph-name="Q" unicode="Q" horiz-adv-x="816" 
d="M639 -93l-97 103q-66 -21 -135 -21q-166 0 -266.5 102t-100.5 262v8q0 159 104 261.5t264 102.5q162 0 265 -100t103 -260v-8q0 -177 -118 -281l73 -78zM410 114q12 0 34 2l-68 74l94 88l88 -95q49 66 49 172v8q0 106 -53 170t-146 64t-146 -63t-53 -172v-8
q0 -111 55.5 -175.5t145.5 -64.5z" />
    <glyph glyph-name="R" unicode="R" horiz-adv-x="672" 
d="M77 0v715h256q130 0 203 -54.5t73 -162.5v-4q0 -146 -147 -190l189 -304h-172l-171 276h-70v-276h-161zM238 386h91q122 0 122 103v4q0 53 -30.5 75.5t-91.5 22.5h-91v-205z" />
    <glyph glyph-name="S" unicode="S" horiz-adv-x="640" 
d="M327 -11q-142 0 -215 62t-80 173h155q6 -55 36.5 -86t103.5 -31q53 0 85.5 26.5t32.5 68.5q0 43 -28 62t-107 31q-140 18 -199 66.5t-59 150.5q0 93 71.5 153t188.5 60q121 0 189.5 -54t78.5 -160h-149q-15 95 -119 95q-52 0 -79.5 -22t-27.5 -59q0 -40 26.5 -59.5
t106.5 -31.5q138 -18 200 -64.5t62 -152.5q0 -98 -74.5 -163t-198.5 -65z" />
    <glyph glyph-name="T" unicode="T" horiz-adv-x="597" 
d="M217 0v589h-193v126h549v-126h-193v-589h-163z" />
    <glyph glyph-name="U" unicode="U" horiz-adv-x="739" 
d="M366 -11q-142 0 -218.5 74t-76.5 216v436h163v-426q0 -91 30.5 -131t102.5 -40q73 0 105.5 40t32.5 137v420h163v-430q0 -145 -78 -220.5t-224 -75.5z" />
    <glyph glyph-name="V" unicode="V" horiz-adv-x="701" 
d="M258 0l-239 715h171l170 -549l170 549h152l-238 -715h-186z" />
    <glyph glyph-name="W" unicode="W" horiz-adv-x="971" 
d="M195 0l-174 715h164l112 -494l122 494h138l127 -497l116 497h150l-174 -715h-165l-129 494l-131 -494h-156z" />
    <glyph glyph-name="X" unicode="X" horiz-adv-x="719" 
d="M30 0l227 367l-210 348h183l136 -238l135 238h166l-204 -343l226 -372h-184l-155 266l-154 -266h-166z" />
    <glyph glyph-name="Y" unicode="Y" horiz-adv-x="648" 
d="M249 0v308l-236 407h178l145 -274l142 274h157l-223 -407v-308h-163z" />
    <glyph glyph-name="Z" unicode="Z" horiz-adv-x="615" 
d="M18 0v20l341 569h-303v126h532v-19l-334 -569h322v-127h-558z" />
    <glyph glyph-name="bracketleft" unicode="[" horiz-adv-x="390" 
d="M74 -148v924h276v-107h-131v-710h131v-107h-276z" />
    <glyph glyph-name="backslash" unicode="\" horiz-adv-x="423" 
d="M318 -148l-308 924h118l308 -924h-118z" />
    <glyph glyph-name="bracketright" unicode="]" horiz-adv-x="390" 
d="M41 -148v107h130v710h-130v107h275v-924h-275z" />
    <glyph glyph-name="asciicircum" unicode="^" horiz-adv-x="522" 
d="M31 399l165 316h130l166 -316h-129l-103 198l-104 -198h-125z" />
    <glyph glyph-name="underscore" unicode="_" horiz-adv-x="419" 
d="M-1 -160v79h421v-79h-421z" />
    <glyph glyph-name="grave" unicode="`" horiz-adv-x="400" 
d="M155 594l-104 159h152l57 -159h-105z" />
    <glyph glyph-name="a" unicode="a" horiz-adv-x="564" 
d="M205 -11q-77 0 -126 39t-49 117q0 168 272 168h59v21q0 49 -19 72.5t-66 23.5q-79 0 -89 -74h-137q6 89 70 134t165 45q219 0 219 -194v-341h-141v63q-53 -74 -158 -74zM248 90q49 0 81 25t32 68v44h-56q-66 0 -99.5 -17t-33.5 -57q0 -63 76 -63z" />
    <glyph glyph-name="b" unicode="b" horiz-adv-x="637" 
d="M376 -11q-59 0 -102.5 26t-64.5 68v-83h-145v760h145v-319q23 40 67.5 67t99.5 27q100 0 164 -71t64 -197v-8q0 -126 -64 -198t-164 -72zM333 102q60 0 92 40t32 116v8q0 77 -34 117.5t-91 40.5q-59 0 -93.5 -40.5t-34.5 -117.5v-8q0 -77 34 -116.5t95 -39.5z" />
    <glyph glyph-name="c" unicode="c" horiz-adv-x="578" 
d="M301 -11q-118 0 -193.5 70.5t-75.5 195.5v8q0 123 77.5 197.5t192.5 74.5q100 0 168.5 -49t77.5 -154h-137q-15 89 -106 89q-57 0 -91 -41t-34 -115v-8q0 -78 33.5 -118.5t94.5 -40.5q45 0 76 26t36 75h131q-6 -95 -72 -152.5t-178 -57.5z" />
    <glyph glyph-name="d" unicode="d" horiz-adv-x="637" 
d="M260 -11q-99 0 -163 69.5t-64 195.5v8q0 126 64.5 199.5t165.5 73.5q116 0 165 -90v315h144v-760h-144v87q-21 -42 -67 -70t-101 -28zM303 102q59 0 94 40t35 117v8q0 77 -32.5 117t-92.5 40q-61 0 -93.5 -40.5t-32.5 -118.5v-8q0 -76 33 -115.5t89 -39.5z" />
    <glyph glyph-name="e" unicode="e" horiz-adv-x="587" 
d="M305 -11q-121 0 -197 71.5t-76 194.5v8q0 122 76.5 197t192.5 75q110 0 182.5 -67t72.5 -199v-40h-377q3 -65 37 -101t93 -36q94 0 109 73h137q-13 -85 -78 -130.5t-172 -45.5zM181 318h234q-7 117 -114 117q-49 0 -80.5 -30.5t-39.5 -86.5z" />
    <glyph glyph-name="f" unicode="f" horiz-adv-x="371" 
d="M88 0v420h-69v103h69v60q0 90 49 136.5t138 46.5q42 0 75 -10v-109q-25 9 -53 9q-65 0 -65 -69v-64h114v-103h-114v-420h-144z" />
    <glyph glyph-name="g" unicode="g" horiz-adv-x="636" 
d="M296 -193q-236 0 -260 182h144q15 -76 116 -76q132 0 132 128v79q-23 -41 -68 -69t-100 -28q-98 0 -163 68t-65 182v7q0 111 66 183t164 72q115 0 166 -90v78h144v-482q-1 -115 -73 -174.5t-203 -59.5zM303 132q58 0 93.5 38.5t35.5 104.5v7q0 67 -33.5 105t-92.5 38
q-60 0 -93 -39t-33 -105v-8q0 -64 34 -102.5t89 -38.5z" />
    <glyph glyph-name="h" unicode="h" horiz-adv-x="615" 
d="M64 0v760h145v-320q21 42 64.5 68.5t105.5 26.5q81 0 128.5 -50.5t47.5 -151.5v-333h-145v312q0 54 -22 79.5t-70 25.5q-49 0 -79 -29.5t-30 -85.5v-302h-145z" />
    <glyph glyph-name="i" unicode="i" horiz-adv-x="281" 
d="M68 0v523h144v-523h-144zM139 594q-35 0 -58.5 22.5t-23.5 56.5t23.5 56.5t58.5 22.5t59 -22.5t24 -56.5t-24 -56.5t-59 -22.5z" />
    <glyph glyph-name="j" unicode="j" horiz-adv-x="281" 
d="M-1 -187v108q37 3 53 20t16 49v533h144v-532q0 -87 -48 -132t-165 -46zM139 594q-35 0 -58.5 22.5t-23.5 56.5t23.5 56.5t58.5 22.5t59 -22.5t24 -56.5t-24 -56.5t-59 -22.5z" />
    <glyph glyph-name="k" unicode="k" horiz-adv-x="555" 
d="M64 0v760h145v-458l168 221h154l-190 -238l205 -285h-164l-173 247v-247h-145z" />
    <glyph glyph-name="l" unicode="l" horiz-adv-x="280" 
d="M68 0v760h144v-760h-144z" />
    <glyph glyph-name="m" unicode="m" horiz-adv-x="923" 
d="M64 0v523h145v-80q21 40 63 66t97 26q109 0 146 -91q61 91 176 91q77 0 124.5 -50t47.5 -150v-335h-144v319q0 97 -82 97q-44 0 -72.5 -28t-28.5 -79v-309h-144v319q0 97 -82 97q-44 0 -72.5 -28t-28.5 -79v-309h-145z" />
    <glyph glyph-name="n" unicode="n" horiz-adv-x="615" 
d="M64 0v523h145v-83q21 42 64.5 68.5t105.5 26.5q81 0 128.5 -50.5t47.5 -151.5v-333h-145v312q0 54 -22 79.5t-70 25.5q-49 0 -79 -29.5t-30 -85.5v-302h-145z" />
    <glyph glyph-name="o" unicode="o" horiz-adv-x="616" 
d="M308 99q61 0 94.5 42t33.5 117v7q0 75 -33.5 117.5t-94.5 42.5q-60 0 -94 -41.5t-34 -116.5v-8q0 -75 33.5 -117.5t94.5 -42.5zM307 -11q-119 0 -197 73.5t-78 193.5v8q0 121 78 196t198 75t197.5 -73.5t77.5 -194.5v-8q0 -122 -78 -196t-198 -74z" />
    <glyph glyph-name="p" unicode="p" horiz-adv-x="637" 
d="M64 -178v701h145v-82q23 40 67.5 67t99.5 27q100 0 164 -71t64 -197v-8q0 -126 -64 -198t-164 -72q-58 0 -102 25.5t-65 65.5v-258h-145zM333 102q60 0 92 40t32 116v8q0 77 -34 117.5t-91 40.5q-59 0 -93.5 -40.5t-34.5 -117.5v-8q0 -77 34 -116.5t95 -39.5z" />
    <glyph glyph-name="q" unicode="q" horiz-adv-x="637" 
d="M428 -178v262q-22 -40 -67.5 -67.5t-100.5 -27.5q-99 0 -163 69.5t-64 195.5v8q0 126 64.5 199.5t165.5 73.5q116 0 165 -90v78h144v-701h-144zM303 102q59 0 94 40t35 117v8q0 77 -32.5 117t-92.5 40q-61 0 -93.5 -40.5t-32.5 -118.5v-8q0 -76 33 -115.5t89 -39.5z" />
    <glyph glyph-name="r" unicode="r" horiz-adv-x="409" 
d="M64 0v523h145v-100q50 107 169 108v-135q-84 1 -126.5 -30.5t-42.5 -103.5v-262h-145z" />
    <glyph glyph-name="s" unicode="s" horiz-adv-x="502" 
d="M254 -11q-106 0 -165 45t-63 130h135q5 -37 26 -55.5t66 -18.5q82 0 82 57q0 26 -24 40t-82 22q-106 16 -149.5 52t-43.5 111q0 78 60.5 120.5t146.5 42.5q198 0 216 -162h-133q-12 63 -82 63q-35 0 -54.5 -15t-19.5 -39q0 -25 21.5 -37t79.5 -20q106 -15 154.5 -50
t48.5 -114q0 -84 -57.5 -128t-162.5 -44z" />
    <glyph glyph-name="t" unicode="t" horiz-adv-x="377" 
d="M255 -10q-83 0 -126 42t-43 123v265h-67v103h67v113h144v-113h110v-103h-110v-252q0 -62 58 -62q31 0 55 10v-112q-40 -14 -88 -14z" />
    <glyph glyph-name="u" unicode="u" horiz-adv-x="612" 
d="M238 -11q-81 0 -129.5 49t-48.5 148v337h144v-317q0 -105 91 -105q48 0 78.5 29.5t30.5 85.5v307h144v-523h-144v82q-47 -93 -166 -93z" />
    <glyph glyph-name="v" unicode="v" horiz-adv-x="572" 
d="M205 0l-191 523h155l125 -374l124 374h140l-190 -523h-163z" />
    <glyph glyph-name="w" unicode="w" horiz-adv-x="826" 
d="M175 0l-159 523h152l93 -352l101 352h119l92 -352l99 352h139l-165 -523h-142l-89 328l-96 -328h-144z" />
    <glyph glyph-name="x" unicode="x" horiz-adv-x="574" 
d="M17 0l179 267l-167 256h166l98 -157l96 157h150l-167 -245l184 -278h-167l-110 176l-113 -176h-149z" />
    <glyph glyph-name="y" unicode="y" horiz-adv-x="567" 
d="M130 -178l92 231l-208 470h156l127 -314l117 314h139l-283 -701h-140z" />
    <glyph glyph-name="z" unicode="z" horiz-adv-x="499" 
d="M14 0v16l258 395h-232v112h442v-18l-260 -393h250v-112h-458z" />
    <glyph glyph-name="braceleft" unicode="{" horiz-adv-x="405" 
d="M364 -147q-139 0 -200 53.5t-41 168.5l16 92q7 42 -18 69.5t-87 27.5v103q62 0 87 27.5t18 69.5l-16 91q-20 118 40.5 170.5t200.5 52.5v-106q-64 -2 -87 -26.5t-13 -87.5l15 -107q7 -51 -20 -86.5t-81 -48.5q54 -12 81 -47.5t20 -87.5l-15 -106q-10 -64 13 -89.5
t87 -27.5v-105z" />
    <glyph glyph-name="bar" unicode="|" horiz-adv-x="262" 
d="M79 -148v924h104v-924h-104z" />
    <glyph glyph-name="braceright" unicode="}" horiz-adv-x="405" 
d="M40 -147v105q65 2 87.5 27.5t13.5 89.5l-15 106q-7 52 20 87.5t81 47.5q-54 13 -81 48t-20 87l15 107q9 63 -13.5 87.5t-87.5 26.5v106q140 0 201 -52.5t41 -170.5l-16 -91q-7 -42 18 -69.5t86 -27.5v-103q-61 0 -86 -27.5t-18 -69.5l16 -92q20 -115 -41 -168.5
t-201 -53.5z" />
    <glyph glyph-name="asciitilde" unicode="~" horiz-adv-x="492" 
d="M34 218q5 86 42.5 129t89.5 43q40 0 88.5 -23.5t60.5 -23.5q39 0 45 49h98q-4 -83 -42 -128t-89 -45q-41 0 -89 23.5t-61 23.5q-39 0 -45 -48h-98z" />
    <glyph glyph-name="uni00A0" unicode="&#xa0;" horiz-adv-x="266" 
 />
    <glyph glyph-name="exclamdown" unicode="&#xa1;" horiz-adv-x="317" 
d="M77 -117l22 492h118l22 -492h-162zM159 434q-38 0 -65 25.5t-27 61.5t27 61t65 25t64.5 -25t26.5 -61q0 -37 -26.5 -62t-64.5 -25z" />
    <glyph glyph-name="cent" unicode="&#xa2;" horiz-adv-x="584" 
d="M272 -135v126q-108 10 -174 79.5t-66 184.5v8q0 113 67.5 185.5t172.5 84.5v96h71v-96q88 -7 146.5 -57.5t67.5 -143.5h-135q-10 75 -79 91v-328q80 19 89 104h128q-6 -87 -64 -143t-153 -65v-126h-71zM176 257q0 -134 96 -160v325q-44 -12 -70 -53t-26 -104v-8z" />
    <glyph glyph-name="sterling" unicode="&#xa3;" horiz-adv-x="635" 
d="M39 297v99h57q-15 53 -15 108q0 101 72 161t183 60q119 0 182.5 -59.5t69.5 -162.5h-149q-9 50 -31.5 74t-67.5 24q-44 0 -71 -28.5t-27 -75.5q0 -48 10 -101h191v-99h-171q7 -45 7 -83q0 -30 -12 -61q16 -5 43 -14.5t45 -14.5t33 -5q69 0 73 69h144q-5 -88 -53.5 -142.5
t-134.5 -54.5q-54 0 -124 28t-90 28q-49 0 -55 -47h-123q4 54 31 97.5t75 59.5q9 29 9 57q0 34 -14 83h-87z" />
    <glyph glyph-name="yen" unicode="&#xa5;" horiz-adv-x="621" 
d="M71 289v67h144l-198 359h176l129 -266l126 266h155l-187 -359h145v-67h-164v-61h164v-66h-164v-162h-162v162h-164v66h164v61h-164z" />
    <glyph glyph-name="brokenbar" unicode="&#xa6;" horiz-adv-x="266" 
d="M79 -148v448h104v-448h-104zM79 370v406h104v-406h-104z" />
    <glyph glyph-name="section" unicode="&#xa7;" horiz-adv-x="582" 
d="M283 -137q-96 0 -151.5 46.5t-58.5 129.5h135q5 -74 76 -74q37 0 55.5 17t18.5 45q0 29 -24.5 45.5t-94.5 33.5q-105 26 -157.5 67t-52.5 119q0 49 29 84t81 52q-51 45 -51 120q0 79 60.5 128t150.5 49q95 0 149 -46t57 -128h-133q-6 70 -75 70q-36 0 -54.5 -17
t-18.5 -45q0 -30 23 -46t92 -33q52 -13 87 -26t66 -34t46 -52t15 -74q0 -47 -29 -82.5t-80 -54.5q50 -44 50 -119q0 -76 -59.5 -125.5t-151.5 -49.5zM353 210q60 14 60 64q0 30 -23 44.5t-85 33.5l-76 23q-60 -11 -60 -65q0 -28 24.5 -43.5t85.5 -33.5z" />
    <glyph glyph-name="dieresis" unicode="&#xa8;" horiz-adv-x="400" 
d="M98 600q-31 0 -52.5 21t-21.5 51t21.5 51t52.5 21t52.5 -21t21.5 -51t-21.5 -51t-52.5 -21zM302 600q-31 0 -52.5 21t-21.5 51t21.5 51t52.5 21t52.5 -21t21.5 -51t-21.5 -51t-52.5 -21z" />
    <glyph glyph-name="copyright" unicode="&#xa9;" horiz-adv-x="843" 
d="M426 152q-98 0 -151 54t-53 147v8q0 90 57 146t144 56q79 0 127.5 -38t54.5 -112h-109q-9 65 -73 65q-42 0 -65.5 -30.5t-23.5 -86.5v-7q0 -56 23.5 -86t67.5 -30q71 0 80 69h104q-5 -75 -54.5 -115t-128.5 -40zM421 32q134 0 227.5 92t93.5 235q0 142 -92.5 233
t-226.5 91q-136 0 -229 -91.5t-93 -234.5t93.5 -234t226.5 -91zM421 -16q-157 0 -267 107.5t-110 265.5q0 156 110 265t269 109q160 0 268.5 -108t108.5 -264q0 -158 -110 -266.5t-269 -108.5z" />
    <glyph glyph-name="ordfeminine" unicode="&#xaa;" horiz-adv-x="460" 
d="M169 288q-61 0 -101 31.5t-40 93.5q0 132 217 132h47v19q0 34 -14 50.5t-47 16.5q-56 0 -65 -53h-122q5 71 57 108.5t136 37.5q182 0 182 -157v-269h-125v49q-41 -59 -125 -59zM210 378q36 0 59 17.5t23 48.5v31h-43q-93 0 -93 -52q0 -45 54 -45z" />
    <glyph glyph-name="guillemotleft" unicode="&#xab;" horiz-adv-x="487" 
d="M168 75l-127 186l127 186h103l-122 -186l122 -186h-103zM347 75l-127 186l127 186h103l-122 -186l122 -186h-103z" />
    <glyph glyph-name="registered" unicode="&#xae;" horiz-adv-x="516" 
d="M176 396v219h85q89 0 89 -69v-1q0 -42 -40 -59l53 -90h-64l-45 79h-16v-79h-62zM238 515h20q32 0 32 27v1q0 25 -32 25h-20v-53zM258 319q79 0 131.5 51.5t52.5 132.5t-51.5 132.5t-132.5 51.5q-80 0 -132 -51.5t-52 -133.5q0 -81 52.5 -132t131.5 -51zM258 281
q-95 0 -161 64t-66 157t66 158t161 65q96 0 161 -64.5t65 -157.5q0 -94 -65.5 -158t-160.5 -64z" />
    <glyph glyph-name="macron" unicode="&#xaf;" horiz-adv-x="400" 
d="M54 625v87h291v-87h-291z" />
    <glyph glyph-name="degree" unicode="&#xb0;" horiz-adv-x="443" 
d="M222 456q39 0 64.5 28.5t25.5 71.5q0 44 -25.5 73t-64.5 29q-40 0 -66.5 -29t-26.5 -73q0 -42 26.5 -71t66.5 -29zM222 390q-71 0 -121.5 49t-50.5 117q0 69 50.5 118.5t121.5 49.5t121 -49.5t50 -118.5q0 -68 -50 -117t-121 -49z" />
    <glyph glyph-name="plusminus" unicode="&#xb1;" horiz-adv-x="551" 
d="M217 165v171h-180v108h180v172h118v-172h180v-108h-180v-171h-118zM37 0v100h479v-100h-479z" />
    <glyph glyph-name="twosuperior" unicode="&#xb2;" horiz-adv-x="329" 
d="M6 352v14l128 134q63 65 63 100q0 39 -38 39q-40 0 -47 -57h-99q3 67 43 102.5t108 35.5q67 0 103 -31t36 -82q0 -60 -72 -129l-49 -48h124v-78h-300z" />
    <glyph glyph-name="threesuperior" unicode="&#xb3;" horiz-adv-x="351" 
d="M174 345q-76 0 -114.5 34t-40.5 92h96q5 -49 53 -49t48 41t-50 41h-29v64h28q49 0 49 40q0 36 -40 36q-43 0 -49 -45h-96q4 54 42 87.5t105 33.5q66 0 103.5 -27t37.5 -73q0 -60 -64 -78q33 -6 53 -28t20 -54q0 -53 -39.5 -84t-112.5 -31z" />
    <glyph glyph-name="acute" unicode="&#xb4;" horiz-adv-x="400" 
d="M140 594l57 159h152l-104 -159h-105z" />
    <glyph glyph-name="paragraph" unicode="&#xb6;" horiz-adv-x="564" 
d="M263 -100v435h-10q-101 0 -160 48t-59 139q0 94 60 143.5t159 49.5h233v-815h-74v754h-76v-754h-73z" />
    <glyph glyph-name="periodcentered" unicode="&#xb7;" horiz-adv-x="293" 
d="M146 239q-37 0 -63 25.5t-26 62.5q0 36 26 61.5t63 25.5q38 0 64 -25.5t26 -61.5q0 -37 -26 -62.5t-64 -25.5z" />
    <glyph glyph-name="cedilla" unicode="&#xb8;" horiz-adv-x="400" 
d="M205 -222q-50 0 -81 24t-36 66h74q6 -31 38 -31q16 0 25.5 9t9.5 24q0 14 -9 22.5t-25 8.5q-19 0 -31 -10l-36 35l45 74h65l-29 -48q43 5 73.5 -17t30.5 -67q0 -42 -31.5 -66t-82.5 -24z" />
    <glyph glyph-name="onesuperior" unicode="&#xb9;" horiz-adv-x="266" 
d="M103 352v258l-82 -49v89l97 65h95v-363h-110z" />
    <glyph glyph-name="ordmasculine" unicode="&#xba;" horiz-adv-x="511" 
d="M256 386q44 0 67.5 31t23.5 87v6q0 55 -23.5 85.5t-67.5 30.5t-68 -30.5t-24 -85.5v-6q0 -57 23.5 -87.5t68.5 -30.5zM255 288q-97 0 -160 58t-63 154v6q0 99 63.5 158.5t160.5 59.5t160 -58t63 -155v-6q0 -99 -63.5 -158t-160.5 -59z" />
    <glyph glyph-name="guillemotright" unicode="&#xbb;" horiz-adv-x="487" 
d="M38 75l121 186l-121 186h103l126 -186l-126 -186h-103zM217 75l121 186l-121 186h103l126 -186l-126 -186h-103z" />
    <glyph glyph-name="onequarter" unicode="&#xbc;" horiz-adv-x="753" 
d="M106 352v258l-82 -49v89l97 65h95v-363h-110zM60 0l540 715h84l-540 -715h-84zM578 0v69h-181v40l155 254h131v-220h47v-74h-47v-69h-105zM496 143h85v146z" />
    <glyph glyph-name="onehalf" unicode="&#xbd;" horiz-adv-x="760" 
d="M47 0l540 715h84l-540 -715h-84zM106 352v258l-82 -49v89l97 65h95v-363h-110zM433 0v15l128 134q63 63 63 100q0 39 -38 39q-40 0 -47 -58h-99q3 67 43 102.5t108 35.5q67 0 103 -31t36 -82q0 -60 -72 -129l-49 -47h124v-79h-300z" />
    <glyph glyph-name="threequarters" unicode="&#xbe;" horiz-adv-x="773" 
d="M177 345q-76 0 -114.5 34t-40.5 92h96q5 -49 53 -49t48 41t-50 41h-29v64h28q49 0 49 40q0 36 -40 36q-43 0 -49 -45h-96q4 54 42 87.5t105 33.5q66 0 103.5 -27t37.5 -73q0 -60 -64 -78q33 -6 53 -28t20 -54q0 -53 -39.5 -84t-112.5 -31zM103 0l540 715h84l-540 -715
h-84zM596 0v69h-181v40l155 254h131v-220h47v-74h-47v-69h-105zM514 143h85v146z" />
    <glyph glyph-name="questiondown" unicode="&#xbf;" horiz-adv-x="532" 
d="M359 375v-30q0 -36 -17 -70.5t-33.5 -52.5t-48.5 -49q-34 -32 -51 -56t-17 -51q0 -75 77 -75q41 0 67.5 27.5t31.5 75.5h139q-4 -102 -71.5 -161t-175.5 -59t-165.5 49t-57.5 131q0 46 21.5 82t60.5 74q6 6 27.5 26.5t29.5 29t21.5 25t19.5 30.5t8 29v25h134zM293 607
q38 0 64.5 -25t26.5 -61t-26.5 -61.5t-64.5 -25.5t-64.5 25.5t-26.5 61.5t26.5 61t64.5 25z" />
    <glyph glyph-name="Agrave" unicode="&#xc0;" horiz-adv-x="720" 
d="M21 0l235 715h211l232 -715h-169l-49 159h-259l-49 -159h-152zM352 583l-95 -309h189zM312 763l-99 139h156l52 -139h-109z" />
    <glyph glyph-name="Aacute" unicode="&#xc1;" horiz-adv-x="720" 
d="M21 0l235 715h211l232 -715h-169l-49 159h-259l-49 -159h-152zM352 583l-95 -309h189zM297 763l53 139h157l-101 -139h-109z" />
    <glyph glyph-name="Acircumflex" unicode="&#xc2;" horiz-adv-x="720" 
d="M21 0l235 715h211l232 -715h-169l-49 159h-259l-49 -159h-152zM352 583l-95 -309h189zM187 763l112 139h123l108 -139h-104l-68 53l-69 -53h-102z" />
    <glyph glyph-name="Atilde" unicode="&#xc3;" horiz-adv-x="720" 
d="M21 0l235 715h211l232 -715h-169l-49 159h-259l-49 -159h-152zM420 764q-29 0 -66 18.5t-49 18.5q-28 0 -35 -37h-86q5 67 36.5 103.5t77.5 36.5q27 0 64.5 -19t51.5 -19q27 0 34 37h87q-6 -66 -38 -102.5t-77 -36.5zM352 583l-95 -309h189z" />
    <glyph glyph-name="Adieresis" unicode="&#xc4;" horiz-adv-x="720" 
d="M21 0l235 715h211l232 -715h-169l-49 159h-259l-49 -159h-152zM352 583l-95 -309h189zM251 769q-31 0 -52.5 21.5t-21.5 51.5t21.5 51t52.5 21q30 0 52 -21t22 -51t-22 -51.5t-52 -21.5zM466 769q-30 0 -51.5 21.5t-21.5 51.5t21.5 51t51.5 21q31 0 52.5 -21t21.5 -51
t-21.5 -51.5t-52.5 -21.5z" />
    <glyph glyph-name="Aring" unicode="&#xc5;" horiz-adv-x="720" 
d="M21 0l235 715h211l232 -715h-169l-49 159h-259l-49 -159h-152zM359 750q-47 0 -81 32.5t-34 78.5t34 79t81 33t81 -33t34 -79t-34 -78.5t-81 -32.5zM352 583l-95 -309h189zM359 808q21 0 35 15t14 38t-14 38.5t-35 15.5q-22 0 -35.5 -15.5t-13.5 -38.5t13.5 -38t35.5 -15
z" />
    <glyph glyph-name="AE" unicode="&#xc6;" horiz-adv-x="983" 
d="M17 0l340 715h574v-126h-300v-167h239v-118h-239v-178h317v-126h-479v168h-218l-77 -168h-157zM445 589l-142 -309h166v309h-24z" />
    <glyph glyph-name="Ccedilla" unicode="&#xc7;" horiz-adv-x="748" 
d="M379 -222q-50 0 -81 24t-36 66h74q6 -31 38 -31q16 0 25.5 9t9.5 24q0 14 -9 22.5t-25 8.5q-19 0 -31 -10l-36 35l40 66q-149 14 -228.5 110t-79.5 251v8q0 161 100.5 263t254.5 102q134 0 219.5 -66t97.5 -194h-166q-18 132 -150 132q-85 0 -135 -63t-50 -173v-8
q0 -111 49 -172.5t137 -61.5q68 0 111 34.5t53 102.5h159q-13 -127 -95.5 -195.5t-213.5 -72.5l-22 -37q43 5 73.5 -17t30.5 -67q0 -42 -31.5 -66t-82.5 -24z" />
    <glyph glyph-name="Egrave" unicode="&#xc8;" horiz-adv-x="595" 
d="M270 763l-99 139h156l52 -139h-109zM77 0v715h466v-126h-305v-167h244v-118h-244v-178h321v-126h-482z" />
    <glyph glyph-name="Eacute" unicode="&#xc9;" horiz-adv-x="595" 
d="M255 763l53 139h157l-101 -139h-109zM77 0v715h466v-126h-305v-167h244v-118h-244v-178h321v-126h-482z" />
    <glyph glyph-name="Ecircumflex" unicode="&#xca;" horiz-adv-x="595" 
d="M145 763l112 139h123l108 -139h-104l-68 53l-69 -53h-102zM77 0v715h466v-126h-305v-167h244v-118h-244v-178h321v-126h-482z" />
    <glyph glyph-name="Edieresis" unicode="&#xcb;" horiz-adv-x="595" 
d="M77 0v715h466v-126h-305v-167h244v-118h-244v-178h321v-126h-482zM209 769q-31 0 -52.5 21.5t-21.5 51.5t21.5 51t52.5 21q30 0 52 -21t22 -51t-22 -51.5t-52 -21.5zM424 769q-30 0 -51.5 21.5t-21.5 51.5t21.5 51t51.5 21q31 0 52.5 -21t21.5 -51t-21.5 -51.5
t-52.5 -21.5z" />
    <glyph glyph-name="Igrave" unicode="&#xcc;" horiz-adv-x="325" 
d="M81 0v715h163v-715h-163zM115 763l-99 139h156l52 -139h-109z" />
    <glyph glyph-name="Iacute" unicode="&#xcd;" horiz-adv-x="325" 
d="M81 0v715h163v-715h-163zM100 763l53 139h157l-101 -139h-109z" />
    <glyph glyph-name="Icircumflex" unicode="&#xce;" horiz-adv-x="325" 
d="M81 0v715h163v-715h-163zM-10 763l112 139h123l108 -139h-104l-68 53l-69 -53h-102z" />
    <glyph glyph-name="Idieresis" unicode="&#xcf;" horiz-adv-x="325" 
d="M81 0v715h163v-715h-163zM54 769q-31 0 -52.5 21.5t-21.5 51.5t21.5 51t52.5 21q30 0 52 -21t22 -51t-22 -51.5t-52 -21.5zM269 769q-30 0 -51.5 21.5t-21.5 51.5t21.5 51t51.5 21q31 0 52.5 -21t21.5 -51t-21.5 -51.5t-52.5 -21.5z" />
    <glyph glyph-name="Eth" unicode="&#xd0;" horiz-adv-x="753" 
d="M31 303v112h65v300h234q184 0 279.5 -93t95.5 -257v-8q0 -165 -96 -261t-280 -96h-233v303h-65zM256 126h68q212 0 212 229v8q0 113 -51.5 169.5t-161.5 56.5h-67v-174h151v-112h-151v-177z" />
    <glyph glyph-name="Ntilde" unicode="&#xd1;" horiz-adv-x="758" 
d="M455 764q-29 0 -66 18.5t-49 18.5q-28 0 -35 -37h-86q5 67 36.5 103.5t77.5 36.5q27 0 64.5 -19t51.5 -19q27 0 34 37h87q-6 -66 -38 -102.5t-77 -36.5zM77 0v715h188l272 -471v471h144v-715h-162l-298 509v-509h-144z" />
    <glyph glyph-name="Ograve" unicode="&#xd2;" horiz-adv-x="816" 
d="M360 763l-99 139h156l52 -139h-109zM410 118q91 0 144 64.5t53 172.5v8q0 106 -53 170t-146 64t-146 -63.5t-53 -171.5v-8q0 -108 56 -172t145 -64zM407 -11q-166 0 -266.5 102.5t-100.5 261.5v8q0 159 104 261.5t264 102.5q162 0 265 -100t103 -260v-8
q0 -161 -101.5 -264.5t-267.5 -103.5z" />
    <glyph glyph-name="Oacute" unicode="&#xd3;" horiz-adv-x="816" 
d="M345 763l53 139h157l-101 -139h-109zM410 118q91 0 144 64.5t53 172.5v8q0 106 -53 170t-146 64t-146 -63.5t-53 -171.5v-8q0 -108 56 -172t145 -64zM407 -11q-166 0 -266.5 102.5t-100.5 261.5v8q0 159 104 261.5t264 102.5q162 0 265 -100t103 -260v-8
q0 -161 -101.5 -264.5t-267.5 -103.5z" />
    <glyph glyph-name="Ocircumflex" unicode="&#xd4;" horiz-adv-x="816" 
d="M235 763l112 139h123l108 -139h-104l-68 53l-69 -53h-102zM410 118q91 0 144 64.5t53 172.5v8q0 106 -53 170t-146 64t-146 -63.5t-53 -171.5v-8q0 -108 56 -172t145 -64zM407 -11q-166 0 -266.5 102.5t-100.5 261.5v8q0 159 104 261.5t264 102.5q162 0 265 -100
t103 -260v-8q0 -161 -101.5 -264.5t-267.5 -103.5z" />
    <glyph glyph-name="Otilde" unicode="&#xd5;" horiz-adv-x="816" 
d="M468 764q-29 0 -66 18.5t-49 18.5q-28 0 -35 -37h-86q5 67 36.5 103.5t77.5 36.5q27 0 64.5 -19t51.5 -19q27 0 34 37h87q-6 -66 -38 -102.5t-77 -36.5zM410 118q91 0 144 64.5t53 172.5v8q0 106 -53 170t-146 64t-146 -63.5t-53 -171.5v-8q0 -108 56 -172t145 -64z
M407 -11q-166 0 -266.5 102.5t-100.5 261.5v8q0 159 104 261.5t264 102.5q162 0 265 -100t103 -260v-8q0 -161 -101.5 -264.5t-267.5 -103.5z" />
    <glyph glyph-name="Odieresis" unicode="&#xd6;" horiz-adv-x="816" 
d="M299 769q-31 0 -52.5 21.5t-21.5 51.5t21.5 51t52.5 21q30 0 52 -21t22 -51t-22 -51.5t-52 -21.5zM514 769q-30 0 -51.5 21.5t-21.5 51.5t21.5 51t51.5 21q31 0 52.5 -21t21.5 -51t-21.5 -51.5t-52.5 -21.5zM410 118q91 0 144 64.5t53 172.5v8q0 106 -53 170t-146 64
t-146 -63.5t-53 -171.5v-8q0 -108 56 -172t145 -64zM407 -11q-166 0 -266.5 102.5t-100.5 261.5v8q0 159 104 261.5t264 102.5q162 0 265 -100t103 -260v-8q0 -161 -101.5 -264.5t-267.5 -103.5z" />
    <glyph glyph-name="multiply" unicode="&#xd7;" horiz-adv-x="534" 
d="M114 105l-77 77l153 153l-155 154l77 78l154 -155l154 153l77 -77l-153 -153l155 -154l-79 -78l-154 155z" />
    <glyph glyph-name="Oslash" unicode="&#xd8;" horiz-adv-x="816" 
d="M87 -32l-54 53l87 93q-80 95 -80 239v8q0 159 104 261.5t264 102.5q127 0 222 -65l76 81l54 -54l-73 -78q89 -99 89 -244v-8q0 -162 -101.5 -265t-267.5 -103q-138 0 -233 72zM410 118q91 0 145 64.5t54 172.5v8q0 76 -28 132l-306 -327q53 -50 135 -50zM207 354
q0 -70 23 -122l303 324q-50 41 -125 41q-94 0 -147.5 -63t-53.5 -172v-8z" />
    <glyph glyph-name="Ugrave" unicode="&#xd9;" horiz-adv-x="739" 
d="M321 763l-99 139h156l52 -139h-109zM366 -11q-142 0 -218.5 74t-76.5 216v436h163v-426q0 -91 30.5 -131t102.5 -40q73 0 105.5 40t32.5 137v420h163v-430q0 -145 -78 -220.5t-224 -75.5z" />
    <glyph glyph-name="Uacute" unicode="&#xda;" horiz-adv-x="739" 
d="M306 763l53 139h157l-101 -139h-109zM366 -11q-142 0 -218.5 74t-76.5 216v436h163v-426q0 -91 30.5 -131t102.5 -40q73 0 105.5 40t32.5 137v420h163v-430q0 -145 -78 -220.5t-224 -75.5z" />
    <glyph glyph-name="Ucircumflex" unicode="&#xdb;" horiz-adv-x="739" 
d="M196 763l112 139h123l108 -139h-104l-68 53l-69 -53h-102zM366 -11q-142 0 -218.5 74t-76.5 216v436h163v-426q0 -91 30.5 -131t102.5 -40q73 0 105.5 40t32.5 137v420h163v-430q0 -145 -78 -220.5t-224 -75.5z" />
    <glyph glyph-name="Udieresis" unicode="&#xdc;" horiz-adv-x="739" 
d="M366 -11q-142 0 -218.5 74t-76.5 216v436h163v-426q0 -91 30.5 -131t102.5 -40q73 0 105.5 40t32.5 137v420h163v-430q0 -145 -78 -220.5t-224 -75.5zM260 769q-31 0 -52.5 21.5t-21.5 51.5t21.5 51t52.5 21q30 0 52 -21t22 -51t-22 -51.5t-52 -21.5zM475 769
q-30 0 -51.5 21.5t-21.5 51.5t21.5 51t51.5 21q31 0 52.5 -21t21.5 -51t-21.5 -51.5t-52.5 -21.5z" />
    <glyph glyph-name="Yacute" unicode="&#xdd;" horiz-adv-x="648" 
d="M249 0v308l-236 407h178l145 -274l142 274h157l-223 -407v-308h-163zM266 763l53 139h157l-101 -139h-109z" />
    <glyph glyph-name="Thorn" unicode="&#xde;" horiz-adv-x="626" 
d="M77 0v715h161v-123h86q273 0 273 -221v-4q0 -110 -71 -165.5t-197 -55.5h-91v-146h-161zM238 260h82q121 0 121 107v4q0 103 -121 103h-82v-214z" />
    <glyph glyph-name="germandbls" unicode="&#xdf;" horiz-adv-x="619" 
d="M364 -10q-50 0 -94 13v112q28 -12 63 -12q108 0 108 128v6q0 71 -42.5 105.5t-116.5 33.5v110q58 -1 86 28t28 69v4q0 41 -23.5 63.5t-68.5 22.5q-44 0 -70 -29.5t-26 -80.5v-563h-144v552q0 107 70.5 164t176.5 57q102 0 162 -48t60 -134v-2q0 -50 -32.5 -91.5
t-86.5 -57.5q77 -18 125.5 -73t48.5 -137v-7q0 -117 -62.5 -175t-161.5 -58z" />
    <glyph glyph-name="agrave" unicode="&#xe0;" horiz-adv-x="564" 
d="M205 -11q-77 0 -126 39t-49 117q0 168 272 168h59v21q0 49 -19 72.5t-66 23.5q-79 0 -89 -74h-137q6 89 70 134t165 45q219 0 219 -194v-341h-141v63q-53 -74 -158 -74zM248 90q49 0 81 25t32 68v44h-56q-66 0 -99.5 -17t-33.5 -57q0 -63 76 -63zM237 594l-104 159h152
l57 -159h-105z" />
    <glyph glyph-name="aacute" unicode="&#xe1;" horiz-adv-x="564" 
d="M205 -11q-77 0 -126 39t-49 117q0 168 272 168h59v21q0 49 -19 72.5t-66 23.5q-79 0 -89 -74h-137q6 89 70 134t165 45q219 0 219 -194v-341h-141v63q-53 -74 -158 -74zM248 90q49 0 81 25t32 68v44h-56q-66 0 -99.5 -17t-33.5 -57q0 -63 76 -63zM226 594l57 159h152
l-104 -159h-105z" />
    <glyph glyph-name="acircumflex" unicode="&#xe2;" horiz-adv-x="564" 
d="M205 -11q-77 0 -126 39t-49 117q0 168 272 168h59v21q0 49 -19 72.5t-66 23.5q-79 0 -89 -74h-137q6 89 70 134t165 45q219 0 219 -194v-341h-141v63q-53 -74 -158 -74zM248 90q49 0 81 25t32 68v44h-56q-66 0 -99.5 -17t-33.5 -57q0 -63 76 -63zM107 595l117 156h109
l114 -156h-102l-69 63l-70 -63h-99z" />
    <glyph glyph-name="atilde" unicode="&#xe3;" horiz-adv-x="564" 
d="M205 -11q-77 0 -126 39t-49 117q0 168 272 168h59v21q0 49 -19 72.5t-66 23.5q-79 0 -89 -74h-137q6 89 70 134t165 45q219 0 219 -194v-341h-141v63q-53 -74 -158 -74zM248 90q49 0 81 25t32 68v44h-56q-66 0 -99.5 -17t-33.5 -57q0 -63 76 -63zM344 598q-28 0 -64.5 19
t-48.5 19q-13 0 -22.5 -10.5t-12.5 -26.5h-83q5 68 35 104.5t75 36.5q27 0 64 -18.5t51 -18.5q27 0 34 37h84q-6 -68 -37 -105t-75 -37z" />
    <glyph glyph-name="adieresis" unicode="&#xe4;" horiz-adv-x="564" 
d="M205 -11q-77 0 -126 39t-49 117q0 168 272 168h59v21q0 49 -19 72.5t-66 23.5q-79 0 -89 -74h-137q6 89 70 134t165 45q219 0 219 -194v-341h-141v63q-53 -74 -158 -74zM248 90q49 0 81 25t32 68v44h-56q-66 0 -99.5 -17t-33.5 -57q0 -63 76 -63zM182 600q-31 0 -52.5 21
t-21.5 51t21.5 51t52.5 21t52.5 -21t21.5 -51t-21.5 -51t-52.5 -21zM386 600q-31 0 -52.5 21t-21.5 51t21.5 51t52.5 21t52.5 -21t21.5 -51t-21.5 -51t-52.5 -21z" />
    <glyph glyph-name="aring" unicode="&#xe5;" horiz-adv-x="564" 
d="M205 -11q-77 0 -126 39t-49 117q0 168 272 168h59v21q0 49 -19 72.5t-66 23.5q-79 0 -89 -74h-137q6 89 70 134t165 45q219 0 219 -194v-341h-141v63q-53 -74 -158 -74zM248 90q49 0 81 25t32 68v44h-56q-66 0 -99.5 -17t-33.5 -57q0 -63 76 -63zM284 643q21 0 34.5 15
t13.5 38t-13.5 38t-34.5 15t-34.5 -15t-13.5 -38t13.5 -38t34.5 -15zM284 585q-47 0 -80.5 32.5t-33.5 78.5q0 45 33.5 77.5t80.5 32.5t80.5 -32.5t33.5 -77.5q0 -46 -33.5 -78.5t-80.5 -32.5z" />
    <glyph glyph-name="ae" unicode="&#xe6;" horiz-adv-x="898" 
d="M623 -11q-138 0 -201 97q-69 -97 -206 -97q-82 0 -134 39t-52 117q0 88 72 129.5t198 41.5h62v18q0 48 -19.5 72t-65.5 24q-80 0 -90 -74h-137q6 89 69.5 134t160.5 45q122 0 167 -70q65 70 171 70q108 0 178.5 -66t70.5 -200v-39h-367q8 -138 124 -138q92 0 105 73h136
q-12 -85 -75 -130.5t-167 -45.5zM248 90q51 0 82.5 25t31.5 68v46h-59q-65 0 -98 -16.5t-33 -56.5q0 -66 76 -66zM502 316h224q-9 119 -108 119q-48 0 -78.5 -31.5t-37.5 -87.5z" />
    <glyph glyph-name="ccedilla" unicode="&#xe7;" horiz-adv-x="578" 
d="M282 -222q-50 0 -81 24t-36 66h74q6 -31 38 -31q16 0 25.5 9t9.5 24q0 14 -9 22.5t-25 8.5q-19 0 -31 -10l-36 35l40 67q-99 14 -159 82.5t-60 179.5v8q0 123 77.5 197.5t192.5 74.5q100 0 168.5 -49t77.5 -154h-137q-15 89 -106 89q-57 0 -91 -41t-34 -115v-8
q0 -78 33.5 -118.5t94.5 -40.5q45 0 76 26t36 75h131q-6 -92 -68.5 -149t-168.5 -61l-22 -37q43 5 73.5 -17t30.5 -67q0 -42 -31.5 -66t-82.5 -24z" />
    <glyph glyph-name="egrave" unicode="&#xe8;" horiz-adv-x="587" 
d="M305 -11q-121 0 -197 71.5t-76 194.5v8q0 122 76.5 197t192.5 75q110 0 182.5 -67t72.5 -199v-40h-377q3 -65 37 -101t93 -36q94 0 109 73h137q-13 -85 -78 -130.5t-172 -45.5zM181 318h234q-7 117 -114 117q-49 0 -80.5 -30.5t-39.5 -86.5zM251 594l-104 159h152
l57 -159h-105z" />
    <glyph glyph-name="eacute" unicode="&#xe9;" horiz-adv-x="587" 
d="M240 594l57 159h152l-104 -159h-105zM305 -11q-121 0 -197 71.5t-76 194.5v8q0 122 76.5 197t192.5 75q110 0 182.5 -67t72.5 -199v-40h-377q3 -65 37 -101t93 -36q94 0 109 73h137q-13 -85 -78 -130.5t-172 -45.5zM181 318h234q-7 117 -114 117q-49 0 -80.5 -30.5
t-39.5 -86.5z" />
    <glyph glyph-name="ecircumflex" unicode="&#xea;" horiz-adv-x="587" 
d="M128 595l117 156h109l114 -156h-102l-69 63l-70 -63h-99zM305 -11q-121 0 -197 71.5t-76 194.5v8q0 122 76.5 197t192.5 75q110 0 182.5 -67t72.5 -199v-40h-377q3 -65 37 -101t93 -36q94 0 109 73h137q-13 -85 -78 -130.5t-172 -45.5zM181 318h234q-7 117 -114 117
q-49 0 -80.5 -30.5t-39.5 -86.5z" />
    <glyph glyph-name="edieresis" unicode="&#xeb;" horiz-adv-x="587" 
d="M196 600q-31 0 -52.5 21t-21.5 51t21.5 51t52.5 21t52.5 -21t21.5 -51t-21.5 -51t-52.5 -21zM400 600q-31 0 -52.5 21t-21.5 51t21.5 51t52.5 21t52.5 -21t21.5 -51t-21.5 -51t-52.5 -21zM305 -11q-121 0 -197 71.5t-76 194.5v8q0 122 76.5 197t192.5 75q110 0 182.5 -67
t72.5 -199v-40h-377q3 -65 37 -101t93 -36q94 0 109 73h137q-13 -85 -78 -130.5t-172 -45.5zM181 318h234q-7 117 -114 117q-49 0 -80.5 -30.5t-39.5 -86.5z" />
    <glyph glyph-name="igrave" unicode="&#xec;" horiz-adv-x="281" 
d="M68 0v523h144v-523h-144zM94 594l-104 159h152l57 -159h-105z" />
    <glyph glyph-name="iacute" unicode="&#xed;" horiz-adv-x="281" 
d="M83 594l57 159h152l-104 -159h-105zM68 0v523h144v-523h-144z" />
    <glyph glyph-name="icircumflex" unicode="&#xee;" horiz-adv-x="281" 
d="M-29 595l117 156h109l114 -156h-102l-69 63l-70 -63h-99zM68 0v523h144v-523h-144z" />
    <glyph glyph-name="idieresis" unicode="&#xef;" horiz-adv-x="281" 
d="M40 600q-30 0 -51.5 21t-21.5 51t21.5 51t51.5 21q31 0 52.5 -21t21.5 -51t-21.5 -51t-52.5 -21zM239 600q-30 0 -51.5 21t-21.5 51t21.5 51t51.5 21q31 0 52.5 -21t21.5 -51t-21.5 -51t-52.5 -21zM68 0v523h144v-523h-144z" />
    <glyph glyph-name="eth" unicode="&#xf0;" horiz-adv-x="616" 
d="M157 562l-26 57l106 46q-49 42 -123 95h165q42 -25 70 -47l99 43l25 -58l-69 -30q179 -167 179 -371v-22q0 -130 -77 -208t-201 -78q-119 0 -196 74.5t-77 197.5v10q0 115 70.5 187t165.5 72q75 0 123 -54q-32 69 -104 142zM308 99q61 0 94.5 42t33.5 117v7
q0 75 -33.5 117.5t-93.5 42.5t-94.5 -41.5t-34.5 -116.5v-8q0 -76 33.5 -118t94.5 -42z" />
    <glyph glyph-name="ntilde" unicode="&#xf1;" horiz-adv-x="615" 
d="M64 0v523h145v-83q21 42 64.5 68.5t105.5 26.5q81 0 128.5 -50.5t47.5 -151.5v-333h-145v312q0 54 -22 79.5t-70 25.5q-49 0 -79 -29.5t-30 -85.5v-302h-145zM367 598q-28 0 -64.5 19t-48.5 19q-13 0 -22.5 -10.5t-12.5 -26.5h-83q5 68 35 104.5t75 36.5q27 0 64 -18.5
t51 -18.5q27 0 34 37h84q-6 -68 -37 -105t-75 -37z" />
    <glyph glyph-name="ograve" unicode="&#xf2;" horiz-adv-x="616" 
d="M308 99q61 0 94.5 42t33.5 117v7q0 75 -33.5 117.5t-94.5 42.5q-60 0 -94 -41.5t-34 -116.5v-8q0 -75 33.5 -117.5t94.5 -42.5zM307 -11q-119 0 -197 73.5t-78 193.5v8q0 121 78 196t198 75t197.5 -73.5t77.5 -194.5v-8q0 -122 -78 -196t-198 -74zM260 594l-104 159h152
l57 -159h-105z" />
    <glyph glyph-name="oacute" unicode="&#xf3;" horiz-adv-x="616" 
d="M249 594l57 159h152l-104 -159h-105zM308 99q61 0 94.5 42t33.5 117v7q0 75 -33.5 117.5t-94.5 42.5q-60 0 -94 -41.5t-34 -116.5v-8q0 -75 33.5 -117.5t94.5 -42.5zM307 -11q-119 0 -197 73.5t-78 193.5v8q0 121 78 196t198 75t197.5 -73.5t77.5 -194.5v-8
q0 -122 -78 -196t-198 -74z" />
    <glyph glyph-name="ocircumflex" unicode="&#xf4;" horiz-adv-x="616" 
d="M137 595l117 156h109l114 -156h-102l-69 63l-70 -63h-99zM308 99q61 0 94.5 42t33.5 117v7q0 75 -33.5 117.5t-94.5 42.5q-60 0 -94 -41.5t-34 -116.5v-8q0 -75 33.5 -117.5t94.5 -42.5zM307 -11q-119 0 -197 73.5t-78 193.5v8q0 121 78 196t198 75t197.5 -73.5
t77.5 -194.5v-8q0 -122 -78 -196t-198 -74z" />
    <glyph glyph-name="otilde" unicode="&#xf5;" horiz-adv-x="616" 
d="M308 99q61 0 94.5 42t33.5 117v7q0 75 -33.5 117.5t-94.5 42.5q-60 0 -94 -41.5t-34 -116.5v-8q0 -75 33.5 -117.5t94.5 -42.5zM307 -11q-119 0 -197 73.5t-78 193.5v8q0 121 78 196t198 75t197.5 -73.5t77.5 -194.5v-8q0 -122 -78 -196t-198 -74zM367 598
q-28 0 -64.5 19t-48.5 19q-13 0 -22.5 -10.5t-12.5 -26.5h-83q5 68 35 104.5t75 36.5q27 0 64 -18.5t51 -18.5q27 0 34 37h84q-6 -68 -37 -105t-75 -37z" />
    <glyph glyph-name="odieresis" unicode="&#xf6;" horiz-adv-x="616" 
d="M205 600q-31 0 -52.5 21t-21.5 51t21.5 51t52.5 21t52.5 -21t21.5 -51t-21.5 -51t-52.5 -21zM409 600q-31 0 -52.5 21t-21.5 51t21.5 51t52.5 21t52.5 -21t21.5 -51t-21.5 -51t-52.5 -21zM308 99q61 0 94.5 42t33.5 117v7q0 75 -33.5 117.5t-94.5 42.5q-60 0 -94 -41.5
t-34 -116.5v-8q0 -75 33.5 -117.5t94.5 -42.5zM307 -11q-119 0 -197 73.5t-78 193.5v8q0 121 78 196t198 75t197.5 -73.5t77.5 -194.5v-8q0 -122 -78 -196t-198 -74z" />
    <glyph glyph-name="divide" unicode="&#xf7;" horiz-adv-x="553" 
d="M276 60q-35 0 -59 24t-24 58t24.5 58t58.5 24q35 0 59.5 -24t24.5 -58t-24.5 -58t-59.5 -24zM37 289v104h479v-104h-479zM276 458q-35 0 -59 24t-24 58t24 58t59 24t59.5 -24t24.5 -58t-24.5 -58t-59.5 -24z" />
    <glyph glyph-name="oslash" unicode="&#xf8;" horiz-adv-x="616" 
d="M71 -38l-49 44l70 75q-60 71 -60 175v8q0 121 78 196t198 75q94 0 161 -46l66 71l49 -44l-65 -70q64 -72 64 -179v-8q0 -122 -78 -196t-198 -74q-96 0 -166 48zM308 98q61 0 95 42.5t34 117.5v7q0 42 -13 78l-200 -216q32 -29 84 -29zM179 259q0 -43 10 -73l197 213
q-31 26 -78 26q-61 0 -95 -41.5t-34 -116.5v-8z" />
    <glyph glyph-name="ugrave" unicode="&#xf9;" horiz-adv-x="612" 
d="M238 -11q-81 0 -129.5 49t-48.5 148v337h144v-317q0 -105 91 -105q48 0 78.5 29.5t30.5 85.5v307h144v-523h-144v82q-47 -93 -166 -93zM258 594l-104 159h152l57 -159h-105z" />
    <glyph glyph-name="uacute" unicode="&#xfa;" horiz-adv-x="612" 
d="M247 594l57 159h152l-104 -159h-105zM238 -11q-81 0 -129.5 49t-48.5 148v337h144v-317q0 -105 91 -105q48 0 78.5 29.5t30.5 85.5v307h144v-523h-144v82q-47 -93 -166 -93z" />
    <glyph glyph-name="ucircumflex" unicode="&#xfb;" horiz-adv-x="612" 
d="M135 595l117 156h109l114 -156h-102l-69 63l-70 -63h-99zM238 -11q-81 0 -129.5 49t-48.5 148v337h144v-317q0 -105 91 -105q48 0 78.5 29.5t30.5 85.5v307h144v-523h-144v82q-47 -93 -166 -93z" />
    <glyph glyph-name="udieresis" unicode="&#xfc;" horiz-adv-x="612" 
d="M203 600q-31 0 -52.5 21t-21.5 51t21.5 51t52.5 21t52.5 -21t21.5 -51t-21.5 -51t-52.5 -21zM407 600q-31 0 -52.5 21t-21.5 51t21.5 51t52.5 21t52.5 -21t21.5 -51t-21.5 -51t-52.5 -21zM238 -11q-81 0 -129.5 49t-48.5 148v337h144v-317q0 -105 91 -105q48 0 78.5 29.5
t30.5 85.5v307h144v-523h-144v82q-47 -93 -166 -93z" />
    <glyph glyph-name="yacute" unicode="&#xfd;" horiz-adv-x="567" 
d="M130 -178l92 231l-208 470h156l127 -314l117 314h139l-283 -701h-140zM235 594l57 159h152l-104 -159h-105z" />
    <glyph glyph-name="thorn" unicode="&#xfe;" horiz-adv-x="637" 
d="M64 -178v938h145v-319q23 40 67.5 67t99.5 27q100 0 164 -71t64 -197v-8q0 -126 -64 -198t-164 -72q-58 0 -102 25.5t-65 65.5v-258h-145zM333 102q60 0 92 40t32 116v8q0 77 -34 117.5t-91 40.5q-59 0 -93.5 -40.5t-34.5 -117.5v-8q0 -77 34 -116.5t95 -39.5z" />
    <glyph glyph-name="ydieresis" unicode="&#xff;" horiz-adv-x="567" 
d="M130 -178l92 231l-208 470h156l127 -314l117 314h139l-283 -701h-140zM191 600q-31 0 -52.5 21t-21.5 51t21.5 51t52.5 21t52.5 -21t21.5 -51t-21.5 -51t-52.5 -21zM395 600q-31 0 -52.5 21t-21.5 51t21.5 51t52.5 21t52.5 -21t21.5 -51t-21.5 -51t-52.5 -21z" />
    <glyph glyph-name="Amacron" unicode="&#x100;" horiz-adv-x="720" 
d="M21 0l235 715h211l232 -715h-169l-49 159h-259l-49 -159h-152zM352 583l-95 -309h189zM208 777v91h302v-91h-302z" />
    <glyph glyph-name="amacron" unicode="&#x101;" horiz-adv-x="564" 
d="M205 -11q-77 0 -126 39t-49 117q0 168 272 168h59v21q0 49 -19 72.5t-66 23.5q-79 0 -89 -74h-137q6 89 70 134t165 45q219 0 219 -194v-341h-141v63q-53 -74 -158 -74zM248 90q49 0 81 25t32 68v44h-56q-66 0 -99.5 -17t-33.5 -57q0 -63 76 -63zM138 625v87h291v-87
h-291z" />
    <glyph glyph-name="Abreve" unicode="&#x102;" horiz-adv-x="720" 
d="M21 0l235 715h211l232 -715h-169l-49 159h-259l-49 -159h-152zM358 757q-66 0 -107.5 40t-45.5 106h97q8 -52 56 -52q49 0 59 52h96q-4 -66 -47 -106t-108 -40zM352 583l-95 -309h189z" />
    <glyph glyph-name="abreve" unicode="&#x103;" horiz-adv-x="564" 
d="M205 -11q-77 0 -126 39t-49 117q0 168 272 168h59v21q0 49 -19 72.5t-66 23.5q-79 0 -89 -74h-137q6 89 70 134t165 45q219 0 219 -194v-341h-141v63q-53 -74 -158 -74zM248 90q49 0 81 25t32 68v44h-56q-66 0 -99.5 -17t-33.5 -57q0 -63 76 -63zM283 598q-66 0 -107 40
t-45 109h95q7 -54 57 -54q51 0 61 54h93q-4 -68 -46.5 -108.5t-107.5 -40.5z" />
    <glyph glyph-name="Aogonek" unicode="&#x104;" horiz-adv-x="720" 
d="M618 -182q-54 0 -85.5 22t-31.5 59q0 59 83 101h-54l-49 159h-259l-49 -159h-152l235 715h211l229 -705q-68 -40 -68 -79q0 -30 33 -30q23 0 38 7v-75q-34 -15 -81 -15zM352 583l-95 -309h189z" />
    <glyph glyph-name="aogonek" unicode="&#x105;" horiz-adv-x="564" 
d="M430 -182q-51 0 -81.5 21.5t-30.5 58.5q0 63 83 102h-38v63q-53 -74 -158 -74q-77 0 -126 39t-49 117q0 168 272 168h59v21q0 49 -19 72.5t-66 23.5q-79 0 -89 -74h-137q6 89 70 134t165 45q219 0 219 -194v-333q-64 -41 -64 -79q0 -31 33 -31q23 0 38 7v-72
q-34 -15 -81 -15zM248 90q49 0 81 25t32 68v44h-56q-66 0 -99.5 -17t-33.5 -57q0 -63 76 -63z" />
    <glyph glyph-name="Cacute" unicode="&#x106;" horiz-adv-x="748" 
d="M399 -11q-172 0 -265.5 98t-93.5 266v8q0 161 100.5 263t254.5 102q134 0 219.5 -66t97.5 -194h-166q-18 132 -150 132q-85 0 -135 -63t-50 -173v-8q0 -111 49 -172.5t137 -61.5q68 0 111 34.5t53 102.5h159q-13 -130 -99.5 -199t-221.5 -69zM332 763l53 139h157
l-101 -139h-109z" />
    <glyph glyph-name="cacute" unicode="&#x107;" horiz-adv-x="578" 
d="M240 594l57 159h152l-104 -159h-105zM301 -11q-118 0 -193.5 70.5t-75.5 195.5v8q0 123 77.5 197.5t192.5 74.5q100 0 168.5 -49t77.5 -154h-137q-15 89 -106 89q-57 0 -91 -41t-34 -115v-8q0 -78 33.5 -118.5t94.5 -40.5q45 0 76 26t36 75h131q-6 -95 -72 -152.5
t-178 -57.5z" />
    <glyph glyph-name="Ccircumflex" unicode="&#x108;" horiz-adv-x="748" 
d="M222 763l112 139h123l108 -139h-104l-68 53l-69 -53h-102zM399 -11q-172 0 -265.5 98t-93.5 266v8q0 161 100.5 263t254.5 102q134 0 219.5 -66t97.5 -194h-166q-18 132 -150 132q-85 0 -135 -63t-50 -173v-8q0 -111 49 -172.5t137 -61.5q68 0 111 34.5t53 102.5h159
q-13 -130 -99.5 -199t-221.5 -69z" />
    <glyph glyph-name="ccircumflex" unicode="&#x109;" horiz-adv-x="578" 
d="M129 595l117 156h109l114 -156h-102l-69 63l-70 -63h-99zM301 -11q-118 0 -193.5 70.5t-75.5 195.5v8q0 123 77.5 197.5t192.5 74.5q100 0 168.5 -49t77.5 -154h-137q-15 89 -106 89q-57 0 -91 -41t-34 -115v-8q0 -78 33.5 -118.5t94.5 -40.5q45 0 76 26t36 75h131
q-6 -95 -72 -152.5t-178 -57.5z" />
    <glyph glyph-name="Cdotaccent" unicode="&#x10a;" horiz-adv-x="748" 
d="M399 -11q-172 0 -265.5 98t-93.5 266v8q0 161 100.5 263t254.5 102q134 0 219.5 -66t97.5 -194h-166q-18 132 -150 132q-85 0 -135 -63t-50 -173v-8q0 -111 49 -172.5t137 -61.5q68 0 111 34.5t53 102.5h159q-13 -130 -99.5 -199t-221.5 -69zM392 768q-34 0 -57.5 22.5
t-23.5 54.5t23.5 54.5t57.5 22.5t57 -22.5t23 -54.5t-23 -54.5t-57 -22.5z" />
    <glyph glyph-name="cdotaccent" unicode="&#x10b;" horiz-adv-x="578" 
d="M301 -11q-118 0 -193.5 70.5t-75.5 195.5v8q0 123 77.5 197.5t192.5 74.5q100 0 168.5 -49t77.5 -154h-137q-15 89 -106 89q-57 0 -91 -41t-34 -115v-8q0 -78 33.5 -118.5t94.5 -40.5q45 0 76 26t36 75h131q-6 -95 -72 -152.5t-178 -57.5zM300 598q-34 0 -57.5 22.5
t-23.5 54.5q0 33 23 55t58 22q34 0 57.5 -22t23.5 -55q0 -32 -23.5 -54.5t-57.5 -22.5z" />
    <glyph glyph-name="Ccaron" unicode="&#x10c;" horiz-adv-x="748" 
d="M330 763l-108 139h104l69 -52l68 52h102l-112 -139h-123zM399 -11q-172 0 -265.5 98t-93.5 266v8q0 161 100.5 263t254.5 102q134 0 219.5 -66t97.5 -194h-166q-18 132 -150 132q-85 0 -135 -63t-50 -173v-8q0 -111 49 -172.5t137 -61.5q68 0 111 34.5t53 102.5h159
q-13 -130 -99.5 -199t-221.5 -69z" />
    <glyph glyph-name="ccaron" unicode="&#x10d;" horiz-adv-x="578" 
d="M243 595l-114 156h102l69 -63l69 63h100l-117 -156h-109zM301 -11q-118 0 -193.5 70.5t-75.5 195.5v8q0 123 77.5 197.5t192.5 74.5q100 0 168.5 -49t77.5 -154h-137q-15 89 -106 89q-57 0 -91 -41t-34 -115v-8q0 -78 33.5 -118.5t94.5 -40.5q45 0 76 26t36 75h131
q-6 -95 -72 -152.5t-178 -57.5z" />
    <glyph glyph-name="Dcaron" unicode="&#x10e;" horiz-adv-x="726" 
d="M265 763l-108 139h104l69 -52l68 52h102l-112 -139h-123zM239 126h66q212 0 212 229v8q0 113 -51.5 169.5t-162.5 56.5h-64v-463zM77 0v715h234q184 0 279.5 -93t95.5 -257v-8q0 -165 -96 -261t-280 -96h-233z" />
    <glyph glyph-name="dcaron" unicode="&#x10f;" horiz-adv-x="637" 
d="M613 586l10 174h119l-49 -174h-80zM260 -11q-99 0 -163 69.5t-64 195.5v8q0 126 64.5 199.5t165.5 73.5q116 0 165 -90v315h144v-760h-144v87q-21 -42 -67 -70t-101 -28zM303 102q59 0 94 40t35 117v8q0 77 -32.5 117t-92.5 40q-61 0 -93.5 -40.5t-32.5 -118.5v-8
q0 -76 33 -115.5t89 -39.5z" />
    <glyph glyph-name="Dcroat" unicode="&#x110;" horiz-adv-x="753" 
d="M31 303v112h65v300h234q184 0 279.5 -93t95.5 -257v-8q0 -165 -96 -261t-280 -96h-233v303h-65zM256 126h68q212 0 212 229v8q0 113 -51.5 169.5t-161.5 56.5h-67v-174h151v-112h-151v-177z" />
    <glyph glyph-name="dcroat" unicode="&#x111;" horiz-adv-x="637" 
d="M265 597v83h163v80h144v-80h64v-83h-64v-597h-144v87q-21 -42 -67 -70t-101 -28q-99 0 -163 69.5t-64 195.5v8q0 126 64.5 199.5t165.5 73.5q116 0 165 -90v152h-163zM303 102q59 0 94 40t35 117v8q0 77 -32.5 117t-92.5 40q-61 0 -93.5 -40.5t-32.5 -118.5v-8
q0 -76 33 -115.5t89 -39.5z" />
    <glyph glyph-name="Emacron" unicode="&#x112;" horiz-adv-x="595" 
d="M77 0v715h466v-126h-305v-167h244v-118h-244v-178h321v-126h-482zM166 777v91h302v-91h-302z" />
    <glyph glyph-name="emacron" unicode="&#x113;" horiz-adv-x="587" 
d="M305 -11q-121 0 -197 71.5t-76 194.5v8q0 122 76.5 197t192.5 75q110 0 182.5 -67t72.5 -199v-40h-377q3 -65 37 -101t93 -36q94 0 109 73h137q-13 -85 -78 -130.5t-172 -45.5zM181 318h234q-7 117 -114 117q-49 0 -80.5 -30.5t-39.5 -86.5zM152 625v87h291v-87h-291z
" />
    <glyph glyph-name="Ebreve" unicode="&#x114;" horiz-adv-x="595" 
d="M77 0v715h466v-126h-305v-167h244v-118h-244v-178h321v-126h-482zM318 757q-66 0 -107.5 40t-45.5 106h97q8 -52 56 -52q49 0 59 52h96q-4 -66 -47 -106t-108 -40z" />
    <glyph glyph-name="ebreve" unicode="&#x115;" horiz-adv-x="587" 
d="M305 -11q-121 0 -197 71.5t-76 194.5v8q0 122 76.5 197t192.5 75q110 0 182.5 -67t72.5 -199v-40h-377q3 -65 37 -101t93 -36q94 0 109 73h137q-13 -85 -78 -130.5t-172 -45.5zM181 318h234q-7 117 -114 117q-49 0 -80.5 -30.5t-39.5 -86.5zM291 598q-66 0 -107 40
t-45 109h95q7 -54 57 -54q51 0 61 54h93q-4 -68 -46.5 -108.5t-107.5 -40.5z" />
    <glyph glyph-name="Edotaccent" unicode="&#x116;" horiz-adv-x="595" 
d="M317 768q-34 0 -57.5 22.5t-23.5 54.5t23.5 54.5t57.5 22.5t57 -22.5t23 -54.5t-23 -54.5t-57 -22.5zM77 0v715h466v-126h-305v-167h244v-118h-244v-178h321v-126h-482z" />
    <glyph glyph-name="edotaccent" unicode="&#x117;" horiz-adv-x="587" 
d="M305 -11q-121 0 -197 71.5t-76 194.5v8q0 122 76.5 197t192.5 75q110 0 182.5 -67t72.5 -199v-40h-377q3 -65 37 -101t93 -36q94 0 109 73h137q-13 -85 -78 -130.5t-172 -45.5zM181 318h234q-7 117 -114 117q-49 0 -80.5 -30.5t-39.5 -86.5zM299 598q-34 0 -57.5 22.5
t-23.5 54.5q0 33 23 55t58 22q34 0 57.5 -22t23.5 -55q0 -32 -23.5 -54.5t-57.5 -22.5z" />
    <glyph glyph-name="Eogonek" unicode="&#x118;" horiz-adv-x="595" 
d="M462 -182q-53 0 -84 22t-31 59q0 59 83 101h-353v715h466v-126h-305v-167h244v-118h-244v-178h321v-126h-34q-51 -38 -51 -69q0 -30 33 -30q23 0 38 7v-75q-34 -15 -83 -15z" />
    <glyph glyph-name="eogonek" unicode="&#x119;" horiz-adv-x="587" 
d="M399 -182q-52 0 -82.5 21t-30.5 58q0 53 77 96q-23 -4 -58 -4q-121 0 -197 71.5t-76 194.5v8q0 122 76.5 197t192.5 75q110 0 182.5 -67t72.5 -199v-40h-377q3 -65 37 -101t93 -36q94 0 109 73h137q-11 -74 -79 -137q-36 -34 -52.5 -56t-16.5 -43q0 -31 33 -31q23 0 38 7
v-72q-32 -15 -79 -15zM181 318h234q-7 117 -114 117q-49 0 -80.5 -30.5t-39.5 -86.5z" />
    <glyph glyph-name="Ecaron" unicode="&#x11a;" horiz-adv-x="595" 
d="M255 763l-108 139h104l69 -52l68 52h102l-112 -139h-123zM77 0v715h466v-126h-305v-167h244v-118h-244v-178h321v-126h-482z" />
    <glyph glyph-name="ecaron" unicode="&#x11b;" horiz-adv-x="587" 
d="M242 595l-114 156h102l69 -63l69 63h100l-117 -156h-109zM305 -11q-121 0 -197 71.5t-76 194.5v8q0 122 76.5 197t192.5 75q110 0 182.5 -67t72.5 -199v-40h-377q3 -65 37 -101t93 -36q94 0 109 73h137q-13 -85 -78 -130.5t-172 -45.5zM181 318h234q-7 117 -114 117
q-49 0 -80.5 -30.5t-39.5 -86.5z" />
    <glyph glyph-name="Gcircumflex" unicode="&#x11c;" horiz-adv-x="780" 
d="M404 -11q-172 0 -268 100.5t-96 263.5v8q0 161 102.5 263t261.5 102q83 0 149.5 -24.5t113.5 -82.5t55 -143h-161q-20 122 -155 122q-92 0 -144.5 -64.5t-52.5 -174.5v-8q0 -109 49 -173t150 -64q85 0 127.5 42t44.5 109h-161v118h321v-76q0 -145 -89 -231.5t-247 -86.5z
M228 763l112 139h123l108 -139h-104l-68 53l-69 -53h-102z" />
    <glyph glyph-name="gcircumflex" unicode="&#x11d;" horiz-adv-x="636" 
d="M131 595l117 156h109l114 -156h-102l-69 63l-70 -63h-99zM296 -193q-236 0 -260 182h144q15 -76 116 -76q132 0 132 128v79q-23 -41 -68 -69t-100 -28q-98 0 -163 68t-65 182v7q0 111 66 183t164 72q115 0 166 -90v78h144v-482q-1 -115 -73 -174.5t-203 -59.5zM303 132
q58 0 93.5 38.5t35.5 104.5v7q0 67 -33.5 105t-92.5 38q-60 0 -93 -39t-33 -105v-8q0 -64 34 -102.5t89 -38.5z" />
    <glyph glyph-name="Gbreve" unicode="&#x11e;" horiz-adv-x="780" 
d="M404 -11q-172 0 -268 100.5t-96 263.5v8q0 161 102.5 263t261.5 102q83 0 149.5 -24.5t113.5 -82.5t55 -143h-161q-20 122 -155 122q-92 0 -144.5 -64.5t-52.5 -174.5v-8q0 -109 49 -173t150 -64q85 0 127.5 42t44.5 109h-161v118h321v-76q0 -145 -89 -231.5t-247 -86.5z
M399 757q-66 0 -107.5 40t-45.5 106h97q8 -52 56 -52q49 0 59 52h96q-4 -66 -47 -106t-108 -40z" />
    <glyph glyph-name="gbreve" unicode="&#x11f;" horiz-adv-x="636" 
d="M296 -193q-236 0 -260 182h144q15 -76 116 -76q132 0 132 128v79q-23 -41 -68 -69t-100 -28q-98 0 -163 68t-65 182v7q0 111 66 183t164 72q115 0 166 -90v78h144v-482q-1 -115 -73 -174.5t-203 -59.5zM303 132q58 0 93.5 38.5t35.5 104.5v7q0 67 -33.5 105t-92.5 38
q-60 0 -93 -39t-33 -105v-8q0 -64 34 -102.5t89 -38.5zM300 598q-66 0 -107 40t-45 109h95q7 -54 57 -54q51 0 61 54h93q-4 -68 -46.5 -108.5t-107.5 -40.5z" />
    <glyph glyph-name="Gdotaccent" unicode="&#x120;" horiz-adv-x="780" 
d="M404 -11q-172 0 -268 100.5t-96 263.5v8q0 161 102.5 263t261.5 102q83 0 149.5 -24.5t113.5 -82.5t55 -143h-161q-20 122 -155 122q-92 0 -144.5 -64.5t-52.5 -174.5v-8q0 -109 49 -173t150 -64q85 0 127.5 42t44.5 109h-161v118h321v-76q0 -145 -89 -231.5t-247 -86.5z
M400 768q-34 0 -57.5 22.5t-23.5 54.5t23.5 54.5t57.5 22.5t57 -22.5t23 -54.5t-23 -54.5t-57 -22.5z" />
    <glyph glyph-name="gdotaccent" unicode="&#x121;" horiz-adv-x="636" 
d="M296 -193q-236 0 -260 182h144q15 -76 116 -76q132 0 132 128v79q-23 -41 -68 -69t-100 -28q-98 0 -163 68t-65 182v7q0 111 66 183t164 72q115 0 166 -90v78h144v-482q-1 -115 -73 -174.5t-203 -59.5zM303 132q58 0 93.5 38.5t35.5 104.5v7q0 67 -33.5 105t-92.5 38
q-60 0 -93 -39t-33 -105v-8q0 -64 34 -102.5t89 -38.5zM301 598q-34 0 -57.5 22.5t-23.5 54.5q0 33 23 55t58 22q34 0 57.5 -22t23.5 -55q0 -32 -23.5 -54.5t-57.5 -22.5z" />
    <glyph glyph-name="Gcommaaccent" unicode="&#x122;" horiz-adv-x="780" 
d="M404 -11q-172 0 -268 100.5t-96 263.5v8q0 161 102.5 263t261.5 102q83 0 149.5 -24.5t113.5 -82.5t55 -143h-161q-20 122 -155 122q-92 0 -144.5 -64.5t-52.5 -174.5v-8q0 -109 49 -173t150 -64q85 0 127.5 42t44.5 109h-161v118h321v-76q0 -145 -89 -231.5t-247 -86.5z
M378 -228l-82 27l47 170l130 -21z" />
    <glyph glyph-name="gcommaaccent" unicode="&#x123;" horiz-adv-x="636" 
d="M368 579l-130 21l95 175l82 -26zM296 -193q-236 0 -260 182h144q15 -76 116 -76q132 0 132 128v79q-23 -41 -68 -69t-100 -28q-98 0 -163 68t-65 182v7q0 111 66 183t164 72q115 0 166 -90v78h144v-482q-1 -115 -73 -174.5t-203 -59.5zM303 132q58 0 93.5 38.5
t35.5 104.5v7q0 67 -33.5 105t-92.5 38q-60 0 -93 -39t-33 -105v-8q0 -64 34 -102.5t89 -38.5z" />
    <glyph glyph-name="Hcircumflex" unicode="&#x124;" horiz-adv-x="764" 
d="M77 0v715h162v-292h287v292h162v-715h-162v295h-287v-295h-162zM210 763l112 139h123l108 -139h-104l-68 53l-69 -53h-102z" />
    <glyph glyph-name="hcircumflex" unicode="&#x125;" horiz-adv-x="615" 
d="M64 0v760h145v-320q21 42 64.5 68.5t105.5 26.5q81 0 128.5 -50.5t47.5 -151.5v-333h-145v312q0 54 -22 79.5t-70 25.5q-49 0 -79 -29.5t-30 -85.5v-302h-145z" />
    <glyph glyph-name="Hbar" unicode="&#x126;" horiz-adv-x="764" 
d="M13 511v85h64v119h162v-119h287v119h162v-119h64v-85h-64v-511h-162v295h-287v-295h-162v511h-64zM239 423h287v88h-287v-88z" />
    <glyph glyph-name="hbar" unicode="&#x127;" horiz-adv-x="615" 
d="M1 597v83h63v80h145v-80h163v-83h-163v-157q21 42 64.5 68.5t105.5 26.5q81 0 128.5 -50.5t47.5 -151.5v-333h-145v312q0 54 -22 79.5t-70 25.5q-49 0 -79 -29.5t-30 -85.5v-302h-145v597h-63z" />
    <glyph glyph-name="Itilde" unicode="&#x128;" horiz-adv-x="325" 
d="M81 0v715h163v-715h-163zM225 764q-29 0 -66 18.5t-49 18.5q-28 0 -35 -37h-86q5 67 36.5 103.5t77.5 36.5q27 0 64.5 -19t51.5 -19q27 0 34 37h87q-6 -66 -38 -102.5t-77 -36.5z" />
    <glyph glyph-name="itilde" unicode="&#x129;" horiz-adv-x="281" 
d="M68 0v523h144v-523h-144zM201 598q-28 0 -64.5 19t-48.5 19q-13 0 -22.5 -10.5t-12.5 -26.5h-83q5 68 35 104.5t75 36.5q27 0 64 -18.5t51 -18.5q27 0 34 37h84q-6 -68 -37 -105t-75 -37z" />
    <glyph glyph-name="Imacron" unicode="&#x12a;" horiz-adv-x="325" 
d="M81 0v715h163v-715h-163zM11 777v91h302v-91h-302z" />
    <glyph glyph-name="imacron" unicode="&#x12b;" horiz-adv-x="281" 
d="M27 625v87h226v-87h-226zM68 0v523h144v-523h-144z" />
    <glyph glyph-name="Ibreve" unicode="&#x12c;" horiz-adv-x="325" 
d="M81 0v715h163v-715h-163zM163 757q-66 0 -107.5 40t-45.5 106h97q8 -52 56 -52q49 0 59 52h96q-4 -66 -47 -106t-108 -40z" />
    <glyph glyph-name="ibreve" unicode="&#x12d;" horiz-adv-x="281" 
d="M68 0v523h144v-523h-144zM140 598q-66 0 -107 40t-45 109h95q7 -54 57 -54q51 0 61 54h93q-4 -68 -46.5 -108.5t-107.5 -40.5z" />
    <glyph glyph-name="Iogonek" unicode="&#x12e;" horiz-adv-x="325" 
d="M170 -182q-53 0 -84.5 22t-31.5 59q0 59 83 101h-56v715h163v-706q-63 -41 -63 -78q0 -30 33 -30q23 0 38 7v-75q-34 -15 -82 -15z" />
    <glyph glyph-name="iogonek" unicode="&#x12f;" horiz-adv-x="281" 
d="M142 -182q-51 0 -81.5 21.5t-30.5 59.5q0 60 83 101h-45v523h144v-516q-61 -42 -61 -78q0 -31 34 -31q23 0 37 7v-72q-32 -15 -80 -15zM139 594q-35 0 -58.5 22.5t-23.5 56.5t23.5 56.5t58.5 22.5t59 -22.5t24 -56.5t-24 -56.5t-59 -22.5z" />
    <glyph glyph-name="Idotaccent" unicode="&#x130;" horiz-adv-x="325" 
d="M81 0v715h163v-715h-163zM163 768q-34 0 -57.5 22.5t-23.5 54.5t23.5 54.5t57.5 22.5t57 -22.5t23 -54.5t-23 -54.5t-57 -22.5z" />
    <glyph glyph-name="dotlessi" unicode="&#x131;" horiz-adv-x="281" 
d="M68 0v523h144v-523h-144z" />
    <glyph glyph-name="IJ" unicode="&#x132;" horiz-adv-x="750" 
d="M81 0v715h163v-715h-163zM447 -9q-77 0 -119 22v124q45 -17 90 -17q101 0 101 113v482h163v-484q0 -119 -61.5 -179.5t-173.5 -60.5z" />
    <glyph glyph-name="ij" unicode="&#x133;" horiz-adv-x="561" 
d="M68 0v523h144v-523h-144zM139 594q-35 0 -58.5 22.5t-23.5 56.5t23.5 56.5t58.5 22.5t59 -22.5t24 -56.5t-24 -56.5t-59 -22.5zM279 -187v108q37 3 53 20t16 49v533h144v-532q0 -87 -48 -132t-165 -46zM419 594q-35 0 -58.5 22.5t-23.5 56.5t23.5 56.5t58.5 22.5
t59 -22.5t24 -56.5t-24 -56.5t-59 -22.5z" />
    <glyph glyph-name="Jcircumflex" unicode="&#x134;" horiz-adv-x="457" 
d="M133 763l112 139h123l108 -139h-104l-68 53l-69 -53h-102zM154 -9q-77 0 -119 22v124q45 -17 90 -17q101 0 101 113v482h163v-484q0 -119 -61.5 -179.5t-173.5 -60.5z" />
    <glyph glyph-name="jcircumflex" unicode="&#x135;" horiz-adv-x="281" 
d="M-1 -187v108q37 3 53 20t16 49v533h144v-532q0 -87 -48 -132t-165 -46zM-30 595l117 156h109l114 -156h-102l-69 63l-70 -63h-99z" />
    <glyph glyph-name="Kcommaaccent" unicode="&#x136;" horiz-adv-x="686" 
d="M77 0v715h162v-308l250 309h172l-283 -339l297 -377h-189l-247 321v-321h-162zM332 -228l-82 27l47 170l130 -21z" />
    <glyph glyph-name="kcommaaccent" unicode="&#x137;" horiz-adv-x="555" 
d="M64 0v760h145v-458l168 221h154l-190 -238l205 -285h-164l-173 247v-247h-145zM268 -228l-82 27l47 170l130 -21z" />
    <glyph glyph-name="Lacute" unicode="&#x139;" horiz-adv-x="560" 
d="M99 763l53 139h157l-101 -139h-109zM77 0v715h162v-588h291v-127h-453z" />
    <glyph glyph-name="lacute" unicode="&#x13a;" horiz-adv-x="280" 
d="M68 0v760h144v-760h-144z" />
    <glyph glyph-name="Lcommaaccent" unicode="&#x13b;" horiz-adv-x="560" 
d="M280 -228l-82 27l47 170l130 -21zM77 0v715h162v-588h291v-127h-453z" />
    <glyph glyph-name="lcommaaccent" unicode="&#x13c;" horiz-adv-x="280" 
d="M119 -228l-82 27l47 170l130 -21zM68 0v760h144v-760h-144z" />
    <glyph glyph-name="Lcaron" unicode="&#x13d;" horiz-adv-x="560" 
d="M325 546l19 169h128l-60 -169h-87zM77 0v715h162v-588h291v-127h-453z" />
    <glyph glyph-name="lcaron" unicode="&#x13e;" horiz-adv-x="280" 
d="M253 586l10 174h119l-49 -174h-80zM68 0v760h144v-760h-144z" />
    <glyph glyph-name="Ldot" unicode="&#x13f;" horiz-adv-x="577" 
d="M77 0v715h162v-588h291v-127h-453zM447 307q-37 0 -63 25.5t-26 62.5q0 36 26 61.5t63 25.5q38 0 64 -25.5t26 -61.5q0 -37 -26 -62.5t-64 -25.5z" />
    <glyph glyph-name="ldot" unicode="&#x140;" horiz-adv-x="409" 
d="M68 0v760h144v-760h-144zM342 274q-37 0 -63 25.5t-26 62.5q0 36 26 61.5t63 25.5q38 0 64 -25.5t26 -61.5q0 -37 -26 -62.5t-64 -25.5z" />
    <glyph glyph-name="Lslash" unicode="&#x141;" horiz-adv-x="579" 
d="M31 237v93l65 23v362h162v-305l187 67v-94l-187 -66v-190h291v-127h-453v260z" />
    <glyph glyph-name="lslash" unicode="&#x142;" horiz-adv-x="313" 
d="M18 279v99l66 33v349h144v-275l70 36v-99l-70 -36v-386h-144v312z" />
    <glyph glyph-name="Nacute" unicode="&#x143;" horiz-adv-x="758" 
d="M332 763l53 139h157l-101 -139h-109zM77 0v715h188l272 -471v471h144v-715h-162l-298 509v-509h-144z" />
    <glyph glyph-name="nacute" unicode="&#x144;" horiz-adv-x="615" 
d="M249 594l57 159h152l-104 -159h-105zM64 0v523h145v-83q21 42 64.5 68.5t105.5 26.5q81 0 128.5 -50.5t47.5 -151.5v-333h-145v312q0 54 -22 79.5t-70 25.5q-49 0 -79 -29.5t-30 -85.5v-302h-145z" />
    <glyph glyph-name="Ncommaaccent" unicode="&#x145;" horiz-adv-x="758" 
d="M350 -228l-82 27l47 170l130 -21zM77 0v715h188l272 -471v471h144v-715h-162l-298 509v-509h-144z" />
    <glyph glyph-name="ncommaaccent" unicode="&#x146;" horiz-adv-x="615" 
d="M285 -228l-82 27l47 170l130 -21zM64 0v523h145v-83q21 42 64.5 68.5t105.5 26.5q81 0 128.5 -50.5t47.5 -151.5v-333h-145v312q0 54 -22 79.5t-70 25.5q-49 0 -79 -29.5t-30 -85.5v-302h-145z" />
    <glyph glyph-name="Ncaron" unicode="&#x147;" horiz-adv-x="758" 
d="M330 763l-108 139h104l69 -52l68 52h102l-112 -139h-123zM77 0v715h188l272 -471v471h144v-715h-162l-298 509v-509h-144z" />
    <glyph glyph-name="ncaron" unicode="&#x148;" horiz-adv-x="615" 
d="M251 595l-114 156h102l69 -63l69 63h100l-117 -156h-109zM64 0v523h145v-83q21 42 64.5 68.5t105.5 26.5q81 0 128.5 -50.5t47.5 -151.5v-333h-145v312q0 54 -22 79.5t-70 25.5q-49 0 -79 -29.5t-30 -85.5v-302h-145z" />
    <glyph glyph-name="napostrophe" unicode="&#x149;" horiz-adv-x="690" 
d="M47 450l-83 34l83 243l129 -46zM139 0v523h145v-83q21 42 64.5 68.5t105.5 26.5q81 0 128.5 -50.5t47.5 -151.5v-333h-145v312q0 54 -22 79.5t-70 25.5q-49 0 -79 -29.5t-30 -85.5v-302h-145z" />
    <glyph glyph-name="Eng" unicode="&#x14a;" horiz-adv-x="758" 
d="M456 -193q-69 0 -115 22v119q45 -17 84 -17q86 0 95 79l-296 509v-519h-147v715h190l267 -469v469h147v-697q0 -100 -59.5 -155.5t-165.5 -55.5z" />
    <glyph glyph-name="eng" unicode="&#x14b;" horiz-adv-x="615" 
d="M342 -187v108q68 5 68 69v322q0 54 -22 79.5t-70 25.5q-49 0 -79 -29.5t-30 -85.5v-302h-145v523h145v-83q21 42 64.5 68.5t105.5 26.5q81 0 128.5 -50.5t47.5 -151.5v-342q0 -87 -48 -132t-165 -46z" />
    <glyph glyph-name="Omacron" unicode="&#x14c;" horiz-adv-x="816" 
d="M256 777v91h302v-91h-302zM410 118q91 0 144 64.5t53 172.5v8q0 106 -53 170t-146 64t-146 -63.5t-53 -171.5v-8q0 -108 56 -172t145 -64zM407 -11q-166 0 -266.5 102.5t-100.5 261.5v8q0 159 104 261.5t264 102.5q162 0 265 -100t103 -260v-8q0 -161 -101.5 -264.5
t-267.5 -103.5z" />
    <glyph glyph-name="omacron" unicode="&#x14d;" horiz-adv-x="616" 
d="M161 625v87h291v-87h-291zM308 99q61 0 94.5 42t33.5 117v7q0 75 -33.5 117.5t-94.5 42.5q-60 0 -94 -41.5t-34 -116.5v-8q0 -75 33.5 -117.5t94.5 -42.5zM307 -11q-119 0 -197 73.5t-78 193.5v8q0 121 78 196t198 75t197.5 -73.5t77.5 -194.5v-8q0 -122 -78 -196
t-198 -74z" />
    <glyph glyph-name="Obreve" unicode="&#x14e;" horiz-adv-x="816" 
d="M406 757q-66 0 -107.5 40t-45.5 106h97q8 -52 56 -52q49 0 59 52h96q-4 -66 -47 -106t-108 -40zM410 118q91 0 144 64.5t53 172.5v8q0 106 -53 170t-146 64t-146 -63.5t-53 -171.5v-8q0 -108 56 -172t145 -64zM407 -11q-166 0 -266.5 102.5t-100.5 261.5v8
q0 159 104 261.5t264 102.5q162 0 265 -100t103 -260v-8q0 -161 -101.5 -264.5t-267.5 -103.5z" />
    <glyph glyph-name="obreve" unicode="&#x14f;" horiz-adv-x="616" 
d="M308 99q61 0 94.5 42t33.5 117v7q0 75 -33.5 117.5t-94.5 42.5q-60 0 -94 -41.5t-34 -116.5v-8q0 -75 33.5 -117.5t94.5 -42.5zM307 -11q-119 0 -197 73.5t-78 193.5v8q0 121 78 196t198 75t197.5 -73.5t77.5 -194.5v-8q0 -122 -78 -196t-198 -74zM306 598q-66 0 -107 40
t-45 109h95q7 -54 57 -54q51 0 61 54h93q-4 -68 -46.5 -108.5t-107.5 -40.5z" />
    <glyph glyph-name="Ohungarumlaut" unicode="&#x150;" horiz-adv-x="816" 
d="M259 763l39 139h132l-73 -139h-98zM439 763l39 139h132l-74 -139h-97zM410 118q91 0 144 64.5t53 172.5v8q0 106 -53 170t-146 64t-146 -63.5t-53 -171.5v-8q0 -108 56 -172t145 -64zM407 -11q-166 0 -266.5 102.5t-100.5 261.5v8q0 159 104 261.5t264 102.5
q162 0 265 -100t103 -260v-8q0 -161 -101.5 -264.5t-267.5 -103.5z" />
    <glyph glyph-name="ohungarumlaut" unicode="&#x151;" horiz-adv-x="616" 
d="M169 594l42 159h123l-76 -159h-89zM337 594l42 159h124l-76 -159h-90zM308 99q61 0 94.5 42t33.5 117v7q0 75 -33.5 117.5t-94.5 42.5q-60 0 -94 -41.5t-34 -116.5v-8q0 -75 33.5 -117.5t94.5 -42.5zM307 -11q-119 0 -197 73.5t-78 193.5v8q0 121 78 196t198 75
t197.5 -73.5t77.5 -194.5v-8q0 -122 -78 -196t-198 -74z" />
    <glyph glyph-name="OE" unicode="&#x152;" horiz-adv-x="970" 
d="M40 358q0 165 96.5 261t278.5 96h503v-126h-289v-167h228v-118h-228v-178h306v-126h-521q-183 0 -278.5 93t-95.5 257v8zM468 589h-48q-211 0 -211 -229v-8q0 -113 51 -169.5t162 -56.5h46v463z" />
    <glyph glyph-name="oe" unicode="&#x153;" horiz-adv-x="989" 
d="M307 -11q-119 0 -197 73.5t-78 193.5v8q0 121 78 196t198 75q130 0 200 -92q70 92 195 92q110 0 182.5 -67t72.5 -199v-40h-378q4 -66 37.5 -101.5t93.5 -35.5q95 0 108 73h137q-12 -85 -77 -130.5t-172 -45.5q-133 0 -201 90q-70 -90 -199 -90zM308 99q61 0 94.5 42
t33.5 117v7q0 75 -33.5 117.5t-94.5 42.5q-60 0 -94 -41.5t-34 -116.5v-8q0 -76 33.5 -118t94.5 -42zM583 318h233q-7 117 -113 117q-49 0 -81 -31t-39 -86z" />
    <glyph glyph-name="Racute" unicode="&#x154;" horiz-adv-x="672" 
d="M265 763l53 139h157l-101 -139h-109zM77 0v715h256q130 0 203 -54.5t73 -162.5v-4q0 -146 -147 -190l189 -304h-172l-171 276h-70v-276h-161zM238 386h91q122 0 122 103v4q0 53 -30.5 75.5t-91.5 22.5h-91v-205z" />
    <glyph glyph-name="racute" unicode="&#x155;" horiz-adv-x="409" 
d="M165 594l57 159h152l-104 -159h-105zM64 0v523h145v-100q50 107 169 108v-135q-84 1 -126.5 -30.5t-42.5 -103.5v-262h-145z" />
    <glyph glyph-name="Rcommaaccent" unicode="&#x156;" horiz-adv-x="672" 
d="M324 -228l-82 27l47 170l130 -21zM77 0v715h256q130 0 203 -54.5t73 -162.5v-4q0 -146 -147 -190l189 -304h-172l-171 276h-70v-276h-161zM238 386h91q122 0 122 103v4q0 53 -30.5 75.5t-91.5 22.5h-91v-205z" />
    <glyph glyph-name="rcommaaccent" unicode="&#x157;" horiz-adv-x="409" 
d="M116 -228l-82 27l47 170l130 -21zM64 0v523h145v-100q50 107 169 108v-135q-84 1 -126.5 -30.5t-42.5 -103.5v-262h-145z" />
    <glyph glyph-name="Rcaron" unicode="&#x158;" horiz-adv-x="672" 
d="M263 763l-108 139h104l69 -52l68 52h102l-112 -139h-123zM77 0v715h256q130 0 203 -54.5t73 -162.5v-4q0 -146 -147 -190l189 -304h-172l-171 276h-70v-276h-161zM238 386h91q122 0 122 103v4q0 53 -30.5 75.5t-91.5 22.5h-91v-205z" />
    <glyph glyph-name="rcaron" unicode="&#x159;" horiz-adv-x="409" 
d="M167 595l-114 156h102l69 -63l69 63h100l-117 -156h-109zM64 0v523h145v-100q50 107 169 108v-135q-84 1 -126.5 -30.5t-42.5 -103.5v-262h-145z" />
    <glyph glyph-name="Sacute" unicode="&#x15a;" horiz-adv-x="640" 
d="M327 -11q-142 0 -215 62t-80 173h155q6 -55 36.5 -86t103.5 -31q53 0 85.5 26.5t32.5 68.5q0 43 -28 62t-107 31q-140 18 -199 66.5t-59 150.5q0 93 71.5 153t188.5 60q121 0 189.5 -54t78.5 -160h-149q-15 95 -119 95q-52 0 -79.5 -22t-27.5 -59q0 -40 26.5 -59.5
t106.5 -31.5q138 -18 200 -64.5t62 -152.5q0 -98 -74.5 -163t-198.5 -65zM252 763l53 139h157l-101 -139h-109z" />
    <glyph glyph-name="sacute" unicode="&#x15b;" horiz-adv-x="502" 
d="M191 594l57 159h152l-104 -159h-105zM254 -11q-106 0 -165 45t-63 130h135q5 -37 26 -55.5t66 -18.5q82 0 82 57q0 26 -24 40t-82 22q-106 16 -149.5 52t-43.5 111q0 78 60.5 120.5t146.5 42.5q198 0 216 -162h-133q-12 63 -82 63q-35 0 -54.5 -15t-19.5 -39
q0 -25 21.5 -37t79.5 -20q106 -15 154.5 -50t48.5 -114q0 -84 -57.5 -128t-162.5 -44z" />
    <glyph glyph-name="Scircumflex" unicode="&#x15c;" horiz-adv-x="640" 
d="M142 763l112 139h123l108 -139h-104l-68 53l-69 -53h-102zM327 -11q-142 0 -215 62t-80 173h155q6 -55 36.5 -86t103.5 -31q53 0 85.5 26.5t32.5 68.5q0 43 -28 62t-107 31q-140 18 -199 66.5t-59 150.5q0 93 71.5 153t188.5 60q121 0 189.5 -54t78.5 -160h-149
q-15 95 -119 95q-52 0 -79.5 -22t-27.5 -59q0 -40 26.5 -59.5t106.5 -31.5q138 -18 200 -64.5t62 -152.5q0 -98 -74.5 -163t-198.5 -65z" />
    <glyph glyph-name="scircumflex" unicode="&#x15d;" horiz-adv-x="502" 
d="M78 595l117 156h109l114 -156h-102l-69 63l-70 -63h-99zM254 -11q-106 0 -165 45t-63 130h135q5 -37 26 -55.5t66 -18.5q82 0 82 57q0 26 -24 40t-82 22q-106 16 -149.5 52t-43.5 111q0 78 60.5 120.5t146.5 42.5q198 0 216 -162h-133q-12 63 -82 63q-35 0 -54.5 -15
t-19.5 -39q0 -25 21.5 -37t79.5 -20q106 -15 154.5 -50t48.5 -114q0 -84 -57.5 -128t-162.5 -44z" />
    <glyph glyph-name="Scedilla" unicode="&#x15e;" horiz-adv-x="640" 
d="M299 -222q-50 0 -81 24t-36 66h74q6 -31 38 -31q16 0 25.5 9t9.5 24q0 14 -9 22.5t-25 8.5q-19 0 -31 -10l-36 35l40 66q-113 12 -171.5 72.5t-64.5 159.5h155q6 -55 36.5 -86t103.5 -31q53 0 85.5 26.5t32.5 68.5q0 43 -28 62t-107 31q-140 18 -199 66.5t-59 150.5
q0 93 71.5 153t188.5 60q121 0 189.5 -54t78.5 -160h-149q-15 95 -119 95q-52 0 -79.5 -22t-27.5 -59q0 -40 26.5 -59.5t106.5 -31.5q138 -18 200 -64.5t62 -152.5q0 -97 -73.5 -162t-195.5 -66l-22 -37q43 5 73.5 -17t30.5 -67q0 -42 -31.5 -66t-82.5 -24z" />
    <glyph glyph-name="scedilla" unicode="&#x15f;" horiz-adv-x="502" 
d="M235 -222q-50 0 -81 24t-36 66h74q6 -31 38 -31q16 0 25.5 9t9.5 24q0 14 -9 22.5t-25 8.5q-19 0 -31 -10l-36 35l40 66q-83 10 -129 54t-49 118h135q5 -37 26 -55.5t66 -18.5q82 0 82 57q0 26 -24 40t-82 22q-106 16 -149.5 52t-43.5 111q0 78 60.5 120.5t146.5 42.5
q198 0 216 -162h-133q-12 63 -82 63q-35 0 -54.5 -15t-19.5 -39q0 -25 21.5 -37t79.5 -20q106 -15 154.5 -50t48.5 -114q0 -81 -54 -125t-153 -47l-22 -37q43 5 73.5 -17t30.5 -67q0 -42 -31.5 -66t-82.5 -24z" />
    <glyph glyph-name="Scaron" unicode="&#x160;" horiz-adv-x="640" 
d="M250 763l-108 139h104l69 -52l68 52h102l-112 -139h-123zM327 -11q-142 0 -215 62t-80 173h155q6 -55 36.5 -86t103.5 -31q53 0 85.5 26.5t32.5 68.5q0 43 -28 62t-107 31q-140 18 -199 66.5t-59 150.5q0 93 71.5 153t188.5 60q121 0 189.5 -54t78.5 -160h-149
q-15 95 -119 95q-52 0 -79.5 -22t-27.5 -59q0 -40 26.5 -59.5t106.5 -31.5q138 -18 200 -64.5t62 -152.5q0 -98 -74.5 -163t-198.5 -65z" />
    <glyph glyph-name="scaron" unicode="&#x161;" horiz-adv-x="502" 
d="M190 595l-114 156h102l69 -63l69 63h100l-117 -156h-109zM254 -11q-106 0 -165 45t-63 130h135q5 -37 26 -55.5t66 -18.5q82 0 82 57q0 26 -24 40t-82 22q-106 16 -149.5 52t-43.5 111q0 78 60.5 120.5t146.5 42.5q198 0 216 -162h-133q-12 63 -82 63q-35 0 -54.5 -15
t-19.5 -39q0 -25 21.5 -37t79.5 -20q106 -15 154.5 -50t48.5 -114q0 -84 -57.5 -128t-162.5 -44z" />
    <glyph glyph-name="Tcommaaccent" unicode="&#x162;" horiz-adv-x="598" 
d="M276 -228l-82 27l47 170l130 -21zM217 0v589h-193v126h549v-126h-193v-589h-163z" />
    <glyph glyph-name="tcommaaccent" unicode="&#x163;" horiz-adv-x="377" 
d="M181 -228l-82 27l47 170l130 -21zM255 -10q-83 0 -126 42t-43 123v265h-67v103h67v113h144v-113h110v-103h-110v-252q0 -62 58 -62q31 0 55 10v-112q-40 -14 -88 -14z" />
    <glyph glyph-name="Tcaron" unicode="&#x164;" horiz-adv-x="597" 
d="M234 763l-108 139h104l69 -52l68 52h102l-112 -139h-123zM217 0v589h-193v126h549v-126h-193v-589h-163z" />
    <glyph glyph-name="tcaron" unicode="&#x165;" horiz-adv-x="377" 
d="M285 586l10 174h119l-49 -174h-80zM255 -10q-83 0 -126 42t-43 123v265h-67v103h67v113h144v-113h110v-103h-110v-252q0 -62 58 -62q31 0 55 10v-112q-40 -14 -88 -14z" />
    <glyph glyph-name="Tbar" unicode="&#x166;" horiz-adv-x="597" 
d="M84 300v106h133v183h-193v126h549v-126h-193v-183h133v-106h-133v-300h-163v300h-133z" />
    <glyph glyph-name="tbar" unicode="&#x167;" horiz-adv-x="377" 
d="M19 250v85h67v85h-67v103h67v113h144v-113h110v-103h-110v-85h110v-85h-110v-82q0 -62 58 -62q31 0 55 9v-112q-45 -13 -89 -13q-82 0 -125 42t-43 123v95h-67z" />
    <glyph glyph-name="Utilde" unicode="&#x168;" horiz-adv-x="739" 
d="M366 -11q-142 0 -218.5 74t-76.5 216v436h163v-426q0 -91 30.5 -131t102.5 -40q73 0 105.5 40t32.5 137v420h163v-430q0 -145 -78 -220.5t-224 -75.5zM429 764q-29 0 -66 18.5t-49 18.5q-28 0 -35 -37h-86q5 67 36.5 103.5t77.5 36.5q27 0 64.5 -19t51.5 -19q27 0 34 37
h87q-6 -66 -38 -102.5t-77 -36.5z" />
    <glyph glyph-name="utilde" unicode="&#x169;" horiz-adv-x="612" 
d="M238 -11q-81 0 -129.5 49t-48.5 148v337h144v-317q0 -105 91 -105q48 0 78.5 29.5t30.5 85.5v307h144v-523h-144v82q-47 -93 -166 -93zM365 598q-28 0 -64.5 19t-48.5 19q-13 0 -22.5 -10.5t-12.5 -26.5h-83q5 68 35 104.5t75 36.5q27 0 64 -18.5t51 -18.5q27 0 34 37h84
q-6 -68 -37 -105t-75 -37z" />
    <glyph glyph-name="Umacron" unicode="&#x16a;" horiz-adv-x="739" 
d="M366 -11q-142 0 -218.5 74t-76.5 216v436h163v-426q0 -91 30.5 -131t102.5 -40q73 0 105.5 40t32.5 137v420h163v-430q0 -145 -78 -220.5t-224 -75.5zM217 777v91h302v-91h-302z" />
    <glyph glyph-name="umacron" unicode="&#x16b;" horiz-adv-x="612" 
d="M238 -11q-81 0 -129.5 49t-48.5 148v337h144v-317q0 -105 91 -105q48 0 78.5 29.5t30.5 85.5v307h144v-523h-144v82q-47 -93 -166 -93zM159 625v87h291v-87h-291z" />
    <glyph glyph-name="Ubreve" unicode="&#x16c;" horiz-adv-x="739" 
d="M366 -11q-142 0 -218.5 74t-76.5 216v436h163v-426q0 -91 30.5 -131t102.5 -40q73 0 105.5 40t32.5 137v420h163v-430q0 -145 -78 -220.5t-224 -75.5zM367 757q-66 0 -107.5 40t-45.5 106h97q8 -52 56 -52q49 0 59 52h96q-4 -66 -47 -106t-108 -40z" />
    <glyph glyph-name="ubreve" unicode="&#x16d;" horiz-adv-x="612" 
d="M238 -11q-81 0 -129.5 49t-48.5 148v337h144v-317q0 -105 91 -105q48 0 78.5 29.5t30.5 85.5v307h144v-523h-144v82q-47 -93 -166 -93zM304 598q-66 0 -107 40t-45 109h95q7 -54 57 -54q51 0 61 54h93q-4 -68 -46.5 -108.5t-107.5 -40.5z" />
    <glyph glyph-name="Uring" unicode="&#x16e;" horiz-adv-x="739" 
d="M366 -11q-142 0 -218.5 74t-76.5 216v436h163v-426q0 -91 30.5 -131t102.5 -40q73 0 105.5 40t32.5 137v420h163v-430q0 -145 -78 -220.5t-224 -75.5zM368 788q21 0 35 15t14 38t-14 38.5t-35 15.5q-22 0 -35.5 -15.5t-13.5 -38.5t13.5 -38t35.5 -15zM368 730
q-47 0 -81 32.5t-34 78.5t34 79t81 33t81 -33t34 -79t-34 -78.5t-81 -32.5z" />
    <glyph glyph-name="uring" unicode="&#x16f;" horiz-adv-x="612" 
d="M303 618q21 0 34.5 15t13.5 38t-13.5 38t-34.5 15t-34.5 -15t-13.5 -38t13.5 -38t34.5 -15zM303 560q-47 0 -80.5 32.5t-33.5 78.5q0 45 33.5 77.5t80.5 32.5t80.5 -32.5t33.5 -77.5q0 -46 -33.5 -78.5t-80.5 -32.5zM238 -11q-81 0 -129.5 49t-48.5 148v337h144v-317
q0 -105 91 -105q48 0 78.5 29.5t30.5 85.5v307h144v-523h-144v82q-47 -93 -166 -93z" />
    <glyph glyph-name="Uhungarumlaut" unicode="&#x170;" horiz-adv-x="739" 
d="M220 763l39 139h132l-73 -139h-98zM400 763l39 139h132l-74 -139h-97zM366 -11q-142 0 -218.5 74t-76.5 216v436h163v-426q0 -91 30.5 -131t102.5 -40q73 0 105.5 40t32.5 137v420h163v-430q0 -145 -78 -220.5t-224 -75.5z" />
    <glyph glyph-name="uhungarumlaut" unicode="&#x171;" horiz-adv-x="612" 
d="M238 -11q-81 0 -129.5 49t-48.5 148v337h144v-317q0 -105 91 -105q48 0 78.5 29.5t30.5 85.5v307h144v-523h-144v82q-47 -93 -166 -93zM167 594l42 159h123l-76 -159h-89zM335 594l42 159h124l-76 -159h-90z" />
    <glyph glyph-name="Uogonek" unicode="&#x172;" horiz-adv-x="739" 
d="M407 -182q-52 0 -83 21.5t-31 58.5q0 52 63 91q-137 2 -211 76.5t-74 213.5v436h163v-426q0 -91 30.5 -131t102.5 -40q73 0 105.5 40t32.5 137v420h163v-430q0 -201 -147 -267q-68 -32 -84 -48q-18 -17 -18 -39q0 -30 33 -30q23 0 38 7v-75q-32 -15 -83 -15z" />
    <glyph glyph-name="uogonek" unicode="&#x173;" horiz-adv-x="612" 
d="M476 -182q-51 0 -81.5 21.5t-30.5 59.5q0 60 83 101h-43v82q-47 -93 -166 -93q-81 0 -129.5 49t-48.5 148v337h144v-317q0 -105 91 -105q48 0 78.5 29.5t30.5 85.5v307h144v-514q-63 -45 -63 -80q0 -31 34 -31q23 0 37 7v-72q-32 -15 -80 -15z" />
    <glyph glyph-name="Wcircumflex" unicode="&#x174;" horiz-adv-x="971" 
d="M314 763l112 139h123l108 -139h-104l-68 53l-69 -53h-102zM195 0l-174 715h164l112 -494l122 494h138l127 -497l116 497h150l-174 -715h-165l-129 494l-131 -494h-156z" />
    <glyph glyph-name="wcircumflex" unicode="&#x175;" horiz-adv-x="826" 
d="M242 595l117 156h109l114 -156h-102l-69 63l-70 -63h-99zM175 0l-159 523h152l93 -352l101 352h119l92 -352l99 352h139l-165 -523h-142l-89 328l-96 -328h-144z" />
    <glyph glyph-name="Ycircumflex" unicode="&#x176;" horiz-adv-x="648" 
d="M249 0v308l-236 407h178l145 -274l142 274h157l-223 -407v-308h-163zM156 763l112 139h123l108 -139h-104l-68 53l-69 -53h-102z" />
    <glyph glyph-name="ycircumflex" unicode="&#x177;" horiz-adv-x="567" 
d="M130 -178l92 231l-208 470h156l127 -314l117 314h139l-283 -701h-140zM118 595l117 156h109l114 -156h-102l-69 63l-70 -63h-99z" />
    <glyph glyph-name="Ydieresis" unicode="&#x178;" horiz-adv-x="648" 
d="M249 0v308l-236 407h178l145 -274l142 274h157l-223 -407v-308h-163zM220 769q-31 0 -52.5 21.5t-21.5 51.5t21.5 51t52.5 21q30 0 52 -21t22 -51t-22 -51.5t-52 -21.5zM435 769q-30 0 -51.5 21.5t-21.5 51.5t21.5 51t51.5 21q31 0 52.5 -21t21.5 -51t-21.5 -51.5
t-52.5 -21.5z" />
    <glyph glyph-name="Zacute" unicode="&#x179;" horiz-adv-x="615" 
d="M249 763l53 139h157l-101 -139h-109zM18 0v20l341 569h-303v126h532v-19l-334 -569h322v-127h-558z" />
    <glyph glyph-name="zacute" unicode="&#x17a;" horiz-adv-x="499" 
d="M197 594l57 159h152l-104 -159h-105zM14 0v16l258 395h-232v112h442v-18l-260 -393h250v-112h-458z" />
    <glyph glyph-name="Zdotaccent" unicode="&#x17b;" horiz-adv-x="615" 
d="M18 0v20l341 569h-303v126h532v-19l-334 -569h322v-127h-558zM312 768q-34 0 -57.5 22.5t-23.5 54.5t23.5 54.5t57.5 22.5t57 -22.5t23 -54.5t-23 -54.5t-57 -22.5z" />
    <glyph glyph-name="zdotaccent" unicode="&#x17c;" horiz-adv-x="499" 
d="M14 0v16l258 395h-232v112h442v-18l-260 -393h250v-112h-458zM256 598q-34 0 -57.5 22.5t-23.5 54.5q0 33 23 55t58 22q34 0 57.5 -22t23.5 -55q0 -32 -23.5 -54.5t-57.5 -22.5z" />
    <glyph glyph-name="Zcaron" unicode="&#x17d;" horiz-adv-x="615" 
d="M247 763l-108 139h104l69 -52l68 52h102l-112 -139h-123zM18 0v20l341 569h-303v126h532v-19l-334 -569h322v-127h-558z" />
    <glyph glyph-name="zcaron" unicode="&#x17e;" horiz-adv-x="499" 
d="M199 595l-114 156h102l69 -63l69 63h100l-117 -156h-109zM14 0v16l258 395h-232v112h442v-18l-260 -393h250v-112h-458z" />
    <glyph glyph-name="florin" unicode="&#x192;" horiz-adv-x="429" 
d="M25 312v102h93l20 134q24 176 201 176q43 0 75 -11v-110q-25 9 -57 9q-67 0 -77 -75l-18 -123h120v-102h-135l-72 -494h-144l72 494h-78z" />
    <glyph glyph-name="Aringacute" unicode="&#x1fa;" horiz-adv-x="720" 
d="M21 0l235 715h211l232 -715h-169l-49 159h-259l-49 -159h-152zM364 745q-47 0 -81 32.5t-34 78.5t34 79t81 33t81 -33t34 -79t-34 -78.5t-81 -32.5zM352 583l-95 -309h189zM308 989l53 139h157l-101 -139h-109zM364 803q21 0 35 15t14 38t-14 38.5t-35 15.5
q-22 0 -35.5 -15.5t-13.5 -38.5t13.5 -38t35.5 -15z" />
    <glyph glyph-name="aringacute" unicode="&#x1fb;" horiz-adv-x="564" 
d="M205 -11q-77 0 -126 39t-49 117q0 168 272 168h59v21q0 49 -19 72.5t-66 23.5q-79 0 -89 -74h-137q6 89 70 134t165 45q219 0 219 -194v-341h-141v63q-53 -74 -158 -74zM248 90q49 0 81 25t32 68v44h-56q-66 0 -99.5 -17t-33.5 -57q0 -63 76 -63zM285 632q21 0 34.5 15
t13.5 38t-13.5 38t-34.5 15t-34.5 -15t-13.5 -38t13.5 -38t34.5 -15zM285 574q-47 0 -80.5 32.5t-33.5 78.5q0 45 33.5 77.5t80.5 32.5t80.5 -32.5t33.5 -77.5q0 -46 -33.5 -78.5t-80.5 -32.5zM235 828l53 139h157l-101 -139h-109z" />
    <glyph glyph-name="AEacute" unicode="&#x1fc;" horiz-adv-x="983" 
d="M17 0l340 715h574v-126h-300v-167h239v-118h-239v-178h317v-126h-479v168h-218l-77 -168h-157zM445 589l-142 -309h166v309h-24zM550 763l53 139h157l-101 -139h-109z" />
    <glyph glyph-name="aeacute" unicode="&#x1fd;" horiz-adv-x="898" 
d="M623 -11q-138 0 -201 97q-69 -97 -206 -97q-82 0 -134 39t-52 117q0 88 72 129.5t198 41.5h62v18q0 48 -19.5 72t-65.5 24q-80 0 -90 -74h-137q6 89 69.5 134t160.5 45q122 0 167 -70q65 70 171 70q108 0 178.5 -66t70.5 -200v-39h-367q8 -138 124 -138q92 0 105 73h136
q-12 -85 -75 -130.5t-167 -45.5zM248 90q51 0 82.5 25t31.5 68v46h-59q-65 0 -98 -16.5t-33 -56.5q0 -66 76 -66zM502 316h224q-9 119 -108 119q-48 0 -78.5 -31.5t-37.5 -87.5zM402 594l57 159h152l-104 -159h-105z" />
    <glyph glyph-name="Oslashacute" unicode="&#x1fe;" horiz-adv-x="816" 
d="M87 -32l-54 53l87 93q-80 95 -80 239v8q0 159 104 261.5t264 102.5q127 0 222 -65l76 81l54 -54l-73 -78q89 -99 89 -244v-8q0 -162 -101.5 -265t-267.5 -103q-138 0 -233 72zM410 118q91 0 145 64.5t54 172.5v8q0 76 -28 132l-306 -327q53 -50 135 -50zM207 354
q0 -70 23 -122l303 324q-50 41 -125 41q-94 0 -147.5 -63t-53.5 -172v-8zM346 763l53 139h157l-101 -139h-109z" />
    <glyph glyph-name="oslashacute" unicode="&#x1ff;" horiz-adv-x="616" 
d="M71 -38l-49 44l70 75q-60 71 -60 175v8q0 121 78 196t198 75q94 0 161 -46l66 71l49 -44l-65 -70q64 -72 64 -179v-8q0 -122 -78 -196t-198 -74q-96 0 -166 48zM308 98q61 0 95 42.5t34 117.5v7q0 42 -13 78l-200 -216q32 -29 84 -29zM179 259q0 -43 10 -73l197 213
q-31 26 -78 26q-61 0 -95 -41.5t-34 -116.5v-8zM249 594l57 159h152l-104 -159h-105z" />
    <glyph glyph-name="Scommaaccent" unicode="&#x218;" horiz-adv-x="642" 
d="M292 -228l-82 27l47 170l130 -21zM327 -11q-142 0 -215 62t-80 173h155q6 -55 36.5 -86t103.5 -31q53 0 85.5 26.5t32.5 68.5q0 43 -28 62t-107 31q-140 18 -199 66.5t-59 150.5q0 93 71.5 153t188.5 60q121 0 189.5 -54t78.5 -160h-149q-15 95 -119 95q-52 0 -79.5 -22
t-27.5 -59q0 -40 26.5 -59.5t106.5 -31.5q138 -18 200 -64.5t62 -152.5q0 -98 -74.5 -163t-198.5 -65z" />
    <glyph glyph-name="scommaaccent" unicode="&#x219;" horiz-adv-x="502" 
d="M226 -228l-82 27l47 170l130 -21zM253 -11q-106 0 -165 45t-63 130h135q5 -37 26 -55.5t66 -18.5q82 0 82 57q0 26 -24 40t-82 22q-106 16 -149.5 52t-43.5 111q0 78 60.5 120.5t146.5 42.5q198 0 216 -162h-133q-12 63 -82 63q-35 0 -54.5 -15t-19.5 -39q0 -25 21.5 -37
t79.5 -20q106 -15 154.5 -50t48.5 -114q0 -84 -57.5 -128t-162.5 -44z" />
    <glyph glyph-name="uni0237" unicode="&#x237;" horiz-adv-x="281" 
d="M-1 -187v108q37 3 53 20t16 49v533h144v-532q0 -87 -48 -132t-165 -46z" />
    <glyph glyph-name="circumflex" unicode="&#x2c6;" horiz-adv-x="400" 
d="M30 595l117 156h109l114 -156h-102l-69 63l-70 -63h-99z" />
    <glyph glyph-name="caron" unicode="&#x2c7;" horiz-adv-x="400" 
d="M144 595l-114 156h102l69 -63l69 63h100l-117 -156h-109z" />
    <glyph glyph-name="breve" unicode="&#x2d8;" horiz-adv-x="400" 
d="M199 598q-66 0 -107 40t-45 109h95q7 -54 57 -54q51 0 61 54h93q-4 -68 -46.5 -108.5t-107.5 -40.5z" />
    <glyph glyph-name="dotaccent" unicode="&#x2d9;" horiz-adv-x="400" 
d="M200 598q-34 0 -57.5 22.5t-23.5 54.5q0 33 23 55t58 22q34 0 57.5 -22t23.5 -55q0 -32 -23.5 -54.5t-57.5 -22.5z" />
    <glyph glyph-name="ring" unicode="&#x2da;" horiz-adv-x="400" 
d="M200 643q21 0 34.5 15t13.5 38t-13.5 38t-34.5 15t-34.5 -15t-13.5 -38t13.5 -38t34.5 -15zM200 585q-47 0 -80.5 32.5t-33.5 78.5q0 45 33.5 77.5t80.5 32.5t80.5 -32.5t33.5 -77.5q0 -46 -33.5 -78.5t-80.5 -32.5z" />
    <glyph glyph-name="ogonek" unicode="&#x2db;" horiz-adv-x="400" 
d="M207 -182q-49 0 -80.5 21t-31.5 58q0 62 84 103h90q-52 -37 -52 -71q0 -31 33 -31q23 0 38 7v-72q-32 -15 -81 -15z" />
    <glyph glyph-name="tilde" unicode="&#x2dc;" horiz-adv-x="400" 
d="M260 598q-28 0 -64.5 19t-48.5 19q-13 0 -22.5 -10.5t-12.5 -26.5h-83q5 68 35 104.5t75 36.5q27 0 64 -18.5t51 -18.5q27 0 34 37h84q-6 -68 -37 -105t-75 -37z" />
    <glyph glyph-name="hungarumlaut" unicode="&#x2dd;" horiz-adv-x="400" 
d="M70 594l42 159h123l-76 -159h-89zM238 594l42 159h124l-76 -159h-90z" />
    <glyph glyph-name="Wgrave" unicode="&#x1e80;" horiz-adv-x="971" 
d="M441 763l-99 139h156l52 -139h-109zM195 0l-174 715h164l112 -494l122 494h138l127 -497l116 497h150l-174 -715h-165l-129 494l-131 -494h-156z" />
    <glyph glyph-name="wgrave" unicode="&#x1e81;" horiz-adv-x="826" 
d="M175 0l-159 523h152l93 -352l101 352h119l92 -352l99 352h139l-165 -523h-142l-89 328l-96 -328h-144zM374 594l-104 159h152l57 -159h-105z" />
    <glyph glyph-name="Wacute" unicode="&#x1e82;" horiz-adv-x="971" 
d="M433 763l53 139h157l-101 -139h-109zM195 0l-174 715h164l112 -494l122 494h138l127 -497l116 497h150l-174 -715h-165l-129 494l-131 -494h-156z" />
    <glyph glyph-name="wacute" unicode="&#x1e83;" horiz-adv-x="826" 
d="M368 594l57 159h152l-104 -159h-105zM175 0l-159 523h152l93 -352l101 352h119l92 -352l99 352h139l-165 -523h-142l-89 328l-96 -328h-144z" />
    <glyph glyph-name="Wdieresis" unicode="&#x1e84;" horiz-adv-x="971" 
d="M380 769q-31 0 -52.5 21.5t-21.5 51.5t21.5 51t52.5 21q30 0 52 -21t22 -51t-22 -51.5t-52 -21.5zM595 769q-30 0 -51.5 21.5t-21.5 51.5t21.5 51t51.5 21q31 0 52.5 -21t21.5 -51t-21.5 -51.5t-52.5 -21.5zM195 0l-174 715h164l112 -494l122 494h138l127 -497l116 497
h150l-174 -715h-165l-129 494l-131 -494h-156z" />
    <glyph glyph-name="wdieresis" unicode="&#x1e85;" horiz-adv-x="826" 
d="M318 600q-31 0 -52.5 21t-21.5 51t21.5 51t52.5 21t52.5 -21t21.5 -51t-21.5 -51t-52.5 -21zM522 600q-31 0 -52.5 21t-21.5 51t21.5 51t52.5 21t52.5 -21t21.5 -51t-21.5 -51t-52.5 -21zM175 0l-159 523h152l93 -352l101 352h119l92 -352l99 352h139l-165 -523h-142
l-89 328l-96 -328h-144z" />
    <glyph glyph-name="Ygrave" unicode="&#x1ef2;" horiz-adv-x="648" 
d="M249 0v308l-236 407h178l145 -274l142 274h157l-223 -407v-308h-163zM286 763l-99 139h156l52 -139h-109z" />
    <glyph glyph-name="ygrave" unicode="&#x1ef3;" horiz-adv-x="567" 
d="M130 -178l92 231l-208 470h156l127 -314l117 314h139l-283 -701h-140zM244 594l-104 159h152l57 -159h-105z" />
    <glyph glyph-name="uni2009" unicode="&#x2009;" horiz-adv-x="95" 
 />
    <glyph glyph-name="endash" unicode="&#x2013;" horiz-adv-x="535" 
d="M45 240v92h445v-92h-445z" />
    <glyph glyph-name="emdash" unicode="&#x2014;" horiz-adv-x="924" 
d="M45 240v92h834v-92h-834z" />
    <glyph glyph-name="quoteleft" unicode="&#x2018;" horiz-adv-x="290" 
d="M163 450l-129 47l129 230l83 -34z" />
    <glyph glyph-name="quoteright" unicode="&#x2019;" horiz-adv-x="290" 
d="M127 450l-83 34l83 243l129 -46z" />
    <glyph glyph-name="quotesinglbase" unicode="&#x201a;" horiz-adv-x="289" 
d="M124 -109l-82 34l83 244l129 -47z" />
    <glyph glyph-name="quotedblleft" unicode="&#x201c;" horiz-adv-x="498" 
d="M163 450l-129 47l129 230l83 -34zM372 450l-129 47l129 230l83 -34z" />
    <glyph glyph-name="quotedblright" unicode="&#x201d;" horiz-adv-x="498" 
d="M127 450l-83 34l83 243l129 -46zM335 450l-82 34l83 243l129 -46z" />
    <glyph glyph-name="quotedblbase" unicode="&#x201e;" horiz-adv-x="498" 
d="M124 -109l-82 34l83 244l129 -47zM333 -109l-83 34l84 244l129 -47z" />
    <glyph glyph-name="dagger" unicode="&#x2020;" horiz-adv-x="394" 
d="M137 213v276h-110v105h110v121h120v-121h109v-105h-109v-276h-120z" />
    <glyph glyph-name="daggerdbl" unicode="&#x2021;" horiz-adv-x="394" 
d="M137 421v86h-110v97h110v111h120v-111h109v-97h-109v-86h109v-97h-109v-111h-120v111h-110v97h110z" />
    <glyph glyph-name="bullet" unicode="&#x2022;" horiz-adv-x="357" 
d="M179 169q-57 0 -96.5 39.5t-39.5 95.5t39.5 95.5t96.5 39.5q58 0 96.5 -39t38.5 -96t-38.5 -96t-96.5 -39z" />
    <glyph glyph-name="ellipsis" unicode="&#x2026;" horiz-adv-x="861" 
d="M146 -9q-37 0 -63 25.5t-26 62.5q0 36 26 61.5t63 25.5q38 0 64 -25.5t26 -61.5q0 -37 -26 -62.5t-64 -25.5zM430 -9q-37 0 -62.5 25.5t-25.5 62.5q0 36 25.5 61.5t62.5 25.5q38 0 64 -25.5t26 -61.5q0 -37 -26 -62.5t-64 -25.5zM714 -9q-37 0 -62.5 25.5t-25.5 62.5
q0 36 25.5 61.5t62.5 25.5q38 0 64 -25.5t26 -61.5q0 -37 -26 -62.5t-64 -25.5z" />
    <glyph glyph-name="perthousand" unicode="&#x2030;" horiz-adv-x="1187" 
d="M206 467q31 0 48.5 22.5t17.5 61.5q0 38 -17.5 60.5t-48.5 22.5t-49 -22t-18 -61t18 -61.5t49 -22.5zM205 378q-77 0 -127 49t-50 123t51.5 123t126.5 49t126 -48t51 -121q0 -75 -50.5 -125t-127.5 -50zM119 0l475 715h90l-475 -715h-90zM591 79q31 0 48.5 22.5
t17.5 61.5t-17.5 61t-48.5 22t-49 -22t-18 -61q0 -40 18 -62t49 -22zM591 -11q-78 0 -127.5 49t-49.5 124q0 74 51 123t126 49t126 -48t51 -121q0 -75 -50 -125.5t-127 -50.5zM982 79q31 0 49 22.5t18 61.5q0 38 -18 60.5t-49 22.5t-49 -22t-18 -61q0 -40 18 -62t49 -22z
M982 -11q-78 0 -127.5 49t-49.5 124q0 74 51 123t126 49t126 -48t51 -121q0 -75 -50 -125.5t-127 -50.5z" />
    <glyph glyph-name="uni2032" unicode="&#x2032;" horiz-adv-x="236" 
d="M39 451l22 264h140l-60 -264h-102z" />
    <glyph glyph-name="uni2033" unicode="&#x2033;" horiz-adv-x="430" 
d="M39 451l22 264h140l-60 -264h-102zM233 451l22 264h140l-59 -264h-103z" />
    <glyph glyph-name="guilsinglleft" unicode="&#x2039;" horiz-adv-x="312" 
d="M168 75l-127 186l127 186h107l-122 -186l122 -186h-107z" />
    <glyph glyph-name="guilsinglright" unicode="&#x203a;" horiz-adv-x="312" 
d="M38 75l121 186l-121 186h107l126 -186l-126 -186h-107z" />
    <glyph glyph-name="fraction" unicode="&#x2044;" horiz-adv-x="148" 
d="M-238 0l540 715h84l-540 -715h-84z" />
    <glyph glyph-name="Euro" unicode="&#x20ac;" horiz-adv-x="703" 
d="M26 386v66h67q16 122 94.5 197.5t200.5 75.5q120 0 191 -63t83 -181h-151q-8 59 -40 90t-84 31q-58 0 -92.5 -39.5t-44.5 -110.5h186l-12 -66h-177v-62h166l-12 -66h-151q20 -143 138 -143q113 0 131 134h149q-14 -125 -86.5 -192.5t-196.5 -67.5q-125 0 -200.5 73.5
t-91.5 195.5h-67v66h63v62h-63z" />
    <glyph glyph-name="trademark" unicode="&#x2122;" horiz-adv-x="744" 
d="M342 393v322h109l70 -183l71 183h111v-322h-89v208l-84 -208h-28l-83 208v-208h-77zM119 393v252h-88v70h265v-70h-88v-252h-89z" />
    <glyph glyph-name="onethird" unicode="&#x2153;" horiz-adv-x="780" 
d="M599 -6q-76 0 -114.5 33.5t-40.5 91.5h96q5 -49 53 -49t48 42q0 41 -50 41h-29v64h28q49 0 49 39q0 36 -40 36q-43 0 -49 -44h-96q4 54 42 87t105 33q66 0 103.5 -27t37.5 -73q0 -59 -64 -78q33 -6 53 -27.5t20 -54.5q0 -53 -39.5 -83.5t-112.5 -30.5zM106 352v258
l-82 -49v89l97 65h95v-363h-110zM53 0l540 715h84l-540 -715h-84z" />
    <glyph glyph-name="twothirds" unicode="&#x2154;" horiz-adv-x="824" 
d="M643 -6q-76 0 -114.5 33.5t-40.5 91.5h96q5 -49 53 -49t48 42q0 41 -50 41h-29v64h28q49 0 49 39q0 36 -40 36q-43 0 -49 -44h-96q4 54 42 87t105 33q66 0 103.5 -27t37.5 -73q0 -59 -64 -78q33 -6 53 -27.5t20 -54.5q0 -53 -39.5 -83.5t-112.5 -30.5zM9 352v14l128 134
q63 65 63 100q0 39 -38 39q-40 0 -47 -57h-99q3 67 43 102.5t108 35.5q67 0 103 -31t36 -82q0 -60 -72 -129l-49 -48h124v-78h-300zM112 0l540 715h84l-540 -715h-84z" />
    <glyph glyph-name="oneeighth" unicode="&#x215b;" horiz-adv-x="773" 
d="M591 -6q-73 0 -114.5 28t-41.5 80q0 68 67 89q-52 23 -52 75q0 47 40.5 74.5t101.5 27.5q62 0 101.5 -27t39.5 -74q0 -54 -52 -75q66 -21 66 -87q0 -53 -41.5 -82t-114.5 -29zM591 68q22 0 35.5 12.5t13.5 33.5t-13.5 33t-35.5 12q-21 0 -35 -12.5t-14 -33.5
q0 -20 14 -32.5t35 -12.5zM592 218q18 0 30 11t12 29t-12 28.5t-30 10.5t-30.5 -11t-12.5 -29q0 -17 12.5 -28t30.5 -11zM106 352v258l-82 -49v89l97 65h95v-363h-110zM48 0l540 715h84l-540 -715h-84z" />
    <glyph glyph-name="threeeighths" unicode="&#x215c;" horiz-adv-x="810" 
d="M628 -6q-73 0 -114.5 28t-41.5 80q0 68 67 89q-52 23 -52 75q0 47 40.5 74.5t101.5 27.5q62 0 101.5 -27t39.5 -74q0 -54 -52 -75q66 -21 66 -87q0 -53 -41.5 -82t-114.5 -29zM628 68q22 0 35.5 12.5t13.5 33.5t-13.5 33t-35.5 12q-21 0 -35 -12.5t-14 -33.5
q0 -20 14 -32.5t35 -12.5zM629 218q18 0 30 11t12 29t-12 28.5t-30 10.5t-30.5 -11t-12.5 -29q0 -17 12.5 -28t30.5 -11zM96 0l540 715h84l-540 -715h-84zM177 345q-76 0 -114.5 34t-40.5 92h96q5 -49 53 -49t48 41t-50 41h-29v64h28q49 0 49 40q0 36 -40 36q-43 0 -49 -45
h-96q4 54 42 87.5t105 33.5q66 0 103.5 -27t37.5 -73q0 -60 -64 -78q33 -6 53 -28t20 -54q0 -53 -39.5 -84t-112.5 -31z" />
    <glyph glyph-name="fiveeighths" unicode="&#x215d;" horiz-adv-x="798" 
d="M617 -6q-73 0 -114.5 28t-41.5 80q0 68 67 89q-52 23 -52 75q0 47 40.5 74.5t101.5 27.5q62 0 101.5 -27t39.5 -74q0 -54 -52 -75q66 -21 66 -87q0 -53 -41.5 -82t-114.5 -29zM617 68q22 0 35.5 12.5t13.5 33.5t-13.5 33t-35.5 12q-21 0 -35 -12.5t-14 -33.5
q0 -20 14 -32.5t35 -12.5zM618 218q18 0 30 11t12 29t-12 28.5t-30 10.5t-30.5 -11t-12.5 -29q0 -17 12.5 -28t30.5 -11zM170 345q-72 0 -108.5 32.5t-38.5 85.5h99q7 -38 46 -38q21 0 32.5 14t11.5 37t-12 36t-34 13q-35 0 -51 -26h-78l8 216h255v-78h-178l-3 -84
q29 41 90 41q51 0 81.5 -31t30.5 -86q0 -61 -40.5 -96.5t-110.5 -35.5zM84 0l540 715h84l-540 -715h-84z" />
    <glyph glyph-name="seveneighths" unicode="&#x215e;" horiz-adv-x="769" 
d="M587 -6q-73 0 -114.5 28t-41.5 80q0 68 67 89q-52 23 -52 75q0 47 40.5 74.5t101.5 27.5q62 0 101.5 -27t39.5 -74q0 -54 -52 -75q66 -21 66 -87q0 -53 -41.5 -82t-114.5 -29zM587 68q22 0 35.5 12.5t13.5 33.5t-13.5 33t-35.5 12q-21 0 -35 -12.5t-14 -33.5
q0 -20 14 -32.5t35 -12.5zM588 218q18 0 30 11t12 29t-12 28.5t-30 10.5t-30.5 -11t-12.5 -29q0 -17 12.5 -28t30.5 -11zM68 352l105 277h-152v86h288v-11l-132 -352h-109zM35 0l540 715h84l-540 -715h-84z" />
    <glyph glyph-name="minus" unicode="&#x2212;" horiz-adv-x="553" 
d="M37 284v113h479v-113h-479z" />
    <glyph glyph-name="approxequal" unicode="&#x2248;" horiz-adv-x="549" 
d="M40 137q5 78 41 117.5t88 39.5q43 0 114 -21t93 -21q39 0 45 45h88q-4 -76 -40 -116t-87 -40q-44 0 -115.5 20.5t-92.5 20.5q-38 0 -46 -45h-88zM40 342q5 78 41 117t88 39q43 0 114 -20.5t93 -20.5q39 0 45 44h88q-4 -76 -40 -116t-87 -40q-44 0 -115.5 21t-92.5 21
q-38 0 -46 -45h-88z" />
    <glyph glyph-name="notequal" unicode="&#x2260;" horiz-adv-x="530" 
d="M39 368v104h233l39 99h101l-39 -99h118v-104h-158l-33 -87h191v-103h-231l-38 -99h-101l38 99h-120v103h160l33 87h-193z" />
    <glyph glyph-name="lessequal" unicode="&#x2264;" horiz-adv-x="509" 
d="M454 134l-408 218v29l408 218v-130l-201 -102l201 -101v-132zM46 0v100h408v-100h-408z" />
    <glyph glyph-name="greaterequal" unicode="&#x2265;" horiz-adv-x="509" 
d="M56 134v132l200 101l-200 102v130l408 -218v-29zM56 0v100h408v-100h-408z" />
    <glyph glyph-name="uni24C5" unicode="&#x24c5;" horiz-adv-x="843" 
d="M288 159v401h148q159 0 159 -132v-3q0 -63 -40 -95t-114 -32h-45v-139h-108zM396 371h36q61 0 61 54v3q0 50 -61 50h-36v-107zM421 32q134 0 227.5 92t93.5 235q0 142 -92.5 233t-226.5 91q-136 0 -229 -91.5t-93 -234.5t93.5 -234t226.5 -91zM421 -16q-157 0 -267 107.5
t-110 265.5q0 156 110 265t269 109q160 0 268.5 -108t108.5 -264q0 -158 -110 -266.5t-269 -108.5z" />
    <glyph glyph-name="f_i" unicode="&#xfb01;" horiz-adv-x="647" 
d="M433 0v523h144v-523h-144zM504 594q-35 0 -58.5 22.5t-23.5 56.5t23.5 56.5t58.5 22.5t59 -22.5t24 -56.5t-24 -56.5t-59 -22.5zM88 0v420h-69v103h69v60q0 90 49 136.5t137 46.5q41 0 71 -9v-109q-21 8 -49 8q-64 0 -64 -69v-64h113v-103h-113v-420h-144z" />
    <glyph glyph-name="f_l" unicode="&#xfb02;" horiz-adv-x="646" 
d="M88 0v420h-69v103h69v60q0 90 49 136.5t137 46.5q41 0 71 -9v-109q-21 8 -49 8q-64 0 -64 -69v-64h113v-103h-113v-420h-144zM433 0v760h144v-760h-144z" />
    <glyph glyph-name="space_uni0326" horiz-adv-x="400" 
d="M190 -228l-82 27l47 170l130 -21z" />
    <glyph glyph-name="caron.alt" horiz-adv-x="400" 
d="M162 586l10 174h119l-49 -174h-80z" />
    <glyph glyph-name="space_uni0326.alt" horiz-adv-x="400" 
d="M259 579l-130 21l95 175l82 -26z" />
    <glyph glyph-name="grave.uc" horiz-adv-x="400" 
d="M155 763l-99 139h156l52 -139h-109z" />
    <glyph glyph-name="dieresis.uc" horiz-adv-x="400" 
d="M92 769q-31 0 -52.5 21.5t-21.5 51.5t21.5 51t52.5 21q30 0 52 -21t22 -51t-22 -51.5t-52 -21.5zM307 769q-30 0 -51.5 21.5t-21.5 51.5t21.5 51t51.5 21q31 0 52.5 -21t21.5 -51t-21.5 -51.5t-52.5 -21.5z" />
    <glyph glyph-name="macron.uc" horiz-adv-x="400" 
d="M49 777v91h302v-91h-302z" />
    <glyph glyph-name="acute.uc" horiz-adv-x="400" 
d="M136 763l53 139h157l-101 -139h-109z" />
    <glyph glyph-name="circumflex.uc" horiz-adv-x="400" 
d="M28 763l112 139h123l108 -139h-104l-68 53l-69 -53h-102z" />
    <glyph glyph-name="caron.uc" horiz-adv-x="400" 
d="M136 763l-108 139h104l69 -52l68 52h102l-112 -139h-123z" />
    <glyph glyph-name="breve.uc" horiz-adv-x="400" 
d="M199 757q-66 0 -107.5 40t-45.5 106h97q8 -52 56 -52q49 0 59 52h96q-4 -66 -47 -106t-108 -40z" />
    <glyph glyph-name="dotaccent.uc" horiz-adv-x="400" 
d="M200 768q-34 0 -57.5 22.5t-23.5 54.5t23.5 54.5t57.5 22.5t57 -22.5t23 -54.5t-23 -54.5t-57 -22.5z" />
    <glyph glyph-name="ring.uc" horiz-adv-x="400" 
d="M200 808q21 0 35 15t14 38t-14 38.5t-35 15.5q-22 0 -35.5 -15.5t-13.5 -38.5t13.5 -38t35.5 -15zM200 750q-47 0 -81 32.5t-34 78.5t34 79t81 33t81 -33t34 -79t-34 -78.5t-81 -32.5z" />
    <glyph glyph-name="tilde.uc" horiz-adv-x="400" 
d="M261 764q-29 0 -66 18.5t-49 18.5q-28 0 -35 -37h-86q5 67 36.5 103.5t77.5 36.5q27 0 64.5 -19t51.5 -19q27 0 34 37h87q-6 -66 -38 -102.5t-77 -36.5z" />
    <glyph glyph-name="hungarumlaut.uc" horiz-adv-x="400" 
d="M60 763l39 139h132l-73 -139h-98zM240 763l39 139h132l-74 -139h-97z" />
    <glyph glyph-name="idotaccent" horiz-adv-x="281" 
d="M139 594q-35 0 -58.5 22.5t-23.5 56.5t23.5 56.5t58.5 22.5t59 -22.5t24 -56.5t-24 -56.5t-59 -22.5zM68 0v523h144v-523h-144z" />
    <glyph glyph-name="registered.alt" horiz-adv-x="843" 
d="M270 160v401h153q160 0 160 -125v-2q0 -80 -75 -106l99 -168h-111l-86 147h-33v-147h-107zM377 378h41q60 0 60 51v3q0 47 -59 47h-42v-101zM421 32q134 0 227.5 92t93.5 235q0 142 -92.5 233t-226.5 91q-136 0 -229 -91.5t-93 -234.5t93.5 -234t226.5 -91zM421 -16
q-157 0 -267 107.5t-110 265.5q0 156 110 265t269 109q160 0 268.5 -108t108.5 -264q0 -158 -110 -266.5t-269 -108.5z" />
    <glyph glyph-name="dollar.old" horiz-adv-x="628" 
d="M277 -131v122q-119 9 -179 68.5t-67 156.5h144q6 -48 28 -76.5t74 -36.5v188q-117 18 -171 66t-54 142q0 83 61.5 139.5t163.5 63.5v87h71v-88q205 -19 223 -202h-139q-7 39 -26.5 61t-57.5 29v-172q117 -19 175.5 -65t58.5 -142q0 -90 -61.5 -151t-172.5 -69v-121h-71z
M438 194q0 36 -19 54.5t-71 30.5v-177q42 7 66 32t24 60zM190 511q0 -35 18 -53.5t69 -29.5v163q-42 -6 -64.5 -27.5t-22.5 -52.5z" />
    <glyph glyph-name="Euro.old" horiz-adv-x="682" 
d="M25 374v64h65q16 119 92 192t195 73q117 0 185.5 -61t78.5 -175h-145q-8 56 -39 86.5t-82 30.5q-57 0 -90.5 -38.5t-42.5 -107.5h181l-12 -64h-172v-59h161l-11 -65h-147q19 -138 135 -138q109 0 126 129h145q-14 -120 -83.5 -186t-190.5 -66t-195 71t-89 190h-65v65h62
v59h-62z" />
    <glyph glyph-name="sterling.old" horiz-adv-x="624" 
d="M38 288v96h55q-14 54 -14 105q0 98 69.5 156t177.5 58q116 0 177.5 -57.5t66.5 -158.5h-144q-8 50 -30.5 72.5t-65.5 22.5q-42 0 -68.5 -27.5t-26.5 -73.5q0 -45 10 -97h185v-96h-167q7 -46 7 -81q0 -31 -11 -59q14 -4 41 -14t44.5 -14.5t31.5 -4.5q67 0 71 67h140
q-4 -85 -52 -138t-131 -53q-52 0 -120 27.5t-88 27.5q-46 0 -52 -46h-120q4 52 30 94t72 58q9 29 9 55q0 31 -13 81h-84z" />
    <glyph glyph-name="yen.old" horiz-adv-x="602" 
d="M69 281v64h140l-192 349h169l126 -259l123 259h151l-183 -349h141v-64h-159v-60h159v-64h-159v-157h-157v157h-159v64h159v60h-159z" />
    <glyph glyph-name="zero.old" horiz-adv-x="663" 
d="M333 108q136 0 136 189v27q0 91 -35 140t-102 49q-68 0 -103 -48t-35 -140v-28q0 -189 139 -189zM331 -11q-131 0 -211.5 82t-80.5 224v28q0 142 81.5 224.5t211.5 82.5t211 -81t81 -222v-28q0 -143 -80 -226.5t-213 -83.5z" />
    <glyph glyph-name="one.old" horiz-adv-x="418" 
d="M175 0v468l-142 -92v131l161 112h133v-619h-152z" />
    <glyph glyph-name="two.old" horiz-adv-x="570" 
d="M15 0v25l236 223q63 60 91 98.5t28 80.5q0 40 -24 63t-68 23q-94 0 -110 -122h-137q6 110 73.5 174.5t181.5 64.5q110 0 173.5 -53t63.5 -140q0 -60 -35.5 -110.5t-111.5 -119.5l-100 -93h253v-114h-514z" />
    <glyph glyph-name="three.old" horiz-adv-x="610" 
d="M304 -105q-130 0 -199.5 63.5t-74.5 172.5h139q12 -121 129 -121q60 0 90 29t30 80q0 103 -120 103h-55v103h51q111 0 111 98q0 43 -25 68t-72 25q-51 0 -82 -29.5t-37 -80.5h-137q5 99 73.5 161.5t186.5 62.5q111 0 174.5 -53.5t63.5 -138.5q0 -113 -115 -157
q136 -34 136 -170q0 -98 -71 -157t-196 -59z" />
    <glyph glyph-name="four.old" horiz-adv-x="650" 
d="M377 -94v141h-357v51l314 520h194v-466h95v-105h-95v-141h-151zM177 152h203v350z" />
    <glyph glyph-name="five.old" horiz-adv-x="597" 
d="M291 -105q-123 0 -189 59.5t-72 157.5h142q7 -48 33.5 -74t84.5 -26q53 0 84 35.5t31 93.5q0 56 -32.5 90t-86.5 34q-87 0 -135 -58h-86l9 412h443v-121h-328l-3 -189q54 63 158 63q96 0 155 -61.5t59 -169.5q0 -112 -73 -179t-194 -67z" />
    <glyph glyph-name="six.old" horiz-adv-x="636" 
d="M328 -11q-149 0 -217 89.5t-68 243.5v32q0 175 82.5 273t216.5 98q104 0 166 -50t74 -145h-144q-18 78 -98 78q-66 0 -103 -60.5t-40 -180.5q55 88 170 88q101 0 166 -61t65 -165q0 -109 -73 -174.5t-197 -65.5zM327 102q53 0 86 34.5t33 90.5t-32.5 91t-86.5 35
t-88.5 -34t-34.5 -87q0 -59 34 -94.5t89 -35.5z" />
    <glyph glyph-name="seven.old" horiz-adv-x="554" 
d="M106 -94l234 588h-316v124h514v-17l-271 -695h-161z" />
    <glyph glyph-name="eight.old" horiz-adv-x="623" 
d="M311 -11q-119 0 -196.5 56t-77.5 155q0 64 37.5 109.5t100.5 68.5q-109 44 -109 150q0 91 72 144t175 53q104 0 174.5 -53t70.5 -142q0 -104 -109 -151q63 -22 99.5 -67t36.5 -107q0 -101 -76.5 -158.5t-197.5 -57.5zM312 103q53 0 86.5 30t33.5 81t-33.5 80.5
t-85.5 29.5t-87 -29.5t-35 -80.5t34.5 -81t86.5 -30zM314 423q44 0 72.5 26.5t28.5 70.5q0 42 -29.5 68.5t-72.5 26.5q-44 0 -73.5 -26t-29.5 -70q0 -43 30.5 -69.5t73.5 -26.5z" />
    <glyph glyph-name="nine.old" horiz-adv-x="636" 
d="M297 -105q-110 0 -175.5 53.5t-76.5 148.5h145q18 -85 111 -85q73 0 104 56t35 185q-57 -89 -170 -89q-101 0 -166 60.5t-65 162.5q0 111 72.5 177t197.5 66q149 0 216.5 -90t67.5 -247v-30q0 -177 -76 -272.5t-220 -95.5zM309 266q54 0 88.5 34.5t34.5 86.5q0 60 -34 95
t-89 35q-53 0 -86 -34.5t-33 -89.5q0 -57 32.5 -92t86.5 -35z" />
    <glyph glyph-name="dollar.tab" 
d="M267 -135v125q-119 9 -179.5 71t-66.5 162h142q5 -49 28 -79.5t76 -38.5v194q-117 19 -171.5 69t-54.5 146q0 87 62 145t164 65v89h70v-90q99 -9 155.5 -61.5t66.5 -147.5h-138q-14 81 -84 94v-179q118 -19 175.5 -66.5t57.5 -146.5q0 -92 -61 -154.5t-172 -71.5v-125
h-70zM427 200q0 37 -19 56t-71 31v-182q43 7 66.5 32.5t23.5 62.5zM178 527q0 -36 18.5 -55.5t70.5 -30.5v169q-43 -6 -66 -28.5t-23 -54.5z" />
    <glyph glyph-name="Euro.tab" 
d="M13 386v67h53q6 127 75 199.5t182 72.5q104 0 165 -58t68 -174h-135q-6 58 -29.5 85.5t-68.5 27.5q-105 0 -113 -153h173l-12 -67h-161v-61h150l-12 -66h-138q4 -77 31 -113t84 -36q48 0 73 29.5t32 93.5h133q-7 -121 -69.5 -182.5t-173.5 -61.5q-113 0 -180 70t-74 200
h-53v66h53v61h-53z" />
    <glyph glyph-name="sterling.tab" 
d="M38 301v91h53q-14 58 -14 112q0 102 67.5 161.5t171.5 59.5q113 0 171.5 -57t63.5 -164h-135q-8 52 -29.5 74.5t-65.5 22.5t-69.5 -27.5t-25.5 -76.5q0 -45 11 -105h180v-91h-164q8 -45 8 -88q0 -32 -11 -60q13 -4 40.5 -14t44.5 -14.5t31 -4.5q67 0 72 68h131
q-3 -91 -49 -144t-127 -53q-51 0 -115.5 28t-84.5 28q-47 0 -51 -47h-117q4 53 28 95t67 60q9 24 9 59q0 33 -13 87h-78z" />
    <glyph glyph-name="yen.tab" 
d="M70 289v67h145l-184 359h164l117 -253l112 253h145l-177 -359h149v-67h-158v-61h158v-66h-158v-162h-158v162h-155v66h155v61h-155z" />
    <glyph glyph-name="zero.tab" 
d="M303 115q58 0 81.5 39t23.5 132v145q0 88 -25 129t-82 41t-83 -41t-26 -132v-143q0 -91 27 -130.5t84 -39.5zM300 -11q-122 0 -191.5 76t-69.5 219v143q0 144 71.5 221t190.5 77q120 0 190 -74t70 -218v-145q0 -145 -69 -222t-192 -77z" />
    <glyph glyph-name="one.tab" 
d="M275 0v554l-184 -133v138l199 156h147v-715h-162z" />
    <glyph glyph-name="two.tab" 
d="M30 0v26l244 276q57 67 83.5 114t26.5 93q0 44 -22.5 68.5t-63.5 24.5q-46 0 -70.5 -30.5t-31.5 -101.5h-148q6 120 69.5 187.5t185.5 67.5q116 0 178.5 -56.5t62.5 -152.5q0 -66 -36.5 -128t-106.5 -135l-127 -127h271v-126h-515z" />
    <glyph glyph-name="three.tab" 
d="M298 -11q-128 0 -196 62.5t-73 175.5h143q10 -118 120 -118q111 0 111 102q0 103 -109 103h-56v108h54q104 0 104 94q0 40 -23.5 64t-69.5 24q-48 0 -78 -28t-34 -79h-140q5 103 73 165.5t182 62.5q110 0 173.5 -53.5t63.5 -140.5q0 -115 -115 -155q61 -14 97 -57.5
t36 -109.5q0 -102 -70 -161t-193 -59z" />
    <glyph glyph-name="four.tab" 
d="M346 0v142h-319v54l278 519h187v-462h76v-111h-76v-142h-146zM171 253h177v337z" />
    <glyph glyph-name="five.tab" 
d="M291 -11q-242 0 -253 226h142q6 -51 30.5 -75.5t79.5 -24.5q52 0 79.5 34t27.5 94q0 56 -30.5 89t-82.5 33q-83 0 -129 -58h-87l9 408h435v-123h-318l-3 -182q54 67 151 67t154 -63t57 -171q0 -117 -71 -185.5t-191 -68.5z" />
    <glyph glyph-name="six.tab" 
d="M311 -11q-141 0 -207 86.5t-66 237.5v48q0 174 79 269t211 95q101 0 160.5 -49t67.5 -149h-139q-16 80 -91 80q-65 0 -101.5 -58t-37.5 -172q51 87 161 87q97 0 158 -61t61 -167q0 -112 -69 -179.5t-187 -67.5zM309 109q50 0 82 34t32 89q0 57 -31.5 90.5t-83.5 33.5
t-85.5 -32.5t-33.5 -84.5q0 -61 33 -95.5t87 -34.5z" />
    <glyph glyph-name="seven.tab" 
d="M131 0l227 586h-308v129h509v-18l-265 -697h-163z" />
    <glyph glyph-name="eight.tab" 
d="M300 -11q-115 0 -189 56t-74 157q0 64 33 110t92 69q-98 43 -98 148q0 90 69.5 143t168.5 53q100 0 168 -53t68 -142q0 -102 -99 -148q60 -22 92.5 -67t32.5 -109q0 -102 -73.5 -159.5t-190.5 -57.5zM301 110q50 0 82 29t32 79q0 51 -31.5 79.5t-81.5 28.5t-83 -29
t-33 -80q0 -50 33 -78.5t82 -28.5zM303 426q42 0 69.5 25t27.5 68q0 41 -28 66t-70 25t-70 -25t-28 -66q0 -42 28.5 -67.5t70.5 -25.5z" />
    <glyph glyph-name="nine.tab" 
d="M282 -10q-110 0 -172 51.5t-72 151.5h140q17 -85 102 -85q68 0 100.5 56t34.5 173q-53 -86 -163 -86q-96 0 -157.5 60.5t-61.5 166.5q0 112 69 180t187 68q135 0 204 -83t69 -239v-62q0 -169 -73.5 -260.5t-206.5 -91.5zM292 360q52 0 85.5 31.5t33.5 84.5q0 61 -33.5 96
t-86.5 35q-51 0 -82.5 -34t-31.5 -89q0 -57 31.5 -90.5t83.5 -33.5z" />
    <glyph glyph-name="cent.tab" 
d="M280 -135v126q-108 10 -174 79.5t-66 184.5v8q0 113 67.5 185.5t172.5 84.5v96h71v-96q89 -8 147 -58t66 -143h-134q-10 75 -79 91v-328q37 9 60.5 35t27.5 69h128q-5 -87 -63 -143t-153 -65v-126h-71zM184 257q0 -134 96 -160v325q-44 -12 -70 -53t-26 -104v-8z" />
    <glyph glyph-name="percent.tab" horiz-adv-x="800" 
d="M210 469q31 0 48.5 22.5t17.5 62.5q0 38 -17.5 61t-48.5 23t-48.5 -22t-17.5 -62q0 -41 17.5 -63t48.5 -22zM209 383q-75 0 -124 48.5t-49 121.5q0 72 50.5 120.5t123.5 48.5t123 -47.5t50 -119.5q0 -74 -49 -123t-125 -49zM123 0l466 715h90l-466 -715h-90zM591 76
q31 0 48 22t17 62q0 39 -17 61.5t-48 22.5t-49 -22.5t-18 -61.5q0 -41 18 -62.5t49 -21.5zM590 -11q-75 0 -124 48.5t-49 121.5q0 72 50.5 121t123.5 49t123 -47.5t50 -119.5q0 -74 -49 -123.5t-125 -49.5z" />
    <glyph glyph-name="perthousand.tab" horiz-adv-x="1000" 
d="M178 472q47 0 47 85t-47 85q-48 0 -48 -85t48 -85zM177 390q-65 0 -106 45.5t-41 120.5t42.5 120.5t105.5 45.5t105 -44t42 -119q0 -77 -41.5 -123t-106.5 -46zM63 0l466 715h88l-466 -715h-88zM498 71q47 0 47 86q0 85 -47 85t-47 -85q0 -86 47 -86zM498 -11
q-65 0 -106 45.5t-41 121.5q0 75 42 120.5t105 45.5q64 0 105.5 -44t41.5 -120q0 -77 -41 -123t-106 -46zM823 71q47 0 47 86q0 85 -47 85q-48 0 -48 -85q0 -86 48 -86zM822 -11q-65 0 -106 45.5t-41 121.5q0 75 42.5 120.5t105.5 45.5t105 -44t42 -120q0 -77 -41.5 -123
t-106.5 -46z" />
    <glyph glyph-name="plus.tab" 
d="M241 95v191h-175v109h175v191h118v-191h176v-109h-176v-191h-118z" />
    <glyph glyph-name="minus.tab" 
d="M65 284v113h471v-113h-471z" />
    <glyph glyph-name="multiply.tab" 
d="M147 105l-77 77l153 153l-154 154l77 78l154 -155l153 153l78 -77l-154 -153l155 -154l-78 -78l-154 155z" />
    <glyph glyph-name="divide.tab" 
d="M300 60q-35 0 -59 24t-24 58t24.5 58t58.5 24t58.5 -24t24.5 -58t-24 -58t-59 -24zM61 289v104h479v-104h-479zM300 458q-35 0 -59 24t-24 58t24 58t59 24t59 -24t24 -58t-24 -58t-59 -24z" />
    <glyph glyph-name="equal.tab" 
d="M78 178v103h444v-103h-444zM78 368v104h444v-104h-444z" />
    <glyph glyph-name="less.tab" 
d="M508 72l-421 236v29l421 235v-132l-226 -117l226 -121v-130z" />
    <glyph glyph-name="greater.tab" 
d="M93 73v132l225 117l-225 121v130l420 -236v-29z" />
    <glyph glyph-name="florin.tab" 
d="M95 312v102h109l20 134q24 176 201 176q43 0 75 -11v-110q-25 9 -57 9q-66 0 -77 -75l-18 -123h130v-102h-145l-72 -494h-144l72 494h-94z" />
    <glyph glyph-name="plusminus.tab" 
d="M241 165v171h-180v108h180v172h118v-172h180v-108h-180v-171h-118zM61 0v100h480v-100h-480z" />
    <glyph glyph-name="notequal.tab" 
d="M74 368v104h233l39 99h101l-39 -99h118v-104h-158l-33 -87h191v-103h-231l-38 -99h-101l38 99h-120v103h160l33 87h-193z" />
    <glyph glyph-name="approxequal.tab" 
d="M67 137q5 78 41 117.5t88 39.5q43 0 112.5 -21t91.5 -21q39 0 45 45h88q-4 -75 -40 -115.5t-87 -40.5q-44 0 -114 20.5t-91 20.5q-38 0 -46 -45h-88zM67 342q5 78 41 117t88 39q43 0 112.5 -20.5t91.5 -20.5q39 0 45 44h88q-4 -75 -40 -115.5t-87 -40.5q-44 0 -114 21
t-91 21q-38 0 -46 -45h-88z" />
    <glyph glyph-name="lessequal.tab" 
d="M499 134l-408 218v29l408 218v-130l-200 -102l200 -101v-132zM91 0v100h408v-100h-408z" />
    <glyph glyph-name="greaterequal.tab" 
d="M101 134v132l200 101l-200 102v130l408 -218v-29zM101 0v100h408v-100h-408z" />
    <glyph glyph-name="parenleft.tab" horiz-adv-x="300" 
d="M182 -148q-142 208 -142 461t142 461h110q-119 -208 -119 -461q0 -251 119 -461h-110z" />
    <glyph glyph-name="parenright.tab" horiz-adv-x="300" 
d="M8 -148q119 210 119 461q0 253 -119 461h110q142 -208 142 -461t-142 -461h-110z" />
    <glyph glyph-name="bracketleft.tab" horiz-adv-x="300" 
d="M54 -148v924h223v-99h-90v-726h90v-99h-223z" />
    <glyph glyph-name="bracketright.tab" horiz-adv-x="300" 
d="M23 -148v99h90v726h-90v99h223v-924h-223z" />
    <glyph glyph-name="braceleft.tab" horiz-adv-x="300" 
d="M277 -147q-126 0 -175.5 54t-26.5 171l19 93q8 42 -8 65.5t-67 32.5v94q51 8 67 31.5t8 64.5l-19 94q-24 119 25.5 172t176.5 53v-98q-53 -2 -69.5 -26t-6.5 -88l18 -104q10 -56 -14.5 -90t-84.5 -56q61 -21 85 -55t14 -90l-18 -104q-10 -64 7 -89.5t69 -27.5v-97z" />
    <glyph glyph-name="braceright.tab" horiz-adv-x="300" 
d="M23 -147v97q52 2 69 27.5t7 89.5l-18 104q-10 56 14 90t85 55q-60 22 -84.5 56t-14.5 90l18 104q10 64 -6.5 88t-69.5 26v98q127 0 176.5 -53t25.5 -172l-19 -94q-8 -41 8 -64.5t67 -31.5v-94q-51 -9 -67 -32.5t-8 -65.5l19 -93q23 -117 -26.5 -171t-175.5 -54z" />
    <glyph glyph-name="period.tab" horiz-adv-x="300" 
d="M149 -9q-37 0 -62.5 25.5t-25.5 62.5q0 36 25.5 61.5t62.5 25.5q38 0 64 -25.5t26 -61.5q0 -37 -26 -62.5t-64 -25.5z" />
    <glyph glyph-name="comma.tab" horiz-adv-x="300" 
d="M110 -123l-87 37l88 247l135 -51z" />
    <glyph glyph-name="colon.tab" horiz-adv-x="300" 
d="M149 -9q-37 0 -62.5 25.5t-25.5 62.5q0 36 25.5 61.5t62.5 25.5q38 0 64 -25.5t26 -61.5q0 -37 -26 -62.5t-64 -25.5zM149 281q-37 0 -62.5 25.5t-25.5 62.5q0 36 25.5 61.5t62.5 25.5q38 0 64 -25.5t26 -61.5q0 -37 -26 -62.5t-64 -25.5z" />
    <glyph glyph-name="semicolon.tab" horiz-adv-x="300" 
d="M92 -123l-87 37l88 247l135 -51zM154 281q-37 0 -62.5 25.5t-25.5 62.5q0 36 25.5 61.5t62.5 25.5q38 0 64 -25.5t26 -61.5q0 -37 -26 -62.5t-64 -25.5z" />
    <glyph glyph-name="space.tab" horiz-adv-x="300" 
 />
    <glyph glyph-name="dollar.oldtab" 
d="M268 -131v122q-117 9 -176 68.5t-65 156.5h140q6 -48 28 -76.5t73 -36.5v188q-115 18 -168.5 66t-53.5 142q0 84 60.5 140t161.5 63v87h69v-88q201 -19 219 -202h-136q-7 39 -26.5 61t-56.5 29v-172q115 -19 172 -65t57 -142q0 -89 -60.5 -150.5t-168.5 -69.5v-121h-69z
M426 194q0 36 -19 54.5t-70 30.5v-177q41 8 65 32.5t24 59.5zM182 511q0 -35 18 -53.5t68 -29.5v163q-41 -5 -63.5 -26.5t-22.5 -53.5z" />
    <glyph glyph-name="Euro.oldtab" 
d="M28 375v64h51q6 124 73 194t176 70q102 0 161 -56t66 -169h-131q-6 56 -28.5 82.5t-66.5 26.5q-103 0 -110 -148h168l-11 -64h-157v-59h145l-11 -65h-134q4 -75 30.5 -109.5t80.5 -34.5q47 0 71.5 28.5t31.5 90.5h129q-7 -118 -68 -177.5t-168 -59.5q-110 0 -175 68
t-72 194h-51v65h51v59h-51z" />
    <glyph glyph-name="sterling.oldtab" 
d="M37 288v97h50q-13 50 -13 103q0 99 69.5 157t172.5 58q110 0 169 -56t64 -159h-142q-7 51 -25.5 72.5t-60.5 21.5q-43 0 -66.5 -26t-23.5 -75q0 -46 8 -96h171v-97h-154q6 -39 6 -81q0 -29 -10 -59q15 -4 38.5 -13t40 -14t29.5 -5q64 0 70 66h136q-4 -87 -52 -139
t-127 -52q-49 0 -110.5 27.5t-79.5 27.5q-45 0 -51 -46h-122q3 46 28 86.5t66 59.5q10 28 10 61q0 29 -13 81h-78z" />
    <glyph glyph-name="yen.oldtab" 
d="M77 289v65h141l-180 340h160l114 -244l110 244h140l-172 -340h145v-65h-154v-59h154v-65h-154v-165h-153v165h-151v65h151v59h-151z" />
    <glyph glyph-name="zero.oldtab" 
d="M302 112q108 0 108 155v88q0 155 -109 155q-111 0 -111 -154v-90q0 -154 112 -154zM299 -11q-119 0 -188.5 75t-69.5 202v89q0 126 71.5 200.5t187.5 74.5q117 0 188 -73t71 -199v-89q0 -128 -70 -204t-190 -76z" />
    <glyph glyph-name="one.oldtab" 
d="M283 0v468l-186 -127v132l204 146h134v-619h-152z" />
    <glyph glyph-name="two.oldtab" 
d="M35 0v25l236 223q58 56 85 95.5t27 82.5q0 40 -23 63.5t-66 23.5q-90 0 -106 -122h-137q8 111 74 175t177 64q109 0 171.5 -53t62.5 -140q0 -60 -35 -110.5t-109 -119.5l-101 -93h251v-114h-507z" />
    <glyph glyph-name="three.oldtab" 
d="M295 -105q-126 0 -193.5 64t-71.5 172h139q10 -121 124 -121q58 0 86.5 28.5t28.5 79.5q0 104 -114 104h-53v103h50q53 0 79.5 26t26.5 73q0 42 -24 67t-71 25q-49 0 -79 -28.5t-35 -81.5h-136q5 98 73 161t181 63q109 0 170.5 -53t61.5 -139q0 -117 -111 -156
q62 -15 97.5 -57.5t35.5 -109.5q0 -101 -71 -160.5t-194 -59.5z" />
    <glyph glyph-name="four.oldtab" 
d="M342 -94v141h-318v50l276 521h187v-467h82v-104h-82v-141h-145zM163 151h182v346z" />
    <glyph glyph-name="five.oldtab" 
d="M295 -105q-120 0 -182.5 57.5t-67.5 159.5h137q7 -50 32 -75.5t80 -25.5q52 0 80.5 35t28.5 95q0 58 -30 91t-83 33q-84 0 -129 -58h-83l8 412h425v-120h-312l-3 -190q52 65 150 65q93 0 149 -61.5t56 -166.5q0 -115 -69.5 -183t-186.5 -68z" />
    <glyph glyph-name="six.oldtab" 
d="M313 -11q-134 0 -200 84.5t-66 231.5v65q0 168 76 261.5t204 93.5q98 0 157.5 -49t68.5 -146h-136q-14 80 -93 80q-129 0 -133 -242q56 87 160 87q96 0 154.5 -59t58.5 -163q0 -110 -68 -177t-183 -67zM313 103q49 0 81 34t32 89q0 58 -31.5 92.5t-82.5 34.5
q-50 0 -83.5 -33t-33.5 -87q0 -61 33 -95.5t85 -34.5z" />
    <glyph glyph-name="seven.oldtab" 
d="M120 -94l235 588h-306v124h506v-17l-273 -695h-162z" />
    <glyph glyph-name="eight.oldtab" 
d="M301 -11q-112 0 -185 56t-73 155q0 64 34.5 110t94.5 68q-102 41 -102 150q0 91 67.5 144t164.5 53q98 0 164 -53t66 -142q0 -107 -102 -151q61 -22 94.5 -67t33.5 -107q0 -101 -72 -158.5t-185 -57.5zM301 103q50 0 81 29.5t31 81.5q0 51 -30.5 80.5t-80.5 29.5
q-49 0 -81.5 -29.5t-32.5 -81.5q0 -50 32 -80t81 -30zM303 423q42 0 68 26.5t26 71.5q0 42 -27.5 68.5t-67.5 26.5q-41 0 -68.5 -26.5t-27.5 -69.5q0 -44 28.5 -70.5t68.5 -26.5z" />
    <glyph glyph-name="nine.oldtab" 
d="M281 -106q-106 0 -167.5 52.5t-69.5 150.5h134q16 -87 105 -87q66 0 95 57t31 180q-49 -83 -156 -83q-95 0 -155.5 59t-60.5 163q0 109 69.5 176.5t183.5 67.5q133 0 198.5 -83t65.5 -230v-70q0 -171 -69.5 -262t-203.5 -91zM291 267q50 0 83 33.5t33 86.5q0 61 -32.5 96
t-84.5 35q-49 0 -81.5 -34.5t-32.5 -89.5q0 -58 32 -92.5t83 -34.5z" />
    <glyph glyph-name="zero.num" horiz-adv-x="396" 
d="M198 429q63 0 63 100v10q0 99 -64 99q-62 0 -62 -100v-9q0 -100 63 -100zM196 345q-81 0 -125.5 48.5t-44.5 134.5v10q0 85 47.5 133.5t124.5 48.5t124.5 -46.5t47.5 -133.5v-9q0 -86 -46.5 -136t-127.5 -50z" />
    <glyph glyph-name="one.num" horiz-adv-x="266" 
d="M103 352v258l-82 -49v89l97 65h95v-363h-110z" />
    <glyph glyph-name="two.num" horiz-adv-x="329" 
d="M6 352v14l128 134q63 65 63 100q0 39 -38 39q-40 0 -47 -57h-99q3 67 43 102.5t108 35.5q67 0 103 -31t36 -82q0 -60 -72 -129l-49 -48h124v-78h-300z" />
    <glyph glyph-name="three.num" horiz-adv-x="351" 
d="M174 345q-76 0 -114.5 34t-40.5 92h96q5 -49 53 -49t48 41t-50 41h-29v64h28q49 0 49 40q0 36 -40 36q-43 0 -49 -45h-96q4 54 42 87.5t105 33.5q66 0 103.5 -27t37.5 -73q0 -60 -64 -78q33 -6 53 -28t20 -54q0 -53 -39.5 -84t-112.5 -31z" />
    <glyph glyph-name="four.num" horiz-adv-x="366" 
d="M195 352v69h-181v40l155 254h131v-221h47v-73h-47v-69h-105zM113 494h85v147z" />
    <glyph glyph-name="five.num" horiz-adv-x="343" 
d="M167 345q-72 0 -108.5 32.5t-38.5 85.5h99q7 -38 46 -38q21 0 32.5 14t11.5 37t-12 36t-34 13q-35 0 -51 -26h-78l8 216h255v-78h-178l-3 -84q29 41 90 41q51 0 81.5 -31t30.5 -86q0 -61 -40.5 -96.5t-110.5 -35.5z" />
    <glyph glyph-name="six.num" horiz-adv-x="365" 
d="M190 345q-85 0 -124.5 48t-39.5 131v10q0 86 47 136t123 50q128 0 139 -108h-99q-7 30 -39 30q-60 0 -63 -97q29 42 87 42q53 0 87.5 -29.5t34.5 -84.5q0 -58 -41 -93t-112 -35zM189 419q22 0 35.5 14.5t13.5 37.5t-13.5 37.5t-35.5 14.5t-35.5 -14.5t-13.5 -35.5
q0 -25 13.5 -39.5t35.5 -14.5z" />
    <glyph glyph-name="seven.num" horiz-adv-x="316" 
d="M65 352l105 277h-152v86h288v-11l-132 -352h-109z" />
    <glyph glyph-name="eight.num" horiz-adv-x="356" 
d="M178 345q-72 0 -114 28t-42 80q0 69 67 90q-52 21 -52 75q0 47 40.5 74.5t101.5 27.5q62 0 101.5 -27t39.5 -75q0 -53 -52 -74q66 -22 66 -87q0 -53 -41.5 -82.5t-114.5 -29.5zM178 420q22 0 35.5 12.5t13.5 33.5q0 20 -13.5 32.5t-35.5 12.5q-21 0 -35 -12.5t-14 -33.5
t14 -33t35 -12zM179 570q18 0 30 10.5t12 28.5t-12 28.5t-30 10.5t-30.5 -11t-12.5 -28t12.5 -28t30.5 -11z" />
    <glyph glyph-name="nine.num" horiz-adv-x="365" 
d="M173 345q-64 0 -102 29t-43 81h100q7 -31 44 -31q58 0 60 94q-30 -40 -83 -40q-56 0 -91 29t-35 85q0 58 41 93t111 35q82 0 124 -47.5t42 -129.5v-13q0 -88 -43.5 -136.5t-124.5 -48.5zM175 543q22 0 36 14t14 35q0 25 -13.5 40t-36.5 15q-22 0 -35 -15t-13 -38t13 -37
t35 -14z" />
    <glyph glyph-name="zero.den" horiz-adv-x="396" 
d="M198 78q63 0 63 100v9q0 99 -64 99q-62 0 -62 -99v-10q0 -99 63 -99zM196 -6q-81 0 -125.5 48t-44.5 134v10q0 85 47.5 133.5t124.5 48.5t124.5 -46.5t47.5 -132.5v-10q0 -86 -46.5 -135.5t-127.5 -49.5z" />
    <glyph glyph-name="one.den" horiz-adv-x="267" 
d="M103 0v258l-82 -49v90l97 64h95v-363h-110z" />
    <glyph glyph-name="two.den" horiz-adv-x="329" 
d="M6 0v15l128 134q63 63 63 100q0 39 -38 39q-40 0 -47 -58h-99q3 67 43 102.5t108 35.5q67 0 103 -31t36 -82q0 -60 -72 -129l-49 -47h124v-79h-300z" />
    <glyph glyph-name="three.den" horiz-adv-x="351" 
d="M174 -6q-76 0 -114.5 33.5t-40.5 91.5h96q5 -49 53 -49t48 42q0 41 -50 41h-29v64h28q49 0 49 39q0 36 -40 36q-43 0 -49 -44h-96q4 54 42 87t105 33q66 0 103.5 -27t37.5 -73q0 -59 -64 -78q33 -6 53 -27.5t20 -54.5q0 -53 -39.5 -83.5t-112.5 -30.5z" />
    <glyph glyph-name="four.den" horiz-adv-x="367" 
d="M195 0v69h-181v40l155 254h131v-220h47v-74h-47v-69h-105zM113 143h85v146z" />
    <glyph glyph-name="five.den" horiz-adv-x="344" 
d="M167 -6q-72 0 -108.5 32t-38.5 86h99q3 -19 13 -28.5t33 -9.5q21 0 32.5 13.5t11.5 37.5q0 23 -12 36t-34 13q-35 0 -51 -26h-78l8 215h255v-78h-178l-3 -84q29 41 90 41q51 0 81.5 -30.5t30.5 -85.5q0 -62 -40.5 -97t-110.5 -35z" />
    <glyph glyph-name="six.den" horiz-adv-x="366" 
d="M190 -6q-164 0 -164 178v10q0 87 47 136.5t123 49.5q128 0 139 -108h-99q-7 30 -39 30q-60 0 -63 -96q30 42 87 42q53 0 87.5 -29.5t34.5 -84.5q0 -58 -41 -93t-112 -35zM189 68q22 0 35.5 14.5t13.5 37.5t-13.5 37.5t-35.5 14.5t-35.5 -14.5t-13.5 -36.5
q0 -24 13.5 -38.5t35.5 -14.5z" />
    <glyph glyph-name="seven.den" horiz-adv-x="316" 
d="M65 0l105 277h-152v86h288v-11l-132 -352h-109z" />
    <glyph glyph-name="eight.den" horiz-adv-x="356" 
d="M178 -6q-73 0 -114.5 28t-41.5 80q0 68 67 89q-52 23 -52 75q0 47 40.5 74.5t101.5 27.5q62 0 101.5 -27t39.5 -74q0 -54 -52 -75q66 -21 66 -87q0 -53 -41.5 -82t-114.5 -29zM178 68q22 0 35.5 12.5t13.5 33.5t-13.5 33t-35.5 12q-21 0 -35 -12.5t-14 -33.5
q0 -20 14 -32.5t35 -12.5zM179 218q18 0 30 11t12 29t-12 28.5t-30 10.5t-30.5 -11t-12.5 -29q0 -17 12.5 -28t30.5 -11z" />
    <glyph glyph-name="nine.den" horiz-adv-x="366" 
d="M173 -6q-64 0 -102 28.5t-43 81.5h100q7 -32 44 -32q58 0 60 95q-30 -41 -83 -41q-56 0 -91 29.5t-35 85.5q0 58 41 93t111 35q82 0 124 -48t42 -130v-12q0 -89 -43.5 -137t-124.5 -48zM175 191q22 0 36 14t14 35q0 25 -13.5 40t-36.5 15q-22 0 -35 -14.5t-13 -38.5
q0 -22 13 -36.5t35 -14.5z" />
    <glyph glyph-name="zero.sub" horiz-adv-x="396" 
d="M198 -30q63 0 63 100v10q0 99 -64 99q-62 0 -62 -100v-9q0 -100 63 -100zM196 -114q-81 0 -125.5 48.5t-44.5 134.5v10q0 85 47.5 133.5t124.5 48.5t124.5 -46.5t47.5 -133.5v-9q0 -86 -46.5 -136t-127.5 -50z" />
    <glyph glyph-name="one.sub" horiz-adv-x="267" 
d="M103 -108v258l-82 -49v90l97 64h95v-363h-110z" />
    <glyph glyph-name="two.sub" horiz-adv-x="329" 
d="M6 -107v14l128 134q63 65 63 100q0 39 -38 39q-40 0 -47 -57h-99q3 67 43 102.5t108 35.5q67 0 103 -31t36 -82q0 -60 -72 -129l-49 -48h124v-78h-300z" />
    <glyph glyph-name="three.sub" horiz-adv-x="351" 
d="M174 -114q-76 0 -114.5 34t-40.5 92h96q5 -49 53 -49t48 41t-50 41h-29v64h28q49 0 49 40q0 36 -40 36q-43 0 -49 -45h-96q4 54 42 87.5t105 33.5q66 0 103.5 -27t37.5 -73q0 -60 -64 -78q33 -6 53 -28t20 -54q0 -53 -39.5 -84t-112.5 -31z" />
    <glyph glyph-name="four.sub" horiz-adv-x="367" 
d="M195 -107v69h-181v40l155 254h131v-221h47v-73h-47v-69h-105zM113 35h85v147z" />
    <glyph glyph-name="five.sub" horiz-adv-x="344" 
d="M167 -114q-72 0 -108.5 32.5t-38.5 85.5h99q7 -38 46 -38q21 0 32.5 14t11.5 37t-12 36t-34 13q-35 0 -51 -26h-78l8 216h255v-78h-178l-3 -84q29 41 90 41q51 0 81.5 -31t30.5 -86q0 -61 -40.5 -96.5t-110.5 -35.5z" />
    <glyph glyph-name="six.sub" horiz-adv-x="366" 
d="M190 -114q-85 0 -124.5 48t-39.5 131v10q0 86 47 136t123 50q128 0 139 -108h-99q-7 30 -39 30q-60 0 -63 -97q29 42 87 42q53 0 87.5 -29.5t34.5 -84.5q0 -58 -41 -93t-112 -35zM189 -40q22 0 35.5 14.5t13.5 37.5t-13.5 37.5t-35.5 14.5t-35.5 -14.5t-13.5 -35.5
q0 -25 13.5 -39.5t35.5 -14.5z" />
    <glyph glyph-name="seven.sub" horiz-adv-x="316" 
d="M65 -107l105 277h-152v86h288v-11l-132 -352h-109z" />
    <glyph glyph-name="eight.sub" horiz-adv-x="356" 
d="M178 -114q-72 0 -114 28t-42 80q0 69 67 90q-52 21 -52 75q0 47 40.5 74.5t101.5 27.5q62 0 101.5 -27t39.5 -75q0 -53 -52 -74q66 -22 66 -87q0 -53 -41.5 -82.5t-114.5 -29.5zM178 -39q22 0 35.5 12.5t13.5 33.5q0 20 -13.5 32.5t-35.5 12.5q-21 0 -35 -12.5t-14 -33.5
t14 -33t35 -12zM179 111q18 0 30 10.5t12 28.5t-12 28.5t-30 10.5t-30.5 -11t-12.5 -28t12.5 -28t30.5 -11z" />
    <glyph glyph-name="nine.sub" horiz-adv-x="366" 
d="M173 -114q-64 0 -102 29t-43 81h100q7 -31 44 -31q58 0 60 94q-30 -40 -83 -40q-56 0 -91 29t-35 85q0 58 41 93t111 35q82 0 124 -47.5t42 -129.5v-13q0 -88 -43.5 -136.5t-124.5 -48.5zM175 84q22 0 36 14t14 35q0 25 -13.5 40t-36.5 15q-22 0 -35 -15t-13 -38t13 -37
t35 -14z" />
    <glyph glyph-name="plus.sub" horiz-adv-x="351" 
d="M135 -63v101h-98v78h98v102h80v-102h99v-78h-99v-101h-80z" />
    <glyph glyph-name="minus.sub" horiz-adv-x="351" 
d="M37 38v78h277v-78h-277z" />
    <glyph glyph-name="zero.sup" horiz-adv-x="396" 
d="M198 487q63 0 63 100v10q0 99 -64 99q-62 0 -62 -100v-9q0 -100 63 -100zM196 403q-81 0 -125.5 48.5t-44.5 134.5v10q0 85 47.5 133.5t124.5 48.5t124.5 -46.5t47.5 -133.5v-9q0 -86 -46.5 -136t-127.5 -50z" />
    <glyph glyph-name="one.sup" horiz-adv-x="267" 
d="M103 410v258l-82 -49v89l97 65h95v-363h-110z" />
    <glyph glyph-name="two.sup" horiz-adv-x="329" 
d="M6 410v14l128 134q63 65 63 100q0 39 -38 39q-40 0 -47 -57h-99q3 67 43 102.5t108 35.5q67 0 103 -31t36 -82q0 -60 -72 -129l-49 -48h124v-78h-300z" />
    <glyph glyph-name="three.sup" horiz-adv-x="351" 
d="M174 403q-76 0 -114.5 34t-40.5 92h96q5 -49 53 -49t48 41t-50 41h-29v64h28q49 0 49 40q0 36 -40 36q-43 0 -49 -45h-96q4 54 42 87.5t105 33.5q66 0 103.5 -27t37.5 -73q0 -60 -64 -78q33 -6 53 -28t20 -54q0 -53 -39.5 -84t-112.5 -31z" />
    <glyph glyph-name="four.sup" horiz-adv-x="367" 
d="M195 410v69h-181v40l155 254h131v-221h47v-73h-47v-69h-105zM113 552h85v147z" />
    <glyph glyph-name="five.sup" horiz-adv-x="344" 
d="M167 403q-72 0 -108.5 32.5t-38.5 85.5h99q7 -38 46 -38q21 0 32.5 14t11.5 37t-12 36t-34 13q-35 0 -51 -26h-78l8 216h255v-78h-178l-3 -84q29 41 90 41q51 0 81.5 -31t30.5 -86q0 -61 -40.5 -96.5t-110.5 -35.5z" />
    <glyph glyph-name="six.sup" horiz-adv-x="366" 
d="M190 403q-85 0 -124.5 48t-39.5 131v10q0 86 47 136t123 50q128 0 139 -108h-99q-7 30 -39 30q-60 0 -63 -97q29 42 87 42q53 0 87.5 -29.5t34.5 -84.5q0 -58 -41 -93t-112 -35zM189 477q22 0 35.5 14.5t13.5 37.5t-13.5 37.5t-35.5 14.5t-35.5 -14.5t-13.5 -35.5
q0 -25 13.5 -39.5t35.5 -14.5z" />
    <glyph glyph-name="seven.sup" horiz-adv-x="316" 
d="M65 410l105 277h-152v86h288v-11l-132 -352h-109z" />
    <glyph glyph-name="eight.sup" horiz-adv-x="356" 
d="M178 403q-72 0 -114 28t-42 80q0 69 67 90q-52 21 -52 75q0 47 40.5 74.5t101.5 27.5q62 0 101.5 -27t39.5 -75q0 -53 -52 -74q66 -22 66 -87q0 -53 -41.5 -82.5t-114.5 -29.5zM178 478q22 0 35.5 12.5t13.5 33.5q0 20 -13.5 32.5t-35.5 12.5q-21 0 -35 -12.5t-14 -33.5
t14 -33t35 -12zM179 628q18 0 30 10.5t12 28.5t-12 28.5t-30 10.5t-30.5 -11t-12.5 -28t12.5 -28t30.5 -11z" />
    <glyph glyph-name="nine.sup" horiz-adv-x="366" 
d="M173 403q-64 0 -102 29t-43 81h100q7 -31 44 -31q58 0 60 94q-30 -40 -83 -40q-56 0 -91 29t-35 85q0 58 41 93t111 35q82 0 124 -47.5t42 -129.5v-13q0 -88 -43.5 -136.5t-124.5 -48.5zM175 601q22 0 36 14t14 35q0 25 -13.5 40t-36.5 15q-22 0 -35 -15t-13 -38t13 -37
t35 -14z" />
    <glyph glyph-name="plus.sup" horiz-adv-x="351" 
d="M135 454v101h-98v78h98v102h80v-102h99v-78h-99v-101h-80z" />
    <glyph glyph-name="minus.sup" horiz-adv-x="351" 
d="M37 555v78h277v-78h-277z" />
    <glyph glyph-name="a.alt" horiz-adv-x="627" 
d="M256 -11q-94 0 -158.5 70t-64.5 195v8q0 125 65.5 199t161.5 74q109 0 159 -89v77h144v-523h-144v85q-22 -41 -66 -68.5t-97 -27.5zM298 102q56 0 90.5 40t34.5 117v8q0 78 -32 117.5t-88 39.5q-57 0 -89.5 -41t-32.5 -118v-8q0 -75 32.5 -115t84.5 -40z" />
    <glyph glyph-name="t.alt" horiz-adv-x="364" 
d="M94 0v420h-75v103h75v113h145v-113h102v-103h-102v-420h-145z" />
    <glyph glyph-name="germandbls.alt" horiz-adv-x="664" 
d="M446 -9q-91 0 -142 43t-53 119h127q5 -63 61 -63q58 0 58 60q0 18 -12 33t-26 24t-45 24q-5 3 -8 4q-27 14 -44 24.5t-37.5 28t-30.5 39.5t-10 49q0 32 19.5 63.5t42.5 52.5t42.5 47t19.5 48q0 71 -87 71q-53 0 -83 -30.5t-30 -88.5v-539h-144v536q0 107 72 169.5
t187 62.5q101 0 163.5 -43.5t62.5 -119.5q0 -32 -13.5 -60.5t-32 -47.5t-37.5 -35.5t-32.5 -32t-13.5 -30.5q0 -5 1.5 -9t6 -8.5t9 -8t14.5 -9.5t17.5 -10t23.5 -12.5t28 -15.5q116 -67 116 -164q0 -82 -52 -126.5t-138 -44.5z" />
    <glyph glyph-name="aacute.alt" horiz-adv-x="627" 
d="M255 594l57 159h152l-104 -159h-105zM256 -11q-94 0 -158.5 70t-64.5 195v8q0 125 65.5 199t161.5 74q109 0 159 -89v77h144v-523h-144v85q-22 -41 -66 -68.5t-97 -27.5zM298 102q56 0 90.5 40t34.5 117v8q0 78 -32 117.5t-88 39.5q-57 0 -89.5 -41t-32.5 -118v-8
q0 -75 32.5 -115t84.5 -40z" />
    <glyph glyph-name="abreve.alt" horiz-adv-x="627" 
d="M256 -11q-94 0 -158.5 70t-64.5 195v8q0 125 65.5 199t161.5 74q109 0 159 -89v77h144v-523h-144v85q-22 -41 -66 -68.5t-97 -27.5zM298 102q56 0 90.5 40t34.5 117v8q0 78 -32 117.5t-88 39.5q-57 0 -89.5 -41t-32.5 -118v-8q0 -75 32.5 -115t84.5 -40zM313 598
q-66 0 -107 40t-45 109h95q7 -54 57 -54q51 0 61 54h93q-4 -68 -46.5 -108.5t-107.5 -40.5z" />
    <glyph glyph-name="acircumflex.alt" horiz-adv-x="627" 
d="M144 595l117 156h109l114 -156h-102l-69 63l-70 -63h-99zM256 -11q-94 0 -158.5 70t-64.5 195v8q0 125 65.5 199t161.5 74q109 0 159 -89v77h144v-523h-144v85q-22 -41 -66 -68.5t-97 -27.5zM298 102q56 0 90.5 40t34.5 117v8q0 78 -32 117.5t-88 39.5q-57 0 -89.5 -41
t-32.5 -118v-8q0 -75 32.5 -115t84.5 -40z" />
    <glyph glyph-name="adieresis.alt" horiz-adv-x="627" 
d="M213 600q-31 0 -52.5 21t-21.5 51t21.5 51t52.5 21t52.5 -21t21.5 -51t-21.5 -51t-52.5 -21zM417 600q-31 0 -52.5 21t-21.5 51t21.5 51t52.5 21t52.5 -21t21.5 -51t-21.5 -51t-52.5 -21zM256 -11q-94 0 -158.5 70t-64.5 195v8q0 125 65.5 199t161.5 74q109 0 159 -89v77
h144v-523h-144v85q-22 -41 -66 -68.5t-97 -27.5zM298 102q56 0 90.5 40t34.5 117v8q0 78 -32 117.5t-88 39.5q-57 0 -89.5 -41t-32.5 -118v-8q0 -75 32.5 -115t84.5 -40z" />
    <glyph glyph-name="agrave.alt" horiz-adv-x="627" 
d="M256 -11q-94 0 -158.5 70t-64.5 195v8q0 125 65.5 199t161.5 74q109 0 159 -89v77h144v-523h-144v85q-22 -41 -66 -68.5t-97 -27.5zM298 102q56 0 90.5 40t34.5 117v8q0 78 -32 117.5t-88 39.5q-57 0 -89.5 -41t-32.5 -118v-8q0 -75 32.5 -115t84.5 -40zM267 594
l-104 159h152l57 -159h-105z" />
    <glyph glyph-name="amacron.alt" horiz-adv-x="627" 
d="M256 -11q-94 0 -158.5 70t-64.5 195v8q0 125 65.5 199t161.5 74q109 0 159 -89v77h144v-523h-144v85q-22 -41 -66 -68.5t-97 -27.5zM298 102q56 0 90.5 40t34.5 117v8q0 78 -32 117.5t-88 39.5q-57 0 -89.5 -41t-32.5 -118v-8q0 -75 32.5 -115t84.5 -40zM168 625v87h291
v-87h-291z" />
    <glyph glyph-name="aogonek.alt" horiz-adv-x="627" 
d="M490 -182q-51 0 -81.5 21.5t-30.5 59.5q0 60 83 101h-42v85q-22 -41 -66 -68.5t-97 -27.5q-94 0 -158.5 70t-64.5 195v8q0 125 65.5 199t161.5 74q109 0 159 -89v77h144v-514q-64 -43 -64 -80q0 -31 33 -31q23 0 38 7v-72q-32 -15 -80 -15zM298 102q56 0 90.5 40
t34.5 117v8q0 78 -32 117.5t-88 39.5q-57 0 -89.5 -41t-32.5 -118v-8q0 -75 32.5 -115t84.5 -40z" />
    <glyph glyph-name="aring.alt" horiz-adv-x="627" 
d="M310 643q21 0 34.5 15t13.5 38t-13.5 38t-34.5 15t-34.5 -15t-13.5 -38t13.5 -38t34.5 -15zM310 585q-47 0 -80.5 32.5t-33.5 78.5q0 45 33.5 77.5t80.5 32.5t80.5 -32.5t33.5 -77.5q0 -46 -33.5 -78.5t-80.5 -32.5zM256 -11q-94 0 -158.5 70t-64.5 195v8q0 125 65.5 199
t161.5 74q109 0 159 -89v77h144v-523h-144v85q-22 -41 -66 -68.5t-97 -27.5zM298 102q56 0 90.5 40t34.5 117v8q0 78 -32 117.5t-88 39.5q-57 0 -89.5 -41t-32.5 -118v-8q0 -75 32.5 -115t84.5 -40z" />
    <glyph glyph-name="aringacute.alt" horiz-adv-x="627" 
d="M310 632q21 0 34.5 15t13.5 38t-13.5 38t-34.5 15t-34.5 -15t-13.5 -38t13.5 -38t34.5 -15zM310 574q-47 0 -80.5 32.5t-33.5 78.5q0 45 33.5 77.5t80.5 32.5t80.5 -32.5t33.5 -77.5q0 -46 -33.5 -78.5t-80.5 -32.5zM256 -11q-94 0 -158.5 70t-64.5 195v8q0 125 65.5 199
t161.5 74q109 0 159 -89v77h144v-523h-144v85q-22 -41 -66 -68.5t-97 -27.5zM298 102q56 0 90.5 40t34.5 117v8q0 78 -32 117.5t-88 39.5q-57 0 -89.5 -41t-32.5 -118v-8q0 -75 32.5 -115t84.5 -40zM261 828l53 139h157l-101 -139h-109z" />
    <glyph glyph-name="atilde.alt" horiz-adv-x="627" 
d="M256 -11q-94 0 -158.5 70t-64.5 195v8q0 125 65.5 199t161.5 74q109 0 159 -89v77h144v-523h-144v85q-22 -41 -66 -68.5t-97 -27.5zM298 102q56 0 90.5 40t34.5 117v8q0 78 -32 117.5t-88 39.5q-57 0 -89.5 -41t-32.5 -118v-8q0 -75 32.5 -115t84.5 -40zM373 598
q-28 0 -64.5 19t-48.5 19q-13 0 -22.5 -10.5t-12.5 -26.5h-83q5 68 35 104.5t75 36.5q27 0 64 -18.5t51 -18.5q27 0 34 37h84q-6 -68 -37 -105t-75 -37z" />
    <glyph glyph-name="tbar.alt" horiz-adv-x="364" 
d="M19 250v85h75v85h-75v103h75v113h145v-113h102v-103h-102v-85h102v-85h-102v-250h-145v250h-75z" />
    <glyph glyph-name="tcaron.alt" horiz-adv-x="364" 
d="M94 0v420h-75v103h75v113h145v-113h102v-103h-102v-420h-145zM288 586l10 174h119l-49 -174h-80z" />
    <glyph glyph-name="tcommaaccent.alt" horiz-adv-x="364" 
d="M145 -228l-82 27l47 170l130 -21zM94 0v420h-75v103h75v113h145v-113h102v-103h-102v-420h-145z" />
    <glyph glyph-name="f.short" horiz-adv-x="360" 
d="M88 0v420h-69v103h69v60q0 90 49 136.5t137 46.5q41 0 71 -9v-109q-21 8 -49 8q-64 0 -64 -69v-64h113v-103h-113v-420h-144z" />
    <glyph glyph-name="f_f.short" horiz-adv-x="675" 
d="M88 0v420h-69v103h69v54q0 90 49 136.5t137 46.5q38 0 74 -11v-108q-28 8 -52 8q-64 0 -64 -69v-57h171v60q0 90 48.5 136.5t137.5 46.5q41 0 71 -9v-109q-22 8 -49 8q-64 0 -64 -69v-64h113v-103h-113v-420h-144v420h-171v-420h-144z" />
    <glyph glyph-name="questiondown.uc" horiz-adv-x="532" 
d="M359 492v-30q0 -28 -7.5 -52t-25.5 -48t-29.5 -36t-36.5 -37q-34 -32 -51 -56t-17 -51q0 -74 77 -74q41 0 67.5 27.5t31.5 75.5h139q-4 -103 -71.5 -162t-175.5 -59t-165.5 49t-57.5 131q0 47 21.5 83t60.5 74q6 6 23.5 22.5t24.5 23t20 21t19 24.5t12 23t7 26v25h134z
M293 724q38 0 64.5 -25t26.5 -61q0 -37 -26.5 -62t-64.5 -25t-64.5 25t-26.5 62q0 36 26.5 61t64.5 25z" />
    <glyph glyph-name="exclamdown.uc" horiz-adv-x="317" 
d="M77 0l22 492h118l22 -492h-162zM159 551q-38 0 -65 25.5t-27 61.5t27 61t65 25t64.5 -25t26.5 -61q0 -37 -26.5 -62t-64.5 -25z" />
    <glyph glyph-name="hyphen.uc" horiz-adv-x="390" 
d="M54 267v119h282v-119h-282z" />
    <glyph glyph-name="endash.uc" horiz-adv-x="535" 
d="M45 282v92h445v-92h-445z" />
    <glyph glyph-name="emdash.uc" horiz-adv-x="924" 
d="M45 282v92h834v-92h-834z" />
    <glyph glyph-name="guilsinglleft.uc" horiz-adv-x="312" 
d="M168 109l-127 192l127 192h107l-122 -192l122 -192h-107z" />
    <glyph glyph-name="guilsinglright.uc" horiz-adv-x="312" 
d="M38 109l121 192l-121 192h107l126 -192l-126 -192h-107z" />
    <glyph glyph-name="guillemotleft.uc" horiz-adv-x="487" 
d="M168 109l-127 192l127 192h103l-122 -192l122 -192h-103zM347 109l-127 192l127 192h103l-122 -192l122 -192h-103z" />
    <glyph glyph-name="guillemotright.uc" horiz-adv-x="487" 
d="M38 109l121 192l-121 192h103l126 -192l-126 -192h-103zM217 109l121 192l-121 192h103l126 -192l-126 -192h-103z" />
    <glyph glyph-name="parenleft.uc" horiz-adv-x="343" 
d="M210 -98q-164 195 -164 441t164 441h119q-143 -203 -143 -441t143 -441h-119z" />
    <glyph glyph-name="parenright.uc" horiz-adv-x="343" 
d="M15 -98q142 204 142 441t-142 441h118q165 -196 165 -441t-165 -441h-118z" />
    <glyph glyph-name="bracketleft.uc" horiz-adv-x="390" 
d="M74 -90v871h276v-107h-131v-657h131v-107h-276z" />
    <glyph glyph-name="bracketright.uc" horiz-adv-x="390" 
d="M41 -90v107h130v657h-130v107h275v-871h-275z" />
    <glyph glyph-name="braceleft.uc" horiz-adv-x="405" 
d="M364 -92q-139 0 -198.5 50.5t-41.5 162.5l12 78q7 43 -17 69t-85 26v103q61 0 85 26t17 68l-12 78q-18 114 41.5 163.5t198.5 49.5v-106q-64 -2 -85 -23.5t-14 -80.5l11 -93q6 -52 -20.5 -86t-80.5 -47q113 -26 101 -132l-11 -93q-7 -60 14.5 -82.5t84.5 -24.5v-106z" />
    <glyph glyph-name="braceright.uc" horiz-adv-x="405" 
d="M40 -92v106q64 2 85.5 24.5t13.5 82.5l-11 93q-6 52 21 86t81 46q-54 13 -81 47t-21 86l11 93q8 59 -13.5 80.5t-85.5 23.5v106q140 0 199.5 -49.5t41.5 -163.5l-12 -78q-7 -42 16.5 -68t84.5 -26v-103q-61 0 -84.5 -26t-16.5 -69l12 -78q17 -112 -43 -162.5t-198 -50.5z
" />
    <glyph glyph-name="slash.uc" horiz-adv-x="423" 
d="M6 -84l288 861h119l-288 -861h-119z" />
    <glyph glyph-name="backslash.uc" horiz-adv-x="423" 
d="M297 -84l-287 861h118l288 -861h-119z" />
    <glyph glyph-name="bar.uc" horiz-adv-x="262" 
d="M79 -84v861h104v-861h-104z" />
    <glyph glyph-name="at.uc" horiz-adv-x="919" 
d="M460 -72q-192 0 -305.5 115.5t-113.5 285.5q0 185 128.5 306t305.5 121q176 0 289 -100t113 -258q0 -133 -60.5 -197.5t-142.5 -64.5q-114 0 -133 81q-20 -39 -56 -62t-81 -23q-72 0 -115.5 48t-43.5 130q0 101 55.5 165.5t137.5 64.5q86 0 112 -62l7 54h123l-31 -261
q-9 -69 43 -69q45 0 76 49t31 148q0 130 -87 209.5t-236 79.5q-152 0 -252 -99t-100 -260q0 -145 88 -239t250 -94q153 0 244 83h86q-46 -69 -134.5 -110t-197.5 -41zM441 228q39 0 67 36.5t28 95.5q0 40 -20 61.5t-57 21.5q-38 0 -63 -35t-25 -93q0 -39 18.5 -63t51.5 -24z
" />
    </font>
</defs>
</svg>
