<?xml version="1.0" standalone="no"?>
<!DOCTYPE svg PUBLIC "-//W3C//DTD SVG 1.1//EN" "http://www.w3.org/Graphics/SVG/1.1/DTD/svg11.dtd" >
<svg>
<metadata>
Created by FontForge 20120731 at Sun Aug 28 06:44:33 2016
 By ,,,
(c)2009 Commercial Type.
</metadata>
<defs>
<font id="Graphik-Super" horiz-adv-x="600" >
  <font-face 
    font-family="Graphik Super"
    font-weight="950"
    font-stretch="normal"
    units-per-em="1000"
    panose-1="2 11 11 3 3 2 2 6 2 3"
    ascent="828"
    descent="-172"
    x-height="523"
    cap-height="715"
    bbox="-250 -236 1252 1150"
    underline-thickness="50"
    underline-position="-50"
    unicode-range="U+0020-FB02"
  />
<missing-glyph horiz-adv-x="529" 
 />
    <glyph glyph-name="f_f" unicode="ff" horiz-adv-x="758" 
d="M68 0v374h-61v149h61v20q0 103 61.5 153.5t167.5 50.5q45 0 89 -11v-162q-20 5 -41 5q-49 0 -49 -40v-16h124v26q0 103 62.5 153.5t168.5 50.5q44 0 92 -11v-162q-20 5 -44 5q-51 0 -51 -40v-22h95v-149h-95v-374h-228v374h-124v-374h-228z" />
    <glyph glyph-name=".notdef" horiz-adv-x="529" 
 />
    <glyph glyph-name=".null" horiz-adv-x="0" 
 />
    <glyph glyph-name="nonmarkingreturn" horiz-adv-x="333" 
 />
    <glyph glyph-name="space" unicode=" " horiz-adv-x="162" 
 />
    <glyph glyph-name="exclam" unicode="!" horiz-adv-x="358" 
d="M179 -14q-53 0 -90.5 34t-37.5 83t37.5 83.5t90.5 34.5t91 -34.5t38 -83.5t-38 -83t-91 -34zM83 252l-33 463h258l-33 -463h-192z" />
    <glyph glyph-name="quotedbl" unicode="&#x22;" horiz-adv-x="507" 
d="M54 424l-24 291h209l-24 -291h-161zM292 424l-24 291h209l-24 -291h-161z" />
    <glyph glyph-name="numbersign" unicode="#" horiz-adv-x="613" 
d="M280 99l18 121h-45l-18 -121h-148l18 121h-61v178h87l7 46h-72v168h97l16 103h148l-16 -103h45l16 103h148l-16 -103h65v-168h-90l-7 -46h75v-178h-101l-18 -121h-148zM286 444l-7 -46h45l7 46h-45z" />
    <glyph glyph-name="dollar" unicode="$" horiz-adv-x="657" 
d="M290 -135v124q-130 9 -201.5 72t-75.5 169h225q3 -55 52 -71v100q-147 19 -207.5 72t-60.5 160q0 99 71.5 162.5t196.5 71.5v88h88v-89q245 -19 260 -227h-221q-3 43 -39 55v-97q130 -17 199 -65t69 -152q0 -103 -65.5 -171.5t-202.5 -77.5v-124h-88zM241 511
q0 -34 49 -45v90q-49 -10 -49 -45zM424 203q0 29 -46 42v-89q46 10 46 47z" />
    <glyph glyph-name="percent" unicode="%" horiz-adv-x="849" 
d="M223 479q42 0 42 63q0 61 -42 61q-21 0 -32 -16t-11 -44q0 -64 43 -64zM222 354q-98 0 -150 52.5t-52 135.5q0 78 57 130t146 52q88 0 145 -50t57 -128q0 -83 -54 -137.5t-149 -54.5zM109 0l527 715h109l-527 -715h-109zM627 111q42 0 42 63q0 61 -42 61q-21 0 -32 -16
t-11 -44q0 -64 43 -64zM626 -14q-98 0 -150 52.5t-52 135.5q0 78 57 130t146 52q88 0 145 -50t57 -128q0 -83 -54 -137.5t-149 -54.5z" />
    <glyph glyph-name="ampersand" unicode="&#x26;" horiz-adv-x="804" 
d="M794 374l-114 -228l118 -146h-294l-28 35q-79 -49 -190 -49q-124 0 -194 59t-70 167q0 133 154 204q-34 51 -34 112q0 94 73.5 146.5t186.5 52.5q104 0 172.5 -45.5t68.5 -131.5q0 -113 -139 -173l59 -73l34 70h197zM333 159q16 0 35 7l-90 111q-16 -21 -16 -44
q0 -32 18 -53t53 -21zM361 525q0 -26 34 -62q52 28 52 63q0 21 -11 33t-30 12q-20 0 -32.5 -13t-12.5 -33z" />
    <glyph glyph-name="quotesingle" unicode="'" horiz-adv-x="279" 
d="M54 424l-24 291h219l-24 -291h-171z" />
    <glyph glyph-name="parenleft" unicode="(" horiz-adv-x="373" 
d="M197 -148q-167 203 -167 462q0 84 15.5 158t43 131.5t52 95.5t56.5 77h169q-121 -217 -121 -462t121 -462h-169z" />
    <glyph glyph-name="parenright" unicode=")" horiz-adv-x="373" 
d="M7 -148q121 217 121 462t-121 462h169q32 -39 56.5 -77t52 -95.5t43 -131.5t15.5 -158q0 -259 -167 -462h-169z" />
    <glyph glyph-name="asterisk" unicode="*" horiz-adv-x="450" 
d="M178 350l-134 95l92 79l-114 5l41 152l105 -55l-32 117h178l-32 -117l105 55l41 -152l-114 -5l92 -79l-134 -95l-47 112z" />
    <glyph glyph-name="plus" unicode="+" horiz-adv-x="596" 
d="M208 72v186h-170v162h170v186h180v-186h170v-162h-170v-186h-180z" />
    <glyph glyph-name="comma" unicode="," horiz-adv-x="319" 
d="M139 -122l-133 48l77 286l211 -70z" />
    <glyph glyph-name="hyphen" unicode="-" horiz-adv-x="406" 
d="M46 208v165h314v-165h-314z" />
    <glyph glyph-name="period" unicode="." horiz-adv-x="308" 
d="M152 -14q-53 0 -87.5 34.5t-34.5 85.5q0 50 34.5 85t87.5 35q54 0 90 -35t36 -85q0 -51 -36 -85.5t-90 -34.5z" />
    <glyph glyph-name="slash" unicode="/" horiz-adv-x="450" 
d="M-40 -148l331 924h177l-331 -924h-177z" />
    <glyph glyph-name="zero" unicode="0" horiz-adv-x="758" 
d="M381 190q50 0 69.5 36.5t19.5 119.5v23q0 86 -20 121.5t-71 35.5t-71 -36t-20 -120v-24q0 -85 20 -120.5t73 -35.5zM372 -14q-164 0 -256 93t-92 266v24q0 169 100 263t254 94q156 0 256 -88t100 -263v-23q0 -174 -98 -270t-264 -96z" />
    <glyph glyph-name="one" unicode="1" horiz-adv-x="476" 
d="M155 0v453l-124 -68v218l163 112h227v-715h-266z" />
    <glyph glyph-name="two" unicode="2" horiz-adv-x="646" 
d="M3 0v34l232 247q65 69 95 112t30 80q0 55 -48 55q-27 0 -42.5 -21t-20.5 -72h-239q4 146 86.5 218.5t230.5 72.5q142 0 218 -66t76 -173q0 -72 -32.5 -126.5t-97.5 -117.5l-50 -48h186v-195h-624z" />
    <glyph glyph-name="three" unicode="3" horiz-adv-x="677" 
d="M345 -14q-164 0 -241 65.5t-82 196.5h235q3 -37 19 -55.5t51 -18.5q58 0 58 53q0 55 -65 55h-58v155h55q74 0 74 57q0 46 -56 46q-52 0 -64 -69h-234q9 121 84 188t221 67q140 0 218 -52t78 -148q0 -60 -32.5 -99t-92.5 -54q63 -11 101.5 -52t38.5 -101q0 -108 -78 -171
t-230 -63z" />
    <glyph glyph-name="four" unicode="4" horiz-adv-x="709" 
d="M350 0v130h-343v102l284 483h314v-407h88v-178h-88v-130h-255zM243 308h114v207z" />
    <glyph glyph-name="five" unicode="5" horiz-adv-x="654" 
d="M320 -14q-149 0 -225 70.5t-78 184.5h240q2 -28 16 -42.5t45 -14.5q49 0 49 64q0 68 -69 68q-60 0 -92 -42h-169l23 441h524v-189h-336l-7 -126q55 89 178 89q100 0 157 -63.5t57 -182.5q0 -117 -81.5 -187t-231.5 -70z" />
    <glyph glyph-name="six" unicode="6" horiz-adv-x="703" 
d="M369 -14q-177 0 -261 96t-84 267v20q0 162 97.5 259.5t244.5 97.5q283 0 303 -231h-243q-4 38 -46 38q-87 0 -93 -139q26 38 60.5 57t97.5 19q102 0 170.5 -57t68.5 -170q0 -117 -84.5 -187t-230.5 -70zM365 171q29 0 46 20.5t17 51.5q0 29 -17 48.5t-45 19.5
q-29 0 -46 -21t-17 -51q0 -28 16.5 -48t45.5 -20z" />
    <glyph glyph-name="seven" unicode="7" horiz-adv-x="603" 
d="M94 0l175 499h-249v216h582v-26l-238 -689h-270z" />
    <glyph glyph-name="eight" unicode="8" horiz-adv-x="683" 
d="M341 -14q-159 0 -242 56t-83 159q0 125 128 171q-97 45 -97 146q0 98 83.5 153t213.5 55q133 0 214.5 -54t81.5 -153q0 -102 -97 -146q124 -42 124 -165q0 -104 -84.5 -163t-241.5 -59zM342 168q30 0 48 17.5t18 45.5q0 29 -17.5 47t-48.5 18t-48.5 -17.5t-17.5 -46.5
t17.5 -46.5t48.5 -17.5zM343 435q26 0 44 16t18 42q0 27 -17.5 43t-43.5 16q-25 0 -42.5 -16t-17.5 -42t17 -42.5t42 -16.5z" />
    <glyph glyph-name="nine" unicode="9" horiz-adv-x="703" 
d="M338 -13q-141 0 -220 58.5t-88 170.5h242q4 -35 50 -35q50 0 70 33t23 103q-27 -40 -58 -59t-93 -19q-109 0 -177 57t-68 172q0 116 85.5 187.5t232.5 71.5q170 0 256 -101t86 -265v-13q0 -173 -88 -267t-253 -94zM332 403q29 0 46.5 21t17.5 51q0 28 -17 48t-46 20
q-28 0 -45.5 -21t-17.5 -51q0 -29 17 -48.5t45 -19.5z" />
    <glyph glyph-name="colon" unicode=":" horiz-adv-x="312" 
d="M154 -14q-53 0 -87.5 34.5t-34.5 85.5q0 50 34.5 85t87.5 35q54 0 90 -35t36 -85q0 -51 -36 -85.5t-90 -34.5zM154 266q-53 0 -87.5 34.5t-34.5 85.5q0 50 34.5 85t87.5 35q54 0 90 -35t36 -85q0 -51 -36 -85.5t-90 -34.5z" />
    <glyph glyph-name="semicolon" unicode=";" horiz-adv-x="336" 
d="M137 -122l-133 48l77 286l210 -70zM184 266q-53 0 -87.5 34.5t-34.5 85.5q0 50 34.5 85t87.5 35q54 0 90 -35t36 -85q0 -51 -36 -85.5t-90 -34.5z" />
    <glyph glyph-name="less" unicode="&#x3c;" horiz-adv-x="517" 
d="M477 41l-441 261v41l441 261v-205l-153 -75l153 -85v-198z" />
    <glyph glyph-name="equal" unicode="=" horiz-adv-x="594" 
d="M38 152v148h518v-148h-518zM38 357v148h518v-148h-518z" />
    <glyph glyph-name="greater" unicode="&#x3e;" horiz-adv-x="517" 
d="M40 42v205l153 75l-153 85v198l441 -261v-41z" />
    <glyph glyph-name="question" unicode="?" horiz-adv-x="591" 
d="M164 252v3q0 34 16.5 67t32.5 50t46 45q22 21 31.5 30t19.5 25t10 30q0 39 -37 39q-40 0 -51 -66h-224q3 123 83 187t212 64q127 0 197.5 -50t70.5 -150q0 -81 -60 -141q-17 -17 -50.5 -45t-53 -48.5t-25.5 -39.5h-218zM274 -14q-55 0 -92.5 34t-37.5 83t37.5 83.5
t92.5 34.5q53 0 90.5 -34.5t37.5 -83.5t-37.5 -83t-90.5 -34z" />
    <glyph glyph-name="at" unicode="@" horiz-adv-x="924" 
d="M461 -164q-200 0 -320.5 116t-120.5 295q0 132 66.5 235.5t171 156.5t224.5 53q182 0 301.5 -98.5t119.5 -264.5q0 -144 -65.5 -214t-164.5 -70q-138 0 -164 79q-36 -79 -126 -79q-75 0 -119.5 52t-44.5 140q0 106 56.5 171t141.5 65q77 0 103 -55l7 47h180l-35 -283
q-8 -60 41 -60q45 0 75.5 52t30.5 159q0 129 -92 208.5t-242 79.5q-160 0 -268 -103t-108 -274q0 -152 92.5 -244.5t264.5 -92.5q85 0 158 27.5t110 65.5h98q-55 -76 -154 -120t-217 -44zM446 190q26 0 41 26.5t15 66.5q0 49 -44 49q-25 0 -40 -24.5t-15 -61.5q0 -56 43 -56
z" />
    <glyph glyph-name="A" unicode="A" horiz-adv-x="784" 
d="M1 0l220 715h343l219 -715h-284l-24 95h-202l-24 -95h-248zM375 501l-58 -228h114z" />
    <glyph glyph-name="B" unicode="B" horiz-adv-x="709" 
d="M58 0v715h373q131 0 189 -53t58 -135v-4q0 -127 -128 -155q63 -9 103 -50.5t40 -114.5v-4q0 -199 -273 -199h-362zM317 172h48q66 0 66 58v4q0 57 -69 57h-45v-119zM317 445h52q31 0 45 11t14 35v4q0 49 -59 49h-52v-99z" />
    <glyph glyph-name="C" unicode="C" horiz-adv-x="774" 
d="M413 -14q-197 0 -295 98t-98 269v8q0 165 107.5 265t272.5 100q328 0 354 -296h-276q-2 41 -22.5 63.5t-54.5 22.5q-100 0 -100 -154v-8q0 -155 105 -155q82 0 91 86h266q-6 -143 -101.5 -221t-248.5 -78z" />
    <glyph glyph-name="D" unicode="D" horiz-adv-x="767" 
d="M325 203h21q68 0 96 34t28 117v8q0 87 -29 118.5t-97 31.5h-19v-309zM58 0v715h296q394 0 394 -348v-7q0 -176 -101 -268t-292 -92h-297z" />
    <glyph glyph-name="E" unicode="E" horiz-adv-x="635" 
d="M58 0v715h534v-203h-269v-61h212v-184h-212v-64h284v-203h-549z" />
    <glyph glyph-name="F" unicode="F" horiz-adv-x="596" 
d="M58 0v715h517v-204h-250v-100h203v-193h-203v-218h-267z" />
    <glyph glyph-name="G" unicode="G" horiz-adv-x="797" 
d="M408 -14q-186 0 -287.5 100t-101.5 267v8q0 164 111 264.5t278 100.5q96 0 172 -28t127.5 -93t55.5 -161h-263q-7 73 -91 73q-52 0 -82.5 -42t-30.5 -119v-8q0 -35 5 -61.5t18 -50.5t38 -36.5t61 -12.5q89 0 104 58h-100v162h357v-100q0 -138 -94.5 -229.5t-276.5 -91.5z
" />
    <glyph glyph-name="H" unicode="H" horiz-adv-x="812" 
d="M58 0v715h267v-247h163v247h266v-715h-266v263h-163v-263h-267z" />
    <glyph glyph-name="I" unicode="I" horiz-adv-x="391" 
d="M61 0v715h269v-715h-269z" />
    <glyph glyph-name="J" unicode="J" horiz-adv-x="508" 
d="M176 -9q-92 0 -146 27v194q42 -11 83 -11q82 0 82 80v434h267v-434q0 -290 -286 -290z" />
    <glyph glyph-name="K" unicode="K" horiz-adv-x="782" 
d="M58 0v715h267v-244l166 244h274l-233 -325l246 -390h-305l-148 257v-257h-267z" />
    <glyph glyph-name="L" unicode="L" horiz-adv-x="595" 
d="M58 0v715h267v-511h241v-204h-508z" />
    <glyph glyph-name="M" unicode="M" horiz-adv-x="986" 
d="M58 0v715h342l94 -286l97 286h336v-715h-265v380l-142 -380h-90l-136 380v-380h-236z" />
    <glyph glyph-name="N" unicode="N" horiz-adv-x="805" 
d="M58 0v715h297l155 -332v332h236v-715h-253l-198 390v-390h-237z" />
    <glyph glyph-name="O" unicode="O" horiz-adv-x="823" 
d="M411 194q53 0 84 41.5t31 118.5v8q0 79 -31 118t-85 39q-52 0 -82.5 -39t-30.5 -118v-8q0 -160 114 -160zM404 -14q-179 0 -282 99.5t-103 267.5v8q0 165 112 265t279 100q173 0 283.5 -94.5t110.5 -263.5v-8q0 -171 -108.5 -272.5t-291.5 -101.5z" />
    <glyph glyph-name="P" unicode="P" horiz-adv-x="688" 
d="M58 0v715h308q162 0 234 -66.5t72 -188.5v-4q0 -114 -73.5 -177t-219.5 -63h-56v-216h-265zM323 392h26q72 0 72 63v4q0 59 -71 59h-27v-126z" />
    <glyph glyph-name="Q" unicode="Q" horiz-adv-x="823" 
d="M590 -136l-124 126q-27 -4 -62 -4q-179 0 -282 99.5t-103 267.5v8q0 165 112 265t279 100q173 0 283.5 -94.5t110.5 -263.5v-8q0 -188 -129 -290l59 -60zM297 354q0 -122 67 -151l100 82l38 -39q24 43 24 108v8q0 79 -31 118t-85 39q-52 0 -82.5 -39t-30.5 -118v-8z" />
    <glyph glyph-name="R" unicode="R" horiz-adv-x="733" 
d="M58 0v715h314q312 0 312 -241v-4q0 -128 -105 -185l147 -285h-277l-111 227h-15v-227h-265zM323 394h30q75 0 75 63v4q0 56 -73 56h-32v-123z" />
    <glyph glyph-name="S" unicode="S" horiz-adv-x="663" 
d="M339 -14q-323 0 -326 246h251q4 -61 75 -61q55 0 55 38q0 19 -18.5 29t-62.5 15q-160 17 -223 68.5t-63 165.5q0 106 80.5 172.5t220.5 66.5q142 0 216.5 -57.5t83.5 -179.5h-246q-2 24 -16 38t-39 14q-48 0 -48 -34q0 -19 17.5 -29t62.5 -14q147 -14 218.5 -62
t71.5 -164q0 -108 -81 -180t-229 -72z" />
    <glyph glyph-name="T" unicode="T" horiz-adv-x="648" 
d="M190 0v511h-173v204h614v-204h-173v-511h-268z" />
    <glyph glyph-name="U" unicode="U" horiz-adv-x="799" 
d="M401 -14q-168 0 -257.5 80.5t-89.5 238.5v410h266v-402q0 -63 15.5 -91t65.5 -28q48 0 62 27.5t14 89.5v404h268v-411q0 -163 -91.5 -240.5t-252.5 -77.5z" />
    <glyph glyph-name="V" unicode="V" horiz-adv-x="766" 
d="M237 0l-234 715h290l110 -436l111 436h249l-227 -715h-299z" />
    <glyph glyph-name="W" unicode="W" horiz-adv-x="1032" 
d="M170 0l-166 715h267l66 -393l67 393h224l83 -398l71 398h246l-166 -715h-255l-83 378l-82 -378h-272z" />
    <glyph glyph-name="X" unicode="X" horiz-adv-x="805" 
d="M10 0l213 368l-196 347h304l78 -178l76 178h272l-177 -336l215 -379h-303l-104 217l-103 -217h-275z" />
    <glyph glyph-name="Y" unicode="Y" horiz-adv-x="718" 
d="M230 0v303l-230 412h288l87 -194l90 194h253l-220 -411v-304h-268z" />
    <glyph glyph-name="Z" unicode="Z" horiz-adv-x="628" 
d="M5 0v27l252 495h-211v193h575v-27l-252 -492h232v-196h-596z" />
    <glyph glyph-name="bracketleft" unicode="[" horiz-adv-x="437" 
d="M54 -148v924h348v-164h-117v-596h117v-164h-348z" />
    <glyph glyph-name="backslash" unicode="\" horiz-adv-x="450" 
d="M313 -148l-331 924h177l331 -924h-177z" />
    <glyph glyph-name="bracketright" unicode="]" horiz-adv-x="437" 
d="M36 -148v164h115v596h-115v164h346v-924h-346z" />
    <glyph glyph-name="asciicircum" unicode="^" horiz-adv-x="543" 
d="M12 386l163 329h193l163 -329h-189l-72 145l-73 -145h-185z" />
    <glyph glyph-name="underscore" unicode="_" horiz-adv-x="454" 
d="M-1 -162v96h456v-96h-456z" />
    <glyph glyph-name="grave" unicode="`" horiz-adv-x="400" 
d="M125 568l-105 175h219l49 -175h-163z" />
    <glyph glyph-name="a" unicode="a" horiz-adv-x="598" 
d="M193 -14q-76 0 -127 39.5t-51 119.5q0 92 68.5 131.5t217.5 39.5h37v3q0 21 -2 32.5t-13 22t-32 10.5q-40 0 -46 -45h-212q5 96 76.5 148t195.5 52q126 0 192.5 -51.5t66.5 -151.5v-336h-220v59q-40 -73 -151 -73zM282 136q25 0 40.5 13.5t15.5 33.5v17h-35
q-39 0 -51 -7.5t-12 -27.5q0 -29 42 -29z" />
    <glyph glyph-name="b" unicode="b" horiz-adv-x="651" 
d="M419 -14q-55 0 -95 24.5t-58 67.5v-78h-229v743h229v-293q53 89 155 89q92 0 152.5 -70.5t60.5 -204.5v-8q0 -134 -61.5 -202t-153.5 -68zM329 159q73 0 73 100v8q0 104 -73 104q-69 0 -69 -103v-8q0 -101 69 -101z" />
    <glyph glyph-name="c" unicode="c" horiz-adv-x="590" 
d="M300 -14q-127 0 -206 68t-79 200v8q0 132 82.5 204.5t209.5 72.5q114 0 189.5 -55t81.5 -176h-213q-3 19 -6.5 29t-15 18.5t-30.5 8.5q-35 0 -50 -23t-15 -75v-8q0 -56 15 -82t53 -26q54 0 60 65h205q-2 -109 -72 -169t-209 -60z" />
    <glyph glyph-name="d" unicode="d" horiz-adv-x="650" 
d="M230 -14q-92 0 -152.5 68.5t-60.5 203.5v8q0 134 60 203.5t151 69.5q110 0 156 -85v289h229v-743h-229v82q-42 -96 -154 -96zM321 159q69 0 69 101v8q0 103 -70 103q-71 0 -71 -103v-8q0 -101 72 -101z" />
    <glyph glyph-name="e" unicode="e" horiz-adv-x="614" 
d="M315 -14q-133 0 -216.5 70t-83.5 198v8q0 127 87 202t215 75q123 0 202.5 -70t79.5 -205v-49h-354q9 -77 78 -77q56 0 67 46h211q-12 -95 -83 -146.5t-203 -51.5zM246 321h134q-2 75 -63 75q-62 0 -71 -75z" />
    <glyph glyph-name="f" unicode="f" horiz-adv-x="406" 
d="M68 0v374h-61v149h61v26q0 103 62.5 153.5t168.5 50.5q44 0 92 -11v-162q-20 5 -44 5q-51 0 -51 -40v-22h95v-149h-95v-374h-228z" />
    <glyph glyph-name="g" unicode="g" horiz-adv-x="650" 
d="M302 -195q-272 0 -292 207h226q2 -11 5.5 -18.5t10.5 -16.5t20 -13.5t31 -4.5q81 0 81 84v82q-42 -86 -154 -86q-91 0 -152 63.5t-61 180.5v8q0 116 61 182t150 66q110 0 156 -85v69h229v-475q0 -119 -78 -181t-233 -62zM321 195q69 0 69 86v8q0 37 -18 60t-52 23
q-71 0 -71 -84v-8q0 -85 72 -85z" />
    <glyph glyph-name="h" unicode="h" horiz-adv-x="638" 
d="M37 0v743h229v-304q54 100 174 100q75 0 119.5 -49t44.5 -140v-350h-229v292q0 65 -50 65q-31 0 -45 -18t-14 -58v-281h-229z" />
    <glyph glyph-name="i" unicode="i" horiz-adv-x="316" 
d="M44 0v523h228v-523h-228zM158 542q-53 0 -87 31.5t-34 80.5t34 80.5t87 31.5q52 0 86.5 -31.5t34.5 -80.5t-34.5 -80.5t-86.5 -31.5z" />
    <glyph glyph-name="j" unicode="j" horiz-adv-x="316" 
d="M-14 -181v161q29 2 43 13.5t14 38.5v491h228v-500q0 -99 -62.5 -152t-222.5 -52zM158 542q-53 0 -87 31.5t-34 80.5t34 80.5t87 31.5q52 0 86.5 -31.5t34.5 -80.5t-34.5 -80.5t-86.5 -31.5z" />
    <glyph glyph-name="k" unicode="k" horiz-adv-x="609" 
d="M37 0v743h229v-399l101 179h232l-143 -231l154 -292h-251l-93 191v-191h-229z" />
    <glyph glyph-name="l" unicode="l" horiz-adv-x="313" 
d="M43 0v743h227v-743h-227z" />
    <glyph glyph-name="m" unicode="m" horiz-adv-x="942" 
d="M37 0v523h229v-80q58 96 167 96q99 0 137 -81q70 81 170 81q77 0 122.5 -49.5t45.5 -138.5v-351h-228v303q0 24 -12.5 38.5t-31.5 14.5q-50 0 -50 -62v-294h-226v303q0 24 -12.5 38.5t-31.5 14.5q-50 0 -50 -62v-294h-229z" />
    <glyph glyph-name="n" unicode="n" horiz-adv-x="638" 
d="M37 0v523h229v-84q54 100 174 100q75 0 119.5 -49t44.5 -140v-350h-229v292q0 65 -50 65q-31 0 -45 -18t-14 -58v-281h-229z" />
    <glyph glyph-name="o" unicode="o" horiz-adv-x="632" 
d="M317 152q68 0 68 107v8q0 54 -16 79.5t-52 25.5q-70 0 -70 -102v-8q0 -57 16.5 -83.5t53.5 -26.5zM316 -14q-131 0 -216 70t-85 198v8q0 127 85.5 202t216.5 75q130 0 215 -72.5t85 -197.5v-8q0 -128 -85.5 -201.5t-215.5 -73.5z" />
    <glyph glyph-name="p" unicode="p" horiz-adv-x="651" 
d="M37 -172v695h229v-73q53 89 155 89q92 0 152.5 -70.5t60.5 -204.5v-8q0 -134 -61.5 -202t-153.5 -68q-54 0 -94.5 23.5t-58.5 62.5v-244h-229zM329 159q73 0 73 100v8q0 104 -73 104q-69 0 -69 -103v-8q0 -101 69 -101z" />
    <glyph glyph-name="q" unicode="q" horiz-adv-x="650" 
d="M384 -172v248q-44 -90 -154 -90q-92 0 -152.5 68.5t-60.5 203.5v8q0 134 60 203.5t151 69.5q110 0 156 -85v69h229v-695h-229zM321 159q69 0 69 101v8q0 103 -70 103q-71 0 -71 -103v-8q0 -101 72 -101z" />
    <glyph glyph-name="r" unicode="r" horiz-adv-x="455" 
d="M37 0v523h229v-109q45 120 167 115v-213q-81 6 -124 -18t-43 -70v-228h-229z" />
    <glyph glyph-name="s" unicode="s" horiz-adv-x="539" 
d="M267 -14q-122 0 -189 47.5t-69 138.5h209q4 -23 14 -34t34 -11q39 0 39 26q0 15 -18 23.5t-67 13.5q-113 11 -160.5 45.5t-47.5 119.5q0 90 69 137t179 47q117 0 181.5 -41.5t72.5 -137.5h-205q-9 42 -45 42q-38 0 -38 -27q0 -30 70 -34q128 -13 180 -47.5t52 -116.5
q0 -191 -261 -191z" />
    <glyph glyph-name="t" unicode="t" horiz-adv-x="407" 
d="M271 -14q-207 0 -207 201v187h-57v149h57v104h229v-104h93v-149h-93v-165q0 -44 47 -44q23 0 44 8v-170q-63 -17 -113 -17z" />
    <glyph glyph-name="u" unicode="u" horiz-adv-x="638" 
d="M206 -14q-77 0 -125 49.5t-48 141.5v346h229v-304q0 -65 50 -65q32 0 46 18t14 58v293h229v-523h-229v80q-49 -94 -166 -94z" />
    <glyph glyph-name="v" unicode="v" horiz-adv-x="624" 
d="M192 0l-193 523h244l84 -284l84 284h214l-192 -523h-241z" />
    <glyph glyph-name="w" unicode="w" horiz-adv-x="871" 
d="M155 0l-156 523h237l53 -257l67 257h182l56 -257l66 257h213l-167 -523h-212l-62 240l-59 -240h-218z" />
    <glyph glyph-name="x" unicode="x" horiz-adv-x="637" 
d="M2 0l168 264l-157 259h262l56 -111l55 111h232l-160 -241l176 -282h-262l-68 128l-71 -128h-231z" />
    <glyph glyph-name="y" unicode="y" horiz-adv-x="620" 
d="M129 -172l81 224l-211 471h248l82 -229l77 229h215l-276 -695h-216z" />
    <glyph glyph-name="z" unicode="z" horiz-adv-x="521" 
d="M4 0v21l188 333h-167v169h489v-21l-201 -335h185v-167h-494z" />
    <glyph glyph-name="braceleft" unicode="{" horiz-adv-x="437" 
d="M402 -148q-173 0 -247.5 59.5t-54.5 183.5l12 75q5 31 -16.5 48.5t-69.5 17.5v158q48 0 69.5 17t16.5 48l-12 74q-21 129 53 186t249 57v-165q-49 -4 -64 -18t-11 -51l10 -94q5 -49 -22.5 -83.5t-83.5 -47.5q57 -12 84 -47t22 -84l-10 -94q-4 -39 11.5 -55t63.5 -20v-165
z" />
    <glyph glyph-name="bar" unicode="|" horiz-adv-x="275" 
d="M60 -148v924h155v-924h-155z" />
    <glyph glyph-name="braceright" unicode="}" horiz-adv-x="437" 
d="M35 -148v165q48 4 63.5 20t11.5 55l-10 94q-5 49 22 84t84 47q-56 13 -83.5 47.5t-22.5 83.5l10 94q4 37 -11 51t-64 18v165q175 0 249 -57t53 -186l-12 -74q-5 -31 16.5 -48t69.5 -17v-158q-48 0 -69.5 -17.5t-16.5 -48.5l12 -75q20 -124 -54.5 -183.5t-247.5 -59.5z
" />
    <glyph glyph-name="asciitilde" unicode="~" horiz-adv-x="556" 
d="M20 210q6 121 52.5 177.5t116.5 56.5q42 0 94.5 -20.5t65.5 -20.5q37 0 45 42h142q-3 -111 -51.5 -172.5t-117.5 -61.5q-43 0 -94.5 20.5t-65.5 20.5q-38 0 -45 -42h-142z" />
    <glyph glyph-name="uni00A0" unicode="&#xa0;" horiz-adv-x="246" 
 />
    <glyph glyph-name="exclamdown" unicode="&#xa1;" horiz-adv-x="358" 
d="M50 -117l33 463h192l33 -463h-258zM179 377q-53 0 -91 34.5t-38 83.5t38 83t91 34t90.5 -34t37.5 -83t-37.5 -83.5t-90.5 -34.5z" />
    <glyph glyph-name="cent" unicode="&#xa2;" horiz-adv-x="610" 
d="M286 -135v122q-122 9 -196.5 76.5t-74.5 190.5v8q0 121 75.5 192.5t195.5 82.5v92h69v-91q105 -7 171 -65t72 -165h-203q-6 52 -40 64v-232q47 11 51 75h195q-2 -100 -65.5 -160t-180.5 -68v-122h-69zM238 258q0 -96 48 -115v229q-48 -16 -48 -106v-8z" />
    <glyph glyph-name="sterling" unicode="&#xa3;" horiz-adv-x="688" 
d="M27 282v132h43q-8 34 -8 70q0 116 84.5 179t218.5 63q295 0 305 -268h-240q-7 70 -54 70q-52 0 -52 -60q0 -35 2 -54h158v-132h-149q1 -9 1 -27q0 -27 -6 -50q37 -10 58 -10q45 0 48 45h242q-4 -111 -65 -180t-170 -69q-61 0 -125.5 23.5t-78.5 23.5q-35 0 -40 -38h-192
q8 138 96 195q7 26 7 60q0 9 -2 27h-81z" />
    <glyph glyph-name="yen" unicode="&#xa5;" horiz-adv-x="682" 
d="M54 301v78h128l-180 336h288l67 -186l70 186h253l-172 -336h130v-78h-158v-38h158v-78h-158v-185h-268v185h-158v78h158v38h-158z" />
    <glyph glyph-name="brokenbar" unicode="&#xa6;" horiz-adv-x="275" 
d="M60 -148v451h155v-451h-155zM60 375v401h155v-401h-155z" />
    <glyph glyph-name="section" unicode="&#xa7;" horiz-adv-x="641" 
d="M305 -137q-112 0 -173 51t-66 142h203q3 -46 44 -46q35 0 35 24q0 14 -18 21.5t-71 20.5q-127 30 -187.5 73.5t-60.5 132.5q0 95 106 139q-36 45 -36 110q0 92 68.5 143.5t186.5 51.5q112 0 173 -52.5t66 -144.5h-203q-5 46 -44 46q-35 0 -35 -23q0 -16 16.5 -23.5
t72.5 -20.5q62 -14 102 -28.5t76 -37t53 -57t17 -81.5q0 -92 -106 -140q36 -45 36 -109q0 -89 -69 -140.5t-186 -51.5zM390 243q21 3 21 24q0 13 -14 21t-53 21q-12 4 -19 6l-72 26q-22 -4 -22 -24q0 -12 14.5 -20t53.5 -22l18 -6z" />
    <glyph glyph-name="dieresis" unicode="&#xa8;" horiz-adv-x="400" 
d="M87 552q-43 0 -72.5 29t-29.5 70t29.5 70t72.5 29t73 -29t30 -70t-30 -70t-73 -29zM312 552q-43 0 -72 29t-29 70t29 70t72 29t73 -29t30 -70t-30 -70t-73 -29z" />
    <glyph glyph-name="copyright" unicode="&#xa9;" horiz-adv-x="842" 
d="M431 149q-112 0 -167 54.5t-55 150.5v8q0 93 61 148.5t154 55.5q186 0 199 -166h-155q-3 48 -44 48q-57 0 -57 -86v-7q0 -87 60 -87q48 0 52 49h149q-3 -80 -57 -124t-140 -44zM420 30q137 0 230.5 92t93.5 237q0 144 -92 235t-230 91q-140 0 -232 -91.5t-92 -236.5
t93 -236t229 -91zM420 -25q-164 0 -278 110t-114 272q0 160 114.5 271.5t279.5 111.5q167 0 279.5 -110.5t112.5 -270.5q0 -163 -114 -273.5t-280 -110.5z" />
    <glyph glyph-name="ordfeminine" unicode="&#xaa;" horiz-adv-x="516" 
d="M167 286q-60 0 -100.5 31.5t-40.5 94.5q0 73 51.5 103t171.5 30h31v9q0 36 -28 36q-26 0 -29 -32h-184q5 78 62.5 121.5t160.5 43.5q105 0 159.5 -41.5t54.5 -120.5v-263h-191v45q-11 -22 -40.5 -39.5t-77.5 -17.5zM247 415q15 0 24 8t9 19v11h-25q-21 0 -28 -5t-7 -15
q0 -18 27 -18z" />
    <glyph glyph-name="guillemotleft" unicode="&#xab;" horiz-adv-x="470" 
d="M138 63l-122 198l122 198h132l-117 -198l117 -198h-132zM319 63l-122 198l122 198h132l-117 -198l117 -198h-132z" />
    <glyph glyph-name="registered" unicode="&#xae;" horiz-adv-x="518" 
d="M169 396v219h96q95 0 95 -74v-1q0 -38 -32 -57l45 -87h-83l-34 70h-6v-70h-81zM250 517h9q23 0 23 19v1q0 17 -23 17h-9v-37zM259 320q80 0 133.5 51.5t53.5 131.5q0 81 -52.5 132t-134.5 51t-134.5 -51.5t-52.5 -132.5t53.5 -131.5t133.5 -50.5zM259 280q-97 0 -165 64
t-68 158q0 93 68 158.5t165 65.5q99 0 166 -65t67 -158q0 -94 -67.5 -158.5t-165.5 -64.5z" />
    <glyph glyph-name="macron" unicode="&#xaf;" horiz-adv-x="400" 
d="M34 593v119h331v-119h-331z" />
    <glyph glyph-name="degree" unicode="&#xb0;" horiz-adv-x="466" 
d="M234 444q39 0 65 29t26 72q0 44 -25.5 73.5t-65.5 29.5q-41 0 -67 -29t-26 -74q0 -43 26 -72t67 -29zM234 368q-76 0 -130 52.5t-54 124.5q0 74 54 126.5t130 52.5q75 0 128.5 -52.5t53.5 -126.5q0 -72 -53.5 -124.5t-128.5 -52.5z" />
    <glyph glyph-name="plusminus" unicode="&#xb1;" horiz-adv-x="596" 
d="M208 192v156h-170v162h170v156h180v-156h170v-162h-170v-156h-180zM38 0v142h524v-142h-524z" />
    <glyph glyph-name="twosuperior" unicode="&#xb2;" horiz-adv-x="388" 
d="M3 322v20l129 131q30 30 41.5 43t22.5 30.5t11 30.5q0 24 -22 24q-25 0 -29 -46h-151q2 82 52 124t137 42t131 -36.5t44 -93.5q0 -38 -20.5 -69.5t-61.5 -68.5l-15 -14h98v-117h-367z" />
    <glyph glyph-name="threesuperior" unicode="&#xb3;" horiz-adv-x="406" 
d="M204 314q-179 0 -188 145h145q4 -32 33 -32q26 0 26 24q0 23 -36 23h-33v88h33q39 0 39 26q0 21 -25 21t-31 -30h-144q5 65 50 103.5t130 38.5q84 0 130 -28.5t46 -82.5q0 -67 -73 -84q36 -5 58 -27t22 -55q0 -60 -46 -95t-136 -35z" />
    <glyph glyph-name="acute" unicode="&#xb4;" horiz-adv-x="400" 
d="M112 568l49 175h219l-105 -175h-163z" />
    <glyph glyph-name="paragraph" unicode="&#xb6;" horiz-adv-x="532" 
d="M246 -100v420h-5q-104 0 -163 49.5t-59 144.5q0 99 60 150t162 51h233v-815h-79v748h-71v-748h-78z" />
    <glyph glyph-name="periodcentered" unicode="&#xb7;" horiz-adv-x="308" 
d="M152 206q-53 0 -87.5 34.5t-34.5 85.5q0 50 34.5 85t87.5 35q54 0 90 -35t36 -85q0 -51 -36 -85.5t-90 -34.5z" />
    <glyph glyph-name="cedilla" unicode="&#xb8;" horiz-adv-x="400" 
d="M202 -232q-124 0 -141 97h100q6 -23 32 -23q28 0 28 27q0 29 -32 29q-21 0 -34 -13l-42 44l50 71h82l-31 -41q51 5 85 -18t34 -71q0 -47 -35 -74.5t-96 -27.5z" />
    <glyph glyph-name="onesuperior" unicode="&#xb9;" horiz-adv-x="315" 
d="M101 322v233l-83 -42v132l108 70h142v-393h-167z" />
    <glyph glyph-name="ordmasculine" unicode="&#xba;" horiz-adv-x="537" 
d="M269 429q23 0 32 17t9 57v6q0 38 -9 54.5t-32 16.5q-22 0 -32 -16t-10 -53v-6q0 -41 9 -58.5t33 -17.5zM268 286q-106 0 -174 54.5t-68 156.5v6q0 102 69 161t174 59t173.5 -56.5t68.5 -156.5v-6q0 -102 -69 -160t-174 -58z" />
    <glyph glyph-name="guillemotright" unicode="&#xbb;" horiz-adv-x="470" 
d="M19 63l117 198l-117 198h132l122 -198l-122 -198h-132zM200 63l117 198l-117 198h132l122 -198l-122 -198h-132z" />
    <glyph glyph-name="onequarter" unicode="&#xbc;" horiz-adv-x="856" 
d="M104 322v233l-83 -42v132l108 70h142v-393h-167zM75 0l587 715h109l-587 -715h-109zM623 0v70h-195v62l158 261h198v-216h49v-107h-49v-70h-161zM564 177h64v110z" />
    <glyph glyph-name="onehalf" unicode="&#xbd;" horiz-adv-x="874" 
d="M104 322v233l-83 -42v132l108 70h142v-393h-167zM62 0l587 715h109l-587 -715h-109zM486 0v20l129 131q30 30 41.5 43t22.5 30.5t11 30.5q0 24 -22 24q-25 0 -29 -46h-151q2 82 52 124t137 42t131 -36.5t44 -93.5q0 -38 -20.5 -69.5t-61.5 -68.5l-15 -14h98v-117h-367z
" />
    <glyph glyph-name="threequarters" unicode="&#xbe;" horiz-adv-x="900" 
d="M207 314q-179 0 -188 145h145q4 -32 33 -32q26 0 26 24q0 23 -36 23h-33v88h33q39 0 39 26q0 21 -25 21t-31 -30h-144q5 65 50 103.5t130 38.5q84 0 130 -28.5t46 -82.5q0 -67 -73 -84q36 -5 58 -27t22 -55q0 -60 -46 -95t-136 -35zM129 0l587 715h109l-587 -715h-109z
M667 0v70h-195v62l158 261h198v-216h49v-107h-49v-70h-161zM608 177h64v110z" />
    <glyph glyph-name="questiondown" unicode="&#xbf;" horiz-adv-x="591" 
d="M427 347v-3q0 -34 -16.5 -67t-32.5 -50t-46 -45q-22 -21 -31.5 -30t-19.5 -25t-10 -30q0 -39 37 -39q40 0 51 66h224q-3 -123 -83 -187t-212 -64q-127 0 -197.5 50t-70.5 150q0 81 60 141q17 17 50.5 45t53 48.5t25.5 39.5h218zM317 613q55 0 92.5 -34t37.5 -83
t-37.5 -83.5t-92.5 -34.5q-53 0 -90.5 34.5t-37.5 83.5t37.5 83t90.5 34z" />
    <glyph glyph-name="Agrave" unicode="&#xc0;" horiz-adv-x="784" 
d="M1 0l220 715h343l219 -715h-284l-24 95h-202l-24 -95h-248zM313 753l-101 155h229l45 -155h-173zM375 501l-58 -228h114z" />
    <glyph glyph-name="Aacute" unicode="&#xc1;" horiz-adv-x="784" 
d="M1 0l220 715h343l219 -715h-284l-24 95h-202l-24 -95h-248zM294 753l49 155h229l-105 -155h-173zM375 501l-58 -228h114z" />
    <glyph glyph-name="Acircumflex" unicode="&#xc2;" horiz-adv-x="784" 
d="M1 0l220 715h343l219 -715h-284l-24 95h-202l-24 -95h-248zM181 753l117 155h189l111 -155h-165l-45 44l-45 -44h-162zM375 501l-58 -228h114z" />
    <glyph glyph-name="Atilde" unicode="&#xc3;" horiz-adv-x="784" 
d="M1 0l220 715h343l219 -715h-284l-24 95h-202l-24 -95h-248zM460 750q-36 0 -75 14.5t-50 14.5q-24 0 -27 -26h-123q4 87 41 129.5t92 42.5q32 0 73 -14.5t55 -14.5q22 0 27 26h123q-5 -86 -44 -129t-92 -43zM375 501l-58 -228h114z" />
    <glyph glyph-name="Adieresis" unicode="&#xc4;" horiz-adv-x="784" 
d="M1 0l220 715h343l219 -715h-284l-24 95h-202l-24 -95h-248zM273 742q-43 0 -72.5 29t-29.5 70t29.5 70t72.5 29t73 -29t30 -70t-30 -70t-73 -29zM506 742q-43 0 -72 29t-29 70t29 70t72 29t73 -29t30 -70t-30 -70t-73 -29zM375 501l-58 -228h114z" />
    <glyph glyph-name="Aring" unicode="&#xc5;" horiz-adv-x="784" 
d="M1 0l220 715h343l219 -715h-284l-24 95h-202l-24 -95h-248zM390 737q-52 0 -89 36t-37 86t37 86t89 36t89 -36t37 -86t-37 -86t-89 -36zM375 501l-58 -228h114zM390 812q19 0 31 13t12 34t-12 34t-31 13t-31 -13t-12 -34t12 -34t31 -13z" />
    <glyph glyph-name="AE" unicode="&#xc6;" horiz-adv-x="1029" 
d="M1 0l297 715h688v-203h-259v-61h202v-184h-202v-64h274v-203h-539v115h-166l-44 -115h-251zM448 512l-86 -224h100v224h-14z" />
    <glyph glyph-name="Ccedilla" unicode="&#xc7;" horiz-adv-x="774" 
d="M379 -232q-124 0 -141 97h100q6 -23 32 -23q28 0 28 27q0 29 -32 29q-21 0 -34 -13l-42 44l43 62q-157 19 -235 114t-78 248v8q0 165 107.5 265t272.5 100q328 0 354 -296h-276q-2 41 -22.5 63.5t-54.5 22.5q-100 0 -100 -154v-8q0 -155 105 -155q82 0 91 86h266
q-6 -143 -101.5 -221t-248.5 -78h-2l-20 -27q51 5 85 -18t34 -71q0 -47 -35 -74.5t-96 -27.5z" />
    <glyph glyph-name="Egrave" unicode="&#xc8;" horiz-adv-x="635" 
d="M58 0v715h534v-203h-269v-61h212v-184h-212v-64h284v-203h-549zM256 753l-101 155h229l45 -155h-173z" />
    <glyph glyph-name="Eacute" unicode="&#xc9;" horiz-adv-x="635" 
d="M58 0v715h534v-203h-269v-61h212v-184h-212v-64h284v-203h-549zM237 753l49 155h229l-105 -155h-173z" />
    <glyph glyph-name="Ecircumflex" unicode="&#xca;" horiz-adv-x="635" 
d="M58 0v715h534v-203h-269v-61h212v-184h-212v-64h284v-203h-549zM124 753l117 155h189l111 -155h-165l-45 44l-45 -44h-162z" />
    <glyph glyph-name="Edieresis" unicode="&#xcb;" horiz-adv-x="635" 
d="M58 0v715h534v-203h-269v-61h212v-184h-212v-64h284v-203h-549zM216 742q-43 0 -72.5 29t-29.5 70t29.5 70t72.5 29t73 -29t30 -70t-30 -70t-73 -29zM449 742q-43 0 -72 29t-29 70t29 70t72 29t73 -29t30 -70t-30 -70t-73 -29z" />
    <glyph glyph-name="Igrave" unicode="&#xcc;" horiz-adv-x="391" 
d="M61 0v715h269v-715h-269zM118 753l-101 155h229l45 -155h-173z" />
    <glyph glyph-name="Iacute" unicode="&#xcd;" horiz-adv-x="391" 
d="M61 0v715h269v-715h-269zM99 753l49 155h229l-105 -155h-173z" />
    <glyph glyph-name="Icircumflex" unicode="&#xce;" horiz-adv-x="391" 
d="M61 0v715h269v-715h-269zM-14 753l117 155h189l111 -155h-165l-45 44l-45 -44h-162z" />
    <glyph glyph-name="Idieresis" unicode="&#xcf;" horiz-adv-x="391" 
d="M61 0v715h269v-715h-269zM78 742q-43 0 -72.5 29t-29.5 70t29.5 70t72.5 29t73 -29t30 -70t-30 -70t-73 -29zM311 742q-43 0 -72 29t-29 70t29 70t72 29t73 -29t30 -70t-30 -70t-73 -29z" />
    <glyph glyph-name="Eth" unicode="&#xd0;" horiz-adv-x="804" 
d="M27 272v175h49v268h296q394 0 394 -348v-7q0 -176 -101 -268t-292 -92h-297v272h-49zM337 203h27q68 0 96 34t28 117v8q0 87 -29 118.5t-97 31.5h-25v-65h75v-175h-75v-69z" />
    <glyph glyph-name="Ntilde" unicode="&#xd1;" horiz-adv-x="805" 
d="M58 0v715h297l155 -332v332h236v-715h-253l-198 390v-390h-237zM495 750q-35 0 -74 14.5t-51 14.5q-24 0 -27 -26h-123q4 87 41 129.5t92 42.5q32 0 72.5 -14.5t55.5 -14.5q22 0 27 26h123q-5 -86 -44 -129t-92 -43z" />
    <glyph glyph-name="Ograve" unicode="&#xd2;" horiz-adv-x="823" 
d="M411 194q53 0 84 41.5t31 118.5v8q0 79 -31 118t-85 39q-52 0 -82.5 -39t-30.5 -118v-8q0 -160 114 -160zM404 -14q-179 0 -282 99.5t-103 267.5v8q0 165 112 265t279 100q173 0 283.5 -94.5t110.5 -263.5v-8q0 -171 -108.5 -272.5t-291.5 -101.5zM334 753l-101 155h229
l45 -155h-173z" />
    <glyph glyph-name="Oacute" unicode="&#xd3;" horiz-adv-x="823" 
d="M411 194q53 0 84 41.5t31 118.5v8q0 79 -31 118t-85 39q-52 0 -82.5 -39t-30.5 -118v-8q0 -160 114 -160zM404 -14q-179 0 -282 99.5t-103 267.5v8q0 165 112 265t279 100q173 0 283.5 -94.5t110.5 -263.5v-8q0 -171 -108.5 -272.5t-291.5 -101.5zM315 753l49 155h229
l-105 -155h-173z" />
    <glyph glyph-name="Ocircumflex" unicode="&#xd4;" horiz-adv-x="823" 
d="M411 194q53 0 84 41.5t31 118.5v8q0 79 -31 118t-85 39q-52 0 -82.5 -39t-30.5 -118v-8q0 -160 114 -160zM404 -14q-179 0 -282 99.5t-103 267.5v8q0 165 112 265t279 100q173 0 283.5 -94.5t110.5 -263.5v-8q0 -171 -108.5 -272.5t-291.5 -101.5zM202 753l117 155h189
l111 -155h-165l-45 44l-45 -44h-162z" />
    <glyph glyph-name="Otilde" unicode="&#xd5;" horiz-adv-x="823" 
d="M411 194q53 0 84 41.5t31 118.5v8q0 79 -31 118t-85 39q-52 0 -82.5 -39t-30.5 -118v-8q0 -160 114 -160zM404 -14q-179 0 -282 99.5t-103 267.5v8q0 165 112 265t279 100q173 0 283.5 -94.5t110.5 -263.5v-8q0 -171 -108.5 -272.5t-291.5 -101.5zM481 750
q-36 0 -74.5 14.5t-50.5 14.5q-24 0 -27 -26h-123q4 87 41 129.5t92 42.5q32 0 72.5 -14.5t55.5 -14.5q22 0 27 26h123q-5 -86 -44 -129t-92 -43z" />
    <glyph glyph-name="Odieresis" unicode="&#xd6;" horiz-adv-x="823" 
d="M411 194q53 0 84 41.5t31 118.5v8q0 79 -31 118t-85 39q-52 0 -82.5 -39t-30.5 -118v-8q0 -160 114 -160zM404 -14q-179 0 -282 99.5t-103 267.5v8q0 165 112 265t279 100q173 0 283.5 -94.5t110.5 -263.5v-8q0 -171 -108.5 -272.5t-291.5 -101.5zM294 742
q-43 0 -72.5 29t-29.5 70t29.5 70t72.5 29t73 -29t30 -70t-30 -70t-73 -29zM527 742q-43 0 -72 29t-29 70t29 70t72 29t73 -29t30 -70t-30 -70t-73 -29z" />
    <glyph glyph-name="multiply" unicode="&#xd7;" horiz-adv-x="623" 
d="M160 69l-118 118l151 151l-155 154l119 120l154 -156l152 151l118 -118l-152 -151l156 -154l-120 -120l-154 156z" />
    <glyph glyph-name="Oslash" unicode="&#xd8;" horiz-adv-x="823" 
d="M91 -34l-54 52l74 78q-92 98 -92 257v8q0 165 112 265t279 100q136 0 237 -61l72 77l54 -52l-67 -71q98 -96 98 -251v-8q0 -171 -108.5 -272.5t-291.5 -101.5q-140 0 -236 62zM411 194q55 0 86.5 41.5t31.5 118.5v8q0 37 -7 62l-189 -201q28 -29 78 -29zM293 354
q0 -38 5 -59l186 198q-31 26 -74 26q-54 0 -85.5 -39t-31.5 -118v-8z" />
    <glyph glyph-name="Ugrave" unicode="&#xd9;" horiz-adv-x="799" 
d="M401 -14q-168 0 -257.5 80.5t-89.5 238.5v410h266v-402q0 -63 15.5 -91t65.5 -28q48 0 62 27.5t14 89.5v404h268v-411q0 -163 -91.5 -240.5t-252.5 -77.5zM320 753l-101 155h229l45 -155h-173z" />
    <glyph glyph-name="Uacute" unicode="&#xda;" horiz-adv-x="799" 
d="M401 -14q-168 0 -257.5 80.5t-89.5 238.5v410h266v-402q0 -63 15.5 -91t65.5 -28q48 0 62 27.5t14 89.5v404h268v-411q0 -163 -91.5 -240.5t-252.5 -77.5zM301 753l49 155h229l-105 -155h-173z" />
    <glyph glyph-name="Ucircumflex" unicode="&#xdb;" horiz-adv-x="799" 
d="M401 -14q-168 0 -257.5 80.5t-89.5 238.5v410h266v-402q0 -63 15.5 -91t65.5 -28q48 0 62 27.5t14 89.5v404h268v-411q0 -163 -91.5 -240.5t-252.5 -77.5zM188 753l117 155h189l111 -155h-165l-45 44l-45 -44h-162z" />
    <glyph glyph-name="Udieresis" unicode="&#xdc;" horiz-adv-x="799" 
d="M401 -14q-168 0 -257.5 80.5t-89.5 238.5v410h266v-402q0 -63 15.5 -91t65.5 -28q48 0 62 27.5t14 89.5v404h268v-411q0 -163 -91.5 -240.5t-252.5 -77.5zM280 742q-43 0 -72.5 29t-29.5 70t29.5 70t72.5 29t73 -29t30 -70t-30 -70t-73 -29zM513 742q-43 0 -72 29t-29 70
t29 70t72 29t73 -29t30 -70t-30 -70t-73 -29z" />
    <glyph glyph-name="Yacute" unicode="&#xdd;" horiz-adv-x="718" 
d="M230 0v303l-230 412h288l87 -194l90 194h253l-220 -411v-304h-268zM273 753l49 155h229l-105 -155h-173z" />
    <glyph glyph-name="Thorn" unicode="&#xde;" horiz-adv-x="688" 
d="M58 0v715h265v-109h43q164 0 235 -60t71 -182v-4q0 -114 -73.5 -177t-219.5 -63h-56v-120h-265zM323 296h26q72 0 72 63v4q0 59 -71 59h-27v-126z" />
    <glyph glyph-name="germandbls" unicode="&#xdf;" horiz-adv-x="659" 
d="M404 -10q-54 0 -98 8v168q18 -4 30 -4q78 0 78 98v5q0 67 -27.5 87.5t-82.5 17.5v145q32 1 50 17t18 39v2q0 24 -13 38t-38 14q-26 0 -40.5 -18.5t-14.5 -53.5v-553h-229v533q0 125 82.5 180.5t217.5 55.5q120 0 185.5 -46t65.5 -139v-2q0 -50 -33 -83.5t-85 -48.5
q76 -15 126 -65t50 -138v-7q0 -118 -65.5 -184t-176.5 -66z" />
    <glyph glyph-name="agrave" unicode="&#xe0;" horiz-adv-x="598" 
d="M193 -14q-76 0 -127 39.5t-51 119.5q0 92 68.5 131.5t217.5 39.5h37v3q0 21 -2 32.5t-13 22t-32 10.5q-40 0 -46 -45h-212q5 96 76.5 148t195.5 52q126 0 192.5 -51.5t66.5 -151.5v-336h-220v59q-40 -73 -151 -73zM282 136q25 0 40.5 13.5t15.5 33.5v17h-35
q-39 0 -51 -7.5t-12 -27.5q0 -29 42 -29zM225 568l-105 175h219l49 -175h-163z" />
    <glyph glyph-name="aacute" unicode="&#xe1;" horiz-adv-x="598" 
d="M193 -14q-76 0 -127 39.5t-51 119.5q0 92 68.5 131.5t217.5 39.5h37v3q0 21 -2 32.5t-13 22t-32 10.5q-40 0 -46 -45h-212q5 96 76.5 148t195.5 52q126 0 192.5 -51.5t66.5 -151.5v-336h-220v59q-40 -73 -151 -73zM282 136q25 0 40.5 13.5t15.5 33.5v17h-35
q-39 0 -51 -7.5t-12 -27.5q0 -29 42 -29zM216 568l49 175h219l-105 -175h-163z" />
    <glyph glyph-name="acircumflex" unicode="&#xe2;" horiz-adv-x="598" 
d="M193 -14q-76 0 -127 39.5t-51 119.5q0 92 68.5 131.5t217.5 39.5h37v3q0 21 -2 32.5t-13 22t-32 10.5q-40 0 -46 -45h-212q5 96 76.5 148t195.5 52q126 0 192.5 -51.5t66.5 -151.5v-336h-220v59q-40 -73 -151 -73zM282 136q25 0 40.5 13.5t15.5 33.5v17h-35
q-39 0 -51 -7.5t-12 -27.5q0 -29 42 -29zM97 571l130 172h155l124 -172h-158l-48 46l-48 -46h-155z" />
    <glyph glyph-name="atilde" unicode="&#xe3;" horiz-adv-x="598" 
d="M193 -14q-76 0 -127 39.5t-51 119.5q0 92 68.5 131.5t217.5 39.5h37v3q0 21 -2 32.5t-13 22t-32 10.5q-40 0 -46 -45h-212q5 96 76.5 148t195.5 52q126 0 192.5 -51.5t66.5 -151.5v-336h-220v59q-40 -73 -151 -73zM282 136q25 0 40.5 13.5t15.5 33.5v17h-35
q-39 0 -51 -7.5t-12 -27.5q0 -29 42 -29zM371 570q-35 0 -72 14.5t-49 14.5q-24 0 -27 -26h-116q4 88 37 132t86 44q32 0 71 -14.5t54 -14.5q22 0 27 26h116q-5 -87 -40 -131.5t-87 -44.5z" />
    <glyph glyph-name="adieresis" unicode="&#xe4;" horiz-adv-x="598" 
d="M193 -14q-76 0 -127 39.5t-51 119.5q0 92 68.5 131.5t217.5 39.5h37v3q0 21 -2 32.5t-13 22t-32 10.5q-40 0 -46 -45h-212q5 96 76.5 148t195.5 52q126 0 192.5 -51.5t66.5 -151.5v-336h-220v59q-40 -73 -151 -73zM282 136q25 0 40.5 13.5t15.5 33.5v17h-35
q-39 0 -51 -7.5t-12 -27.5q0 -29 42 -29zM189 552q-43 0 -72.5 29t-29.5 70t29.5 70t72.5 29t73 -29t30 -70t-30 -70t-73 -29zM414 552q-43 0 -72 29t-29 70t29 70t72 29t73 -29t30 -70t-30 -70t-73 -29z" />
    <glyph glyph-name="aring" unicode="&#xe5;" horiz-adv-x="598" 
d="M193 -14q-76 0 -127 39.5t-51 119.5q0 92 68.5 131.5t217.5 39.5h37v3q0 21 -2 32.5t-13 22t-32 10.5q-40 0 -46 -45h-212q5 96 76.5 148t195.5 52q126 0 192.5 -51.5t66.5 -151.5v-336h-220v59q-40 -73 -151 -73zM282 136q25 0 40.5 13.5t15.5 33.5v17h-35
q-39 0 -51 -7.5t-12 -27.5q0 -29 42 -29zM302 641q19 0 30.5 13t11.5 33t-11.5 33t-30.5 13t-30.5 -13t-11.5 -33t11.5 -33t30.5 -13zM302 567q-51 0 -87.5 35.5t-36.5 84.5t36.5 84.5t87.5 35.5t87.5 -35.5t36.5 -84.5t-36.5 -84.5t-87.5 -35.5z" />
    <glyph glyph-name="ae" unicode="&#xe6;" horiz-adv-x="922" 
d="M623 -14q-140 0 -208 82q-64 -82 -199 -82q-90 0 -147 39.5t-57 119.5q0 92 69 132.5t217 40.5h40v2q0 31 -9 47.5t-40 16.5q-25 0 -34.5 -12t-12.5 -33h-212q5 96 77 148t196 52q111 0 160 -49q67 49 162 49q123 0 202 -70t79 -205v-49h-351q9 -77 76 -77q55 0 66 46
h211q-12 -95 -83 -146.5t-202 -51.5zM556 318h131q-2 78 -62 78q-63 0 -69 -78zM281 136q28 0 42.5 13t14.5 34v28h-38q-35 0 -49 -9.5t-14 -31.5q0 -34 44 -34z" />
    <glyph glyph-name="ccedilla" unicode="&#xe7;" horiz-adv-x="590" 
d="M279 -232q-124 0 -141 97h100q6 -23 32 -23q28 0 28 27q0 29 -32 29q-21 0 -34 -13l-42 44l44 63q-100 16 -159.5 82t-59.5 180v8q0 132 82.5 204.5t209.5 72.5q114 0 189.5 -55t81.5 -176h-213q-3 19 -6.5 29t-15 18.5t-30.5 8.5q-35 0 -50 -23t-15 -75v-8q0 -56 15 -82
t53 -26q54 0 60 65h205q-2 -106 -69.5 -166t-200.5 -63l-20 -27q51 5 85 -18t34 -71q0 -47 -35 -74.5t-96 -27.5z" />
    <glyph glyph-name="egrave" unicode="&#xe8;" horiz-adv-x="614" 
d="M315 -14q-133 0 -216.5 70t-83.5 198v8q0 127 87 202t215 75q123 0 202.5 -70t79.5 -205v-49h-354q9 -77 78 -77q56 0 67 46h211q-12 -95 -83 -146.5t-203 -51.5zM246 321h134q-2 75 -63 75q-62 0 -71 -75zM234 568l-105 175h219l49 -175h-163z" />
    <glyph glyph-name="eacute" unicode="&#xe9;" horiz-adv-x="614" 
d="M315 -14q-133 0 -216.5 70t-83.5 198v8q0 127 87 202t215 75q123 0 202.5 -70t79.5 -205v-49h-354q9 -77 78 -77q56 0 67 46h211q-12 -95 -83 -146.5t-203 -51.5zM246 321h134q-2 75 -63 75q-62 0 -71 -75zM225 568l49 175h219l-105 -175h-163z" />
    <glyph glyph-name="ecircumflex" unicode="&#xea;" horiz-adv-x="614" 
d="M315 -14q-133 0 -216.5 70t-83.5 198v8q0 127 87 202t215 75q123 0 202.5 -70t79.5 -205v-49h-354q9 -77 78 -77q56 0 67 46h211q-12 -95 -83 -146.5t-203 -51.5zM246 321h134q-2 75 -63 75q-62 0 -71 -75zM106 571l130 172h155l124 -172h-158l-48 46l-48 -46h-155z" />
    <glyph glyph-name="edieresis" unicode="&#xeb;" horiz-adv-x="614" 
d="M315 -14q-133 0 -216.5 70t-83.5 198v8q0 127 87 202t215 75q123 0 202.5 -70t79.5 -205v-49h-354q9 -77 78 -77q56 0 67 46h211q-12 -95 -83 -146.5t-203 -51.5zM246 321h134q-2 75 -63 75q-62 0 -71 -75zM198 552q-43 0 -72.5 29t-29.5 70t29.5 70t72.5 29t73 -29
t30 -70t-30 -70t-73 -29zM423 552q-43 0 -72 29t-29 70t29 70t72 29t73 -29t30 -70t-30 -70t-73 -29z" />
    <glyph glyph-name="igrave" unicode="&#xec;" horiz-adv-x="316" 
d="M44 0v523h228v-523h-228zM81 568l-105 175h219l49 -175h-163z" />
    <glyph glyph-name="iacute" unicode="&#xed;" horiz-adv-x="316" 
d="M44 0v523h228v-523h-228zM72 568l49 175h219l-105 -175h-163z" />
    <glyph glyph-name="icircumflex" unicode="&#xee;" horiz-adv-x="316" 
d="M44 0v523h228v-523h-228zM-47 571l130 172h155l124 -172h-158l-48 46l-48 -46h-155z" />
    <glyph glyph-name="idieresis" unicode="&#xef;" horiz-adv-x="316" 
d="M45 552q-43 0 -72.5 29t-29.5 70t29.5 70t72.5 29t73 -29t30 -70t-30 -70t-73 -29zM270 552q-43 0 -72 29t-29 70t29 70t72 29t73 -29t30 -70t-30 -70t-73 -29zM44 0v523h228v-523h-228z" />
    <glyph glyph-name="eth" unicode="&#xf0;" horiz-adv-x="635" 
d="M92 556l-20 61l115 33q-55 45 -126 93h266q42 -26 56 -36l119 35l20 -62l-75 -22q170 -147 170 -354v-22q0 -137 -83 -216.5t-223 -79.5q-131 0 -213.5 73t-82.5 207v13q0 119 69.5 184t154.5 65q35 0 56.5 -10t44.5 -31q-30 50 -95 113zM317 152q68 0 68 107v8
q0 54 -16 79.5t-52 25.5q-70 0 -70 -102v-8q0 -57 16.5 -83.5t53.5 -26.5z" />
    <glyph glyph-name="ntilde" unicode="&#xf1;" horiz-adv-x="638" 
d="M37 0v523h229v-84q54 100 174 100q75 0 119.5 -49t44.5 -140v-350h-229v292q0 65 -50 65q-31 0 -45 -18t-14 -58v-281h-229zM390 570q-36 0 -73 14.5t-48 14.5q-24 0 -27 -26h-116q4 88 37 132t86 44q33 0 71.5 -14.5t53.5 -14.5q22 0 27 26h116q-5 -87 -40 -131.5
t-87 -44.5z" />
    <glyph glyph-name="ograve" unicode="&#xf2;" horiz-adv-x="632" 
d="M317 152q68 0 68 107v8q0 54 -16 79.5t-52 25.5q-70 0 -70 -102v-8q0 -57 16.5 -83.5t53.5 -26.5zM316 -14q-131 0 -216 70t-85 198v8q0 127 85.5 202t216.5 75q130 0 215 -72.5t85 -197.5v-8q0 -128 -85.5 -201.5t-215.5 -73.5zM239 568l-105 175h219l49 -175h-163z" />
    <glyph glyph-name="oacute" unicode="&#xf3;" horiz-adv-x="632" 
d="M317 152q68 0 68 107v8q0 54 -16 79.5t-52 25.5q-70 0 -70 -102v-8q0 -57 16.5 -83.5t53.5 -26.5zM316 -14q-131 0 -216 70t-85 198v8q0 127 85.5 202t216.5 75q130 0 215 -72.5t85 -197.5v-8q0 -128 -85.5 -201.5t-215.5 -73.5zM230 568l49 175h219l-105 -175h-163z" />
    <glyph glyph-name="ocircumflex" unicode="&#xf4;" horiz-adv-x="632" 
d="M317 152q68 0 68 107v8q0 54 -16 79.5t-52 25.5q-70 0 -70 -102v-8q0 -57 16.5 -83.5t53.5 -26.5zM316 -14q-131 0 -216 70t-85 198v8q0 127 85.5 202t216.5 75q130 0 215 -72.5t85 -197.5v-8q0 -128 -85.5 -201.5t-215.5 -73.5zM111 571l130 172h155l124 -172h-158
l-48 46l-48 -46h-155z" />
    <glyph glyph-name="otilde" unicode="&#xf5;" horiz-adv-x="632" 
d="M317 152q68 0 68 107v8q0 54 -16 79.5t-52 25.5q-70 0 -70 -102v-8q0 -57 16.5 -83.5t53.5 -26.5zM316 -14q-131 0 -216 70t-85 198v8q0 127 85.5 202t216.5 75q130 0 215 -72.5t85 -197.5v-8q0 -128 -85.5 -201.5t-215.5 -73.5zM385 570q-35 0 -72 14.5t-49 14.5
q-24 0 -27 -26h-116q4 88 37 132t86 44q32 0 71 -14.5t54 -14.5q22 0 27 26h116q-5 -87 -40 -131.5t-87 -44.5z" />
    <glyph glyph-name="odieresis" unicode="&#xf6;" horiz-adv-x="632" 
d="M317 152q68 0 68 107v8q0 54 -16 79.5t-52 25.5q-70 0 -70 -102v-8q0 -57 16.5 -83.5t53.5 -26.5zM316 -14q-131 0 -216 70t-85 198v8q0 127 85.5 202t216.5 75q130 0 215 -72.5t85 -197.5v-8q0 -128 -85.5 -201.5t-215.5 -73.5zM203 552q-43 0 -72.5 29t-29.5 70
t29.5 70t72.5 29t73 -29t30 -70t-30 -70t-73 -29zM428 552q-43 0 -72 29t-29 70t29 70t72 29t73 -29t30 -70t-30 -70t-73 -29z" />
    <glyph glyph-name="divide" unicode="&#xf7;" 
d="M300 19q-46 0 -78 31t-32 76q0 44 32 75.5t78 31.5t78 -31.5t32 -75.5q0 -45 -32 -76t-78 -31zM38 263v152h524v-152h-524zM300 445q-46 0 -78 31.5t-32 75.5q0 45 32 76t78 31t78 -31t32 -76q0 -44 -32 -75.5t-78 -31.5z" />
    <glyph glyph-name="oslash" unicode="&#xf8;" horiz-adv-x="632" 
d="M72 -40l-47 44l61 65q-71 69 -71 185v8q0 127 85.5 202t216.5 75q98 0 173 -43l67 71l47 -44l-62 -66q75 -73 75 -188v-8q0 -128 -85.5 -201.5t-215.5 -73.5q-104 0 -178 43zM317 151q71 0 71 108v8q0 5 -0.5 13.5t-0.5 12.5l-118 -125q16 -17 48 -17zM244 262
q0 -17 1 -25l116 122q-17 14 -44 14q-73 0 -73 -103v-8z" />
    <glyph glyph-name="ugrave" unicode="&#xf9;" horiz-adv-x="638" 
d="M206 -14q-77 0 -125 49.5t-48 141.5v346h229v-304q0 -65 50 -65q32 0 46 18t14 58v293h229v-523h-229v80q-49 -94 -166 -94zM240 568l-105 175h219l49 -175h-163z" />
    <glyph glyph-name="uacute" unicode="&#xfa;" horiz-adv-x="638" 
d="M206 -14q-77 0 -125 49.5t-48 141.5v346h229v-304q0 -65 50 -65q32 0 46 18t14 58v293h229v-523h-229v80q-49 -94 -166 -94zM231 568l49 175h219l-105 -175h-163z" />
    <glyph glyph-name="ucircumflex" unicode="&#xfb;" horiz-adv-x="638" 
d="M206 -14q-77 0 -125 49.5t-48 141.5v346h229v-304q0 -65 50 -65q32 0 46 18t14 58v293h229v-523h-229v80q-49 -94 -166 -94zM112 571l130 172h155l124 -172h-158l-48 46l-48 -46h-155z" />
    <glyph glyph-name="udieresis" unicode="&#xfc;" horiz-adv-x="638" 
d="M206 -14q-77 0 -125 49.5t-48 141.5v346h229v-304q0 -65 50 -65q32 0 46 18t14 58v293h229v-523h-229v80q-49 -94 -166 -94zM204 552q-43 0 -72.5 29t-29.5 70t29.5 70t72.5 29t73 -29t30 -70t-30 -70t-73 -29zM429 552q-43 0 -72 29t-29 70t29 70t72 29t73 -29t30 -70
t-30 -70t-73 -29z" />
    <glyph glyph-name="yacute" unicode="&#xfd;" horiz-adv-x="620" 
d="M129 -172l81 224l-211 471h248l82 -229l77 229h215l-276 -695h-216zM236 568l49 175h219l-105 -175h-163z" />
    <glyph glyph-name="thorn" unicode="&#xfe;" horiz-adv-x="651" 
d="M37 -172v915h229v-293q53 89 155 89q92 0 152.5 -70.5t60.5 -204.5v-8q0 -134 -61.5 -202t-153.5 -68q-54 0 -94.5 23.5t-58.5 62.5v-244h-229zM329 159q73 0 73 100v8q0 104 -73 104q-69 0 -69 -103v-8q0 -101 69 -101z" />
    <glyph glyph-name="ydieresis" unicode="&#xff;" horiz-adv-x="620" 
d="M129 -172l81 224l-211 471h248l82 -229l77 229h215l-276 -695h-216zM209 552q-43 0 -72.5 29t-29.5 70t29.5 70t72.5 29t73 -29t30 -70t-30 -70t-73 -29zM434 552q-43 0 -72 29t-29 70t29 70t72 29t73 -29t30 -70t-30 -70t-73 -29z" />
    <glyph glyph-name="Amacron" unicode="&#x100;" horiz-adv-x="784" 
d="M1 0l220 715h343l219 -715h-284l-24 95h-202l-24 -95h-248zM214 764v129h351v-129h-351zM375 501l-58 -228h114z" />
    <glyph glyph-name="amacron" unicode="&#x101;" horiz-adv-x="598" 
d="M193 -14q-76 0 -127 39.5t-51 119.5q0 92 68.5 131.5t217.5 39.5h37v3q0 21 -2 32.5t-13 22t-32 10.5q-40 0 -46 -45h-212q5 96 76.5 148t195.5 52q126 0 192.5 -51.5t66.5 -151.5v-336h-220v59q-40 -73 -151 -73zM282 136q25 0 40.5 13.5t15.5 33.5v17h-35
q-39 0 -51 -7.5t-12 -27.5q0 -29 42 -29zM136 593v119h331v-119h-331z" />
    <glyph glyph-name="Abreve" unicode="&#x102;" horiz-adv-x="784" 
d="M1 0l220 715h343l219 -715h-284l-24 95h-202l-24 -95h-248zM390 744q-84 0 -130.5 42.5t-51.5 121.5h141q2 -36 41 -36q16 0 27.5 10t13.5 26h141q-7 -79 -54.5 -121.5t-127.5 -42.5zM375 501l-58 -228h114z" />
    <glyph glyph-name="abreve" unicode="&#x103;" horiz-adv-x="598" 
d="M193 -14q-76 0 -127 39.5t-51 119.5q0 92 68.5 131.5t217.5 39.5h37v3q0 21 -2 32.5t-13 22t-32 10.5q-40 0 -46 -45h-212q5 96 76.5 148t195.5 52q126 0 192.5 -51.5t66.5 -151.5v-336h-220v59q-40 -73 -151 -73zM282 136q25 0 40.5 13.5t15.5 33.5v17h-35
q-39 0 -51 -7.5t-12 -27.5q0 -29 42 -29zM302 570q-82 0 -128.5 44t-50.5 128h134q2 -40 45 -40q20 0 32 11t13 29h134q-5 -84 -52.5 -128t-126.5 -44z" />
    <glyph glyph-name="Aogonek" unicode="&#x104;" horiz-adv-x="784" 
d="M663 -182q-63 0 -98.5 22.5t-35.5 59.5q0 24 15 44.5t31.5 31.5t42.5 24h-119l-24 95h-202l-24 -95h-248l220 715h343l213 -696q-24 -14 -39 -33t-15 -32q0 -21 25 -21q8 0 18 2v-99q-36 -18 -103 -18zM375 501l-58 -228h114z" />
    <glyph glyph-name="aogonek" unicode="&#x105;" horiz-adv-x="598" 
d="M462 -182q-57 0 -90 22t-33 60q0 36 24 58.5t66 41.5h-85v59q-40 -73 -151 -73q-76 0 -127 39.5t-51 119.5q0 92 68.5 131.5t217.5 39.5h37v3q0 21 -2 32.5t-13 22t-32 10.5q-40 0 -46 -45h-212q5 96 76.5 148t195.5 52q126 0 192.5 -51.5t66.5 -151.5v-321
q-45 -38 -45 -66q0 -24 27 -24q8 0 18 2v-91q-36 -18 -102 -18zM282 136q25 0 40.5 13.5t15.5 33.5v17h-35q-39 0 -51 -7.5t-12 -27.5q0 -29 42 -29z" />
    <glyph glyph-name="Cacute" unicode="&#x106;" horiz-adv-x="774" 
d="M413 -14q-197 0 -295 98t-98 269v8q0 165 107.5 265t272.5 100q328 0 354 -296h-276q-2 41 -22.5 63.5t-54.5 22.5q-100 0 -100 -154v-8q0 -155 105 -155q82 0 91 86h266q-6 -143 -101.5 -221t-248.5 -78zM301 753l49 155h229l-105 -155h-173z" />
    <glyph glyph-name="cacute" unicode="&#x107;" horiz-adv-x="590" 
d="M300 -14q-127 0 -206 68t-79 200v8q0 132 82.5 204.5t209.5 72.5q114 0 189.5 -55t81.5 -176h-213q-3 19 -6.5 29t-15 18.5t-30.5 8.5q-35 0 -50 -23t-15 -75v-8q0 -56 15 -82t53 -26q54 0 60 65h205q-2 -109 -72 -169t-209 -60zM214 568l49 175h219l-105 -175h-163z" />
    <glyph glyph-name="Ccircumflex" unicode="&#x108;" horiz-adv-x="774" 
d="M413 -14q-197 0 -295 98t-98 269v8q0 165 107.5 265t272.5 100q328 0 354 -296h-276q-2 41 -22.5 63.5t-54.5 22.5q-100 0 -100 -154v-8q0 -155 105 -155q82 0 91 86h266q-6 -143 -101.5 -221t-248.5 -78zM188 753l117 155h189l111 -155h-165l-45 44l-45 -44h-162z" />
    <glyph glyph-name="ccircumflex" unicode="&#x109;" horiz-adv-x="590" 
d="M300 -14q-127 0 -206 68t-79 200v8q0 132 82.5 204.5t209.5 72.5q114 0 189.5 -55t81.5 -176h-213q-3 19 -6.5 29t-15 18.5t-30.5 8.5q-35 0 -50 -23t-15 -75v-8q0 -56 15 -82t53 -26q54 0 60 65h205q-2 -109 -72 -169t-209 -60zM96 571l130 172h155l124 -172h-158
l-48 46l-48 -46h-155z" />
    <glyph glyph-name="Cdotaccent" unicode="&#x10a;" horiz-adv-x="774" 
d="M413 -14q-197 0 -295 98t-98 269v8q0 165 107.5 265t272.5 100q328 0 354 -296h-276q-2 41 -22.5 63.5t-54.5 22.5q-100 0 -100 -154v-8q0 -155 105 -155q82 0 91 86h266q-6 -143 -101.5 -221t-248.5 -78zM398 742q-50 0 -83 30.5t-33 76.5t33 76.5t83 30.5t82.5 -30.5
t32.5 -76.5t-32.5 -76.5t-82.5 -30.5z" />
    <glyph glyph-name="cdotaccent" unicode="&#x10b;" horiz-adv-x="590" 
d="M300 -14q-127 0 -206 68t-79 200v8q0 132 82.5 204.5t209.5 72.5q114 0 189.5 -55t81.5 -176h-213q-3 19 -6.5 29t-15 18.5t-30.5 8.5q-35 0 -50 -23t-15 -75v-8q0 -56 15 -82t53 -26q54 0 60 65h205q-2 -109 -72 -169t-209 -60zM305 552q-51 0 -84 30t-33 77t33 77
t84 30q50 0 83 -30.5t33 -76.5t-33 -76.5t-83 -30.5z" />
    <glyph glyph-name="Ccaron" unicode="&#x10c;" horiz-adv-x="774" 
d="M413 -14q-197 0 -295 98t-98 269v8q0 165 107.5 265t272.5 100q328 0 354 -296h-276q-2 41 -22.5 63.5t-54.5 22.5q-100 0 -100 -154v-8q0 -155 105 -155q82 0 91 86h266q-6 -143 -101.5 -221t-248.5 -78zM298 753l-111 155h165l45 -44l45 44h162l-117 -155h-189z" />
    <glyph glyph-name="ccaron" unicode="&#x10d;" horiz-adv-x="590" 
d="M300 -14q-127 0 -206 68t-79 200v8q0 132 82.5 204.5t209.5 72.5q114 0 189.5 -55t81.5 -176h-213q-3 19 -6.5 29t-15 18.5t-30.5 8.5q-35 0 -50 -23t-15 -75v-8q0 -56 15 -82t53 -26q54 0 60 65h205q-2 -109 -72 -169t-209 -60zM220 571l-124 172h158l48 -46l48 46h155
l-130 -172h-155z" />
    <glyph glyph-name="Dcaron" unicode="&#x10e;" horiz-adv-x="767" 
d="M325 203h21q68 0 96 34t28 117v8q0 87 -29 118.5t-97 31.5h-19v-309zM58 0v715h296q394 0 394 -348v-7q0 -176 -101 -268t-292 -92h-297zM249 753l-111 155h165l45 -44l45 44h162l-117 -155h-189z" />
    <glyph glyph-name="dcaron" unicode="&#x10f;" horiz-adv-x="650" 
d="M230 -14q-92 0 -152.5 68.5t-60.5 203.5v8q0 134 60 203.5t151 69.5q110 0 156 -85v289h229v-743h-229v82q-42 -96 -154 -96zM321 159q69 0 69 101v8q0 103 -70 103q-71 0 -71 -103v-8q0 -101 72 -101zM644 569l7 174h153l-50 -174h-110z" />
    <glyph glyph-name="Dcroat" unicode="&#x110;" horiz-adv-x="804" 
d="M27 272v175h49v268h296q394 0 394 -348v-7q0 -176 -101 -268t-292 -92h-297v272h-49zM337 203h27q68 0 96 34t28 117v8q0 87 -29 118.5t-97 31.5h-25v-65h75v-175h-75v-69z" />
    <glyph glyph-name="dcroat" unicode="&#x111;" horiz-adv-x="650" 
d="M241 572v114h143v57h229v-57h47v-114h-47v-572h-229v82q-42 -96 -154 -96q-92 0 -152.5 68.5t-60.5 203.5v8q0 134 60 203.5t151 69.5q110 0 156 -85v118h-143zM321 159q69 0 69 101v8q0 103 -70 103q-71 0 -71 -103v-8q0 -101 72 -101z" />
    <glyph glyph-name="Emacron" unicode="&#x112;" horiz-adv-x="635" 
d="M58 0v715h534v-203h-269v-61h212v-184h-212v-64h284v-203h-549zM157 764v129h351v-129h-351z" />
    <glyph glyph-name="emacron" unicode="&#x113;" horiz-adv-x="614" 
d="M315 -14q-133 0 -216.5 70t-83.5 198v8q0 127 87 202t215 75q123 0 202.5 -70t79.5 -205v-49h-354q9 -77 78 -77q56 0 67 46h211q-12 -95 -83 -146.5t-203 -51.5zM246 321h134q-2 75 -63 75q-62 0 -71 -75zM145 593v119h331v-119h-331z" />
    <glyph glyph-name="Ebreve" unicode="&#x114;" horiz-adv-x="635" 
d="M58 0v715h534v-203h-269v-61h212v-184h-212v-64h284v-203h-549zM329 744q-84 0 -130.5 42.5t-51.5 121.5h141q2 -36 41 -36q16 0 27.5 10t13.5 26h141q-7 -79 -54.5 -121.5t-127.5 -42.5z" />
    <glyph glyph-name="ebreve" unicode="&#x115;" horiz-adv-x="614" 
d="M315 -14q-133 0 -216.5 70t-83.5 198v8q0 127 87 202t215 75q123 0 202.5 -70t79.5 -205v-49h-354q9 -77 78 -77q56 0 67 46h211q-12 -95 -83 -146.5t-203 -51.5zM246 321h134q-2 75 -63 75q-62 0 -71 -75zM307 570q-82 0 -128.5 44t-50.5 128h134q2 -40 45 -40
q19 0 31.5 11t13.5 29h134q-5 -84 -52.5 -128t-126.5 -44z" />
    <glyph glyph-name="Edotaccent" unicode="&#x116;" horiz-adv-x="635" 
d="M58 0v715h534v-203h-269v-61h212v-184h-212v-64h284v-203h-549zM334 742q-50 0 -83 30.5t-33 76.5t33 76.5t83 30.5t82.5 -30.5t32.5 -76.5t-32.5 -76.5t-82.5 -30.5z" />
    <glyph glyph-name="edotaccent" unicode="&#x117;" horiz-adv-x="614" 
d="M315 -14q-133 0 -216.5 70t-83.5 198v8q0 127 87 202t215 75q123 0 202.5 -70t79.5 -205v-49h-354q9 -77 78 -77q56 0 67 46h211q-12 -95 -83 -146.5t-203 -51.5zM246 321h134q-2 75 -63 75q-62 0 -71 -75zM312 552q-51 0 -84 30t-33 77t33 77t84 30q50 0 83 -30.5
t33 -76.5t-33 -76.5t-83 -30.5z" />
    <glyph glyph-name="Eogonek" unicode="&#x118;" horiz-adv-x="635" 
d="M474 -182q-61 0 -96 22.5t-35 59.5q0 24 15 44.5t31.5 31.5t42.5 24h-374v715h534v-203h-269v-61h212v-184h-212v-64h284v-203h-43q-27 -27 -27 -46q0 -21 25 -21q8 0 18 2v-99q-36 -18 -106 -18z" />
    <glyph glyph-name="eogonek" unicode="&#x119;" horiz-adv-x="614" 
d="M414 -182q-58 0 -92 20.5t-34 58.5q0 19 15.5 38.5t30.5 29t43 26.5q-28 -5 -62 -5q-133 0 -216.5 70t-83.5 198v8q0 127 87 202t215 75q123 0 202.5 -70t79.5 -205v-49h-354q9 -77 78 -77q56 0 67 46h211q-7 -75 -61 -132q-5 -5 -14 -14.5t-13 -14t-11 -12.5t-10 -12
t-8 -10t-7 -10.5t-4.5 -10t-3.5 -10t-1 -9.5q0 -24 27 -24q8 0 18 2v-91q-36 -18 -99 -18zM246 321h134q-2 75 -63 75q-62 0 -71 -75z" />
    <glyph glyph-name="Ecaron" unicode="&#x11a;" horiz-adv-x="635" 
d="M58 0v715h534v-203h-269v-61h212v-184h-212v-64h284v-203h-549zM234 753l-111 155h165l45 -44l45 44h162l-117 -155h-189z" />
    <glyph glyph-name="ecaron" unicode="&#x11b;" horiz-adv-x="614" 
d="M315 -14q-133 0 -216.5 70t-83.5 198v8q0 127 87 202t215 75q123 0 202.5 -70t79.5 -205v-49h-354q9 -77 78 -77q56 0 67 46h211q-12 -95 -83 -146.5t-203 -51.5zM246 321h134q-2 75 -63 75q-62 0 -71 -75zM230 571l-124 172h158l48 -46l48 46h155l-130 -172h-155z" />
    <glyph glyph-name="Gcircumflex" unicode="&#x11c;" horiz-adv-x="797" 
d="M408 -14q-186 0 -287.5 100t-101.5 267v8q0 164 111 264.5t278 100.5q96 0 172 -28t127.5 -93t55.5 -161h-263q-7 73 -91 73q-52 0 -82.5 -42t-30.5 -119v-8q0 -35 5 -61.5t18 -50.5t38 -36.5t61 -12.5q89 0 104 58h-100v162h357v-100q0 -138 -94.5 -229.5t-276.5 -91.5z
M199 753l117 155h189l111 -155h-165l-45 44l-45 -44h-162z" />
    <glyph glyph-name="gcircumflex" unicode="&#x11d;" horiz-adv-x="650" 
d="M302 -195q-272 0 -292 207h226q2 -11 5.5 -18.5t10.5 -16.5t20 -13.5t31 -4.5q81 0 81 84v82q-42 -86 -154 -86q-91 0 -152 63.5t-61 180.5v8q0 116 61 182t150 66q110 0 156 -85v69h229v-475q0 -119 -78 -181t-233 -62zM321 195q69 0 69 86v8q0 37 -18 60t-52 23
q-71 0 -71 -84v-8q0 -85 72 -85zM106 571l130 172h155l124 -172h-158l-48 46l-48 -46h-155z" />
    <glyph glyph-name="Gbreve" unicode="&#x11e;" horiz-adv-x="797" 
d="M408 -14q-186 0 -287.5 100t-101.5 267v8q0 164 111 264.5t278 100.5q96 0 172 -28t127.5 -93t55.5 -161h-263q-7 73 -91 73q-52 0 -82.5 -42t-30.5 -119v-8q0 -35 5 -61.5t18 -50.5t38 -36.5t61 -12.5q89 0 104 58h-100v162h357v-100q0 -138 -94.5 -229.5t-276.5 -91.5z
M408 744q-84 0 -130.5 42.5t-51.5 121.5h141q2 -36 41 -36q16 0 27.5 10t13.5 26h141q-7 -79 -54.5 -121.5t-127.5 -42.5z" />
    <glyph glyph-name="gbreve" unicode="&#x11f;" horiz-adv-x="650" 
d="M302 -195q-272 0 -292 207h226q2 -11 5.5 -18.5t10.5 -16.5t20 -13.5t31 -4.5q81 0 81 84v82q-42 -86 -154 -86q-91 0 -152 63.5t-61 180.5v8q0 116 61 182t150 66q110 0 156 -85v69h229v-475q0 -119 -78 -181t-233 -62zM321 195q69 0 69 86v8q0 37 -18 60t-52 23
q-71 0 -71 -84v-8q0 -85 72 -85zM311 570q-82 0 -128.5 44t-50.5 128h134q2 -40 45 -40q19 0 31.5 11t13.5 29h134q-5 -84 -52.5 -128t-126.5 -44z" />
    <glyph glyph-name="Gdotaccent" unicode="&#x120;" horiz-adv-x="797" 
d="M408 -14q-186 0 -287.5 100t-101.5 267v8q0 164 111 264.5t278 100.5q96 0 172 -28t127.5 -93t55.5 -161h-263q-7 73 -91 73q-52 0 -82.5 -42t-30.5 -119v-8q0 -35 5 -61.5t18 -50.5t38 -36.5t61 -12.5q89 0 104 58h-100v162h357v-100q0 -138 -94.5 -229.5t-276.5 -91.5z
M409 742q-50 0 -83 30.5t-33 76.5t33 76.5t83 30.5t82.5 -30.5t32.5 -76.5t-32.5 -76.5t-82.5 -30.5z" />
    <glyph glyph-name="gdotaccent" unicode="&#x121;" horiz-adv-x="650" 
d="M302 -195q-272 0 -292 207h226q2 -11 5.5 -18.5t10.5 -16.5t20 -13.5t31 -4.5q81 0 81 84v82q-42 -86 -154 -86q-91 0 -152 63.5t-61 180.5v8q0 116 61 182t150 66q110 0 156 -85v69h229v-475q0 -119 -78 -181t-233 -62zM321 195q69 0 69 86v8q0 37 -18 60t-52 23
q-71 0 -71 -84v-8q0 -85 72 -85zM312 552q-51 0 -84 30t-33 77t33 77t84 30q50 0 83 -30.5t33 -76.5t-33 -76.5t-83 -30.5z" />
    <glyph glyph-name="Gcommaaccent" unicode="&#x122;" horiz-adv-x="797" 
d="M408 -14q-186 0 -287.5 100t-101.5 267v8q0 164 111 264.5t278 100.5q96 0 172 -28t127.5 -93t55.5 -161h-263q-7 73 -91 73q-52 0 -82.5 -42t-30.5 -119v-8q0 -35 5 -61.5t18 -50.5t38 -36.5t61 -12.5q89 0 104 58h-100v162h357v-100q0 -138 -94.5 -229.5t-276.5 -91.5z
M401 -236l-126 27l33 173h197z" />
    <glyph glyph-name="gcommaaccent" unicode="&#x123;" horiz-adv-x="650" 
d="M302 -195q-272 0 -292 207h226q2 -11 5.5 -18.5t10.5 -16.5t20 -13.5t31 -4.5q81 0 81 84v82q-42 -86 -154 -86q-91 0 -152 63.5t-61 180.5v8q0 116 61 182t150 66q110 0 156 -85v69h229v-475q0 -119 -78 -181t-233 -62zM321 195q69 0 69 86v8q0 37 -18 60t-52 23
q-71 0 -71 -84v-8q0 -85 72 -85zM420 562h-197l104 200l126 -27z" />
    <glyph glyph-name="Hcircumflex" unicode="&#x124;" horiz-adv-x="812" 
d="M58 0v715h267v-247h163v247h266v-715h-266v263h-163v-263h-267zM197 753l117 155h189l111 -155h-165l-45 44l-45 -44h-162z" />
    <glyph glyph-name="hcircumflex" unicode="&#x125;" horiz-adv-x="638" 
d="M37 0v743h229v-304q54 100 174 100q75 0 119.5 -49t44.5 -140v-350h-229v292q0 65 -50 65q-31 0 -45 -18t-14 -58v-281h-229zM115 771l130 172h155l124 -172h-158l-48 46l-48 -46h-155z" />
    <glyph glyph-name="Hbar" unicode="&#x126;" horiz-adv-x="812" 
d="M3 535v111h55v69h267v-69h163v69h266v-69h55v-111h-55v-535h-266v263h-163v-263h-267v535h-55zM325 468h163v67h-163v-67z" />
    <glyph glyph-name="hbar" unicode="&#x127;" horiz-adv-x="638" 
d="M-10 572v114h47v57h229v-57h143v-114h-143v-133q54 100 174 100q75 0 119.5 -49t44.5 -140v-350h-229v292q0 65 -50 65q-31 0 -45 -18t-14 -58v-281h-229v572h-47z" />
    <glyph glyph-name="Itilde" unicode="&#x128;" horiz-adv-x="391" 
d="M61 0v715h269v-715h-269zM265 750q-35 0 -74 14.5t-51 14.5q-24 0 -27 -26h-123q4 87 41 129.5t92 42.5q33 0 73 -14.5t55 -14.5q22 0 27 26h123q-5 -86 -44 -129t-92 -43z" />
    <glyph glyph-name="itilde" unicode="&#x129;" horiz-adv-x="316" 
d="M44 0v523h228v-523h-228zM227 570q-35 0 -72 14.5t-49 14.5q-24 0 -27 -26h-116q4 88 37 132t86 44q32 0 71 -14.5t54 -14.5q22 0 27 26h116q-5 -87 -40 -131.5t-87 -44.5z" />
    <glyph glyph-name="Imacron" unicode="&#x12a;" horiz-adv-x="391" 
d="M61 0v715h269v-715h-269zM19 764v129h351v-129h-351z" />
    <glyph glyph-name="imacron" unicode="&#x12b;" horiz-adv-x="316" 
d="M22 593v119h272v-119h-272zM44 0v523h228v-523h-228z" />
    <glyph glyph-name="Ibreve" unicode="&#x12c;" horiz-adv-x="391" 
d="M61 0v715h269v-715h-269zM195 744q-84 0 -130.5 42.5t-51.5 121.5h141q2 -36 41 -36q16 0 27.5 10t13.5 26h141q-7 -79 -54.5 -121.5t-127.5 -42.5z" />
    <glyph glyph-name="ibreve" unicode="&#x12d;" horiz-adv-x="316" 
d="M44 0v523h228v-523h-228zM158 570q-82 0 -128.5 44t-50.5 128h134q2 -40 45 -40q20 0 32 11t13 29h134q-5 -84 -52.5 -128t-126.5 -44z" />
    <glyph glyph-name="Iogonek" unicode="&#x12e;" horiz-adv-x="391" 
d="M226 -182q-62 0 -97.5 22.5t-35.5 59.5q0 24 15 44.5t31.5 31.5t42.5 24h-121v715h269v-699q-43 -36 -43 -62q0 -21 25 -21q8 0 18 2v-99q-36 -18 -104 -18z" />
    <glyph glyph-name="iogonek" unicode="&#x12f;" horiz-adv-x="316" 
d="M172 -182q-57 0 -90 22t-33 60q0 36 24 58.5t66 41.5h-95v523h228v-511q-43 -35 -43 -63q0 -24 27 -24q8 0 18 2v-91q-36 -18 -102 -18zM158 542q-53 0 -87 31.5t-34 80.5t34 80.5t87 31.5q52 0 86.5 -31.5t34.5 -80.5t-34.5 -80.5t-86.5 -31.5z" />
    <glyph glyph-name="Idotaccent" unicode="&#x130;" horiz-adv-x="391" 
d="M61 0v715h269v-715h-269zM196 742q-50 0 -83 30.5t-33 76.5t33 76.5t83 30.5t82.5 -30.5t32.5 -76.5t-32.5 -76.5t-82.5 -30.5z" />
    <glyph glyph-name="dotlessi" unicode="&#x131;" horiz-adv-x="316" 
d="M44 0v523h228v-523h-228z" />
    <glyph glyph-name="IJ" unicode="&#x132;" horiz-adv-x="879" 
d="M61 0v715h269v-715h-269zM547 -9q-92 0 -146 27v194q42 -11 83 -11q82 0 82 80v434h267v-434q0 -290 -286 -290z" />
    <glyph glyph-name="ij" unicode="&#x133;" horiz-adv-x="632" 
d="M44 0v523h228v-523h-228zM158 542q-53 0 -87 31.5t-34 80.5t34 80.5t87 31.5q52 0 86.5 -31.5t34.5 -80.5t-34.5 -80.5t-86.5 -31.5zM302 -181v161q29 2 43 13.5t14 38.5v491h228v-500q0 -99 -62.5 -152t-222.5 -52zM474 542q-53 0 -87 31.5t-34 80.5t34 80.5t87 31.5
q52 0 86.5 -31.5t34.5 -80.5t-34.5 -80.5t-86.5 -31.5z" />
    <glyph glyph-name="Jcircumflex" unicode="&#x134;" horiz-adv-x="508" 
d="M176 -9q-92 0 -146 27v194q42 -11 83 -11q82 0 82 80v434h267v-434q0 -290 -286 -290zM119 753l117 155h189l111 -155h-165l-45 44l-45 -44h-162z" />
    <glyph glyph-name="jcircumflex" unicode="&#x135;" horiz-adv-x="316" 
d="M-14 -181v161q29 2 43 13.5t14 38.5v491h228v-500q0 -99 -62.5 -152t-222.5 -52zM-48 571l130 172h155l124 -172h-158l-48 46l-48 -46h-155z" />
    <glyph glyph-name="Kcommaaccent" unicode="&#x136;" horiz-adv-x="782" 
d="M58 0v715h267v-244l166 244h274l-233 -325l246 -390h-305l-148 257v-257h-267zM393 -236l-126 27l33 173h197z" />
    <glyph glyph-name="kcommaaccent" unicode="&#x137;" horiz-adv-x="609" 
d="M37 0v743h229v-399l101 179h232l-143 -231l154 -292h-251l-93 191v-191h-229zM311 -236l-126 27l33 173h197z" />
    <glyph glyph-name="Lacute" unicode="&#x139;" horiz-adv-x="595" 
d="M58 0v715h267v-511h241v-204h-508zM99 753l49 155h229l-105 -155h-173z" />
    <glyph glyph-name="lacute" unicode="&#x13a;" horiz-adv-x="313" 
d="M43 0v743h227v-743h-227zM71 768l49 175h219l-105 -175h-163z" />
    <glyph glyph-name="Lcommaaccent" unicode="&#x13b;" horiz-adv-x="595" 
d="M58 0v715h267v-511h241v-204h-508zM301 -236l-126 27l33 173h197z" />
    <glyph glyph-name="lcommaaccent" unicode="&#x13c;" horiz-adv-x="313" 
d="M43 0v743h227v-743h-227zM150 -236l-126 27l33 173h197z" />
    <glyph glyph-name="Lcaron" unicode="&#x13d;" horiz-adv-x="595" 
d="M370 529l13 186h176l-62 -186h-127zM58 0v715h267v-511h241v-204h-508z" />
    <glyph glyph-name="lcaron" unicode="&#x13e;" horiz-adv-x="313" 
d="M43 0v743h227v-743h-227zM301 569l7 174h153l-50 -174h-110z" />
    <glyph glyph-name="Ldot" unicode="&#x13f;" horiz-adv-x="635" 
d="M58 0v715h267v-511h241v-204h-508zM513 290q-53 0 -87.5 34.5t-34.5 85.5q0 50 34.5 85t87.5 35q54 0 90 -35t36 -85q0 -51 -36 -85.5t-90 -34.5z" />
    <glyph glyph-name="ldot" unicode="&#x140;" horiz-adv-x="521" 
d="M43 0v743h227v-743h-227zM415 236q-53 0 -87.5 34.5t-34.5 85.5q0 50 34.5 85t87.5 35q54 0 90 -35t36 -85q0 -51 -36 -85.5t-90 -34.5z" />
    <glyph glyph-name="Lslash" unicode="&#x141;" horiz-adv-x="613" 
d="M16 217v129l60 20v349h267v-258l170 58v-130l-170 -58v-123h241v-204h-508v237z" />
    <glyph glyph-name="lslash" unicode="&#x142;" horiz-adv-x="363" 
d="M15 235v139l53 24v345h227v-243l56 25v-139l-56 -25v-361h-227v259z" />
    <glyph glyph-name="Nacute" unicode="&#x143;" horiz-adv-x="805" 
d="M58 0v715h297l155 -332v332h236v-715h-253l-198 390v-390h-237zM329 753l49 155h229l-105 -155h-173z" />
    <glyph glyph-name="nacute" unicode="&#x144;" horiz-adv-x="638" 
d="M37 0v523h229v-84q54 100 174 100q75 0 119.5 -49t44.5 -140v-350h-229v292q0 65 -50 65q-31 0 -45 -18t-14 -58v-281h-229zM235 568l49 175h219l-105 -175h-163z" />
    <glyph glyph-name="Ncommaaccent" unicode="&#x145;" horiz-adv-x="805" 
d="M58 0v715h297l155 -332v332h236v-715h-253l-198 390v-390h-237zM396 -236l-126 27l33 173h197z" />
    <glyph glyph-name="ncommaaccent" unicode="&#x146;" horiz-adv-x="638" 
d="M37 0v523h229v-84q54 100 174 100q75 0 119.5 -49t44.5 -140v-350h-229v292q0 65 -50 65q-31 0 -45 -18t-14 -58v-281h-229zM314 -236l-126 27l33 173h197z" />
    <glyph glyph-name="Ncaron" unicode="&#x147;" horiz-adv-x="805" 
d="M58 0v715h297l155 -332v332h236v-715h-253l-198 390v-390h-237zM326 753l-111 155h165l45 -44l45 44h162l-117 -155h-189z" />
    <glyph glyph-name="ncaron" unicode="&#x148;" horiz-adv-x="638" 
d="M37 0v523h229v-84q54 100 174 100q75 0 119.5 -49t44.5 -140v-350h-229v292q0 65 -50 65q-31 0 -45 -18t-14 -58v-281h-229zM240 571l-124 172h158l48 -46l48 46h155l-130 -172h-155z" />
    <glyph glyph-name="napostrophe" unicode="&#x149;" horiz-adv-x="817" 
d="M216 0v523h229v-84q54 100 174 100q75 0 119.5 -49t44.5 -140v-350h-229v292q0 65 -50 65q-31 0 -45 -18t-14 -58v-281h-229zM101 397l-126 46l75 286l198 -61z" />
    <glyph glyph-name="Eng" unicode="&#x14a;" horiz-adv-x="805" 
d="M483 -192q-78 0 -135 25v183q40 -11 69 -11q47 0 63 20l-185 365v-390h-237v715h297l155 -332v332h236v-685q0 -99 -65.5 -160.5t-197.5 -61.5z" />
    <glyph glyph-name="eng" unicode="&#x14b;" horiz-adv-x="638" 
d="M319 -181v161q29 2 42.5 13.5t13.5 38.5v260q0 65 -50 65q-31 0 -45 -18t-14 -58v-281h-229v523h229v-84q54 100 174 100q75 0 119.5 -49t44.5 -140v-327q0 -99 -62.5 -152t-222.5 -52z" />
    <glyph glyph-name="Omacron" unicode="&#x14c;" horiz-adv-x="823" 
d="M411 194q53 0 84 41.5t31 118.5v8q0 79 -31 118t-85 39q-52 0 -82.5 -39t-30.5 -118v-8q0 -160 114 -160zM404 -14q-179 0 -282 99.5t-103 267.5v8q0 165 112 265t279 100q173 0 283.5 -94.5t110.5 -263.5v-8q0 -171 -108.5 -272.5t-291.5 -101.5zM235 764v129h351v-129
h-351z" />
    <glyph glyph-name="omacron" unicode="&#x14d;" horiz-adv-x="632" 
d="M317 152q68 0 68 107v8q0 54 -16 79.5t-52 25.5q-70 0 -70 -102v-8q0 -57 16.5 -83.5t53.5 -26.5zM316 -14q-131 0 -216 70t-85 198v8q0 127 85.5 202t216.5 75q130 0 215 -72.5t85 -197.5v-8q0 -128 -85.5 -201.5t-215.5 -73.5zM150 593v119h331v-119h-331z" />
    <glyph glyph-name="Obreve" unicode="&#x14e;" horiz-adv-x="823" 
d="M411 194q53 0 84 41.5t31 118.5v8q0 79 -31 118t-85 39q-52 0 -82.5 -39t-30.5 -118v-8q0 -160 114 -160zM404 -14q-179 0 -282 99.5t-103 267.5v8q0 165 112 265t279 100q173 0 283.5 -94.5t110.5 -263.5v-8q0 -171 -108.5 -272.5t-291.5 -101.5zM411 744
q-84 0 -130.5 42.5t-51.5 121.5h141q2 -36 41 -36q16 0 27.5 10t13.5 26h141q-7 -79 -54.5 -121.5t-127.5 -42.5z" />
    <glyph glyph-name="obreve" unicode="&#x14f;" horiz-adv-x="632" 
d="M317 152q68 0 68 107v8q0 54 -16 79.5t-52 25.5q-70 0 -70 -102v-8q0 -57 16.5 -83.5t53.5 -26.5zM316 -14q-131 0 -216 70t-85 198v8q0 127 85.5 202t216.5 75q130 0 215 -72.5t85 -197.5v-8q0 -128 -85.5 -201.5t-215.5 -73.5zM316 570q-82 0 -128.5 44t-50.5 128h134
q2 -40 45 -40q20 0 32 11t13 29h134q-5 -84 -52.5 -128t-126.5 -44z" />
    <glyph glyph-name="Ohungarumlaut" unicode="&#x150;" horiz-adv-x="823" 
d="M411 194q53 0 84 41.5t31 118.5v8q0 79 -31 118t-85 39q-52 0 -82.5 -39t-30.5 -118v-8q0 -160 114 -160zM404 -14q-179 0 -282 99.5t-103 267.5v8q0 165 112 265t279 100q173 0 283.5 -94.5t110.5 -263.5v-8q0 -171 -108.5 -272.5t-291.5 -101.5zM213 753l43 155h183
l-76 -155h-150zM428 753l43 155h183l-76 -155h-150z" />
    <glyph glyph-name="ohungarumlaut" unicode="&#x151;" horiz-adv-x="632" 
d="M317 152q68 0 68 107v8q0 54 -16 79.5t-52 25.5q-70 0 -70 -102v-8q0 -57 16.5 -83.5t53.5 -26.5zM316 -14q-131 0 -216 70t-85 198v8q0 127 85.5 202t216.5 75q130 0 215 -72.5t85 -197.5v-8q0 -128 -85.5 -201.5t-215.5 -73.5zM141 568l45 175h163l-78 -175h-130z
M330 568l45 175h163l-78 -175h-130z" />
    <glyph glyph-name="OE" unicode="&#x152;" horiz-adv-x="991" 
d="M19 355q0 176 101.5 268t289.5 92h538v-203h-255v-61h198v-184h-198v-64h270v-203h-552q-193 0 -292.5 87t-99.5 261v7zM430 512h-11q-67 0 -94.5 -34t-27.5 -117v-8q0 -88 28.5 -119t95.5 -31h9v309z" />
    <glyph glyph-name="oe" unicode="&#x153;" horiz-adv-x="982" 
d="M316 -14q-131 0 -216 70t-85 198v8q0 127 85.5 202t216.5 75q113 0 184 -63q72 63 183 63q123 0 202.5 -70t79.5 -205v-49h-354q9 -77 78 -77q56 0 67 46h211q-12 -95 -83 -146.5t-203 -51.5q-117 0 -186 60q-69 -60 -180 -60zM317 152q68 0 68 107v8q0 54 -16 79.5
t-52 25.5q-70 0 -70 -102v-8q0 -57 16.5 -83.5t53.5 -26.5zM613 321h134q-2 75 -63 75q-62 0 -71 -75z" />
    <glyph glyph-name="Racute" unicode="&#x154;" horiz-adv-x="733" 
d="M58 0v715h314q312 0 312 -241v-4q0 -128 -105 -185l147 -285h-277l-111 227h-15v-227h-265zM323 394h30q75 0 75 63v4q0 56 -73 56h-32v-123zM256 753l49 155h229l-105 -155h-173z" />
    <glyph glyph-name="racute" unicode="&#x155;" horiz-adv-x="455" 
d="M37 0v523h229v-109q45 120 167 115v-213q-81 6 -124 -18t-43 -70v-228h-229zM164 568l49 175h219l-105 -175h-163z" />
    <glyph glyph-name="Rcommaaccent" unicode="&#x156;" horiz-adv-x="733" 
d="M58 0v715h314q312 0 312 -241v-4q0 -128 -105 -185l147 -285h-277l-111 227h-15v-227h-265zM323 394h30q75 0 75 63v4q0 56 -73 56h-32v-123zM389 -236l-126 27l33 173h197z" />
    <glyph glyph-name="rcommaaccent" unicode="&#x157;" horiz-adv-x="455" 
d="M37 0v523h229v-109q45 120 167 115v-213q-81 6 -124 -18t-43 -70v-228h-229zM150 -236l-126 27l33 173h197z" />
    <glyph glyph-name="Rcaron" unicode="&#x158;" horiz-adv-x="733" 
d="M58 0v715h314q312 0 312 -241v-4q0 -128 -105 -185l147 -285h-277l-111 227h-15v-227h-265zM323 394h30q75 0 75 63v4q0 56 -73 56h-32v-123zM253 753l-111 155h165l45 -44l45 44h162l-117 -155h-189z" />
    <glyph glyph-name="rcaron" unicode="&#x159;" horiz-adv-x="455" 
d="M37 0v523h229v-109q45 120 167 115v-213q-81 6 -124 -18t-43 -70v-228h-229zM169 571l-124 172h158l48 -46l48 46h155l-130 -172h-155z" />
    <glyph glyph-name="Sacute" unicode="&#x15a;" horiz-adv-x="663" 
d="M339 -14q-323 0 -326 246h251q4 -61 75 -61q55 0 55 38q0 19 -18.5 29t-62.5 15q-160 17 -223 68.5t-63 165.5q0 106 80.5 172.5t220.5 66.5q142 0 216.5 -57.5t83.5 -179.5h-246q-2 24 -16 38t-39 14q-48 0 -48 -34q0 -19 17.5 -29t62.5 -14q147 -14 218.5 -62
t71.5 -164q0 -108 -81 -180t-229 -72zM235 753l49 155h229l-105 -155h-173z" />
    <glyph glyph-name="sacute" unicode="&#x15b;" horiz-adv-x="539" 
d="M267 -14q-122 0 -189 47.5t-69 138.5h209q4 -23 14 -34t34 -11q39 0 39 26q0 15 -18 23.5t-67 13.5q-113 11 -160.5 45.5t-47.5 119.5q0 90 69 137t179 47q117 0 181.5 -41.5t72.5 -137.5h-205q-9 42 -45 42q-38 0 -38 -27q0 -30 70 -34q128 -13 180 -47.5t52 -116.5
q0 -191 -261 -191zM180 568l49 175h219l-105 -175h-163z" />
    <glyph glyph-name="Scircumflex" unicode="&#x15c;" horiz-adv-x="663" 
d="M339 -14q-323 0 -326 246h251q4 -61 75 -61q55 0 55 38q0 19 -18.5 29t-62.5 15q-160 17 -223 68.5t-63 165.5q0 106 80.5 172.5t220.5 66.5q142 0 216.5 -57.5t83.5 -179.5h-246q-2 24 -16 38t-39 14q-48 0 -48 -34q0 -19 17.5 -29t62.5 -14q147 -14 218.5 -62
t71.5 -164q0 -108 -81 -180t-229 -72zM122 753l117 155h189l111 -155h-165l-45 44l-45 -44h-162z" />
    <glyph glyph-name="scircumflex" unicode="&#x15d;" horiz-adv-x="539" 
d="M267 -14q-122 0 -189 47.5t-69 138.5h209q4 -23 14 -34t34 -11q39 0 39 26q0 15 -18 23.5t-67 13.5q-113 11 -160.5 45.5t-47.5 119.5q0 90 69 137t179 47q117 0 181.5 -41.5t72.5 -137.5h-205q-9 42 -45 42q-38 0 -38 -27q0 -30 70 -34q128 -13 180 -47.5t52 -116.5
q0 -191 -261 -191zM58 571l130 172h155l124 -172h-158l-48 46l-48 -46h-155z" />
    <glyph glyph-name="Scedilla" unicode="&#x15e;" horiz-adv-x="663" 
d="M313 -232q-124 0 -141 97h100q6 -23 32 -23q28 0 28 27q0 29 -32 29q-21 0 -34 -13l-42 44l42 61q-252 25 -253 242h251q4 -61 75 -61q55 0 55 38q0 19 -18.5 29t-62.5 15q-160 17 -223 68.5t-63 165.5q0 106 80.5 172.5t220.5 66.5q142 0 216.5 -57.5t83.5 -179.5h-246
q-2 24 -16 38t-39 14q-48 0 -48 -34q0 -19 17.5 -29t62.5 -14q147 -14 218.5 -62t71.5 -164q0 -107 -79.5 -178.5t-224.5 -73.5l-20 -27q51 5 85 -18t34 -71q0 -47 -35 -74.5t-96 -27.5z" />
    <glyph glyph-name="scedilla" unicode="&#x15f;" horiz-adv-x="539" 
d="M248 -232q-124 0 -141 97h100q6 -23 32 -23q28 0 28 27q0 29 -32 29q-21 0 -34 -13l-42 44l43 61q-92 11 -142 57t-51 125h209q4 -23 14 -34t34 -11q39 0 39 26q0 15 -18 23.5t-67 13.5q-113 11 -160.5 45.5t-47.5 119.5q0 90 69 137t179 47q117 0 181.5 -41.5
t72.5 -137.5h-205q-9 42 -45 42q-38 0 -38 -27q0 -30 70 -34q128 -13 180 -47.5t52 -116.5q0 -186 -248 -191l-20 -27q51 5 85 -18t34 -71q0 -47 -35 -74.5t-96 -27.5z" />
    <glyph glyph-name="Scaron" unicode="&#x160;" horiz-adv-x="663" 
d="M339 -14q-323 0 -326 246h251q4 -61 75 -61q55 0 55 38q0 19 -18.5 29t-62.5 15q-160 17 -223 68.5t-63 165.5q0 106 80.5 172.5t220.5 66.5q142 0 216.5 -57.5t83.5 -179.5h-246q-2 24 -16 38t-39 14q-48 0 -48 -34q0 -19 17.5 -29t62.5 -14q147 -14 218.5 -62
t71.5 -164q0 -108 -81 -180t-229 -72zM232 753l-111 155h165l45 -44l45 44h162l-117 -155h-189z" />
    <glyph glyph-name="scaron" unicode="&#x161;" horiz-adv-x="539" 
d="M267 -14q-122 0 -189 47.5t-69 138.5h209q4 -23 14 -34t34 -11q39 0 39 26q0 15 -18 23.5t-67 13.5q-113 11 -160.5 45.5t-47.5 119.5q0 90 69 137t179 47q117 0 181.5 -41.5t72.5 -137.5h-205q-9 42 -45 42q-38 0 -38 -27q0 -30 70 -34q128 -13 180 -47.5t52 -116.5
q0 -191 -261 -191zM178 571l-124 172h158l48 -46l48 46h155l-130 -172h-155z" />
    <glyph glyph-name="Tcommaaccent" unicode="&#x162;" horiz-adv-x="648" 
d="M190 0v511h-173v204h614v-204h-173v-511h-268zM316 -236l-126 27l33 173h197z" />
    <glyph glyph-name="tcommaaccent" unicode="&#x163;" horiz-adv-x="407" 
d="M271 -14q-207 0 -207 201v187h-57v149h57v104h229v-104h93v-149h-93v-165q0 -44 47 -44q23 0 44 8v-170q-63 -17 -113 -17zM212 -236l-126 27l33 173h197z" />
    <glyph glyph-name="Tcaron" unicode="&#x164;" horiz-adv-x="648" 
d="M190 0v511h-173v204h614v-204h-173v-511h-268zM224 753l-111 155h165l45 -44l45 44h162l-117 -155h-189z" />
    <glyph glyph-name="tcaron" unicode="&#x165;" horiz-adv-x="407" 
d="M271 -14q-207 0 -207 201v187h-57v149h57v104h229v-104h93v-149h-93v-165q0 -44 47 -44q23 0 44 8v-170q-63 -17 -113 -17zM325 569l7 174h153l-50 -174h-110z" />
    <glyph glyph-name="Tbar" unicode="&#x166;" horiz-adv-x="648" 
d="M74 248v161h116v102h-173v204h614v-204h-173v-102h116v-161h-116v-248h-268v248h-116z" />
    <glyph glyph-name="tbar" unicode="&#x167;" horiz-adv-x="407" 
d="M7 240v89h57v45h-57v149h57v104h229v-104h93v-149h-93v-45h93v-89h-93v-31q0 -44 47 -44q23 0 44 8v-170q-63 -17 -113 -17q-207 0 -207 201v53h-57z" />
    <glyph glyph-name="Utilde" unicode="&#x168;" horiz-adv-x="799" 
d="M401 -14q-168 0 -257.5 80.5t-89.5 238.5v410h266v-402q0 -63 15.5 -91t65.5 -28q48 0 62 27.5t14 89.5v404h268v-411q0 -163 -91.5 -240.5t-252.5 -77.5zM467 750q-35 0 -74 14.5t-51 14.5q-24 0 -27 -26h-123q4 87 41 129.5t92 42.5q33 0 73 -14.5t55 -14.5q22 0 27 26
h123q-5 -86 -44 -129t-92 -43z" />
    <glyph glyph-name="utilde" unicode="&#x169;" horiz-adv-x="638" 
d="M206 -14q-77 0 -125 49.5t-48 141.5v346h229v-304q0 -65 50 -65q32 0 46 18t14 58v293h229v-523h-229v80q-49 -94 -166 -94zM386 570q-36 0 -73 14.5t-48 14.5q-24 0 -27 -26h-116q4 88 37 132t86 44q33 0 72 -14.5t53 -14.5q22 0 27 26h116q-5 -87 -40 -131.5t-87 -44.5
z" />
    <glyph glyph-name="Umacron" unicode="&#x16a;" horiz-adv-x="799" 
d="M401 -14q-168 0 -257.5 80.5t-89.5 238.5v410h266v-402q0 -63 15.5 -91t65.5 -28q48 0 62 27.5t14 89.5v404h268v-411q0 -163 -91.5 -240.5t-252.5 -77.5zM221 764v129h351v-129h-351z" />
    <glyph glyph-name="umacron" unicode="&#x16b;" horiz-adv-x="638" 
d="M206 -14q-77 0 -125 49.5t-48 141.5v346h229v-304q0 -65 50 -65q32 0 46 18t14 58v293h229v-523h-229v80q-49 -94 -166 -94zM151 593v119h331v-119h-331z" />
    <glyph glyph-name="Ubreve" unicode="&#x16c;" horiz-adv-x="799" 
d="M401 -14q-168 0 -257.5 80.5t-89.5 238.5v410h266v-402q0 -63 15.5 -91t65.5 -28q48 0 62 27.5t14 89.5v404h268v-411q0 -163 -91.5 -240.5t-252.5 -77.5zM397 744q-84 0 -130.5 42.5t-51.5 121.5h141q2 -36 41 -36q16 0 27.5 10t13.5 26h141q-7 -79 -54.5 -121.5
t-127.5 -42.5z" />
    <glyph glyph-name="ubreve" unicode="&#x16d;" horiz-adv-x="638" 
d="M206 -14q-77 0 -125 49.5t-48 141.5v346h229v-304q0 -65 50 -65q32 0 46 18t14 58v293h229v-523h-229v80q-49 -94 -166 -94zM317 570q-82 0 -128.5 44t-50.5 128h134q2 -40 45 -40q19 0 31.5 11t13.5 29h134q-5 -84 -52.5 -128t-126.5 -44z" />
    <glyph glyph-name="Uring" unicode="&#x16e;" horiz-adv-x="799" 
d="M401 -14q-168 0 -257.5 80.5t-89.5 238.5v410h266v-402q0 -63 15.5 -91t65.5 -28q48 0 62 27.5t14 89.5v404h268v-411q0 -163 -91.5 -240.5t-252.5 -77.5zM397 792q19 0 31 13t12 34t-12 34t-31 13t-31 -13t-12 -34t12 -34t31 -13zM397 717q-52 0 -89 36t-37 86t37 86
t89 36t89 -36t37 -86t-37 -86t-89 -36z" />
    <glyph glyph-name="uring" unicode="&#x16f;" horiz-adv-x="638" 
d="M206 -14q-77 0 -125 49.5t-48 141.5v346h229v-304q0 -65 50 -65q32 0 46 18t14 58v293h229v-523h-229v80q-49 -94 -166 -94zM317 621q19 0 30.5 13t11.5 33t-11.5 33t-30.5 13t-30.5 -13t-11.5 -33t11.5 -33t30.5 -13zM317 547q-51 0 -87.5 35.5t-36.5 84.5t36.5 84.5
t87.5 35.5t87.5 -35.5t36.5 -84.5t-36.5 -84.5t-87.5 -35.5z" />
    <glyph glyph-name="Uhungarumlaut" unicode="&#x170;" horiz-adv-x="799" 
d="M401 -14q-168 0 -257.5 80.5t-89.5 238.5v410h266v-402q0 -63 15.5 -91t65.5 -28q48 0 62 27.5t14 89.5v404h268v-411q0 -163 -91.5 -240.5t-252.5 -77.5zM199 753l43 155h183l-76 -155h-150zM414 753l43 155h183l-76 -155h-150z" />
    <glyph glyph-name="uhungarumlaut" unicode="&#x171;" horiz-adv-x="638" 
d="M206 -14q-77 0 -125 49.5t-48 141.5v346h229v-304q0 -65 50 -65q32 0 46 18t14 58v293h229v-523h-229v80q-49 -94 -166 -94zM142 568l45 175h163l-78 -175h-130zM331 568l45 175h163l-78 -175h-130z" />
    <glyph glyph-name="Uogonek" unicode="&#x172;" horiz-adv-x="799" 
d="M438 -182q-59 0 -93.5 21.5t-34.5 58.5q0 51 64 89q-156 7 -238 86.5t-82 231.5v410h266v-402q0 -63 15.5 -91t65.5 -28q48 0 62 27.5t14 89.5v404h268v-411q0 -213 -165 -287q-4 -2 -12.5 -5.5t-12.5 -5.5t-12 -5.5t-11.5 -6t-9.5 -6.5t-8.5 -7t-5.5 -7.5t-4.5 -9
t-1.5 -9.5q0 -22 27 -22q8 0 18 2v-99q-36 -18 -109 -18z" />
    <glyph glyph-name="uogonek" unicode="&#x173;" horiz-adv-x="638" 
d="M499 -182q-57 0 -90 22t-33 60q0 36 24 58.5t66 41.5h-94v80q-49 -94 -166 -94q-77 0 -125 49.5t-48 141.5v346h229v-304q0 -65 50 -65q32 0 46 18t14 58v293h229v-508q-45 -38 -45 -66q0 -24 27 -24q8 0 18 2v-91q-36 -18 -102 -18z" />
    <glyph glyph-name="Wcircumflex" unicode="&#x174;" horiz-adv-x="1032" 
d="M170 0l-166 715h267l66 -393l67 393h224l83 -398l71 398h246l-166 -715h-255l-83 378l-82 -378h-272zM307 753l117 155h189l111 -155h-165l-45 44l-45 -44h-162z" />
    <glyph glyph-name="wcircumflex" unicode="&#x175;" horiz-adv-x="871" 
d="M155 0l-156 523h237l53 -257l67 257h182l56 -257l66 257h213l-167 -523h-212l-62 240l-59 -240h-218zM230 571l130 172h155l124 -172h-158l-48 46l-48 -46h-155z" />
    <glyph glyph-name="Ycircumflex" unicode="&#x176;" horiz-adv-x="718" 
d="M230 0v303l-230 412h288l87 -194l90 194h253l-220 -411v-304h-268zM160 753l117 155h189l111 -155h-165l-45 44l-45 -44h-162z" />
    <glyph glyph-name="ycircumflex" unicode="&#x177;" horiz-adv-x="620" 
d="M129 -172l81 224l-211 471h248l82 -229l77 229h215l-276 -695h-216zM117 571l130 172h155l124 -172h-158l-48 46l-48 -46h-155z" />
    <glyph glyph-name="Ydieresis" unicode="&#x178;" horiz-adv-x="718" 
d="M230 0v303l-230 412h288l87 -194l90 194h253l-220 -411v-304h-268zM252 742q-43 0 -72.5 29t-29.5 70t29.5 70t72.5 29t73 -29t30 -70t-30 -70t-73 -29zM485 742q-43 0 -72 29t-29 70t29 70t72 29t73 -29t30 -70t-30 -70t-73 -29z" />
    <glyph glyph-name="Zacute" unicode="&#x179;" horiz-adv-x="628" 
d="M5 0v27l252 495h-211v193h575v-27l-252 -492h232v-196h-596zM223 753l49 155h229l-105 -155h-173z" />
    <glyph glyph-name="zacute" unicode="&#x17a;" horiz-adv-x="521" 
d="M4 0v21l188 333h-167v169h489v-21l-201 -335h185v-167h-494zM181 568l49 175h219l-105 -175h-163z" />
    <glyph glyph-name="Zdotaccent" unicode="&#x17b;" horiz-adv-x="628" 
d="M5 0v27l252 495h-211v193h575v-27l-252 -492h232v-196h-596zM320 742q-50 0 -83 30.5t-33 76.5t33 76.5t83 30.5t82.5 -30.5t32.5 -76.5t-32.5 -76.5t-82.5 -30.5z" />
    <glyph glyph-name="zdotaccent" unicode="&#x17c;" horiz-adv-x="521" 
d="M4 0v21l188 333h-167v169h489v-21l-201 -335h185v-167h-494zM268 552q-51 0 -84 30t-33 77t33 77t84 30q50 0 83 -30.5t33 -76.5t-33 -76.5t-83 -30.5z" />
    <glyph glyph-name="Zcaron" unicode="&#x17d;" horiz-adv-x="628" 
d="M5 0v27l252 495h-211v193h575v-27l-252 -492h232v-196h-596zM220 753l-111 155h165l45 -44l45 44h162l-117 -155h-189z" />
    <glyph glyph-name="zcaron" unicode="&#x17e;" horiz-adv-x="521" 
d="M4 0v21l188 333h-167v169h489v-21l-201 -335h185v-167h-494zM186 571l-124 172h158l48 -46l48 46h155l-130 -172h-155z" />
    <glyph glyph-name="florin" unicode="&#x192;" horiz-adv-x="473" 
d="M20 266v149h87l15 110q27 200 247 200q45 0 84 -11v-167q-17 5 -44 5q-55 0 -62 -47l-12 -90h104v-149h-125l-61 -448h-227l61 448h-67z" />
    <glyph glyph-name="Aringacute" unicode="&#x1fa;" horiz-adv-x="784" 
d="M1 0l220 715h343l219 -715h-284l-24 95h-202l-24 -95h-248zM392 737q-52 0 -89 36t-37 86t37 86t89 36t89 -36t37 -86t-37 -86t-89 -36zM305 995l49 155h229l-105 -155h-173zM375 501l-58 -228h114zM392 812q19 0 31 13t12 34t-12 34t-31 13t-31 -13t-12 -34t12 -34
t31 -13z" />
    <glyph glyph-name="aringacute" unicode="&#x1fb;" horiz-adv-x="598" 
d="M193 -14q-76 0 -127 39.5t-51 119.5q0 92 68.5 131.5t217.5 39.5h37v3q0 21 -2 32.5t-13 22t-32 10.5q-40 0 -46 -45h-212q5 96 76.5 148t195.5 52q126 0 192.5 -51.5t66.5 -151.5v-336h-220v59q-40 -73 -151 -73zM282 136q25 0 40.5 13.5t15.5 33.5v17h-35
q-39 0 -51 -7.5t-12 -27.5q0 -29 42 -29zM302 641q19 0 30.5 13t11.5 33t-11.5 33t-30.5 13t-30.5 -13t-11.5 -33t11.5 -33t30.5 -13zM302 567q-51 0 -87.5 35.5t-36.5 84.5t36.5 84.5t87.5 35.5t87.5 -35.5t36.5 -84.5t-36.5 -84.5t-87.5 -35.5zM220 830l49 155h229
l-105 -155h-173z" />
    <glyph glyph-name="AEacute" unicode="&#x1fc;" horiz-adv-x="1029" 
d="M1 0l297 715h688v-203h-259v-61h202v-184h-202v-64h274v-203h-539v115h-166l-44 -115h-251zM520 753l49 155h229l-105 -155h-173zM448 512l-86 -224h100v224h-14z" />
    <glyph glyph-name="aeacute" unicode="&#x1fd;" horiz-adv-x="922" 
d="M623 -14q-140 0 -208 82q-64 -82 -199 -82q-90 0 -147 39.5t-57 119.5q0 92 69 132.5t217 40.5h40v2q0 31 -9 47.5t-40 16.5q-25 0 -34.5 -12t-12.5 -33h-212q5 96 77 148t196 52q111 0 160 -49q67 49 162 49q123 0 202 -70t79 -205v-49h-351q9 -77 76 -77q55 0 66 46
h211q-12 -95 -83 -146.5t-202 -51.5zM396 568l49 175h219l-105 -175h-163zM556 318h131q-2 78 -62 78q-63 0 -69 -78zM281 136q28 0 42.5 13t14.5 34v28h-38q-35 0 -49 -9.5t-14 -31.5q0 -34 44 -34z" />
    <glyph glyph-name="Oslashacute" unicode="&#x1fe;" horiz-adv-x="823" 
d="M91 -34l-54 52l74 78q-92 98 -92 257v8q0 165 112 265t279 100q136 0 237 -61l72 77l54 -52l-67 -71q98 -96 98 -251v-8q0 -171 -108.5 -272.5t-291.5 -101.5q-140 0 -236 62zM315 753l49 155h229l-105 -155h-173zM411 194q55 0 86.5 41.5t31.5 118.5v8q0 37 -7 62
l-189 -201q28 -29 78 -29zM293 354q0 -38 5 -59l186 198q-31 26 -74 26q-54 0 -85.5 -39t-31.5 -118v-8z" />
    <glyph glyph-name="oslashacute" unicode="&#x1ff;" horiz-adv-x="632" 
d="M72 -40l-47 44l61 65q-71 69 -71 185v8q0 127 85.5 202t216.5 75q98 0 173 -43l67 71l47 -44l-62 -66q75 -73 75 -188v-8q0 -128 -85.5 -201.5t-215.5 -73.5q-104 0 -178 43zM230 568l49 175h219l-105 -175h-163zM317 151q71 0 71 108v8q0 5 -0.5 13.5t-0.5 12.5
l-118 -125q16 -17 48 -17zM244 262q0 -17 1 -25l116 122q-17 14 -44 14q-73 0 -73 -103v-8z" />
    <glyph glyph-name="Scommaaccent" unicode="&#x218;" horiz-adv-x="663" 
d="M339 -14q-323 0 -326 246h251q4 -61 75 -61q55 0 55 38q0 19 -18.5 29t-62.5 15q-160 17 -223 68.5t-63 165.5q0 106 80.5 172.5t220.5 66.5q142 0 216.5 -57.5t83.5 -179.5h-246q-2 24 -16 38t-39 14q-48 0 -48 -34q0 -19 17.5 -29t62.5 -14q147 -14 218.5 -62
t71.5 -164q0 -108 -81 -180t-229 -72zM324 -236l-126 27l33 173h197z" />
    <glyph glyph-name="scommaaccent" unicode="&#x219;" horiz-adv-x="533" 
d="M264 -14q-122 0 -189 47.5t-69 138.5h209q4 -23 14 -34t34 -11q39 0 39 26q0 15 -18 23.5t-67 13.5q-113 11 -160.5 45.5t-47.5 119.5q0 90 69 137t179 47q117 0 181.5 -41.5t72.5 -137.5h-205q-9 42 -45 42q-38 0 -38 -27q0 -30 70 -34q128 -13 180 -47.5t52 -116.5
q0 -191 -261 -191zM256 -236l-126 27l33 173h197z" />
    <glyph glyph-name="uni0237" unicode="&#x237;" horiz-adv-x="316" 
d="M-14 -181v161q29 2 43 13.5t14 38.5v491h228v-500q0 -99 -62.5 -152t-222.5 -52z" />
    <glyph glyph-name="circumflex" unicode="&#x2c6;" horiz-adv-x="400" 
d="M-5 571l130 172h155l124 -172h-158l-48 46l-48 -46h-155z" />
    <glyph glyph-name="caron" unicode="&#x2c7;" horiz-adv-x="400" 
d="M119 571l-124 172h158l48 -46l48 46h155l-130 -172h-155z" />
    <glyph glyph-name="breve" unicode="&#x2d8;" horiz-adv-x="400" 
d="M200 570q-82 0 -128.5 44t-50.5 128h134q2 -40 45 -40q20 0 32 11t13 29h134q-5 -84 -52.5 -128t-126.5 -44z" />
    <glyph glyph-name="dotaccent" unicode="&#x2d9;" horiz-adv-x="400" 
d="M200 552q-51 0 -84 30t-33 77t33 77t84 30q50 0 83 -30.5t33 -76.5t-33 -76.5t-83 -30.5z" />
    <glyph glyph-name="ring" unicode="&#x2da;" horiz-adv-x="400" 
d="M200 641q19 0 30.5 13t11.5 33t-11.5 33t-30.5 13t-30.5 -13t-11.5 -33t11.5 -33t30.5 -13zM200 567q-51 0 -87.5 35.5t-36.5 84.5t36.5 84.5t87.5 35.5t87.5 -35.5t36.5 -84.5t-36.5 -84.5t-87.5 -35.5z" />
    <glyph glyph-name="ogonek" unicode="&#x2db;" horiz-adv-x="400" 
d="M186 -182q-52 0 -87.5 20.5t-35.5 57.5q0 62 90 104h119q-29 -27 -29 -51t27 -24q8 0 18 2v-91q-36 -18 -102 -18z" />
    <glyph glyph-name="tilde" unicode="&#x2dc;" horiz-adv-x="400" 
d="M269 570q-35 0 -72 14.5t-49 14.5q-24 0 -27 -26h-116q4 88 37 132t86 44q32 0 71 -14.5t54 -14.5q22 0 27 26h116q-5 -87 -40 -131.5t-87 -44.5z" />
    <glyph glyph-name="hungarumlaut" unicode="&#x2dd;" horiz-adv-x="400" 
d="M33 568l45 175h163l-78 -175h-130zM222 568l45 175h163l-78 -175h-130z" />
    <glyph glyph-name="Wgrave" unicode="&#x1e80;" horiz-adv-x="1032" 
d="M170 0l-166 715h267l66 -393l67 393h224l83 -398l71 398h246l-166 -715h-255l-83 378l-82 -378h-272zM440 753l-101 155h229l45 -155h-173z" />
    <glyph glyph-name="wgrave" unicode="&#x1e81;" horiz-adv-x="871" 
d="M155 0l-156 523h237l53 -257l67 257h182l56 -257l66 257h213l-167 -523h-212l-62 240l-59 -240h-218zM367 568l-105 175h219l49 -175h-163z" />
    <glyph glyph-name="Wacute" unicode="&#x1e82;" horiz-adv-x="1032" 
d="M170 0l-166 715h267l66 -393l67 393h224l83 -398l71 398h246l-166 -715h-255l-83 378l-82 -378h-272zM423 753l49 155h229l-105 -155h-173z" />
    <glyph glyph-name="wacute" unicode="&#x1e83;" horiz-adv-x="871" 
d="M155 0l-156 523h237l53 -257l67 257h182l56 -257l66 257h213l-167 -523h-212l-62 240l-59 -240h-218zM367 568l49 175h219l-105 -175h-163z" />
    <glyph glyph-name="Wdieresis" unicode="&#x1e84;" horiz-adv-x="1032" 
d="M170 0l-166 715h267l66 -393l67 393h224l83 -398l71 398h246l-166 -715h-255l-83 378l-82 -378h-272zM401 742q-43 0 -72.5 29t-29.5 70t29.5 70t72.5 29t73 -29t30 -70t-30 -70t-73 -29zM634 742q-43 0 -72 29t-29 70t29 70t72 29t73 -29t30 -70t-30 -70t-73 -29z" />
    <glyph glyph-name="wdieresis" unicode="&#x1e85;" horiz-adv-x="871" 
d="M155 0l-156 523h237l53 -257l67 257h182l56 -257l66 257h213l-167 -523h-212l-62 240l-59 -240h-218zM333 552q-43 0 -72.5 29t-29.5 70t29.5 70t72.5 29t73 -29t30 -70t-30 -70t-73 -29zM558 552q-43 0 -72 29t-29 70t29 70t72 29t73 -29t30 -70t-30 -70t-73 -29z" />
    <glyph glyph-name="Ygrave" unicode="&#x1ef2;" horiz-adv-x="718" 
d="M230 0v303l-230 412h288l87 -194l90 194h253l-220 -411v-304h-268zM290 753l-101 155h229l45 -155h-173z" />
    <glyph glyph-name="ygrave" unicode="&#x1ef3;" horiz-adv-x="620" 
d="M129 -172l81 224l-211 471h248l82 -229l77 229h215l-276 -695h-216zM247 568l-105 175h219l49 -175h-163z" />
    <glyph glyph-name="uni2009" unicode="&#x2009;" horiz-adv-x="75" 
 />
    <glyph glyph-name="endash" unicode="&#x2013;" horiz-adv-x="548" 
d="M46 239v123h456v-123h-456z" />
    <glyph glyph-name="emdash" unicode="&#x2014;" horiz-adv-x="978" 
d="M46 239v123h886v-123h-886z" />
    <glyph glyph-name="quoteleft" unicode="&#x2018;" horiz-adv-x="339" 
d="M224 397l-199 62l147 270l127 -45z" />
    <glyph glyph-name="quoteright" unicode="&#x2019;" horiz-adv-x="339" 
d="M166 397l-126 46l75 286l198 -61z" />
    <glyph glyph-name="quotesinglbase" unicode="&#x201a;" horiz-adv-x="337" 
d="M161 -102l-126 46l75 286l198 -61z" />
    <glyph glyph-name="quotedblleft" unicode="&#x201c;" horiz-adv-x="590" 
d="M224 397l-199 62l147 270l127 -45zM476 397l-198 62l147 270l126 -45z" />
    <glyph glyph-name="quotedblright" unicode="&#x201d;" horiz-adv-x="590" 
d="M166 397l-126 46l75 286l198 -61zM418 397l-126 46l75 286l199 -61z" />
    <glyph glyph-name="quotedblbase" unicode="&#x201e;" horiz-adv-x="590" 
d="M161 -102l-126 46l75 286l198 -61zM413 -102l-126 46l75 286l199 -61z" />
    <glyph glyph-name="dagger" unicode="&#x2020;" horiz-adv-x="421" 
d="M120 213v235h-102v156h102v111h181v-111h102v-156h-102v-235h-181z" />
    <glyph glyph-name="daggerdbl" unicode="&#x2021;" horiz-adv-x="421" 
d="M120 437v54h-102v139h102v85h181v-85h102v-139h-102v-54h102v-139h-102v-85h-181v85h-102v139h102z" />
    <glyph glyph-name="bullet" unicode="&#x2022;" horiz-adv-x="392" 
d="M196 139q-69 0 -115.5 47t-46.5 115t46.5 115t115.5 47q70 0 116 -47t46 -115t-46 -115t-116 -47z" />
    <glyph glyph-name="ellipsis" unicode="&#x2026;" horiz-adv-x="938" 
d="M152 -14q-53 0 -87.5 34.5t-34.5 85.5q0 50 34.5 85t87.5 35q54 0 90 -35t36 -85q0 -51 -36 -85.5t-90 -34.5zM467 -14q-53 0 -87.5 34.5t-34.5 85.5q0 50 34.5 85t87.5 35q54 0 90 -35t36 -85q0 -51 -36 -85.5t-90 -34.5zM782 -14q-53 0 -87.5 34.5t-34.5 85.5
q0 50 34.5 85t87.5 35q54 0 90 -35t36 -85q0 -51 -36 -85.5t-90 -34.5z" />
    <glyph glyph-name="perthousand" unicode="&#x2030;" horiz-adv-x="1272" 
d="M223 479q42 0 42 63q0 61 -42 61q-21 0 -32 -16t-11 -44q0 -64 43 -64zM222 354q-98 0 -150 52.5t-52 135.5q0 78 57 130t146 52q88 0 145 -50t57 -128q0 -83 -54 -137.5t-149 -54.5zM109 0l527 715h109l-527 -715h-109zM627 111q42 0 42 63q0 61 -42 61q-21 0 -32 -16
t-11 -44q0 -64 43 -64zM626 -14q-98 0 -150 52.5t-52 135.5q0 78 57 130t146 52q88 0 145 -50t57 -128q0 -83 -54 -137.5t-149 -54.5zM1050 111q42 0 42 63q0 61 -42 61q-21 0 -32 -16t-11 -44q0 -64 43 -64zM1049 -14q-98 0 -150 52.5t-52 135.5q0 78 57 130t146 52
q88 0 145 -50t57 -128q0 -83 -54 -137.5t-149 -54.5z" />
    <glyph glyph-name="uni2032" unicode="&#x2032;" horiz-adv-x="269" 
d="M29 424l18 291h209l-66 -291h-161z" />
    <glyph glyph-name="uni2033" unicode="&#x2033;" horiz-adv-x="507" 
d="M29 424l18 291h209l-66 -291h-161zM267 424l18 291h209l-66 -291h-161z" />
    <glyph glyph-name="guilsinglleft" unicode="&#x2039;" horiz-adv-x="299" 
d="M138 63l-122 198l122 198h142l-117 -198l117 -198h-142z" />
    <glyph glyph-name="guilsinglright" unicode="&#x203a;" horiz-adv-x="299" 
d="M19 63l117 198l-117 198h142l122 -198l-122 -198h-142z" />
    <glyph glyph-name="fraction" unicode="&#x2044;" horiz-adv-x="196" 
d="M-250 0l587 715h109l-587 -715h-109z" />
    <glyph glyph-name="Euro" unicode="&#x20ac;" horiz-adv-x="743" 
d="M18 374v78h58q23 124 112.5 199t220.5 75q292 0 314 -278h-244q-5 40 -22 59.5t-51 19.5q-59 0 -74 -75h112l-13 -78h-104v-38h98l-13 -78h-80q12 -69 75 -69q39 0 55.5 21.5t21.5 69.5h243q-35 -294 -328 -294q-141 0 -223.5 73.5t-100.5 198.5h-57v78h52v38h-52z" />
    <glyph glyph-name="trademark" unicode="&#x2122;" horiz-adv-x="783" 
d="M341 394v321h154l43 -123l46 123h157v-321h-135v148l-56 -148h-41l-54 148v-148h-114zM102 394v216h-76v105h285v-105h-76v-216h-133z" />
    <glyph glyph-name="onethird" unicode="&#x2153;" horiz-adv-x="859" 
d="M104 322v233l-83 -42v132l108 70h142v-393h-167zM65 0l587 715h109l-587 -715h-109zM654 -8q-179 0 -188 145h145q4 -32 33 -32q26 0 26 24q0 23 -36 23h-33v88h33q39 0 39 26q0 21 -25 21t-31 -30h-144q5 65 50 103.5t130 38.5q84 0 130 -28.5t46 -82.5q0 -67 -73 -84
q36 -5 58 -27t22 -55q0 -60 -46 -95t-136 -35z" />
    <glyph glyph-name="twothirds" unicode="&#x2154;" horiz-adv-x="912" 
d="M6 322v20l129 131q30 30 41.5 43t22.5 30.5t11 30.5q0 24 -22 24q-25 0 -29 -46h-151q2 82 52 124t137 42t131 -36.5t44 -93.5q0 -38 -20.5 -69.5t-61.5 -68.5l-15 -14h98v-117h-367zM134 0l587 715h109l-587 -715h-109zM707 -8q-179 0 -188 145h145q4 -32 33 -32
q26 0 26 24q0 23 -36 23h-33v88h33q39 0 39 26q0 21 -25 21t-31 -30h-144q5 65 50 103.5t130 38.5q84 0 130 -28.5t46 -82.5q0 -67 -73 -84q36 -5 58 -27t22 -55q0 -60 -46 -95t-136 -35z" />
    <glyph glyph-name="oneeighth" unicode="&#x215b;" horiz-adv-x="855" 
d="M104 322v233l-83 -42v132l108 70h142v-393h-167zM52 0l587 715h109l-587 -715h-109zM645 -8q-193 0 -193 118q0 71 72 93q-54 23 -54 80q0 55 49 85.5t127 30.5q81 0 128.5 -30t47.5 -86q0 -58 -54 -79q69 -19 69 -89q0 -58 -48.5 -90.5t-143.5 -32.5zM645 100
q13 0 22 8.5t9 20.5t-8.5 20.5t-22.5 8.5t-22.5 -8t-8.5 -21t8.5 -21t22.5 -8zM646 239q12 0 20.5 8t8.5 20t-8.5 20t-20.5 8q-11 0 -20 -8t-9 -20t8.5 -20t20.5 -8z" />
    <glyph glyph-name="threeeighths" unicode="&#x215c;" horiz-adv-x="900" 
d="M207 314q-179 0 -188 145h145q4 -32 33 -32q26 0 26 24q0 23 -36 23h-33v88h33q39 0 39 26q0 21 -25 21t-31 -30h-144q5 65 50 103.5t130 38.5q84 0 130 -28.5t46 -82.5q0 -67 -73 -84q36 -5 58 -27t22 -55q0 -60 -46 -95t-136 -35zM108 0l587 715h109l-587 -715h-109z
M690 -8q-193 0 -193 118q0 71 72 93q-54 23 -54 80q0 55 49 85.5t127 30.5q81 0 128.5 -30t47.5 -86q0 -58 -54 -79q69 -19 69 -89q0 -58 -48.5 -90.5t-143.5 -32.5zM690 100q13 0 22 8.5t9 20.5t-8.5 20.5t-22.5 8.5t-22.5 -8t-8.5 -21t8.5 -21t22.5 -8zM691 239
q12 0 20.5 8t8.5 20t-8.5 20t-20.5 8q-11 0 -20 -8t-9 -20t8.5 -20t20.5 -8z" />
    <glyph glyph-name="fiveeighths" unicode="&#x215d;" horiz-adv-x="882" 
d="M200 314q-89 0 -133.5 37.5t-45.5 99.5h150q4 -18 25 -18q24 0 24 28q0 27 -28 27q-23 0 -25 -21h-136l14 248h317v-114h-205l-4 -74q33 57 110 57q56 0 89 -30.5t33 -88.5q0 -71 -48 -111t-137 -40zM90 0l587 715h109l-587 -715h-109zM672 -8q-193 0 -193 118
q0 71 72 93q-54 23 -54 80q0 55 49 85.5t127 30.5q81 0 128.5 -30t47.5 -86q0 -58 -54 -79q69 -19 69 -89q0 -58 -48.5 -90.5t-143.5 -32.5zM672 100q13 0 22 8.5t9 20.5t-8.5 20.5t-22.5 8.5t-22.5 -8t-8.5 -21t8.5 -21t22.5 -8zM673 239q12 0 20.5 8t8.5 20t-8.5 20
t-20.5 8q-11 0 -20 -8t-9 -20t8.5 -20t20.5 -8z" />
    <glyph glyph-name="seveneighths" unicode="&#x215e;" horiz-adv-x="850" 
d="M67 322l100 264h-144v129h352v-16l-143 -377h-165zM38 0l587 715h109l-587 -715h-109zM640 -8q-193 0 -193 118q0 71 72 93q-54 23 -54 80q0 55 49 85.5t127 30.5q81 0 128.5 -30t47.5 -86q0 -58 -54 -79q69 -19 69 -89q0 -58 -48.5 -90.5t-143.5 -32.5zM640 100
q13 0 22 8.5t9 20.5t-8.5 20.5t-22.5 8.5t-22.5 -8t-8.5 -21t8.5 -21t22.5 -8zM641 239q12 0 20.5 8t8.5 20t-8.5 20t-20.5 8q-11 0 -20 -8t-9 -20t8.5 -20t20.5 -8z" />
    <glyph glyph-name="minus" unicode="&#x2212;" 
d="M38 253v172h524v-172h-524z" />
    <glyph glyph-name="approxequal" unicode="&#x2248;" horiz-adv-x="620" 
d="M34 98q6 106 49 157t107 51q46 0 127 -19t100 -19q39 0 45 43h124q-3 -99 -47.5 -153.5t-107.5 -54.5q-47 0 -128 19t-100 19q-38 0 -45 -43h-124zM34 341q6 106 49 156.5t107 50.5q46 0 127 -18.5t100 -18.5q39 0 45 42h124q-3 -99 -47.5 -153t-107.5 -54q-47 0 -128 19
t-100 19q-38 0 -45 -43h-124z" />
    <glyph glyph-name="notequal" unicode="&#x2260;" horiz-adv-x="594" 
d="M38 357v148h259l36 93h136l-36 -93h123v-148h-180l-22 -57h202v-148h-259l-36 -93h-136l36 93h-123v148h180l22 57h-202z" />
    <glyph glyph-name="lessequal" unicode="&#x2264;" horiz-adv-x="517" 
d="M477 155l-441 236v41l441 236v-200l-118 -55l118 -55v-203zM36 0v142h441v-142h-441z" />
    <glyph glyph-name="greaterequal" unicode="&#x2265;" horiz-adv-x="517" 
d="M40 155v203l118 55l-118 55v200l441 -236v-41zM40 0v142h441v-142h-441z" />
    <glyph glyph-name="uni24C5" unicode="&#x24c5;" horiz-adv-x="842" 
d="M266 156v407h175q175 0 175 -145v-2q0 -66 -41.5 -101.5t-124.5 -35.5h-33v-123h-151zM417 379h14q43 0 43 37v2q0 33 -42 33h-15v-72zM420 30q137 0 230.5 92t93.5 237q0 144 -92 235t-230 91q-140 0 -232 -91.5t-92 -236.5t93 -236t229 -91zM420 -25q-164 0 -278 110
t-114 272q0 160 114.5 271.5t279.5 111.5q167 0 279.5 -110.5t112.5 -270.5q0 -163 -114 -273.5t-280 -110.5z" />
    <glyph glyph-name="f_i" unicode="&#xfb01;" horiz-adv-x="715" 
d="M68 0v374h-61v149h61v26q0 103 62.5 153.5t168.5 50.5q43 0 91 -11v-162q-20 5 -43 5q-51 0 -51 -40v-22h94v-149h-94v-374h-228zM443 0v523h228v-523h-228zM557 542q-53 0 -87 31.5t-34 80.5t34 80.5t87 31.5q52 0 86.5 -31.5t34.5 -80.5t-34.5 -80.5t-86.5 -31.5z" />
    <glyph glyph-name="f_l" unicode="&#xfb02;" horiz-adv-x="712" 
d="M68 0v374h-61v149h61v26q0 103 62.5 153.5t168.5 50.5q43 0 91 -11v-162q-20 5 -43 5q-51 0 -51 -40v-22h94v-149h-94v-374h-228zM442 0v743h227v-743h-227z" />
    <glyph glyph-name="space_uni0326" horiz-adv-x="400" 
d="M205 -236l-126 27l33 173h197z" />
    <glyph glyph-name="caron.alt" horiz-adv-x="400" 
d="M134 569l7 174h153l-50 -174h-110z" />
    <glyph glyph-name="space_uni0326.alt" horiz-adv-x="400" 
d="M298 562h-197l104 200l126 -27z" />
    <glyph glyph-name="grave.uc" horiz-adv-x="400" 
d="M125 753l-101 155h229l45 -155h-173z" />
    <glyph glyph-name="dieresis.uc" horiz-adv-x="400" 
d="M83 742q-43 0 -72.5 29t-29.5 70t29.5 70t72.5 29t73 -29t30 -70t-30 -70t-73 -29zM316 742q-43 0 -72 29t-29 70t29 70t72 29t73 -29t30 -70t-30 -70t-73 -29z" />
    <glyph glyph-name="macron.uc" horiz-adv-x="400" 
d="M24 764v129h351v-129h-351z" />
    <glyph glyph-name="acute.uc" horiz-adv-x="400" 
d="M102 753l49 155h229l-105 -155h-173z" />
    <glyph glyph-name="circumflex.uc" horiz-adv-x="400" 
d="M-9 753l117 155h189l111 -155h-165l-45 44l-45 -44h-162z" />
    <glyph glyph-name="caron.uc" horiz-adv-x="400" 
d="M101 753l-111 155h165l45 -44l45 44h162l-117 -155h-189z" />
    <glyph glyph-name="breve.uc" horiz-adv-x="400" 
d="M200 744q-84 0 -130.5 42.5t-51.5 121.5h141q2 -36 41 -36q16 0 27.5 10t13.5 26h141q-7 -79 -54.5 -121.5t-127.5 -42.5z" />
    <glyph glyph-name="dotaccent.uc" horiz-adv-x="400" 
d="M200 742q-50 0 -83 30.5t-33 76.5t33 76.5t83 30.5t82.5 -30.5t32.5 -76.5t-32.5 -76.5t-82.5 -30.5z" />
    <glyph glyph-name="ring.uc" horiz-adv-x="400" 
d="M200 812q19 0 31 13t12 34t-12 34t-31 13t-31 -13t-12 -34t12 -34t31 -13zM200 737q-52 0 -89 36t-37 86t37 86t89 36t89 -36t37 -86t-37 -86t-89 -36z" />
    <glyph glyph-name="tilde.uc" horiz-adv-x="400" 
d="M270 750q-36 0 -75 14.5t-50 14.5q-24 0 -27 -26h-123q4 87 41 129.5t92 42.5q32 0 73 -14.5t55 -14.5q22 0 27 26h123q-5 -86 -44 -129t-92 -43z" />
    <glyph glyph-name="hungarumlaut.uc" horiz-adv-x="400" 
d="M10 753l43 155h183l-76 -155h-150zM225 753l43 155h183l-76 -155h-150z" />
    <glyph glyph-name="idotaccent" horiz-adv-x="316" 
d="M158 542q-53 0 -87 31.5t-34 80.5t34 80.5t87 31.5q52 0 86.5 -31.5t34.5 -80.5t-34.5 -80.5t-86.5 -31.5zM44 0v523h228v-523h-228z" />
    <glyph glyph-name="registered.alt" horiz-adv-x="842" 
d="M247 157v407h178q178 0 178 -137v-2q0 -72 -59 -106l83 -162h-155l-63 129h-12v-129h-150zM397 381h18q42 0 42 36v3q0 31 -41 31h-19v-70zM420 30q137 0 230.5 92t93.5 237q0 144 -92 235t-230 91q-140 0 -232 -91.5t-92 -236.5t93 -236t229 -91zM420 -25
q-164 0 -278 110t-114 272q0 160 114.5 271.5t279.5 111.5q167 0 279.5 -110.5t112.5 -270.5q0 -163 -114 -273.5t-280 -110.5z" />
    <glyph glyph-name="dollar.old" horiz-adv-x="638" 
d="M281 -131v120q-127 9 -196 70t-72 164h218q3 -53 50 -69v97q-143 19 -201.5 70t-58.5 155q0 96 69 157.5t191 69.5v86h86v-87q237 -19 252 -220h-215q-2 40 -37 53v-94q126 -16 193 -62.5t67 -147.5t-63.5 -167t-196.5 -75v-120h-86zM234 496q0 -33 47 -44v87
q-47 -9 -47 -43zM411 197q0 28 -44 41v-87q44 10 44 46z" />
    <glyph glyph-name="Euro.old" horiz-adv-x="721" 
d="M17 363v75h57q21 120 108 193t215 73q283 0 304 -269h-236q-9 76 -71 76q-57 0 -72 -73h110l-14 -75h-101v-37h95l-12 -75h-78q12 -68 73 -68q38 0 54 21t20 68h236q-33 -286 -318 -286q-137 0 -216.5 71.5t-97.5 193.5h-56v75h51v37h-51z" />
    <glyph glyph-name="sterling.old" horiz-adv-x="668" 
d="M26 274v128h42q-8 32 -8 67q0 113 82 174t212 61q286 0 296 -260h-233q-7 68 -52 68q-51 0 -51 -58q0 -34 2 -52h153v-128h-144q1 -9 1 -27q0 -25 -6 -48q35 -10 56 -10q44 0 47 44h235q-4 -108 -63 -175t-165 -67q-60 0 -122 23t-76 23q-34 0 -39 -37h-186q8 135 93 189
q7 26 7 58q0 9 -2 27h-79z" />
    <glyph glyph-name="yen.old" horiz-adv-x="662" 
d="M52 292v76h124l-174 326h279l65 -181l68 181h246l-167 -326h126v-76h-153v-37h153v-76h-153v-179h-260v179h-154v76h154v37h-154z" />
    <glyph glyph-name="zero.old" horiz-adv-x="690" 
d="M346 171q42 0 60.5 32.5t18.5 99.5v15q0 68 -18.5 99.5t-61.5 31.5t-61.5 -31t-18.5 -98v-16q0 -69 18.5 -101t62.5 -32zM341 -14q-147 0 -235.5 81.5t-88.5 232.5v16q0 148 93 232.5t235 84.5q143 0 235.5 -80.5t92.5 -230.5v-15q0 -151 -92 -236t-240 -85z" />
    <glyph glyph-name="one.old" horiz-adv-x="460" 
d="M150 0v377l-119 -65v202l155 105h209v-619h-245z" />
    <glyph glyph-name="two.old" horiz-adv-x="609" 
d="M5 0v31l214 209q64 62 91.5 98t27.5 68q0 43 -44 43q-52 0 -60 -79h-221q4 125 83 194t216 69q130 0 200.5 -56t70.5 -148q0 -58 -30.5 -107.5t-91.5 -106.5l-45 -41h173v-174h-584z" />
    <glyph glyph-name="three.old" horiz-adv-x="634" 
d="M326 -104q-157 0 -232 65.5t-81 190.5h223q6 -76 74 -76q30 0 46.5 16t16.5 44q0 58 -75 58h-62v147h58q80 0 80 61q0 26 -14.5 40.5t-39.5 14.5q-60 0 -71 -74h-223q8 114 83.5 182t219.5 68q130 0 203 -52.5t73 -146.5q0 -114 -122 -155q134 -33 134 -161
q0 -99 -73.5 -160.5t-217.5 -61.5z" />
    <glyph glyph-name="four.old" horiz-adv-x="696" 
d="M349 -90v122h-343v83l284 504h304v-428h88v-159h-88v-122h-245zM232 191h124v243z" />
    <glyph glyph-name="five.old" horiz-adv-x="635" 
d="M312 -104q-145 0 -221 68.5t-78 178.5h229q6 -64 68 -64q30 0 47 21.5t17 50.5q0 33 -22 51.5t-60 18.5q-61 0 -92 -45h-163l22 443h514v-187h-336l-7 -134q57 86 178 86q96 0 153 -59.5t57 -171.5q0 -120 -78.5 -188.5t-227.5 -68.5z" />
    <glyph glyph-name="six.old" horiz-adv-x="671" 
d="M348 -13q-168 0 -247.5 93t-79.5 258v36q0 162 93 257t240 95q132 0 205 -58.5t82 -169.5h-232q-6 44 -52 44q-44 0 -64.5 -40t-23.5 -127q26 38 61 59.5t94 21.5q99 0 165 -55t66 -166q0 -113 -82 -180.5t-225 -67.5zM347 163q31 0 49 21t18 51t-18 50t-48 20
q-31 0 -49 -21.5t-18 -52.5q0 -27 17.5 -47.5t48.5 -20.5z" />
    <glyph glyph-name="seven.old" horiz-adv-x="596" 
d="M85 -90l185 506h-253v203h577v-26l-245 -683h-264z" />
    <glyph glyph-name="eight.old" horiz-adv-x="661" 
d="M330 -14q-152 0 -233 56t-81 159q0 57 34.5 102t98.5 69q-102 49 -102 146q0 98 80.5 153t205.5 55q128 0 206.5 -54t78.5 -153q0 -98 -102 -146q61 -22 95 -65.5t34 -99.5q0 -103 -82 -162.5t-233 -59.5zM331 161q32 0 50.5 18t18.5 48t-18 49t-51 19q-32 0 -50.5 -18
t-18.5 -49q0 -30 18 -48.5t51 -18.5zM332 437q26 0 44.5 17t18.5 43q0 28 -18 44.5t-44 16.5q-25 0 -43.5 -17t-18.5 -43t18 -43.5t43 -17.5z" />
    <glyph glyph-name="nine.old" horiz-adv-x="671" 
d="M316 -106q-132 0 -207.5 60.5t-84.5 172.5h232q3 -20 17.5 -34.5t40.5 -14.5q45 0 64.5 35.5t23.5 131.5q-26 -38 -61 -59.5t-94 -21.5q-98 0 -164.5 54t-66.5 160q0 117 82 186t225 69q327 0 327 -361v-31q0 -159 -87.5 -253t-246.5 -94zM323 315q31 0 49 21.5t18 52.5
q0 27 -17.5 47.5t-48.5 20.5t-49 -21t-18 -51t18 -50t48 -20z" />
    <glyph glyph-name="dollar.tab" 
d="M264 -135v124q-120 8 -184 69t-65 172h204q1 -54 45 -69v95q-132 21 -188 73.5t-56 161.5q0 99 64.5 162.5t179.5 71.5v88h79v-89q225 -21 234 -227h-201q-3 37 -33 50v-91q115 -17 179.5 -68t64.5 -154q0 -48 -13 -89t-41 -75t-76.5 -55.5t-113.5 -25.5v-124h-79z
M220 511q0 -33 44 -44v85q-44 -7 -44 -41zM383 205q0 27 -40 39v-86q40 10 40 47z" />
    <glyph glyph-name="Euro.tab" 
d="M10 376v78h41q4 129 80.5 200.5t191.5 71.5q252 0 256 -254h-209q-1 38 -10.5 51t-35.5 13q-24 0 -35 -18.5t-12 -63.5h106l-13 -78h-93v-38h87l-13 -78h-74q1 -46 11 -64.5t37 -18.5t38.5 15t10.5 56h205q0 -138 -65.5 -200t-199.5 -62q-120 0 -189.5 71t-73.5 203h-41
v78h41v38h-41z" />
    <glyph glyph-name="sterling.tab" 
d="M21 285v126h35q-8 35 -8 73q0 119 74.5 180.5t192.5 61.5q138 0 200.5 -64.5t64.5 -198.5h-208q-2 39 -12.5 52t-32.5 13q-24 0 -36 -13t-12 -47q0 -27 3 -57h137v-126h-126q1 -10 1 -30q0 -26 -5 -51q26 -7 43 -7q43 0 46 43h213q-3 -119 -56.5 -184t-151.5 -65
q-53 0 -104 23.5t-64 23.5q-31 0 -34 -38h-177q7 137 82 193q7 28 7 62q0 10 -2 30h-70z" />
    <glyph glyph-name="yen.tab" 
d="M34 301v78h130l-159 336h261l49 -156l52 156h228l-159 -336h139v-78h-146v-38h146v-78h-146v-185h-257v185h-138v78h138v38h-138z" />
    <glyph glyph-name="zero.tab" 
d="M302 180q25 0 33 20.5t8 75.5v163q0 57 -8.5 77t-34.5 20t-34.5 -20.5t-8.5 -75.5v-164q0 -55 9 -75.5t36 -20.5zM294 -14q-130 0 -200.5 75t-70.5 215v164q0 136 77 211t199 75q124 0 201 -70.5t77 -211.5v-163q0 -140 -75.5 -217.5t-207.5 -77.5z" />
    <glyph glyph-name="one.tab" 
d="M222 0v455l-155 -92v218l194 134h227v-715h-266z" />
    <glyph glyph-name="two.tab" 
d="M15 0v34l194 247q46 59 65.5 86t35.5 60.5t16 60.5q0 50 -33 50q-22 0 -29.5 -20.5t-8.5 -79.5h-233q2 139 68 213.5t216 74.5q136 0 204.5 -59t68.5 -160q0 -37 -10 -71t-35.5 -71.5t-42 -58t-55.5 -66.5l-39 -45h178v-195h-560z" />
    <glyph glyph-name="three.tab" 
d="M310 -14q-152 0 -223 64t-76 198h222q2 -41 15 -59.5t46 -18.5q50 0 50 57q0 56 -57 56h-58v153h56q64 0 64 58q0 49 -48 49q-52 0 -56 -72h-221q6 123 78 189t205 66q126 0 196.5 -52t70.5 -148q0 -60 -29.5 -99t-83.5 -54q56 -11 91 -52t35 -101q0 -108 -70 -171
t-207 -63z" />
    <glyph glyph-name="four.tab" 
d="M286 0v130h-279v92l226 493h283v-417h66v-168h-66v-130h-230zM200 298h92v217z" />
    <glyph glyph-name="five.tab" 
d="M295 -14q-138 0 -203.5 63t-68.5 192h216q1 -32 13 -44.5t42 -12.5q25 0 34.5 17.5t9.5 51.5q0 66 -65 66q-56 0 -80 -45h-156l20 441h476v-184h-302l-7 -136q51 89 158 89q96 0 145.5 -61t49.5 -170q0 -125 -71.5 -196t-210.5 -71z" />
    <glyph glyph-name="six.tab" 
d="M316 -14q-146 0 -220 84t-74 240v86q0 155 82.5 242.5t219.5 87.5q249 0 253 -228h-211q-2 50 -40 50q-41 0 -59 -37.5t-18 -122.5q22 36 52 56t82 20q87 0 143.5 -54t56.5 -167q0 -117 -71 -187t-196 -70zM309 173q26 0 42 18.5t16 47.5q0 31 -16 48.5t-42 17.5
q-27 0 -44 -17.5t-17 -48.5q0 -29 17.5 -47.5t43.5 -18.5z" />
    <glyph glyph-name="seven.tab" 
d="M83 0l178 506h-238v209h562v-26l-238 -689h-264z" />
    <glyph glyph-name="eight.tab" 
d="M300 -14q-139 0 -212.5 56t-73.5 159q0 124 115 171q-88 46 -88 146q0 98 73.5 153t188.5 55q117 0 188 -54t71 -153q0 -101 -86 -146q110 -42 110 -165q0 -104 -74 -163t-212 -59zM301 169q28 0 44 17t16 45q0 29 -15.5 47t-44.5 18q-28 0 -44 -17.5t-16 -46.5t16 -46
t44 -17zM302 434q23 0 39.5 16.5t16.5 42.5q0 27 -16 43t-39 16t-39 -16t-16 -42t16 -43t38 -17z" />
    <glyph glyph-name="nine.tab" 
d="M285 -13q-258 0 -262 229h211q2 -51 44 -51q43 0 58 35.5t15 124.5q-22 -36 -52 -56t-82 -20q-87 0 -143.5 53t-56.5 166q0 117 72 188t197 71q144 0 218 -84t74 -240v-86q0 -157 -77.5 -243.5t-215.5 -86.5zM291 411q27 0 44 17.5t17 48.5q0 29 -17.5 47.5t-43.5 18.5
t-42 -18.5t-16 -47.5q0 -31 16 -48.5t42 -17.5z" />
    <glyph glyph-name="cent.tab" 
d="M284 -135v122q-118 9 -189 76.5t-71 190.5v8q0 121 72.5 192.5t187.5 82.5v92h66v-91q101 -7 164.5 -65t68.5 -165h-194q-6 51 -39 64v-232q45 13 49 75h187q-2 -100 -63 -160t-173 -68v-122h-66zM238 258q0 -95 46 -115v229q-46 -15 -46 -106v-8z" />
    <glyph glyph-name="percent.tab" horiz-adv-x="800" 
d="M215 499q35 0 35 57q0 56 -35 56q-36 0 -36 -55q0 -58 36 -58zM214 383q-90 0 -138 48.5t-48 124.5q0 72 52.5 120t134.5 48q81 0 133.5 -46t52.5 -118q0 -77 -49.5 -127t-137.5 -50zM95 0l507 715h109l-507 -715h-109zM586 102q35 0 35 57q0 56 -35 56q-36 0 -36 -55
q0 -58 36 -58zM585 -14q-90 0 -138 48.5t-48 124.5q0 72 52.5 120t134.5 48q81 0 133.5 -46t52.5 -118q0 -77 -49.5 -127t-137.5 -50z" />
    <glyph glyph-name="perthousand.tab" horiz-adv-x="1000" 
d="M175 489q16 0 22 14t6 53t-6 52.5t-22 13.5t-22.5 -13.5t-6.5 -51.5q0 -40 6.5 -54t22.5 -14zM174 383q-79 0 -121.5 47t-42.5 126q0 75 46.5 121.5t118.5 46.5t118 -44.5t46 -119.5q0 -80 -44 -128.5t-121 -48.5zM24 0l507 715h105l-507 -715h-105zM479 92q16 0 22 14
t6 53t-6 52.5t-22 13.5t-22.5 -13.5t-6.5 -51.5q0 -40 6.5 -54t22.5 -14zM478 -14q-79 0 -121.5 47t-42.5 126q0 75 46.5 121.5t118.5 46.5t118 -44.5t46 -119.5q0 -80 -44 -128.5t-121 -48.5zM826 92q16 0 22 14t6 53t-6 52.5t-22 13.5t-22.5 -13.5t-6.5 -51.5
q0 -40 6.5 -54t22.5 -14zM825 -14q-79 0 -121.5 47t-42.5 126q0 75 46.5 121.5t118.5 46.5t118 -44.5t46 -119.5q0 -80 -44 -128.5t-121 -48.5z" />
    <glyph glyph-name="plus.tab" 
d="M210 82v176h-160v162h160v176h180v-176h160v-162h-160v-176h-180z" />
    <glyph glyph-name="minus.tab" 
d="M48 253v172h504v-172h-504z" />
    <glyph glyph-name="multiply.tab" 
d="M149 69l-118 118l151 151l-155 154l119 120l154 -156l152 151l118 -118l-152 -151l156 -154l-120 -120l-154 156z" />
    <glyph glyph-name="divide.tab" 
d="M300 19q-46 0 -78 31t-32 76q0 44 32 75.5t78 31.5t78 -31.5t32 -75.5q0 -45 -32 -76t-78 -31zM38 263v152h524v-152h-524zM300 445q-46 0 -78 31.5t-32 75.5q0 45 32 76t78 31t78 -31t32 -76q0 -44 -32 -75.5t-78 -31.5z" />
    <glyph glyph-name="equal.tab" 
d="M51 152v148h498v-148h-498zM51 357v148h498v-148h-498z" />
    <glyph glyph-name="less.tab" 
d="M539 41l-471 261v41l471 261v-205l-173 -75l173 -85v-198z" />
    <glyph glyph-name="greater.tab" 
d="M62 42v205l173 75l-173 85v198l471 -261v-41z" />
    <glyph glyph-name="florin.tab" 
d="M74 266v149h97l15 110q27 200 247 200q45 0 84 -11v-167q-17 5 -44 5q-55 0 -62 -47l-12 -90h114v-149h-135l-61 -448h-227l61 448h-77z" />
    <glyph glyph-name="plusminus.tab" 
d="M210 192v156h-170v162h170v156h180v-156h170v-162h-170v-156h-180zM40 0v142h524v-142h-524z" />
    <glyph glyph-name="notequal.tab" 
d="M41 357v148h259l36 93h136l-36 -93h123v-148h-180l-22 -57h202v-148h-259l-36 -93h-136l36 93h-123v148h180l22 57h-202z" />
    <glyph glyph-name="approxequal.tab" 
d="M28 98q6 106 49 157t107 51q46 0 123 -19t96 -19q39 0 45 43h124q-3 -99 -47.5 -153.5t-107.5 -54.5q-47 0 -123.5 19t-96.5 19q-38 0 -45 -43h-124zM28 341q6 106 49 156.5t107 50.5q46 0 123 -18.5t96 -18.5q39 0 45 42h124q-3 -99 -47.5 -153t-107.5 -54
q-47 0 -123.5 19t-96.5 19q-38 0 -45 -43h-124z" />
    <glyph glyph-name="lessequal.tab" 
d="M519 155l-441 236v41l441 236v-200l-118 -55l118 -55v-203zM78 0v142h441v-142h-441z" />
    <glyph glyph-name="greaterequal.tab" 
d="M81 155v203l118 55l-118 55v200l441 -236v-41zM81 0v142h441v-142h-441z" />
    <glyph glyph-name="parenleft.tab" horiz-adv-x="300" 
d="M173 -148q-29 40 -50 77t-46 95.5t-39 132.5t-14 157t14 157.5t39 132.5t46 94.5t50 77.5h149q-103 -213 -103 -462t103 -462h-149z" />
    <glyph glyph-name="parenright.tab" horiz-adv-x="300" 
d="M-22 -148q103 213 103 462t-103 462h149q29 -41 50 -77.5t46 -94.5t39 -132.5t14 -157.5t-14 -157t-39 -132.5t-46 -95.5t-50 -77h-149z" />
    <glyph glyph-name="bracketleft.tab" horiz-adv-x="300" 
d="M33 -148v924h261v-144h-60v-636h60v-144h-261z" />
    <glyph glyph-name="bracketright.tab" horiz-adv-x="300" 
d="M6 -148v144h60v636h-60v144h261v-924h-261z" />
    <glyph glyph-name="braceleft.tab" horiz-adv-x="300" 
d="M294 -148q-161 0 -218 61t-28 188l18 79q7 33 -5.5 49.5t-51.5 16.5v138q39 0 51.5 16t5.5 49l-18 78q-30 132 26.5 190.5t219.5 58.5v-145q-41 -4 -51.5 -18.5t-3.5 -50.5l17 -90q12 -60 -10.5 -97.5t-90.5 -57.5q68 -20 90.5 -57.5t10.5 -98.5l-17 -89q-8 -38 3 -54.5
t52 -20.5v-145z" />
    <glyph glyph-name="braceright.tab" horiz-adv-x="300" 
d="M6 -148v145q41 4 52 20.5t3 54.5l-17 89q-12 61 10.5 98.5t90.5 57.5q-68 20 -90.5 57.5t-10.5 97.5l17 90q7 36 -3.5 50.5t-51.5 18.5v145q163 0 219.5 -58.5t26.5 -190.5l-18 -78q-7 -33 5.5 -49t51.5 -16v-138q-39 0 -51.5 -16.5t-5.5 -49.5l18 -79q29 -127 -28 -188
t-218 -61z" />
    <glyph glyph-name="period.tab" horiz-adv-x="300" 
d="M148 -14q-53 0 -87.5 34.5t-34.5 85.5q0 50 34.5 85t87.5 35q54 0 90 -35t36 -85q0 -51 -36 -85.5t-90 -34.5z" />
    <glyph glyph-name="comma.tab" horiz-adv-x="300" 
d="M125 -122l-133 48l77 286l211 -70z" />
    <glyph glyph-name="colon.tab" horiz-adv-x="300" 
d="M148 -14q-53 0 -87.5 34.5t-34.5 85.5q0 50 34.5 85t87.5 35q54 0 90 -35t36 -85q0 -51 -36 -85.5t-90 -34.5zM148 266q-53 0 -87.5 34.5t-34.5 85.5q0 50 34.5 85t87.5 35q54 0 90 -35t36 -85q0 -51 -36 -85.5t-90 -34.5z" />
    <glyph glyph-name="semicolon.tab" horiz-adv-x="300" 
d="M110 -122l-133 48l77 286l210 -70zM148 266q-53 0 -87.5 34.5t-34.5 85.5q0 50 34.5 85t87.5 35q54 0 90 -35t36 -85q0 -51 -36 -85.5t-90 -34.5z" />
    <glyph glyph-name="space.tab" horiz-adv-x="300" 
 />
    <glyph glyph-name="dollar.oldtab" 
d="M265 -131v120q-117 8 -178.5 67t-62.5 167h197q1 -54 44 -67v92q-128 21 -182.5 71.5t-54.5 156.5q0 97 62.5 158t174.5 69v86h77v-87q218 -19 227 -220h-195q-3 35 -32 48v-88q111 -16 173.5 -65t62.5 -150q0 -47 -13 -86.5t-39.5 -72.5t-73.5 -54t-110 -25v-120h-77z
M222 496q0 -32 43 -43v83q-43 -7 -43 -40zM381 199q0 27 -39 37v-83q39 10 39 46z" />
    <glyph glyph-name="Euro.oldtab" 
d="M19 365v75h39q4 125 78 194.5t186 69.5q245 0 249 -246h-203q-1 36 -10.5 49t-34.5 13q-24 0 -34 -18t-11 -62h103l-13 -75h-90v-37h84l-13 -76h-71q1 -44 10.5 -62t35.5 -18q27 0 38 14.5t10 54.5h199q0 -134 -63.5 -194.5t-193.5 -60.5q-117 0 -184.5 69t-71.5 197h-39
v76h39v37h-39z" />
    <glyph glyph-name="sterling.oldtab" 
d="M29 276v123h35q-8 34 -8 70q0 116 72 175.5t187 59.5q133 0 194 -62.5t63 -192.5h-202q-2 38 -12.5 50.5t-31.5 12.5q-23 0 -34.5 -12.5t-11.5 -45.5q0 -26 3 -55h132v-123h-122q1 -10 1 -29q0 -24 -5 -49q26 -7 42 -7q42 0 45 42h206q-3 -115 -55 -178.5t-146 -63.5
q-52 0 -101.5 23t-61.5 23q-30 0 -33 -37h-172q7 133 80 187q6 30 6 60q0 9 -2 29h-68z" />
    <glyph glyph-name="yen.oldtab" 
d="M43 312v76h126l-157 306h253l51 -147l51 147h221l-155 -306h135v-76h-142v-37h142v-76h-142v-199h-249v199h-134v76h134v37h-134z" />
    <glyph glyph-name="zero.oldtab" 
d="M302 180q25 0 33 20.5t8 75.5v70q0 57 -8.5 77t-34.5 20t-34.5 -20.5t-8.5 -75.5v-71q0 -55 9 -75.5t36 -20.5zM294 -14q-130 0 -200.5 75t-70.5 215v71q0 136 77 211t199 75q124 0 201 -70.5t77 -211.5v-70q0 -140 -75.5 -217.5t-207.5 -77.5z" />
    <glyph glyph-name="one.oldtab" 
d="M233 0v377l-161 -97v202l197 137h209v-619h-245z" />
    <glyph glyph-name="two.oldtab" 
d="M11 0v31l214 209q103 100 103 163q0 46 -37 46q-42 0 -51 -79h-221q7 126 82.5 194.5t208.5 68.5q127 0 195 -55.5t68 -148.5q0 -59 -29 -109t-88 -105l-45 -41h166v-174h-566z" />
    <glyph glyph-name="three.oldtab" 
d="M300 -105q-285 0 -292 257h222q3 -77 62 -77q25 0 38.5 16t13.5 43q0 60 -60 60h-58v147h56q32 0 49.5 17.5t17.5 45.5q0 24 -13 38.5t-37 14.5q-53 0 -57 -74h-221q6 112 81 181t206 69q126 0 194.5 -51.5t68.5 -148.5q0 -60 -29.5 -99t-83.5 -54q56 -11 91 -52t35 -101
q0 -107 -73 -169.5t-211 -62.5z" />
    <glyph glyph-name="four.oldtab" 
d="M286 -90v122h-279v81l226 506h283v-430h66v-157h-66v-122h-230zM195 189h97v233z" />
    <glyph glyph-name="five.oldtab" 
d="M293 -104q-137 0 -204.5 63.5t-67.5 183.5h216q2 -65 55 -65q51 0 51 74q0 71 -69 71q-51 0 -78 -46h-156l20 442h471v-184h-297l-7 -137q52 90 157 90q92 0 141.5 -59.5t49.5 -163.5q0 -127 -71 -198t-211 -71z" />
    <glyph glyph-name="six.oldtab" 
d="M317 -14q-146 0 -220 84t-74 240v86q0 155 82.5 242.5t219.5 87.5q249 0 253 -228h-211q-2 50 -40 50q-41 0 -59 -40t-18 -130q53 77 140 77q88 0 142.5 -49.5t54.5 -162.5q0 -117 -72.5 -187t-197.5 -70zM316 164q27 0 45 19.5t18 50.5q0 34 -17.5 52.5t-45.5 18.5
t-46.5 -19t-18.5 -52q0 -31 18.5 -50.5t46.5 -19.5z" />
    <glyph glyph-name="seven.oldtab" 
d="M82 -90l176 506h-235v203h559v-26l-236 -683h-264z" />
    <glyph glyph-name="eight.oldtab" 
d="M300 -14q-139 0 -212.5 56t-73.5 159q0 57 31 102t89 69q-93 46 -93 146q0 98 73.5 153t188.5 55q117 0 188 -54t71 -153q0 -101 -91 -146q56 -21 85.5 -64.5t29.5 -100.5q0 -104 -74 -163t-212 -59zM301 161q28 0 45 18t17 47q0 30 -16 49t-46 19q-28 0 -45 -18t-17 -49
q0 -30 16 -48t46 -18zM302 437q24 0 41 17.5t17 43.5q0 28 -16.5 44.5t-40.5 16.5q-23 0 -40 -17t-17 -43q0 -27 16.5 -44.5t39.5 -17.5z" />
    <glyph glyph-name="nine.oldtab" 
d="M284 -107q-126 0 -194 58t-70 176h207q2 -54 53 -54q40 0 55 35.5t15 122.5q-41 -67 -136 -67q-89 0 -145 49t-56 161q0 117 73.5 188t198.5 71q144 0 218 -84t74 -240v-86q0 -157 -77.5 -243.5t-215.5 -86.5zM287 317q28 0 46.5 19t18.5 52q0 31 -18.5 50.5t-46.5 19.5
q-27 0 -45 -19.5t-18 -50.5q0 -34 17.5 -52.5t45.5 -18.5z" />
    <glyph glyph-name="zero.num" horiz-adv-x="459" 
d="M229 439q24 0 33.5 18.5t9.5 59.5v4q0 44 -9.5 60.5t-34.5 16.5q-24 0 -32.5 -17t-8.5 -60v-4q0 -43 8.5 -60.5t33.5 -17.5zM225 314q-99 0 -152 52t-53 151v4q0 95 58.5 147.5t150.5 52.5q93 0 151.5 -48.5t58.5 -148.5v-3q0 -99 -57 -153t-157 -54z" />
    <glyph glyph-name="one.num" horiz-adv-x="315" 
d="M101 322v233l-83 -42v132l108 70h142v-393h-167z" />
    <glyph glyph-name="two.num" horiz-adv-x="388" 
d="M3 322v20l129 131q30 30 41.5 43t22.5 30.5t11 30.5q0 24 -22 24q-25 0 -29 -46h-151q2 82 52 124t137 42t131 -36.5t44 -93.5q0 -38 -20.5 -69.5t-61.5 -68.5l-15 -14h98v-117h-367z" />
    <glyph glyph-name="three.num" horiz-adv-x="406" 
d="M204 314q-179 0 -188 145h145q4 -32 33 -32q26 0 26 24q0 23 -36 23h-33v88h33q39 0 39 26q0 21 -25 21t-31 -30h-144q5 65 50 103.5t130 38.5q84 0 130 -28.5t46 -82.5q0 -67 -73 -84q36 -5 58 -27t22 -55q0 -60 -46 -95t-136 -35z" />
    <glyph glyph-name="four.num" horiz-adv-x="434" 
d="M204 322v70h-195v62l158 261h198v-216h49v-107h-49v-70h-161zM145 499h64v110z" />
    <glyph glyph-name="five.num" horiz-adv-x="400" 
d="M197 314q-89 0 -133.5 37.5t-45.5 99.5h150q4 -18 25 -18q24 0 24 28q0 27 -28 27q-23 0 -25 -21h-136l14 248h317v-114h-205l-4 -74q33 57 110 57q56 0 89 -30.5t33 -88.5q0 -71 -48 -111t-137 -40z" />
    <glyph glyph-name="six.num" horiz-adv-x="428" 
d="M225 314q-104 0 -154.5 53.5t-50.5 148.5v12q0 87 57.5 140t146.5 53q168 0 179 -132h-151q-3 17 -23 17q-39 0 -43 -70q29 39 91 39q134 0 134 -118q0 -65 -49.5 -104t-136.5 -39zM223 422q13 0 21 9t8 24q0 14 -8 22.5t-21 8.5t-20.5 -9.5t-7.5 -23.5q0 -13 7.5 -22
t20.5 -9z" />
    <glyph glyph-name="seven.num" horiz-adv-x="382" 
d="M64 322l100 264h-144v129h352v-16l-143 -377h-165z" />
    <glyph glyph-name="eight.num" horiz-adv-x="415" 
d="M208 314q-193 0 -193 118q0 71 72 93q-54 23 -54 80q0 55 49 85.5t127 30.5q81 0 128.5 -30t47.5 -86q0 -58 -54 -79q69 -19 69 -89q0 -58 -48.5 -90.5t-143.5 -32.5zM208 422q13 0 22 8.5t9 20.5t-8.5 20.5t-22.5 8.5t-22.5 -8t-8.5 -21t8.5 -21t22.5 -8zM209 561
q12 0 20.5 8t8.5 20t-8.5 20t-20.5 8q-11 0 -20 -8t-9 -20t8.5 -20t20.5 -8z" />
    <glyph glyph-name="nine.num" horiz-adv-x="428" 
d="M204 314q-82 0 -128.5 34.5t-51.5 96.5h152q2 -16 24 -16q39 0 41 68q-11 -13 -18 -19.5t-23.5 -12t-41.5 -5.5q-141 0 -141 119q0 64 50 103t135 39q103 0 154.5 -55.5t51.5 -146.5v-6q0 -95 -52.5 -147t-151.5 -52zM202 549q29 0 29 32t-29 32q-13 0 -21 -9t-8 -24
q0 -13 7.5 -22t21.5 -9z" />
    <glyph glyph-name="zero.den" horiz-adv-x="459" 
d="M229 117q24 0 33.5 18.5t9.5 59.5v4q0 44 -9.5 60.5t-34.5 16.5q-24 0 -32.5 -17t-8.5 -60v-4q0 -43 8.5 -60.5t33.5 -17.5zM225 -8q-99 0 -152 52t-53 151v4q0 95 58.5 147.5t150.5 52.5q93 0 151.5 -48.5t58.5 -148.5v-3q0 -99 -57 -153t-157 -54z" />
    <glyph glyph-name="one.den" horiz-adv-x="315" 
d="M101 0v233l-83 -42v132l108 70h142v-393h-167z" />
    <glyph glyph-name="two.den" horiz-adv-x="388" 
d="M3 0v20l129 131q30 30 41.5 43t22.5 30.5t11 30.5q0 24 -22 24q-25 0 -29 -46h-151q2 82 52 124t137 42t131 -36.5t44 -93.5q0 -38 -20.5 -69.5t-61.5 -68.5l-15 -14h98v-117h-367z" />
    <glyph glyph-name="three.den" horiz-adv-x="406" 
d="M204 -8q-179 0 -188 145h145q4 -32 33 -32q26 0 26 24q0 23 -36 23h-33v88h33q39 0 39 26q0 21 -25 21t-31 -30h-144q5 65 50 103.5t130 38.5q84 0 130 -28.5t46 -82.5q0 -67 -73 -84q36 -5 58 -27t22 -55q0 -60 -46 -95t-136 -35z" />
    <glyph glyph-name="four.den" horiz-adv-x="434" 
d="M204 0v70h-195v62l158 261h198v-216h49v-107h-49v-70h-161zM145 177h64v110z" />
    <glyph glyph-name="five.den" horiz-adv-x="400" 
d="M197 -8q-89 0 -133.5 37.5t-45.5 99.5h150q4 -18 25 -18q24 0 24 28q0 27 -28 27q-23 0 -25 -21h-136l14 248h317v-114h-205l-4 -74q33 57 110 57q56 0 89 -30.5t33 -88.5q0 -71 -48 -111t-137 -40z" />
    <glyph glyph-name="six.den" horiz-adv-x="428" 
d="M225 -8q-104 0 -154.5 53.5t-50.5 148.5v12q0 87 57.5 140t146.5 53q168 0 179 -132h-151q-3 17 -23 17q-39 0 -43 -70q29 39 91 39q134 0 134 -118q0 -65 -49.5 -104t-136.5 -39zM223 100q13 0 21 9t8 24q0 14 -8 22.5t-21 8.5t-20.5 -9.5t-7.5 -23.5q0 -13 7.5 -22
t20.5 -9z" />
    <glyph glyph-name="seven.den" horiz-adv-x="382" 
d="M64 0l100 264h-144v129h352v-16l-143 -377h-165z" />
    <glyph glyph-name="eight.den" horiz-adv-x="415" 
d="M208 -8q-193 0 -193 118q0 71 72 93q-54 23 -54 80q0 55 49 85.5t127 30.5q81 0 128.5 -30t47.5 -86q0 -58 -54 -79q69 -19 69 -89q0 -58 -48.5 -90.5t-143.5 -32.5zM208 100q13 0 22 8.5t9 20.5t-8.5 20.5t-22.5 8.5t-22.5 -8t-8.5 -21t8.5 -21t22.5 -8zM209 239
q12 0 20.5 8t8.5 20t-8.5 20t-20.5 8q-11 0 -20 -8t-9 -20t8.5 -20t20.5 -8z" />
    <glyph glyph-name="nine.den" horiz-adv-x="428" 
d="M204 -8q-82 0 -128.5 34.5t-51.5 96.5h152q2 -16 24 -16q39 0 41 68q-11 -13 -18 -19.5t-23.5 -12t-41.5 -5.5q-141 0 -141 119q0 64 50 103t135 39q103 0 154.5 -55.5t51.5 -146.5v-6q0 -95 -52.5 -147t-151.5 -52zM202 227q29 0 29 32t-29 32q-13 0 -21 -9t-8 -24
q0 -13 7.5 -22t21.5 -9z" />
    <glyph glyph-name="zero.sub" horiz-adv-x="459" 
d="M229 -20q24 0 33.5 18.5t9.5 59.5v4q0 44 -9.5 60.5t-34.5 16.5q-24 0 -32.5 -17t-8.5 -60v-4q0 -43 8.5 -60.5t33.5 -17.5zM225 -145q-99 0 -152 52t-53 151v4q0 95 58.5 147.5t150.5 52.5q93 0 151.5 -48.5t58.5 -148.5v-3q0 -99 -57 -153t-157 -54z" />
    <glyph glyph-name="one.sub" horiz-adv-x="315" 
d="M101 -137v233l-83 -42v132l108 70h142v-393h-167z" />
    <glyph glyph-name="two.sub" horiz-adv-x="388" 
d="M3 -137v20l129 131q30 30 41.5 43t22.5 30.5t11 30.5q0 24 -22 24q-25 0 -29 -46h-151q2 82 52 124t137 42t131 -36.5t44 -93.5q0 -38 -20.5 -69.5t-61.5 -68.5l-15 -14h98v-117h-367z" />
    <glyph glyph-name="three.sub" horiz-adv-x="406" 
d="M204 -145q-179 0 -188 145h145q4 -32 33 -32q26 0 26 24q0 23 -36 23h-33v88h33q39 0 39 26q0 21 -25 21t-31 -30h-144q5 65 50 103.5t130 38.5q84 0 130 -28.5t46 -82.5q0 -67 -73 -84q36 -5 58 -27t22 -55q0 -60 -46 -95t-136 -35z" />
    <glyph glyph-name="four.sub" horiz-adv-x="434" 
d="M204 -137v70h-195v62l158 261h198v-216h49v-107h-49v-70h-161zM145 40h64v110z" />
    <glyph glyph-name="five.sub" horiz-adv-x="400" 
d="M197 -145q-89 0 -133.5 37.5t-45.5 99.5h150q4 -18 25 -18q24 0 24 28q0 27 -28 27q-23 0 -25 -21h-136l14 248h317v-114h-205l-4 -74q33 57 110 57q56 0 89 -30.5t33 -88.5q0 -71 -48 -111t-137 -40z" />
    <glyph glyph-name="six.sub" horiz-adv-x="428" 
d="M225 -145q-104 0 -154.5 53.5t-50.5 148.5v12q0 87 57.5 140t146.5 53q168 0 179 -132h-151q-3 17 -23 17q-39 0 -43 -70q29 39 91 39q134 0 134 -118q0 -65 -49.5 -104t-136.5 -39zM223 -37q13 0 21 9t8 24q0 14 -8 22.5t-21 8.5t-20.5 -9.5t-7.5 -23.5q0 -13 7.5 -22
t20.5 -9z" />
    <glyph glyph-name="seven.sub" horiz-adv-x="382" 
d="M64 -137l100 264h-144v129h352v-16l-143 -377h-165z" />
    <glyph glyph-name="eight.sub" horiz-adv-x="415" 
d="M208 -145q-193 0 -193 118q0 71 72 93q-54 23 -54 80q0 55 49 85.5t127 30.5q81 0 128.5 -30t47.5 -86q0 -58 -54 -79q69 -19 69 -89q0 -58 -48.5 -90.5t-143.5 -32.5zM208 -37q13 0 22 8.5t9 20.5t-8.5 20.5t-22.5 8.5t-22.5 -8t-8.5 -21t8.5 -21t22.5 -8zM209 102
q12 0 20.5 8t8.5 20t-8.5 20t-20.5 8q-11 0 -20 -8t-9 -20t8.5 -20t20.5 -8z" />
    <glyph glyph-name="nine.sub" horiz-adv-x="428" 
d="M204 -145q-82 0 -128.5 34.5t-51.5 96.5h152q2 -16 24 -16q39 0 41 68q-11 -13 -18 -19.5t-23.5 -12t-41.5 -5.5q-141 0 -141 119q0 64 50 103t135 39q103 0 154.5 -55.5t51.5 -146.5v-6q0 -95 -52.5 -147t-151.5 -52zM202 90q29 0 29 32t-29 32q-13 0 -21 -9t-8 -24
q0 -13 7.5 -22t21.5 -9z" />
    <glyph glyph-name="plus.sub" horiz-adv-x="367" 
d="M126 -83v95h-94v113h94v96h115v-96h94v-113h-94v-95h-115z" />
    <glyph glyph-name="minus.sub" horiz-adv-x="367" 
d="M32 12v113h303v-113h-303z" />
    <glyph glyph-name="zero.sup" horiz-adv-x="459" 
d="M229 497q24 0 33.5 18.5t9.5 59.5v4q0 44 -9.5 60.5t-34.5 16.5q-24 0 -32.5 -17t-8.5 -60v-4q0 -43 8.5 -60.5t33.5 -17.5zM225 372q-99 0 -152 52t-53 151v4q0 95 58.5 147.5t150.5 52.5q93 0 151.5 -48.5t58.5 -148.5v-3q0 -99 -57 -153t-157 -54z" />
    <glyph glyph-name="one.sup" horiz-adv-x="315" 
d="M101 380v233l-83 -42v132l108 70h142v-393h-167z" />
    <glyph glyph-name="two.sup" horiz-adv-x="388" 
d="M3 380v20l129 131q30 30 41.5 43t22.5 30.5t11 30.5q0 24 -22 24q-25 0 -29 -46h-151q2 82 52 124t137 42t131 -36.5t44 -93.5q0 -38 -20.5 -69.5t-61.5 -68.5l-15 -14h98v-117h-367z" />
    <glyph glyph-name="three.sup" horiz-adv-x="406" 
d="M204 372q-179 0 -188 145h145q4 -32 33 -32q26 0 26 24q0 23 -36 23h-33v88h33q39 0 39 26q0 21 -25 21t-31 -30h-144q5 65 50 103.5t130 38.5q84 0 130 -28.5t46 -82.5q0 -67 -73 -84q36 -5 58 -27t22 -55q0 -60 -46 -95t-136 -35z" />
    <glyph glyph-name="four.sup" horiz-adv-x="434" 
d="M204 380v70h-195v62l158 261h198v-216h49v-107h-49v-70h-161zM145 557h64v110z" />
    <glyph glyph-name="five.sup" horiz-adv-x="400" 
d="M197 372q-89 0 -133.5 37.5t-45.5 99.5h150q4 -18 25 -18q24 0 24 28q0 27 -28 27q-23 0 -25 -21h-136l14 248h317v-114h-205l-4 -74q33 57 110 57q56 0 89 -30.5t33 -88.5q0 -71 -48 -111t-137 -40z" />
    <glyph glyph-name="six.sup" horiz-adv-x="428" 
d="M225 372q-104 0 -154.5 53.5t-50.5 148.5v12q0 87 57.5 140t146.5 53q168 0 179 -132h-151q-3 17 -23 17q-39 0 -43 -70q29 39 91 39q134 0 134 -118q0 -65 -49.5 -104t-136.5 -39zM223 480q13 0 21 9t8 24q0 14 -8 22.5t-21 8.5t-20.5 -9.5t-7.5 -23.5q0 -13 7.5 -22
t20.5 -9z" />
    <glyph glyph-name="seven.sup" horiz-adv-x="382" 
d="M64 380l100 264h-144v129h352v-16l-143 -377h-165z" />
    <glyph glyph-name="eight.sup" horiz-adv-x="415" 
d="M208 372q-193 0 -193 118q0 71 72 93q-54 23 -54 80q0 55 49 85.5t127 30.5q81 0 128.5 -30t47.5 -86q0 -58 -54 -79q69 -19 69 -89q0 -58 -48.5 -90.5t-143.5 -32.5zM208 480q13 0 22 8.5t9 20.5t-8.5 20.5t-22.5 8.5t-22.5 -8t-8.5 -21t8.5 -21t22.5 -8zM209 619
q12 0 20.5 8t8.5 20t-8.5 20t-20.5 8q-11 0 -20 -8t-9 -20t8.5 -20t20.5 -8z" />
    <glyph glyph-name="nine.sup" horiz-adv-x="428" 
d="M204 372q-82 0 -128.5 34.5t-51.5 96.5h152q2 -16 24 -16q39 0 41 68q-11 -13 -18 -19.5t-23.5 -12t-41.5 -5.5q-141 0 -141 119q0 64 50 103t135 39q103 0 154.5 -55.5t51.5 -146.5v-6q0 -95 -52.5 -147t-151.5 -52zM202 607q29 0 29 32t-29 32q-13 0 -21 -9t-8 -24
q0 -13 7.5 -22t21.5 -9z" />
    <glyph glyph-name="plus.sup" horiz-adv-x="367" 
d="M126 434v95h-94v113h94v96h115v-96h94v-113h-94v-95h-115z" />
    <glyph glyph-name="minus.sup" horiz-adv-x="367" 
d="M32 529v113h303v-113h-303z" />
    <glyph glyph-name="a.alt" horiz-adv-x="644" 
d="M229 -14q-90 0 -151 69t-61 203v8q0 133 60.5 203t148.5 70q106 0 152 -85v69h228v-523h-228v82q-44 -96 -149 -96zM317 159q67 0 67 101v8q0 103 -67 103q-68 0 -68 -103v-8q0 -101 68 -101z" />
    <glyph glyph-name="t.alt" horiz-adv-x="400" 
d="M74 0v374h-67v149h67v104h229v-104h86v-149h-86v-374h-229z" />
    <glyph glyph-name="germandbls.alt" horiz-adv-x="731" 
d="M500 -9q-215 0 -220 179h179q1 -42 29 -42q20 0 20 23q0 8 -3 14t-12 11t-16.5 8.5t-25 10t-29.5 11.5q-54 22 -88 53.5t-34 84.5q0 40 26 79t51.5 69t25.5 48q0 50 -66 50q-33 0 -52 -16.5t-19 -49.5v-524h-229v522q0 113 83 174.5t222 61.5q128 0 207.5 -46.5
t79.5 -132.5q0 -40 -17.5 -73.5t-38 -51.5t-38 -34t-17.5 -24q0 -11 15.5 -21t68.5 -35q118 -56 118 -162q0 -91 -61 -139t-159 -48z" />
    <glyph glyph-name="aacute.alt" horiz-adv-x="644" 
d="M229 -14q-90 0 -151 69t-61 203v8q0 133 60.5 203t148.5 70q106 0 152 -85v69h228v-523h-228v82q-44 -96 -149 -96zM317 159q67 0 67 101v8q0 103 -67 103q-68 0 -68 -103v-8q0 -101 68 -101zM248 568l49 175h219l-105 -175h-163z" />
    <glyph glyph-name="abreve.alt" horiz-adv-x="644" 
d="M229 -14q-90 0 -151 69t-61 203v8q0 133 60.5 203t148.5 70q106 0 152 -85v69h228v-523h-228v82q-44 -96 -149 -96zM317 159q67 0 67 101v8q0 103 -67 103q-68 0 -68 -103v-8q0 -101 68 -101zM334 570q-82 0 -128.5 44t-50.5 128h134q2 -40 45 -40q20 0 32 11t13 29h134
q-5 -84 -52.5 -128t-126.5 -44z" />
    <glyph glyph-name="acircumflex.alt" horiz-adv-x="644" 
d="M229 -14q-90 0 -151 69t-61 203v8q0 133 60.5 203t148.5 70q106 0 152 -85v69h228v-523h-228v82q-44 -96 -149 -96zM317 159q67 0 67 101v8q0 103 -67 103q-68 0 -68 -103v-8q0 -101 68 -101zM129 571l130 172h155l124 -172h-158l-48 46l-48 -46h-155z" />
    <glyph glyph-name="adieresis.alt" horiz-adv-x="644" 
d="M229 -14q-90 0 -151 69t-61 203v8q0 133 60.5 203t148.5 70q106 0 152 -85v69h228v-523h-228v82q-44 -96 -149 -96zM317 159q67 0 67 101v8q0 103 -67 103q-68 0 -68 -103v-8q0 -101 68 -101zM221 552q-43 0 -72.5 29t-29.5 70t29.5 70t72.5 29t73 -29t30 -70t-30 -70
t-73 -29zM446 552q-43 0 -72 29t-29 70t29 70t72 29t73 -29t30 -70t-30 -70t-73 -29z" />
    <glyph glyph-name="agrave.alt" horiz-adv-x="644" 
d="M229 -14q-90 0 -151 69t-61 203v8q0 133 60.5 203t148.5 70q106 0 152 -85v69h228v-523h-228v82q-44 -96 -149 -96zM317 159q67 0 67 101v8q0 103 -67 103q-68 0 -68 -103v-8q0 -101 68 -101zM257 568l-105 175h219l49 -175h-163z" />
    <glyph glyph-name="amacron.alt" horiz-adv-x="644" 
d="M229 -14q-90 0 -151 69t-61 203v8q0 133 60.5 203t148.5 70q106 0 152 -85v69h228v-523h-228v82q-44 -96 -149 -96zM317 159q67 0 67 101v8q0 103 -67 103q-68 0 -68 -103v-8q0 -101 68 -101zM168 593v119h331v-119h-331z" />
    <glyph glyph-name="aogonek.alt" horiz-adv-x="644" 
d="M504 -182q-57 0 -90 22t-33 60q0 36 24 58.5t66 41.5h-93v82q-44 -96 -149 -96q-90 0 -151 69t-61 203v8q0 133 60.5 203t148.5 70q106 0 152 -85v69h228v-508q-45 -38 -45 -66q0 -24 27 -24q8 0 18 2v-91q-36 -18 -102 -18zM317 159q67 0 67 101v8q0 103 -67 103
q-68 0 -68 -103v-8q0 -101 68 -101z" />
    <glyph glyph-name="aring.alt" horiz-adv-x="644" 
d="M229 -14q-90 0 -151 69t-61 203v8q0 133 60.5 203t148.5 70q106 0 152 -85v69h228v-523h-228v82q-44 -96 -149 -96zM317 159q67 0 67 101v8q0 103 -67 103q-68 0 -68 -103v-8q0 -101 68 -101zM334 641q19 0 30.5 13t11.5 33t-11.5 33t-30.5 13t-30.5 -13t-11.5 -33
t11.5 -33t30.5 -13zM334 567q-51 0 -87.5 35.5t-36.5 84.5t36.5 84.5t87.5 35.5t87.5 -35.5t36.5 -84.5t-36.5 -84.5t-87.5 -35.5z" />
    <glyph glyph-name="aringacute.alt" horiz-adv-x="644" 
d="M229 -14q-90 0 -151 69t-61 203v8q0 133 60.5 203t148.5 70q106 0 152 -85v69h228v-523h-228v82q-44 -96 -149 -96zM317 159q67 0 67 101v8q0 103 -67 103q-68 0 -68 -103v-8q0 -101 68 -101zM334 641q19 0 30.5 13t11.5 33t-11.5 33t-30.5 13t-30.5 -13t-11.5 -33
t11.5 -33t30.5 -13zM334 567q-51 0 -87.5 35.5t-36.5 84.5t36.5 84.5t87.5 35.5t87.5 -35.5t36.5 -84.5t-36.5 -84.5t-87.5 -35.5zM252 830l49 155h229l-105 -155h-173z" />
    <glyph glyph-name="atilde.alt" horiz-adv-x="644" 
d="M229 -14q-90 0 -151 69t-61 203v8q0 133 60.5 203t148.5 70q106 0 152 -85v69h228v-523h-228v82q-44 -96 -149 -96zM317 159q67 0 67 101v8q0 103 -67 103q-68 0 -68 -103v-8q0 -101 68 -101zM403 570q-35 0 -72 14.5t-49 14.5q-24 0 -27 -26h-116q4 88 37 132t86 44
q32 0 71 -14.5t54 -14.5q22 0 27 26h116q-5 -87 -40 -131.5t-87 -44.5z" />
    <glyph glyph-name="tbar.alt" horiz-adv-x="400" 
d="M7 210v119h67v45h-67v149h67v104h229v-104h86v-149h-86v-45h86v-119h-86v-210h-229v210h-67z" />
    <glyph glyph-name="tcaron.alt" horiz-adv-x="400" 
d="M74 0v374h-67v149h67v104h229v-104h86v-149h-86v-374h-229zM334 569l7 174h153l-50 -174h-110z" />
    <glyph glyph-name="tcommaaccent.alt" horiz-adv-x="400" 
d="M74 0v374h-67v149h67v104h229v-104h86v-149h-86v-374h-229zM184 -236l-126 27l33 173h197z" />
    <glyph glyph-name="f.short" horiz-adv-x="399" 
d="M68 0v374h-61v149h61v26q0 103 62.5 153.5t168.5 50.5q43 0 91 -11v-162q-20 5 -43 5q-51 0 -51 -40v-22h94v-149h-94v-374h-228z" />
    <glyph glyph-name="f_f.short" horiz-adv-x="751" 
d="M68 0v374h-61v149h61v20q0 103 61.5 153.5t167.5 50.5q45 0 89 -11v-162q-20 5 -41 5q-49 0 -49 -40v-16h124v26q0 103 62.5 153.5t168.5 50.5q43 0 91 -11v-162q-20 5 -43 5q-51 0 -51 -40v-22h94v-149h-94v-374h-228v374h-124v-374h-228z" />
    <glyph glyph-name="questiondown.uc" horiz-adv-x="591" 
d="M427 463v-3q0 -34 -16.5 -67t-32.5 -50t-46 -45q-22 -21 -31.5 -30t-19.5 -25t-10 -30q0 -39 37 -39q40 0 51 66h224q-3 -123 -83 -187t-212 -64q-127 0 -197.5 50t-70.5 150q0 81 60 141q17 17 50.5 45t53 48.5t25.5 39.5h218zM317 729q55 0 92.5 -34t37.5 -83
t-37.5 -83.5t-92.5 -34.5q-53 0 -90.5 34.5t-37.5 83.5t37.5 83t90.5 34z" />
    <glyph glyph-name="exclamdown.uc" horiz-adv-x="358" 
d="M50 0l33 463h192l33 -463h-258zM179 494q-53 0 -91 34.5t-38 83.5t38 83t91 34t90.5 -34t37.5 -83t-37.5 -83.5t-90.5 -34.5z" />
    <glyph glyph-name="hyphen.uc" horiz-adv-x="426" 
d="M46 238v175h334v-175h-334z" />
    <glyph glyph-name="endash.uc" horiz-adv-x="548" 
d="M46 269v123h456v-123h-456z" />
    <glyph glyph-name="emdash.uc" horiz-adv-x="978" 
d="M46 269v123h886v-123h-886z" />
    <glyph glyph-name="guilsinglleft.uc" horiz-adv-x="299" 
d="M138 103l-122 198l122 198h142l-117 -198l117 -198h-142z" />
    <glyph glyph-name="guilsinglright.uc" horiz-adv-x="299" 
d="M19 103l117 198l-117 198h142l122 -198l-122 -198h-142z" />
    <glyph glyph-name="guillemotleft.uc" horiz-adv-x="470" 
d="M138 103l-122 198l122 198h132l-117 -198l117 -198h-132zM319 103l-122 198l122 198h132l-117 -198l117 -198h-132z" />
    <glyph glyph-name="guillemotright.uc" horiz-adv-x="470" 
d="M19 103l117 198l-117 198h132l122 -198l-122 -198h-132zM200 103l117 198l-117 198h132l122 -198l-122 -198h-132z" />
    <glyph glyph-name="parenleft.uc" horiz-adv-x="373" 
d="M197 -98q-33 39 -57 75.5t-52 92.5t-43 126t-15 148q0 79 15 149t43 125.5t52 91.5t57 76h169q-121 -217 -121 -442t121 -442h-169z" />
    <glyph glyph-name="parenright.uc" horiz-adv-x="373" 
d="M7 -98q121 217 121 442t-121 442h169q33 -40 57 -76t52 -91.5t43 -125.5t15 -149q0 -78 -15 -148t-43 -126t-52 -92.5t-57 -75.5h-169z" />
    <glyph glyph-name="bracketleft.uc" horiz-adv-x="437" 
d="M54 -98v884h348v-164h-117v-556h117v-164h-348z" />
    <glyph glyph-name="bracketright.uc" horiz-adv-x="437" 
d="M36 -98v164h115v556h-115v164h346v-884h-346z" />
    <glyph glyph-name="braceleft.uc" horiz-adv-x="437" 
d="M402 -98q-172 0 -245.5 59.5t-53.5 183.5l9 55q5 31 -16.5 48.5t-69.5 17.5v158q48 0 69.5 17t16.5 48l-9 54q-21 129 51.5 186t247.5 57v-165q-48 -4 -62 -18t-10 -51l7 -74q5 -49 -22.5 -83.5t-83.5 -47.5q56 -12 83.5 -47t22.5 -84l-7 -74q-4 -39 10 -55t62 -20v-165z
" />
    <glyph glyph-name="braceright.uc" horiz-adv-x="437" 
d="M35 -98v165q48 4 62 20t10 55l-7 74q-5 49 22.5 84t83.5 47q-56 13 -83.5 47.5t-22.5 83.5l7 74q4 37 -10 51t-62 18v165q175 0 247.5 -57t51.5 -186l-9 -54q-5 -31 16.5 -48t69.5 -17v-158q-48 0 -69.5 -17.5t-16.5 -48.5l9 -55q20 -124 -53.5 -183.5t-245.5 -59.5z" />
    <glyph glyph-name="slash.uc" horiz-adv-x="450" 
d="M-18 -84l309 860h177l-309 -860h-177z" />
    <glyph glyph-name="backslash.uc" horiz-adv-x="450" 
d="M291 -84l-309 860h177l309 -860h-177z" />
    <glyph glyph-name="bar.uc" horiz-adv-x="275" 
d="M60 -84v860h155v-860h-155z" />
    <glyph glyph-name="at.uc" horiz-adv-x="924" 
d="M461 -92q-200 0 -320.5 116t-120.5 295q0 132 66.5 235.5t171 156.5t224.5 53q182 0 301.5 -98.5t119.5 -264.5q0 -144 -65.5 -214t-164.5 -70q-138 0 -164 79q-36 -79 -126 -79q-75 0 -119.5 52t-44.5 140q0 106 56.5 171t141.5 65q77 0 103 -55l7 47h180l-35 -283
q-8 -60 41 -60q45 0 75.5 52t30.5 159q0 129 -92 208.5t-242 79.5q-160 0 -268 -103t-108 -274q0 -152 92.5 -244.5t264.5 -92.5q85 0 158 27.5t110 65.5h98q-55 -76 -154 -120t-217 -44zM446 262q26 0 41 26.5t15 66.5q0 49 -44 49q-25 0 -40 -24.5t-15 -61.5q0 -56 43 -56
z" />
    </font>
</defs>
</svg>
