<?xml version="1.0" standalone="no"?>
<!DOCTYPE svg PUBLIC "-//W3C//DTD SVG 1.1//EN" "http://www.w3.org/Graphics/SVG/1.1/DTD/svg11.dtd" >
<svg>
<metadata>
Created by FontForge 20120731 at Sun Aug 28 06:44:35 2016
 By ,,,
(c)2009 Commercial Type.
</metadata>
<defs>
<font id="Graphik-SuperItalic" horiz-adv-x="600" >
  <font-face 
    font-family="Graphik Super"
    font-weight="950"
    font-style="italic"
    font-stretch="normal"
    units-per-em="1000"
    panose-1="2 11 11 3 3 2 2 13 2 3"
    ascent="828"
    descent="-172"
    x-height="523"
    cap-height="715"
    bbox="-254 -236 1258 1150"
    underline-thickness="50"
    underline-position="-50"
    slope="-8"
    unicode-range="U+0020-FB02"
  />
<missing-glyph horiz-adv-x="529" 
 />
    <glyph glyph-name="f_f" unicode="ff" horiz-adv-x="761" 
d="M381 0l59 374h-127l-59 -374h-228l59 374h-61l23 149h61l6 37q15 97 80 142t160 45q60 0 103 -15l-26 -163q-20 6 -41 6q-45 0 -52 -41l-2 -11h127l8 48q15 97 81 142t164 45q62 0 105 -15l-26 -164q-23 7 -44 7q-48 0 -56 -41l-4 -22h95l-23 -149h-95l-59 -374h-228z
" />
    <glyph glyph-name=".notdef" horiz-adv-x="529" 
 />
    <glyph glyph-name=".null" horiz-adv-x="0" 
 />
    <glyph glyph-name="nonmarkingreturn" horiz-adv-x="333" 
 />
    <glyph glyph-name="space" unicode=" " horiz-adv-x="162" 
 />
    <glyph glyph-name="exclam" unicode="!" horiz-adv-x="358" 
d="M154 -14q-53 0 -87.5 33.5t-34.5 82.5t36 84t89 35t88.5 -34t35.5 -83t-37 -83.5t-90 -34.5zM80 252l41 463h258l-107 -463h-192z" />
    <glyph glyph-name="quotedbl" unicode="&#x22;" horiz-adv-x="507" 
d="M81 424l20 291h209l-68 -291h-161zM319 424l20 291h209l-68 -291h-161z" />
    <glyph glyph-name="numbersign" unicode="#" horiz-adv-x="603" 
d="M274 99l29 121h-45l-29 -121h-148l29 121h-73l29 178h86l11 46h-73l25 168h88l25 103h148l-25 -103h45l25 103h148l-25 -103h74l-25 -168h-89l-11 -46h76l-29 -178h-89l-29 -121h-148zM311 444l-11 -46h45l11 46h-45z" />
    <glyph glyph-name="dollar" unicode="$" horiz-adv-x="657" 
d="M224 -135l20 127q-48 6 -88 21.5t-75 42t-55.5 71t-22.5 103.5h228q0 -51 40 -67l15 97q-126 25 -179.5 74t-53.5 139q0 117 88 184t219 69l14 87h88l-15 -92q222 -27 231 -224h-222q-1 37 -36 52l-15 -97q119 -23 178.5 -70t59.5 -139q0 -124 -86.5 -189t-225.5 -67
l-19 -122h-88zM414 202q0 26 -42 40l-14 -88q56 6 56 48zM278 512q0 -32 41 -44l14 89q-55 -8 -55 -45z" />
    <glyph glyph-name="percent" unicode="%" horiz-adv-x="849" 
d="M212 524q0 -20 9.5 -33t29.5 -12q24 1 35.5 25.5t11.5 55.5q0 19 -9.5 31t-27.5 12q-24 0 -36.5 -23t-12.5 -56zM245 354q-82 0 -138 42t-56 120q0 89 59.5 148.5t155.5 59.5q79 0 135.5 -42.5t56.5 -119.5q0 -87 -59.5 -147.5t-153.5 -60.5zM95 0l592 715h109l-592 -715
h-109zM590 156q0 -20 9.5 -33t29.5 -12q24 1 35.5 25.5t11.5 55.5q0 19 -9.5 31t-27.5 12q-24 0 -36.5 -23t-12.5 -56zM623 -14q-82 0 -138 42t-56 120q0 88 60 148t155 60q79 0 135.5 -42.5t56.5 -119.5q0 -87 -59.5 -147.5t-153.5 -60.5z" />
    <glyph glyph-name="ampersand" unicode="&#x26;" horiz-adv-x="804" 
d="M810 374l-156 -241l85 -133h-282l-25 38q-81 -52 -189 -52q-102 0 -169.5 51t-67.5 155q0 81 50 132.5t137 87.5q-30 47 -30 103q0 100 79 156t194 56q44 0 83.5 -9t74.5 -28.5t56 -55.5t21 -84q0 -68 -43.5 -109.5t-119.5 -72.5l49 -77l54 83h199zM250 220
q0 -27 15.5 -44t45.5 -17q23 0 37 7l-72 112q-26 -24 -26 -58zM432 570q-20 0 -33 -13t-13 -35q0 -27 29 -60q58 28 58 68q0 18 -11.5 29t-29.5 11z" />
    <glyph glyph-name="quotesingle" unicode="'" horiz-adv-x="279" 
d="M81 424l20 291h219l-68 -291h-171z" />
    <glyph glyph-name="parenleft" unicode="(" horiz-adv-x="373" 
d="M302 -148h-169q-106 165 -106 362q0 165 67 309t187 253h175q-109 -148 -162.5 -283.5t-53.5 -298.5q0 -194 62 -342z" />
    <glyph glyph-name="parenright" unicode=")" horiz-adv-x="373" 
d="M84 776h169q106 -165 106 -362q0 -165 -67 -309t-187 -253h-175q109 148 162.5 283.5t53.5 298.5q0 194 -62 342z" />
    <glyph glyph-name="asterisk" unicode="*" horiz-adv-x="450" 
d="M191 353l-119 103l104 72l-113 13l65 148l97 -62l-14 116h178l-50 -123l113 47l17 -153l-115 3l80 -85l-149 -85l-29 114z" />
    <glyph glyph-name="plus" unicode="+" horiz-adv-x="596" 
d="M177 72l29 186h-170l26 162h170l29 186h180l-29 -186h170l-26 -162h-170l-29 -186h-180z" />
    <glyph glyph-name="comma" unicode="," horiz-adv-x="319" 
d="M95 -124l-124 52l101 284l200 -70z" />
    <glyph glyph-name="hyphen" unicode="-" horiz-adv-x="406" 
d="M36 208l27 165h314l-27 -165h-314z" />
    <glyph glyph-name="period" unicode="." horiz-adv-x="308" 
d="M126 -14q-53 0 -87.5 34.5t-34.5 85.5q0 50 34.5 85t86.5 35q54 0 90.5 -35t36.5 -85q0 -51 -36 -85.5t-90 -34.5z" />
    <glyph glyph-name="slash" unicode="/" horiz-adv-x="450" 
d="M-97 -148l456 924h181l-457 -924h-180z" />
    <glyph glyph-name="zero" unicode="0" horiz-adv-x="758" 
d="M302 352q-8 -56 -8 -76q0 -86 80 -86q48 0 71 34t36 113l4 25q7 49 7 75q0 89 -77 89q-48 0 -72.5 -34.5t-36.5 -114.5zM364 -14q-152 0 -242 77t-90 221q0 31 7 80l4 26q26 166 126 251t252 85q148 0 240.5 -77.5t92.5 -224.5q0 -36 -6 -74l-4 -26q-26 -169 -124 -253.5
t-256 -84.5z" />
    <glyph glyph-name="one" unicode="1" horiz-adv-x="476" 
d="M113 0l71 455l-135 -72l35 223l181 109h227l-113 -715h-266z" />
    <glyph glyph-name="two" unicode="2" horiz-adv-x="646" 
d="M-39 0l5 34l271 249q41 36 61 54.5t46 46.5t36.5 51.5t10.5 47.5q0 45 -45 45q-54 0 -74 -93h-239q15 144 105.5 217.5t231.5 73.5q130 0 207.5 -55.5t77.5 -164.5q0 -56 -25.5 -106.5t-57 -83t-86.5 -76.5l-55 -45h184l-30 -195h-624z" />
    <glyph glyph-name="three" unicode="3" horiz-adv-x="677" 
d="M335 -14q-319 0 -320 262h239q-2 -74 66 -74q27 0 44.5 16t17.5 42q0 50 -63 50h-52l25 155h65q64 0 65 56q1 24 -13.5 35.5t-37.5 11.5q-62 0 -74 -69h-236q15 117 101.5 186t226.5 69q57 0 106 -10.5t90 -32.5t64.5 -61t23.5 -91q0 -61 -36.5 -105.5t-103.5 -60.5
q53 -13 84 -51.5t31 -90.5q0 -79 -48 -134.5t-116.5 -79t-148.5 -23.5z" />
    <glyph glyph-name="four" unicode="4" horiz-adv-x="709" 
d="M308 0l20 130h-343l16 102l361 483h314l-65 -407h88l-28 -178h-88l-20 -130h-255zM253 308h110l32 201z" />
    <glyph glyph-name="five" unicode="5" horiz-adv-x="654" 
d="M308 -14q-62 0 -114.5 13.5t-95.5 42.5t-67.5 79.5t-23.5 119.5h248q-2 -57 53 -57t57 68q1 33 -17.5 49t-51.5 16q-63 0 -94 -43h-164l87 441h523l-30 -189h-334l-24 -122q60 85 179 85q89 0 141 -53.5t51 -157.5q-1 -137 -87 -214.5t-236 -77.5z" />
    <glyph glyph-name="six" unicode="6" horiz-adv-x="703" 
d="M354 -14q-149 0 -234 74t-84 219q0 42 8 92l3 20q23 154 124 244.5t247 90.5q57 0 105 -12t88.5 -38t64.5 -72t26 -109h-245q0 38 -44 38q-81 0 -107 -142q61 80 160 79q88 0 152 -52.5t64 -150.5q0 -133 -94.5 -207t-233.5 -74zM299 232q0 -27 14.5 -44t41.5 -17
q30 0 49.5 23.5t19.5 56.5q0 26 -14.5 43t-41.5 17q-29 0 -49 -22.5t-20 -56.5z" />
    <glyph glyph-name="seven" unicode="7" horiz-adv-x="603" 
d="M49 0l254 499h-246l34 216h582l-4 -26l-347 -689h-273z" />
    <glyph glyph-name="eight" unicode="8" horiz-adv-x="683" 
d="M270 226q0 -28 16.5 -43t45.5 -15t49.5 19.5t20.5 52.5q0 27 -16.5 41.5t-44.5 14.5q-30 0 -50.5 -18.5t-20.5 -51.5zM316 489q0 -24 14.5 -39t39.5 -15q26 0 46.5 17t20.5 46q0 25 -15 39.5t-41 14.5t-45.5 -17t-19.5 -46zM322 -14q-63 0 -119 12t-101 36t-71.5 63.5
t-26.5 90.5q0 146 157 192q-79 42 -79 126q0 73 44 124t111 73.5t149 22.5q53 0 101 -10t92.5 -31.5t71 -61.5t26.5 -94q0 -56 -33 -100t-89 -66q51 -20 77 -58t26 -85q0 -116 -91.5 -175t-244.5 -59z" />
    <glyph glyph-name="nine" unicode="9" horiz-adv-x="703" 
d="M310 -13q-58 0 -108 12.5t-91 38.5t-65.5 71.5t-26.5 106.5h244q3 -35 55 -35q45 0 68.5 34t37.5 103q-27 -38 -62 -58.5t-93 -20.5t-106 18.5t-81 65.5t-33 116q0 134 92 211t235 77q150 0 236 -77t86 -227q0 -43 -7 -84l-2 -12q-29 -171 -122.5 -255.5t-256.5 -84.5z
M302 464q0 -28 14.5 -44.5t41.5 -16.5q30 0 50.5 22.5t20.5 57.5q0 26 -15.5 43t-42.5 17q-29 0 -49 -22t-20 -57z" />
    <glyph glyph-name="colon" unicode=":" horiz-adv-x="312" 
d="M128 -14q-53 0 -87.5 34.5t-34.5 85.5q0 50 34.5 85t86.5 35q54 0 90.5 -35t36.5 -85q0 -51 -36 -85.5t-90 -34.5zM173 266q-53 0 -87.5 34.5t-34.5 85.5q0 50 34.5 85t86.5 35q54 0 90.5 -35t36.5 -85q0 -51 -36 -85.5t-90 -34.5z" />
    <glyph glyph-name="semicolon" unicode=";" horiz-adv-x="336" 
d="M203 266q-53 0 -87.5 34.5t-34.5 85.5q0 50 34.5 85t86.5 35q54 0 90.5 -35t36.5 -85q0 -51 -36 -85.5t-90 -34.5zM95 -124l-124 52l101 284l200 -70z" />
    <glyph glyph-name="less" unicode="&#x3c;" horiz-adv-x="517" 
d="M441 41l-399 266l7 43l481 254l-33 -209l-164 -75l139 -85z" />
    <glyph glyph-name="equal" unicode="=" horiz-adv-x="594" 
d="M20 152l23 148h518l-23 -148h-518zM52 357l23 148h518l-23 -148h-518z" />
    <glyph glyph-name="greater" unicode="&#x3e;" horiz-adv-x="517" 
d="M93 605l399 -266l-7 -43l-481 -254l33 209l164 75l-139 85z" />
    <glyph glyph-name="question" unicode="?" horiz-adv-x="591" 
d="M161 252l2 10q8 38 31 71t51 55t54.5 41t44 39.5t17.5 41.5q-2 31 -34 31q-41 0 -55 -66h-224q15 124 100 187.5t210 63.5q124 0 188.5 -48.5t64.5 -138.5q0 -46 -18.5 -83.5t-48 -62.5t-60 -46t-60.5 -44.5t-44 -47.5l-1 -3h-218zM244 -14q-53 0 -87.5 33.5t-34.5 82.5
t36 84t89 35t88.5 -34t35.5 -83t-37 -83.5t-90 -34.5z" />
    <glyph glyph-name="at" unicode="@" horiz-adv-x="919" 
d="M461 -164q-200 0 -320.5 116t-120.5 295q0 132 66.5 235.5t172 156.5t227.5 53q180 0 298.5 -99t118.5 -264q0 -144 -68 -214t-171 -70q-132 0 -155 79q-41 -79 -139 -79q-68 0 -109.5 48t-42.5 129q0 112 59 181.5t148 69.5q77 0 101 -55l9 47h180l-46 -283
q-10 -60 37 -60q46 0 79.5 52.5t33.5 158.5q0 129 -92 208.5t-242 79.5q-160 0 -268 -103t-108 -274q0 -152 92.5 -244.5t264.5 -92.5q85 0 158 27.5t110 65.5h98q-55 -76 -154 -120t-217 -44zM444 190q26 0 42.5 28t16.5 68q0 46 -42 46q-25 0 -42 -26.5t-16 -68.5
q0 -47 41 -47z" />
    <glyph glyph-name="A" unicode="A" horiz-adv-x="784" 
d="M463 0l-9 95h-202l-39 -95h-254l333 715h343l106 -715h-278zM418 501l-93 -228h113z" />
    <glyph glyph-name="B" unicode="B" horiz-adv-x="709" 
d="M16 0l113 715h333q126 0 182.5 -50t56.5 -129q0 -68 -40 -112t-101 -56q55 -11 89.5 -48t34.5 -99q0 -99 -78 -160t-208 -61h-382zM302 172h51q34 0 54 18.5t20 47.5q0 53 -66 53h-40zM345 445h53q63 0 63 54q0 45 -56 45h-44z" />
    <glyph glyph-name="C" unicode="C" horiz-adv-x="779" 
d="M396 -14q-169 0 -266.5 79.5t-97.5 236.5q0 191 109 307.5t301 116.5q159 0 247 -74.5t92 -221.5h-270q-3 89 -76 89q-61 0 -92 -58.5t-33 -146.5q-1 -51 19.5 -84.5t69.5 -33.5q81 0 100 89h265q-18 -147 -119.5 -223t-248.5 -76z" />
    <glyph glyph-name="D" unicode="D" horiz-adv-x="773" 
d="M16 0l113 715h261q184 0 281.5 -78.5t97.5 -225.5q0 -202 -115 -306.5t-305 -104.5h-333zM314 201h38q69 0 105 50.5t36 147.5q0 115 -108 115h-21z" />
    <glyph glyph-name="E" unicode="E" horiz-adv-x="635" 
d="M16 0l113 715h534l-32 -203h-269l-10 -61h212l-28 -182h-212l-11 -66h284l-32 -203h-549z" />
    <glyph glyph-name="F" unicode="F" horiz-adv-x="596" 
d="M16 0l113 715h517l-33 -204h-250l-15 -100h203l-31 -193h-203l-34 -218h-267z" />
    <glyph glyph-name="G" unicode="G" horiz-adv-x="797" 
d="M402 -14q-170 0 -270 80t-100 238q0 185 117.5 303.5t302.5 118.5q70 0 128.5 -15.5t106 -48t75.5 -88t31 -130.5h-264q-3 36 -22 54.5t-64 18.5q-65 0 -100.5 -61.5t-35.5 -148.5q0 -60 26.5 -90t86.5 -30q79 0 98 58h-98l26 162h353q-18 -224 -105.5 -322.5
t-291.5 -98.5z" />
    <glyph glyph-name="H" unicode="H" horiz-adv-x="812" 
d="M16 0l113 715h267l-39 -247h163l39 247h266l-113 -715h-266l41 263h-163l-41 -263h-267z" />
    <glyph glyph-name="I" unicode="I" horiz-adv-x="391" 
d="M19 0l113 715h269l-113 -715h-269z" />
    <glyph glyph-name="J" unicode="J" horiz-adv-x="508" 
d="M162 -9q-100 0 -171 32l31 194q46 -16 88 -16q75 0 85 69l71 445h267l-72 -454q-42 -270 -299 -270z" />
    <glyph glyph-name="K" unicode="K" horiz-adv-x="782" 
d="M16 0l113 715h267l-39 -248l212 248h282l-300 -341l184 -374h-286l-123 274l-43 -274h-267z" />
    <glyph glyph-name="L" unicode="L" horiz-adv-x="595" 
d="M16 0l113 715h267l-81 -511h241l-32 -204h-508z" />
    <glyph glyph-name="M" unicode="M" horiz-adv-x="986" 
d="M16 0l113 715h332l48 -286l143 286h346l-113 -715h-265l60 380l-202 -380h-90l-76 380l-60 -380h-236z" />
    <glyph glyph-name="N" unicode="N" horiz-adv-x="805" 
d="M16 0l113 715h294l108 -317l50 317h236l-113 -715h-250l-142 375l-59 -375h-237z" />
    <glyph glyph-name="O" unicode="O" horiz-adv-x="823" 
d="M308 307q0 -113 100 -113q47 0 79 32.5t44 77.5t12 98q0 114 -98 117q-67 1 -102 -61.5t-35 -150.5zM387 -14q-71 0 -134 19.5t-113 56.5t-79 97.5t-29 136.5q0 193 116 311.5t305 118.5q59 0 112.5 -11.5t100.5 -36t81 -61t53.5 -89t19.5 -116.5q0 -192 -117.5 -309
t-315.5 -117z" />
    <glyph glyph-name="P" unicode="P" horiz-adv-x="688" 
d="M16 0l113 715h287q140 0 213.5 -58t74.5 -156q0 -135 -82 -210t-232 -75h-73l-34 -216h-267zM343 392h33q77 0 77 76q0 53 -66 53h-24z" />
    <glyph glyph-name="Q" unicode="Q" horiz-adv-x="823" 
d="M387 -14q-71 0 -134 19.5t-113 56.5t-79 97.5t-29 136.5q0 193 116 311.5t305 118.5q59 0 112.5 -11.5t100.5 -36t81 -61t53.5 -89t19.5 -116.5q0 -112 -42 -201t-119 -145l56 -56l-157 -146l-118 125q-26 -3 -53 -3zM308 307q0 -78 44 -107l99 78l47 -48q46 59 46 172
q0 51 -23.5 83.5t-75.5 33.5q-67 1 -102 -61.5t-35 -150.5z" />
    <glyph glyph-name="R" unicode="R" horiz-adv-x="733" 
d="M16 0l113 715h303q145 0 215.5 -57t70.5 -157q0 -83 -39 -139t-107 -79l114 -283h-266l-89 227h-15l-35 -227h-265zM343 394h41q75 0 75 69q0 54 -65 54h-32z" />
    <glyph glyph-name="S" unicode="S" horiz-adv-x="657" 
d="M317 -14q-154 0 -237 62t-82 184h249q2 -61 75 -61q56 0 56 38q0 27 -74 40q-138 24 -194.5 74.5t-56.5 144.5q0 114 82 186t229 72q143 0 218.5 -58t73.5 -179h-243q-3 52 -55 52q-49 0 -49 -34q0 -16 16.5 -25t57.5 -16q129 -21 192.5 -70.5t63.5 -144.5
q0 -121 -83 -192.5t-239 -72.5z" />
    <glyph glyph-name="T" unicode="T" horiz-adv-x="648" 
d="M148 0l80 511h-173l33 204h614l-33 -204h-173l-80 -511h-268z" />
    <glyph glyph-name="U" unicode="U" horiz-adv-x="799" 
d="M391 -14q-180 0 -267.5 85.5t-61.5 249.5l63 394h266l-64 -402q-9 -60 6 -89.5t61 -29.5t62.5 25t26.5 84l65 412h268l-68 -432q-24 -157 -110.5 -227t-246.5 -70z" />
    <glyph glyph-name="V" unicode="V" horiz-adv-x="762" 
d="M193 0l-121 715h279l41 -436l180 436h260l-340 -715h-299z" />
    <glyph glyph-name="W" unicode="W" horiz-adv-x="1027" 
d="M125 0l-53 715h270l3 -393l130 393h224l20 -398l134 398h243l-279 -715h-258l-24 378l-141 -378h-269z" />
    <glyph glyph-name="X" unicode="X" horiz-adv-x="783" 
d="M-32 0l271 377l-141 338h287l52 -179l104 179h275l-230 -345l155 -370h-286l-72 218l-137 -218h-278z" />
    <glyph glyph-name="Y" unicode="Y" horiz-adv-x="722" 
d="M187 0l47 304l-164 411h276l59 -190l118 190h265l-287 -424l-46 -291h-268z" />
    <glyph glyph-name="Z" unicode="Z" horiz-adv-x="628" 
d="M-37 0l4 27l333 495h-217l31 193h585l-5 -27l-332 -492h228l-31 -196h-596z" />
    <glyph glyph-name="bracketleft" unicode="[" horiz-adv-x="437" 
d="M-12 -148l146 924h348l-26 -164h-117l-94 -596h117l-26 -164h-348z" />
    <glyph glyph-name="backslash" unicode="\" horiz-adv-x="450" 
d="M264 -148l-212 924h170l212 -924h-170z" />
    <glyph glyph-name="bracketright" unicode="]" 
d="M-30 -148l26 164h115l94 596h-115l26 164h346l-146 -924h-346z" />
    <glyph glyph-name="asciicircum" unicode="^" horiz-adv-x="543" 
d="M31 386l212 329h193l114 -329h-184l-50 145l-95 -145h-190z" />
    <glyph glyph-name="underscore" unicode="_" horiz-adv-x="454" 
d="M-68 -162l15 96h455l-15 -96h-455z" />
    <glyph glyph-name="grave" unicode="`" horiz-adv-x="400" 
d="M177 568l-95 175h217l36 -175h-158z" />
    <glyph glyph-name="a" unicode="a" horiz-adv-x="595" 
d="M263 134q24 0 41 14t20 35l4 19h-40q-36 0 -50 -8.5t-14 -27.5q0 -14 10.5 -23t28.5 -9zM540 0h-222q-4 19 -4 65q-52 -79 -154 -79q-70 0 -117 38t-47 106q0 101 70.5 143.5t215.5 42.5h64l1 7q4 29 -3.5 45t-37.5 16q-40 0 -50 -45h-212q40 200 273 200
q145 0 208 -61.5t43 -184.5l-20 -127q-17 -103 -8 -166z" />
    <glyph glyph-name="b" unicode="b" horiz-adv-x="651" 
d="M223 0h-229l118 743h229l-47 -298q56 94 172 94q77 0 124 -57t47 -167q0 -157 -70.5 -243t-178.5 -86q-55 0 -96.5 25.5t-54.5 69.5zM315 156q38 0 63 39t25 103q0 75 -59 75q-38 0 -62 -40.5t-24 -100.5q0 -76 57 -76z" />
    <glyph glyph-name="c" unicode="c" horiz-adv-x="592" 
d="M293 -13q-121 0 -199 61.5t-78 179.5q0 139 83.5 225t222.5 86q117 0 187.5 -57t74.5 -174h-214q-2 29 -13.5 42.5t-38.5 13.5q-74 0 -74 -139q0 -76 58 -76q55 0 67 66h204q-12 -111 -83.5 -169.5t-196.5 -58.5z" />
    <glyph glyph-name="d" unicode="d" horiz-adv-x="651" 
d="M689 743l-91 -577q-17 -103 -11 -166h-227q-5 20 -5 84q-58 -98 -166 -98q-81 0 -129 56.5t-48 167.5q0 157 72.5 243t184.5 86q50 0 90.5 -25t53.5 -66l47 295h229zM334 373q-38 0 -63 -39t-25 -103q0 -77 58 -77q38 0 62.5 41.5t24.5 101.5q0 76 -57 76z" />
    <glyph glyph-name="e" unicode="e" horiz-adv-x="616" 
d="M590 215h-352q2 -81 74 -81q52 0 67 50h213q-17 -95 -92 -146.5t-193 -51.5q-82 0 -145 23t-104.5 79.5t-41.5 141.5q0 139 89.5 224t226.5 85q139 0 210.5 -81.5t50.5 -222.5zM329 398q-57 0 -79 -77h139q2 34 -12.5 55.5t-47.5 21.5z" />
    <glyph glyph-name="f" unicode="f" horiz-adv-x="406" 
d="M47 523h61l8 48q16 97 82 142t163 45q62 0 105 -15l-26 -164q-23 7 -44 7q-48 0 -56 -41l-4 -22h95l-23 -149h-95l-59 -374h-228l59 374h-61z" />
    <glyph glyph-name="g" unicode="g" horiz-adv-x="648" 
d="M268 -195q-144 0 -216 56.5t-75 150.5h226q5 -53 64 -53q40 0 56 18.5t21 53.5l15 94q-54 -86 -160 -86q-80 0 -131.5 53.5t-51.5 155.5q0 132 71 211.5t180 79.5q110 0 143 -92l12 76h229l-78 -491q-19 -118 -90.5 -172.5t-214.5 -54.5zM306 191q42 0 63 34t21 83
q-1 30 -15 49t-40 19q-41 0 -62.5 -33.5t-21.5 -78.5q0 -73 55 -73z" />
    <glyph glyph-name="h" unicode="h" horiz-adv-x="635" 
d="M-5 0l117 743h229l-50 -314q66 110 179 110q77 0 118.5 -55.5t23.5 -167.5l-50 -316h-229l45 287q10 70 -43 70q-30 0 -45.5 -18t-21.5 -58l-44 -281h-229z" />
    <glyph glyph-name="i" unicode="i" horiz-adv-x="316" 
d="M216 544q-52 0 -84.5 31t-32.5 79t33 79t85 31q51 0 84.5 -31t33.5 -79t-34 -79t-85 -31zM2 0l82 523h228l-82 -523h-228z" />
    <glyph glyph-name="j" unicode="j" horiz-adv-x="316" 
d="M-83 -179l24 159q58 3 64 48l78 495h228l-82 -518q-7 -43 -24 -75.5t-51 -60.5t-94 -40.5t-143 -7.5zM215 544q-52 0 -84.5 31t-32.5 79t33 79t85 31q51 0 84.5 -31t33.5 -79t-34 -79t-85 -31z" />
    <glyph glyph-name="k" unicode="k" horiz-adv-x="609" 
d="M-5 0l117 743h229l-65 -408l135 188h241l-191 -243l111 -280h-243l-72 209l-33 -209h-229z" />
    <glyph glyph-name="l" unicode="l" horiz-adv-x="312" 
d="M1 0l117 743h227l-117 -743h-227z" />
    <glyph glyph-name="m" unicode="m" horiz-adv-x="939" 
d="M289 429q29 46 76 78t105 32q102 0 129 -98q67 98 176 98q79 0 119 -52.5t25 -150.5l-53 -336h-228l46 295q10 61 -37 61t-57 -62l-46 -294h-226l46 294q10 62 -37 62t-57 -62l-46 -294h-229l54 344q19 119 21 179h225q0 -49 -6 -94z" />
    <glyph glyph-name="n" unicode="n" horiz-adv-x="635" 
d="M-5 0l54 344q19 119 21 179h225q0 -52 -6 -97q67 113 181 113q77 0 118.5 -55.5t23.5 -167.5l-50 -316h-229l45 287q10 70 -43 70q-30 0 -45.5 -18t-21.5 -58l-44 -281h-229z" />
    <glyph glyph-name="o" unicode="o" horiz-adv-x="629" 
d="M244 226q0 -74 59 -74q82 0 82 152q0 29 -13.5 48.5t-42.5 19.5q-85 0 -85 -146zM300 -14q-117 0 -199.5 60t-83.5 182q-1 136 86.5 223.5t227.5 87.5q55 0 104 -14t90 -42.5t65 -77.5t24 -113q0 -137 -87 -221.5t-227 -84.5z" />
    <glyph glyph-name="p" unicode="p" horiz-adv-x="651" 
d="M315 156q38 0 63 39t25 103q0 75 -59 75q-38 0 -62 -40.5t-24 -100.5q0 -76 57 -76zM290 437q54 102 176 102q77 0 124 -57t47 -167q0 -157 -69.5 -243t-177.5 -86q-55 0 -98 25.5t-55 69.5l-41 -253h-229l82 516q19 119 21 179h225q0 -38 -5 -86z" />
    <glyph glyph-name="q" unicode="q" horiz-adv-x="651" 
d="M425 523h229l-110 -695h-229l41 256q-58 -98 -167 -98q-81 0 -129 56.5t-48 167.5q0 157 72.5 243t184.5 86q50 0 90.5 -25t53.5 -66zM334 373q-38 0 -63 -39t-25 -103q0 -77 58 -77q38 0 62.5 41.5t24.5 101.5q0 76 -57 76z" />
    <glyph glyph-name="r" unicode="r" horiz-adv-x="458" 
d="M-5 0l54 344q17 110 20 179h225q0 -66 -8 -123q57 134 188 129l-33 -213q-87 7 -130.5 -17t-53.5 -89l-33 -210h-229z" />
    <glyph glyph-name="s" unicode="s" horiz-adv-x="530" 
d="M237 -15q-116 0 -183.5 45t-68.5 142h211q2 -23 12.5 -34t34.5 -11q38 0 38 27q0 14 -15.5 21t-65.5 15q-92 16 -135 51t-43 103q0 96 70.5 146.5t188.5 49.5q233 0 243 -180h-206q-6 43 -42 43q-39 0 -39 -27q0 -15 14 -21t52 -13q114 -21 158.5 -55.5t44.5 -108.5
q0 -97 -73.5 -145t-195.5 -48z" />
    <glyph glyph-name="t" unicode="t" horiz-adv-x="407" 
d="M235 -14q-105 0 -152.5 51t-28.5 169l27 168h-57l23 149h57l17 104h229l-17 -104h93l-23 -149h-93l-25 -158q-4 -28 5.5 -39.5t33.5 -11.5q22 0 45 8l-27 -170q-45 -17 -107 -17z" />
    <glyph glyph-name="u" unicode="u" horiz-adv-x="638" 
d="M638 523l-56 -357q-17 -105 -13 -166h-225q-2 26 0 94q-67 -108 -179 -108q-76 0 -118 55t-24 166l50 316h229l-48 -301q-10 -70 42 -70q30 0 45 18t21 58l47 295h229z" />
    <glyph glyph-name="v" unicode="v" horiz-adv-x="614" 
d="M140 0l-101 523h234l31 -286l127 286h224l-276 -523h-239z" />
    <glyph glyph-name="w" unicode="w" horiz-adv-x="863" 
d="M111 0l-72 523h231l16 -257l100 257h182l18 -257l100 257h219l-247 -523h-212l-21 240l-96 -240h-218z" />
    <glyph glyph-name="x" unicode="x" horiz-adv-x="633" 
d="M-40 0l209 267l-116 256h251l39 -111l72 111h239l-198 -244l132 -279h-251l-48 128l-91 -128h-238z" />
    <glyph glyph-name="y" unicode="y" horiz-adv-x="614" 
d="M47 -172l121 231l-129 464h238l43 -232l110 232h225l-382 -695h-226z" />
    <glyph glyph-name="z" unicode="z" horiz-adv-x="521" 
d="M-38 0l3 21l244 337h-171l25 165h491l-3 -21l-257 -339h187l-25 -163h-494z" />
    <glyph glyph-name="braceleft" unicode="{" horiz-adv-x="437" 
d="M336 -148q-165 0 -233.5 64.5t-28.5 185.5l23 74q10 33 -7.5 49.5t-66.5 19.5l25 157q51 0 73 14.5t21 45.5v74q0 135 79 187.5t261 52.5l-26 -165q-49 -4 -67 -20.5t-20 -57.5l-5 -94q-2 -49 -34.5 -81t-90.5 -43q56 -14 77 -49t7 -86l-25 -93q-10 -37 3 -51.5t61 -18.5
z" />
    <glyph glyph-name="bar" unicode="|" horiz-adv-x="275" 
d="M73 -148v924h155v-924h-155z" />
    <glyph glyph-name="braceright" unicode="}" horiz-adv-x="437" 
d="M115 776q164 0 231.5 -64t30.5 -186l-22 -72q-10 -33 7.5 -49.5t66.5 -19.5l-25 -157q-51 0 -72 -14.5t-22 -45.5l-1 -76q-1 -135 -79.5 -187.5t-260.5 -52.5l26 165q49 4 67 20.5t20 57.5l6 96q3 50 35 82t90 42q-112 28 -84 135l24 91q10 37 -3 51.5t-61 18.5z" />
    <glyph glyph-name="asciitilde" unicode="~" horiz-adv-x="556" 
d="M14 210q15 122 66.5 178t121.5 56q42 0 98 -20.5t69 -20.5q37 0 49 42h142q-12 -113 -65.5 -173.5t-122.5 -60.5q-43 0 -98.5 20.5t-69.5 20.5q-38 0 -48 -42h-142z" />
    <glyph glyph-name="uni00A0" unicode="&#xa0;" horiz-adv-x="246" 
 />
    <glyph glyph-name="exclamdown" unicode="&#xa1;" horiz-adv-x="358" 
d="M211 612q53 0 87.5 -33.5t34.5 -82.5t-36 -84t-89 -35t-88.5 34t-35.5 83t37 83.5t90 34.5zM285 346l-41 -463h-258l107 463h192z" />
    <glyph glyph-name="cent" unicode="&#xa2;" horiz-adv-x="610" 
d="M222 -135l20 125q-100 14 -164.5 73t-65.5 156q-1 136 85.5 225.5t230.5 93.5l15 91h69l-15 -94q202 -26 208 -227h-204q0 48 -30 62l-37 -230q52 11 65 75h196q-9 -101 -85 -163.5t-200 -65.5l-19 -121h-69zM232 222q0 -59 34 -77l36 227q-70 -22 -70 -150z" />
    <glyph glyph-name="sterling" unicode="&#xa3;" horiz-adv-x="688" 
d="M29 282l21 132h40q-4 24 -4 56q0 119 88 187.5t222 68.5q139 0 218 -61.5t78 -206.5h-245q1 37 -10 53.5t-38 16.5q-60 0 -60 -97v-17h168l-21 -132h-147q-4 -41 -20 -78q43 -9 62 -9q47 0 54 45h239q-14 -113 -79.5 -181t-177.5 -68q-61 0 -131 23.5t-84 23.5
q-37 0 -44 -38h-191q23 154 125 204q17 38 18 78h-81z" />
    <glyph glyph-name="yen" unicode="&#xa5;" horiz-adv-x="682" 
d="M60 301l12 78h128l-127 336h282l37 -186l100 186h259l-225 -336h130l-12 -78h-159l-6 -38h158l-12 -78h-158l-29 -185h-268l29 185h-158l12 78h158l6 38h-157z" />
    <glyph glyph-name="brokenbar" unicode="&#xa6;" horiz-adv-x="275" 
d="M73 -148v451h155v-451h-155zM73 375v401h155v-401h-155z" />
    <glyph glyph-name="section" unicode="&#xa7;" horiz-adv-x="641" 
d="M280 -137q-107 0 -174.5 47t-68.5 146h205q3 -46 45 -46q33 0 33 23q0 13 -19 21.5t-72 24.5q-108 32 -162.5 75.5t-54.5 116.5q0 118 129 160q-26 37 -26 79q0 108 72.5 162t186.5 54q107 0 172 -46.5t68 -150.5h-208q-1 15 -4 24t-12 15.5t-25 6.5q-34 0 -34 -25
q0 -13 13.5 -20t60.5 -21q10 -3 15 -5q108 -33 162 -76t54 -117q0 -62 -32.5 -99t-96.5 -59q30 -36 30 -79q0 -106 -73.5 -158.5t-183.5 -52.5zM386 239q25 4 25 23q0 13 -10.5 20t-50.5 24q-12 5 -18 8l-67 30q-26 -2 -26 -23q0 -13 14.5 -22t63.5 -30z" />
    <glyph glyph-name="dieresis" unicode="&#xa8;" horiz-adv-x="400" 
d="M148 552q-43 0 -72.5 29t-29.5 70t29.5 70t72.5 29t73 -29t30 -70t-30 -70t-73 -29zM373 552q-43 0 -72 29t-29 70t29 70t72 29t73 -29t30 -70t-30 -70t-73 -29z" />
    <glyph glyph-name="copyright" unicode="&#xa9;" horiz-adv-x="842" 
d="M444 149q-112 0 -167 54.5t-55 150.5v8q0 93 61 148.5t154 55.5q186 0 199 -166h-155q-3 48 -44 48q-57 0 -57 -86v-7q0 -87 60 -87q48 0 52 49h149q-3 -80 -57 -124t-140 -44zM433 30q137 0 230.5 92t93.5 237q0 144 -92 235t-230 91q-140 0 -232 -91.5t-92 -236.5
t93 -236t229 -91zM433 -25q-164 0 -278 110t-114 272q0 160 114.5 271.5t279.5 111.5q167 0 279.5 -110.5t112.5 -270.5q0 -163 -114 -273.5t-280 -110.5z" />
    <glyph glyph-name="ordfeminine" unicode="&#xaa;" horiz-adv-x="516" 
d="M496 298h-189q-4 19 -4 51q-42 -63 -122 -63q-53 0 -91 29.5t-38 82.5q0 81 59.5 114t181.5 33h33l1 8q1 10 1 18.5t-6 14t-19 5.5q-27 0 -34 -33h-185q14 80 74.5 122.5t160.5 42.5q124 0 169 -49t27 -164l-13 -82q-13 -78 -6 -130zM272 414q32 0 37 27l2 12h-25
q-39 0 -39 -21q0 -18 25 -18z" />
    <glyph glyph-name="guillemotleft" unicode="&#xab;" horiz-adv-x="470" 
d="M111 63l-96 204l138 192h136l-137 -193l88 -203h-129zM289 63l-91 201l138 195h136l-137 -199l83 -197h-129z" />
    <glyph glyph-name="registered" unicode="&#xae;" horiz-adv-x="518" 
d="M206 396v219h96q95 0 95 -74v-1q0 -38 -32 -57l45 -87h-83l-34 70h-6v-70h-81zM287 517h9q23 0 23 19v1q0 17 -23 17h-9v-37zM296 320q80 0 133.5 51.5t53.5 131.5q0 81 -52.5 132t-134.5 51t-134.5 -51.5t-52.5 -132.5t53.5 -131.5t133.5 -50.5zM296 280q-97 0 -165 64
t-68 158q0 93 68 158.5t165 65.5q99 0 166 -65t67 -158q0 -94 -67.5 -158.5t-165.5 -64.5z" />
    <glyph glyph-name="macron" unicode="&#xaf;" horiz-adv-x="400" 
d="M85 593l19 119h331l-19 -119h-331z" />
    <glyph glyph-name="degree" unicode="&#xb0;" horiz-adv-x="466" 
d="M277 444q39 0 65 29t26 72q0 44 -25.5 73.5t-65.5 29.5q-41 0 -67 -29t-26 -74q0 -43 26 -72t67 -29zM277 368q-76 0 -130 52.5t-54 124.5q0 74 54 126.5t130 52.5q75 0 128.5 -52.5t53.5 -126.5q0 -72 -53.5 -124.5t-128.5 -52.5z" />
    <glyph glyph-name="plusminus" unicode="&#xb1;" horiz-adv-x="596" 
d="M196 192l25 156h-170l25 162h170l25 156h180l-25 -156h170l-25 -162h-170l-25 -156h-180zM-4 0l22 142h524l-22 -142h-524z" />
    <glyph glyph-name="twosuperior" unicode="&#xb2;" horiz-adv-x="388" 
d="M12 322l4 20l149 133q73 64 86 88q5 9 5 16q0 22 -19 22q-26 0 -36 -46h-152q12 83 64.5 124.5t136.5 41.5q171 0 171 -122q0 -39 -26.5 -73.5t-79.5 -77.5l-11 -9h93l-19 -117h-366z" />
    <glyph glyph-name="threesuperior" unicode="&#xb3;" horiz-adv-x="406" 
d="M231 314q-87 0 -135.5 35.5t-49.5 109.5h146q0 -32 31 -32q27 0 27 26q0 21 -37 21h-30l14 88h37q36 0 36 26q0 21 -25 21q-27 0 -34 -30h-144q10 68 59.5 105t134.5 37q31 0 58 -5t52 -16.5t40 -33.5t15 -53q0 -72 -81 -94q68 -15 68 -78q0 -64 -51.5 -95.5
t-130.5 -31.5z" />
    <glyph glyph-name="acute" unicode="&#xb4;" horiz-adv-x="400" 
d="M159 568l71 175h219l-127 -175h-163z" />
    <glyph glyph-name="paragraph" unicode="&#xb6;" horiz-adv-x="532" 
d="M188 -100l66 420h-2q-86 0 -141.5 45t-55.5 129q0 107 68.5 164t180.5 57h241l-129 -815h-79l118 748h-71l-118 -748h-78z" />
    <glyph glyph-name="periodcentered" unicode="&#xb7;" horiz-adv-x="308" 
d="M161 206q-53 0 -87.5 34.5t-34.5 85.5q0 50 34.5 85t86.5 35q54 0 90.5 -35t36.5 -85q0 -51 -36 -85.5t-90 -34.5z" />
    <glyph glyph-name="cedilla" unicode="&#xb8;" horiz-adv-x="400" 
d="M137 -232q-57 0 -96.5 24t-43.5 73h100q4 -23 31 -23q12 0 21 7.5t9 22.5q0 26 -30 26q-18 0 -31 -11l-38 42l58 71h82l-35 -41q46 3 76 -19.5t30 -63.5q0 -53 -38 -80.5t-95 -27.5z" />
    <glyph glyph-name="onesuperior" unicode="&#xb9;" horiz-adv-x="315" 
d="M109 322l37 231l-89 -42l21 134l119 70h142l-63 -393h-167z" />
    <glyph glyph-name="ordmasculine" unicode="&#xba;" horiz-adv-x="537" 
d="M279 286q-101 0 -159.5 49.5t-58.5 137.5q0 111 77.5 180.5t187.5 69.5q106 0 161.5 -52t55.5 -141q0 -110 -78.5 -177t-185.5 -67zM293 427q27 0 41 31.5t14 76.5q0 46 -35 46q-26 0 -41 -30.5t-15 -77.5q0 -46 36 -46z" />
    <glyph glyph-name="guillemotright" unicode="&#xbb;" horiz-adv-x="470" 
d="M358 459l96 -204l-138 -192h-136l137 193l-88 203h129zM180 459l91 -201l-138 -195h-136l137 199l-83 197h129z" />
    <glyph glyph-name="onequarter" unicode="&#xbc;" horiz-adv-x="862" 
d="M112 322l37 231l-89 -42l21 134l119 70h142l-63 -393h-167zM71 0l618 715h109l-618 -715h-109zM587 0l11 70h-194l10 62l199 261h198l-34 -216h49l-17 -107h-49l-11 -70h-162zM560 177h61l17 106z" />
    <glyph glyph-name="onehalf" unicode="&#xbd;" horiz-adv-x="874" 
d="M112 322l37 231l-89 -42l21 134l119 70h142l-63 -393h-167zM58 0l618 715h109l-618 -715h-109zM445 0l4 20l149 133q73 64 86 88q5 9 5 16q0 22 -19 22q-26 0 -36 -46h-152q12 83 64.5 124.5t136.5 41.5q171 0 171 -122q0 -39 -26.5 -73.5t-79.5 -77.5l-11 -9h93
l-19 -117h-366z" />
    <glyph glyph-name="threequarters" unicode="&#xbe;" horiz-adv-x="910" 
d="M234 314q-87 0 -135.5 35.5t-49.5 109.5h146q0 -32 31 -32q27 0 27 26q0 21 -37 21h-30l14 88h37q36 0 36 26q0 21 -25 21q-27 0 -34 -30h-144q10 68 59.5 105t134.5 37q31 0 58 -5t52 -16.5t40 -33.5t15 -53q0 -72 -81 -94q68 -15 68 -78q0 -64 -51.5 -95.5
t-130.5 -31.5zM132 0l618 715h109l-618 -715h-109zM635 0l11 70h-194l10 62l199 261h198l-34 -216h49l-17 -107h-49l-11 -70h-162zM608 177h61l17 106z" />
    <glyph glyph-name="questiondown" unicode="&#xbf;" horiz-adv-x="591" 
d="M440 347l-2 -10q-8 -38 -31 -71t-51 -55t-54.5 -41t-44 -39.5t-17.5 -41.5q2 -31 34 -31q41 0 55 66h224q-15 -124 -100 -187.5t-210 -63.5q-124 0 -188.5 48.5t-64.5 138.5q0 46 18.5 83.5t48 62.5t60 46t60.5 44.5t44 47.5l1 3h218zM357 613q53 0 87.5 -33.5
t34.5 -82.5t-36 -84t-89 -35t-88.5 34t-35.5 83t37 83.5t90 34.5z" />
    <glyph glyph-name="Agrave" unicode="&#xc0;" horiz-adv-x="784" 
d="M463 0l-9 95h-202l-39 -95h-254l333 715h343l106 -715h-278zM393 753l-89 155h227l30 -155h-168zM418 501l-93 -228h113z" />
    <glyph glyph-name="Aacute" unicode="&#xc1;" horiz-adv-x="784" 
d="M463 0l-9 95h-202l-39 -95h-254l333 715h343l106 -715h-278zM371 753l62 155h229l-118 -155h-173zM418 501l-93 -228h113z" />
    <glyph glyph-name="Acircumflex" unicode="&#xc2;" horiz-adv-x="784" 
d="M463 0l-9 95h-202l-39 -95h-254l333 715h343l106 -715h-278zM249 753l135 155h189l93 -155h-159l-40 44l-50 -44h-168zM418 501l-93 -228h113z" />
    <glyph glyph-name="Atilde" unicode="&#xc3;" horiz-adv-x="784" 
d="M463 0l-9 95h-202l-39 -95h-254l333 715h343l106 -715h-278zM534 750q-36 0 -74 14.5t-49 14.5q-25 0 -30 -26h-123q14 87 54 129.5t95 42.5q33 0 72 -14.5t54 -14.5q23 0 31 26h123q-15 -86 -57.5 -129t-95.5 -43zM418 501l-93 -228h113z" />
    <glyph glyph-name="Adieresis" unicode="&#xc4;" horiz-adv-x="784" 
d="M463 0l-9 95h-202l-39 -95h-254l333 715h343l106 -715h-278zM353 742q-43 0 -72.5 29t-29.5 70t29.5 70t72.5 29t73 -29t30 -70t-30 -70t-73 -29zM586 742q-43 0 -72 29t-29 70t29 70t72 29t73 -29t30 -70t-30 -70t-73 -29zM418 501l-93 -228h113z" />
    <glyph glyph-name="Aring" unicode="&#xc5;" horiz-adv-x="784" 
d="M463 0l-9 95h-202l-39 -95h-254l333 715h343l106 -715h-278zM468 737q-52 0 -89 36t-37 86t37 86t89 36t89 -36t37 -86t-37 -86t-89 -36zM418 501l-93 -228h113zM468 812q19 0 31 13t12 34t-12 34t-31 13t-31 -13t-12 -34t12 -34t31 -13z" />
    <glyph glyph-name="AE" unicode="&#xc6;" horiz-adv-x="1029" 
d="M420 0l18 115h-162l-61 -115h-256l405 715h693l-32 -203h-260l-10 -61h203l-28 -182h-203l-11 -66h275l-32 -203h-539zM487 512l-119 -224h97l36 224h-14z" />
    <glyph glyph-name="Ccedilla" unicode="&#xc7;" horiz-adv-x="779" 
d="M322 -232q-57 0 -96.5 24t-43.5 73h100q4 -23 31 -23q12 0 21 7.5t9 22.5q0 26 -30 26q-18 0 -31 -11l-38 42l53 65q-125 21 -195 98.5t-70 209.5q0 191 109 307.5t301 116.5q159 0 247 -74.5t92 -221.5h-270q-3 89 -76 89q-61 0 -92 -58.5t-33 -146.5q-1 -51 19.5 -84.5
t69.5 -33.5q81 0 100 89h265q-18 -147 -119.5 -223t-248.5 -76q-11 0 -24 1l-23 -28q46 3 76 -19.5t30 -63.5q0 -53 -38 -80.5t-95 -27.5z" />
    <glyph glyph-name="Egrave" unicode="&#xc8;" horiz-adv-x="635" 
d="M16 0l113 715h534l-32 -203h-269l-10 -61h212l-28 -182h-212l-11 -66h284l-32 -203h-549zM321 753l-89 155h227l30 -155h-168z" />
    <glyph glyph-name="Eacute" unicode="&#xc9;" horiz-adv-x="635" 
d="M16 0l113 715h534l-32 -203h-269l-10 -61h212l-28 -182h-212l-11 -66h284l-32 -203h-549zM295 753l62 155h229l-118 -155h-173z" />
    <glyph glyph-name="Ecircumflex" unicode="&#xca;" horiz-adv-x="635" 
d="M16 0l113 715h534l-32 -203h-269l-10 -61h212l-28 -182h-212l-11 -66h284l-32 -203h-549zM187 753l135 155h189l93 -155h-159l-40 44l-50 -44h-168z" />
    <glyph glyph-name="Edieresis" unicode="&#xcb;" horiz-adv-x="635" 
d="M16 0l113 715h534l-32 -203h-269l-10 -61h212l-28 -182h-212l-11 -66h284l-32 -203h-549zM293 742q-43 0 -72.5 29t-29.5 70t29.5 70t72.5 29t73 -29t30 -70t-30 -70t-73 -29zM526 742q-43 0 -72 29t-29 70t29 70t72 29t73 -29t30 -70t-30 -70t-73 -29z" />
    <glyph glyph-name="Igrave" unicode="&#xcc;" horiz-adv-x="391" 
d="M19 0l113 715h269l-113 -715h-269zM194 753l-89 155h227l30 -155h-168z" />
    <glyph glyph-name="Iacute" unicode="&#xcd;" horiz-adv-x="391" 
d="M19 0l113 715h269l-113 -715h-269zM168 753l62 155h229l-118 -155h-173z" />
    <glyph glyph-name="Icircumflex" unicode="&#xce;" horiz-adv-x="391" 
d="M19 0l113 715h269l-113 -715h-269zM60 753l135 155h189l93 -155h-159l-40 44l-50 -44h-168z" />
    <glyph glyph-name="Idieresis" unicode="&#xcf;" horiz-adv-x="391" 
d="M19 0l113 715h269l-113 -715h-269zM166 742q-43 0 -72.5 29t-29.5 70t29.5 70t72.5 29t73 -29t30 -70t-30 -70t-73 -29zM399 742q-43 0 -72 29t-29 70t29 70t72 29t73 -29t30 -70t-30 -70t-73 -29z" />
    <glyph glyph-name="Eth" unicode="&#xd0;" horiz-adv-x="791" 
d="M28 272l27 175h49l43 268h261q184 0 281.5 -78.5t97.5 -225.5q0 -202 -115 -306.5t-305 -104.5h-333l43 272h-49zM326 201h44q69 0 105 50.5t36 147.5q0 115 -108 115h-27l-11 -67h75l-27 -175h-76z" />
    <glyph glyph-name="Ntilde" unicode="&#xd1;" horiz-adv-x="805" 
d="M16 0l113 715h294l108 -317l50 317h236l-113 -715h-250l-142 375l-59 -375h-237zM563 750q-35 0 -73 14.5t-50 14.5q-25 0 -30 -26h-123q14 87 54 129.5t95 42.5q32 0 72 -14.5t54 -14.5q23 0 31 26h123q-15 -86 -57.5 -129t-95.5 -43z" />
    <glyph glyph-name="Ograve" unicode="&#xd2;" horiz-adv-x="823" 
d="M308 307q0 -113 100 -113q47 0 79 32.5t44 77.5t12 98q0 114 -98 117q-67 1 -102 -61.5t-35 -150.5zM387 -14q-71 0 -134 19.5t-113 56.5t-79 97.5t-29 136.5q0 193 116 311.5t305 118.5q59 0 112.5 -11.5t100.5 -36t81 -61t53.5 -89t19.5 -116.5q0 -192 -117.5 -309
t-315.5 -117zM388 753l-89 155h227l30 -155h-168z" />
    <glyph glyph-name="Oacute" unicode="&#xd3;" horiz-adv-x="823" 
d="M308 307q0 -113 100 -113q47 0 79 32.5t44 77.5t12 98q0 114 -98 117q-67 1 -102 -61.5t-35 -150.5zM387 -14q-71 0 -134 19.5t-113 56.5t-79 97.5t-29 136.5q0 193 116 311.5t305 118.5q59 0 112.5 -11.5t100.5 -36t81 -61t53.5 -89t19.5 -116.5q0 -192 -117.5 -309
t-315.5 -117zM362 753l62 155h229l-118 -155h-173z" />
    <glyph glyph-name="Ocircumflex" unicode="&#xd4;" horiz-adv-x="823" 
d="M308 307q0 -113 100 -113q47 0 79 32.5t44 77.5t12 98q0 114 -98 117q-67 1 -102 -61.5t-35 -150.5zM387 -14q-71 0 -134 19.5t-113 56.5t-79 97.5t-29 136.5q0 193 116 311.5t305 118.5q59 0 112.5 -11.5t100.5 -36t81 -61t53.5 -89t19.5 -116.5q0 -192 -117.5 -309
t-315.5 -117zM249 753l135 155h189l93 -155h-159l-40 44l-50 -44h-168z" />
    <glyph glyph-name="Otilde" unicode="&#xd5;" horiz-adv-x="823" 
d="M308 307q0 -113 100 -113q47 0 79 32.5t44 77.5t12 98q0 114 -98 117q-67 1 -102 -61.5t-35 -150.5zM387 -14q-71 0 -134 19.5t-113 56.5t-79 97.5t-29 136.5q0 193 116 311.5t305 118.5q59 0 112.5 -11.5t100.5 -36t81 -61t53.5 -89t19.5 -116.5q0 -192 -117.5 -309
t-315.5 -117zM530 750q-36 0 -74 14.5t-49 14.5q-25 0 -30 -26h-123q14 87 54 129.5t95 42.5q33 0 72 -14.5t54 -14.5q23 0 31 26h123q-15 -86 -57.5 -129t-95.5 -43z" />
    <glyph glyph-name="Odieresis" unicode="&#xd6;" horiz-adv-x="823" 
d="M308 307q0 -113 100 -113q47 0 79 32.5t44 77.5t12 98q0 114 -98 117q-67 1 -102 -61.5t-35 -150.5zM387 -14q-71 0 -134 19.5t-113 56.5t-79 97.5t-29 136.5q0 193 116 311.5t305 118.5q59 0 112.5 -11.5t100.5 -36t81 -61t53.5 -89t19.5 -116.5q0 -192 -117.5 -309
t-315.5 -117zM360 742q-43 0 -72.5 29t-29.5 70t29.5 70t72.5 29t73 -29t30 -70t-30 -70t-73 -29zM593 742q-43 0 -72 29t-29 70t29 70t72 29t73 -29t30 -70t-30 -70t-73 -29z" />
    <glyph glyph-name="multiply" unicode="&#xd7;" horiz-adv-x="623" 
d="M29 188l174 151l-130 154l134 119l132 -156l174 151l103 -119l-175 -152l131 -153l-135 -119l-132 155l-173 -150z" />
    <glyph glyph-name="Oslash" unicode="&#xd8;" horiz-adv-x="823" 
d="M83 -34l-51 52l74 75q-74 80 -74 203q0 193 116 311.5t305 118.5q134 0 228 -56l72 72l51 -52l-65 -65q81 -83 81 -213q0 -192 -117.5 -309t-315.5 -117q-131 0 -224 60zM552 403q0 13 -2 31l-218 -219q27 -24 76 -24q71 0 107.5 62.5t36.5 149.5zM300 306q0 -12 1 -18
l213 213q-26 19 -69 21q-69 1 -107 -62t-38 -154z" />
    <glyph glyph-name="Ugrave" unicode="&#xd9;" horiz-adv-x="799" 
d="M391 -14q-180 0 -267.5 85.5t-61.5 249.5l63 394h266l-64 -402q-9 -60 6 -89.5t61 -29.5t62.5 25t26.5 84l65 412h268l-68 -432q-24 -157 -110.5 -227t-246.5 -70zM389 753l-89 155h227l30 -155h-168z" />
    <glyph glyph-name="Uacute" unicode="&#xda;" horiz-adv-x="799" 
d="M391 -14q-180 0 -267.5 85.5t-61.5 249.5l63 394h266l-64 -402q-9 -60 6 -89.5t61 -29.5t62.5 25t26.5 84l65 412h268l-68 -432q-24 -157 -110.5 -227t-246.5 -70zM381 753l62 155h229l-118 -155h-173z" />
    <glyph glyph-name="Ucircumflex" unicode="&#xdb;" horiz-adv-x="799" 
d="M391 -14q-180 0 -267.5 85.5t-61.5 249.5l63 394h266l-64 -402q-9 -60 6 -89.5t61 -29.5t62.5 25t26.5 84l65 412h268l-68 -432q-24 -157 -110.5 -227t-246.5 -70zM257 753l135 155h189l93 -155h-159l-40 44l-50 -44h-168z" />
    <glyph glyph-name="Udieresis" unicode="&#xdc;" horiz-adv-x="799" 
d="M391 -14q-180 0 -267.5 85.5t-61.5 249.5l63 394h266l-64 -402q-9 -60 6 -89.5t61 -29.5t62.5 25t26.5 84l65 412h268l-68 -432q-24 -157 -110.5 -227t-246.5 -70zM359 742q-43 0 -72.5 29t-29.5 70t29.5 70t72.5 29t73 -29t30 -70t-30 -70t-73 -29zM592 742
q-43 0 -72 29t-29 70t29 70t72 29t73 -29t30 -70t-30 -70t-73 -29z" />
    <glyph glyph-name="Yacute" unicode="&#xdd;" horiz-adv-x="722" 
d="M187 0l47 304l-164 411h276l59 -190l118 190h265l-287 -424l-46 -291h-268zM353 753l62 155h229l-118 -155h-173z" />
    <glyph glyph-name="Thorn" unicode="&#xde;" horiz-adv-x="688" 
d="M375 120h-74l-18 -120h-267l113 715h265l-17 -110h25q142 0 214.5 -54.5t72.5 -157.5q0 -126 -82.5 -199.5t-231.5 -73.5zM372 422h-24l-19 -126h32q36 0 56 19.5t20 55.5q0 51 -65 51z" />
    <glyph glyph-name="germandbls" unicode="&#xdf;" horiz-adv-x="657" 
d="M370 -10q-57 0 -108 14l27 165q16 -7 36 -7q87 0 87 123q0 90 -92 85l23 145q74 2 74 62q0 48 -47 48q-48 0 -59 -71l-87 -554h-229l86 540q19 123 95.5 176t201.5 53q118 0 185.5 -45.5t67.5 -132.5q0 -57 -36 -95.5t-98 -54.5q64 -17 103.5 -66t39.5 -123
q0 -121 -70.5 -191.5t-199.5 -70.5z" />
    <glyph glyph-name="agrave" unicode="&#xe0;" horiz-adv-x="595" 
d="M263 134q24 0 41 14t20 35l4 19h-40q-36 0 -50 -8.5t-14 -27.5q0 -14 10.5 -23t28.5 -9zM540 0h-222q-4 19 -4 65q-52 -79 -154 -79q-70 0 -117 38t-47 106q0 101 70.5 143.5t215.5 42.5h64l1 7q4 29 -3.5 45t-37.5 16q-40 0 -50 -45h-212q40 200 273 200
q145 0 208 -61.5t43 -184.5l-20 -127q-17 -103 -8 -166zM249 568l-95 175h217l36 -175h-158z" />
    <glyph glyph-name="aacute" unicode="&#xe1;" horiz-adv-x="595" 
d="M263 134q24 0 41 14t20 35l4 19h-40q-36 0 -50 -8.5t-14 -27.5q0 -14 10.5 -23t28.5 -9zM540 0h-222q-4 19 -4 65q-52 -79 -154 -79q-70 0 -117 38t-47 106q0 101 70.5 143.5t215.5 42.5h64l1 7q4 29 -3.5 45t-37.5 16q-40 0 -50 -45h-212q40 200 273 200
q145 0 208 -61.5t43 -184.5l-20 -127q-17 -103 -8 -166zM256 568l71 175h219l-127 -175h-163z" />
    <glyph glyph-name="acircumflex" unicode="&#xe2;" horiz-adv-x="595" 
d="M263 134q24 0 41 14t20 35l4 19h-40q-36 0 -50 -8.5t-14 -27.5q0 -14 10.5 -23t28.5 -9zM540 0h-222q-4 19 -4 65q-52 -79 -154 -79q-70 0 -117 38t-47 106q0 101 70.5 143.5t215.5 42.5h64l1 7q4 29 -3.5 45t-37.5 16q-40 0 -50 -45h-212q40 200 273 200
q145 0 208 -61.5t43 -184.5l-20 -127q-17 -103 -8 -166zM126 571l152 172h155l102 -172h-152l-42 46l-54 -46h-161z" />
    <glyph glyph-name="atilde" unicode="&#xe3;" horiz-adv-x="595" 
d="M263 134q24 0 41 14t20 35l4 19h-40q-36 0 -50 -8.5t-14 -27.5q0 -14 10.5 -23t28.5 -9zM540 0h-222q-4 19 -4 65q-52 -79 -154 -79q-70 0 -117 38t-47 106q0 101 70.5 143.5t215.5 42.5h64l1 7q4 29 -3.5 45t-37.5 16q-40 0 -50 -45h-212q40 200 273 200
q145 0 208 -61.5t43 -184.5l-20 -127q-17 -103 -8 -166zM403 570q-35 0 -72 14.5t-48 14.5q-22 0 -29 -26h-116q13 89 49.5 132.5t89.5 43.5q33 0 71 -14.5t53 -14.5q21 0 29 26h116q-14 -87 -52.5 -131.5t-90.5 -44.5z" />
    <glyph glyph-name="adieresis" unicode="&#xe4;" horiz-adv-x="595" 
d="M263 134q24 0 41 14t20 35l4 19h-40q-36 0 -50 -8.5t-14 -27.5q0 -14 10.5 -23t28.5 -9zM540 0h-222q-4 19 -4 65q-52 -79 -154 -79q-70 0 -117 38t-47 106q0 101 70.5 143.5t215.5 42.5h64l1 7q4 29 -3.5 45t-37.5 16q-40 0 -50 -45h-212q40 200 273 200
q145 0 208 -61.5t43 -184.5l-20 -127q-17 -103 -8 -166zM225 552q-43 0 -72.5 29t-29.5 70t29.5 70t72.5 29t73 -29t30 -70t-30 -70t-73 -29zM450 552q-43 0 -72 29t-29 70t29 70t72 29t73 -29t30 -70t-30 -70t-73 -29z" />
    <glyph glyph-name="aring" unicode="&#xe5;" horiz-adv-x="595" 
d="M263 134q24 0 41 14t20 35l4 19h-40q-36 0 -50 -8.5t-14 -27.5q0 -14 10.5 -23t28.5 -9zM540 0h-222q-4 19 -4 65q-52 -79 -154 -79q-70 0 -117 38t-47 106q0 101 70.5 143.5t215.5 42.5h64l1 7q4 29 -3.5 45t-37.5 16q-40 0 -50 -45h-212q40 200 273 200
q145 0 208 -61.5t43 -184.5l-20 -127q-17 -103 -8 -166zM331 641q19 0 30.5 13t11.5 33t-11.5 33t-30.5 13t-30.5 -13t-11.5 -33t11.5 -33t30.5 -13zM331 567q-51 0 -87.5 35.5t-36.5 84.5t36.5 84.5t87.5 35.5t87.5 -35.5t36.5 -84.5t-36.5 -84.5t-87.5 -35.5z" />
    <glyph glyph-name="ae" unicode="&#xe6;" horiz-adv-x="922" 
d="M315 539q113 0 163 -50q73 50 162 50q138 0 209 -81.5t50 -222.5l-3 -20h-352q2 -81 74 -81q52 0 67 50h213q-17 -95 -92 -146.5t-193 -51.5q-159 0 -222 87q-55 -87 -195 -87q-89 0 -144.5 39t-55.5 110q0 98 71.5 140.5t214.5 42.5h64l1 7q8 59 -43 59q-44 0 -54 -45
h-212q18 98 90.5 149t186.5 51zM635 398q-57 0 -79 -77h139q2 34 -12.5 55.5t-47.5 21.5zM263 134q25 0 41.5 14.5t20.5 37.5l4 25h-40q-65 0 -65 -43q0 -34 39 -34z" />
    <glyph glyph-name="ccedilla" unicode="&#xe7;" horiz-adv-x="592" 
d="M236 -232q-57 0 -96.5 24t-43.5 73h100q4 -23 31 -23q12 0 21 7.5t9 22.5q0 26 -30 26q-18 0 -31 -11l-38 42l54 66q-89 18 -142.5 77t-53.5 156q0 139 83.5 225t222.5 86q117 0 187.5 -57t74.5 -174h-214q-2 29 -13.5 42.5t-38.5 13.5q-74 0 -74 -139q0 -76 58 -76
q55 0 67 66h204q-12 -111 -83.5 -169.5t-196.5 -58.5h-6l-24 -28q46 3 76 -19.5t30 -63.5q0 -53 -38 -80.5t-95 -27.5z" />
    <glyph glyph-name="egrave" unicode="&#xe8;" horiz-adv-x="616" 
d="M590 215h-352q2 -81 74 -81q52 0 67 50h213q-17 -95 -92 -146.5t-193 -51.5q-82 0 -145 23t-104.5 79.5t-41.5 141.5q0 139 89.5 224t226.5 85q139 0 210.5 -81.5t50.5 -222.5zM267 568l-95 175h217l36 -175h-158zM329 398q-57 0 -79 -77h139q2 34 -12.5 55.5t-47.5 21.5
z" />
    <glyph glyph-name="eacute" unicode="&#xe9;" horiz-adv-x="616" 
d="M590 215h-352q2 -81 74 -81q52 0 67 50h213q-17 -95 -92 -146.5t-193 -51.5q-82 0 -145 23t-104.5 79.5t-41.5 141.5q0 139 89.5 224t226.5 85q139 0 210.5 -81.5t50.5 -222.5zM257 568l71 175h219l-127 -175h-163zM329 398q-57 0 -79 -77h139q2 34 -12.5 55.5
t-47.5 21.5z" />
    <glyph glyph-name="ecircumflex" unicode="&#xea;" horiz-adv-x="616" 
d="M590 215h-352q2 -81 74 -81q52 0 67 50h213q-17 -95 -92 -146.5t-193 -51.5q-82 0 -145 23t-104.5 79.5t-41.5 141.5q0 139 89.5 224t226.5 85q139 0 210.5 -81.5t50.5 -222.5zM135 571l152 172h155l102 -172h-152l-42 46l-54 -46h-161zM329 398q-57 0 -79 -77h139
q2 34 -12.5 55.5t-47.5 21.5z" />
    <glyph glyph-name="edieresis" unicode="&#xeb;" horiz-adv-x="616" 
d="M590 215h-352q2 -81 74 -81q52 0 67 50h213q-17 -95 -92 -146.5t-193 -51.5q-82 0 -145 23t-104.5 79.5t-41.5 141.5q0 139 89.5 224t226.5 85q139 0 210.5 -81.5t50.5 -222.5zM236 552q-43 0 -72.5 29t-29.5 70t29.5 70t72.5 29t73 -29t30 -70t-30 -70t-73 -29zM461 552
q-43 0 -72 29t-29 70t29 70t72 29t73 -29t30 -70t-30 -70t-73 -29zM329 398q-57 0 -79 -77h139q2 34 -12.5 55.5t-47.5 21.5z" />
    <glyph glyph-name="igrave" unicode="&#xec;" horiz-adv-x="316" 
d="M2 0l82 523h228l-82 -523h-228zM132 568l-95 175h217l36 -175h-158z" />
    <glyph glyph-name="iacute" unicode="&#xed;" horiz-adv-x="316" 
d="M2 0l82 523h228l-82 -523h-228zM116 568l71 175h219l-127 -175h-163z" />
    <glyph glyph-name="icircumflex" unicode="&#xee;" horiz-adv-x="316" 
d="M2 0l82 523h228l-82 -523h-228zM2 571l152 172h155l102 -172h-152l-42 46l-54 -46h-161z" />
    <glyph glyph-name="idieresis" unicode="&#xef;" horiz-adv-x="316" 
d="M108 552q-43 0 -72.5 29t-29.5 70t29.5 70t72.5 29t73 -29t30 -70t-30 -70t-73 -29zM333 552q-43 0 -72 29t-29 70t29 70t72 29t73 -29t30 -70t-30 -70t-73 -29zM2 0l82 523h228l-82 -523h-228z" />
    <glyph glyph-name="eth" unicode="&#xf0;" horiz-adv-x="635" 
d="M136 556l-15 61l119 34q-55 50 -108 92h265q34 -23 48 -34l117 33l14 -62l-78 -22q123 -138 123 -314q0 -158 -80.5 -258t-238.5 -100q-128 0 -206.5 63t-78.5 187q0 125 69 208.5t186 83.5q67 0 104 -45q-27 53 -85 116zM244 224q0 -72 63 -72q44 0 63 45.5t19 105.5
q0 69 -62 69q-42 0 -62.5 -41t-20.5 -107z" />
    <glyph glyph-name="ntilde" unicode="&#xf1;" horiz-adv-x="635" 
d="M-5 0l54 344q19 119 21 179h225q0 -52 -6 -97q67 113 181 113q77 0 118.5 -55.5t23.5 -167.5l-50 -316h-229l45 287q10 70 -43 70q-30 0 -45.5 -18t-21.5 -58l-44 -281h-229zM425 570q-35 0 -72 14.5t-48 14.5q-22 0 -29 -26h-116q13 89 49.5 132.5t89.5 43.5
q33 0 71 -14.5t53 -14.5q21 0 29 26h116q-14 -87 -52.5 -131.5t-90.5 -44.5z" />
    <glyph glyph-name="ograve" unicode="&#xf2;" horiz-adv-x="629" 
d="M244 226q0 -74 59 -74q82 0 82 152q0 29 -13.5 48.5t-42.5 19.5q-85 0 -85 -146zM300 -14q-117 0 -199.5 60t-83.5 182q-1 136 86.5 223.5t227.5 87.5q55 0 104 -14t90 -42.5t65 -77.5t24 -113q0 -137 -87 -221.5t-227 -84.5zM266 568l-95 175h217l36 -175h-158z" />
    <glyph glyph-name="oacute" unicode="&#xf3;" horiz-adv-x="629" 
d="M244 226q0 -74 59 -74q82 0 82 152q0 29 -13.5 48.5t-42.5 19.5q-85 0 -85 -146zM300 -14q-117 0 -199.5 60t-83.5 182q-1 136 86.5 223.5t227.5 87.5q55 0 104 -14t90 -42.5t65 -77.5t24 -113q0 -137 -87 -221.5t-227 -84.5zM250 568l71 175h219l-127 -175h-163z" />
    <glyph glyph-name="ocircumflex" unicode="&#xf4;" horiz-adv-x="629" 
d="M244 226q0 -74 59 -74q82 0 82 152q0 29 -13.5 48.5t-42.5 19.5q-85 0 -85 -146zM300 -14q-117 0 -199.5 60t-83.5 182q-1 136 86.5 223.5t227.5 87.5q55 0 104 -14t90 -42.5t65 -77.5t24 -113q0 -137 -87 -221.5t-227 -84.5zM136 571l152 172h155l102 -172h-152l-42 46
l-54 -46h-161z" />
    <glyph glyph-name="otilde" unicode="&#xf5;" horiz-adv-x="629" 
d="M244 226q0 -74 59 -74q82 0 82 152q0 29 -13.5 48.5t-42.5 19.5q-85 0 -85 -146zM300 -14q-117 0 -199.5 60t-83.5 182q-1 136 86.5 223.5t227.5 87.5q55 0 104 -14t90 -42.5t65 -77.5t24 -113q0 -137 -87 -221.5t-227 -84.5zM415 570q-36 0 -72.5 14.5t-47.5 14.5
q-22 0 -29 -26h-116q13 89 49.5 132.5t89.5 43.5q33 0 71 -14.5t53 -14.5q21 0 29 26h116q-14 -87 -52.5 -131.5t-90.5 -44.5z" />
    <glyph glyph-name="odieresis" unicode="&#xf6;" horiz-adv-x="629" 
d="M244 226q0 -74 59 -74q82 0 82 152q0 29 -13.5 48.5t-42.5 19.5q-85 0 -85 -146zM300 -14q-117 0 -199.5 60t-83.5 182q-1 136 86.5 223.5t227.5 87.5q55 0 104 -14t90 -42.5t65 -77.5t24 -113q0 -137 -87 -221.5t-227 -84.5zM242 552q-43 0 -72.5 29t-29.5 70t29.5 70
t72.5 29t73 -29t30 -70t-30 -70t-73 -29zM467 552q-43 0 -72 29t-29 70t29 70t72 29t73 -29t30 -70t-30 -70t-73 -29z" />
    <glyph glyph-name="divide" unicode="&#xf7;" 
d="M37 263l24 152h524l-24 -152h-524zM286 19q-48 0 -78.5 30.5t-30.5 76.5q0 45 30.5 76t77.5 31q48 0 80.5 -31t32.5 -76t-32 -76t-80 -31zM334 445q-48 0 -78.5 30.5t-30.5 76.5q0 45 30.5 76t77.5 31q48 0 80.5 -31t32.5 -76t-32 -76t-80 -31z" />
    <glyph glyph-name="oslash" unicode="&#xf8;" horiz-adv-x="629" 
d="M59 -40l-45 44l63 64q-60 62 -60 162q-1 136 86.5 222.5t227.5 86.5q95 0 167 -41l67 69l46 -44l-62 -63q65 -67 65 -170q0 -137 -87 -220.5t-227 -83.5q-102 0 -174 43zM304 147q45 0 68 43.5t23 111.5l-138 -140q17 -15 47 -15zM330 376q-47 0 -71 -40t-24 -107
l133 136q-16 11 -38 11z" />
    <glyph glyph-name="ugrave" unicode="&#xf9;" horiz-adv-x="638" 
d="M638 523l-56 -357q-17 -105 -13 -166h-225q-2 26 0 94q-67 -108 -179 -108q-76 0 -118 55t-24 166l50 316h229l-48 -301q-10 -70 42 -70q30 0 45 18t21 58l47 295h229zM278 568l-95 175h217l36 -175h-158z" />
    <glyph glyph-name="uacute" unicode="&#xfa;" horiz-adv-x="638" 
d="M638 523l-56 -357q-17 -105 -13 -166h-225q-2 26 0 94q-67 -108 -179 -108q-76 0 -118 55t-24 166l50 316h229l-48 -301q-10 -70 42 -70q30 0 45 18t21 58l47 295h229zM278 568l71 175h219l-127 -175h-163z" />
    <glyph glyph-name="ucircumflex" unicode="&#xfb;" horiz-adv-x="638" 
d="M638 523l-56 -357q-17 -105 -13 -166h-225q-2 26 0 94q-67 -108 -179 -108q-76 0 -118 55t-24 166l50 316h229l-48 -301q-10 -70 42 -70q30 0 45 18t21 58l47 295h229zM147 571l152 172h155l102 -172h-152l-42 46l-54 -46h-161z" />
    <glyph glyph-name="udieresis" unicode="&#xfc;" horiz-adv-x="638" 
d="M638 523l-56 -357q-17 -105 -13 -166h-225q-2 26 0 94q-67 -108 -179 -108q-76 0 -118 55t-24 166l50 316h229l-48 -301q-10 -70 42 -70q30 0 45 18t21 58l47 295h229zM250 552q-43 0 -72.5 29t-29.5 70t29.5 70t72.5 29t73 -29t30 -70t-30 -70t-73 -29zM475 552
q-43 0 -72 29t-29 70t29 70t72 29t73 -29t30 -70t-30 -70t-73 -29z" />
    <glyph glyph-name="yacute" unicode="&#xfd;" horiz-adv-x="614" 
d="M47 -172l121 231l-129 464h238l43 -232l110 232h225l-382 -695h-226zM276 568l71 175h219l-127 -175h-163z" />
    <glyph glyph-name="thorn" unicode="&#xfe;" horiz-adv-x="651" 
d="M196 -172h-229l145 915h229l-47 -298q56 94 172 94q74 0 122.5 -57.5t48.5 -166.5q0 -157 -70 -243t-178 -86q-55 0 -97.5 25.5t-54.5 69.5zM315 156q38 0 63 39t25 103q0 75 -59 75q-38 0 -62 -40.5t-24 -100.5q0 -76 57 -76z" />
    <glyph glyph-name="ydieresis" unicode="&#xff;" horiz-adv-x="614" 
d="M47 -172l121 231l-129 464h238l43 -232l110 232h225l-382 -695h-226zM255 552q-43 0 -72.5 29t-29.5 70t29.5 70t72.5 29t73 -29t30 -70t-30 -70t-73 -29zM480 552q-43 0 -72 29t-29 70t29 70t72 29t73 -29t30 -70t-30 -70t-73 -29z" />
    <glyph glyph-name="Amacron" unicode="&#x100;" horiz-adv-x="784" 
d="M463 0l-9 95h-202l-39 -95h-254l333 715h343l106 -715h-278zM292 764l20 129h351l-20 -129h-351zM418 501l-93 -228h113z" />
    <glyph glyph-name="amacron" unicode="&#x101;" horiz-adv-x="595" 
d="M263 134q24 0 41 14t20 35l4 19h-40q-36 0 -50 -8.5t-14 -27.5q0 -14 10.5 -23t28.5 -9zM540 0h-222q-4 19 -4 65q-52 -79 -154 -79q-70 0 -117 38t-47 106q0 101 70.5 143.5t215.5 42.5h64l1 7q4 29 -3.5 45t-37.5 16q-40 0 -50 -45h-212q40 200 273 200
q145 0 208 -61.5t43 -184.5l-20 -127q-17 -103 -8 -166zM169 593l19 119h331l-19 -119h-331z" />
    <glyph glyph-name="Abreve" unicode="&#x102;" horiz-adv-x="784" 
d="M463 0l-9 95h-202l-39 -95h-254l333 715h343l106 -715h-278zM475 744q-87 0 -132 43t-46 121h140q2 -36 40 -36q36 0 42 36h142q-13 -80 -61.5 -122t-124.5 -42zM418 501l-93 -228h113z" />
    <glyph glyph-name="abreve" unicode="&#x103;" horiz-adv-x="595" 
d="M263 134q24 0 41 14t20 35l4 19h-40q-36 0 -50 -8.5t-14 -27.5q0 -14 10.5 -23t28.5 -9zM540 0h-222q-4 19 -4 65q-52 -79 -154 -79q-70 0 -117 38t-47 106q0 101 70.5 143.5t215.5 42.5h64l1 7q4 29 -3.5 45t-37.5 16q-40 0 -50 -45h-212q40 200 273 200
q145 0 208 -61.5t43 -184.5l-20 -127q-17 -103 -8 -166zM350 572q-85 0 -131 45t-43 127h133q2 -40 43 -40q42 0 47 40h135q-12 -85 -59.5 -128.5t-124.5 -43.5z" />
    <glyph glyph-name="Aogonek" unicode="&#x104;" horiz-adv-x="784" 
d="M463 0l-9 95h-202l-39 -95h-254l333 715h343l104 -701q-55 -37 -55 -69q0 -20 25 -20q8 0 18 2l-15 -93q-36 -16 -87 -16q-120 0 -120 78q0 38 30.5 64.5t70.5 39.5h-143zM418 501l-93 -228h113z" />
    <glyph glyph-name="aogonek" unicode="&#x105;" horiz-adv-x="595" 
d="M263 134q24 0 41 14t20 35l4 19h-40q-36 0 -50 -8.5t-14 -27.5q0 -14 10.5 -23t28.5 -9zM568 293l-20 -127q-16 -96 -9 -158q-39 -35 -39 -63q0 -20 25 -20q8 0 18 2l-15 -93q-36 -16 -87 -16q-120 0 -120 78q0 38 30.5 64.5t70.5 39.5h-104q-4 19 -4 65
q-52 -79 -154 -79q-70 0 -117 38t-47 106q0 101 70.5 143.5t215.5 42.5h64l1 7q4 29 -3.5 45t-37.5 16q-40 0 -50 -45h-212q40 200 273 200q145 0 208 -61.5t43 -184.5z" />
    <glyph glyph-name="Cacute" unicode="&#x106;" horiz-adv-x="779" 
d="M396 -14q-169 0 -266.5 79.5t-97.5 236.5q0 191 109 307.5t301 116.5q159 0 247 -74.5t92 -221.5h-270q-3 89 -76 89q-61 0 -92 -58.5t-33 -146.5q-1 -51 19.5 -84.5t69.5 -33.5q81 0 100 89h265q-18 -147 -119.5 -223t-248.5 -76zM347 753l62 155h229l-118 -155h-173z
" />
    <glyph glyph-name="cacute" unicode="&#x107;" horiz-adv-x="592" 
d="M293 -13q-121 0 -199 61.5t-78 179.5q0 139 83.5 225t222.5 86q117 0 187.5 -57t74.5 -174h-214q-2 29 -13.5 42.5t-38.5 13.5q-74 0 -74 -139q0 -76 58 -76q55 0 67 66h204q-12 -111 -83.5 -169.5t-196.5 -58.5zM239 568l71 175h219l-127 -175h-163z" />
    <glyph glyph-name="Ccircumflex" unicode="&#x108;" horiz-adv-x="779" 
d="M396 -14q-169 0 -266.5 79.5t-97.5 236.5q0 191 109 307.5t301 116.5q159 0 247 -74.5t92 -221.5h-270q-3 89 -76 89q-61 0 -92 -58.5t-33 -146.5q-1 -51 19.5 -84.5t69.5 -33.5q81 0 100 89h265q-18 -147 -119.5 -223t-248.5 -76zM239 753l135 155h189l93 -155h-159
l-40 44l-50 -44h-168z" />
    <glyph glyph-name="ccircumflex" unicode="&#x109;" horiz-adv-x="592" 
d="M293 -13q-121 0 -199 61.5t-78 179.5q0 139 83.5 225t222.5 86q117 0 187.5 -57t74.5 -174h-214q-2 29 -13.5 42.5t-38.5 13.5q-74 0 -74 -139q0 -76 58 -76q55 0 67 66h204q-12 -111 -83.5 -169.5t-196.5 -58.5zM121 571l152 172h155l102 -172h-152l-42 46l-54 -46h-161
z" />
    <glyph glyph-name="Cdotaccent" unicode="&#x10a;" horiz-adv-x="779" 
d="M396 -14q-169 0 -266.5 79.5t-97.5 236.5q0 191 109 307.5t301 116.5q159 0 247 -74.5t92 -221.5h-270q-3 89 -76 89q-61 0 -92 -58.5t-33 -146.5q-1 -51 19.5 -84.5t69.5 -33.5q81 0 100 89h265q-18 -147 -119.5 -223t-248.5 -76zM453 742q-50 0 -83 30t-33 76t33 76.5
t83 30.5t83.5 -30.5t33.5 -76.5t-33.5 -76t-83.5 -30z" />
    <glyph glyph-name="cdotaccent" unicode="&#x10b;" horiz-adv-x="592" 
d="M293 -13q-121 0 -199 61.5t-78 179.5q0 139 83.5 225t222.5 86q117 0 187.5 -57t74.5 -174h-214q-2 29 -13.5 42.5t-38.5 13.5q-74 0 -74 -139q0 -76 58 -76q55 0 67 66h204q-12 -111 -83.5 -169.5t-196.5 -58.5zM333 551q-50 0 -83 30t-33 76t33 76.5t83 30.5
t83.5 -30.5t33.5 -76.5t-33.5 -76t-83.5 -30z" />
    <glyph glyph-name="Ccaron" unicode="&#x10c;" horiz-adv-x="779" 
d="M396 -14q-169 0 -266.5 79.5t-97.5 236.5q0 191 109 307.5t301 116.5q159 0 247 -74.5t92 -221.5h-270q-3 89 -76 89q-61 0 -92 -58.5t-33 -146.5q-1 -51 19.5 -84.5t69.5 -33.5q81 0 100 89h265q-18 -147 -119.5 -223t-248.5 -76zM675 908l-135 -155h-189l-93 155h159
l40 -44l50 44h168z" />
    <glyph glyph-name="ccaron" unicode="&#x10d;" horiz-adv-x="592" 
d="M293 -13q-121 0 -199 61.5t-78 179.5q0 139 83.5 225t222.5 86q117 0 187.5 -57t74.5 -174h-214q-2 29 -13.5 42.5t-38.5 13.5q-74 0 -74 -139q0 -76 58 -76q55 0 67 66h204q-12 -111 -83.5 -169.5t-196.5 -58.5zM551 743l-152 -172h-155l-102 172h152l42 -46l54 46h161z
" />
    <glyph glyph-name="Dcaron" unicode="&#x10e;" horiz-adv-x="773" 
d="M16 0l113 715h261q184 0 281.5 -78.5t97.5 -225.5q0 -202 -115 -306.5t-305 -104.5h-333zM314 201h38q69 0 105 50.5t36 147.5q0 115 -108 115h-21zM648 908l-135 -155h-189l-93 155h159l40 -44l50 44h168z" />
    <glyph glyph-name="dcaron" unicode="&#x10f;" horiz-adv-x="651" 
d="M689 743l-91 -577q-17 -103 -11 -166h-227q-5 20 -5 84q-58 -98 -166 -98q-81 0 -129 56.5t-48 167.5q0 157 72.5 243t184.5 86q50 0 90.5 -25t53.5 -66l47 295h229zM334 373q-38 0 -63 -39t-25 -103q0 -77 58 -77q38 0 62.5 41.5t24.5 101.5q0 76 -57 76zM692 569
l34 174h153l-77 -174h-110z" />
    <glyph glyph-name="Dcroat" unicode="&#x110;" horiz-adv-x="791" 
d="M28 272l27 175h49l43 268h261q184 0 281.5 -78.5t97.5 -225.5q0 -202 -115 -306.5t-305 -104.5h-333l43 272h-49zM326 201h44q69 0 105 50.5t36 147.5q0 115 -108 115h-27l-11 -67h75l-27 -175h-76z" />
    <glyph glyph-name="dcroat" unicode="&#x111;" horiz-adv-x="651" 
d="M689 743l-9 -57h47l-18 -114h-47l-64 -406q-17 -103 -11 -166h-227q-5 20 -5 84q-58 -98 -166 -98q-81 0 -129 56.5t-48 167.5q0 157 72.5 243t184.5 86q50 0 90.5 -25t53.5 -66l20 124h-143l18 114h143l9 57h229zM334 373q-38 0 -63 -39t-25 -103q0 -77 58 -77
q38 0 62.5 41.5t24.5 101.5q0 76 -57 76z" />
    <glyph glyph-name="Emacron" unicode="&#x112;" horiz-adv-x="635" 
d="M16 0l113 715h534l-32 -203h-269l-10 -61h212l-28 -182h-212l-11 -66h284l-32 -203h-549zM224 764l20 129h351l-20 -129h-351z" />
    <glyph glyph-name="emacron" unicode="&#x113;" horiz-adv-x="616" 
d="M590 215h-352q2 -81 74 -81q52 0 67 50h213q-17 -95 -92 -146.5t-193 -51.5q-82 0 -145 23t-104.5 79.5t-41.5 141.5q0 139 89.5 224t226.5 85q139 0 210.5 -81.5t50.5 -222.5zM179 593l19 119h331l-19 -119h-331zM329 398q-57 0 -79 -77h139q2 34 -12.5 55.5t-47.5 21.5
z" />
    <glyph glyph-name="Ebreve" unicode="&#x114;" horiz-adv-x="635" 
d="M16 0l113 715h534l-32 -203h-269l-10 -61h212l-28 -182h-212l-11 -66h284l-32 -203h-549zM407 744q-87 0 -132 43t-46 121h140q2 -36 40 -36q36 0 42 36h142q-13 -80 -61.5 -122t-124.5 -42z" />
    <glyph glyph-name="ebreve" unicode="&#x115;" horiz-adv-x="616" 
d="M590 215h-352q2 -81 74 -81q52 0 67 50h213q-17 -95 -92 -146.5t-193 -51.5q-82 0 -145 23t-104.5 79.5t-41.5 141.5q0 139 89.5 224t226.5 85q139 0 210.5 -81.5t50.5 -222.5zM351 570q-85 0 -131 45t-43 127h133q2 -40 43 -40q42 0 47 40h135q-12 -85 -59.5 -128.5
t-124.5 -43.5zM329 398q-57 0 -79 -77h139q2 34 -12.5 55.5t-47.5 21.5z" />
    <glyph glyph-name="Edotaccent" unicode="&#x116;" horiz-adv-x="635" 
d="M16 0l113 715h534l-32 -203h-269l-10 -61h212l-28 -182h-212l-11 -66h284l-32 -203h-549zM401 742q-50 0 -83 30t-33 76t33 76.5t83 30.5t83.5 -30.5t33.5 -76.5t-33.5 -76t-83.5 -30z" />
    <glyph glyph-name="edotaccent" unicode="&#x117;" horiz-adv-x="616" 
d="M590 215h-352q2 -81 74 -81q52 0 67 50h213q-17 -95 -92 -146.5t-193 -51.5q-82 0 -145 23t-104.5 79.5t-41.5 141.5q0 139 89.5 224t226.5 85q139 0 210.5 -81.5t50.5 -222.5zM342 551q-50 0 -83 30t-33 76t33 76.5t83 30.5t83.5 -30.5t33.5 -76.5t-33.5 -76t-83.5 -30z
M329 398q-57 0 -79 -77h139q2 34 -12.5 55.5t-47.5 21.5z" />
    <glyph glyph-name="Eogonek" unicode="&#x118;" horiz-adv-x="635" 
d="M16 0l113 715h534l-32 -203h-269l-10 -61h212l-28 -182h-212l-11 -66h284l-32 -203h-40q-37 -30 -37 -55q0 -20 25 -20q8 0 18 2l-15 -93q-36 -16 -87 -16q-120 0 -120 78q0 38 30.5 64.5t70.5 39.5h-394z" />
    <glyph glyph-name="eogonek" unicode="&#x119;" horiz-adv-x="616" 
d="M332 539q139 0 210.5 -81.5t50.5 -222.5l-3 -20h-352q2 -81 74 -81q52 0 67 50h213q-17 -91 -90 -146q-5 -4 -24.5 -17t-32.5 -22t-24.5 -24.5t-11.5 -29.5q0 -20 25 -20q8 0 18 2l-15 -93q-36 -16 -87 -16q-120 0 -120 74q0 62 86 94h-9q-82 0 -145 23t-104.5 79.5
t-41.5 141.5q0 139 90 224t226 85zM329 398q-57 0 -79 -77h139q2 34 -12.5 55.5t-47.5 21.5z" />
    <glyph glyph-name="Ecaron" unicode="&#x11a;" horiz-adv-x="635" 
d="M16 0l113 715h534l-32 -203h-269l-10 -61h212l-28 -182h-212l-11 -66h284l-32 -203h-549zM623 908l-135 -155h-189l-93 155h159l40 -44l50 44h168z" />
    <glyph glyph-name="ecaron" unicode="&#x11b;" horiz-adv-x="616" 
d="M590 215h-352q2 -81 74 -81q52 0 67 50h213q-17 -95 -92 -146.5t-193 -51.5q-82 0 -145 23t-104.5 79.5t-41.5 141.5q0 139 89.5 224t226.5 85q139 0 210.5 -81.5t50.5 -222.5zM562 743l-152 -172h-155l-102 172h152l42 -46l54 46h161zM329 398q-57 0 -79 -77h139
q2 34 -12.5 55.5t-47.5 21.5z" />
    <glyph glyph-name="Gcircumflex" unicode="&#x11c;" horiz-adv-x="797" 
d="M402 -14q-170 0 -270 80t-100 238q0 185 117.5 303.5t302.5 118.5q70 0 128.5 -15.5t106 -48t75.5 -88t31 -130.5h-264q-3 36 -22 54.5t-64 18.5q-65 0 -100.5 -61.5t-35.5 -148.5q0 -60 26.5 -90t86.5 -30q79 0 98 58h-98l26 162h353q-18 -224 -105.5 -322.5
t-291.5 -98.5zM235 753l135 155h189l93 -155h-159l-40 44l-50 -44h-168z" />
    <glyph glyph-name="gcircumflex" unicode="&#x11d;" horiz-adv-x="648" 
d="M268 -195q-144 0 -216 56.5t-75 150.5h226q5 -53 64 -53q40 0 56 18.5t21 53.5l15 94q-54 -86 -160 -86q-80 0 -131.5 53.5t-51.5 155.5q0 132 71 211.5t180 79.5q110 0 143 -92l12 76h229l-78 -491q-19 -118 -90.5 -172.5t-214.5 -54.5zM306 191q42 0 63 34t21 83
q-1 30 -15 49t-40 19q-41 0 -62.5 -33.5t-21.5 -78.5q0 -73 55 -73zM155 571l152 172h155l102 -172h-152l-42 46l-54 -46h-161z" />
    <glyph glyph-name="Gbreve" unicode="&#x11e;" horiz-adv-x="797" 
d="M402 -14q-170 0 -270 80t-100 238q0 185 117.5 303.5t302.5 118.5q70 0 128.5 -15.5t106 -48t75.5 -88t31 -130.5h-264q-3 36 -22 54.5t-64 18.5q-65 0 -100.5 -61.5t-35.5 -148.5q0 -60 26.5 -90t86.5 -30q79 0 98 58h-98l26 162h353q-18 -224 -105.5 -322.5
t-291.5 -98.5zM455 744q-87 0 -132 43t-46 121h140q2 -36 40 -36q36 0 42 36h142q-13 -80 -61.5 -122t-124.5 -42z" />
    <glyph glyph-name="gbreve" unicode="&#x11f;" horiz-adv-x="648" 
d="M268 -195q-144 0 -216 56.5t-75 150.5h226q5 -53 64 -53q40 0 56 18.5t21 53.5l15 94q-54 -86 -160 -86q-80 0 -131.5 53.5t-51.5 155.5q0 132 71 211.5t180 79.5q110 0 143 -92l12 76h229l-78 -491q-19 -118 -90.5 -172.5t-214.5 -54.5zM306 191q42 0 63 34t21 83
q-1 30 -15 49t-40 19q-41 0 -62.5 -33.5t-21.5 -78.5q0 -73 55 -73zM366 570q-85 0 -131 45t-43 127h133q2 -40 43 -40q42 0 47 40h135q-12 -85 -59.5 -128.5t-124.5 -43.5z" />
    <glyph glyph-name="Gdotaccent" unicode="&#x120;" horiz-adv-x="797" 
d="M402 -14q-170 0 -270 80t-100 238q0 185 117.5 303.5t302.5 118.5q70 0 128.5 -15.5t106 -48t75.5 -88t31 -130.5h-264q-3 36 -22 54.5t-64 18.5q-65 0 -100.5 -61.5t-35.5 -148.5q0 -60 26.5 -90t86.5 -30q79 0 98 58h-98l26 162h353q-18 -224 -105.5 -322.5
t-291.5 -98.5zM449 742q-50 0 -83 30t-33 76t33 76.5t83 30.5t83.5 -30.5t33.5 -76.5t-33.5 -76t-83.5 -30z" />
    <glyph glyph-name="gdotaccent" unicode="&#x121;" horiz-adv-x="648" 
d="M268 -195q-144 0 -216 56.5t-75 150.5h226q5 -53 64 -53q40 0 56 18.5t21 53.5l15 94q-54 -86 -160 -86q-80 0 -131.5 53.5t-51.5 155.5q0 132 71 211.5t180 79.5q110 0 143 -92l12 76h229l-78 -491q-19 -118 -90.5 -172.5t-214.5 -54.5zM306 191q42 0 63 34t21 83
q-1 30 -15 49t-40 19q-41 0 -62.5 -33.5t-21.5 -78.5q0 -73 55 -73zM354 551q-50 0 -83 30t-33 76t33 76.5t83 30.5t83.5 -30.5t33.5 -76.5t-33.5 -76t-83.5 -30z" />
    <glyph glyph-name="Gcommaaccent" unicode="&#x122;" horiz-adv-x="797" 
d="M402 -14q-170 0 -270 80t-100 238q0 185 117.5 303.5t302.5 118.5q70 0 128.5 -15.5t106 -48t75.5 -88t31 -130.5h-264q-3 36 -22 54.5t-64 18.5q-65 0 -100.5 -61.5t-35.5 -148.5q0 -60 26.5 -90t86.5 -30q79 0 98 58h-98l26 162h353q-18 -224 -105.5 -322.5
t-291.5 -98.5zM350 -236l-124 27l41 173h197z" />
    <glyph glyph-name="gcommaaccent" unicode="&#x123;" horiz-adv-x="648" 
d="M268 -195q-144 0 -216 56.5t-75 150.5h226q5 -53 64 -53q40 0 56 18.5t21 53.5l15 94q-54 -86 -160 -86q-80 0 -131.5 53.5t-51.5 155.5q0 132 71 211.5t180 79.5q110 0 143 -92l12 76h229l-78 -491q-19 -118 -90.5 -172.5t-214.5 -54.5zM306 191q42 0 63 34t21 83
q-1 30 -15 49t-40 19q-41 0 -62.5 -33.5t-21.5 -78.5q0 -73 55 -73zM369 762l124 -27l-41 -173h-197z" />
    <glyph glyph-name="Hcircumflex" unicode="&#x124;" horiz-adv-x="812" 
d="M16 0l113 715h267l-39 -247h163l39 247h266l-113 -715h-266l41 263h-163l-41 -263h-267zM266 753l135 155h189l93 -155h-159l-40 44l-50 -44h-168z" />
    <glyph glyph-name="hcircumflex" unicode="&#x125;" horiz-adv-x="635" 
d="M-5 0l117 743h229l-50 -314q66 110 179 110q77 0 118.5 -55.5t23.5 -167.5l-50 -316h-229l45 287q10 70 -43 70q-30 0 -45.5 -18t-21.5 -58l-44 -281h-229zM186 778l135 155h189l93 -155h-159l-40 44l-50 -44h-168z" />
    <glyph glyph-name="Hbar" unicode="&#x126;" horiz-adv-x="812" 
d="M45 535l18 111h55l11 69h267l-11 -69h163l11 69h266l-11 -69h55l-18 -111h-55l-84 -535h-266l41 263h-163l-41 -263h-267l84 535h-55zM357 468h163l10 67h-163z" />
    <glyph glyph-name="hbar" unicode="&#x127;" horiz-adv-x="635" 
d="M38 572l18 114h47l9 57h229l-9 -57h143l-18 -114h-143l-23 -143q66 110 179 110q77 0 118.5 -55.5t23.5 -167.5l-50 -316h-229l45 287q10 70 -43 70q-30 0 -45.5 -18t-21.5 -58l-44 -281h-229l90 572h-47z" />
    <glyph glyph-name="Itilde" unicode="&#x128;" horiz-adv-x="391" 
d="M19 0l113 715h269l-113 -715h-269zM348 750q-36 0 -74 14.5t-49 14.5q-25 0 -30 -26h-123q14 87 54 129.5t95 42.5q32 0 71.5 -14.5t54.5 -14.5q23 0 31 26h123q-15 -86 -57.5 -129t-95.5 -43z" />
    <glyph glyph-name="itilde" unicode="&#x129;" horiz-adv-x="316" 
d="M2 0l82 523h228l-82 -523h-228zM281 570q-35 0 -72 14.5t-48 14.5q-22 0 -29 -26h-116q13 89 49.5 132.5t89.5 43.5q33 0 71 -14.5t53 -14.5q21 0 29 26h116q-14 -87 -52.5 -131.5t-90.5 -44.5z" />
    <glyph glyph-name="Imacron" unicode="&#x12a;" horiz-adv-x="391" 
d="M19 0l113 715h269l-113 -715h-269zM94 764l20 129h351l-20 -129h-351z" />
    <glyph glyph-name="imacron" unicode="&#x12b;" horiz-adv-x="316" 
d="M74 593l19 119h272l-19 -119h-272zM2 0l82 523h228l-82 -523h-228z" />
    <glyph glyph-name="Ibreve" unicode="&#x12c;" horiz-adv-x="391" 
d="M19 0l113 715h269l-113 -715h-269zM281 744q-87 0 -132 43t-46 121h140q2 -36 40 -36q36 0 42 36h142q-13 -80 -61.5 -122t-124.5 -42z" />
    <glyph glyph-name="ibreve" unicode="&#x12d;" horiz-adv-x="316" 
d="M2 0l82 523h228l-82 -523h-228zM213 570q-85 0 -131 45t-43 127h133q2 -40 43 -40q42 0 47 40h135q-12 -85 -59.5 -128.5t-124.5 -43.5z" />
    <glyph glyph-name="Iogonek" unicode="&#x12e;" horiz-adv-x="391" 
d="M19 0l113 715h269l-110 -697q-58 -44 -58 -73q0 -20 25 -20q8 0 18 2l-15 -93q-36 -16 -87 -16q-120 0 -120 78q0 38 30.5 64.5t70.5 39.5h-136z" />
    <glyph glyph-name="iogonek" unicode="&#x12f;" horiz-adv-x="316" 
d="M2 0l82 523h228l-79 -506q-58 -41 -58 -72q0 -20 25 -20q8 0 18 2l-15 -93q-36 -16 -87 -16q-120 0 -120 78q0 38 30.5 64.5t70.5 39.5h-95zM216 544q-52 0 -84.5 31t-32.5 79t33 79t85 31q51 0 84.5 -31t33.5 -79t-34 -79t-85 -31z" />
    <glyph glyph-name="Idotaccent" unicode="&#x130;" horiz-adv-x="391" 
d="M19 0l113 715h269l-113 -715h-269zM274 742q-50 0 -83 30t-33 76t33 76.5t83 30.5t83.5 -30.5t33.5 -76.5t-33.5 -76t-83.5 -30z" />
    <glyph glyph-name="dotlessi" unicode="&#x131;" horiz-adv-x="316" 
d="M2 0l82 523h228l-82 -523h-228z" />
    <glyph glyph-name="IJ" unicode="&#x132;" horiz-adv-x="879" 
d="M19 0l113 715h269l-113 -715h-269zM533 -9q-100 0 -171 32l31 194q46 -16 88 -16q75 0 85 69l71 445h267l-72 -454q-42 -270 -299 -270z" />
    <glyph glyph-name="ij" unicode="&#x133;" horiz-adv-x="632" 
d="M216 544q-52 0 -84.5 31t-32.5 79t33 79t85 31q51 0 84.5 -31t33.5 -79t-34 -79t-85 -31zM2 0l82 523h228l-82 -523h-228zM233 -179l24 159q58 3 64 48l78 495h228l-82 -518q-7 -43 -24 -75.5t-51 -60.5t-94 -40.5t-143 -7.5zM531 544q-52 0 -84.5 31t-32.5 79t33 79
t85 31q51 0 84.5 -31t33.5 -79t-34 -79t-85 -31z" />
    <glyph glyph-name="Jcircumflex" unicode="&#x134;" horiz-adv-x="508" 
d="M162 -9q-100 0 -171 32l31 194q46 -16 88 -16q75 0 85 69l71 445h267l-72 -454q-42 -270 -299 -270zM189 753l135 155h189l93 -155h-159l-40 44l-50 -44h-168z" />
    <glyph glyph-name="jcircumflex" unicode="&#x135;" horiz-adv-x="316" 
d="M-83 -179l24 159q58 3 64 48l78 495h228l-82 -518q-7 -43 -24 -75.5t-51 -60.5t-94 -40.5t-143 -7.5zM-7 571l152 172h155l102 -172h-152l-42 46l-54 -46h-161z" />
    <glyph glyph-name="Kcommaaccent" unicode="&#x136;" horiz-adv-x="782" 
d="M16 0l113 715h267l-39 -248l212 248h282l-300 -341l184 -374h-286l-123 274l-43 -274h-267zM336 -236l-124 27l41 173h197z" />
    <glyph glyph-name="kcommaaccent" unicode="&#x137;" horiz-adv-x="609" 
d="M-5 0l117 743h229l-64 -408l134 188h241l-191 -243l111 -280h-243l-72 209l-33 -209h-229zM264 -236l-124 27l41 173h197z" />
    <glyph glyph-name="Lacute" unicode="&#x139;" horiz-adv-x="595" 
d="M16 0l113 715h267l-81 -511h241l-32 -204h-508zM164 753l62 155h229l-118 -155h-173z" />
    <glyph glyph-name="lacute" unicode="&#x13a;" horiz-adv-x="312" 
d="M1 0l117 743h227l-117 -743h-227zM137 778l62 155h229l-118 -155h-173z" />
    <glyph glyph-name="Lcommaaccent" unicode="&#x13b;" horiz-adv-x="595" 
d="M16 0l113 715h267l-81 -511h241l-32 -204h-508zM249 -236l-124 27l41 173h197z" />
    <glyph glyph-name="lcommaaccent" unicode="&#x13c;" horiz-adv-x="312" 
d="M1 0l117 743h227l-117 -743h-227zM92 -236l-124 27l41 173h197z" />
    <glyph glyph-name="Lcaron" unicode="&#x13d;" horiz-adv-x="595" 
d="M414 529l43 186h176l-92 -186h-127zM16 0l113 715h267l-81 -511h241l-32 -204h-508z" />
    <glyph glyph-name="lcaron" unicode="&#x13e;" horiz-adv-x="312" 
d="M1 0l117 743h227l-117 -743h-227zM349 569l34 174h153l-77 -174h-110z" />
    <glyph glyph-name="Ldot" unicode="&#x13f;" horiz-adv-x="635" 
d="M16 0l113 715h267l-81 -511h241l-32 -204h-508zM535 290q-53 0 -87.5 34.5t-34.5 85.5q0 50 34.5 85t86.5 35q54 0 90.5 -35t36.5 -85q0 -51 -36 -85.5t-90 -34.5z" />
    <glyph glyph-name="ldot" unicode="&#x140;" horiz-adv-x="520" 
d="M1 0l117 743h227l-117 -743h-227zM428 236q-53 0 -87.5 34.5t-34.5 85.5q0 50 34.5 85t86.5 35q54 0 90.5 -35t36.5 -85q0 -51 -36 -85.5t-90 -34.5z" />
    <glyph glyph-name="Lslash" unicode="&#x141;" horiz-adv-x="613" 
d="M8 216l20 134l64 20l55 345h267l-41 -256l179 57l-22 -134l-178 -57l-19 -121h241l-32 -204h-508l37 236z" />
    <glyph glyph-name="lslash" unicode="&#x142;" horiz-adv-x="363" 
d="M10 235l22 142l57 23l54 343h227l-38 -243l60 25l-22 -142l-61 -25l-56 -358h-227l40 258z" />
    <glyph glyph-name="Nacute" unicode="&#x143;" horiz-adv-x="805" 
d="M16 0l113 715h294l108 -317l50 317h236l-113 -715h-250l-142 375l-59 -375h-237zM390 753l62 155h229l-118 -155h-173z" />
    <glyph glyph-name="nacute" unicode="&#x144;" horiz-adv-x="635" 
d="M-5 0l54 344q19 119 21 179h225q0 -52 -6 -97q67 113 181 113q77 0 118.5 -55.5t23.5 -167.5l-50 -316h-229l45 287q10 70 -43 70q-30 0 -45.5 -18t-21.5 -58l-44 -281h-229zM269 568l71 175h219l-127 -175h-163z" />
    <glyph glyph-name="Ncommaaccent" unicode="&#x145;" horiz-adv-x="805" 
d="M16 0l113 715h294l108 -317l50 317h236l-113 -715h-250l-142 375l-59 -375h-237zM339 -236l-124 27l41 173h197z" />
    <glyph glyph-name="ncommaaccent" unicode="&#x146;" horiz-adv-x="635" 
d="M-5 0l54 344q19 119 21 179h225q0 -52 -6 -97q67 113 181 113q77 0 118.5 -55.5t23.5 -167.5l-50 -316h-229l45 287q10 70 -43 70q-30 0 -45.5 -18t-21.5 -58l-44 -281h-229zM263 -236l-124 27l41 173h197z" />
    <glyph glyph-name="Ncaron" unicode="&#x147;" horiz-adv-x="805" 
d="M16 0l113 715h294l108 -317l50 317h236l-113 -715h-250l-142 375l-59 -375h-237zM718 908l-135 -155h-189l-93 155h159l40 -44l50 44h168z" />
    <glyph glyph-name="ncaron" unicode="&#x148;" horiz-adv-x="635" 
d="M-5 0l54 344q19 119 21 179h225q0 -52 -6 -97q67 113 181 113q77 0 118.5 -55.5t23.5 -167.5l-50 -316h-229l45 287q10 70 -43 70q-30 0 -45.5 -18t-21.5 -58l-44 -281h-229zM578 743l-152 -172h-155l-102 172h152l42 -46l54 46h161z" />
    <glyph glyph-name="napostrophe" unicode="&#x149;" horiz-adv-x="814" 
d="M174 0l54 344q19 119 21 179h225q0 -52 -6 -97q67 113 181 113q77 0 118.5 -55.5t23.5 -167.5l-50 -316h-229l45 287q10 70 -43 70q-30 0 -45.5 -18t-21.5 -58l-44 -281h-229zM103 729l194 -62l-170 -270l-123 45z" />
    <glyph glyph-name="Eng" unicode="&#x14a;" horiz-adv-x="805" 
d="M425 -192q-91 0 -146 25l29 183q37 -11 70 -11q46 0 66 22l-132 348l-59 -375h-237l113 715h295l107 -317l50 317h236l-110 -695q-16 -98 -85 -155t-197 -57z" />
    <glyph glyph-name="eng" unicode="&#x14b;" horiz-adv-x="638" 
d="M612 316l-49 -311q-7 -43 -24 -75.5t-51 -60.5t-94.5 -40.5t-143.5 -7.5l24 159q58 3 64 48l40 259q10 70 -43 70q-30 0 -45.5 -18t-21.5 -58l-44 -281h-229l54 344q19 119 21 179h225q0 -52 -6 -97q67 113 181 113q77 0 118.5 -55.5t23.5 -167.5z" />
    <glyph glyph-name="Omacron" unicode="&#x14c;" horiz-adv-x="823" 
d="M308 307q0 -113 100 -113q47 0 79 32.5t44 77.5t12 98q0 114 -98 117q-67 1 -102 -61.5t-35 -150.5zM387 -14q-71 0 -134 19.5t-113 56.5t-79 97.5t-29 136.5q0 193 116 311.5t305 118.5q59 0 112.5 -11.5t100.5 -36t81 -61t53.5 -89t19.5 -116.5q0 -192 -117.5 -309
t-315.5 -117zM288 764l20 129h351l-20 -129h-351z" />
    <glyph glyph-name="omacron" unicode="&#x14d;" horiz-adv-x="629" 
d="M244 226q0 -74 59 -74q82 0 82 152q0 29 -13.5 48.5t-42.5 19.5q-85 0 -85 -146zM300 -14q-117 0 -199.5 60t-83.5 182q-1 136 86.5 223.5t227.5 87.5q55 0 104 -14t90 -42.5t65 -77.5t24 -113q0 -137 -87 -221.5t-227 -84.5zM178 593l19 119h331l-19 -119h-331z" />
    <glyph glyph-name="Obreve" unicode="&#x14e;" horiz-adv-x="823" 
d="M308 307q0 -113 100 -113q47 0 79 32.5t44 77.5t12 98q0 114 -98 117q-67 1 -102 -61.5t-35 -150.5zM387 -14q-71 0 -134 19.5t-113 56.5t-79 97.5t-29 136.5q0 193 116 311.5t305 118.5q59 0 112.5 -11.5t100.5 -36t81 -61t53.5 -89t19.5 -116.5q0 -192 -117.5 -309
t-315.5 -117zM474 744q-87 0 -132 43t-46 121h140q2 -36 40 -36q36 0 42 36h142q-13 -80 -61.5 -122t-124.5 -42z" />
    <glyph glyph-name="obreve" unicode="&#x14f;" horiz-adv-x="629" 
d="M244 226q0 -74 59 -74q82 0 82 152q0 29 -13.5 48.5t-42.5 19.5q-85 0 -85 -146zM300 -14q-117 0 -199.5 60t-83.5 182q-1 136 86.5 223.5t227.5 87.5q55 0 104 -14t90 -42.5t65 -77.5t24 -113q0 -137 -87 -221.5t-227 -84.5zM346 570q-85 0 -131 45t-43 127h133
q2 -40 43 -40q42 0 47 40h135q-12 -85 -59.5 -128.5t-124.5 -43.5z" />
    <glyph glyph-name="Ohungarumlaut" unicode="&#x150;" horiz-adv-x="823" 
d="M308 307q0 -113 100 -113q47 0 79 32.5t44 77.5t12 98q0 114 -98 117q-67 1 -102 -61.5t-35 -150.5zM387 -14q-71 0 -134 19.5t-113 56.5t-79 97.5t-29 136.5q0 193 116 311.5t305 118.5q59 0 112.5 -11.5t100.5 -36t81 -61t53.5 -89t19.5 -116.5q0 -192 -117.5 -309
t-315.5 -117zM283 753l60 155h183l-93 -155h-150zM498 753l60 155h183l-93 -155h-150z" />
    <glyph glyph-name="ohungarumlaut" unicode="&#x151;" horiz-adv-x="629" 
d="M244 226q0 -74 59 -74q82 0 82 152q0 29 -13.5 48.5t-42.5 19.5q-85 0 -85 -146zM300 -14q-117 0 -199.5 60t-83.5 182q-1 136 86.5 223.5t227.5 87.5q55 0 104 -14t90 -42.5t65 -77.5t24 -113q0 -137 -87 -221.5t-227 -84.5zM177 568l68 175h163l-101 -175h-130z
M366 568l68 175h163l-101 -175h-130z" />
    <glyph glyph-name="OE" unicode="&#x152;" horiz-adv-x="996" 
d="M452 715h572l-32 -203h-255l-10 -61h198l-28 -182h-198l-11 -66h270l-32 -203h-525q-181 0 -275 75.5t-94 221.5q0 203 115.5 310.5t304.5 107.5zM475 514h-26q-68 0 -104.5 -53.5t-36.5 -151.5q0 -58 27 -83t81 -25h9z" />
    <glyph glyph-name="oe" unicode="&#x153;" horiz-adv-x="982" 
d="M698 539q139 0 210.5 -81.5t50.5 -222.5l-3 -20h-352q2 -81 74 -81q52 0 67 50h213q-17 -95 -92 -146.5t-193 -51.5q-124 0 -192 62q-74 -62 -181 -62q-117 0 -199.5 61t-83.5 183q-1 136 86.5 222.5t227.5 86.5q115 0 183 -67q78 67 184 67zM244 226q0 -74 59 -74
q82 0 82 152q0 29 -13.5 48.5t-42.5 19.5q-85 0 -85 -146zM695 398q-57 0 -79 -77h139q2 34 -12.5 55.5t-47.5 21.5z" />
    <glyph glyph-name="Racute" unicode="&#x154;" horiz-adv-x="733" 
d="M16 0l113 715h303q145 0 215.5 -57t70.5 -157q0 -83 -39 -139t-107 -79l114 -283h-266l-89 227h-15l-35 -227h-265zM343 394h41q75 0 75 69q0 54 -65 54h-32zM305 753l62 155h229l-118 -155h-173z" />
    <glyph glyph-name="racute" unicode="&#x155;" horiz-adv-x="458" 
d="M-5 0l54 344q17 110 20 179h225q0 -66 -8 -123q57 134 188 129l-33 -213q-87 7 -130.5 -17t-53.5 -89l-33 -210h-229zM214 568l71 175h219l-127 -175h-163z" />
    <glyph glyph-name="Rcommaaccent" unicode="&#x156;" horiz-adv-x="733" 
d="M16 0l113 715h303q145 0 215.5 -57t70.5 -157q0 -83 -39 -139t-107 -79l114 -283h-266l-89 227h-15l-35 -227h-265zM343 394h41q75 0 75 69q0 54 -65 54h-32zM318 -236l-124 27l41 173h197z" />
    <glyph glyph-name="rcommaaccent" unicode="&#x157;" horiz-adv-x="458" 
d="M-5 0l54 344q17 110 20 179h225q0 -66 -8 -123q57 134 188 129l-33 -213q-87 7 -130.5 -17t-53.5 -89l-33 -210h-229zM86 -236l-124 27l41 173h197z" />
    <glyph glyph-name="Rcaron" unicode="&#x158;" horiz-adv-x="733" 
d="M16 0l113 715h303q145 0 215.5 -57t70.5 -157q0 -83 -39 -139t-107 -79l114 -283h-266l-89 227h-15l-35 -227h-265zM343 394h41q75 0 75 69q0 54 -65 54h-32zM633 908l-135 -155h-189l-93 155h159l40 -44l50 44h168z" />
    <glyph glyph-name="rcaron" unicode="&#x159;" horiz-adv-x="458" 
d="M-5 0l54 344q17 110 20 179h225q0 -66 -8 -123q57 134 188 129l-33 -213q-87 7 -130.5 -17t-53.5 -89l-33 -210h-229zM522 743l-152 -172h-155l-102 172h152l42 -46l54 46h161z" />
    <glyph glyph-name="Sacute" unicode="&#x15a;" horiz-adv-x="657" 
d="M317 -14q-154 0 -237 62t-82 184h249q2 -61 75 -61q56 0 56 38q0 27 -74 40q-138 24 -194.5 74.5t-56.5 144.5q0 114 82 186t229 72q143 0 218.5 -58t73.5 -179h-243q-3 52 -55 52q-49 0 -49 -34q0 -16 16.5 -25t57.5 -16q129 -21 192.5 -70.5t63.5 -144.5
q0 -121 -83 -192.5t-239 -72.5zM288 753l62 155h229l-118 -155h-173z" />
    <glyph glyph-name="sacute" unicode="&#x15b;" horiz-adv-x="530" 
d="M237 -15q-116 0 -183.5 45t-68.5 142h211q2 -23 12.5 -34t34.5 -11q38 0 38 27q0 14 -15.5 21t-65.5 15q-92 16 -135 51t-43 103q0 96 70.5 146.5t188.5 49.5q233 0 243 -180h-206q-6 43 -42 43q-39 0 -39 -27q0 -15 14 -21t52 -13q114 -21 158.5 -55.5t44.5 -108.5
q0 -97 -73.5 -145t-195.5 -48zM204 568l71 175h219l-127 -175h-163z" />
    <glyph glyph-name="Scircumflex" unicode="&#x15c;" horiz-adv-x="657" 
d="M317 -14q-154 0 -237 62t-82 184h249q2 -61 75 -61q56 0 56 38q0 27 -74 40q-138 24 -194.5 74.5t-56.5 144.5q0 114 82 186t229 72q143 0 218.5 -58t73.5 -179h-243q-3 52 -55 52q-49 0 -49 -34q0 -16 16.5 -25t57.5 -16q129 -21 192.5 -70.5t63.5 -144.5
q0 -121 -83 -192.5t-239 -72.5zM180 753l135 155h189l93 -155h-159l-40 44l-50 -44h-168z" />
    <glyph glyph-name="scircumflex" unicode="&#x15d;" horiz-adv-x="530" 
d="M237 -15q-116 0 -183.5 45t-68.5 142h211q2 -23 12.5 -34t34.5 -11q38 0 38 27q0 14 -15.5 21t-65.5 15q-92 16 -135 51t-43 103q0 96 70.5 146.5t188.5 49.5q233 0 243 -180h-206q-6 43 -42 43q-39 0 -39 -27q0 -15 14 -21t52 -13q114 -21 158.5 -55.5t44.5 -108.5
q0 -97 -73.5 -145t-195.5 -48zM88 571l152 172h155l102 -172h-152l-42 46l-54 -46h-161z" />
    <glyph glyph-name="Scedilla" unicode="&#x15e;" horiz-adv-x="657" 
d="M267 -232q-57 0 -96.5 24t-43.5 73h100q4 -23 31 -23q12 0 21 7.5t9 22.5q0 26 -30 26q-18 0 -31 -11l-38 42l50 62q-117 14 -179.5 74.5t-61.5 166.5h249q2 -61 75 -61q56 0 56 38q0 27 -74 40q-138 24 -194.5 74.5t-56.5 144.5q0 114 82 186t229 72q143 0 218.5 -58
t73.5 -179h-243q-3 52 -55 52q-49 0 -49 -34q0 -16 16.5 -25t57.5 -16q129 -21 192.5 -70.5t63.5 -144.5q0 -121 -83 -192.5t-239 -72.5l-23 -27q46 3 76 -19.5t30 -63.5q0 -53 -38 -80.5t-95 -27.5z" />
    <glyph glyph-name="scedilla" unicode="&#x15f;" horiz-adv-x="530" 
d="M207 -232q-57 0 -96.5 24t-43.5 73h100q4 -23 31 -23q12 0 21 7.5t9 22.5q0 26 -30 26q-18 0 -31 -11l-38 42l48 59q-191 22 -192 184h211q2 -23 12.5 -34t34.5 -11q38 0 38 27q0 14 -15.5 21t-65.5 15q-92 16 -135 51t-43 103q0 96 70.5 146.5t188.5 49.5
q233 0 243 -180h-206q-6 43 -42 43q-39 0 -39 -27q0 -15 14 -21t52 -13q114 -21 158.5 -55.5t44.5 -108.5q0 -93 -68 -141t-182 -51l-22 -27q46 3 76 -19.5t30 -63.5q0 -53 -38 -80.5t-95 -27.5z" />
    <glyph glyph-name="Scaron" unicode="&#x160;" horiz-adv-x="657" 
d="M317 -14q-154 0 -237 62t-82 184h249q2 -61 75 -61q56 0 56 38q0 27 -74 40q-138 24 -194.5 74.5t-56.5 144.5q0 114 82 186t229 72q143 0 218.5 -58t73.5 -179h-243q-3 52 -55 52q-49 0 -49 -34q0 -16 16.5 -25t57.5 -16q129 -21 192.5 -70.5t63.5 -144.5
q0 -121 -83 -192.5t-239 -72.5zM602 908l-135 -155h-189l-93 155h159l40 -44l50 44h168z" />
    <glyph glyph-name="scaron" unicode="&#x161;" horiz-adv-x="530" 
d="M237 -15q-116 0 -183.5 45t-68.5 142h211q2 -23 12.5 -34t34.5 -11q38 0 38 27q0 14 -15.5 21t-65.5 15q-92 16 -135 51t-43 103q0 96 70.5 146.5t188.5 49.5q233 0 243 -180h-206q-6 43 -42 43q-39 0 -39 -27q0 -15 14 -21t52 -13q114 -21 158.5 -55.5t44.5 -108.5
q0 -97 -73.5 -145t-195.5 -48zM511 743l-152 -172h-155l-102 172h152l42 -46l54 46h161z" />
    <glyph glyph-name="Tcommaaccent" unicode="&#x162;" horiz-adv-x="648" 
d="M148 0l80 511h-173l33 204h614l-33 -204h-173l-80 -511h-268zM271 -236l-124 27l41 173h197z" />
    <glyph glyph-name="tcommaaccent" unicode="&#x163;" horiz-adv-x="407" 
d="M235 -14q-105 0 -152.5 51t-28.5 169l27 168h-57l23 149h57l17 104h229l-17 -104h93l-23 -149h-93l-25 -158q-4 -28 5.5 -39.5t33.5 -11.5q22 0 45 8l-27 -170q-45 -17 -107 -17zM172 -236l-124 27l41 173h197z" />
    <glyph glyph-name="Tcaron" unicode="&#x164;" horiz-adv-x="648" 
d="M148 0l80 511h-173l33 204h614l-33 -204h-173l-80 -511h-268zM624 908l-135 -155h-189l-93 155h159l40 -44l50 44h168z" />
    <glyph glyph-name="tcaron" unicode="&#x165;" horiz-adv-x="407" 
d="M235 -14q-105 0 -152.5 51t-28.5 169l27 168h-57l23 149h57l17 104h229l-17 -104h93l-23 -149h-93l-25 -158q-4 -28 5.5 -39.5t33.5 -11.5q22 0 45 8l-27 -170q-45 -17 -107 -17zM373 569l34 174h153l-77 -174h-110z" />
    <glyph glyph-name="Tbar" unicode="&#x166;" horiz-adv-x="648" 
d="M71 248l25 161h116l16 102h-173l33 204h614l-33 -204h-173l-16 -102h116l-25 -161h-116l-39 -248h-268l39 248h-116z" />
    <glyph glyph-name="tbar" unicode="&#x167;" horiz-adv-x="407" 
d="M3 240l14 89h57l7 45h-57l23 149h57l17 104h229l-17 -104h93l-23 -149h-93l-7 -45h93l-14 -89h-93l-4 -24q-4 -28 5.5 -39.5t33.5 -11.5q22 0 45 8l-27 -170q-45 -17 -107 -17q-105 0 -152.5 51t-28.5 169l5 34h-56z" />
    <glyph glyph-name="Utilde" unicode="&#x168;" horiz-adv-x="799" 
d="M391 -14q-180 0 -267.5 85.5t-61.5 249.5l63 394h266l-64 -402q-9 -60 6 -89.5t61 -29.5t62.5 25t26.5 84l65 412h268l-68 -432q-24 -157 -110.5 -227t-246.5 -70zM535 750q-35 0 -73 14.5t-50 14.5q-25 0 -30 -26h-123q14 87 54 129.5t95 42.5q32 0 72 -14.5t54 -14.5
q23 0 31 26h123q-15 -86 -57.5 -129t-95.5 -43z" />
    <glyph glyph-name="utilde" unicode="&#x169;" horiz-adv-x="638" 
d="M638 523l-56 -357q-17 -105 -13 -166h-225q-2 26 0 94q-67 -108 -179 -108q-76 0 -118 55t-24 166l50 316h229l-48 -301q-10 -70 42 -70q30 0 45 18t21 58l47 295h229zM426 570q-36 0 -72 14.5t-48 14.5q-22 0 -29 -26h-116q13 89 49.5 132.5t89.5 43.5q32 0 71 -14.5
t53 -14.5q21 0 29 26h116q-14 -87 -52.5 -131.5t-90.5 -44.5z" />
    <glyph glyph-name="Umacron" unicode="&#x16a;" horiz-adv-x="799" 
d="M391 -14q-180 0 -267.5 85.5t-61.5 249.5l63 394h266l-64 -402q-9 -60 6 -89.5t61 -29.5t62.5 25t26.5 84l65 412h268l-68 -432q-24 -157 -110.5 -227t-246.5 -70zM302 764l20 129h351l-20 -129h-351z" />
    <glyph glyph-name="umacron" unicode="&#x16b;" horiz-adv-x="638" 
d="M638 523l-56 -357q-17 -105 -13 -166h-225q-2 26 0 94q-67 -108 -179 -108q-76 0 -118 55t-24 166l50 316h229l-48 -301q-10 -70 42 -70q30 0 45 18t21 58l47 295h229zM189 593l19 119h331l-19 -119h-331z" />
    <glyph glyph-name="Ubreve" unicode="&#x16c;" horiz-adv-x="799" 
d="M391 -14q-180 0 -267.5 85.5t-61.5 249.5l63 394h266l-64 -402q-9 -60 6 -89.5t61 -29.5t62.5 25t26.5 84l65 412h268l-68 -432q-24 -157 -110.5 -227t-246.5 -70zM478 744q-87 0 -132 43t-46 121h140q2 -36 40 -36q36 0 42 36h142q-13 -80 -61.5 -122t-124.5 -42z" />
    <glyph glyph-name="ubreve" unicode="&#x16d;" horiz-adv-x="638" 
d="M638 523l-56 -357q-17 -105 -13 -166h-225q-2 26 0 94q-67 -108 -179 -108q-76 0 -118 55t-24 166l50 316h229l-48 -301q-10 -70 42 -70q30 0 45 18t21 58l47 295h229zM369 570q-85 0 -131 45t-43 127h133q2 -40 43 -40q42 0 47 40h135q-12 -85 -59.5 -128.5
t-124.5 -43.5z" />
    <glyph glyph-name="Uring" unicode="&#x16e;" horiz-adv-x="799" 
d="M391 -14q-180 0 -267.5 85.5t-61.5 249.5l63 394h266l-64 -402q-9 -60 6 -89.5t61 -29.5t62.5 25t26.5 84l65 412h268l-68 -432q-24 -157 -110.5 -227t-246.5 -70zM475 792q19 0 31 13t12 34t-12 34t-31 13t-31 -13t-12 -34t12 -34t31 -13zM475 717q-52 0 -89 36t-37 86
t37 86t89 36t89 -36t37 -86t-37 -86t-89 -36z" />
    <glyph glyph-name="uring" unicode="&#x16f;" horiz-adv-x="638" 
d="M638 523l-56 -357q-17 -105 -13 -166h-225q-2 26 0 94q-67 -108 -179 -108q-76 0 -118 55t-24 166l50 316h229l-48 -301q-10 -70 42 -70q30 0 45 18t21 58l47 295h229zM358 641q19 0 30.5 13t11.5 33t-11.5 33t-30.5 13t-30.5 -13t-11.5 -33t11.5 -33t30.5 -13zM358 567
q-51 0 -87.5 35.5t-36.5 84.5t36.5 84.5t87.5 35.5t87.5 -35.5t36.5 -84.5t-36.5 -84.5t-87.5 -35.5z" />
    <glyph glyph-name="Uhungarumlaut" unicode="&#x170;" horiz-adv-x="799" 
d="M391 -14q-180 0 -267.5 85.5t-61.5 249.5l63 394h266l-64 -402q-9 -60 6 -89.5t61 -29.5t62.5 25t26.5 84l65 412h268l-68 -432q-24 -157 -110.5 -227t-246.5 -70zM292 753l60 155h183l-93 -155h-150zM507 753l60 155h183l-93 -155h-150z" />
    <glyph glyph-name="uhungarumlaut" unicode="&#x171;" horiz-adv-x="638" 
d="M638 523l-56 -357q-17 -105 -13 -166h-225q-2 26 0 94q-67 -108 -179 -108q-76 0 -118 55t-24 166l50 316h229l-48 -301q-10 -70 42 -70q30 0 45 18t21 58l47 295h229zM189 568l68 175h163l-101 -175h-130zM378 568l68 175h163l-101 -175h-130z" />
    <glyph glyph-name="Uogonek" unicode="&#x172;" horiz-adv-x="799" 
d="M816 715l-68 -432q-18 -116 -69.5 -182.5t-152.5 -99.5q-4 -1 -13 -4l-13.5 -4.5t-12.5 -4.5t-12.5 -5t-10.5 -5.5t-9 -6.5t-6.5 -7t-5 -9t-1.5 -10q0 -20 25 -20q8 0 18 2l-15 -93q-36 -16 -87 -16q-120 0 -120 78q0 58 71 93q-152 12 -224 96.5t-48 235.5l63 394h266
l-64 -402q-9 -60 6 -89.5t61 -29.5t62.5 25t26.5 84l65 412h268z" />
    <glyph glyph-name="uogonek" unicode="&#x173;" horiz-adv-x="638" 
d="M570 10q-44 -42 -44 -65q0 -20 25 -20q8 0 18 2l-15 -93q-36 -16 -87 -16q-120 0 -120 78q0 38 30.5 64.5t70.5 39.5h-104q-2 26 0 94q-67 -108 -179 -108q-76 0 -118 55t-24 166l50 316h229l-48 -301q-10 -70 42 -70q30 0 45 18t21 58l47 295h229l-56 -357
q-16 -96 -12 -156z" />
    <glyph glyph-name="Wcircumflex" unicode="&#x174;" horiz-adv-x="1027" 
d="M125 0l-53 715h270l3 -393l130 393h224l20 -398l134 398h243l-279 -715h-258l-24 378l-141 -378h-269zM376 753l135 155h189l93 -155h-159l-40 44l-50 -44h-168z" />
    <glyph glyph-name="wcircumflex" unicode="&#x175;" horiz-adv-x="863" 
d="M111 0l-72 523h231l16 -257l100 257h182l18 -257l100 257h219l-247 -523h-212l-21 240l-96 -240h-218zM263 571l152 172h155l102 -172h-152l-42 46l-54 -46h-161z" />
    <glyph glyph-name="Ycircumflex" unicode="&#x176;" horiz-adv-x="722" 
d="M187 0l47 304l-164 411h276l59 -190l118 190h265l-287 -424l-46 -291h-268zM224 753l135 155h189l93 -155h-159l-40 44l-50 -44h-168z" />
    <glyph glyph-name="ycircumflex" unicode="&#x177;" horiz-adv-x="614" 
d="M47 -172l121 231l-129 464h238l43 -232l110 232h225l-382 -695h-226zM149 571l152 172h155l102 -172h-152l-42 46l-54 -46h-161z" />
    <glyph glyph-name="Ydieresis" unicode="&#x178;" horiz-adv-x="722" 
d="M187 0l47 304l-164 411h276l59 -190l118 190h265l-287 -424l-46 -291h-268zM330 742q-43 0 -72.5 29t-29.5 70t29.5 70t72.5 29t73 -29t30 -70t-30 -70t-73 -29zM563 742q-43 0 -72 29t-29 70t29 70t72 29t73 -29t30 -70t-30 -70t-73 -29z" />
    <glyph glyph-name="Zacute" unicode="&#x179;" horiz-adv-x="628" 
d="M-37 0l4 27l333 495h-217l31 193h585l-5 -27l-332 -492h228l-31 -196h-596zM301 753l62 155h229l-118 -155h-173z" />
    <glyph glyph-name="zacute" unicode="&#x17a;" horiz-adv-x="521" 
d="M-38 0l3 21l244 337h-171l25 165h491l-3 -21l-257 -339h187l-25 -163h-494zM225 568l71 175h219l-127 -175h-163z" />
    <glyph glyph-name="Zdotaccent" unicode="&#x17b;" horiz-adv-x="628" 
d="M-37 0l4 27l333 495h-217l31 193h585l-5 -27l-332 -492h228l-31 -196h-596zM407 742q-50 0 -83 30t-33 76t33 76.5t83 30.5t83.5 -30.5t33.5 -76.5t-33.5 -76t-83.5 -30z" />
    <glyph glyph-name="zdotaccent" unicode="&#x17c;" horiz-adv-x="521" 
d="M-38 0l3 21l244 337h-171l25 165h491l-3 -21l-257 -339h187l-25 -163h-494zM310 551q-50 0 -83 30t-33 76t33 76.5t83 30.5t83.5 -30.5t33.5 -76.5t-33.5 -76t-83.5 -30z" />
    <glyph glyph-name="Zcaron" unicode="&#x17d;" horiz-adv-x="628" 
d="M-37 0l4 27l333 495h-217l31 193h585l-5 -27l-332 -492h228l-31 -196h-596zM629 908l-135 -155h-189l-93 155h159l40 -44l50 44h168z" />
    <glyph glyph-name="zcaron" unicode="&#x17e;" horiz-adv-x="521" 
d="M-38 0l3 21l244 337h-171l25 165h491l-3 -21l-257 -339h187l-25 -163h-494zM534 743l-152 -172h-155l-102 172h152l42 -46l54 46h161z" />
    <glyph glyph-name="florin" unicode="&#x192;" horiz-adv-x="473" 
d="M29 266l23 149h82l21 110q20 105 91.5 152.5t173.5 47.5q59 0 96 -11l-27 -167q-16 5 -46 5q-58 0 -68 -51l-16 -86h108l-23 -149h-113l-83 -448h-226l84 448h-77z" />
    <glyph glyph-name="Aringacute" unicode="&#x1fa;" horiz-adv-x="784" 
d="M463 0l-9 95h-202l-39 -95h-254l333 715h343l106 -715h-278zM465 737q-52 0 -89 36t-37 86t37 86t89 36t89 -36t37 -86t-37 -86t-89 -36zM392 995l62 155h229l-118 -155h-173zM418 501l-93 -228h113zM465 812q19 0 31 13t12 34t-12 34t-31 13t-31 -13t-12 -34t12 -34
t31 -13z" />
    <glyph glyph-name="aringacute" unicode="&#x1fb;" horiz-adv-x="595" 
d="M263 134q24 0 41 14t20 35l4 19h-40q-36 0 -50 -8.5t-14 -27.5q0 -14 10.5 -23t28.5 -9zM540 0h-222q-4 19 -4 65q-52 -79 -154 -79q-70 0 -117 38t-47 106q0 101 70.5 143.5t215.5 42.5h64l1 7q4 29 -3.5 45t-37.5 16q-40 0 -50 -45h-212q40 200 273 200
q145 0 208 -61.5t43 -184.5l-20 -127q-17 -103 -8 -166zM353 641q19 0 30.5 13t11.5 33t-11.5 33t-30.5 13t-30.5 -13t-11.5 -33t11.5 -33t30.5 -13zM353 567q-51 0 -87.5 35.5t-36.5 84.5t36.5 84.5t87.5 35.5t87.5 -35.5t36.5 -84.5t-36.5 -84.5t-87.5 -35.5zM281 830
l62 155h229l-118 -155h-173z" />
    <glyph glyph-name="AEacute" unicode="&#x1fc;" horiz-adv-x="1029" 
d="M420 0l18 115h-162l-61 -115h-256l405 715h693l-32 -203h-260l-10 -61h203l-28 -182h-203l-11 -66h275l-32 -203h-539zM598 753l62 155h229l-118 -155h-173zM487 512l-119 -224h97l36 224h-14z" />
    <glyph glyph-name="aeacute" unicode="&#x1fd;" horiz-adv-x="922" 
d="M315 539q113 0 163 -50q73 50 162 50q138 0 209 -81.5t50 -222.5l-3 -20h-352q2 -81 74 -81q52 0 67 50h213q-17 -95 -92 -146.5t-193 -51.5q-159 0 -222 87q-55 -87 -195 -87q-89 0 -144.5 39t-55.5 110q0 98 71.5 140.5t214.5 42.5h64l1 7q8 59 -43 59q-44 0 -54 -45
h-212q18 98 90.5 149t186.5 51zM411 568l71 175h219l-127 -175h-163zM635 398q-57 0 -79 -77h139q2 34 -12.5 55.5t-47.5 21.5zM263 134q25 0 41.5 14.5t20.5 37.5l4 25h-40q-65 0 -65 -43q0 -34 39 -34z" />
    <glyph glyph-name="Oslashacute" unicode="&#x1fe;" horiz-adv-x="823" 
d="M83 -34l-51 52l74 75q-74 80 -74 203q0 193 116 311.5t305 118.5q134 0 228 -56l72 72l51 -52l-65 -65q81 -83 81 -213q0 -192 -117.5 -309t-315.5 -117q-131 0 -224 60zM362 753l62 155h229l-118 -155h-173zM552 403q0 13 -2 31l-218 -219q27 -24 76 -24
q71 0 107.5 62.5t36.5 149.5zM300 306q0 -12 1 -18l213 213q-26 19 -69 21q-69 1 -107 -62t-38 -154z" />
    <glyph glyph-name="oslashacute" unicode="&#x1ff;" horiz-adv-x="629" 
d="M59 -40l-45 44l63 64q-60 62 -60 162q-1 136 86.5 222.5t227.5 86.5q95 0 167 -41l67 69l46 -44l-62 -63q65 -67 65 -170q0 -137 -87 -220.5t-227 -83.5q-102 0 -174 43zM250 568l71 175h219l-127 -175h-163zM304 147q45 0 68 43.5t23 111.5l-138 -140q17 -15 47 -15z
M330 376q-47 0 -71 -40t-24 -107l133 136q-16 11 -38 11z" />
    <glyph glyph-name="Scommaaccent" unicode="&#x218;" horiz-adv-x="657" 
d="M317 -14q-154 0 -237 62t-82 184h249q2 -61 75 -61q56 0 56 38q0 27 -74 40q-138 24 -194.5 74.5t-56.5 144.5q0 114 82 186t229 72q143 0 218.5 -58t73.5 -179h-243q-3 52 -55 52q-49 0 -49 -34q0 -16 16.5 -25t57.5 -16q129 -21 192.5 -70.5t63.5 -144.5
q0 -121 -83 -192.5t-239 -72.5zM277 -236l-124 27l41 173h197z" />
    <glyph glyph-name="scommaaccent" unicode="&#x219;" horiz-adv-x="530" 
d="M237 -15q-116 0 -183.5 45t-68.5 142h211q2 -23 12.5 -34t34.5 -11q38 0 38 27q0 14 -15.5 21t-65.5 15q-92 16 -135 51t-43 103q0 96 70.5 146.5t188.5 49.5q233 0 243 -180h-206q-6 43 -42 43q-39 0 -39 -27q0 -15 14 -21t52 -13q114 -21 158.5 -55.5t44.5 -108.5
q0 -97 -73.5 -145t-195.5 -48zM211 -236l-124 27l41 173h197z" />
    <glyph glyph-name="uni0237" unicode="&#x237;" horiz-adv-x="316" 
d="M-83 -179l24 159q58 3 64 48l78 495h228l-82 -518q-7 -43 -24 -75.5t-51 -60.5t-94 -40.5t-143 -7.5z" />
    <glyph glyph-name="circumflex" unicode="&#x2c6;" horiz-adv-x="400" 
d="M43 571l152 172h155l102 -172h-152l-42 46l-54 -46h-161z" />
    <glyph glyph-name="caron" unicode="&#x2c7;" horiz-adv-x="400" 
d="M479 743l-152 -172h-155l-102 172h152l42 -46l54 46h161z" />
    <glyph glyph-name="breve" unicode="&#x2d8;" horiz-adv-x="400" 
d="M264 570q-85 0 -131 45t-43 127h133q2 -40 43 -40q42 0 47 40h135q-12 -85 -59.5 -128.5t-124.5 -43.5z" />
    <glyph glyph-name="dotaccent" unicode="&#x2d9;" horiz-adv-x="400" 
d="M262 551q-50 0 -83 30t-33 76t33 76.5t83 30.5t83.5 -30.5t33.5 -76.5t-33.5 -76t-83.5 -30z" />
    <glyph glyph-name="ring" unicode="&#x2da;" horiz-adv-x="400" 
d="M266 641q19 0 30.5 13t11.5 33t-11.5 33t-30.5 13t-30.5 -13t-11.5 -33t11.5 -33t30.5 -13zM266 567q-51 0 -87.5 35.5t-36.5 84.5t36.5 84.5t87.5 35.5t87.5 -35.5t36.5 -84.5t-36.5 -84.5t-87.5 -35.5z" />
    <glyph glyph-name="ogonek" unicode="&#x2db;" horiz-adv-x="400" 
d="M131 -182q-120 0 -120 78q0 38 30.5 64.5t70.5 39.5h115q-37 -30 -37 -55q0 -20 25 -20q8 0 18 2l-15 -93q-36 -16 -87 -16z" />
    <glyph glyph-name="tilde" unicode="&#x2dc;" horiz-adv-x="400" 
d="M323 570q-35 0 -71.5 14.5t-48.5 14.5q-22 0 -29 -26h-116q13 89 49.5 132.5t89.5 43.5q32 0 70.5 -14.5t53.5 -14.5q21 0 29 26h116q-14 -87 -52.5 -131.5t-90.5 -44.5z" />
    <glyph glyph-name="hungarumlaut" unicode="&#x2dd;" horiz-adv-x="400" 
d="M80 568l68 175h163l-101 -175h-130zM269 568l68 175h163l-101 -175h-130z" />
    <glyph glyph-name="Wgrave" unicode="&#x1e80;" horiz-adv-x="1027" 
d="M125 0l-53 715h270l3 -393l130 393h224l20 -398l134 398h243l-279 -715h-258l-24 378l-141 -378h-269zM510 753l-89 155h227l30 -155h-168z" />
    <glyph glyph-name="wgrave" unicode="&#x1e81;" horiz-adv-x="863" 
d="M111 0l-72 523h231l16 -257l100 257h182l18 -257l100 257h219l-247 -523h-212l-21 240l-96 -240h-218zM393 568l-95 175h217l36 -175h-158z" />
    <glyph glyph-name="Wacute" unicode="&#x1e82;" horiz-adv-x="1027" 
d="M125 0l-53 715h270l3 -393l130 393h224l20 -398l134 398h243l-279 -715h-258l-24 378l-141 -378h-269zM498 753l62 155h229l-118 -155h-173z" />
    <glyph glyph-name="wacute" unicode="&#x1e83;" horiz-adv-x="863" 
d="M111 0l-72 523h231l16 -257l100 257h182l18 -257l100 257h219l-247 -523h-212l-21 240l-96 -240h-218zM401 568l71 175h219l-127 -175h-163z" />
    <glyph glyph-name="Wdieresis" unicode="&#x1e84;" horiz-adv-x="1027" 
d="M125 0l-53 715h270l3 -393l130 393h224l20 -398l134 398h243l-279 -715h-258l-24 378l-141 -378h-269zM478 742q-43 0 -72.5 29t-29.5 70t29.5 70t72.5 29t73 -29t30 -70t-30 -70t-73 -29zM711 742q-43 0 -72 29t-29 70t29 70t72 29t73 -29t30 -70t-30 -70t-73 -29z" />
    <glyph glyph-name="wdieresis" unicode="&#x1e85;" horiz-adv-x="863" 
d="M111 0l-72 523h231l16 -257l100 257h182l18 -257l100 257h219l-247 -523h-212l-21 240l-96 -240h-218zM369 552q-43 0 -72.5 29t-29.5 70t29.5 70t72.5 29t73 -29t30 -70t-30 -70t-73 -29zM594 552q-43 0 -72 29t-29 70t29 70t72 29t73 -29t30 -70t-30 -70t-73 -29z" />
    <glyph glyph-name="Ygrave" unicode="&#x1ef2;" horiz-adv-x="722" 
d="M187 0l47 304l-164 411h276l59 -190l118 190h265l-287 -424l-46 -291h-268zM354 753l-89 155h227l30 -155h-168z" />
    <glyph glyph-name="ygrave" unicode="&#x1ef3;" horiz-adv-x="614" 
d="M47 -172l121 231l-129 464h238l43 -232l110 232h225l-382 -695h-226zM280 568l-95 175h217l36 -175h-158z" />
    <glyph glyph-name="uni2009" unicode="&#x2009;" horiz-adv-x="75" 
 />
    <glyph glyph-name="endash" unicode="&#x2013;" horiz-adv-x="548" 
d="M41 239l20 123h456l-20 -123h-456z" />
    <glyph glyph-name="emdash" unicode="&#x2014;" horiz-adv-x="978" 
d="M41 239l20 123h886l-20 -123h-886z" />
    <glyph glyph-name="quoteleft" unicode="&#x2018;" horiz-adv-x="326" 
d="M247 397l-194 62l171 270l123 -45z" />
    <glyph glyph-name="quoteright" unicode="&#x2019;" horiz-adv-x="325" 
d="M168 729l194 -62l-170 -270l-123 45z" />
    <glyph glyph-name="quotesinglbase" unicode="&#x201a;" horiz-adv-x="325" 
d="M82 230l194 -62l-170 -270l-123 45z" />
    <glyph glyph-name="quotedblleft" unicode="&#x201c;" horiz-adv-x="578" 
d="M247 397l-194 62l171 270l123 -45zM500 397l-194 62l170 270l123 -45z" />
    <glyph glyph-name="quotedblright" unicode="&#x201d;" horiz-adv-x="578" 
d="M421 729l194 -62l-171 -270l-123 45zM168 729l194 -62l-170 -270l-123 45z" />
    <glyph glyph-name="quotedblbase" unicode="&#x201e;" horiz-adv-x="578" 
d="M335 230l194 -62l-171 -270l-123 45zM82 230l194 -62l-170 -270l-123 45z" />
    <glyph glyph-name="dagger" unicode="&#x2020;" horiz-adv-x="421" 
d="M111 213l37 235h-102l25 156h102l18 111h181l-18 -111h102l-25 -156h-102l-37 -235h-181z" />
    <glyph glyph-name="daggerdbl" unicode="&#x2021;" horiz-adv-x="421" 
d="M147 437l8 54h-102l22 139h102l14 85h181l-14 -85h102l-22 -139h-102l-8 -54h102l-22 -139h-102l-14 -85h-181l14 85h-102l22 139h102z" />
    <glyph glyph-name="bullet" unicode="&#x2022;" horiz-adv-x="392" 
d="M195 139q-67 0 -111.5 45t-44.5 105q0 77 48.5 125.5t118.5 48.5q69 0 113 -45.5t44 -108.5q0 -74 -48.5 -122t-119.5 -48z" />
    <glyph glyph-name="ellipsis" unicode="&#x2026;" horiz-adv-x="938" 
d="M126 -14q-53 0 -87.5 34.5t-34.5 85.5q0 50 34.5 85t86.5 35q54 0 90.5 -35t36.5 -85q0 -51 -36 -85.5t-90 -34.5zM441 -14q-53 0 -87.5 34.5t-34.5 85.5q0 50 34.5 85t86.5 35q54 0 90.5 -35t36.5 -85q0 -51 -36 -85.5t-90 -34.5zM756 -14q-53 0 -87.5 34.5t-34.5 85.5
q0 50 34.5 85t86.5 35q54 0 90.5 -35t36.5 -85q0 -51 -36 -85.5t-90 -34.5z" />
    <glyph glyph-name="perthousand" unicode="&#x2030;" horiz-adv-x="1271" 
d="M212 524q0 -20 9.5 -33t29.5 -12q24 1 35.5 25.5t11.5 55.5q0 19 -9.5 31t-27.5 12q-24 0 -36.5 -23t-12.5 -56zM245 354q-82 0 -138 42t-56 120q0 89 59.5 148.5t155.5 59.5q79 0 135.5 -42.5t56.5 -119.5q0 -87 -59.5 -147.5t-153.5 -60.5zM95 0l592 715h109l-592 -715
h-109zM590 156q0 -20 9.5 -33t29.5 -12q24 1 35.5 25.5t11.5 55.5q0 19 -9.5 31t-27.5 12q-24 0 -36.5 -23t-12.5 -56zM623 -14q-82 0 -138 42t-56 120q0 88 60 148t155 60q79 0 135.5 -42.5t56.5 -119.5q0 -87 -59.5 -147.5t-153.5 -60.5zM1012 156q0 -20 9.5 -33t29.5 -12
q24 1 35.5 25.5t11.5 55.5q0 19 -9.5 31t-27.5 12q-24 0 -36.5 -23t-12.5 -56zM1045 -14q-82 0 -138 42t-56 120q0 88 60 148t155 60q79 0 135.5 -42.5t56.5 -119.5q0 -87 -59.5 -147.5t-153.5 -60.5z" />
    <glyph glyph-name="uni2032" unicode="&#x2032;" horiz-adv-x="269" 
d="M54 424l64 291h209l-112 -291h-161z" />
    <glyph glyph-name="uni2033" unicode="&#x2033;" horiz-adv-x="507" 
d="M54 424l64 291h209l-112 -291h-161zM292 424l64 291h209l-112 -291h-161z" />
    <glyph glyph-name="guilsinglleft" unicode="&#x2039;" horiz-adv-x="299" 
d="M108 63l-93 206l149 190h146l-146 -191l80 -205h-136z" />
    <glyph glyph-name="guilsinglright" unicode="&#x203a;" horiz-adv-x="299" 
d="M187 459l93 -206l-149 -190h-146l146 191l-80 205h136z" />
    <glyph glyph-name="fraction" unicode="&#x2044;" horiz-adv-x="196" 
d="M-254 0l618 715h109l-618 -715h-109z" />
    <glyph glyph-name="Euro" unicode="&#x20ac;" horiz-adv-x="743" 
d="M35 374l12 78h55q34 131 125 202.5t225 71.5q142 0 222 -69.5t78 -208.5h-246q0 40 -12.5 59.5t-49.5 19.5q-58 0 -84 -75h113l-25 -78h-105l-6 -38h99l-26 -78h-78q7 -69 69 -69q36 0 56.5 21.5t32.5 69.5h243q-54 -294 -345 -294q-143 0 -224 71.5t-86 200.5h-61l12 78
h52l6 38h-52z" />
    <glyph glyph-name="trademark" unicode="&#x2122;" horiz-adv-x="783" 
d="M361 394l51 321h149l23 -123l66 123h162l-51 -321h-135l23 148l-79 -148h-41l-31 148l-23 -148h-114zM122 394l34 216h-76l17 105h285l-17 -105h-76l-34 -216h-133z" />
    <glyph glyph-name="onethird" unicode="&#x2153;" horiz-adv-x="869" 
d="M112 322l37 231l-89 -42l21 134l119 70h142l-63 -393h-167zM50 0l618 715h109l-618 -715h-109zM641 -8q-87 0 -135.5 35.5t-49.5 109.5h146q0 -32 31 -32q27 0 27 26q0 21 -37 21h-30l14 88h37q36 0 36 26q0 21 -25 21q-27 0 -34 -30h-144q10 68 59.5 105t134.5 37
q31 0 58 -5t52 -16.5t40 -33.5t15 -53q0 -72 -81 -94q68 -15 68 -78q0 -64 -51.5 -95.5t-130.5 -31.5z" />
    <glyph glyph-name="twothirds" unicode="&#x2154;" horiz-adv-x="936" 
d="M15 322l4 20l149 133q73 64 86 88q5 9 5 16q0 22 -19 22q-26 0 -36 -46h-152q12 83 64.5 124.5t136.5 41.5q171 0 171 -122q0 -39 -26.5 -73.5t-79.5 -77.5l-11 -9h93l-19 -117h-366zM141 0l618 715h109l-618 -715h-109zM708 -8q-87 0 -135.5 35.5t-49.5 109.5h146
q0 -32 31 -32q27 0 27 26q0 21 -37 21h-30l14 88h37q36 0 36 26q0 21 -25 21q-27 0 -34 -30h-144q10 68 59.5 105t134.5 37q31 0 58 -5t52 -16.5t40 -33.5t15 -53q0 -72 -81 -94q68 -15 68 -78q0 -64 -51.5 -95.5t-130.5 -31.5z" />
    <glyph glyph-name="oneeighth" unicode="&#x215b;" horiz-adv-x="870" 
d="M112 322l37 231l-89 -42l21 134l119 70h142l-63 -393h-167zM53 0l618 715h109l-618 -715h-109zM641 -8q-82 0 -139 26.5t-57 86.5q0 43 21.5 67t64.5 38q-46 26 -46 68q0 62 51.5 91.5t124.5 29.5q74 0 124.5 -27t50.5 -82q0 -75 -65 -93q59 -21 59 -77q0 -68 -55.5 -98
t-133.5 -30zM639 100q14 0 23.5 8.5t9.5 22.5q0 27 -29 27q-14 0 -23.5 -8.5t-9.5 -23.5q0 -11 7.5 -18.5t21.5 -7.5zM656 239q13 0 22 8t9 22q0 12 -8 19t-20 7t-21 -8t-9 -22q0 -26 27 -26z" />
    <glyph glyph-name="threeeighths" unicode="&#x215c;" horiz-adv-x="938" 
d="M234 314q-87 0 -135.5 35.5t-49.5 109.5h146q0 -32 31 -32q27 0 27 26q0 21 -37 21h-30l14 88h37q36 0 36 26q0 21 -25 21q-27 0 -34 -30h-144q10 68 59.5 105t134.5 37q31 0 58 -5t52 -16.5t40 -33.5t15 -53q0 -72 -81 -94q68 -15 68 -78q0 -64 -51.5 -95.5
t-130.5 -31.5zM123 0l618 715h109l-618 -715h-109zM709 -8q-82 0 -139 26.5t-57 86.5q0 43 21.5 67t64.5 38q-46 26 -46 68q0 62 51.5 91.5t124.5 29.5q74 0 124.5 -27t50.5 -82q0 -75 -65 -93q59 -21 59 -77q0 -68 -55.5 -98t-133.5 -30zM707 100q14 0 23.5 8.5t9.5 22.5
q0 27 -29 27q-14 0 -23.5 -8.5t-9.5 -23.5q0 -11 7.5 -18.5t21.5 -7.5zM724 239q13 0 22 8t9 22q0 12 -8 19t-20 7t-21 -8t-9 -22q0 -26 27 -26z" />
    <glyph glyph-name="fiveeighths" unicode="&#x215d;" horiz-adv-x="912" 
d="M230 314q-77 0 -130 33t-55 104h155q2 -18 25 -18q11 0 19 7.5t8 22.5q0 25 -26 25q-20 0 -29 -21h-135l54 248h314l-18 -114h-202l-16 -73q37 56 112 56q51 0 80.5 -26.5t29.5 -78.5q0 -82 -50.5 -123.5t-135.5 -41.5zM102 0l618 715h109l-618 -715h-109zM683 -8
q-82 0 -139 26.5t-57 86.5q0 43 21.5 67t64.5 38q-46 26 -46 68q0 62 51.5 91.5t124.5 29.5q74 0 124.5 -27t50.5 -82q0 -75 -65 -93q59 -21 59 -77q0 -68 -55.5 -98t-133.5 -30zM681 100q14 0 23.5 8.5t9.5 22.5q0 27 -29 27q-14 0 -23.5 -8.5t-9.5 -23.5q0 -11 7.5 -18.5
t21.5 -7.5zM698 239q13 0 22 8t9 22q0 12 -8 19t-20 7t-21 -8t-9 -22q0 -26 27 -26z" />
    <glyph glyph-name="seveneighths" unicode="&#x215e;" horiz-adv-x="866" 
d="M71 322l142 264h-140l21 129h352l-3 -18l-203 -375h-169zM47 0l618 715h109l-618 -715h-109zM637 -8q-82 0 -139 26.5t-57 86.5q0 43 21.5 67t64.5 38q-46 26 -46 68q0 62 51.5 91.5t124.5 29.5q74 0 124.5 -27t50.5 -82q0 -75 -65 -93q59 -21 59 -77q0 -68 -55.5 -98
t-133.5 -30zM635 100q14 0 23.5 8.5t9.5 22.5q0 27 -29 27q-14 0 -23.5 -8.5t-9.5 -23.5q0 -11 7.5 -18.5t21.5 -7.5zM652 239q13 0 22 8t9 22q0 12 -8 19t-20 7t-21 -8t-9 -22q0 -26 27 -26z" />
    <glyph glyph-name="minus" unicode="&#x2212;" 
d="M36 253l27 172h524l-27 -172h-524z" />
    <glyph glyph-name="approxequal" unicode="&#x2248;" horiz-adv-x="620" 
d="M14 98q14 109 61 158.5t113 49.5q46 0 125.5 -19t98.5 -19q38 0 49 43h124q-10 -101 -58.5 -154.5t-114.5 -53.5q-46 0 -126 19t-99 19q-39 0 -49 -43h-124zM53 341q14 109 61 158.5t113 49.5q46 0 125.5 -19t98.5 -19q38 0 49 43h124q-10 -101 -58.5 -154.5
t-114.5 -53.5q-47 0 -126.5 19t-98.5 19q-39 0 -49 -43h-124z" />
    <glyph glyph-name="notequal" unicode="&#x2260;" horiz-adv-x="594" 
d="M52 357l23 148h253l47 93h136l-47 -93h129l-23 -148h-181l-29 -57h201l-23 -148h-253l-47 -93h-136l47 93h-129l23 148h181l29 57h-201z" />
    <glyph glyph-name="lessequal" unicode="&#x2264;" horiz-adv-x="517" 
d="M459 155l-404 242l7 41l478 230l-32 -205l-126 -53l109 -57zM-6 0l22 142h441l-22 -142h-441z" />
    <glyph glyph-name="greaterequal" unicode="&#x2265;" horiz-adv-x="517" 
d="M103 668l404 -242l-7 -41l-478 -230l32 205l126 53l-109 57zM-2 0l22 142h441l-22 -142h-441z" />
    <glyph glyph-name="uni24C5" unicode="&#x24c5;" horiz-adv-x="842" 
d="M279 156v407h175q175 0 175 -145v-2q0 -66 -41.5 -101.5t-124.5 -35.5h-33v-123h-151zM430 379h14q43 0 43 37v2q0 33 -42 33h-15v-72zM433 30q137 0 230.5 92t93.5 237q0 144 -92 235t-230 91q-140 0 -232 -91.5t-92 -236.5t93 -236t229 -91zM433 -25q-164 0 -278 110
t-114 272q0 160 114.5 271.5t279.5 111.5q167 0 279.5 -110.5t112.5 -270.5q0 -163 -114 -273.5t-280 -110.5z" />
    <glyph glyph-name="f_i" unicode="&#xfb01;" horiz-adv-x="715" 
d="M47 523h61l8 48q16 97 82 142t163 45q62 0 105 -15l-26 -164q-23 7 -44 7q-48 0 -56 -41l-4 -22h95l-23 -149h-95l-59 -374h-228l59 374h-61zM401 0l82 523h228l-82 -523h-228zM615 544q-52 0 -84.5 31t-32.5 79t33 79t85 31q51 0 84.5 -31t33.5 -79t-34 -79t-85 -31z
" />
    <glyph glyph-name="f_l" unicode="&#xfb02;" horiz-adv-x="712" 
d="M47 523h61l8 48q16 97 82 142t163 45q62 0 105 -15l-26 -164q-23 7 -44 7q-48 0 -56 -41l-4 -22h95l-23 -149h-95l-59 -374h-228l59 374h-61zM400 0l117 743h227l-117 -743h-227z" />
    <glyph glyph-name="space_uni0326" horiz-adv-x="400" 
d="M150 -236l-124 27l41 173h197z" />
    <glyph glyph-name="caron.alt" horiz-adv-x="400" 
d="M182 569l34 174h153l-77 -174h-110z" />
    <glyph glyph-name="space_uni0326.alt" horiz-adv-x="400" 
d="M264 762l124 -27l-41 -173h-197z" />
    <glyph glyph-name="grave.uc" horiz-adv-x="400" 
d="M208 753l-89 155h227l30 -155h-168z" />
    <glyph glyph-name="dieresis.uc" horiz-adv-x="400" 
d="M174 742q-43 0 -72.5 29t-29.5 70t29.5 70t72.5 29t73 -29t30 -70t-30 -70t-73 -29zM407 742q-43 0 -72 29t-29 70t29 70t72 29t73 -29t30 -70t-30 -70t-73 -29z" />
    <glyph glyph-name="macron.uc" horiz-adv-x="400" 
d="M103 764l20 129h351l-20 -129h-351z" />
    <glyph glyph-name="acute.uc" horiz-adv-x="400" 
d="M180 753l62 155h229l-118 -155h-173z" />
    <glyph glyph-name="circumflex.uc" horiz-adv-x="400" 
d="M68 753l135 155h189l93 -155h-159l-40 44l-50 -44h-168z" />
    <glyph glyph-name="caron.uc" horiz-adv-x="400" 
d="M505 908l-135 -155h-189l-93 155h159l40 -44l50 44h168z" />
    <glyph glyph-name="breve.uc" horiz-adv-x="400" 
d="M292 744q-87 0 -132 43t-46 121h140q2 -36 40 -36q36 0 42 36h142q-13 -80 -61.5 -122t-124.5 -42z" />
    <glyph glyph-name="dotaccent.uc" horiz-adv-x="400" 
d="M292 742q-50 0 -83 30t-33 76t33 76.5t83 30.5t83.5 -30.5t33.5 -76.5t-33.5 -76t-83.5 -30z" />
    <glyph glyph-name="ring.uc" horiz-adv-x="400" 
d="M294 812q19 0 31 13t12 34t-12 34t-31 13t-31 -13t-12 -34t12 -34t31 -13zM294 737q-52 0 -89 36t-37 86t37 86t89 36t89 -36t37 -86t-37 -86t-89 -36z" />
    <glyph glyph-name="tilde.uc" horiz-adv-x="400" 
d="M352 750q-36 0 -74 14.5t-49 14.5q-25 0 -30 -26h-123q14 87 54 129.5t95 42.5q33 0 72 -14.5t54 -14.5q23 0 31 26h123q-15 -86 -57.5 -129t-95.5 -43z" />
    <glyph glyph-name="hungarumlaut.uc" horiz-adv-x="400" 
d="M87 753l60 155h183l-93 -155h-150zM302 753l60 155h183l-93 -155h-150z" />
    <glyph glyph-name="idotaccent" horiz-adv-x="316" 
d="M216 544q-52 0 -84.5 31t-32.5 79t33 79t85 31q51 0 84.5 -31t33.5 -79t-34 -79t-85 -31zM2 0l82 523h228l-82 -523h-228z" />
    <glyph glyph-name="registered.alt" horiz-adv-x="842" 
d="M260 157v407h178q178 0 178 -137v-2q0 -72 -59 -106l83 -162h-155l-63 129h-12v-129h-150zM410 381h18q42 0 42 36v3q0 31 -41 31h-19v-70zM433 30q137 0 230.5 92t93.5 237q0 144 -92 235t-230 91q-140 0 -232 -91.5t-92 -236.5t93 -236t229 -91zM433 -25
q-164 0 -278 110t-114 272q0 160 114.5 271.5t279.5 111.5q167 0 279.5 -110.5t112.5 -270.5q0 -163 -114 -273.5t-280 -110.5z" />
    <glyph glyph-name="dollar.old" horiz-adv-x="638" 
d="M218 -131l19 123q-47 6 -85.5 21t-72.5 41t-53.5 69t-21.5 100h221q0 -48 39 -66l15 95q-123 24 -175 72t-52 135q0 114 85.5 179t212.5 67l14 84h85l-14 -89q215 -25 224 -218h-216q0 36 -35 51l-15 -95q116 -22 174 -67.5t58 -134.5q0 -121 -84 -184t-219 -65l-18 -118
h-86zM403 196q0 26 -42 38l-13 -85q55 6 55 47zM271 497q0 -32 40 -43l13 86q-53 -6 -53 -43z" />
    <glyph glyph-name="Euro.old" horiz-adv-x="721" 
d="M34 363l12 75h52q33 128 121.5 197t218.5 69q138 0 215.5 -67t75.5 -202h-238q0 39 -12.5 57.5t-47.5 18.5q-58 0 -82 -73h110l-24 -75h-102l-6 -37h96l-25 -76h-76q7 -67 67 -67q35 0 55 21t31 68h236q-52 -286 -335 -286q-138 0 -216.5 69.5t-84.5 194.5h-59l12 76h50
l3 18l3 19h-50z" />
    <glyph glyph-name="sterling.old" horiz-adv-x="668" 
d="M28 274l20 128h39q-4 34 -4 54q0 116 85 182t216 66q135 0 211.5 -60t75.5 -200h-237q1 37 -10 52.5t-37 15.5q-58 0 -58 -94v-16h163l-21 -128h-142q-3 -39 -19 -76q41 -9 60 -9q44 0 52 44h232q-14 -110 -77.5 -176t-172.5 -66q-59 0 -126.5 23t-81.5 23q-36 0 -43 -37
h-185q22 149 121 197q17 38 18 77h-79z" />
    <glyph glyph-name="yen.old" horiz-adv-x="662" 
d="M58 292l12 76h123l-122 326h273l36 -181l97 181h251l-218 -326h126l-11 -76h-155l-5 -37h153l-12 -76h-153l-28 -179h-260l28 179h-153l11 76h154l5 37h-152z" />
    <glyph glyph-name="zero.old" horiz-adv-x="690" 
d="M267 250q1 -40 17.5 -59.5t54.5 -19.5q39 0 59.5 29t30.5 92l3 19q5 37 5 58q0 80 -72 80q-38 0 -59 -29t-31 -92l-3 -19q-5 -27 -5 -59zM334 -14q-137 0 -225 70.5t-88 203.5q0 27 5 64l3 19q23 144 113.5 217t227.5 73q131 0 221 -71.5t91 -202.5q0 -35 -5 -63l-3 -19
q-47 -291 -340 -291z" />
    <glyph glyph-name="one.old" horiz-adv-x="460" 
d="M108 0l59 375l-129 -65l32 204l172 105h209l-98 -619h-245z" />
    <glyph glyph-name="two.old" horiz-adv-x="609" 
d="M-38 0l5 31l245 213l31 26q31 26 42.5 37.5l34 34t32 40t9.5 31.5q0 36 -43 36q-24 0 -42.5 -20.5t-26.5 -58.5h-222q19 126 101.5 194.5t212.5 68.5q129 0 198 -51.5t69 -141.5q0 -64 -38.5 -116t-121.5 -117l-42 -33h168l-27 -174h-585z" />
    <glyph glyph-name="three.old" horiz-adv-x="634" 
d="M296 -104q-144 0 -225.5 64t-79.5 192h223q3 -76 72 -76q29 1 48 18t19 47q0 53 -70 53h-59l24 147h62q76 0 76 67q0 49 -53 49q-60 0 -77 -74h-225q21 116 101.5 183t216.5 67q122 0 196 -49t74 -146q0 -64 -37 -107.5t-99 -61.5q110 -37 110 -146q0 -107 -85.5 -167
t-211.5 -60z" />
    <glyph glyph-name="four.old" horiz-adv-x="696" 
d="M292 -90l20 122h-343l13 83l364 504h304l-68 -428h88l-25 -159h-88l-20 -122h-245zM224 191h120l37 236z" />
    <glyph glyph-name="five.old" horiz-adv-x="635" 
d="M281 -104q-60 0 -111.5 14.5t-93 43t-65 77.5t-22.5 112h231q3 -64 65 -64q30 0 50 22t20 55q0 65 -78 65q-60 0 -96 -45h-159l93 443h508l-30 -187h-330l-27 -128q68 80 176 80q88 0 139.5 -54t51.5 -144q0 -137 -87.5 -213.5t-234.5 -76.5z" />
    <glyph glyph-name="six.old" horiz-adv-x="671" 
d="M333 -13q-141 0 -223.5 70t-84.5 205q0 44 9 102l6 36q26 155 122 240.5t241 85.5q121 0 196 -54.5t74 -173.5h-231q-4 44 -49 44q-41 0 -66 -40.5t-41 -125.5q56 80 168 80q85 0 141.5 -51t56.5 -144q0 -133 -90 -203.5t-229 -70.5zM275 225q-1 -27 15.5 -44.5
t45.5 -17.5q31 0 52 23t21 59q0 27 -16 43.5t-44 16.5q-31 0 -52 -22.5t-22 -57.5z" />
    <glyph glyph-name="seven.old" horiz-adv-x="596" 
d="M29 -90l263 506h-252l33 203h577l-5 -26l-351 -683h-265z" />
    <glyph glyph-name="eight.old" horiz-adv-x="683" 
d="M267 222q0 -29 17 -45t47 -16t50.5 20t20.5 55q0 28 -17 43.5t-46 15.5q-30 0 -51 -19t-21 -54zM318 492q0 -24 15 -40t42 -16t46 17.5t19 47.5q0 25 -16 41t-41 16q-26 0 -45.5 -18t-19.5 -48zM321 -14q-132 0 -219.5 51.5t-87.5 151.5q0 145 156 191q-77 42 -77 126
q0 73 42.5 124t107.5 73.5t144 22.5q51 0 98 -10t90 -31.5t68.5 -61.5t25.5 -94q0 -56 -33.5 -99.5t-88.5 -65.5q49 -20 74 -57.5t25 -85.5q0 -116 -87.5 -175.5t-237.5 -59.5z" />
    <glyph glyph-name="nine.old" horiz-adv-x="671" 
d="M354 633q145 0 224 -73t81 -210q0 -37 -10 -99l-6 -36q-26 -157 -121.5 -239t-245.5 -82q-121 0 -199.5 57t-77.5 176h233q3 -49 54 -49q46 0 70.5 39.5t41.5 126.5q-56 -80 -168 -80q-86 0 -142 49t-56 141q0 129 90.5 204t231.5 75zM409 395q1 27 -15.5 44.5
t-45.5 17.5q-31 0 -52 -23t-21 -59q0 -27 16 -43.5t44 -16.5q31 0 52 22.5t22 57.5z" />
    <glyph glyph-name="dollar.tab" 
d="M199 -135l20 127q-102 14 -162 71.5t-52 166.5h206q-3 -51 35 -66l15 94q-111 24 -161 74.5t-50 138.5q0 117 80 185.5t205 69.5l14 87h79l-15 -92q205 -25 204 -224h-202q-1 37 -29 49l-15 -94q101 -21 157 -70t56 -138q0 -122 -77.5 -188.5t-209.5 -68.5l-19 -122h-79z
M373 203q0 27 -36 39l-13 -86q49 7 49 47zM259 509q0 -28 35 -41l14 86q-49 -6 -49 -45z" />
    <glyph glyph-name="Euro.tab" 
d="M27 376l12 78h41q24 138 99 205.5t191 66.5q128 -1 192 -65t51 -189h-210q3 32 -4.5 48t-34.5 16q-24 0 -37 -18.5t-21 -63.5h106l-25 -78h-93l-6 -38h87l-25 -78h-75q-2 -23 -2 -41.5t11 -30t33 -11.5q24 0 36.5 15.5t17.5 55.5h207q-18 -136 -87.5 -199t-189.5 -63
q-134 0 -198 72.5t-53 201.5h-41l12 78h41l6 38h-41z" />
    <glyph glyph-name="sterling.tab" 
d="M18 285l20 126h39q-5 32 -5 63q0 119 76.5 185.5t200.5 66.5q140 0 203.5 -63.5t50.5 -199.5h-210q4 36 -7.5 50.5t-35.5 14.5q-23 0 -35.5 -16.5t-15 -35t-2.5 -46.5v-19h139l-20 -126h-118q-4 -42 -19 -81q30 -7 46 -7q44 0 51 43h213q-16 -121 -76.5 -185t-158.5 -64
q-53 0 -105.5 23.5t-65.5 23.5q-32 0 -38 -38h-176q21 142 102 195q21 47 24 90h-77z" />
    <glyph glyph-name="yen.tab" 
d="M39 301l13 78h130l-106 336h252l26 -156l75 156h237l-213 -336h140l-13 -78h-146l-6 -38h146l-12 -78h-146l-29 -185h-257l29 185h-138l12 78h138l6 38h-138z" />
    <glyph glyph-name="zero.tab" 
d="M258 279q-6 -44 -6 -54q0 -45 39 -45q24 0 34 20t19 74l26 161q6 36 6 57q0 44 -37 44q-24 0 -35 -21t-20 -74zM272 -14q-116 0 -183.5 60t-67.5 177q0 33 6 71l26 163q21 131 100 200t199 69q114 0 184.5 -61t70.5 -175q0 -36 -5 -65l-26 -162q-22 -136 -99.5 -206.5
t-204.5 -70.5z" />
    <glyph glyph-name="one.tab" 
d="M180 0l72 453l-170 -92l35 220l215 134h227l-113 -715h-266z" />
    <glyph glyph-name="two.tab" 
d="M-23 0l5 34l229 256q4 5 26.5 29.5t34 36.5t31 36.5t29.5 40.5t18.5 35.5t8.5 34.5q0 35 -30 35q-20 0 -30.5 -20.5t-21.5 -79.5h-235q20 145 97 216.5t219 71.5q110 0 180.5 -47.5t72.5 -150.5q1 -76 -42 -141t-145 -160l-34 -32h171l-30 -195h-554z" />
    <glyph glyph-name="three.tab" 
d="M294 -14q-139 0 -215.5 59t-70.5 203h221q0 -41 10.5 -59.5t42.5 -18.5q56 0 56 66q0 47 -51 47h-55l25 153h60q63 0 63 66q0 41 -44 41q-52 0 -64 -72h-224q23 124 98 189.5t202 65.5q50 0 93.5 -9.5t82.5 -30t61.5 -59.5t22.5 -92q0 -66 -34.5 -110.5t-94.5 -61.5
q47 -13 73.5 -49t26.5 -88q0 -111 -77.5 -175.5t-207.5 -64.5z" />
    <glyph glyph-name="four.tab" 
d="M244 0l20 130h-279l15 92l303 493h284l-66 -417h66l-27 -168h-66l-20 -130h-230zM208 298h89l34 213z" />
    <glyph glyph-name="five.tab" 
d="M277 -14q-136 0 -203.5 63.5t-56.5 191.5h218q-2 -29 8.5 -43t37.5 -14q55 0 55 79q0 56 -61 56q-56 0 -82 -45h-155l90 441h476l-29 -184h-302l-29 -134q61 87 163 87q81 0 126 -49t45 -143q0 -143 -78 -224.5t-223 -81.5z" />
    <glyph glyph-name="six.tab" 
d="M297 -14q-125 0 -199.5 63.5t-74.5 188.5q0 38 9 92l13 85q25 155 110.5 233t213.5 78q125 0 185.5 -55.5t56.5 -172.5h-212q2 25 -6.5 37.5t-32.5 12.5q-69 0 -92 -158q53 74 139 74q79 0 127 -50t48 -142q0 -129 -77.5 -207.5t-207.5 -78.5zM243 233q0 -25 14.5 -42.5
t40.5 -17.5q29 0 46.5 20t17.5 54q0 26 -14 42t-39 16q-28 0 -47 -19.5t-19 -52.5z" />
    <glyph glyph-name="seven.tab" 
d="M39 0l258 506h-236l33 209h562l-4 -26l-347 -689h-266z" />
    <glyph glyph-name="eight.tab" 
d="M287 -14q-53 0 -100 9.5t-90 30.5t-68 61t-25 95q0 144 141 197q-70 45 -70 120q0 107 78.5 167t190.5 60q66 0 120.5 -17t93.5 -61t39 -111q0 -119 -109 -173q89 -45 89 -137q0 -118 -82 -179.5t-208 -61.5zM235 223q0 -25 15 -39.5t41 -14.5q28 0 47 20t19 53
q0 54 -56 54q-28 -1 -47 -20.5t-19 -52.5zM278 487q0 -23 13 -38t38 -15t43 18.5t18 47.5q0 23 -13.5 37.5t-37.5 14.5q-26 0 -43.5 -18.5t-17.5 -46.5z" />
    <glyph glyph-name="nine.tab" 
d="M335 727q124 0 197 -62.5t73 -189.5q0 -38 -9 -92l-13 -85q-27 -166 -105 -238.5t-223 -72.5q-123 0 -186 57t-60 172h214q0 -51 43 -51q39 0 61 38t33 120q-53 -74 -139 -74q-79 0 -127 50t-48 142q0 123 78 204.5t211 81.5zM386 483q0 25 -15 42.5t-41 17.5
q-29 0 -47 -20.5t-18 -53.5q0 -26 14 -42t40 -16q28 0 47.5 19.5t19.5 52.5z" />
    <glyph glyph-name="cent.tab" 
d="M220 -135l20 125q-98 13 -160 72t-63 157q-1 137 84 226.5t226 92.5l14 91h66l-15 -94q193 -26 199 -227h-197q0 48 -28 62l-37 -231q49 11 63 76h189q-9 -102 -82 -164t-194 -65l-19 -121h-66zM233 222q0 -58 31 -77l36 227q-67 -24 -67 -150z" />
    <glyph glyph-name="percent.tab" horiz-adv-x="800" 
d="M210 541q0 -20 7.5 -31.5t26.5 -10.5q42 1 42 73q0 40 -33 40q-43 0 -43 -71zM239 383q-77 0 -128 37.5t-51 110.5q0 83 54.5 138t143.5 55q73 0 125 -39.5t52 -110.5q0 -81 -54.5 -136t-141.5 -55zM67 0l592 715h109l-592 -715h-109zM543 144q0 -20 7.5 -31.5
t26.5 -10.5q42 1 42 73q0 40 -33 40q-43 0 -43 -71zM572 -14q-77 0 -128 37.5t-51 110.5q0 83 54.5 138t143.5 55q73 0 125 -39.5t52 -110.5q0 -81 -54.5 -136t-141.5 -55z" />
    <glyph glyph-name="perthousand.tab" horiz-adv-x="1000" 
d="M176 525q0 -36 26 -36q39 0 39 97q0 36 -25 36q-23 0 -31.5 -31.5t-8.5 -65.5zM194 383q-69 0 -110.5 37.5t-41.5 105.5q0 85 49 141.5t133 56.5q65 0 107.5 -38.5t42.5 -104.5q0 -88 -48.5 -143t-131.5 -55zM-11 0l600 715h105l-600 -715h-105zM439 128q0 -36 26 -36
q39 0 39 97q0 36 -25 36q-23 0 -31.5 -31.5t-8.5 -65.5zM457 -14q-69 0 -110.5 37.5t-41.5 105.5q0 85 49 141.5t133 56.5q65 0 107.5 -38.5t42.5 -104.5q0 -88 -48.5 -143t-131.5 -55zM787 128q0 -36 26 -36q39 0 39 97q0 36 -25 36q-23 0 -31.5 -31.5t-8.5 -65.5zM805 -14
q-69 0 -110.5 37.5t-41.5 105.5q0 85 49 141.5t133 56.5q65 0 107.5 -38.5t42.5 -104.5q0 -88 -48.5 -143t-131.5 -55z" />
    <glyph glyph-name="plus.tab" 
d="M182 82l27 176h-161l26 162h161l28 176h180l-28 -176h159l-26 -162h-159l-27 -176h-180z" />
    <glyph glyph-name="minus.tab" 
d="M46 253l27 172h504l-27 -172h-504z" />
    <glyph glyph-name="multiply.tab" 
d="M18 188l174 151l-130 154l134 119l132 -156l174 151l103 -119l-175 -152l131 -153l-135 -119l-132 155l-173 -150z" />
    <glyph glyph-name="divide.tab" 
d="M47 263l24 152h504l-24 -152h-504zM286 19q-48 0 -78.5 30.5t-30.5 76.5q0 45 30.5 76t77.5 31q48 0 80.5 -31t32.5 -76t-32 -76t-80 -31zM334 445q-48 0 -78.5 30.5t-30.5 76.5q0 45 30.5 76t77.5 31q48 0 80.5 -31t32.5 -76t-32 -76t-80 -31z" />
    <glyph glyph-name="equal.tab" 
d="M33 152l23 148h498l-23 -148h-498zM65 357l23 148h498l-23 -148h-498z" />
    <glyph glyph-name="less.tab" 
d="M503 41l-429 267l7 43l511 253l-33 -209l-194 -74l169 -86z" />
    <glyph glyph-name="greater.tab" 
d="M115 605l429 -267l-7 -43l-511 -253l33 209l194 74l-169 86z" />
    <glyph glyph-name="florin.tab" 
d="M75 266l23 149h96l19 103q39 207 270 207q62 0 99 -11l-27 -167q-22 5 -49 5q-61 0 -72 -60l-15 -77h118l-23 -149h-122l-84 -448h-226l84 448h-91z" />
    <glyph glyph-name="plusminus.tab" 
d="M198 192l25 156h-170l25 162h170l25 156h180l-25 -156h170l-25 -162h-170l-25 -156h-180zM-2 0l22 142h524l-22 -142h-524z" />
    <glyph glyph-name="notequal.tab" 
d="M55 357l23 148h253l47 93h136l-47 -93h129l-23 -148h-181l-29 -57h201l-23 -148h-253l-47 -93h-136l47 93h-129l23 148h181l29 57h-201z" />
    <glyph glyph-name="approxequal.tab" 
d="M5 98q14 109 61 158.5t113 49.5q46 0 125.5 -19t98.5 -19q38 0 49 43h124q-10 -101 -58.5 -154.5t-114.5 -53.5q-47 0 -126 19t-99 19q-39 0 -49 -43h-124zM44 341q14 109 61 158.5t113 49.5q46 0 125.5 -19t98.5 -19q38 0 49 43h124q-10 -101 -58.5 -154.5t-114.5 -53.5
q-46 0 -126 19t-99 19q-39 0 -49 -43h-124z" />
    <glyph glyph-name="lessequal.tab" 
d="M500 155l-404 242l7 41l478 230l-32 -205l-126 -53l109 -57zM35 0l22 142h441l-22 -142h-441z" />
    <glyph glyph-name="greaterequal.tab" 
d="M144 668l404 -242l-7 -41l-478 -230l32 205l126 53l-109 57zM39 0l22 142h441l-22 -142h-441z" />
    <glyph glyph-name="parenleft.tab" horiz-adv-x="300" 
d="M263 -148h-143q-99 168 -99 344q0 320 233 580h155q-197 -290 -197 -602q0 -183 51 -322z" />
    <glyph glyph-name="parenright.tab" horiz-adv-x="300" 
d="M51 776h143q99 -168 99 -344q0 -320 -233 -580h-155q197 290 197 602q0 183 -51 322z" />
    <glyph glyph-name="bracketleft.tab" horiz-adv-x="300" 
d="M-33 -148l146 924h261l-22 -144h-60l-101 -636h60l-23 -144h-261z" />
    <glyph glyph-name="bracketright.tab" horiz-adv-x="300" 
d="M-59 -148l22 144h60l101 636h-60l22 144h261l-146 -924h-260z" />
    <glyph glyph-name="braceleft.tab" horiz-adv-x="300" 
d="M228 -148q-108 3 -165 35.5t-63 89.5t26 137l30 72q28 64 -50 68l22 136q40 -2 55 13.5t13 48.5l-7 91q-10 129 57.5 181t227.5 52l-23 -145q-40 -2 -53 -15.5t-12 -49.5l3 -102q2 -60 -27 -95.5t-98 -52.5q124 -39 72 -173l-27 -70q-15 -36 -6.5 -53.5t48.5 -22.5z" />
    <glyph glyph-name="braceright.tab" horiz-adv-x="300" 
d="M86 776q108 -3 165 -35.5t63 -89.5t-26 -137l-30 -72q-28 -64 50 -68l-22 -136q-40 2 -55 -13.5t-13 -48.5l7 -91q10 -129 -57.5 -181t-227.5 -52l23 145q40 2 53 15.5t12 49.5l-3 102q-2 60 27 95.5t98 52.5q-123 39 -71 173l27 70q15 36 6 53.5t-49 22.5z" />
    <glyph glyph-name="period.tab" horiz-adv-x="300" 
d="M123 -14q-53 0 -87.5 34.5t-34.5 85.5q0 50 34.5 85t86.5 35q54 0 90.5 -35t36.5 -85q0 -51 -36 -85.5t-90 -34.5z" />
    <glyph glyph-name="comma.tab" horiz-adv-x="300" 
d="M73 -124l-124 52l101 284l200 -70z" />
    <glyph glyph-name="colon.tab" horiz-adv-x="300" 
d="M122 -14q-53 0 -87.5 34.5t-34.5 85.5q0 50 34.5 85t86.5 35q54 0 90.5 -35t36.5 -85q0 -51 -36 -85.5t-90 -34.5zM167 266q-53 0 -87.5 34.5t-34.5 85.5q0 50 34.5 85t86.5 35q54 0 90.5 -35t36.5 -85q0 -51 -36 -85.5t-90 -34.5z" />
    <glyph glyph-name="semicolon.tab" horiz-adv-x="300" 
d="M168 266q-53 0 -87.5 34.5t-34.5 85.5q0 50 34.5 85t86.5 35q54 0 90.5 -35t36.5 -85q0 -51 -36 -85.5t-90 -34.5zM60 -124l-124 52l101 284l200 -70z" />
    <glyph glyph-name="space.tab" horiz-adv-x="300" 
 />
    <glyph glyph-name="dollar.oldtab" 
d="M202 -131l19 123q-99 14 -156.5 70t-49.5 161h200q-3 -49 33 -64l14 91q-107 24 -155.5 73t-48.5 134q0 113 77.5 179t197.5 68l14 85h77l-14 -89q199 -25 198 -218h-195q-1 36 -30 48l-15 -91q99 -20 153.5 -67.5t54.5 -134.5q0 -119 -75.5 -183.5t-203.5 -66.5
l-18 -118h-77zM372 197q0 26 -36 38l-13 -84q49 5 49 46zM261 494q0 -26 33 -39l13 81q-46 -6 -46 -42z" />
    <glyph glyph-name="Euro.oldtab" 
d="M33 364l12 76h40q24 134 95.5 199.5t185.5 64.5q125 -1 186.5 -62.5t49.5 -183.5h-204q3 31 -4.5 46.5t-33.5 15.5q-24 0 -36 -18t-20 -62h103l-25 -76h-90l-6 -36h85l-25 -76h-72q-5 -39 2 -59.5t38 -20.5q24 0 36 15t17 54h201q-34 -255 -269 -255q-130 0 -192 70.5
t-51 195.5h-41l12 76h40l6 36h-40z" />
    <glyph glyph-name="sterling.oldtab" 
d="M28 276l20 123h37q-4 24 -4 61q0 115 74 179.5t195 64.5q135 0 196.5 -61.5t49.5 -193.5h-204q4 36 -7 49.5t-35 13.5q-22 0 -34 -16t-14.5 -34t-2.5 -45v-18h135l-19 -123h-115q-5 -47 -19 -78q30 -7 45 -7q43 0 50 42h206q-15 -118 -74 -180t-154 -62q-52 0 -102.5 23
t-62.5 23q-31 0 -37 -37h-171q19 137 98 189q21 45 24 87h-75z" />
    <glyph glyph-name="yen.oldtab" 
d="M50 312l12 76h125l-108 306h253l28 -147l74 147h221l-202 -306h134l-12 -76h-142l-6 -37h142l-12 -76h-142l-31 -199h-249l31 199h-134l12 76h134l5 37h-133z" />
    <glyph glyph-name="zero.oldtab" 
d="M253 223q0 -43 39 -43q23 0 33 19.5t18 70.5l11 71q7 42 7 61q0 41 -37 41q-23 0 -34.5 -20t-19.5 -71l-11 -71q-6 -34 -6 -58zM284 -14q-122 0 -192.5 60t-70.5 177q0 35 6 72l11 71q20 131 96.5 199t195.5 68q121 0 191.5 -61.5t70.5 -177.5q0 -35 -5 -64l-11 -71
q-42 -273 -292 -273z" />
    <glyph glyph-name="one.oldtab" 
d="M191 0l59 374l-176 -97l32 205l219 137h209l-98 -619h-245z" />
    <glyph glyph-name="two.oldtab" 
d="M-23 0l5 31l234 210q39 35 62 57t48 56.5t25 57.5q0 37 -36 37q-45 0 -60 -79h-222q43 263 306 263q110 0 184.5 -46.5t74.5 -142.5q0 -72 -38.5 -124.5t-112.5 -112.5l-41 -33h156l-27 -174h-558z" />
    <glyph glyph-name="three.oldtab" 
d="M277 -105q-142 0 -219 65.5t-70 191.5h224q-1 -39 10.5 -58t44.5 -19q54 0 56 66q1 23 -13.5 38t-41.5 15h-54l24 147h59q68 0 68 70q0 46 -45 46q-27 0 -42.5 -17t-22.5 -57h-223q17 121 93 185.5t203 64.5q50 0 94 -9t84 -29.5t63.5 -59.5t23.5 -92q0 -65 -34.5 -110.5
t-98.5 -62.5q101 -30 101 -143q0 -111 -80.5 -171.5t-203.5 -60.5z" />
    <glyph glyph-name="four.oldtab" 
d="M229 -90l20 122h-279l12 81l304 506h286l-69 -430h66l-24 -157h-66l-20 -122h-230zM186 189h93l37 229z" />
    <glyph glyph-name="five.oldtab" 
d="M270 -104q-133 0 -208 65t-63 182h218q-5 -65 50 -65q58 0 58 84q0 61 -64 61q-52 0 -81 -46h-154l90 442h471l-30 -184h-297l-28 -135q61 89 158 89q79 0 125.5 -50t46.5 -147q0 -136 -73 -216t-219 -80z" />
    <glyph glyph-name="six.oldtab" 
d="M307 -14q-128 0 -204.5 66.5t-76.5 204.5q0 29 7 74l13 85q22 147 110.5 228.5t222.5 81.5q115 0 180.5 -54.5t56.5 -173.5h-213q5 50 -39 50q-38 0 -60.5 -40.5t-36.5 -127.5q49 75 148 75q79 0 124.5 -49.5t45.5 -134.5q0 -131 -74.5 -208t-203.5 -77zM245 227
q0 -28 15.5 -45.5t44.5 -17.5q31 0 50 22.5t20 57.5q1 28 -15 44.5t-45 16.5q-30 0 -50 -22t-20 -56z" />
    <glyph glyph-name="seven.oldtab" 
d="M24 -90l256 506h-234l33 203h559l-5 -26l-344 -683h-265z" />
    <glyph glyph-name="eight.oldtab" 
d="M287 -14q-76 0 -138 19.5t-104.5 65.5t-42.5 114q0 143 144 195q-72 45 -72 126q0 104 78.5 162t191.5 58q49 0 92 -10t80 -31.5t58.5 -60t21.5 -89.5q0 -127 -112 -173q93 -44 93 -148q0 -113 -82.5 -170.5t-207.5 -57.5zM232 217q0 -56 59 -56q29 0 47 20.5t18 54.5
q0 58 -57 58q-29 0 -48 -21.5t-19 -55.5zM277 491q0 -24 14 -39t38 -15q26 0 43.5 18t17.5 49q0 23 -14 39t-39 16t-42.5 -19.5t-17.5 -48.5z" />
    <glyph glyph-name="nine.oldtab" 
d="M317 633q126 0 198 -63.5t72 -194.5q0 -39 -7 -85l-13 -85q-25 -162 -102.5 -237t-216.5 -75q-55 0 -100.5 12t-83 38.5t-57 73t-16.5 110.5h213q-4 -56 44 -56q38 0 61 40.5t37 127.5q-49 -75 -146 -75q-79 0 -125.5 50.5t-46.5 135.5q0 130 79.5 206.5t209.5 76.5z
M368 395q0 28 -15.5 45.5t-44.5 17.5q-31 0 -50 -22.5t-20 -57.5q-1 -28 15 -44.5t45 -16.5q30 0 50 22t20 56z" />
    <glyph glyph-name="zero.num" horiz-adv-x="459" 
d="M222 490q0 -51 39 -51q22 0 35 21.5t16.5 43.5t3.5 44q0 50 -39 50q-16 0 -28 -12t-17.5 -30.5t-7.5 -34.5t-2 -31zM253 314q-88 0 -142 43.5t-54 125.5q0 105 62 171.5t167 66.5q88 0 141.5 -43t53.5 -125q0 -107 -61.5 -173t-166.5 -66z" />
    <glyph glyph-name="one.num" horiz-adv-x="315" 
d="M109 322l37 231l-89 -42l21 134l119 70h142l-63 -393h-167z" />
    <glyph glyph-name="two.num" horiz-adv-x="388" 
d="M12 322l4 20l149 133q73 64 86 88q5 9 5 16q0 22 -19 22q-26 0 -36 -46h-152q12 83 64.5 124.5t136.5 41.5q171 0 171 -122q0 -39 -26.5 -73.5t-79.5 -77.5l-11 -9h93l-19 -117h-366z" />
    <glyph glyph-name="three.num" horiz-adv-x="406" 
d="M231 314q-87 0 -135.5 35.5t-49.5 109.5h146q0 -32 31 -32q27 0 27 26q0 21 -37 21h-30l14 88h37q36 0 36 26q0 21 -25 21q-27 0 -34 -30h-144q10 68 59.5 105t134.5 37q31 0 58 -5t52 -16.5t40 -33.5t15 -53q0 -72 -81 -94q68 -15 68 -78q0 -64 -51.5 -95.5
t-130.5 -31.5z" />
    <glyph glyph-name="four.num" horiz-adv-x="434" 
d="M212 322l11 70h-194l10 62l199 261h198l-34 -216h49l-17 -107h-49l-11 -70h-162zM185 499h61l17 106z" />
    <glyph glyph-name="five.num" horiz-adv-x="400" 
d="M227 314q-77 0 -130 33t-55 104h155q2 -18 25 -18q11 0 19 7.5t8 22.5q0 25 -26 25q-20 0 -29 -21h-135l54 248h314l-18 -114h-202l-16 -73q37 56 112 56q51 0 80.5 -26.5t29.5 -78.5q0 -82 -50.5 -123.5t-135.5 -41.5z" />
    <glyph glyph-name="six.num" horiz-adv-x="428" 
d="M254 314q-90 0 -143.5 40.5t-53.5 125.5q0 26 4 49l2 12q13 83 73 131.5t146 48.5q170 0 173 -132h-152q-3 17 -24 17q-37 0 -51 -70q32 39 92 39q54 0 87.5 -27t33.5 -78q0 -78 -53 -117t-134 -39zM224 450q0 -28 27 -28q14 0 22.5 9.5t8.5 26.5q0 28 -27 28
q-13 0 -22 -9.5t-9 -26.5z" />
    <glyph glyph-name="seven.num" horiz-adv-x="382" 
d="M68 322l142 264h-140l21 129h352l-3 -18l-203 -375h-169z" />
    <glyph glyph-name="eight.num" horiz-adv-x="415" 
d="M239 314q-82 0 -139 26.5t-57 86.5q0 43 21.5 67t64.5 38q-46 26 -46 68q0 62 51.5 91.5t124.5 29.5q74 0 124.5 -27t50.5 -82q0 -75 -65 -93q59 -21 59 -77q0 -68 -55.5 -98t-133.5 -30zM237 422q14 0 23.5 8.5t9.5 22.5q0 27 -29 27q-14 0 -23.5 -8.5t-9.5 -23.5
q0 -11 7.5 -18.5t21.5 -7.5zM254 561q13 0 22 8t9 22q0 12 -8 19t-20 7t-21 -8t-9 -22q0 -26 27 -26z" />
    <glyph glyph-name="nine.num" horiz-adv-x="428" 
d="M255 721q89 0 141 -40.5t52 -125.5q0 -26 -4 -49l-2 -12q-28 -180 -219 -180q-166 0 -173 131h152q3 -16 24 -16q40 0 51 70q-32 -39 -92 -39q-55 0 -88 27t-33 80q0 75 54.5 114.5t136.5 39.5zM281 585q0 28 -27 28q-14 0 -22.5 -9.5t-8.5 -26.5q0 -28 27 -28
q13 0 22 9.5t9 26.5z" />
    <glyph glyph-name="zero.den" horiz-adv-x="459" 
d="M172 168q0 -51 39 -51q22 0 35 21.5t16.5 43.5t3.5 44q0 50 -39 50q-16 0 -28 -12t-17.5 -30.5t-7.5 -34.5t-2 -31zM203 -8q-88 0 -142 43.5t-54 125.5q0 105 62 171.5t167 66.5q88 0 141.5 -43t53.5 -125q0 -107 -61.5 -173t-166.5 -66z" />
    <glyph glyph-name="one.den" horiz-adv-x="315" 
d="M59 0l37 231l-89 -42l21 134l119 70h142l-63 -393h-167z" />
    <glyph glyph-name="two.den" horiz-adv-x="388" 
d="M-38 0l4 20l149 133q73 64 86 88q5 9 5 16q0 22 -19 22q-26 0 -36 -46h-152q12 83 64.5 124.5t136.5 41.5q171 0 171 -122q0 -39 -26.5 -73.5t-79.5 -77.5l-11 -9h93l-19 -117h-366z" />
    <glyph glyph-name="three.den" horiz-adv-x="406" 
d="M181 -8q-87 0 -135.5 35.5t-49.5 109.5h146q0 -32 31 -32q27 0 27 26q0 21 -37 21h-30l14 88h37q36 0 36 26q0 21 -25 21q-27 0 -34 -30h-144q10 68 59.5 105t134.5 37q31 0 58 -5t52 -16.5t40 -33.5t15 -53q0 -72 -81 -94q68 -15 68 -78q0 -64 -51.5 -95.5t-130.5 -31.5
z" />
    <glyph glyph-name="four.den" horiz-adv-x="434" 
d="M162 0l11 70h-194l10 62l199 261h198l-34 -216h49l-17 -107h-49l-11 -70h-162zM135 177h61l17 106z" />
    <glyph glyph-name="five.den" horiz-adv-x="400" 
d="M177 -8q-77 0 -130 33t-55 104h155q2 -18 25 -18q11 0 19 7.5t8 22.5q0 25 -26 25q-20 0 -29 -21h-135l54 248h314l-18 -114h-202l-16 -73q37 56 112 56q51 0 80.5 -26.5t29.5 -78.5q0 -82 -50.5 -123.5t-135.5 -41.5z" />
    <glyph glyph-name="six.den" horiz-adv-x="428" 
d="M204 -8q-90 0 -143.5 40.5t-53.5 125.5q0 26 4 49l2 12q13 83 73 131.5t146 48.5q170 0 173 -132h-152q-3 17 -24 17q-37 0 -51 -70q32 39 92 39q54 0 87.5 -27t33.5 -78q0 -78 -53 -117t-134 -39zM174 128q0 -28 27 -28q14 0 22.5 9.5t8.5 26.5q0 28 -27 28
q-13 0 -22 -9.5t-9 -26.5z" />
    <glyph glyph-name="seven.den" horiz-adv-x="382" 
d="M18 0l142 264h-140l21 129h352l-3 -18l-203 -375h-169z" />
    <glyph glyph-name="eight.den" horiz-adv-x="415" 
d="M189 -8q-82 0 -139 26.5t-57 86.5q0 43 21.5 67t64.5 38q-46 26 -46 68q0 62 51.5 91.5t124.5 29.5q74 0 124.5 -27t50.5 -82q0 -75 -65 -93q59 -21 59 -77q0 -68 -55.5 -98t-133.5 -30zM187 100q14 0 23.5 8.5t9.5 22.5q0 27 -29 27q-14 0 -23.5 -8.5t-9.5 -23.5
q0 -11 7.5 -18.5t21.5 -7.5zM204 239q13 0 22 8t9 22q0 12 -8 19t-20 7t-21 -8t-9 -22q0 -26 27 -26z" />
    <glyph glyph-name="nine.den" horiz-adv-x="428" 
d="M205 399q89 0 141 -40.5t52 -125.5q0 -26 -4 -49l-2 -12q-28 -180 -219 -180q-166 0 -173 131h152q3 -16 24 -16q40 0 51 70q-32 -39 -92 -39q-55 0 -88 27t-33 80q0 75 54.5 114.5t136.5 39.5zM231 263q0 28 -27 28q-14 0 -22.5 -9.5t-8.5 -26.5q0 -28 27 -28
q13 0 22 9.5t9 26.5z" />
    <glyph glyph-name="zero.sub" horiz-adv-x="459" 
d="M150 31q0 -51 39 -51q22 0 35 21.5t16.5 43.5t3.5 44q0 50 -39 50q-16 0 -28 -12t-17.5 -30.5t-7.5 -34.5t-2 -31zM181 -145q-88 0 -142 43.5t-54 125.5q0 105 62 171.5t167 66.5q88 0 141.5 -43t53.5 -125q0 -107 -61.5 -173t-166.5 -66z" />
    <glyph glyph-name="one.sub" horiz-adv-x="315" 
d="M37 -137l37 231l-89 -42l21 134l119 70h142l-63 -393h-167z" />
    <glyph glyph-name="two.sub" horiz-adv-x="388" 
d="M-60 -137l4 20l149 133q73 64 86 88q5 9 5 16q0 22 -19 22q-26 0 -36 -46h-152q12 83 64.5 124.5t136.5 41.5q171 0 171 -122q0 -39 -26.5 -73.5t-79.5 -77.5l-11 -9h93l-19 -117h-366z" />
    <glyph glyph-name="three.sub" horiz-adv-x="406" 
d="M159 -145q-87 0 -135.5 35.5t-49.5 109.5h146q0 -32 31 -32q27 0 27 26q0 21 -37 21h-30l14 88h37q36 0 36 26q0 21 -25 21q-27 0 -34 -30h-144q10 68 59.5 105t134.5 37q31 0 58 -5t52 -16.5t40 -33.5t15 -53q0 -72 -81 -94q68 -15 68 -78q0 -64 -51.5 -95.5
t-130.5 -31.5z" />
    <glyph glyph-name="four.sub" horiz-adv-x="434" 
d="M140 -137l11 70h-194l10 62l199 261h198l-34 -216h49l-17 -107h-49l-11 -70h-162zM113 40h61l17 106z" />
    <glyph glyph-name="five.sub" horiz-adv-x="400" 
d="M155 -145q-77 0 -130 33t-55 104h155q2 -18 25 -18q11 0 19 7.5t8 22.5q0 25 -26 25q-20 0 -29 -21h-135l54 248h314l-18 -114h-202l-16 -73q37 56 112 56q51 0 80.5 -26.5t29.5 -78.5q0 -82 -50.5 -123.5t-135.5 -41.5z" />
    <glyph glyph-name="six.sub" horiz-adv-x="428" 
d="M182 -145q-90 0 -143.5 40.5t-53.5 125.5q0 26 4 49l2 12q13 83 73 131.5t146 48.5q170 0 173 -132h-152q-3 17 -24 17q-37 0 -51 -70q32 39 92 39q54 0 87.5 -27t33.5 -78q0 -78 -53 -117t-134 -39zM152 -9q0 -28 27 -28q14 0 22.5 9.5t8.5 26.5q0 28 -27 28
q-13 0 -22 -9.5t-9 -26.5z" />
    <glyph glyph-name="seven.sub" horiz-adv-x="382" 
d="M-4 -137l142 264h-140l21 129h352l-3 -18l-203 -375h-169z" />
    <glyph glyph-name="eight.sub" horiz-adv-x="415" 
d="M167 -145q-82 0 -139 26.5t-57 86.5q0 43 21.5 67t64.5 38q-46 26 -46 68q0 62 51.5 91.5t124.5 29.5q74 0 124.5 -27t50.5 -82q0 -75 -65 -93q59 -21 59 -77q0 -68 -55.5 -98t-133.5 -30zM165 -37q14 0 23.5 8.5t9.5 22.5q0 27 -29 27q-14 0 -23.5 -8.5t-9.5 -23.5
q0 -11 7.5 -18.5t21.5 -7.5zM182 102q13 0 22 8t9 22q0 12 -8 19t-20 7t-21 -8t-9 -22q0 -26 27 -26z" />
    <glyph glyph-name="nine.sub" horiz-adv-x="428" 
d="M183 262q89 0 141 -40.5t52 -125.5q0 -26 -4 -49l-2 -12q-28 -180 -219 -180q-166 0 -173 131h152q3 -16 24 -16q40 0 51 70q-32 -39 -92 -39q-55 0 -88 27t-33 80q0 75 54.5 114.5t136.5 39.5zM209 126q0 28 -27 28q-14 0 -22.5 -9.5t-8.5 -26.5q0 -28 27 -28
q13 0 22 9.5t9 26.5z" />
    <glyph glyph-name="plus.sub" horiz-adv-x="367" 
d="M70 -83l15 95h-94l18 113h94l16 96h115l-16 -96h94l-18 -113h-94l-15 -95h-115z" />
    <glyph glyph-name="minus.sub" horiz-adv-x="367" 
d="M-9 12l18 113h303l-18 -113h-303z" />
    <glyph glyph-name="zero.sup" horiz-adv-x="459" 
d="M227 548q0 -51 39 -51q22 0 35 21.5t16.5 43.5t3.5 44q0 50 -39 50q-16 0 -28 -12t-17.5 -30.5t-7.5 -34.5t-2 -31zM258 372q-88 0 -142 43.5t-54 125.5q0 105 62 171.5t167 66.5q88 0 141.5 -43t53.5 -125q0 -107 -61.5 -173t-166.5 -66z" />
    <glyph glyph-name="one.sup" horiz-adv-x="315" 
d="M114 380l37 231l-89 -42l21 134l119 70h142l-63 -393h-167z" />
    <glyph glyph-name="two.sup" horiz-adv-x="388" 
d="M17 380l4 20l149 133q73 64 86 88q5 9 5 16q0 22 -19 22q-26 0 -36 -46h-152q12 83 64.5 124.5t136.5 41.5q171 0 171 -122q0 -39 -26.5 -73.5t-79.5 -77.5l-11 -9h93l-19 -117h-366z" />
    <glyph glyph-name="three.sup" horiz-adv-x="406" 
d="M236 372q-87 0 -135.5 35.5t-49.5 109.5h146q0 -32 31 -32q27 0 27 26q0 21 -37 21h-30l14 88h37q36 0 36 26q0 21 -25 21q-27 0 -34 -30h-144q10 68 59.5 105t134.5 37q31 0 58 -5t52 -16.5t40 -33.5t15 -53q0 -72 -81 -94q68 -15 68 -78q0 -64 -51.5 -95.5
t-130.5 -31.5z" />
    <glyph glyph-name="four.sup" horiz-adv-x="434" 
d="M217 380l11 70h-194l10 62l199 261h198l-34 -216h49l-17 -107h-49l-11 -70h-162zM190 557h61l17 106z" />
    <glyph glyph-name="five.sup" horiz-adv-x="400" 
d="M232 372q-77 0 -130 33t-55 104h155q2 -18 25 -18q11 0 19 7.5t8 22.5q0 25 -26 25q-20 0 -29 -21h-135l54 248h314l-18 -114h-202l-16 -73q37 56 112 56q51 0 80.5 -26.5t29.5 -78.5q0 -82 -50.5 -123.5t-135.5 -41.5z" />
    <glyph glyph-name="six.sup" horiz-adv-x="428" 
d="M259 372q-90 0 -143.5 40.5t-53.5 125.5q0 26 4 49l2 12q13 83 73 131.5t146 48.5q170 0 173 -132h-152q-3 17 -24 17q-37 0 -51 -70q32 39 92 39q54 0 87.5 -27t33.5 -78q0 -78 -53 -117t-134 -39zM229 508q0 -28 27 -28q14 0 22.5 9.5t8.5 26.5q0 28 -27 28
q-13 0 -22 -9.5t-9 -26.5z" />
    <glyph glyph-name="seven.sup" horiz-adv-x="382" 
d="M73 380l142 264h-140l21 129h352l-3 -18l-203 -375h-169z" />
    <glyph glyph-name="eight.sup" horiz-adv-x="415" 
d="M244 372q-82 0 -139 26.5t-57 86.5q0 43 21.5 67t64.5 38q-46 26 -46 68q0 62 51.5 91.5t124.5 29.5q74 0 124.5 -27t50.5 -82q0 -75 -65 -93q59 -21 59 -77q0 -68 -55.5 -98t-133.5 -30zM242 480q14 0 23.5 8.5t9.5 22.5q0 27 -29 27q-14 0 -23.5 -8.5t-9.5 -23.5
q0 -11 7.5 -18.5t21.5 -7.5zM259 619q13 0 22 8t9 22q0 12 -8 19t-20 7t-21 -8t-9 -22q0 -26 27 -26z" />
    <glyph glyph-name="nine.sup" horiz-adv-x="428" 
d="M260 779q89 0 141 -40.5t52 -125.5q0 -26 -4 -49l-2 -12q-28 -180 -219 -180q-166 0 -173 131h152q3 -16 24 -16q40 0 51 70q-32 -39 -92 -39q-55 0 -88 27t-33 80q0 75 54.5 114.5t136.5 39.5zM286 643q0 28 -27 28q-14 0 -22.5 -9.5t-8.5 -26.5q0 -28 27 -28
q13 0 22 9.5t9 26.5z" />
    <glyph glyph-name="plus.sup" horiz-adv-x="367" 
d="M139 434l15 95h-94l18 113h94l15 96h115l-15 -96h94l-18 -113h-94l-15 -95h-115z" />
    <glyph glyph-name="minus.sup" horiz-adv-x="367" 
d="M60 529l18 113h303l-18 -113h-303z" />
    <glyph glyph-name="a.alt" horiz-adv-x="647" 
d="M647 523l-56 -357q-17 -103 -11 -166h-227q-5 20 -5 84q-58 -98 -157 -98q-81 0 -130 57.5t-49 162.5q0 157 71.5 245t174.5 88q56 0 95 -24.5t53 -66.5l12 75h229zM328 373q-35 0 -58.5 -39t-23.5 -103q0 -77 55 -77q37 0 60 41.5t23 101.5q0 76 -56 76z" />
    <glyph glyph-name="t.alt" horiz-adv-x="404" 
d="M32 0l59 374h-67l23 149h67l17 104h229l-17 -104h86l-23 -149h-86l-59 -374h-229z" />
    <glyph glyph-name="germandbls.alt" horiz-adv-x="723" 
d="M483 -9q-103 0 -163.5 42t-56.5 137h178q-3 -42 24 -42q21 0 21 27q0 9 -6 15.5t-13.5 11t-25 13.5t-30.5 16q-96 55 -96 129q0 37 21 69.5t45.5 52t45.5 42t21 41.5q0 45 -60 45q-72 0 -84 -77l-80 -513h-229l81 517q38 241 324 241q73 0 131 -15.5t99.5 -57
t41.5 -105.5q0 -41 -22 -75.5t-49 -53t-49 -35t-22 -25.5q0 -8 6 -13.5t33 -22.5q14 -9 22 -14q56 -35 83 -72t27 -94q0 -89 -59.5 -136.5t-158.5 -47.5z" />
    <glyph glyph-name="aacute.alt" horiz-adv-x="647" 
d="M647 523l-56 -357q-17 -103 -11 -166h-227q-5 20 -5 84q-58 -98 -157 -98q-81 0 -130 57.5t-49 162.5q0 157 71.5 245t174.5 88q56 0 95 -24.5t53 -66.5l12 75h229zM328 373q-35 0 -58.5 -39t-23.5 -103q0 -77 55 -77q37 0 60 41.5t23 101.5q0 76 -56 76zM274 568l71 175
h219l-127 -175h-163z" />
    <glyph glyph-name="abreve.alt" horiz-adv-x="647" 
d="M647 523l-56 -357q-17 -103 -11 -166h-227q-5 20 -5 84q-58 -98 -157 -98q-81 0 -130 57.5t-49 162.5q0 157 71.5 245t174.5 88q56 0 95 -24.5t53 -66.5l12 75h229zM328 373q-35 0 -58.5 -39t-23.5 -103q0 -77 55 -77q37 0 60 41.5t23 101.5q0 76 -56 76zM370 570
q-85 0 -131 45t-43 127h133q2 -40 43 -40q42 0 47 40h135q-12 -85 -59.5 -128.5t-124.5 -43.5z" />
    <glyph glyph-name="acircumflex.alt" horiz-adv-x="647" 
d="M647 523l-56 -357q-17 -103 -11 -166h-227q-5 20 -5 84q-58 -98 -157 -98q-81 0 -130 57.5t-49 162.5q0 157 71.5 245t174.5 88q56 0 95 -24.5t53 -66.5l12 75h229zM328 373q-35 0 -58.5 -39t-23.5 -103q0 -77 55 -77q37 0 60 41.5t23 101.5q0 76 -56 76zM160 571
l152 172h155l102 -172h-152l-42 46l-54 -46h-161z" />
    <glyph glyph-name="adieresis.alt" horiz-adv-x="647" 
d="M647 523l-56 -357q-17 -103 -11 -166h-227q-5 20 -5 84q-58 -98 -157 -98q-81 0 -130 57.5t-49 162.5q0 157 71.5 245t174.5 88q56 0 95 -24.5t53 -66.5l12 75h229zM328 373q-35 0 -58.5 -39t-23.5 -103q0 -77 55 -77q37 0 60 41.5t23 101.5q0 76 -56 76zM261 552
q-43 0 -72.5 29t-29.5 70t29.5 70t72.5 29t73 -29t30 -70t-30 -70t-73 -29zM486 552q-43 0 -72 29t-29 70t29 70t72 29t73 -29t30 -70t-30 -70t-73 -29z" />
    <glyph glyph-name="agrave.alt" horiz-adv-x="647" 
d="M647 523l-56 -357q-17 -103 -11 -166h-227q-5 20 -5 84q-58 -98 -157 -98q-81 0 -130 57.5t-49 162.5q0 157 71.5 245t174.5 88q56 0 95 -24.5t53 -66.5l12 75h229zM328 373q-35 0 -58.5 -39t-23.5 -103q0 -77 55 -77q37 0 60 41.5t23 101.5q0 76 -56 76zM290 568
l-95 175h217l36 -175h-158z" />
    <glyph glyph-name="amacron.alt" horiz-adv-x="647" 
d="M647 523l-56 -357q-17 -103 -11 -166h-227q-5 20 -5 84q-58 -98 -157 -98q-81 0 -130 57.5t-49 162.5q0 157 71.5 245t174.5 88q56 0 95 -24.5t53 -66.5l12 75h229zM328 373q-35 0 -58.5 -39t-23.5 -103q0 -77 55 -77q37 0 60 41.5t23 101.5q0 76 -56 76zM202 593l19 119
h331l-19 -119h-331z" />
    <glyph glyph-name="aogonek.alt" horiz-adv-x="647" 
d="M647 523l-56 -357q-16 -100 -12 -156q-44 -42 -44 -65q0 -20 25 -20q8 0 18 2l-15 -93q-36 -16 -87 -16q-120 0 -120 78q0 38 30.5 64.5t70.5 39.5h-104q-5 20 -5 84q-58 -98 -157 -98q-81 0 -130 57.5t-49 162.5q0 157 71.5 245t174.5 88q56 0 95 -24.5t53 -66.5l12 75
h229zM328 373q-35 0 -58.5 -39t-23.5 -103q0 -77 55 -77q37 0 60 41.5t23 101.5q0 76 -56 76z" />
    <glyph glyph-name="aring.alt" horiz-adv-x="647" 
d="M647 523l-56 -357q-17 -103 -11 -166h-227q-5 20 -5 84q-58 -98 -157 -98q-81 0 -130 57.5t-49 162.5q0 157 71.5 245t174.5 88q56 0 95 -24.5t53 -66.5l12 75h229zM328 373q-35 0 -58.5 -39t-23.5 -103q0 -77 55 -77q37 0 60 41.5t23 101.5q0 76 -56 76zM371 641
q19 0 30.5 13t11.5 33t-11.5 33t-30.5 13t-30.5 -13t-11.5 -33t11.5 -33t30.5 -13zM371 567q-51 0 -87.5 35.5t-36.5 84.5t36.5 84.5t87.5 35.5t87.5 -35.5t36.5 -84.5t-36.5 -84.5t-87.5 -35.5z" />
    <glyph glyph-name="aringacute.alt" horiz-adv-x="647" 
d="M647 523l-56 -357q-17 -103 -11 -166h-227q-5 20 -5 84q-58 -98 -157 -98q-81 0 -130 57.5t-49 162.5q0 157 71.5 245t174.5 88q56 0 95 -24.5t53 -66.5l12 75h229zM328 373q-35 0 -58.5 -39t-23.5 -103q0 -77 55 -77q37 0 60 41.5t23 101.5q0 76 -56 76zM371 641
q19 0 30.5 13t11.5 33t-11.5 33t-30.5 13t-30.5 -13t-11.5 -33t11.5 -33t30.5 -13zM371 567q-51 0 -87.5 35.5t-36.5 84.5t36.5 84.5t87.5 35.5t87.5 -35.5t36.5 -84.5t-36.5 -84.5t-87.5 -35.5zM299 830l62 155h229l-118 -155h-173z" />
    <glyph glyph-name="atilde.alt" horiz-adv-x="647" 
d="M647 523l-56 -357q-17 -103 -11 -166h-227q-5 20 -5 84q-58 -98 -157 -98q-81 0 -130 57.5t-49 162.5q0 157 71.5 245t174.5 88q56 0 95 -24.5t53 -66.5l12 75h229zM328 373q-35 0 -58.5 -39t-23.5 -103q0 -77 55 -77q37 0 60 41.5t23 101.5q0 76 -56 76zM439 570
q-35 0 -72 14.5t-48 14.5q-22 0 -29 -26h-116q13 89 49.5 132.5t89.5 43.5q33 0 71 -14.5t53 -14.5q21 0 29 26h116q-14 -87 -52.5 -131.5t-90.5 -44.5z" />
    <glyph glyph-name="tbar.alt" horiz-adv-x="404" 
d="M-2 210l19 119h67l7 45h-67l23 149h67l17 104h229l-17 -104h86l-23 -149h-86l-7 -45h86l-19 -119h-86l-33 -210h-229l33 210h-67z" />
    <glyph glyph-name="tcaron.alt" horiz-adv-x="404" 
d="M32 0l59 374h-67l23 149h67l17 104h229l-17 -104h86l-23 -149h-86l-59 -374h-229zM382 569l34 174h153l-77 -174h-110z" />
    <glyph glyph-name="tcommaaccent.alt" horiz-adv-x="404" 
d="M32 0l59 374h-67l23 149h67l17 104h229l-17 -104h86l-23 -149h-86l-59 -374h-229zM124 -236l-124 27l41 173h197z" />
    <glyph glyph-name="f.short" horiz-adv-x="406" 
d="M47 523h61l8 48q16 97 82 142t163 45q62 0 105 -15l-26 -164q-23 7 -44 7q-48 0 -56 -41l-4 -22h95l-23 -149h-95l-59 -374h-228l59 374h-61z" />
    <glyph glyph-name="f_f.short" horiz-adv-x="761" 
d="M381 0l59 374h-127l-59 -374h-228l59 374h-61l23 149h61l6 37q15 97 80 142t160 45q60 0 103 -15l-26 -163q-20 6 -41 6q-45 0 -52 -41l-2 -11h127l8 48q15 97 81 142t164 45q62 0 105 -15l-26 -164q-23 7 -44 7q-48 0 -56 -41l-4 -22h95l-23 -149h-95l-59 -374h-228z
" />
    <glyph glyph-name="questiondown.uc" horiz-adv-x="591" 
d="M459 463l-2 -10q-8 -38 -31 -71t-51 -55t-54.5 -41t-44 -39.5t-17.5 -41.5q2 -31 34 -31q41 0 55 66h224q-15 -124 -100 -187.5t-210 -63.5q-124 0 -188.5 48.5t-64.5 138.5q0 46 18.5 83.5t48 62.5t60 46t60.5 44.5t44 47.5l1 3h218zM376 729q53 0 87.5 -33.5
t34.5 -82.5t-36 -84t-89 -35t-88.5 34t-35.5 83t37 83.5t90 34.5z" />
    <glyph glyph-name="exclamdown.uc" horiz-adv-x="358" 
d="M233 729q53 0 87.5 -33.5t34.5 -82.5t-36 -84t-89 -35t-88.5 34t-35.5 83t37 83.5t90 34.5zM307 463l-41 -463h-258l107 463h192z" />
    <glyph glyph-name="hyphen.uc" horiz-adv-x="426" 
d="M41 238l28 175h334l-28 -175h-334z" />
    <glyph glyph-name="endash.uc" horiz-adv-x="548" 
d="M46 269l20 123h456l-20 -123h-456z" />
    <glyph glyph-name="emdash.uc" horiz-adv-x="978" 
d="M46 269l20 123h886l-20 -123h-886z" />
    <glyph glyph-name="guilsinglleft.uc" horiz-adv-x="299" 
d="M113 103l-93 206l149 190h146l-146 -191l80 -205h-136z" />
    <glyph glyph-name="guilsinglright.uc" horiz-adv-x="299" 
d="M192 499l93 -206l-149 -190h-146l146 191l-80 205h136z" />
    <glyph glyph-name="guillemotleft.uc" horiz-adv-x="470" 
d="M116 103l-96 204l138 192h136l-137 -193l88 -203h-129zM294 103l-91 201l138 195h136l-137 -199l83 -197h-129z" />
    <glyph glyph-name="guillemotright.uc" horiz-adv-x="470" 
d="M363 499l96 -204l-138 -192h-136l137 193l-88 203h129zM185 499l91 -201l-138 -195h-136l137 199l-83 197h129z" />
    <glyph glyph-name="parenleft.uc" horiz-adv-x="373" 
d="M306 -98h-169q-109 159 -109 345q0 309 254 539h175q-110 -151 -163 -277.5t-53 -281.5q0 -173 65 -325z" />
    <glyph glyph-name="parenright.uc" horiz-adv-x="373" 
d="M86 786h169q109 -159 109 -345q0 -309 -254 -539h-175q110 151 163 277.5t53 281.5q0 173 -65 325z" />
    <glyph glyph-name="bracketleft.uc" horiz-adv-x="437" 
d="M-4 -98l140 884h348l-26 -164h-117l-88 -556h117l-26 -164h-348z" />
    <glyph glyph-name="bracketright.uc" horiz-adv-x="437" 
d="M-22 -98l26 164h115l88 556h-115l26 164h346l-140 -884h-346z" />
    <glyph glyph-name="braceleft.uc" horiz-adv-x="437" 
d="M344 -98q-164 0 -232.5 65t-28.5 185l18 54q12 32 -6.5 49t-67.5 20l25 157q51 0 71.5 14t20.5 46v54q0 135 79 187.5t261 52.5l-26 -165q-49 -4 -67 -20.5t-20 -57.5l-4 -70q-6 -107 -124 -128q116 -29 82 -141l-20 -67q-11 -37 2.5 -51.5t62.5 -18.5z" />
    <glyph glyph-name="braceright.uc" horiz-adv-x="437" 
d="M117 786q164 0 232.5 -65t28.5 -185l-18 -54q-12 -32 6.5 -49t67.5 -20l-25 -157q-51 0 -71.5 -14t-20.5 -46v-54q0 -135 -79 -187.5t-261 -52.5l26 165q49 4 67 20.5t20 57.5l4 70q6 107 124 128q-116 29 -82 141l20 67q11 37 -2.5 51.5t-62.5 18.5z" />
    <glyph glyph-name="slash.uc" horiz-adv-x="450" 
d="M-64 -84l421 860h181l-422 -860h-180z" />
    <glyph glyph-name="backslash.uc" horiz-adv-x="460" 
d="M253 -84l-194 860h170l194 -860h-170z" />
    <glyph glyph-name="bar.uc" horiz-adv-x="275" 
d="M73 -84v860h155v-860h-155z" />
    <glyph glyph-name="at.uc" horiz-adv-x="930" 
d="M479 -92q-200 0 -320.5 116t-120.5 295q0 132 66.5 235.5t172 156.5t228.5 53q179 0 297.5 -99t118.5 -264q0 -144 -68 -214t-171 -70q-132 0 -155 79q-41 -79 -139 -79q-68 0 -109.5 48t-42.5 129q0 112 59 181.5t148 69.5q77 0 101 -55l9 47h180l-46 -283
q-10 -60 37 -60q46 0 79.5 52.5t33.5 158.5q0 129 -92 208.5t-242 79.5q-160 0 -268 -103t-108 -274q0 -152 92.5 -244.5t264.5 -92.5q85 0 158 27.5t110 65.5h98q-55 -76 -154 -120t-217 -44zM462 262q26 0 42.5 28t16.5 68q0 46 -42 46q-25 0 -42 -26.5t-16 -68.5
q0 -47 41 -47z" />
    </font>
</defs>
</svg>
