<?xml version="1.0" standalone="no"?>
<!DOCTYPE svg PUBLIC "-//W3C//DTD SVG 1.1//EN" "http://www.w3.org/Graphics/SVG/1.1/DTD/svg11.dtd" >
<svg>
<metadata>
Created by FontForge 20120731 at Sun Aug 28 06:45:02 2016
 By ,,,
(c)2009 Commercial Type.
</metadata>
<defs>
<font id="Graphik-ThinItalic" horiz-adv-x="600" >
  <font-face 
    font-family="Graphik Thin"
    font-weight="250"
    font-style="italic"
    font-stretch="normal"
    units-per-em="1000"
    panose-1="2 11 2 3 3 2 2 13 2 3"
    ascent="818"
    descent="-182"
    x-height="523"
    cap-height="715"
    bbox="-234 -210 1022 1068"
    underline-thickness="50"
    underline-position="-50"
    slope="-8"
    unicode-range="U+0020-FB02"
  />
<missing-glyph horiz-adv-x="500" 
 />
    <glyph glyph-name="f_f" unicode="ff" horiz-adv-x="584" 
d="M334 0l80 507h-250l-79 -507h-18l79 507h-85l3 16h85l15 95q24 149 156 149q29 0 55 -8l-2 -16q-24 8 -53 8q-54 0 -90 -28.5t-48 -105.5l-15 -94h249l16 98q25 155 158 155q30 0 57 -8l-2 -16q-25 8 -55 8q-55 0 -91 -30t-49 -110l-16 -97h166l-3 -16h-165l-80 -507h-18
z" />
    <glyph glyph-name=".notdef" horiz-adv-x="500" 
 />
    <glyph glyph-name=".null" horiz-adv-x="0" 
 />
    <glyph glyph-name="nonmarkingreturn" horiz-adv-x="333" 
 />
    <glyph glyph-name="space" unicode=" " horiz-adv-x="225" 
 />
    <glyph glyph-name="exclam" unicode="!" horiz-adv-x="254" 
d="M102 152l87 563h20l-91 -563h-16zM86 -5q-7 0 -12 5t-5 12t5 12t12 5t12 -5t5 -12t-5 -12t-12 -5z" />
    <glyph glyph-name="quotedbl" unicode="&#x22;" horiz-adv-x="223" 
d="M101 548l25 167h20l-29 -167h-16zM194 548l25 167h20l-29 -167h-16z" />
    <glyph glyph-name="numbersign" unicode="#" horiz-adv-x="478" 
d="M257 99l49 211h-148l-49 -211h-17l49 211h-98l2 16h100l44 186h-100l2 16h102l44 187h17l-44 -187h148l44 187h17l-44 -187h100l-2 -16h-102l-44 -186h102l-2 -16h-104l-49 -211h-17zM206 512l-44 -186h148l44 186h-148z" />
    <glyph glyph-name="dollar" unicode="$" horiz-adv-x="582" 
d="M275 -6q-15 0 -22 1l-20 -130h-17l20 131q-90 8 -145.5 56t-61.5 138h18q16 -162 192 -178l56 354q-99 28 -143.5 67.5t-44.5 101.5q0 89 63 137.5t161 48.5q13 0 20 -1l15 93h17l-15 -94q77 -8 124.5 -47.5t54.5 -109.5h-18q-19 126 -164 140l-51 -324
q109 -29 154.5 -65.5t45.5 -110.5q0 -98 -66.5 -153t-172.5 -55zM495 202q0 66 -41.5 99t-142.5 61l-55 -351h18q99 0 160 49.5t61 141.5zM126 535q0 -55 40 -90.5t131 -61.5l51 320q-2 0 -8 0.5t-8 0.5q-92 0 -149 -42.5t-57 -126.5z" />
    <glyph glyph-name="percent" unicode="%" horiz-adv-x="745" 
d="M113 552q1 -53 34 -87t85 -34q62 0 101.5 41.5t38.5 107.5q-1 52 -34 87.5t-86 35.5q-61 0 -100 -44t-39 -107zM232 415q-59 0 -98 38.5t-39 98.5q0 69 44.5 118t112.5 49q58 0 98 -39.5t40 -99.5q0 -74 -45.5 -119.5t-112.5 -45.5zM80 0l590 715h21l-590 -715h-21z
M398 132q1 -53 34 -87t85 -34q62 0 101.5 41.5t38.5 107.5q-1 52 -34 87.5t-86 35.5q-61 0 -100 -44t-39 -107zM517 -5q-59 0 -98 38.5t-39 98.5q0 69 44.5 118t112.5 49q58 0 98 -39.5t40 -99.5q0 -74 -45.5 -119.5t-112.5 -45.5z" />
    <glyph glyph-name="ampersand" unicode="&#x26;" horiz-adv-x="632" 
d="M559 0h-22l-84 123q-103 -130 -230 -130q-82 0 -136 46.5t-54 129.5q0 47 17.5 84.5t51.5 65t68 46t83 39.5q-65 95 -65 159q0 66 44 111t112 45q58 0 92.5 -37t34.5 -93q0 -38 -17 -69t-50 -54.5t-59.5 -37t-65.5 -30.5l174 -247l136 202h21l-148 -215zM53 170
q0 -73 47.5 -116.5t122.5 -43.5q119 0 220 127l-181 254q-39 -16 -63.5 -28t-55 -32.5t-48 -41.5t-30 -52t-12.5 -67zM343 702q-59 1 -97.5 -39.5t-38.5 -99.5q0 -61 63 -152q33 14 41.5 18.5t38.5 19.5t41.5 26t29 29t24.5 39t7 46q0 51 -28.5 81.5t-80.5 31.5z" />
    <glyph glyph-name="quotesingle" unicode="'" horiz-adv-x="130" 
d="M101 548l25 167h20l-29 -167h-16z" />
    <glyph glyph-name="parenleft" unicode="(" horiz-adv-x="273" 
d="M165 -148q-106 162 -106 361q0 163 66 308t179 252h20q-247 -244 -247 -560q0 -189 107 -361h-19z" />
    <glyph glyph-name="parenright" unicode=")" horiz-adv-x="273" 
d="M122 773q106 -162 106 -361q0 -163 -66 -308t-179 -252h-20q247 244 247 560q0 189 -107 361h19z" />
    <glyph glyph-name="asterisk" unicode="*" horiz-adv-x="412" 
d="M136 448l-13 13l120 115l-135 62l8 17l133 -64l23 152h19l-25 -154l148 43l4 -17l-150 -41l78 -130l-16 -10l-77 130z" />
    <glyph glyph-name="plus" unicode="+" horiz-adv-x="500" 
d="M217 115l34 219h-204l3 16h204l35 219h18l-35 -219h204l-3 -16h-204l-34 -219h-18z" />
    <glyph glyph-name="comma" unicode="," horiz-adv-x="166" 
d="M-10 -109l-14 7l69 140l18 -8z" />
    <glyph glyph-name="hyphen" unicode="-" horiz-adv-x="332" 
d="M62 271l3 17h204l-3 -17h-204z" />
    <glyph glyph-name="period" unicode="." horiz-adv-x="166" 
d="M42 -5q-7 0 -12 5t-5 12t5 12t12 5t12 -5t5 -12t-5 -12t-12 -5z" />
    <glyph glyph-name="slash" unicode="/" horiz-adv-x="376" 
d="M-44 -148l435 924h20l-435 -924h-20z" />
    <glyph glyph-name="zero" unicode="0" horiz-adv-x="634" 
d="M300 -6q-123 0 -183.5 68.5t-60.5 184.5q0 47 7 89l13 82q23 146 99 224.5t192 78.5q120 0 178 -68.5t59 -182.5q0 -48 -7 -90l-13 -82q-49 -304 -284 -304zM300 11q219 0 266 288l13 82q7 42 7 89q-1 107 -54.5 170.5t-164.5 63.5q-110 0 -180.5 -74t-92.5 -213l-13 -82
q-7 -42 -7 -88q1 -109 56 -172.5t170 -63.5z" />
    <glyph glyph-name="one" unicode="1" horiz-adv-x="331" 
d="M146 0l109 688l-185 -112l3 19l196 120h8l-113 -715h-18z" />
    <glyph glyph-name="two" unicode="2" horiz-adv-x="518" 
d="M-30 0l1 5l342 286q81 68 121.5 126t40.5 132q0 72 -44 113.5t-122 41.5q-79 0 -135 -45t-78 -138h-18q20 98 83.5 149t147.5 51q85 0 134.5 -47t49.5 -125q0 -79 -41 -138t-122 -127l-319 -267h420l-3 -17h-458z" />
    <glyph glyph-name="three" unicode="3" horiz-adv-x="524" 
d="M238 -6q-96 0 -156.5 52t-61.5 145h19q1 -86 55 -133t144 -47q91 0 152 52t61 150q0 65 -41 109t-122 44h-43l3 17h48q79 0 129.5 44.5t50.5 129.5q0 67 -42.5 107t-116.5 40q-75 0 -129 -44.5t-71 -121.5h-18q15 83 76.5 133t141.5 50q78 0 127.5 -44t49.5 -120
q0 -73 -38.5 -121t-108.5 -62q56 -12 89 -55.5t33 -106.5q0 -103 -66.5 -160.5t-164.5 -57.5z" />
    <glyph glyph-name="four" unicode="4" horiz-adv-x="569" 
d="M366 0l27 173h-381l1 5l451 537h34l-83 -525h99l-3 -17h-99l-27 -173h-19zM46 190h350l81 513z" />
    <glyph glyph-name="five" unicode="5" horiz-adv-x="531" 
d="M232 -6q-90 0 -149 49t-65 130h18q7 -73 59.5 -117.5t136.5 -44.5q107 0 167.5 68.5t60.5 177.5q0 79 -49 131t-128 52q-113 0 -190 -88h-8l58 363h376l-3 -17h-358l-49 -311q27 29 73 49.5t101 20.5q87 0 141 -56t54 -144q0 -116 -65.5 -189.5t-180.5 -73.5z" />
    <glyph glyph-name="six" unicode="6" horiz-adv-x="577" 
d="M277 -6q-102 0 -160 57t-57 164q0 31 9 92l12 75q30 185 103 262t186 77q82 0 131 -38t55 -112h-18q-13 133 -168 133q-108 0 -175 -73t-96 -250l-12 -75q32 67 92.5 102.5t131.5 35.5q93 0 154 -49.5t61 -141.5q0 -113 -68.5 -186t-180.5 -73zM79 204q0 -89 53 -141
t145 -52q106 0 168.5 68.5t62.5 173.5q0 83 -54.5 128.5t-142.5 45.5q-97 0 -164.5 -62t-67.5 -161z" />
    <glyph glyph-name="seven" unicode="7" horiz-adv-x="480" 
d="M110 0l396 698h-414l3 17h440l-1 -5l-403 -710h-21z" />
    <glyph glyph-name="eight" unicode="8" horiz-adv-x="555" 
d="M262 -6q-93 0 -159.5 48.5t-66.5 138.5q0 91 58.5 144.5t152.5 63.5q-55 14 -91 54.5t-36 102.5q0 79 62 127t146 48q79 0 133.5 -46.5t54.5 -119.5q0 -77 -44 -120.5t-123 -53.5q68 -16 109.5 -62t41.5 -115q0 -103 -68.5 -156.5t-169.5 -53.5zM54 181q0 -82 60.5 -126
t148.5 -44q94 0 156.5 49.5t62.5 144.5q0 76 -56 123.5t-146 47.5q-94 0 -160 -50t-66 -145zM138 546q-1 -66 48 -109.5t129 -43.5q79 0 131 40.5t52 121.5q0 66 -48 107.5t-122 41.5q-76 0 -132.5 -42t-57.5 -116z" />
    <glyph glyph-name="nine" unicode="9" horiz-adv-x="574" 
d="M244 -6q-82 0 -134.5 40t-61.5 115h18q9 -67 55.5 -102.5t122.5 -35.5q110 0 173 70.5t92 252.5l12 75q-32 -67 -92.5 -103t-130.5 -36q-93 0 -154.5 51t-61.5 145q0 113 68.5 184t180.5 71q99 0 158.5 -57.5t58.5 -163.5q0 -31 -9 -92l-12 -75q-16 -99 -41.5 -166.5
t-62.5 -104.5t-79.5 -52.5t-99.5 -15.5zM100 466q0 -85 55 -132t143 -47q96 0 163.5 63.5t67.5 160.5q0 89 -53 141t-145 52q-106 0 -168.5 -66.5t-62.5 -171.5z" />
    <glyph glyph-name="colon" unicode=":" horiz-adv-x="172" 
d="M45 -5q-7 0 -12 5t-5 12t5 12t12 5t12 -5t5 -12t-5 -12t-12 -5zM102 352q-7 0 -12 5t-5 12t5 12t12 5t12 -5t5 -12t-5 -12t-12 -5z" />
    <glyph glyph-name="semicolon" unicode=";" horiz-adv-x="172" 
d="M-14 -109l-14 7l69 140l18 -8zM102 352q-7 0 -12 5t-5 12t5 12t12 5t12 -5t5 -12t-5 -12t-12 -5z" />
    <glyph glyph-name="less" unicode="&#x3c;" horiz-adv-x="487" 
d="M408 115l-352 211l1 6l416 192l-3 -19l-386 -178l327 -194z" />
    <glyph glyph-name="equal" unicode="=" horiz-adv-x="484" 
d="M34 233l3 16h404l-3 -16h-404zM58 385l3 16h404l-3 -16h-404z" />
    <glyph glyph-name="greater" unicode="&#x3e;" horiz-adv-x="487" 
d="M96 524l352 -211l-1 -6l-416 -192l3 19l386 178l-327 194z" />
    <glyph glyph-name="question" unicode="?" horiz-adv-x="462" 
d="M180 152l11 72q8 56 35 90t89 83q6 4 25 19t24.5 20t20.5 18.5t20.5 20.5t15 21t13 25.5t7 27.5t3.5 33q0 61 -43.5 91.5t-105.5 30.5q-77 0 -128 -44t-67 -128h-18q14 89 71.5 139t141.5 50q69 0 118.5 -34.5t49.5 -104.5q0 -25 -6.5 -47.5t-13 -37t-24.5 -33.5
t-26.5 -26t-34.5 -27.5t-33 -26.5q-60 -48 -84 -78.5t-32 -83.5l-11 -70h-18zM166 -5q-7 0 -12 5t-5 12t5 12t12 5t12 -5t5 -12t-5 -12t-12 -5z" />
    <glyph glyph-name="at" unicode="@" horiz-adv-x="902" 
d="M642 463l-36 -226q-12 -68 8 -108t77 -40q65 0 109.5 60.5t44.5 173.5q0 154 -98 251.5t-269 97.5q-165 0 -287 -120t-122 -292q0 -78 25.5 -147.5t73 -124.5t124 -87t171.5 -32q111 0 191.5 37t122.5 94h18q-39 -61 -126.5 -104t-205.5 -43q-98 0 -177.5 33t-130 90
t-77.5 129.5t-27 154.5q0 118 60.5 217.5t158.5 155t208 55.5q176 0 280.5 -103t104.5 -261q0 -123 -52.5 -186.5t-120.5 -63.5q-50 0 -78 30.5t-27 87.5q-18 -47 -62 -86.5t-102 -39.5q-66 0 -108.5 44t-42.5 119q0 94 57 168.5t142 74.5q55 0 93 -34t45 -88l17 113h18z
M421 82q71 0 123 66.5t53 153.5q1 69 -34 111.5t-94 42.5q-77 0 -129 -69t-52 -158q0 -67 36.5 -107t96.5 -40z" />
    <glyph glyph-name="A" unicode="A" horiz-adv-x="630" 
d="M540 0l-54 235h-355l-124 -235h-19l380 715h26l164 -715h-18zM379 701l-239 -449h342z" />
    <glyph glyph-name="B" unicode="B" horiz-adv-x="582" 
d="M53 0l113 715h179q86 0 135 -42.5t49 -116.5q0 -149 -166 -183q72 -9 111 -51t39 -107q0 -102 -64.5 -158.5t-167.5 -56.5h-228zM74 17h207q95 0 154 51t59 147q0 70 -49 110t-144 40h-172zM132 382h170q40 0 75 9t66 28t49 54.5t18 82.5q0 66 -44 104t-121 38h-163z" />
    <glyph glyph-name="C" unicode="C" horiz-adv-x="722" 
d="M366 -6q-143 0 -226.5 86t-83.5 235q0 109 44.5 201t131.5 148.5t199 56.5q100 0 174.5 -56.5t89.5 -154.5h-17q-17 91 -85 142.5t-162 51.5q-161 0 -258 -112.5t-97 -276.5q0 -142 78 -223t212 -81q103 0 180.5 54.5t111.5 155.5h18q-33 -108 -117 -167.5t-193 -59.5z
" />
    <glyph glyph-name="D" unicode="D" horiz-adv-x="677" 
d="M53 0l113 715h171q152 0 232 -84.5t80 -219.5q0 -193 -110 -302t-296 -109h-190zM74 17h169q179 0 283 104.5t104 289.5q0 126 -74.5 206.5t-218.5 80.5h-155z" />
    <glyph glyph-name="E" unicode="E" horiz-adv-x="566" 
d="M53 0l113 715h397l-3 -17h-378l-51 -320h314l-3 -17h-313l-55 -344h404l-4 -17h-421z" />
    <glyph glyph-name="F" unicode="F" horiz-adv-x="534" 
d="M53 0l113 715h393l-3 -17h-374l-51 -320h297l-3 -17h-296l-57 -361h-19z" />
    <glyph glyph-name="G" unicode="G" horiz-adv-x="744" 
d="M383 -6q-152 0 -238.5 90t-86.5 233q0 170 104 287t268 117q105 0 180.5 -50t89.5 -145h-19q-12 86 -82 132t-169 46q-156 0 -254.5 -111.5t-98.5 -275.5q0 -134 81.5 -220t224.5 -86q130 0 209.5 76t94.5 230h-238l3 17h256q-13 -174 -99.5 -257t-225.5 -83z" />
    <glyph glyph-name="H" unicode="H" horiz-adv-x="702" 
d="M53 0l113 715h19l-55 -344h474l55 344h19l-113 -715h-19l56 354h-474l-56 -354h-19z" />
    <glyph glyph-name="I" unicode="I" horiz-adv-x="219" 
d="M58 0l113 715h19l-113 -715h-19z" />
    <glyph glyph-name="J" unicode="J" horiz-adv-x="378" 
d="M114 -4q-69 0 -117 29l3 18q50 -30 114 -30q126 0 148 140l89 562h19l-89 -563q-25 -156 -167 -156z" />
    <glyph glyph-name="K" unicode="K" horiz-adv-x="579" 
d="M503 0h-24l-339 368l430 347h26l-431 -348zM53 0l113 715h19l-113 -715h-19z" />
    <glyph glyph-name="L" unicode="L" horiz-adv-x="525" 
d="M53 0l113 715h19l-111 -698h372l-3 -17h-390z" />
    <glyph glyph-name="M" unicode="M" horiz-adv-x="846" 
d="M53 0l113 715h30l181 -680l406 680h31l-113 -715h-19l110 695l-415 -695h-9l-186 695l-110 -695h-19z" />
    <glyph glyph-name="N" unicode="N" horiz-adv-x="701" 
d="M53 0l113 715h29l353 -693l110 693h19l-113 -715h-25l-357 700l-110 -700h-19z" />
    <glyph glyph-name="O" unicode="O" horiz-adv-x="780" 
d="M752 389q0 -103 -45.5 -192.5t-132 -146t-194.5 -56.5q-148 0 -236 95t-88 242q0 102 46 191t133 144t195 55q142 0 232 -94.5t90 -237.5zM733 389q1 132 -81.5 223.5t-221.5 91.5q-154 0 -253.5 -109t-101.5 -264q-2 -135 81 -227.5t224 -92.5q154 0 253 112t100 266z
" />
    <glyph glyph-name="P" unicode="P" horiz-adv-x="552" 
d="M53 0l113 715h156q104 0 162.5 -42.5t58.5 -130.5q0 -112 -65.5 -165.5t-183.5 -53.5h-172l-51 -323h-18zM124 340h170q230 0 230 202q0 156 -203 156h-140z" />
    <glyph glyph-name="Q" unicode="Q" horiz-adv-x="780" 
d="M672 -26l-81 87q-93 -67 -211 -67q-148 0 -236 95t-88 242q0 102 46 191t133 144t195 55q142 0 232 -94.5t90 -237.5q0 -93 -39 -177.5t-109 -139.5l80 -86zM380 11q110 0 199 63l-118 129l12 12l120 -131q65 53 102 133.5t38 171.5q1 132 -81.5 223.5t-221.5 91.5
q-154 0 -253.5 -109t-101.5 -264q-2 -135 81 -227.5t224 -92.5z" />
    <glyph glyph-name="R" unicode="R" horiz-adv-x="581" 
d="M53 0l113 715h157q103 0 160.5 -42.5t57.5 -126.5q0 -189 -222 -201l184 -345h-20l-183 343h-175l-54 -343h-18zM128 360h156q109 0 173.5 40.5t64.5 145.5q0 77 -53 114.5t-146 37.5h-142z" />
    <glyph glyph-name="S" unicode="S" horiz-adv-x="568" 
d="M266 -6q-105 0 -172.5 48.5t-73.5 147.5h18q9 -90 68 -134.5t159 -44.5q99 0 161 50.5t62 142.5q0 68 -43 103.5t-149 63.5q-104 28 -149 65t-45 99q0 89 60.5 137.5t157.5 48.5q92 0 147.5 -40t63.5 -119h-18q-21 142 -192 142q-92 0 -146 -42.5t-54 -126.5
q0 -56 41.5 -88.5t141.5 -59.5q110 -29 156.5 -68t46.5 -115q0 -99 -67.5 -154.5t-173.5 -55.5z" />
    <glyph glyph-name="T" unicode="T" horiz-adv-x="557" 
d="M225 0l110 698h-238l3 17h495l-3 -17h-238l-110 -698h-19z" />
    <glyph glyph-name="U" unicode="U" horiz-adv-x="666" 
d="M315 -4q-134 0 -195.5 70.5t-41.5 195.5l72 453h19l-72 -453q-18 -119 36.5 -184t182.5 -65q111 0 170 55t77 168l76 479h19l-76 -479q-19 -122 -83 -181t-184 -59z" />
    <glyph glyph-name="V" unicode="V" horiz-adv-x="616" 
d="M258 0l-166 715h18l162 -692l361 692h19l-372 -715h-22z" />
    <glyph glyph-name="W" unicode="W" horiz-adv-x="910" 
d="M181 0l-83 715h18l81 -687l318 687h13l93 -689l306 689h19l-317 -715h-24l-90 675l-310 -675h-24z" />
    <glyph glyph-name="X" unicode="X" horiz-adv-x="622" 
d="M0 0l318 374l-179 341h19l174 -328l275 328h23l-289 -343l197 -372h-19l-191 359l-305 -359h-23z" />
    <glyph glyph-name="Y" unicode="Y" horiz-adv-x="554" 
d="M228 0l51 325l-194 390h19l187 -373l282 373h22l-297 -391l-51 -324h-19z" />
    <glyph glyph-name="Z" unicode="Z" horiz-adv-x="577" 
d="M-16 0l1 7l594 691h-449l3 17h479l-1 -7l-594 -691h479l-3 -17h-509z" />
    <glyph glyph-name="bracketleft" unicode="[" horiz-adv-x="322" 
d="M33 -148l146 924h185l-3 -16h-166l-141 -892h166l-3 -16h-184z" />
    <glyph glyph-name="backslash" unicode="\" horiz-adv-x="376" 
d="M270 -148l-145 924h19l145 -924h-19z" />
    <glyph glyph-name="bracketright" unicode="]" horiz-adv-x="322" 
d="M-27 -148l3 16h166l141 892h-166l3 16h183l-146 -924h-184z" />
    <glyph glyph-name="asciicircum" unicode="^" horiz-adv-x="445" 
d="M75 438l210 277h16l123 -277h-20l-113 257l-195 -257h-21z" />
    <glyph glyph-name="underscore" unicode="_" horiz-adv-x="384" 
d="M-65 -142l3 17h385l-3 -17h-385z" />
    <glyph glyph-name="grave" unicode="`" horiz-adv-x="400" 
d="M244 596l-55 147h19l53 -147h-17z" />
    <glyph glyph-name="a" unicode="a" horiz-adv-x="515" 
d="M206 -7q-86 0 -129.5 39t-43.5 101q0 159 218 159h175l7 47q25 175 -148 175q-141 0 -181 -131h-18q19 74 73.5 110.5t125.5 36.5q98 0 139 -52t27 -140l-31 -196q-8 -50 -14 -142h-18q1 30 7 90q-24 -40 -73.5 -68.5t-115.5 -28.5zM206 9q75 0 131.5 41t66.5 102l19 124
h-172q-42 0 -74.5 -6t-62.5 -20.5t-46.5 -44t-16.5 -72.5q0 -56 38.5 -90t116.5 -34z" />
    <glyph glyph-name="b" unicode="b" horiz-adv-x="586" 
d="M295 -7q-93 0 -146.5 56.5t-64.5 127.5l-28 -177h-18l122 773h18l-62 -394q31 66 89 108.5t135 42.5q88 0 148.5 -65.5t60.5 -171.5q0 -130 -66 -215t-188 -85zM295 9q113 0 174.5 80t61.5 204q0 100 -55.5 160.5t-135.5 60.5q-109 0 -176 -85t-69 -192
q-1 -105 55.5 -166.5t144.5 -61.5z" />
    <glyph glyph-name="c" unicode="c" horiz-adv-x="539" 
d="M268 -7q-104 0 -165 66t-61 172q0 126 75.5 212.5t193.5 86.5q81 0 135 -46.5t58 -120.5h-18q-3 66 -51.5 108.5t-124.5 42.5q-112 0 -181 -82.5t-69 -200.5q0 -101 57.5 -161.5t150.5 -60.5q78 0 133.5 41.5t76.5 119.5h18q-20 -86 -81.5 -131.5t-146.5 -45.5z" />
    <glyph glyph-name="d" unicode="d" horiz-adv-x="588" 
d="M250 -7q-92 0 -152.5 63t-60.5 169q0 128 72 216.5t189 88.5q92 0 143.5 -57t60.5 -127l68 427h18l-95 -600q-12 -75 -19 -173h-18q2 59 14 143q-30 -67 -86.5 -108.5t-133.5 -41.5zM250 9q73 0 129.5 42.5t83.5 104.5t28 130q1 105 -52.5 166.5t-140.5 61.5
q-111 0 -177 -83.5t-66 -205.5q0 -100 56 -158t139 -58z" />
    <glyph glyph-name="e" unicode="e" horiz-adv-x="529" 
d="M57 219q0 -101 50.5 -155.5t145.5 -54.5q147 0 200 132h18q-53 -148 -218 -148q-105 0 -160 59.5t-55 166.5q0 127 71 219t190 92q110 0 159.5 -70t32.5 -177l-2 -13h-429q-3 -26 -3 -51zM299 514q-97 0 -158.5 -64.5t-78.5 -163.5h412q14 101 -29.5 164.5t-145.5 63.5z
" />
    <glyph glyph-name="f" unicode="f" horiz-adv-x="317" 
d="M61 507l3 16h85l16 98q25 155 158 155q30 0 57 -8l-2 -16q-25 8 -55 8q-54 0 -90.5 -30.5t-49.5 -109.5l-16 -97h166l-3 -16h-165l-80 -507h-18l80 507h-86z" />
    <glyph glyph-name="g" unicode="g" horiz-adv-x="594" 
d="M255 33q107 1 175.5 85t68.5 198q0 86 -50 142t-142 56q-110 1 -178 -78t-68 -198q0 -90 51 -147.5t143 -57.5zM554 523l-80 -508q-16 -100 -79 -150t-163 -50q-87 0 -148 39.5t-72 115.5h18q10 -66 64 -102.5t138 -36.5q93 0 151.5 46.5t72.5 137.5l24 153
q-30 -62 -87.5 -106.5t-138.5 -44.5q-97 0 -154 60.5t-57 160.5q0 123 73.5 207.5t190.5 84.5q83 0 136 -45t68 -121l25 159h18z" />
    <glyph glyph-name="h" unicode="h" horiz-adv-x="559" 
d="M38 0l122 773h18l-59 -373q28 56 83 93t125 37q90 0 135 -57t28 -163l-49 -310h-18l49 310q16 100 -24 152t-121 52q-78 0 -142.5 -52.5t-78.5 -144.5l-50 -317h-18z" />
    <glyph glyph-name="i" unicode="i" horiz-adv-x="182" 
d="M151 639q-7 0 -12 5t-5 12t5 12t12 5t12 -5t5 -12t-5 -12t-12 -5zM40 0l82 523h18l-82 -523h-18z" />
    <glyph glyph-name="j" unicode="j" horiz-adv-x="182" 
d="M-66 -184l3 16q43 2 62.5 23t27.5 69l95 599h18l-95 -599q-10 -59 -35 -82.5t-76 -25.5zM151 639q-7 0 -12 5t-5 12t5 12t12 5t12 -5t5 -12t-5 -12t-12 -5z" />
    <glyph glyph-name="k" unicode="k" horiz-adv-x="452" 
d="M368 0l-262 281l323 242h26l-324 -243l260 -280h-23zM38 0l122 773h18l-122 -773h-18z" />
    <glyph glyph-name="l" unicode="l" horiz-adv-x="182" 
d="M40 0l122 773h18l-122 -773h-18z" />
    <glyph glyph-name="m" unicode="m" horiz-adv-x="884" 
d="M38 0l61 389q10 64 15 134h18q-2 -54 -13 -121q68 128 191 128q69 0 109.5 -38t44.5 -109q24 64 78 105.5t122 41.5q87 0 127.5 -55.5t23.5 -164.5l-49 -310h-18l49 310q16 103 -19.5 153.5t-113.5 50.5q-74 0 -131.5 -53.5t-71.5 -143.5l-50 -317h-18l49 310
q16 101 -19 152.5t-113 51.5q-74 0 -132 -53.5t-72 -143.5l-50 -317h-18z" />
    <glyph glyph-name="n" unicode="n" horiz-adv-x="559" 
d="M38 0l61 389q10 64 15 134h18q-2 -56 -13 -123q28 56 83 93t125 37q90 0 135 -57t28 -163l-49 -310h-18l49 310q16 100 -24 152t-121 52q-78 0 -142.5 -52.5t-78.5 -144.5l-50 -317h-18z" />
    <glyph glyph-name="o" unicode="o" horiz-adv-x="567" 
d="M263 -7q-99 0 -162.5 69t-63.5 169q0 123 74 210.5t197 87.5q101 0 161.5 -69.5t60.5 -167.5q0 -129 -72.5 -214t-194.5 -85zM263 9q113 0 181 80.5t68 202.5q0 92 -55 156.5t-149 64.5q-117 0 -185 -82t-68 -200q0 -92 57.5 -157t150.5 -65z" />
    <glyph glyph-name="p" unicode="p" horiz-adv-x="586" 
d="M340 530q88 0 148.5 -65.5t60.5 -171.5q0 -130 -66 -215t-188 -85q-92 0 -145.5 55.5t-65.5 126.5l-57 -357h-18l84 532q16 103 21 173h18q-2 -57 -17 -148q31 70 89 112.5t136 42.5zM295 9q113 0 174.5 80t61.5 204q0 100 -55.5 160.5t-135.5 60.5q-109 0 -176 -85
t-69 -192q-1 -105 55.5 -166.5t144.5 -61.5z" />
    <glyph glyph-name="q" unicode="q" horiz-adv-x="588" 
d="M419 -182l51 325q-30 -67 -86.5 -108.5t-133.5 -41.5q-92 0 -152.5 63t-60.5 169q0 128 72 216.5t189 88.5q92 0 143.5 -57t60.5 -127l28 177h18l-111 -705h-18zM250 9q73 0 129.5 42.5t83.5 104.5t28 130q1 105 -52.5 166.5t-140.5 61.5q-111 0 -177 -83.5t-66 -205.5
q0 -100 56 -158t139 -58z" />
    <glyph glyph-name="r" unicode="r" horiz-adv-x="316" 
d="M38 0l61 389q10 64 15 134h18q-2 -60 -14 -129q58 129 204 133l-3 -16q-82 -2 -141 -56t-76 -162l-46 -293h-18z" />
    <glyph glyph-name="s" unicode="s" horiz-adv-x="444" 
d="M200 -9q-85 0 -135 40t-54 120h18q9 -144 171 -144q70 0 116 33.5t46 97.5q0 49 -31 75t-107 48q-83 25 -118.5 53.5t-35.5 81.5q0 64 48 98.5t120 34.5q158 0 170 -131h-18q-12 115 -152 115q-67 0 -108.5 -30t-41.5 -87q0 -46 31.5 -71t110.5 -48q81 -24 115.5 -53
t34.5 -86q0 -71 -52 -109t-128 -38z" />
    <glyph glyph-name="t" unicode="t" horiz-adv-x="319" 
d="M175 -7q-55 0 -80 34t-15 100l60 380h-80l3 16h79l19 119h18l-19 -119h155l-3 -16h-154l-60 -380q-18 -118 77 -118q36 0 67 12l-3 -16q-27 -12 -64 -12z" />
    <glyph glyph-name="u" unicode="u" horiz-adv-x="555" 
d="M513 523l-61 -389q-10 -68 -13 -134h-18q2 55 11 121q-28 -56 -82.5 -92t-124.5 -36q-89 0 -133.5 57t-27.5 163l49 310h18l-49 -310q-16 -100 23 -152t120 -52q78 0 142 52.5t78 144.5l50 317h18z" />
    <glyph glyph-name="v" unicode="v" horiz-adv-x="493" 
d="M196 0l-130 523h18l127 -505l277 505h19l-285 -523h-26z" />
    <glyph glyph-name="w" unicode="w" horiz-adv-x="749" 
d="M155 0l-85 523h18l82 -502l236 502h14l86 -502l234 502h19l-243 -523h-24l-83 489l-230 -489h-24z" />
    <glyph glyph-name="x" unicode="x" horiz-adv-x="485" 
d="M-11 0l241 273l-147 250h21l139 -238l209 238h22l-221 -252l159 -271h-21l-152 259l-228 -259h-22z" />
    <glyph glyph-name="y" unicode="y" horiz-adv-x="480" 
d="M78 -182l122 218l-134 487h18l129 -466l261 466h20l-396 -705h-20z" />
    <glyph glyph-name="z" unicode="z" horiz-adv-x="457" 
d="M-16 0l1 5l449 502h-339l3 16h370l-1 -5l-449 -502h360l-3 -16h-391z" />
    <glyph glyph-name="braceleft" unicode="{" horiz-adv-x="341" 
d="M236 -144q-94 6 -127 55.5t-1 137.5l45 126q25 61 0.5 101.5t-101.5 44.5l3 16q78 0 112 32.5t31 96.5l-6 132q-4 97 42 135t148 43l-3 -16q-91 -5 -132.5 -38t-37.5 -124l6 -131q5 -121 -112 -140q51 -12 69.5 -52t-3.5 -105l-45 -126q-57 -160 115 -172z" />
    <glyph glyph-name="bar" unicode="|" horiz-adv-x="226" 
d="M114 -148v924h18v-924h-18z" />
    <glyph glyph-name="braceright" unicode="}" horiz-adv-x="341" 
d="M120 776q94 -6 127 -55.5t1 -137.5l-45 -126q-25 -61 -0.5 -101.5t101.5 -44.5l-3 -16q-78 0 -112 -32.5t-31 -96.5l6 -132q4 -97 -42 -135t-148 -43l3 16q91 5 132.5 38t37.5 124l-6 131q-5 121 112 140q-51 12 -69.5 52t3.5 105l45 126q57 160 -115 172z" />
    <glyph glyph-name="asciitilde" unicode="~" horiz-adv-x="429" 
d="M48 242q9 39 31.5 64t57.5 25q32 0 82.5 -35.5t77.5 -35.5q29 0 46.5 21t24.5 52h18q-9 -39 -31.5 -64t-57.5 -25q-33 0 -83.5 35.5t-76.5 35.5q-28 0 -46 -21t-25 -52h-18z" />
    <glyph glyph-name="uni00A0" unicode="&#xa0;" horiz-adv-x="780" 
 />
    <glyph glyph-name="exclamdown" unicode="&#xa1;" horiz-adv-x="254" 
d="M162 446l-87 -563h-20l91 563h16zM178 603q7 0 12 -5t5 -12t-5 -12t-12 -5t-12 5t-5 12t5 12t12 5z" />
    <glyph glyph-name="cent" unicode="&#xa2;" horiz-adv-x="539" 
d="M268 -7q-14 0 -21 1l-20 -129h-17l20 131q-87 11 -137.5 75t-50.5 160q0 126 75.5 212.5t193.5 86.5h4l16 99h17l-16 -100q73 -6 120.5 -51.5t51.5 -114.5h-18q-3 61 -46 102.5t-111 47.5l-79 -504h18q78 0 133.5 41.5t76.5 119.5h18q-20 -86 -81.5 -131.5t-146.5 -45.5z
M60 231q0 -91 47 -150t126 -70l79 503h-2q-112 0 -181 -82.5t-69 -200.5z" />
    <glyph glyph-name="sterling" unicode="&#xa3;" horiz-adv-x="581" 
d="M61 342l3 16h80q-11 88 -11 121q0 109 61 175.5t172 66.5q93 0 141 -48t50 -128h-18q-3 73 -46.5 116t-126.5 43q-101 0 -157.5 -61t-56.5 -164q0 -33 11 -121h246l-3 -16h-241q5 -40 5 -73q0 -105 -48 -174q42 0 127.5 -42t135.5 -42q48 0 82.5 33.5t41.5 92.5h19
q-8 -68 -48.5 -105.5t-94.5 -37.5q-53 0 -140 42t-124 42q-36 0 -62.5 -21t-34.5 -57h-20q9 35 33.5 60.5t60.5 32.5q53 68 53 176q0 33 -5 73h-85z" />
    <glyph glyph-name="yen" unicode="&#xa5;" horiz-adv-x="516" 
d="M69 333l3 16h190l-163 366h20l160 -359l259 359h21l-265 -366h187l-3 -16h-193l-19 -120h193l-3 -16h-192l-31 -197h-19l31 197h-198l3 16h197l19 120h-197z" />
    <glyph glyph-name="brokenbar" unicode="&#xa6;" horiz-adv-x="226" 
d="M114 -148v445h18v-445h-18zM114 367v409h18v-409h-18z" />
    <glyph glyph-name="section" unicode="&#xa7;" horiz-adv-x="530" 
d="M215 -137q-71 0 -118 36.5t-54 104.5h19q7 -60 48 -92t105 -32q65 -1 109.5 36.5t44.5 100.5q0 50 -33 82.5t-110 61.5q-84 31 -124.5 67t-40.5 91q0 107 169 139q-66 43 -66 119q0 62 47.5 105t118.5 42q66 0 107 -33.5t42 -99.5h-18q0 55 -35.5 85.5t-95.5 30.5
q-62 1 -104.5 -35.5t-42.5 -93.5q0 -47 29.5 -81t107.5 -65q82 -33 120.5 -69t38.5 -91q0 -56 -45 -90.5t-115 -45.5q69 -41 69 -119q0 -67 -49 -110.5t-124 -43.5zM302 149q69 9 113.5 40t44.5 83q0 48 -34 79t-109 64l-70 31q-78 -13 -122.5 -41.5t-44.5 -85.5
q0 -48 37 -80t110 -60z" />
    <glyph glyph-name="dieresis" unicode="&#xa8;" horiz-adv-x="400" 
d="M190 639q-7 0 -12 5t-5 12t5 12t12 5t12 -5t5 -12t-5 -12t-12 -5zM332 639q-7 0 -12 5t-5 12t5 12t12 5t12 -5t5 -12t-5 -12t-12 -5z" />
    <glyph glyph-name="copyright" unicode="&#xa9;" horiz-adv-x="844" 
d="M437 146q-89 0 -143.5 59.5t-54.5 154.5v6q0 92 57.5 153t139.5 61q67 0 113.5 -33.5t58.5 -94.5h-18q-12 53 -52 82.5t-102 29.5q-76 0 -127.5 -56t-51.5 -142v-6q0 -89 49 -143.5t131 -54.5q62 0 104.5 32.5t54.5 89.5h17q-12 -64 -60 -101t-116 -37zM433 6
q148 0 249.5 101.5t101.5 251.5q0 147 -100.5 248.5t-248.5 101.5q-147 0 -249 -102.5t-102 -249.5q0 -149 101.5 -250t247.5 -101zM433 -9q-153 0 -259.5 105.5t-106.5 260.5q0 153 107 260t261 107q155 0 260.5 -106t105.5 -259q0 -156 -106.5 -262t-261.5 -106z" />
    <glyph glyph-name="ordfeminine" unicode="&#xaa;" horiz-adv-x="417" 
d="M199 316q-63 0 -95.5 29.5t-32.5 76.5q0 120 173 120h119l6 35q18 128 -108 128q-103 0 -132 -96h-18q14 56 55.5 84t94.5 28q74 0 105.5 -38.5t20.5 -106.5l-23 -147q-7 -49 -10 -108h-18q0 17 4 65q-19 -30 -55.5 -50t-85.5 -20zM201 332q55 0 97 30.5t49 76.5l14 87
h-118q-33 0 -57 -3.5t-48 -14t-36.5 -32t-12.5 -53.5q0 -41 28 -66t84 -25z" />
    <glyph glyph-name="guillemotleft" unicode="&#xab;" horiz-adv-x="387" 
d="M160 83l-112 178l168 178h22l-169 -179l110 -177h-19zM294 83l-112 178l168 178h22l-169 -179l110 -177h-19z" />
    <glyph glyph-name="registered" unicode="&#xae;" horiz-adv-x="514" 
d="M221 387v243h72q38 0 60.5 -17.5t22.5 -49.5v-1q0 -55 -65 -63l78 -112h-20l-78 111h-53v-111h-17zM238 513h56q64 0 64 49v1q0 51 -64 51h-56v-101zM293 297q87 0 146 59.5t59 146.5t-59 146.5t-146 59.5q-86 0 -145.5 -60.5t-59.5 -146.5q0 -87 59.5 -146t145.5 -59z
M293 282q-93 0 -157.5 63.5t-64.5 156.5q0 92 64.5 157t157.5 65q94 0 158 -64t64 -157t-64.5 -157t-157.5 -64z" />
    <glyph glyph-name="macron" unicode="&#xaf;" horiz-adv-x="400" 
d="M150 646l3 17h219l-3 -17h-219z" />
    <glyph glyph-name="degree" unicode="&#xb0;" horiz-adv-x="384" 
d="M238 468q54 1 89.5 37t35.5 89q0 48 -33.5 81t-84.5 33t-88.5 -36t-37.5 -89q0 -48 34 -81.5t85 -33.5zM238 452q-57 0 -97 38.5t-40 92.5q0 57 42.5 99t101.5 42q57 0 96.5 -38t39.5 -92q0 -59 -41.5 -100.5t-101.5 -41.5z" />
    <glyph glyph-name="plusminus" unicode="&#xb1;" horiz-adv-x="500" 
d="M217 115l34 219h-204l3 16h204l35 219h18l-35 -219h204l-3 -16h-204l-34 -219h-18zM-6 0l3 16h426l-3 -16h-426z" />
    <glyph glyph-name="twosuperior" unicode="&#xb2;" horiz-adv-x="284" 
d="M36 370l1 7l151 122q31 25 47 39.5t30.5 39.5t14.5 52q0 32 -21 52.5t-56 20.5q-40 0 -68 -23.5t-38 -68.5h-17q9 51 43 79t80 28q44 0 69.5 -24.5t25.5 -63.5q0 -30 -16 -57.5t-31.5 -42t-51.5 -43.5l-125 -101h195l-3 -16h-230z" />
    <glyph glyph-name="threesuperior" unicode="&#xb3;" horiz-adv-x="305" 
d="M184 367q-51 0 -85 26t-37 72h18q3 -38 31 -60t73 -22q43 0 71 22.5t28 64.5q0 30 -21 51.5t-59 21.5h-24l3 16h29q34 0 57 19t23 55q0 33 -22.5 51.5t-57.5 18.5q-40 0 -65.5 -21.5t-35.5 -57.5h-17q9 42 40 68t78 26q40 0 69 -22.5t29 -62.5q0 -66 -68 -83
q27 -8 43.5 -29t16.5 -51q0 -48 -33.5 -75.5t-83.5 -27.5z" />
    <glyph glyph-name="acute" unicode="&#xb4;" horiz-adv-x="400" 
d="M242 596l98 147h21l-101 -147h-18z" />
    <glyph glyph-name="paragraph" unicode="&#xb6;" horiz-adv-x="526" 
d="M208 -100l73 461h-5q-87 0 -139 43t-52 119q0 96 62.5 144t165.5 48h189l-129 -815h-18l126 799h-129l-126 -799h-18z" />
    <glyph glyph-name="periodcentered" unicode="&#xb7;" horiz-adv-x="166" 
d="M91 303q-7 0 -12 5t-5 12t5 12t12 5t12 -5t5 -12t-5 -12t-12 -5z" />
    <glyph glyph-name="cedilla" unicode="&#xb8;" horiz-adv-x="400" 
d="M144 -210q-38 0 -61 19t-25 53h19q2 -26 19 -41t48 -15q28 0 49 15t21 47q0 52 -56 52q-24 0 -46 -12l-8 8l56 84h18l-48 -71q38 14 69.5 -3t31.5 -58q0 -35 -24.5 -56.5t-62.5 -21.5z" />
    <glyph glyph-name="onesuperior" unicode="&#xb9;" horiz-adv-x="205" 
d="M129 370l51 319l-106 -68l3 20l115 74h10l-55 -345h-18z" />
    <glyph glyph-name="ordmasculine" unicode="&#xba;" horiz-adv-x="454" 
d="M250 316q-76 0 -123.5 51t-47.5 127q0 94 56 160t150 66q77 0 122.5 -52t45.5 -126q0 -98 -55.5 -162t-147.5 -64zM250 332q84 0 134 59.5t50 150.5q0 68 -40 115t-110 47q-85 0 -135.5 -61t-50.5 -149q0 -68 41.5 -115t110.5 -47z" />
    <glyph glyph-name="guillemotright" unicode="&#xbb;" horiz-adv-x="387" 
d="M225 439l112 -179l-168 -177h-22l169 179l-110 177h19zM91 439l112 -179l-168 -177h-22l169 179l-110 177h19z" />
    <glyph glyph-name="onequarter" unicode="&#xbc;" horiz-adv-x="659" 
d="M132 370l51 319l-106 -68l3 20l115 74h10l-55 -345h-18zM33 0l588 715h21l-588 -715h-21zM518 0l13 80h-187l1 6l217 259h29l-40 -249h49l-3 -16h-48l-13 -80h-18zM374 96h159l38 235z" />
    <glyph glyph-name="onehalf" unicode="&#xbd;" horiz-adv-x="659" 
d="M132 370l51 319l-106 -68l3 20l115 74h10l-55 -345h-18zM2 0l588 715h21l-588 -715h-21zM350 0l1 7l151 122q31 25 47 39.5t30.5 39.5t14.5 52q0 32 -21 52.5t-56 20.5q-40 0 -68 -23.5t-38 -68.5h-17q9 51 43 79t80 28q44 0 69.5 -24.5t25.5 -63.5q0 -30 -16 -57.5
t-31.5 -42t-51.5 -43.5l-125 -101h195l-3 -16h-230z" />
    <glyph glyph-name="threequarters" unicode="&#xbe;" horiz-adv-x="687" 
d="M187 367q-51 0 -85 26t-37 72h18q3 -38 31 -60t73 -22q43 0 71 22.5t28 64.5q0 30 -21 51.5t-59 21.5h-24l3 16h29q34 0 57 19t23 55q0 33 -22.5 51.5t-57.5 18.5q-40 0 -65.5 -21.5t-35.5 -57.5h-17q9 42 40 68t78 26q40 0 69 -22.5t29 -62.5q0 -66 -68 -83
q27 -8 43.5 -29t16.5 -51q0 -48 -33.5 -75.5t-83.5 -27.5zM88 0l588 715h21l-588 -715h-21zM546 0l13 80h-187l1 6l217 259h29l-40 -249h49l-3 -16h-48l-13 -80h-18zM402 96h159l38 235z" />
    <glyph glyph-name="questiondown" unicode="&#xbf;" horiz-adv-x="462" 
d="M292 446l-11 -72q-8 -56 -35 -90t-89 -83q-6 -4 -25 -19t-24.5 -20t-20.5 -18.5t-20.5 -20.5t-15 -21t-13 -25.5t-7 -27.5t-3.5 -33q0 -61 43.5 -91.5t105.5 -30.5q77 0 128 44t67 128h18q-14 -89 -71.5 -139t-141.5 -50q-69 0 -118.5 34.5t-49.5 104.5q0 25 6.5 47.5
t13 37t24.5 33.5t26.5 26t34.5 27.5t33 26.5q60 48 84 78.5t32 83.5l11 70h18zM306 603q7 0 12 -5t5 -12t-5 -12t-12 -5t-12 5t-5 12t5 12t12 5z" />
    <glyph glyph-name="Agrave" unicode="&#xc0;" horiz-adv-x="630" 
d="M540 0l-54 235h-355l-124 -235h-19l380 715h26l164 -715h-18zM379 701l-239 -449h342zM383 771l-64 117h21l61 -117h-18z" />
    <glyph glyph-name="Aacute" unicode="&#xc1;" horiz-adv-x="630" 
d="M540 0l-54 235h-355l-124 -235h-19l380 715h26l164 -715h-18zM379 701l-239 -449h342zM374 771l81 117h22l-84 -117h-19z" />
    <glyph glyph-name="Acircumflex" unicode="&#xc2;" horiz-adv-x="630" 
d="M540 0l-54 235h-355l-124 -235h-19l380 715h26l164 -715h-18zM379 701l-239 -449h342zM260 771l127 117h20l97 -117h-19l-89 102l-115 -102h-21z" />
    <glyph glyph-name="Atilde" unicode="&#xc3;" horiz-adv-x="630" 
d="M540 0l-54 235h-355l-124 -235h-19l380 715h26l164 -715h-18zM379 701l-239 -449h342zM455 774q-27 0 -71.5 32t-64.5 32t-36.5 -16t-22.5 -47h-17q8 39 28.5 59t48.5 20q25 0 70 -32t66 -32q19 0 35.5 16t22.5 47h17q-8 -39 -28.5 -59t-47.5 -20z" />
    <glyph glyph-name="Adieresis" unicode="&#xc4;" horiz-adv-x="630" 
d="M540 0l-54 235h-355l-124 -235h-19l380 715h26l164 -715h-18zM379 701l-239 -449h342zM310 787q-7 0 -12 5t-5 12t5 12t12 5t12 -5t5 -12t-5 -12t-12 -5zM464 787q-7 0 -12 5t-5 12t5 12t12 5t12 -5t5 -12t-5 -12t-12 -5z" />
    <glyph glyph-name="Aring" unicode="&#xc5;" horiz-adv-x="630" 
d="M540 0l-54 235h-355l-124 -235h-19l380 715h26l164 -715h-18zM379 701l-239 -449h342zM387 749q-36 0 -61 24.5t-25 58.5q0 36 26 62t63 26q38 0 62 -24t24 -59q0 -38 -25.5 -63t-63.5 -25zM387 764q32 0 52 20.5t20 52.5q0 30 -19 49t-50 19q-30 0 -51 -21t-21 -52
q0 -28 19.5 -48t49.5 -20z" />
    <glyph glyph-name="AE" unicode="&#xc6;" horiz-adv-x="941" 
d="M-14 0l468 715h484l-3 -17h-378l-51 -320h314l-3 -17h-313l-55 -344h403l-3 -17h-421l37 235h-303l-154 -235h-22zM465 698l-292 -446h294l71 446h-73z" />
    <glyph glyph-name="Ccedilla" unicode="&#xc7;" horiz-adv-x="722" 
d="M296 -210q-38 0 -61 19t-25 53h19q2 -26 19 -41t48 -15q28 0 49 15t21 47q0 52 -56 52q-24 0 -46 -12l-8 8l54 82q-119 16 -186.5 99.5t-67.5 217.5q0 109 44.5 201t131.5 148.5t199 56.5q100 0 174.5 -56.5t89.5 -154.5h-17q-17 91 -85 142.5t-162 51.5
q-161 0 -258 -112.5t-97 -276.5q0 -142 78 -223t212 -81q103 0 180.5 54.5t111.5 155.5h18q-33 -108 -117 -167.5t-193 -59.5q-19 0 -39 2l-45 -67q38 14 69.5 -3t31.5 -58q0 -35 -24.5 -56.5t-62.5 -21.5z" />
    <glyph glyph-name="Egrave" unicode="&#xc8;" horiz-adv-x="566" 
d="M53 0l113 715h397l-3 -17h-378l-51 -320h314l-3 -17h-313l-55 -344h404l-4 -17h-421zM369 771l-64 117h21l61 -117h-18z" />
    <glyph glyph-name="Eacute" unicode="&#xc9;" horiz-adv-x="566" 
d="M53 0l113 715h397l-3 -17h-378l-51 -320h314l-3 -17h-313l-55 -344h404l-4 -17h-421zM347 771l81 117h22l-84 -117h-19z" />
    <glyph glyph-name="Ecircumflex" unicode="&#xca;" horiz-adv-x="566" 
d="M53 0l113 715h397l-3 -17h-378l-51 -320h314l-3 -17h-313l-55 -344h404l-4 -17h-421zM242 771l127 117h20l97 -117h-19l-89 102l-115 -102h-21z" />
    <glyph glyph-name="Edieresis" unicode="&#xcb;" horiz-adv-x="566" 
d="M53 0l113 715h397l-3 -17h-378l-51 -320h314l-3 -17h-313l-55 -344h404l-4 -17h-421zM291 787q-7 0 -12 5t-5 12t5 12t12 5t12 -5t5 -12t-5 -12t-12 -5zM445 787q-7 0 -12 5t-5 12t5 12t12 5t12 -5t5 -12t-5 -12t-12 -5z" />
    <glyph glyph-name="Igrave" unicode="&#xcc;" horiz-adv-x="219" 
d="M58 0l113 715h19l-113 -715h-19zM184 771l-64 117h21l61 -117h-18z" />
    <glyph glyph-name="Iacute" unicode="&#xcd;" horiz-adv-x="219" 
d="M58 0l113 715h19l-113 -715h-19zM175 771l81 117h22l-84 -117h-19z" />
    <glyph glyph-name="Icircumflex" unicode="&#xce;" horiz-adv-x="219" 
d="M58 0l113 715h19l-113 -715h-19zM67 771l127 117h20l97 -117h-19l-89 102l-115 -102h-21z" />
    <glyph glyph-name="Idieresis" unicode="&#xcf;" horiz-adv-x="219" 
d="M58 0l113 715h19l-113 -715h-19zM116 787q-7 0 -12 5t-5 12t5 12t12 5t12 -5t5 -12t-5 -12t-12 -5zM270 787q-7 0 -12 5t-5 12t5 12t12 5t12 -5t5 -12t-5 -12t-12 -5z" />
    <glyph glyph-name="Eth" unicode="&#xd0;" horiz-adv-x="677" 
d="M34 352l3 17h74l55 346h171q152 0 232 -84.5t80 -219.5q0 -193 -110 -302t-296 -109h-190l55 352h-74zM74 17h169q179 0 283 104.5t104 289.5q0 128 -74 207.5t-219 79.5h-155l-52 -329h210l-3 -17h-210z" />
    <glyph glyph-name="Ntilde" unicode="&#xd1;" horiz-adv-x="701" 
d="M53 0l113 715h29l353 -693l110 693h19l-113 -715h-25l-357 700l-110 -700h-19zM507 774q-27 0 -71.5 32t-64.5 32t-36.5 -16t-22.5 -47h-17q8 39 28.5 59t48.5 20q25 0 70 -32t66 -32q19 0 35.5 16t22.5 47h17q-8 -39 -28.5 -59t-47.5 -20z" />
    <glyph glyph-name="Ograve" unicode="&#xd2;" horiz-adv-x="780" 
d="M752 389q0 -103 -45.5 -192.5t-132 -146t-194.5 -56.5q-148 0 -236 95t-88 242q0 102 46 191t133 144t195 55q142 0 232 -94.5t90 -237.5zM733 389q1 132 -81.5 223.5t-221.5 91.5q-154 0 -253.5 -109t-101.5 -264q-2 -135 81 -227.5t224 -92.5q154 0 253 112t100 266z
M440 771l-64 117h21l61 -117h-18z" />
    <glyph glyph-name="Oacute" unicode="&#xd3;" horiz-adv-x="780" 
d="M752 389q0 -103 -45.5 -192.5t-132 -146t-194.5 -56.5q-148 0 -236 95t-88 242q0 102 46 191t133 144t195 55q142 0 232 -94.5t90 -237.5zM733 389q1 132 -81.5 223.5t-221.5 91.5q-154 0 -253.5 -109t-101.5 -264q-2 -135 81 -227.5t224 -92.5q154 0 253 112t100 266z
M431 771l81 117h22l-84 -117h-19z" />
    <glyph glyph-name="Ocircumflex" unicode="&#xd4;" horiz-adv-x="780" 
d="M752 389q0 -103 -45.5 -192.5t-132 -146t-194.5 -56.5q-148 0 -236 95t-88 242q0 102 46 191t133 144t195 55q142 0 232 -94.5t90 -237.5zM733 389q1 132 -81.5 223.5t-221.5 91.5q-154 0 -253.5 -109t-101.5 -264q-2 -135 81 -227.5t224 -92.5q154 0 253 112t100 266z
M319 771l127 117h20l97 -117h-19l-89 102l-115 -102h-21z" />
    <glyph glyph-name="Otilde" unicode="&#xd5;" horiz-adv-x="780" 
d="M752 389q0 -103 -45.5 -192.5t-132 -146t-194.5 -56.5q-148 0 -236 95t-88 242q0 102 46 191t133 144t195 55q142 0 232 -94.5t90 -237.5zM733 389q1 132 -81.5 223.5t-221.5 91.5q-154 0 -253.5 -109t-101.5 -264q-2 -135 81 -227.5t224 -92.5q154 0 253 112t100 266z
M512 774q-27 0 -71.5 32t-64.5 32t-36.5 -16t-22.5 -47h-17q8 39 28.5 59t48.5 20q25 0 70 -32t66 -32q19 0 35.5 16t22.5 47h17q-8 -39 -28.5 -59t-47.5 -20z" />
    <glyph glyph-name="Odieresis" unicode="&#xd6;" horiz-adv-x="780" 
d="M752 389q0 -103 -45.5 -192.5t-132 -146t-194.5 -56.5q-148 0 -236 95t-88 242q0 102 46 191t133 144t195 55q142 0 232 -94.5t90 -237.5zM733 389q1 132 -81.5 223.5t-221.5 91.5q-154 0 -253.5 -109t-101.5 -264q-2 -135 81 -227.5t224 -92.5q154 0 253 112t100 266z
M366 787q-7 0 -12 5t-5 12t5 12t12 5t12 -5t5 -12t-5 -12t-12 -5zM520 787q-7 0 -12 5t-5 12t5 12t12 5t12 -5t5 -12t-5 -12t-12 -5z" />
    <glyph glyph-name="multiply" unicode="&#xd7;" horiz-adv-x="500" 
d="M60 156l-11 13l189 168l-146 168l13 12l146 -168l190 168l11 -13l-189 -168l147 -168l-13 -12l-147 168z" />
    <glyph glyph-name="Oslash" unicode="&#xd8;" horiz-adv-x="780" 
d="M48 -14l-11 11l97 102q-78 90 -78 232q0 102 46 191t133 144t195 55q132 0 220 -83l93 97l11 -11l-93 -97q91 -94 91 -238q0 -103 -45.5 -192.5t-132 -146t-194.5 -56.5q-147 0 -235 93zM733 389q0 138 -83 226l-493 -515q86 -89 223 -89q154 0 253 112t100 266zM75 331
q-3 -130 72 -219l492 514q-83 78 -209 78q-154 0 -253.5 -109t-101.5 -264z" />
    <glyph glyph-name="Ugrave" unicode="&#xd9;" horiz-adv-x="666" 
d="M315 -4q-134 0 -195.5 70.5t-41.5 195.5l72 453h19l-72 -453q-18 -119 36.5 -184t182.5 -65q111 0 170 55t77 168l76 479h19l-76 -479q-19 -122 -83 -181t-184 -59zM404 771l-64 117h21l61 -117h-18z" />
    <glyph glyph-name="Uacute" unicode="&#xda;" horiz-adv-x="666" 
d="M315 -4q-134 0 -195.5 70.5t-41.5 195.5l72 453h19l-72 -453q-18 -119 36.5 -184t182.5 -65q111 0 170 55t77 168l76 479h19l-76 -479q-19 -122 -83 -181t-184 -59zM389 771l81 117h22l-84 -117h-19z" />
    <glyph glyph-name="Ucircumflex" unicode="&#xdb;" horiz-adv-x="666" 
d="M315 -4q-134 0 -195.5 70.5t-41.5 195.5l72 453h19l-72 -453q-18 -119 36.5 -184t182.5 -65q111 0 170 55t77 168l76 479h19l-76 -479q-19 -122 -83 -181t-184 -59zM287 771l127 117h20l97 -117h-19l-89 102l-115 -102h-21z" />
    <glyph glyph-name="Udieresis" unicode="&#xdc;" horiz-adv-x="666" 
d="M315 -4q-134 0 -195.5 70.5t-41.5 195.5l72 453h19l-72 -453q-18 -119 36.5 -184t182.5 -65q111 0 170 55t77 168l76 479h19l-76 -479q-19 -122 -83 -181t-184 -59zM334 787q-7 0 -12 5t-5 12t5 12t12 5t12 -5t5 -12t-5 -12t-12 -5zM488 787q-7 0 -12 5t-5 12t5 12t12 5
t12 -5t5 -12t-5 -12t-12 -5z" />
    <glyph glyph-name="Yacute" unicode="&#xdd;" horiz-adv-x="554" 
d="M228 0l51 325l-194 390h19l187 -373l282 373h22l-297 -391l-51 -324h-19zM329 771l81 117h22l-84 -117h-19z" />
    <glyph glyph-name="Thorn" unicode="&#xde;" horiz-adv-x="552" 
d="M184 715l-25 -156h143q103 0 162 -43.5t59 -128.5q0 -206 -250 -206h-174l-28 -181h-18l113 715h18zM301 542h-145l-54 -344h171q112 0 171.5 43t59.5 146q0 155 -203 155z" />
    <glyph glyph-name="germandbls" unicode="&#xdf;" horiz-adv-x="540" 
d="M271 -4q-66 0 -108 22l3 17q48 -23 105 -23q93 0 149 58t56 159q0 87 -59 149t-146 65l3 16q86 3 142.5 48.5t56.5 121.5q0 62 -40 96t-99 35q-76 1 -125 -46t-61 -128l-92 -586h-18l92 587q13 88 68 138.5t136 50.5q67 0 112 -39.5t45 -107.5q0 -72 -49 -119.5
t-121 -58.5q71 -16 122 -76t51 -146q0 -108 -61 -170.5t-162 -62.5z" />
    <glyph glyph-name="agrave" unicode="&#xe0;" horiz-adv-x="515" 
d="M206 -7q-86 0 -129.5 39t-43.5 101q0 159 218 159h175l7 47q25 175 -148 175q-141 0 -181 -131h-18q19 74 73.5 110.5t125.5 36.5q98 0 139 -52t27 -140l-31 -196q-8 -50 -14 -142h-18q1 30 7 90q-24 -40 -73.5 -68.5t-115.5 -28.5zM206 9q75 0 131.5 41t66.5 102l19 124
h-172q-42 0 -74.5 -6t-62.5 -20.5t-46.5 -44t-16.5 -72.5q0 -56 38.5 -90t116.5 -34zM290 596l-55 147h19l53 -147h-17z" />
    <glyph glyph-name="aacute" unicode="&#xe1;" horiz-adv-x="515" 
d="M206 -7q-86 0 -129.5 39t-43.5 101q0 159 218 159h175l7 47q25 175 -148 175q-141 0 -181 -131h-18q19 74 73.5 110.5t125.5 36.5q98 0 139 -52t27 -140l-31 -196q-8 -50 -14 -142h-18q1 30 7 90q-24 -40 -73.5 -68.5t-115.5 -28.5zM206 9q75 0 131.5 41t66.5 102l19 124
h-172q-42 0 -74.5 -6t-62.5 -20.5t-46.5 -44t-16.5 -72.5q0 -56 38.5 -90t116.5 -34zM283 596l98 147h21l-101 -147h-18z" />
    <glyph glyph-name="acircumflex" unicode="&#xe2;" horiz-adv-x="515" 
d="M206 -7q-86 0 -129.5 39t-43.5 101q0 159 218 159h175l7 47q25 175 -148 175q-141 0 -181 -131h-18q19 74 73.5 110.5t125.5 36.5q98 0 139 -52t27 -140l-31 -196q-8 -50 -14 -142h-18q1 30 7 90q-24 -40 -73.5 -68.5t-115.5 -28.5zM206 9q75 0 131.5 41t66.5 102l19 124
h-172q-42 0 -74.5 -6t-62.5 -20.5t-46.5 -44t-16.5 -72.5q0 -56 38.5 -90t116.5 -34zM177 596l127 124h19l96 -124h-19l-88 109l-114 -109h-21z" />
    <glyph glyph-name="atilde" unicode="&#xe3;" horiz-adv-x="515" 
d="M206 -7q-86 0 -129.5 39t-43.5 101q0 159 218 159h175l7 47q25 175 -148 175q-141 0 -181 -131h-18q19 74 73.5 110.5t125.5 36.5q98 0 139 -52t27 -140l-31 -196q-8 -50 -14 -142h-18q1 30 7 90q-24 -40 -73.5 -68.5t-115.5 -28.5zM206 9q75 0 131.5 41t66.5 102l19 124
h-172q-42 0 -74.5 -6t-62.5 -20.5t-46.5 -44t-16.5 -72.5q0 -56 38.5 -90t116.5 -34zM371 613q-27 0 -71.5 32t-64.5 32t-36.5 -16t-22.5 -47h-17q8 39 28.5 59t48.5 20q25 0 70 -32t66 -32q19 0 35.5 16t22.5 47h17q-8 -39 -28.5 -59t-47.5 -20z" />
    <glyph glyph-name="adieresis" unicode="&#xe4;" horiz-adv-x="515" 
d="M206 -7q-86 0 -129.5 39t-43.5 101q0 159 218 159h175l7 47q25 175 -148 175q-141 0 -181 -131h-18q19 74 73.5 110.5t125.5 36.5q98 0 139 -52t27 -140l-31 -196q-8 -50 -14 -142h-18q1 30 7 90q-24 -40 -73.5 -68.5t-115.5 -28.5zM206 9q75 0 131.5 41t66.5 102l19 124
h-172q-42 0 -74.5 -6t-62.5 -20.5t-46.5 -44t-16.5 -72.5q0 -56 38.5 -90t116.5 -34zM233 639q-7 0 -12 5t-5 12t5 12t12 5t12 -5t5 -12t-5 -12t-12 -5zM375 639q-7 0 -12 5t-5 12t5 12t12 5t12 -5t5 -12t-5 -12t-12 -5z" />
    <glyph glyph-name="aring" unicode="&#xe5;" horiz-adv-x="515" 
d="M206 -7q-86 0 -129.5 39t-43.5 101q0 159 218 159h175l7 47q25 175 -148 175q-141 0 -181 -131h-18q19 74 73.5 110.5t125.5 36.5q98 0 139 -52t27 -140l-31 -196q-8 -50 -14 -142h-18q1 30 7 90q-24 -40 -73.5 -68.5t-115.5 -28.5zM206 9q75 0 131.5 41t66.5 102l19 124
h-172q-42 0 -74.5 -6t-62.5 -20.5t-46.5 -44t-16.5 -72.5q0 -56 38.5 -90t116.5 -34zM311 619q32 0 52 20.5t20 52.5q0 30 -19 49t-50 19q-30 0 -51 -21t-21 -52q0 -28 19.5 -48t49.5 -20zM311 604q-36 0 -61 24.5t-25 58.5q0 36 26 62t63 26q38 0 62 -24.5t24 -58.5
q0 -38 -25.5 -63t-63.5 -25z" />
    <glyph glyph-name="ae" unicode="&#xe6;" horiz-adv-x="904" 
d="M439 219q0 -102 48 -156t143 -54q146 0 198 132h18q-53 -148 -216 -148q-185 0 -206 181q-15 -91 -77.5 -136t-140.5 -45q-86 0 -129.5 38.5t-43.5 100.5q0 154 218 154h175l8 53q25 175 -149 175q-141 0 -181 -131h-18q19 74 73.5 110.5t125.5 36.5q86 0 128 -40.5
t40 -112.5q32 70 88.5 111.5t134.5 41.5q109 0 158 -70t32 -177l-2 -13h-422q-3 -26 -3 -51zM206 9q79 0 135 45.5t69 130.5l13 85h-172q-42 0 -74.5 -5.5t-62.5 -19.5t-46.5 -42.5t-16.5 -70.5q0 -56 38.5 -89.5t116.5 -33.5zM676 514q-96 0 -156 -64t-76 -164h405
q14 101 -29 164.5t-144 63.5z" />
    <glyph glyph-name="ccedilla" unicode="&#xe7;" horiz-adv-x="539" 
d="M209 -210q-38 0 -61 19t-25 53h19q2 -26 19 -41t48 -15q28 0 49 15t21 47q0 52 -56 52q-24 0 -46 -12l-8 8l54 81q-85 13 -133 76t-48 158q0 126 75.5 212.5t193.5 86.5q81 0 135 -46.5t58 -120.5h-18q-3 66 -51.5 108.5t-124.5 42.5q-112 0 -181 -82.5t-69 -200.5
q0 -101 57.5 -161.5t150.5 -60.5q78 0 133.5 41.5t76.5 119.5h18q-20 -86 -81.5 -131.5t-146.5 -45.5q-15 0 -29 2l-44 -66q38 14 69.5 -3t31.5 -58q0 -35 -24.5 -56.5t-62.5 -21.5z" />
    <glyph glyph-name="egrave" unicode="&#xe8;" horiz-adv-x="529" 
d="M57 219q0 -101 50.5 -155.5t145.5 -54.5q147 0 200 132h18q-53 -148 -218 -148q-105 0 -160 59.5t-55 166.5q0 127 71 219t190 92q110 0 159.5 -70t32.5 -177l-2 -13h-429q-3 -26 -3 -51zM299 514q-97 0 -158.5 -64.5t-78.5 -163.5h412q14 101 -29.5 164.5t-145.5 63.5z
M298 596l-55 147h19l53 -147h-17z" />
    <glyph glyph-name="eacute" unicode="&#xe9;" horiz-adv-x="529" 
d="M57 219q0 -101 50.5 -155.5t145.5 -54.5q147 0 200 132h18q-53 -148 -218 -148q-105 0 -160 59.5t-55 166.5q0 127 71 219t190 92q110 0 159.5 -70t32.5 -177l-2 -13h-429q-3 -26 -3 -51zM299 514q-97 0 -158.5 -64.5t-78.5 -163.5h412q14 101 -29.5 164.5t-145.5 63.5z
M291 596l98 147h21l-101 -147h-18z" />
    <glyph glyph-name="ecircumflex" unicode="&#xea;" horiz-adv-x="529" 
d="M57 219q0 -101 50.5 -155.5t145.5 -54.5q147 0 200 132h18q-53 -148 -218 -148q-105 0 -160 59.5t-55 166.5q0 127 71 219t190 92q110 0 159.5 -70t32.5 -177l-2 -13h-429q-3 -26 -3 -51zM299 514q-97 0 -158.5 -64.5t-78.5 -163.5h412q14 101 -29.5 164.5t-145.5 63.5z
M185 596l127 124h19l96 -124h-19l-88 109l-114 -109h-21z" />
    <glyph glyph-name="edieresis" unicode="&#xeb;" horiz-adv-x="529" 
d="M57 219q0 -101 50.5 -155.5t145.5 -54.5q147 0 200 132h18q-53 -148 -218 -148q-105 0 -160 59.5t-55 166.5q0 127 71 219t190 92q110 0 159.5 -70t32.5 -177l-2 -13h-429q-3 -26 -3 -51zM299 514q-97 0 -158.5 -64.5t-78.5 -163.5h412q14 101 -29.5 164.5t-145.5 63.5z
M241 639q-7 0 -12 5t-5 12t5 12t12 5t12 -5t5 -12t-5 -12t-12 -5zM383 639q-7 0 -12 5t-5 12t5 12t12 5t12 -5t5 -12t-5 -12t-12 -5z" />
    <glyph glyph-name="igrave" unicode="&#xec;" horiz-adv-x="182" 
d="M40 0l82 523h18l-82 -523h-18zM132 596l-55 147h19l53 -147h-17z" />
    <glyph glyph-name="iacute" unicode="&#xed;" horiz-adv-x="182" 
d="M40 0l82 523h18l-82 -523h-18zM131 596l98 147h21l-101 -147h-18z" />
    <glyph glyph-name="icircumflex" unicode="&#xee;" horiz-adv-x="182" 
d="M40 0l82 523h18l-82 -523h-18zM19 596l127 124h19l96 -124h-19l-88 109l-114 -109h-21z" />
    <glyph glyph-name="idieresis" unicode="&#xef;" horiz-adv-x="182" 
d="M96 639q-7 0 -12 5t-5 12t5 12t12 5t12 -5t5 -12t-5 -12t-12 -5zM208 639q-7 0 -12 5t-5 12t5 12t12 5t12 -5t5 -12t-5 -12t-12 -5zM40 0l82 523h18l-82 -523h-18z" />
    <glyph glyph-name="eth" unicode="&#xf0;" horiz-adv-x="570" 
d="M160 597l-6 13l160 83q-48 40 -114 80h27q61 -38 103 -71l129 67l6 -13l-123 -64q188 -161 188 -395q0 -132 -73.5 -218t-195.5 -86q-99 0 -161.5 69t-62.5 169q0 122 74.5 210t195.5 88q135 0 196 -121q-41 160 -177 275zM55 231q0 -92 56.5 -157t149.5 -65
q113 0 182 80.5t69 202.5q0 100 -57 160.5t-148 60.5q-115 0 -183.5 -82t-68.5 -200z" />
    <glyph glyph-name="ntilde" unicode="&#xf1;" horiz-adv-x="559" 
d="M38 0l61 389q10 64 15 134h18q-2 -56 -13 -123q28 56 83 93t125 37q90 0 135 -57t28 -163l-49 -310h-18l49 310q16 100 -24 152t-121 52q-78 0 -142.5 -52.5t-78.5 -144.5l-50 -317h-18zM389 613q-27 0 -71.5 32t-64.5 32t-36.5 -16t-22.5 -47h-17q8 39 28.5 59t48.5 20
q25 0 70 -32t66 -32q19 0 35.5 16t22.5 47h17q-8 -39 -28.5 -59t-47.5 -20z" />
    <glyph glyph-name="ograve" unicode="&#xf2;" horiz-adv-x="567" 
d="M263 -7q-99 0 -162.5 69t-63.5 169q0 123 74 210.5t197 87.5q101 0 161.5 -69.5t60.5 -167.5q0 -129 -72.5 -214t-194.5 -85zM263 9q113 0 181 80.5t68 202.5q0 92 -55 156.5t-149 64.5q-117 0 -185 -82t-68 -200q0 -92 57.5 -157t150.5 -65zM314 596l-55 147h19l53 -147
h-17z" />
    <glyph glyph-name="oacute" unicode="&#xf3;" horiz-adv-x="567" 
d="M263 -7q-99 0 -162.5 69t-63.5 169q0 123 74 210.5t197 87.5q101 0 161.5 -69.5t60.5 -167.5q0 -129 -72.5 -214t-194.5 -85zM263 9q113 0 181 80.5t68 202.5q0 92 -55 156.5t-149 64.5q-117 0 -185 -82t-68 -200q0 -92 57.5 -157t150.5 -65zM309 596l98 147h21
l-101 -147h-18z" />
    <glyph glyph-name="ocircumflex" unicode="&#xf4;" horiz-adv-x="567" 
d="M263 -7q-99 0 -162.5 69t-63.5 169q0 123 74 210.5t197 87.5q101 0 161.5 -69.5t60.5 -167.5q0 -129 -72.5 -214t-194.5 -85zM263 9q113 0 181 80.5t68 202.5q0 92 -55 156.5t-149 64.5q-117 0 -185 -82t-68 -200q0 -92 57.5 -157t150.5 -65zM199 596l127 124h19l96 -124
h-19l-88 109l-114 -109h-21z" />
    <glyph glyph-name="otilde" unicode="&#xf5;" horiz-adv-x="567" 
d="M263 -7q-99 0 -162.5 69t-63.5 169q0 123 74 210.5t197 87.5q101 0 161.5 -69.5t60.5 -167.5q0 -129 -72.5 -214t-194.5 -85zM263 9q113 0 181 80.5t68 202.5q0 92 -55 156.5t-149 64.5q-117 0 -185 -82t-68 -200q0 -92 57.5 -157t150.5 -65zM392 613q-27 0 -71.5 32
t-64.5 32t-36.5 -16t-22.5 -47h-17q8 39 28.5 59t48.5 20q25 0 70 -32t66 -32q19 0 35.5 16t22.5 47h17q-8 -39 -28.5 -59t-47.5 -20z" />
    <glyph glyph-name="odieresis" unicode="&#xf6;" horiz-adv-x="567" 
d="M263 -7q-99 0 -162.5 69t-63.5 169q0 123 74 210.5t197 87.5q101 0 161.5 -69.5t60.5 -167.5q0 -129 -72.5 -214t-194.5 -85zM263 9q113 0 181 80.5t68 202.5q0 92 -55 156.5t-149 64.5q-117 0 -185 -82t-68 -200q0 -92 57.5 -157t150.5 -65zM254 639q-7 0 -12 5t-5 12
t5 12t12 5t12 -5t5 -12t-5 -12t-12 -5zM396 639q-7 0 -12 5t-5 12t5 12t12 5t12 -5t5 -12t-5 -12t-12 -5z" />
    <glyph glyph-name="divide" unicode="&#xf7;" horiz-adv-x="500" 
d="M47 334l3 16h426l-3 -16h-426zM239 161q-7 0 -12 5t-5 12t5 12t12 5t12 -5t5 -12t-5 -12t-12 -5zM285 489q-7 0 -12 5t-5 12t5 12t12 5t12 -5t5 -12t-5 -12t-12 -5z" />
    <glyph glyph-name="oslash" unicode="&#xf8;" horiz-adv-x="567" 
d="M32 -11l-12 10l71 73q-54 65 -54 159q0 123 74 210.5t197 87.5q97 0 159 -67l68 71l11 -10l-70 -72q54 -66 54 -159q0 -129 -72.5 -214t-194.5 -85q-97 0 -162 68zM263 9q113 0 181 80.5t68 202.5q0 84 -47 147l-352 -366q58 -64 150 -64zM55 231q0 -86 48 -146l352 365
q-55 63 -147 63q-117 0 -185 -82t-68 -200z" />
    <glyph glyph-name="ugrave" unicode="&#xf9;" horiz-adv-x="555" 
d="M513 523l-61 -389q-10 -68 -13 -134h-18q2 55 11 121q-28 -56 -82.5 -92t-124.5 -36q-89 0 -133.5 57t-27.5 163l49 310h18l-49 -310q-16 -100 23 -152t120 -52q78 0 142 52.5t78 144.5l50 317h18zM311 596l-55 147h19l53 -147h-17z" />
    <glyph glyph-name="uacute" unicode="&#xfa;" horiz-adv-x="555" 
d="M513 523l-61 -389q-10 -68 -13 -134h-18q2 55 11 121q-28 -56 -82.5 -92t-124.5 -36q-89 0 -133.5 57t-27.5 163l49 310h18l-49 -310q-16 -100 23 -152t120 -52q78 0 142 52.5t78 144.5l50 317h18zM300 596l98 147h21l-101 -147h-18z" />
    <glyph glyph-name="ucircumflex" unicode="&#xfb;" horiz-adv-x="555" 
d="M513 523l-61 -389q-10 -68 -13 -134h-18q2 55 11 121q-28 -56 -82.5 -92t-124.5 -36q-89 0 -133.5 57t-27.5 163l49 310h18l-49 -310q-16 -100 23 -152t120 -52q78 0 142 52.5t78 144.5l50 317h18zM193 596l127 124h19l96 -124h-19l-88 109l-114 -109h-21z" />
    <glyph glyph-name="udieresis" unicode="&#xfc;" horiz-adv-x="555" 
d="M513 523l-61 -389q-10 -68 -13 -134h-18q2 55 11 121q-28 -56 -82.5 -92t-124.5 -36q-89 0 -133.5 57t-27.5 163l49 310h18l-49 -310q-16 -100 23 -152t120 -52q78 0 142 52.5t78 144.5l50 317h18zM255 639q-7 0 -12 5t-5 12t5 12t12 5t12 -5t5 -12t-5 -12t-12 -5z
M397 639q-7 0 -12 5t-5 12t5 12t12 5t12 -5t5 -12t-5 -12t-12 -5z" />
    <glyph glyph-name="yacute" unicode="&#xfd;" horiz-adv-x="480" 
d="M78 -182l122 218l-134 487h18l129 -466l261 466h20l-396 -705h-20zM275 596l98 147h21l-101 -147h-18z" />
    <glyph glyph-name="thorn" unicode="&#xfe;" horiz-adv-x="586" 
d="M9 -182l151 955h18l-62 -395q31 67 89 109.5t135 42.5q88 0 148.5 -65.5t60.5 -171.5q0 -130 -66 -215t-188 -85q-93 0 -146.5 56.5t-64.5 127.5l-57 -359h-18zM295 9q113 0 174.5 80t61.5 204q0 100 -55.5 160.5t-135.5 60.5q-109 0 -176 -85t-69 -192
q-1 -105 55.5 -166.5t144.5 -61.5z" />
    <glyph glyph-name="ydieresis" unicode="&#xff;" horiz-adv-x="480" 
d="M78 -182l122 218l-134 487h18l129 -466l261 466h20l-396 -705h-20zM229 639q-7 0 -12 5t-5 12t5 12t12 5t12 -5t5 -12t-5 -12t-12 -5zM371 639q-7 0 -12 5t-5 12t5 12t12 5t12 -5t5 -12t-5 -12t-12 -5z" />
    <glyph glyph-name="Amacron" unicode="&#x100;" horiz-adv-x="630" 
d="M540 0l-54 235h-355l-124 -235h-19l380 715h26l164 -715h-18zM379 701l-239 -449h342zM277 797l3 17h226l-3 -17h-226z" />
    <glyph glyph-name="amacron" unicode="&#x101;" horiz-adv-x="515" 
d="M206 -7q-86 0 -129.5 39t-43.5 101q0 159 218 159h175l7 47q25 175 -148 175q-141 0 -181 -131h-18q19 74 73.5 110.5t125.5 36.5q98 0 139 -52t27 -140l-31 -196q-8 -50 -14 -142h-18q1 30 7 90q-24 -40 -73.5 -68.5t-115.5 -28.5zM206 9q75 0 131.5 41t66.5 102l19 124
h-172q-42 0 -74.5 -6t-62.5 -20.5t-46.5 -44t-16.5 -72.5q0 -56 38.5 -90t116.5 -34zM199 646l3 17h219l-3 -17h-219z" />
    <glyph glyph-name="Abreve" unicode="&#x102;" horiz-adv-x="630" 
d="M540 0l-54 235h-355l-124 -235h-19l380 715h26l164 -715h-18zM379 701l-239 -449h342zM386 775q-50 0 -79.5 31t-30.5 81h18q1 -42 26 -69t66 -27t72.5 27t39.5 69h18q-8 -49 -45.5 -80.5t-84.5 -31.5z" />
    <glyph glyph-name="abreve" unicode="&#x103;" horiz-adv-x="515" 
d="M206 -7q-86 0 -129.5 39t-43.5 101q0 159 218 159h175l7 47q25 175 -148 175q-141 0 -181 -131h-18q19 74 73.5 110.5t125.5 36.5q98 0 139 -52t27 -140l-31 -196q-8 -50 -14 -142h-18q1 30 7 90q-24 -40 -73.5 -68.5t-115.5 -28.5zM206 9q75 0 131.5 41t66.5 102l19 124
h-172q-42 0 -74.5 -6t-62.5 -20.5t-46.5 -44t-16.5 -72.5q0 -56 38.5 -90t116.5 -34zM302 612q-48 0 -74.5 29.5t-27.5 78.5h18q0 -42 22.5 -67t61.5 -25t67.5 25t36.5 67h18q-9 -49 -43 -78.5t-79 -29.5z" />
    <glyph glyph-name="Aogonek" unicode="&#x104;" horiz-adv-x="630" 
d="M539 4l-53 231h-355l-124 -235h-19l380 715h26l164 -715q-104 -60 -104 -115q0 -51 59 -51q21 0 45 7l-3 -16q-21 -7 -43 -7q-38 0 -57 18.5t-19 48.5q0 59 103 119zM379 701l-239 -449h342z" />
    <glyph glyph-name="aogonek" unicode="&#x105;" horiz-adv-x="515" 
d="M361 -182q-38 0 -57 18.5t-19 48.5q0 58 103 120q1 28 7 85q-24 -40 -73.5 -68.5t-115.5 -28.5q-86 0 -129.5 39t-43.5 101q0 159 218 159h175l7 47q25 175 -148 175q-141 0 -181 -131h-18q19 74 73.5 110.5t125.5 36.5q98 0 139 -52t27 -140l-31 -196q-8 -50 -14 -142
q-103 -61 -103 -115q0 -51 59 -51q21 0 45 7l-3 -16q-21 -7 -43 -7zM206 9q75 0 131.5 41t66.5 102l19 124h-172q-42 0 -74.5 -6t-62.5 -20.5t-46.5 -44t-16.5 -72.5q0 -56 38.5 -90t116.5 -34z" />
    <glyph glyph-name="Cacute" unicode="&#x106;" horiz-adv-x="722" 
d="M366 -6q-143 0 -226.5 86t-83.5 235q0 109 44.5 201t131.5 148.5t199 56.5q100 0 174.5 -56.5t89.5 -154.5h-17q-17 91 -85 142.5t-162 51.5q-161 0 -258 -112.5t-97 -276.5q0 -142 78 -223t212 -81q103 0 180.5 54.5t111.5 155.5h18q-33 -108 -117 -167.5t-193 -59.5z
M421 771l81 117h22l-84 -117h-19z" />
    <glyph glyph-name="cacute" unicode="&#x107;" horiz-adv-x="539" 
d="M268 -7q-104 0 -165 66t-61 172q0 126 75.5 212.5t193.5 86.5q81 0 135 -46.5t58 -120.5h-18q-3 66 -51.5 108.5t-124.5 42.5q-112 0 -181 -82.5t-69 -200.5q0 -101 57.5 -161.5t150.5 -60.5q78 0 133.5 41.5t76.5 119.5h18q-20 -86 -81.5 -131.5t-146.5 -45.5zM300 596
l98 147h21l-101 -147h-18z" />
    <glyph glyph-name="Ccircumflex" unicode="&#x108;" horiz-adv-x="722" 
d="M366 -6q-143 0 -226.5 86t-83.5 235q0 109 44.5 201t131.5 148.5t199 56.5q100 0 174.5 -56.5t89.5 -154.5h-17q-17 91 -85 142.5t-162 51.5q-161 0 -258 -112.5t-97 -276.5q0 -142 78 -223t212 -81q103 0 180.5 54.5t111.5 155.5h18q-33 -108 -117 -167.5t-193 -59.5z
M313 771l127 117h20l97 -117h-19l-89 102l-115 -102h-21z" />
    <glyph glyph-name="ccircumflex" unicode="&#x109;" horiz-adv-x="539" 
d="M268 -7q-104 0 -165 66t-61 172q0 126 75.5 212.5t193.5 86.5q81 0 135 -46.5t58 -120.5h-18q-3 66 -51.5 108.5t-124.5 42.5q-112 0 -181 -82.5t-69 -200.5q0 -101 57.5 -161.5t150.5 -60.5q78 0 133.5 41.5t76.5 119.5h18q-20 -86 -81.5 -131.5t-146.5 -45.5zM188 596
l127 124h19l96 -124h-19l-88 109l-114 -109h-21z" />
    <glyph glyph-name="Cdotaccent" unicode="&#x10a;" horiz-adv-x="722" 
d="M366 -6q-143 0 -226.5 86t-83.5 235q0 109 44.5 201t131.5 148.5t199 56.5q100 0 174.5 -56.5t89.5 -154.5h-17q-17 91 -85 142.5t-162 51.5q-161 0 -258 -112.5t-97 -276.5q0 -142 78 -223t212 -81q103 0 180.5 54.5t111.5 155.5h18q-33 -108 -117 -167.5t-193 -59.5z
M427 787q-7 0 -12 5t-5 12t5 12t12 5t12 -5t5 -12t-5 -12t-12 -5z" />
    <glyph glyph-name="cdotaccent" unicode="&#x10b;" horiz-adv-x="539" 
d="M268 -7q-104 0 -165 66t-61 172q0 126 75.5 212.5t193.5 86.5q81 0 135 -46.5t58 -120.5h-18q-3 66 -51.5 108.5t-124.5 42.5q-112 0 -181 -82.5t-69 -200.5q0 -101 57.5 -161.5t150.5 -60.5q78 0 133.5 41.5t76.5 119.5h18q-20 -86 -81.5 -131.5t-146.5 -45.5zM317 639
q-7 0 -12 5t-5 12t5 12t12 5t12 -5t5 -12t-5 -12t-12 -5z" />
    <glyph glyph-name="Ccaron" unicode="&#x10c;" horiz-adv-x="722" 
d="M366 -6q-143 0 -226.5 86t-83.5 235q0 109 44.5 201t131.5 148.5t199 56.5q100 0 174.5 -56.5t89.5 -154.5h-17q-17 91 -85 142.5t-162 51.5q-161 0 -258 -112.5t-97 -276.5q0 -142 78 -223t212 -81q103 0 180.5 54.5t111.5 155.5h18q-33 -108 -117 -167.5t-193 -59.5z
M574 888l-127 -117h-20l-97 117h19l89 -102l115 102h21z" />
    <glyph glyph-name="ccaron" unicode="&#x10d;" horiz-adv-x="539" 
d="M268 -7q-104 0 -165 66t-61 172q0 126 75.5 212.5t193.5 86.5q81 0 135 -46.5t58 -120.5h-18q-3 66 -51.5 108.5t-124.5 42.5q-112 0 -181 -82.5t-69 -200.5q0 -101 57.5 -161.5t150.5 -60.5q78 0 133.5 41.5t76.5 119.5h18q-20 -86 -81.5 -131.5t-146.5 -45.5zM452 737
l-127 -124h-19l-96 124h19l88 -109l114 109h21z" />
    <glyph glyph-name="Dcaron" unicode="&#x10e;" horiz-adv-x="677" 
d="M53 0l113 715h171q152 0 232 -84.5t80 -219.5q0 -193 -110 -302t-296 -109h-190zM74 17h169q179 0 283 104.5t104 289.5q0 126 -74.5 206.5t-218.5 80.5h-155zM515 888l-127 -117h-20l-97 117h19l89 -102l115 102h21z" />
    <glyph glyph-name="dcaron" unicode="&#x10f;" horiz-adv-x="588" 
d="M626 626l39 147h19l-41 -147h-17zM250 -7q-92 0 -152.5 63t-60.5 169q0 128 72 216.5t189 88.5q92 0 143.5 -57t60.5 -127l68 427h18l-95 -600q-12 -75 -19 -173h-18q2 59 14 143q-30 -67 -86.5 -108.5t-133.5 -41.5zM250 9q73 0 129.5 42.5t83.5 104.5t28 130
q1 105 -52.5 166.5t-140.5 61.5q-111 0 -177 -83.5t-66 -205.5q0 -100 56 -158t139 -58z" />
    <glyph glyph-name="Dcroat" unicode="&#x110;" horiz-adv-x="677" 
d="M34 352l3 17h74l55 346h171q152 0 232 -84.5t80 -219.5q0 -193 -110 -302t-296 -109h-190l55 352h-74zM74 17h169q179 0 283 104.5t104 289.5q0 128 -74 207.5t-219 79.5h-155l-52 -329h210l-3 -17h-210z" />
    <glyph glyph-name="dcroat" unicode="&#x111;" horiz-adv-x="588" 
d="M351 633l3 16h196l20 124h18l-20 -124h82l-3 -16h-81l-73 -460q-12 -75 -19 -173h-18q2 59 14 143q-30 -67 -86.5 -108.5t-133.5 -41.5q-92 0 -152.5 63t-60.5 169q0 128 72 216.5t189 88.5q92 0 143.5 -57t60.5 -127l45 287h-196zM298 514q-111 0 -177 -83.5t-66 -205.5
q0 -100 56 -158t139 -58q73 0 129.5 42.5t83.5 104.5t28 130q1 105 -52.5 166.5t-140.5 61.5z" />
    <glyph glyph-name="Emacron" unicode="&#x112;" horiz-adv-x="566" 
d="M53 0l113 715h397l-3 -17h-378l-51 -320h314l-3 -17h-313l-55 -344h404l-4 -17h-421zM256 797l3 17h226l-3 -17h-226z" />
    <glyph glyph-name="emacron" unicode="&#x113;" horiz-adv-x="529" 
d="M57 219q0 -101 50.5 -155.5t145.5 -54.5q147 0 200 132h18q-53 -148 -218 -148q-105 0 -160 59.5t-55 166.5q0 127 71 219t190 92q110 0 159.5 -70t32.5 -177l-2 -13h-429q-3 -26 -3 -51zM299 514q-97 0 -158.5 -64.5t-78.5 -163.5h412q14 101 -29.5 164.5t-145.5 63.5z
M204 646l3 17h219l-3 -17h-219z" />
    <glyph glyph-name="Ebreve" unicode="&#x114;" horiz-adv-x="566" 
d="M53 0l113 715h397l-3 -17h-378l-51 -320h314l-3 -17h-313l-55 -344h404l-4 -17h-421zM369 775q-50 0 -79.5 31t-30.5 81h18q1 -42 26 -69t66 -27t72.5 27t39.5 69h18q-8 -49 -45.5 -80.5t-84.5 -31.5z" />
    <glyph glyph-name="ebreve" unicode="&#x115;" horiz-adv-x="529" 
d="M57 219q0 -101 50.5 -155.5t145.5 -54.5q147 0 200 132h18q-53 -148 -218 -148q-105 0 -160 59.5t-55 166.5q0 127 71 219t190 92q110 0 159.5 -70t32.5 -177l-2 -13h-429q-3 -26 -3 -51zM299 514q-97 0 -158.5 -64.5t-78.5 -163.5h412q14 101 -29.5 164.5t-145.5 63.5z
M309 612q-48 0 -74.5 29.5t-27.5 78.5h18q0 -42 22.5 -67t61.5 -25t67.5 25t36.5 67h18q-9 -49 -43 -78.5t-79 -29.5z" />
    <glyph glyph-name="Edotaccent" unicode="&#x116;" horiz-adv-x="566" 
d="M53 0l113 715h397l-3 -17h-378l-51 -320h314l-3 -17h-313l-55 -344h404l-4 -17h-421zM367 787q-7 0 -12 5t-5 12t5 12t12 5t12 -5t5 -12t-5 -12t-12 -5z" />
    <glyph glyph-name="edotaccent" unicode="&#x117;" horiz-adv-x="529" 
d="M57 219q0 -101 50.5 -155.5t145.5 -54.5q147 0 200 132h18q-53 -148 -218 -148q-105 0 -160 59.5t-55 166.5q0 127 71 219t190 92q110 0 159.5 -70t32.5 -177l-2 -13h-429q-3 -26 -3 -51zM299 514q-97 0 -158.5 -64.5t-78.5 -163.5h412q14 101 -29.5 164.5t-145.5 63.5z
M312 639q-7 0 -12 5t-5 12t5 12t12 5t12 -5t5 -12t-5 -12t-12 -5z" />
    <glyph glyph-name="Eogonek" unicode="&#x118;" horiz-adv-x="566" 
d="M53 0l113 715h397l-3 -17h-378l-51 -320h314l-3 -17h-313l-55 -344h403l-3 -17h-61q-107 -57 -107 -115q0 -51 59 -51q21 0 45 7l-3 -16q-21 -7 -43 -7q-38 0 -57 18.5t-19 48.5q0 59 96 115h-331z" />
    <glyph glyph-name="eogonek" unicode="&#x119;" horiz-adv-x="529" 
d="M293 -182q-38 0 -57 18.5t-19 48.5q0 60 103 117q-45 -9 -67 -9q-105 0 -160 59.5t-55 166.5q0 127 71 219t190 92q110 0 159.5 -70t32.5 -177l-2 -13h-429q-3 -26 -3 -51q0 -101 50.5 -155.5t145.5 -54.5q147 0 200 132h18q-24 -67 -78 -107q-19 -14 -55 -37t-54 -36
t-33.5 -33.5t-15.5 -42.5q0 -51 59 -51q21 0 45 7l-3 -16q-21 -7 -43 -7zM299 514q-97 0 -158 -64t-78 -164h411q14 101 -29.5 164.5t-145.5 63.5z" />
    <glyph glyph-name="Ecaron" unicode="&#x11a;" horiz-adv-x="566" 
d="M53 0l113 715h397l-3 -17h-378l-51 -320h314l-3 -17h-313l-55 -344h404l-4 -17h-421zM503 888l-127 -117h-20l-97 117h19l89 -102l115 102h21z" />
    <glyph glyph-name="ecaron" unicode="&#x11b;" horiz-adv-x="529" 
d="M57 219q0 -101 50.5 -155.5t145.5 -54.5q147 0 200 132h18q-53 -148 -218 -148q-105 0 -160 59.5t-55 166.5q0 127 71 219t190 92q110 0 159.5 -70t32.5 -177l-2 -13h-429q-3 -26 -3 -51zM299 514q-97 0 -158.5 -64.5t-78.5 -163.5h412q14 101 -29.5 164.5t-145.5 63.5z
M445 737l-127 -124h-19l-96 124h19l88 -109l114 109h21z" />
    <glyph glyph-name="Gcircumflex" unicode="&#x11c;" horiz-adv-x="744" 
d="M383 -6q-152 0 -238.5 90t-86.5 233q0 170 104 287t268 117q105 0 180.5 -50t89.5 -145h-19q-12 86 -82 132t-169 46q-156 0 -254.5 -111.5t-98.5 -275.5q0 -134 81.5 -220t224.5 -86q130 0 209.5 76t94.5 230h-238l3 17h256q-13 -174 -99.5 -257t-225.5 -83zM317 771
l127 117h20l97 -117h-19l-89 102l-115 -102h-21z" />
    <glyph glyph-name="gcircumflex" unicode="&#x11d;" horiz-adv-x="594" 
d="M255 33q107 1 175.5 85t68.5 198q0 86 -50 142t-142 56q-110 1 -178 -78t-68 -198q0 -90 51 -147.5t143 -57.5zM554 523l-80 -508q-16 -100 -79 -150t-163 -50q-87 0 -148 39.5t-72 115.5h18q10 -66 64 -102.5t138 -36.5q93 0 151.5 46.5t72.5 137.5l24 153
q-30 -62 -87.5 -106.5t-138.5 -44.5q-97 0 -154 60.5t-57 160.5q0 123 73.5 207.5t190.5 84.5q83 0 136 -45t68 -121l25 159h18zM200 596l127 124h19l96 -124h-19l-88 109l-114 -109h-21z" />
    <glyph glyph-name="Gbreve" unicode="&#x11e;" horiz-adv-x="744" 
d="M383 -6q-152 0 -238.5 90t-86.5 233q0 170 104 287t268 117q105 0 180.5 -50t89.5 -145h-19q-12 86 -82 132t-169 46q-156 0 -254.5 -111.5t-98.5 -275.5q0 -134 81.5 -220t224.5 -86q130 0 209.5 76t94.5 230h-238l3 17h256q-13 -174 -99.5 -257t-225.5 -83zM434 775
q-50 0 -79.5 31t-30.5 81h18q1 -42 26 -69t66 -27t72.5 27t39.5 69h18q-8 -49 -45.5 -80.5t-84.5 -31.5z" />
    <glyph glyph-name="gbreve" unicode="&#x11f;" horiz-adv-x="594" 
d="M255 33q107 1 175.5 85t68.5 198q0 86 -50 142t-142 56q-110 1 -178 -78t-68 -198q0 -90 51 -147.5t143 -57.5zM554 523l-80 -508q-16 -100 -79 -150t-163 -50q-87 0 -148 39.5t-72 115.5h18q10 -66 64 -102.5t138 -36.5q93 0 151.5 46.5t72.5 137.5l24 153
q-30 -62 -87.5 -106.5t-138.5 -44.5q-97 0 -154 60.5t-57 160.5q0 123 73.5 207.5t190.5 84.5q83 0 136 -45t68 -121l25 159h18zM325 612q-48 0 -74.5 29.5t-27.5 78.5h18q0 -42 22.5 -67t61.5 -25t67.5 25t36.5 67h18q-9 -49 -43 -78.5t-79 -29.5z" />
    <glyph glyph-name="Gdotaccent" unicode="&#x120;" horiz-adv-x="744" 
d="M383 -6q-152 0 -238.5 90t-86.5 233q0 170 104 287t268 117q105 0 180.5 -50t89.5 -145h-19q-12 86 -82 132t-169 46q-156 0 -254.5 -111.5t-98.5 -275.5q0 -134 81.5 -220t224.5 -86q130 0 209.5 76t94.5 230h-238l3 17h256q-13 -174 -99.5 -257t-225.5 -83zM442 787
q-7 0 -12 5t-5 12t5 12t12 5t12 -5t5 -12t-5 -12t-12 -5z" />
    <glyph glyph-name="gdotaccent" unicode="&#x121;" horiz-adv-x="594" 
d="M255 33q107 1 175.5 85t68.5 198q0 86 -50 142t-142 56q-110 1 -178 -78t-68 -198q0 -90 51 -147.5t143 -57.5zM554 523l-80 -508q-16 -100 -79 -150t-163 -50q-87 0 -148 39.5t-72 115.5h18q10 -66 64 -102.5t138 -36.5q93 0 151.5 46.5t72.5 137.5l24 153
q-30 -62 -87.5 -106.5t-138.5 -44.5q-97 0 -154 60.5t-57 160.5q0 123 73.5 207.5t190.5 84.5q83 0 136 -45t68 -121l25 159h18zM330 639q-7 0 -12 5t-5 12t5 12t12 5t12 -5t5 -12t-5 -12t-12 -5z" />
    <glyph glyph-name="Gcommaaccent" unicode="&#x122;" horiz-adv-x="744" 
d="M383 -6q-152 0 -238.5 90t-86.5 233q0 170 104 287t268 117q105 0 180.5 -50t89.5 -145h-19q-12 86 -82 132t-169 46q-156 0 -254.5 -111.5t-98.5 -275.5q0 -134 81.5 -220t224.5 -86q130 0 209.5 76t94.5 230h-238l3 17h256q-13 -174 -99.5 -257t-225.5 -83zM269 -186
l-14 7l67 133l19 -5z" />
    <glyph glyph-name="gcommaaccent" unicode="&#x123;" horiz-adv-x="594" 
d="M255 33q107 1 175.5 85t68.5 198q0 86 -50 142t-142 56q-110 1 -178 -78t-68 -198q0 -90 51 -147.5t143 -57.5zM554 523l-80 -508q-16 -100 -79 -150t-163 -50q-87 0 -148 39.5t-72 115.5h18q10 -66 64 -102.5t138 -36.5q93 0 151.5 46.5t72.5 137.5l24 153
q-30 -62 -87.5 -106.5t-138.5 -44.5q-97 0 -154 60.5t-57 160.5q0 123 73.5 207.5t190.5 84.5q83 0 136 -45t68 -121l25 159h18zM377 753l14 -7l-67 -133l-19 5z" />
    <glyph glyph-name="Hcircumflex" unicode="&#x124;" horiz-adv-x="702" 
d="M53 0l113 715h19l-55 -344h474l55 344h19l-113 -715h-19l56 354h-474l-56 -354h-19zM300 771l127 117h20l97 -117h-19l-89 102l-115 -102h-21z" />
    <glyph glyph-name="hcircumflex" unicode="&#x125;" horiz-adv-x="559" 
d="M38 0l122 773h18l-59 -373q28 56 83 93t125 37q90 0 135 -57t28 -163l-49 -310h-18l49 310q16 100 -24 152t-121 52q-78 0 -142.5 -52.5t-78.5 -144.5l-50 -317h-18zM228 811l127 117h20l97 -117h-19l-89 102l-115 -102h-21z" />
    <glyph glyph-name="Hbar" unicode="&#x126;" horiz-adv-x="702" 
d="M46 531l3 16h90l27 168h19l-27 -168h474l27 168h19l-27 -168h92l-3 -16h-91l-84 -531h-19l56 354h-474l-56 -354h-19l84 531h-91zM130 371h474l25 160h-474z" />
    <glyph glyph-name="hbar" unicode="&#x127;" horiz-adv-x="559" 
d="M56 633l3 16h81l20 124h18l-20 -124h196l-3 -16h-195l-37 -233q28 56 83 93t125 37q90 0 135 -57t28 -163l-49 -310h-18l49 310q16 100 -24 152t-121 52q-78 0 -142.5 -52.5t-78.5 -144.5l-50 -317h-18l100 633h-82z" />
    <glyph glyph-name="Itilde" unicode="&#x128;" horiz-adv-x="219" 
d="M58 0l113 715h19l-113 -715h-19zM256 774q-27 0 -71.5 32t-64.5 32t-36.5 -16t-22.5 -47h-17q8 39 28.5 59t48.5 20q25 0 70 -32t66 -32q19 0 35.5 16t22.5 47h17q-8 -39 -28.5 -59t-47.5 -20z" />
    <glyph glyph-name="itilde" unicode="&#x129;" horiz-adv-x="182" 
d="M40 0l82 523h18l-82 -523h-18zM213 613q-27 0 -71.5 32t-64.5 32t-36.5 -16t-22.5 -47h-17q8 39 28.5 59t48.5 20q25 0 70 -32t66 -32q19 0 35.5 16t22.5 47h17q-8 -39 -28.5 -59t-47.5 -20z" />
    <glyph glyph-name="Imacron" unicode="&#x12a;" horiz-adv-x="219" 
d="M58 0l113 715h19l-113 -715h-19zM81 797l3 17h226l-3 -17h-226z" />
    <glyph glyph-name="imacron" unicode="&#x12b;" horiz-adv-x="182" 
d="M76 646l3 17h150l-3 -17h-150zM40 0l82 523h18l-82 -523h-18z" />
    <glyph glyph-name="Ibreve" unicode="&#x12c;" horiz-adv-x="219" 
d="M58 0l113 715h19l-113 -715h-19zM187 775q-50 0 -79.5 31t-30.5 81h18q1 -42 26 -69t66 -27t72.5 27t39.5 69h18q-8 -49 -45.5 -80.5t-84.5 -31.5z" />
    <glyph glyph-name="ibreve" unicode="&#x12d;" horiz-adv-x="182" 
d="M40 0l82 523h18l-82 -523h-18zM144 612q-48 0 -74.5 29.5t-27.5 78.5h18q0 -42 22.5 -67t61.5 -25t67.5 25t36.5 67h18q-9 -49 -43 -78.5t-79 -29.5z" />
    <glyph glyph-name="Iogonek" unicode="&#x12e;" horiz-adv-x="219" 
d="M50 -182q-38 0 -57 18.5t-19 48.5q0 25 17.5 52t31 38.5t36.5 29.5l112 710h19l-113 -715q-25 -19 -39 -31.5t-30 -36.5t-16 -47q0 -51 59 -51q21 0 45 7l-3 -16q-21 -7 -43 -7z" />
    <glyph glyph-name="iogonek" unicode="&#x12f;" horiz-adv-x="182" 
d="M41 4l81 519h18l-82 -523q-81 -62 -81 -115q0 -51 59 -51q21 0 45 7l-3 -16q-21 -7 -43 -7q-38 0 -57 18.5t-19 48.5q0 55 82 119zM151 639q-7 0 -12 5t-5 12t5 12t12 5t12 -5t5 -12t-5 -12t-12 -5z" />
    <glyph glyph-name="Idotaccent" unicode="&#x130;" horiz-adv-x="219" 
d="M58 0l113 715h19l-113 -715h-19zM192 787q-7 0 -12 5t-5 12t5 12t12 5t12 -5t5 -12t-5 -12t-12 -5z" />
    <glyph glyph-name="dotlessi" unicode="&#x131;" horiz-adv-x="182" 
d="M40 0l82 523h18l-82 -523h-18z" />
    <glyph glyph-name="IJ" unicode="&#x132;" horiz-adv-x="567" 
d="M58 0l113 715h19l-113 -715h-19zM303 -4q-69 0 -117 29l3 18q50 -30 114 -30q126 0 148 140l89 562h19l-89 -563q-25 -156 -167 -156z" />
    <glyph glyph-name="ij" unicode="&#x133;" horiz-adv-x="364" 
d="M151 639q-7 0 -12 5t-5 12t5 12t12 5t12 -5t5 -12t-5 -12t-12 -5zM40 0l82 523h18l-82 -523h-18zM116 -184l3 16q43 2 62.5 23t27.5 69l95 599h18l-95 -599q-10 -59 -35 -82.5t-76 -25.5zM333 639q-7 0 -12 5t-5 12t5 12t12 5t12 -5t5 -12t-5 -12t-12 -5z" />
    <glyph glyph-name="Jcircumflex" unicode="&#x134;" horiz-adv-x="378" 
d="M114 -4q-69 0 -117 29l3 18q50 -30 114 -30q126 0 148 140l89 562h19l-89 -563q-25 -156 -167 -156zM238 771l127 117h20l97 -117h-19l-89 102l-115 -102h-21z" />
    <glyph glyph-name="jcircumflex" unicode="&#x135;" horiz-adv-x="182" 
d="M-66 -184l3 16q43 2 62.5 23t27.5 69l95 599h18l-95 -599q-10 -59 -35 -82.5t-76 -25.5zM17 596l127 124h19l96 -124h-19l-88 109l-114 -109h-21z" />
    <glyph glyph-name="Kcommaaccent" unicode="&#x136;" horiz-adv-x="579" 
d="M503 0h-24l-339 368l430 347h26l-431 -348zM53 0l113 715h19l-113 -715h-19zM205 -186l-14 7l67 133l19 -5z" />
    <glyph glyph-name="kcommaaccent" unicode="&#x137;" horiz-adv-x="452" 
d="M368 0l-262 281l323 242h26l-324 -243l260 -280h-23zM38 0l122 773h18l-122 -773h-18zM130 -186l-14 7l67 133l19 -5z" />
    <glyph glyph-name="Lacute" unicode="&#x139;" horiz-adv-x="525" 
d="M53 0l113 715h19l-111 -698h372l-3 -17h-390zM171 771l81 117h22l-84 -117h-19z" />
    <glyph glyph-name="lacute" unicode="&#x13a;" horiz-adv-x="182" 
d="M40 0l122 773h18l-122 -773h-18zM169 811l81 117h22l-84 -117h-19z" />
    <glyph glyph-name="Lcommaaccent" unicode="&#x13b;" horiz-adv-x="525" 
d="M53 0l113 715h19l-111 -698h372l-3 -17h-390zM177 -186l-14 7l67 133l19 -5z" />
    <glyph glyph-name="lcommaaccent" unicode="&#x13c;" horiz-adv-x="182" 
d="M40 0l122 773h18l-122 -773h-18zM-18 -186l-14 7l67 133l19 -5z" />
    <glyph glyph-name="Lcaron" unicode="&#x13d;" horiz-adv-x="525" 
d="M366 558l48 157h19l-49 -157h-18zM53 0l113 715h19l-111 -698h372l-3 -17h-390z" />
    <glyph glyph-name="lcaron" unicode="&#x13e;" horiz-adv-x="182" 
d="M218 626l39 147h19l-41 -147h-17zM40 0l122 773h18l-122 -773h-18z" />
    <glyph glyph-name="Ldot" unicode="&#x13f;" horiz-adv-x="525" 
d="M53 0l113 715h19l-111 -698h372l-3 -17h-390zM438 350q-7 0 -12 5t-5 12t5 12t12 5t12 -5t5 -12t-5 -12t-12 -5z" />
    <glyph glyph-name="ldot" unicode="&#x140;" horiz-adv-x="222" 
d="M40 0l122 773h18l-122 -773h-18zM219 363q-7 0 -12 5t-5 12t5 12t12 5t12 -5t5 -12t-5 -12t-12 -5z" />
    <glyph glyph-name="Lslash" unicode="&#x141;" horiz-adv-x="534" 
d="M25 268l3 18l84 29l63 400h19l-63 -393l265 94l-2 -18l-266 -94l-45 -287h371l-2 -17h-390l47 297z" />
    <glyph glyph-name="lslash" unicode="&#x142;" horiz-adv-x="206" 
d="M30 355l3 20l87 56l54 342h18l-52 -329l91 59l-3 -20l-91 -59l-67 -424h-18l65 411z" />
    <glyph glyph-name="Nacute" unicode="&#x143;" horiz-adv-x="701" 
d="M53 0l113 715h29l353 -693l110 693h19l-113 -715h-25l-357 700l-110 -700h-19zM426 771l81 117h22l-84 -117h-19z" />
    <glyph glyph-name="nacute" unicode="&#x144;" horiz-adv-x="559" 
d="M38 0l61 389q10 64 15 134h18q-2 -56 -13 -123q28 56 83 93t125 37q90 0 135 -57t28 -163l-49 -310h-18l49 310q16 100 -24 152t-121 52q-78 0 -142.5 -52.5t-78.5 -144.5l-50 -317h-18zM312 596l98 147h21l-101 -147h-18z" />
    <glyph glyph-name="Ncommaaccent" unicode="&#x145;" horiz-adv-x="701" 
d="M53 0l113 715h29l353 -693l110 693h19l-113 -715h-25l-357 700l-110 -700h-19zM246 -186l-14 7l67 133l19 -5z" />
    <glyph glyph-name="ncommaaccent" unicode="&#x146;" horiz-adv-x="559" 
d="M38 0l61 389q10 64 15 134h18q-2 -56 -13 -123q28 56 83 93t125 37q90 0 135 -57t28 -163l-49 -310h-18l49 310q16 100 -24 152t-121 52q-78 0 -142.5 -52.5t-78.5 -144.5l-50 -317h-18zM183 -186l-14 7l67 133l19 -5z" />
    <glyph glyph-name="Ncaron" unicode="&#x147;" horiz-adv-x="701" 
d="M53 0l113 715h29l353 -693l110 693h19l-113 -715h-25l-357 700l-110 -700h-19zM579 888l-127 -117h-20l-97 117h19l89 -102l115 102h21z" />
    <glyph glyph-name="ncaron" unicode="&#x148;" horiz-adv-x="559" 
d="M38 0l61 389q10 64 15 134h18q-2 -56 -13 -123q28 56 83 93t125 37q90 0 135 -57t28 -163l-49 -310h-18l49 310q16 100 -24 152t-121 52q-78 0 -142.5 -52.5t-78.5 -144.5l-50 -317h-18zM462 737l-127 -124h-19l-96 124h19l88 -109l114 109h21z" />
    <glyph glyph-name="napostrophe" unicode="&#x149;" horiz-adv-x="574" 
d="M53 0l61 389q10 64 15 134h18q-2 -56 -13 -123q28 56 83 93t125 37q90 0 135 -57t28 -163l-49 -310h-18l49 310q16 100 -24 152t-121 52q-78 0 -142.5 -52.5t-78.5 -144.5l-50 -317h-18zM47 574l-14 7l68 137l17 -8z" />
    <glyph glyph-name="Eng" unicode="&#x14a;" horiz-adv-x="701" 
d="M374 -170q144 0 169 161l-361 709l-110 -700h-19l113 715h29l353 -693l110 693h19l-114 -722q-28 -180 -189 -180q-59 0 -101 21l3 18q44 -22 98 -22z" />
    <glyph glyph-name="eng" unicode="&#x14b;" horiz-adv-x="559" 
d="M38 0l61 389q10 64 15 134h18q-2 -56 -13 -123q28 56 83 93t125 37q90 0 135 -57t28 -163l-56 -354q-13 -78 -40.5 -106.5t-91.5 -33.5l3 16q53 5 76.5 29.5t34.5 94.5l56 354q16 100 -24 152t-121 52q-78 0 -142.5 -52.5t-78.5 -144.5l-50 -317h-18z" />
    <glyph glyph-name="Omacron" unicode="&#x14c;" horiz-adv-x="780" 
d="M752 389q0 -103 -45.5 -192.5t-132 -146t-194.5 -56.5q-148 0 -236 95t-88 242q0 102 46 191t133 144t195 55q142 0 232 -94.5t90 -237.5zM733 389q1 132 -81.5 223.5t-221.5 91.5q-154 0 -253.5 -109t-101.5 -264q-2 -135 81 -227.5t224 -92.5q154 0 253 112t100 266z
M339 797l3 17h226l-3 -17h-226z" />
    <glyph glyph-name="omacron" unicode="&#x14d;" horiz-adv-x="567" 
d="M263 -7q-99 0 -162.5 69t-63.5 169q0 123 74 210.5t197 87.5q101 0 161.5 -69.5t60.5 -167.5q0 -129 -72.5 -214t-194.5 -85zM263 9q113 0 181 80.5t68 202.5q0 92 -55 156.5t-149 64.5q-117 0 -185 -82t-68 -200q0 -92 57.5 -157t150.5 -65zM220 646l3 17h219l-3 -17
h-219z" />
    <glyph glyph-name="Obreve" unicode="&#x14e;" horiz-adv-x="780" 
d="M752 389q0 -103 -45.5 -192.5t-132 -146t-194.5 -56.5q-148 0 -236 95t-88 242q0 102 46 191t133 144t195 55q142 0 232 -94.5t90 -237.5zM733 389q1 132 -81.5 223.5t-221.5 91.5q-154 0 -253.5 -109t-101.5 -264q-2 -135 81 -227.5t224 -92.5q154 0 253 112t100 266z
M443 775q-50 0 -79.5 31t-30.5 81h18q1 -42 26 -69t66 -27t72.5 27t39.5 69h18q-8 -49 -45.5 -80.5t-84.5 -31.5z" />
    <glyph glyph-name="obreve" unicode="&#x14f;" horiz-adv-x="567" 
d="M263 -7q-99 0 -162.5 69t-63.5 169q0 123 74 210.5t197 87.5q101 0 161.5 -69.5t60.5 -167.5q0 -129 -72.5 -214t-194.5 -85zM263 9q113 0 181 80.5t68 202.5q0 92 -55 156.5t-149 64.5q-117 0 -185 -82t-68 -200q0 -92 57.5 -157t150.5 -65zM326 612q-48 0 -74.5 29.5
t-27.5 78.5h18q0 -42 22.5 -67t61.5 -25t67.5 25t36.5 67h18q-9 -49 -43 -78.5t-79 -29.5z" />
    <glyph glyph-name="Ohungarumlaut" unicode="&#x150;" horiz-adv-x="780" 
d="M752 389q0 -103 -45.5 -192.5t-132 -146t-194.5 -56.5q-148 0 -236 95t-88 242q0 102 46 191t133 144t195 55q142 0 232 -94.5t90 -237.5zM733 389q1 132 -81.5 223.5t-221.5 91.5q-154 0 -253.5 -109t-101.5 -264q-2 -135 81 -227.5t224 -92.5q154 0 253 112t100 266z
M378 771l64 117h20l-67 -117h-17zM484 771l64 117h20l-67 -117h-17z" />
    <glyph glyph-name="ohungarumlaut" unicode="&#x151;" horiz-adv-x="567" 
d="M263 -7q-99 0 -162.5 69t-63.5 169q0 123 74 210.5t197 87.5q101 0 161.5 -69.5t60.5 -167.5q0 -129 -72.5 -214t-194.5 -85zM263 9q113 0 181 80.5t68 202.5q0 92 -55 156.5t-149 64.5q-117 0 -185 -82t-68 -200q0 -92 57.5 -157t150.5 -65zM264 596l82 147h21l-85 -147
h-18zM370 596l82 147h21l-85 -147h-18z" />
    <glyph glyph-name="OE" unicode="&#x152;" horiz-adv-x="956" 
d="M864 0h-496q-152 0 -232 84.5t-80 219.5q0 193 110 302t296 109h491l-3 -17h-364l-51 -320h300l-3 -17h-299l-55 -344h389zM567 698h-105q-179 0 -283 -104.5t-104 -289.5q0 -128 74 -207.5t219 -79.5h91z" />
    <glyph glyph-name="oe" unicode="&#x153;" horiz-adv-x="999" 
d="M527 219q0 -101 50.5 -155.5t145.5 -54.5q147 0 200 132h18q-53 -148 -218 -148q-96 0 -149 49.5t-62 139.5q-26 -86 -91 -137.5t-158 -51.5q-99 0 -162.5 69t-63.5 169q0 123 74 210.5t197 87.5q91 0 149 -57.5t68 -144.5q25 91 88.5 147t155.5 56q110 0 159.5 -70
t32.5 -177l-2 -13h-429q-3 -26 -3 -51zM263 9q113 0 181 80.5t68 202.5q0 92 -55 156.5t-149 64.5q-117 0 -185 -82t-68 -200q0 -92 57.5 -157t150.5 -65zM769 514q-96 0 -157.5 -64.5t-79.5 -163.5h412q14 101 -30 164.5t-145 63.5z" />
    <glyph glyph-name="Racute" unicode="&#x154;" horiz-adv-x="581" 
d="M53 0l113 715h157q103 0 160.5 -42.5t57.5 -126.5q0 -189 -222 -201l184 -345h-20l-183 343h-175l-54 -343h-18zM128 360h156q109 0 173.5 40.5t64.5 145.5q0 77 -53 114.5t-146 37.5h-142zM323 771l81 117h22l-84 -117h-19z" />
    <glyph glyph-name="racute" unicode="&#x155;" horiz-adv-x="316" 
d="M38 0l61 389q10 64 15 134h18q-2 -60 -14 -129q58 129 204 133l-3 -16q-82 -2 -141 -56t-76 -162l-46 -293h-18zM205 596l98 147h21l-101 -147h-18z" />
    <glyph glyph-name="Rcommaaccent" unicode="&#x156;" horiz-adv-x="581" 
d="M53 0l113 715h157q103 0 160.5 -42.5t57.5 -126.5q0 -189 -222 -201l184 -345h-20l-183 343h-175l-54 -343h-18zM128 360h156q109 0 173.5 40.5t64.5 145.5q0 77 -53 114.5t-146 37.5h-142zM201 -186l-14 7l67 133l19 -5z" />
    <glyph glyph-name="rcommaaccent" unicode="&#x157;" horiz-adv-x="316" 
d="M38 0l61 389q10 64 15 134h18q-2 -60 -14 -129q58 129 204 133l-3 -16q-82 -2 -141 -56t-76 -162l-46 -293h-18zM-22 -186l-14 7l67 133l19 -5z" />
    <glyph glyph-name="Rcaron" unicode="&#x158;" horiz-adv-x="581" 
d="M53 0l113 715h157q103 0 160.5 -42.5t57.5 -126.5q0 -189 -222 -201l184 -345h-20l-183 343h-175l-54 -343h-18zM128 360h156q109 0 173.5 40.5t64.5 145.5q0 77 -53 114.5t-146 37.5h-142zM476 888l-127 -117h-20l-97 117h19l89 -102l115 102h21z" />
    <glyph glyph-name="rcaron" unicode="&#x159;" horiz-adv-x="316" 
d="M38 0l61 389q10 64 15 134h18q-2 -60 -14 -129q58 129 204 133l-3 -16q-82 -2 -141 -56t-76 -162l-46 -293h-18zM357 737l-127 -124h-19l-96 124h19l88 -109l114 109h21z" />
    <glyph glyph-name="Sacute" unicode="&#x15a;" horiz-adv-x="568" 
d="M266 -6q-105 0 -172.5 48.5t-73.5 147.5h18q9 -90 68 -134.5t159 -44.5q99 0 161 50.5t62 142.5q0 68 -43 103.5t-149 63.5q-104 28 -149 65t-45 99q0 89 60.5 137.5t157.5 48.5q92 0 147.5 -40t63.5 -119h-18q-21 142 -192 142q-92 0 -146 -42.5t-54 -126.5
q0 -56 41.5 -88.5t141.5 -59.5q110 -29 156.5 -68t46.5 -115q0 -99 -67.5 -154.5t-173.5 -55.5zM321 771l81 117h22l-84 -117h-19z" />
    <glyph glyph-name="sacute" unicode="&#x15b;" horiz-adv-x="444" 
d="M200 -9q-85 0 -135 40t-54 120h18q9 -144 171 -144q70 0 116 33.5t46 97.5q0 49 -31 75t-107 48q-83 25 -118.5 53.5t-35.5 81.5q0 64 48 98.5t120 34.5q158 0 170 -131h-18q-12 115 -152 115q-67 0 -108.5 -30t-41.5 -87q0 -46 31.5 -71t110.5 -48q81 -24 115.5 -53
t34.5 -86q0 -71 -52 -109t-128 -38zM242 596l98 147h21l-101 -147h-18z" />
    <glyph glyph-name="Scircumflex" unicode="&#x15c;" horiz-adv-x="568" 
d="M266 -6q-105 0 -172.5 48.5t-73.5 147.5h18q9 -90 68 -134.5t159 -44.5q99 0 161 50.5t62 142.5q0 68 -43 103.5t-149 63.5q-104 28 -149 65t-45 99q0 89 60.5 137.5t157.5 48.5q92 0 147.5 -40t63.5 -119h-18q-21 142 -192 142q-92 0 -146 -42.5t-54 -126.5
q0 -56 41.5 -88.5t141.5 -59.5q110 -29 156.5 -68t46.5 -115q0 -99 -67.5 -154.5t-173.5 -55.5zM213 771l127 117h20l97 -117h-19l-89 102l-115 -102h-21z" />
    <glyph glyph-name="scircumflex" unicode="&#x15d;" horiz-adv-x="444" 
d="M200 -9q-85 0 -135 40t-54 120h18q9 -144 171 -144q70 0 116 33.5t46 97.5q0 49 -31 75t-107 48q-83 25 -118.5 53.5t-35.5 81.5q0 64 48 98.5t120 34.5q158 0 170 -131h-18q-12 115 -152 115q-67 0 -108.5 -30t-41.5 -87q0 -46 31.5 -71t110.5 -48q81 -24 115.5 -53
t34.5 -86q0 -71 -52 -109t-128 -38zM130 596l127 124h19l96 -124h-19l-88 109l-114 -109h-21z" />
    <glyph glyph-name="Scedilla" unicode="&#x15e;" horiz-adv-x="568" 
d="M209 -210q-38 0 -61 19t-25 53h19q2 -26 19 -41t48 -15q28 0 49 15t21 47q0 52 -56 52q-24 0 -46 -12l-8 8l55 80q-88 9 -143 57t-61 137h18q9 -90 68 -134.5t159 -44.5q99 0 161 50.5t62 142.5q0 68 -43 103.5t-149 63.5q-104 28 -149 65t-45 99q0 89 60.5 137.5
t157.5 48.5q92 0 147.5 -40t63.5 -119h-18q-21 142 -192 142q-92 0 -146 -42.5t-54 -126.5q0 -56 41.5 -88.5t141.5 -59.5q110 -29 156.5 -68t46.5 -115q0 -99 -67.5 -154.5t-173.5 -55.5h-26l-45 -65q38 14 69.5 -3t31.5 -58q0 -35 -24.5 -56.5t-62.5 -21.5z" />
    <glyph glyph-name="scedilla" unicode="&#x15f;" horiz-adv-x="444" 
d="M143 -210q-38 0 -61 19t-25 53h19q2 -26 19 -41t48 -15q28 0 49 15t21 47q0 52 -56 52q-24 0 -46 -12l-8 8l52 78q-65 9 -102.5 48.5t-41.5 108.5h18q9 -144 171 -144q70 0 116 33.5t46 97.5q0 49 -31 75t-107 48q-83 25 -118.5 53.5t-35.5 81.5q0 64 48 98.5t120 34.5
q158 0 170 -131h-18q-12 115 -152 115q-67 0 -108.5 -30t-41.5 -87q0 -46 31.5 -71t110.5 -48q81 -24 115.5 -53t34.5 -86q0 -71 -52 -109t-128 -38q-15 0 -29 1l-42 -63q38 14 69.5 -3t31.5 -58q0 -35 -24.5 -56.5t-62.5 -21.5z" />
    <glyph glyph-name="Scaron" unicode="&#x160;" horiz-adv-x="568" 
d="M266 -6q-105 0 -172.5 48.5t-73.5 147.5h18q9 -90 68 -134.5t159 -44.5q99 0 161 50.5t62 142.5q0 68 -43 103.5t-149 63.5q-104 28 -149 65t-45 99q0 89 60.5 137.5t157.5 48.5q92 0 147.5 -40t63.5 -119h-18q-21 142 -192 142q-92 0 -146 -42.5t-54 -126.5
q0 -56 41.5 -88.5t141.5 -59.5q110 -29 156.5 -68t46.5 -115q0 -99 -67.5 -154.5t-173.5 -55.5zM474 888l-127 -117h-20l-97 117h19l89 -102l115 102h21z" />
    <glyph glyph-name="scaron" unicode="&#x161;" horiz-adv-x="444" 
d="M200 -9q-85 0 -135 40t-54 120h18q9 -144 171 -144q70 0 116 33.5t46 97.5q0 49 -31 75t-107 48q-83 25 -118.5 53.5t-35.5 81.5q0 64 48 98.5t120 34.5q158 0 170 -131h-18q-12 115 -152 115q-67 0 -108.5 -30t-41.5 -87q0 -46 31.5 -71t110.5 -48q81 -24 115.5 -53
t34.5 -86q0 -71 -52 -109t-128 -38zM394 737l-127 -124h-19l-96 124h19l88 -109l114 109h21z" />
    <glyph glyph-name="Tcommaaccent" unicode="&#x162;" horiz-adv-x="557" 
d="M225 0l110 698h-238l3 17h495l-3 -17h-238l-110 -698h-19zM170 -186l-14 7l67 133l19 -5z" />
    <glyph glyph-name="tcommaaccent" unicode="&#x163;" horiz-adv-x="319" 
d="M175 -7q-55 0 -80 34t-15 100l60 380h-80l3 16h79l19 119h18l-19 -119h155l-3 -16h-154l-60 -380q-18 -118 77 -118q36 0 67 12l-3 -16q-27 -12 -64 -12zM75 -186l-14 7l67 133l19 -5z" />
    <glyph glyph-name="Tcaron" unicode="&#x164;" horiz-adv-x="557" 
d="M225 0l110 698h-238l3 17h495l-3 -17h-238l-110 -698h-19zM493 888l-127 -117h-20l-97 117h19l89 -102l115 102h21z" />
    <glyph glyph-name="tcaron" unicode="&#x165;" horiz-adv-x="319" 
d="M175 -7q-55 0 -80 34t-15 100l60 380h-80l3 16h79l19 119h18l-19 -119h155l-3 -16h-154l-60 -380q-18 -118 77 -118q36 0 67 12l-3 -16q-27 -12 -64 -12zM283 626l39 147h19l-41 -147h-17z" />
    <glyph glyph-name="Tbar" unicode="&#x166;" horiz-adv-x="557" 
d="M129 396l3 16h158l45 286h-238l3 17h495l-3 -17h-238l-45 -286h163l-3 -16h-163l-62 -396h-19l62 396h-158z" />
    <glyph glyph-name="tbar" unicode="&#x167;" horiz-adv-x="319" 
d="M32 327l3 16h79l26 164h-80l3 16h79l19 119h18l-19 -119h155l-3 -16h-154l-26 -164h155l-3 -16h-155l-31 -200q-18 -118 77 -118q36 0 67 12l-3 -16q-27 -12 -64 -12q-55 0 -80 34t-15 100l31 200h-79z" />
    <glyph glyph-name="Utilde" unicode="&#x168;" horiz-adv-x="666" 
d="M315 -4q-134 0 -195.5 70.5t-41.5 195.5l72 453h19l-72 -453q-18 -119 36.5 -184t182.5 -65q111 0 170 55t77 168l76 479h19l-76 -479q-19 -122 -83 -181t-184 -59zM477 774q-27 0 -71.5 32t-64.5 32t-36.5 -16t-22.5 -47h-17q8 39 28.5 59t48.5 20q25 0 70 -32t66 -32
q19 0 35.5 16t22.5 47h17q-8 -39 -28.5 -59t-47.5 -20z" />
    <glyph glyph-name="utilde" unicode="&#x169;" horiz-adv-x="555" 
d="M513 523l-61 -389q-10 -68 -13 -134h-18q2 55 11 121q-28 -56 -82.5 -92t-124.5 -36q-89 0 -133.5 57t-27.5 163l49 310h18l-49 -310q-16 -100 23 -152t120 -52q78 0 142 52.5t78 144.5l50 317h18zM388 613q-27 0 -71.5 32t-64.5 32t-36.5 -16t-22.5 -47h-17
q8 39 28.5 59t48.5 20q25 0 70 -32t66 -32q19 0 35.5 16t22.5 47h17q-8 -39 -28.5 -59t-47.5 -20z" />
    <glyph glyph-name="Umacron" unicode="&#x16a;" horiz-adv-x="666" 
d="M315 -4q-134 0 -195.5 70.5t-41.5 195.5l72 453h19l-72 -453q-18 -119 36.5 -184t182.5 -65q111 0 170 55t77 168l76 479h19l-76 -479q-19 -122 -83 -181t-184 -59zM301 797l3 17h226l-3 -17h-226z" />
    <glyph glyph-name="umacron" unicode="&#x16b;" horiz-adv-x="555" 
d="M513 523l-61 -389q-10 -68 -13 -134h-18q2 55 11 121q-28 -56 -82.5 -92t-124.5 -36q-89 0 -133.5 57t-27.5 163l49 310h18l-49 -310q-16 -100 23 -152t120 -52q78 0 142 52.5t78 144.5l50 317h18zM216 646l3 17h219l-3 -17h-219z" />
    <glyph glyph-name="Ubreve" unicode="&#x16c;" horiz-adv-x="666" 
d="M315 -4q-134 0 -195.5 70.5t-41.5 195.5l72 453h19l-72 -453q-18 -119 36.5 -184t182.5 -65q111 0 170 55t77 168l76 479h19l-76 -479q-19 -122 -83 -181t-184 -59zM407 775q-50 0 -79.5 31t-30.5 81h18q1 -42 26 -69t66 -27t72.5 27t39.5 69h18q-8 -49 -45.5 -80.5
t-84.5 -31.5z" />
    <glyph glyph-name="ubreve" unicode="&#x16d;" horiz-adv-x="555" 
d="M513 523l-61 -389q-10 -68 -13 -134h-18q2 55 11 121q-28 -56 -82.5 -92t-124.5 -36q-89 0 -133.5 57t-27.5 163l49 310h18l-49 -310q-16 -100 23 -152t120 -52q78 0 142 52.5t78 144.5l50 317h18zM319 612q-48 0 -74.5 29.5t-27.5 78.5h18q0 -42 22.5 -67t61.5 -25
t67.5 25t36.5 67h18q-9 -49 -43 -78.5t-79 -29.5z" />
    <glyph glyph-name="Uring" unicode="&#x16e;" horiz-adv-x="666" 
d="M315 -4q-134 0 -195.5 70.5t-41.5 195.5l72 453h19l-72 -453q-18 -119 36.5 -184t182.5 -65q111 0 170 55t77 168l76 479h19l-76 -479q-19 -122 -83 -181t-184 -59zM410 734q32 0 52 20.5t20 52.5q0 30 -19 49t-50 19q-30 0 -51 -21t-21 -52q0 -28 19.5 -48t49.5 -20z
M410 719q-36 0 -61 24.5t-25 58.5q0 36 26 62t63 26t61.5 -24t24.5 -59q0 -38 -25.5 -63t-63.5 -25z" />
    <glyph glyph-name="uring" unicode="&#x16f;" horiz-adv-x="555" 
d="M513 523l-61 -389q-10 -68 -13 -134h-18q2 55 11 121q-28 -56 -82.5 -92t-124.5 -36q-89 0 -133.5 57t-27.5 163l49 310h18l-49 -310q-16 -100 23 -152t120 -52q78 0 142 52.5t78 144.5l50 317h18zM333 619q32 0 52 20.5t20 52.5q0 30 -19 49t-50 19q-30 0 -51 -21
t-21 -52q0 -28 19.5 -48t49.5 -20zM333 604q-36 0 -61 24.5t-25 58.5q0 36 26 62t63 26q38 0 62 -24.5t24 -58.5q0 -38 -25.5 -63t-63.5 -25z" />
    <glyph glyph-name="Uhungarumlaut" unicode="&#x170;" horiz-adv-x="666" 
d="M315 -4q-134 0 -195.5 70.5t-41.5 195.5l72 453h19l-72 -453q-18 -119 36.5 -184t182.5 -65q111 0 170 55t77 168l76 479h19l-76 -479q-19 -122 -83 -181t-184 -59zM337 771l64 117h20l-67 -117h-17zM443 771l64 117h20l-67 -117h-17z" />
    <glyph glyph-name="uhungarumlaut" unicode="&#x171;" horiz-adv-x="555" 
d="M513 523l-61 -389q-10 -68 -13 -134h-18q2 55 11 121q-28 -56 -82.5 -92t-124.5 -36q-89 0 -133.5 57t-27.5 163l49 310h18l-49 -310q-16 -100 23 -152t120 -52q78 0 142 52.5t78 144.5l50 317h18zM256 596l82 147h21l-85 -147h-18zM362 596l82 147h21l-85 -147h-18z" />
    <glyph glyph-name="Uogonek" unicode="&#x172;" horiz-adv-x="666" 
d="M315 -182q-38 0 -57 18.5t-19 48.5q0 39 30 68t75 45q-18 -2 -29 -2q-134 0 -195.5 70.5t-41.5 195.5l72 453h19l-72 -453q-18 -119 36.5 -184t182.5 -65q111 0 170 55t77 172l76 475h19l-76 -479q-28 -182 -158 -224q-93 -30 -124 -53q-43 -31 -43 -74q0 -51 59 -51
q21 0 45 7l-3 -16q-21 -7 -43 -7z" />
    <glyph glyph-name="uogonek" unicode="&#x173;" horiz-adv-x="555" 
d="M513 523l-61 -389q-10 -68 -13 -134q-103 -61 -103 -115q0 -51 59 -51q21 0 45 7l-3 -16q-21 -7 -43 -7q-38 0 -57 18.5t-19 48.5q0 58 103 120q2 52 11 116q-28 -56 -82.5 -92t-124.5 -36q-89 0 -133.5 57t-27.5 163l49 310h18l-49 -310q-16 -100 23 -152t120 -52
q78 0 142 52.5t78 144.5l50 317h18z" />
    <glyph glyph-name="Wcircumflex" unicode="&#x174;" horiz-adv-x="910" 
d="M181 0l-83 715h18l81 -687l318 687h13l93 -689l306 689h19l-317 -715h-24l-90 675l-310 -675h-24zM406 771l127 117h20l97 -117h-19l-89 102l-115 -102h-21z" />
    <glyph glyph-name="wcircumflex" unicode="&#x175;" horiz-adv-x="749" 
d="M155 0l-85 523h18l82 -502l236 502h14l86 -502l234 502h19l-243 -523h-24l-83 489l-230 -489h-24zM297 596l127 124h19l96 -124h-19l-88 109l-114 -109h-21z" />
    <glyph glyph-name="Ycircumflex" unicode="&#x176;" horiz-adv-x="554" 
d="M228 0l51 325l-194 390h19l187 -373l282 373h22l-297 -391l-51 -324h-19zM233 771l127 117h20l97 -117h-19l-89 102l-115 -102h-21z" />
    <glyph glyph-name="ycircumflex" unicode="&#x177;" horiz-adv-x="480" 
d="M78 -182l122 218l-134 487h18l129 -466l261 466h20l-396 -705h-20zM163 596l127 124h19l96 -124h-19l-88 109l-114 -109h-21z" />
    <glyph glyph-name="Ydieresis" unicode="&#x178;" horiz-adv-x="554" 
d="M228 0l51 325l-194 390h19l187 -373l282 373h22l-297 -391l-51 -324h-19zM282 787q-7 0 -12 5t-5 12t5 12t12 5t12 -5t5 -12t-5 -12t-12 -5zM436 787q-7 0 -12 5t-5 12t5 12t12 5t12 -5t5 -12t-5 -12t-12 -5z" />
    <glyph glyph-name="Zacute" unicode="&#x179;" horiz-adv-x="577" 
d="M-16 0l1 7l594 691h-449l3 17h479l-1 -7l-594 -691h479l-3 -17h-509zM361 771l81 117h22l-84 -117h-19z" />
    <glyph glyph-name="zacute" unicode="&#x17a;" horiz-adv-x="457" 
d="M-16 0l1 5l449 502h-339l3 16h370l-1 -5l-449 -502h360l-3 -16h-391zM273 596l98 147h21l-101 -147h-18z" />
    <glyph glyph-name="Zdotaccent" unicode="&#x17b;" horiz-adv-x="577" 
d="M-16 0l1 7l594 691h-449l3 17h479l-1 -7l-594 -691h479l-3 -17h-509zM378 787q-7 0 -12 5t-5 12t5 12t12 5t12 -5t5 -12t-5 -12t-12 -5z" />
    <glyph glyph-name="zdotaccent" unicode="&#x17c;" horiz-adv-x="457" 
d="M-16 0l1 5l449 502h-339l3 16h370l-1 -5l-449 -502h360l-3 -16h-391zM291 639q-7 0 -12 5t-5 12t5 12t12 5t12 -5t5 -12t-5 -12t-12 -5z" />
    <glyph glyph-name="Zcaron" unicode="&#x17d;" horiz-adv-x="577" 
d="M-16 0l1 7l594 691h-449l3 17h479l-1 -7l-594 -691h479l-3 -17h-509zM509 888l-127 -117h-20l-97 117h19l89 -102l115 102h21z" />
    <glyph glyph-name="zcaron" unicode="&#x17e;" horiz-adv-x="457" 
d="M-16 0l1 5l449 502h-339l3 16h370l-1 -5l-449 -502h360l-3 -16h-391zM429 737l-127 -124h-19l-96 124h19l88 -109l114 109h21z" />
    <glyph glyph-name="florin" unicode="&#x192;" horiz-adv-x="369" 
d="M57 375l3 16h100l34 177q30 156 152 156q41 0 71 -13l-2 -15q-31 12 -68 12q-107 0 -134 -140l-34 -177h150l-3 -16h-150l-106 -557h-19l106 557h-100z" />
    <glyph glyph-name="Aringacute" unicode="&#x1fa;" horiz-adv-x="630" 
d="M540 0l-54 235h-355l-124 -235h-19l380 715h26l164 -715h-18zM379 701l-239 -449h342zM389 749q-36 0 -61 24.5t-25 58.5q0 36 26 62t63 26q38 0 62 -24t24 -59q0 -38 -25.5 -63t-63.5 -25zM389 764q32 0 52 20.5t20 52.5q0 30 -19 49t-50 19q-30 0 -51 -21t-21 -52
q0 -28 19.5 -48t49.5 -20zM394 951l81 117h22l-84 -117h-19z" />
    <glyph glyph-name="aringacute" unicode="&#x1fb;" horiz-adv-x="515" 
d="M206 -7q-86 0 -129.5 39t-43.5 101q0 159 218 159h175l7 47q25 175 -148 175q-141 0 -181 -131h-18q19 74 73.5 110.5t125.5 36.5q98 0 139 -52t27 -140l-31 -196q-8 -50 -14 -142h-18q1 30 7 90q-24 -40 -73.5 -68.5t-115.5 -28.5zM206 9q75 0 131.5 41t66.5 102l19 124
h-172q-42 0 -74.5 -6t-62.5 -20.5t-46.5 -44t-16.5 -72.5q0 -56 38.5 -90t116.5 -34zM311 619q32 0 52 20.5t20 52.5q0 30 -19 49t-50 19q-30 0 -51 -21t-21 -52q0 -28 19.5 -48t49.5 -20zM311 604q-36 0 -61 24.5t-25 58.5q0 36 26 62t63 26q38 0 62 -24.5t24 -58.5
q0 -38 -25.5 -63t-63.5 -25zM329 831l81 117h22l-84 -117h-19z" />
    <glyph glyph-name="AEacute" unicode="&#x1fc;" horiz-adv-x="941" 
d="M-14 0l468 715h484l-3 -17h-378l-51 -320h314l-3 -17h-313l-55 -344h403l-3 -17h-421l37 235h-303l-154 -235h-22zM465 698l-292 -446h294l71 446h-73zM679 771l81 117h22l-84 -117h-19z" />
    <glyph glyph-name="aeacute" unicode="&#x1fd;" horiz-adv-x="904" 
d="M439 219q0 -102 48 -156t143 -54q146 0 198 132h18q-53 -148 -216 -148q-185 0 -206 181q-15 -91 -77.5 -136t-140.5 -45q-86 0 -129.5 38.5t-43.5 100.5q0 154 218 154h175l8 53q25 175 -149 175q-141 0 -181 -131h-18q19 74 73.5 110.5t125.5 36.5q86 0 128 -40.5
t40 -112.5q32 70 88.5 111.5t134.5 41.5q109 0 158 -70t32 -177l-2 -13h-422q-3 -26 -3 -51zM206 9q79 0 135 45.5t69 130.5l13 85h-172q-42 0 -74.5 -5.5t-62.5 -19.5t-46.5 -42.5t-16.5 -70.5q0 -56 38.5 -89.5t116.5 -33.5zM676 514q-96 0 -156 -64t-76 -164h405
q14 101 -29 164.5t-144 63.5zM496 596l98 147h21l-101 -147h-18z" />
    <glyph glyph-name="Oslashacute" unicode="&#x1fe;" horiz-adv-x="780" 
d="M48 -14l-11 11l97 102q-78 90 -78 232q0 102 46 191t133 144t195 55q132 0 220 -83l93 97l11 -11l-93 -97q91 -94 91 -238q0 -103 -45.5 -192.5t-132 -146t-194.5 -56.5q-147 0 -235 93zM733 389q0 138 -83 226l-493 -515q86 -89 223 -89q154 0 253 112t100 266zM75 331
q-3 -130 72 -219l492 514q-83 78 -209 78q-154 0 -253.5 -109t-101.5 -264zM431 771l81 117h22l-84 -117h-19z" />
    <glyph glyph-name="oslashacute" unicode="&#x1ff;" horiz-adv-x="567" 
d="M32 -11l-12 10l71 73q-54 65 -54 159q0 123 74 210.5t197 87.5q97 0 159 -67l68 71l11 -10l-70 -72q54 -66 54 -159q0 -129 -72.5 -214t-194.5 -85q-97 0 -162 68zM263 9q113 0 181 80.5t68 202.5q0 84 -47 147l-352 -366q58 -64 150 -64zM55 231q0 -86 48 -146l352 365
q-55 63 -147 63q-117 0 -185 -82t-68 -200zM309 596l98 147h21l-101 -147h-18z" />
    <glyph glyph-name="Scommaaccent" unicode="&#x218;" horiz-adv-x="568" 
d="M266 -6q-105 0 -172.5 48.5t-73.5 147.5h18q9 -90 68 -134.5t159 -44.5q99 0 161 50.5t62 142.5q0 68 -43 103.5t-149 63.5q-104 28 -149 65t-45 99q0 89 60.5 137.5t157.5 48.5q92 0 147.5 -40t63.5 -119h-18q-21 142 -192 142q-92 0 -146 -42.5t-54 -126.5
q0 -56 41.5 -88.5t141.5 -59.5q110 -29 156.5 -68t46.5 -115q0 -99 -67.5 -154.5t-173.5 -55.5zM174 -186l-14 7l67 133l19 -5z" />
    <glyph glyph-name="scommaaccent" unicode="&#x219;" horiz-adv-x="444" 
d="M200 -9q-85 0 -135 40t-54 120h18q9 -144 171 -144q70 0 116 33.5t46 97.5q0 49 -31 75t-107 48q-83 25 -118.5 53.5t-35.5 81.5q0 64 48 98.5t120 34.5q158 0 170 -131h-18q-12 115 -152 115q-67 0 -108.5 -30t-41.5 -87q0 -46 31.5 -71t110.5 -48q81 -24 115.5 -53
t34.5 -86q0 -71 -52 -109t-128 -38zM99 -186l-14 7l67 133l19 -5z" />
    <glyph glyph-name="uni0237" unicode="&#x237;" horiz-adv-x="182" 
d="M-66 -184l3 16q43 2 62.5 23t27.5 69l95 599h18l-95 -599q-10 -59 -35 -82.5t-76 -25.5z" />
    <glyph glyph-name="circumflex" unicode="&#x2c6;" horiz-adv-x="400" 
d="M131 596l127 124h19l96 -124h-19l-88 109l-114 -109h-21z" />
    <glyph glyph-name="caron" unicode="&#x2c7;" horiz-adv-x="400" 
d="M391 737l-127 -124h-19l-96 124h19l88 -109l114 109h21z" />
    <glyph glyph-name="breve" unicode="&#x2d8;" horiz-adv-x="400" 
d="M263 612q-48 0 -74.5 29.5t-27.5 78.5h18q0 -42 22.5 -67t61.5 -25t67.5 25t36.5 67h18q-9 -49 -43 -78.5t-79 -29.5z" />
    <glyph glyph-name="dotaccent" unicode="&#x2d9;" horiz-adv-x="400" 
d="M261 639q-7 0 -12 5t-5 12t5 12t12 5t12 -5t5 -12t-5 -12t-12 -5z" />
    <glyph glyph-name="ring" unicode="&#x2da;" horiz-adv-x="400" 
d="M266 619q32 0 52 20.5t20 52.5q0 30 -19 49t-50 19q-30 0 -51 -21t-21 -52q0 -28 19.5 -48t49.5 -20zM266 604q-36 0 -61 24.5t-25 58.5q0 36 26 62t63 26t61.5 -24.5t24.5 -58.5q0 -38 -25.5 -63t-63.5 -25z" />
    <glyph glyph-name="ogonek" unicode="&#x2db;" horiz-adv-x="400" 
d="M145 -182q-38 0 -57 18.5t-19 48.5q0 58 100 115h25q-107 -57 -107 -115q0 -51 59 -51q21 0 45 7l-3 -16q-21 -7 -43 -7z" />
    <glyph glyph-name="tilde" unicode="&#x2dc;" horiz-adv-x="400" 
d="M333 613q-27 0 -71.5 32t-64.5 32t-36.5 -16t-22.5 -47h-17q8 39 28.5 59t48.5 20q25 0 70 -32t66 -32q19 0 35.5 16t22.5 47h17q-8 -39 -28.5 -59t-47.5 -20z" />
    <glyph glyph-name="hungarumlaut" unicode="&#x2dd;" horiz-adv-x="400" 
d="M182 596l82 147h21l-85 -147h-18zM288 596l82 147h21l-85 -147h-18z" />
    <glyph glyph-name="Wgrave" unicode="&#x1e80;" horiz-adv-x="910" 
d="M181 0l-83 715h18l81 -687l318 687h13l93 -689l306 689h19l-317 -715h-24l-90 675l-310 -675h-24zM523 771l-64 117h21l61 -117h-18z" />
    <glyph glyph-name="wgrave" unicode="&#x1e81;" horiz-adv-x="749" 
d="M155 0l-85 523h18l82 -502l236 502h14l86 -502l234 502h19l-243 -523h-24l-83 489l-230 -489h-24zM412 596l-55 147h19l53 -147h-17z" />
    <glyph glyph-name="Wacute" unicode="&#x1e82;" horiz-adv-x="910" 
d="M181 0l-83 715h18l81 -687l318 687h13l93 -689l306 689h19l-317 -715h-24l-90 675l-310 -675h-24zM514 771l81 117h22l-84 -117h-19z" />
    <glyph glyph-name="wacute" unicode="&#x1e83;" horiz-adv-x="749" 
d="M155 0l-85 523h18l82 -502l236 502h14l86 -502l234 502h19l-243 -523h-24l-83 489l-230 -489h-24zM411 596l98 147h21l-101 -147h-18z" />
    <glyph glyph-name="Wdieresis" unicode="&#x1e84;" horiz-adv-x="910" 
d="M181 0l-83 715h18l81 -687l318 687h13l93 -689l306 689h19l-317 -715h-24l-90 675l-310 -675h-24zM455 787q-7 0 -12 5t-5 12t5 12t12 5t12 -5t5 -12t-5 -12t-12 -5zM609 787q-7 0 -12 5t-5 12t5 12t12 5t12 -5t5 -12t-5 -12t-12 -5z" />
    <glyph glyph-name="wdieresis" unicode="&#x1e85;" horiz-adv-x="749" 
d="M155 0l-85 523h18l82 -502l236 502h14l86 -502l234 502h19l-243 -523h-24l-83 489l-230 -489h-24zM361 639q-7 0 -12 5t-5 12t5 12t12 5t12 -5t5 -12t-5 -12t-12 -5zM503 639q-7 0 -12 5t-5 12t5 12t12 5t12 -5t5 -12t-5 -12t-12 -5z" />
    <glyph glyph-name="Ygrave" unicode="&#x1ef2;" horiz-adv-x="554" 
d="M228 0l51 325l-194 390h19l187 -373l282 373h22l-297 -391l-51 -324h-19zM350 771l-64 117h21l61 -117h-18z" />
    <glyph glyph-name="ygrave" unicode="&#x1ef3;" horiz-adv-x="480" 
d="M78 -182l122 218l-134 487h18l129 -466l261 466h20l-396 -705h-20zM280 596l-55 147h19l53 -147h-17z" />
    <glyph glyph-name="uni2009" unicode="&#x2009;" horiz-adv-x="110" 
 />
    <glyph glyph-name="endash" unicode="&#x2013;" horiz-adv-x="476" 
d="M46 271l3 16h380l-3 -16h-380z" />
    <glyph glyph-name="emdash" unicode="&#x2014;" horiz-adv-x="850" 
d="M46 271l3 16h754l-3 -16h-754z" />
    <glyph glyph-name="quoteleft" unicode="&#x2018;" horiz-adv-x="166" 
d="M117 574l-17 8l71 136l14 -7z" />
    <glyph glyph-name="quoteright" unicode="&#x2019;" horiz-adv-x="166" 
d="M113 574l-14 7l68 137l17 -8z" />
    <glyph glyph-name="quotesinglbase" unicode="&#x201a;" horiz-adv-x="166" 
d="M13 -56l-13 7l67 137l17 -8z" />
    <glyph glyph-name="quotedblleft" unicode="&#x201c;" horiz-adv-x="262" 
d="M117 574l-17 8l71 136l14 -7zM213 574l-17 8l71 136l14 -7z" />
    <glyph glyph-name="quotedblright" unicode="&#x201d;" horiz-adv-x="262" 
d="M113 574l-14 7l68 137l17 -8zM209 574l-14 7l68 137l17 -8z" />
    <glyph glyph-name="quotedblbase" unicode="&#x201e;" horiz-adv-x="262" 
d="M13 -56l-13 7l67 137l17 -8zM109 -56l-14 7l68 137l17 -8z" />
    <glyph glyph-name="dagger" unicode="&#x2020;" horiz-adv-x="320" 
d="M145 230l52 326h-122l3 16h121l23 143h18l-23 -143h123l-3 -16h-122l-52 -326h-18z" />
    <glyph glyph-name="daggerdbl" unicode="&#x2021;" horiz-adv-x="320" 
d="M170 389l27 167h-122l3 16h121l23 143h18l-23 -143h123l-3 -16h-122l-27 -167h122l-3 -16h-121l-23 -143h-18l23 143h-123l3 16h122z" />
    <glyph glyph-name="bullet" unicode="&#x2022;" horiz-adv-x="298" 
d="M151 210q-39 0 -65 26.5t-26 63.5q0 41 28 69.5t70 28.5q39 0 65.5 -26.5t26.5 -63.5q0 -41 -28 -69.5t-71 -28.5z" />
    <glyph glyph-name="ellipsis" unicode="&#x2026;" horiz-adv-x="568" 
d="M42 -5q-7 0 -12 5t-5 12t5 12t12 5t12 -5t5 -12t-5 -12t-12 -5zM243 -5q-7 0 -12 5t-5 12t5 12t12 5t12 -5t5 -12t-5 -12t-12 -5zM444 -5q-7 0 -12 5t-5 12t5 12t12 5t12 -5t5 -12t-5 -12t-12 -5z" />
    <glyph glyph-name="perthousand" unicode="&#x2030;" horiz-adv-x="1092" 
d="M113 552q1 -53 34 -87t85 -34q62 0 101.5 41.5t38.5 107.5q-1 52 -34 87.5t-86 35.5q-61 0 -100 -44t-39 -107zM232 415q-59 0 -98 38.5t-39 98.5q0 69 44.5 118t112.5 49q58 0 98 -39.5t40 -99.5q0 -74 -45.5 -119.5t-112.5 -45.5zM80 0l590 715h21l-590 -715h-21z
M398 132q1 -53 34 -87t85 -34q62 0 101.5 41.5t38.5 107.5q-1 52 -34 87.5t-86 35.5q-61 0 -100 -44t-39 -107zM517 -5q-59 0 -98 38.5t-39 98.5q0 69 44.5 118t112.5 49q58 0 98 -39.5t40 -99.5q0 -74 -45.5 -119.5t-112.5 -45.5zM745 132q1 -53 34 -87t85 -34
q62 0 101.5 41.5t38.5 107.5q-1 52 -34 87.5t-86 35.5q-61 0 -100 -44t-39 -107zM864 -5q-59 0 -98 38.5t-39 98.5q0 69 44.5 118t112.5 49q58 0 98 -39.5t40 -99.5q0 -74 -45.5 -119.5t-112.5 -45.5z" />
    <glyph glyph-name="uni2032" unicode="&#x2032;" horiz-adv-x="130" 
d="M85 548l56 167h20l-59 -167h-17z" />
    <glyph glyph-name="uni2033" unicode="&#x2033;" horiz-adv-x="223" 
d="M85 548l56 167h20l-59 -167h-17zM178 548l56 167h20l-59 -167h-17z" />
    <glyph glyph-name="guilsinglleft" unicode="&#x2039;" horiz-adv-x="253" 
d="M160 83l-112 178l168 178h22l-169 -179l110 -177h-19z" />
    <glyph glyph-name="guilsinglright" unicode="&#x203a;" horiz-adv-x="253" 
d="M91 439l112 -179l-168 -177h-22l169 179l-110 177h19z" />
    <glyph glyph-name="fraction" unicode="&#x2044;" horiz-adv-x="113" 
d="M-234 0l588 715h21l-588 -715h-21z" />
    <glyph glyph-name="Euro" unicode="&#x20ac;" horiz-adv-x="636" 
d="M54 419l3 16h66q25 139 97.5 212.5t185.5 73.5q95 0 150.5 -49t60.5 -143h-18q-6 86 -55.5 130.5t-137.5 44.5q-106 0 -173.5 -69t-91.5 -200h268l-5 -16h-266l-20 -120h244l-5 -16h-241q-16 -120 35.5 -196t175.5 -76q91 0 151 50.5t82 141.5h18q-21 -100 -88 -154.5
t-163 -54.5q-131 0 -188.5 80.5t-40.5 208.5h-65l3 16h64l20 120h-66z" />
    <glyph glyph-name="trademark" unicode="&#x2122;" horiz-adv-x="627" 
d="M324 408l49 307h26l71 -273l157 273h28l-49 -307h-18l45 285l-165 -285h-7l-75 285l-45 -285h-17zM146 408l46 291h-98l3 16h214l-3 -16h-98l-46 -291h-18z" />
    <glyph glyph-name="onethird" unicode="&#x2153;" horiz-adv-x="689" 
d="M132 370l51 319l-106 -68l3 20l115 74h10l-55 -345h-18zM3 0l588 715h21l-588 -715h-21zM507 -3q-51 0 -85 26t-37 72h18q3 -38 31 -60t73 -22q43 0 71 22.5t28 64.5q0 30 -21 51.5t-59 21.5h-24l3 16h29q34 0 57 19t23 55q0 33 -22.5 51.5t-57.5 18.5q-40 0 -65.5 -21.5
t-35.5 -57.5h-17q9 42 40 68t78 26q40 0 69 -22.5t29 -62.5q0 -66 -68 -83q27 -8 43.5 -29t16.5 -51q0 -48 -33.5 -75.5t-83.5 -27.5z" />
    <glyph glyph-name="twothirds" unicode="&#x2154;" horiz-adv-x="740" 
d="M39 370l1 7l151 122q31 25 47 39.5t30.5 39.5t14.5 52q0 32 -21 52.5t-56 20.5q-40 0 -68 -23.5t-38 -68.5h-17q9 51 43 79t80 28q44 0 69.5 -24.5t25.5 -63.5q0 -30 -16 -57.5t-31.5 -42t-51.5 -43.5l-125 -101h195l-3 -16h-230zM73 0l588 715h21l-588 -715h-21zM558 -3
q-51 0 -85 26t-37 72h18q3 -38 31 -60t73 -22q43 0 71 22.5t28 64.5q0 30 -21 51.5t-59 21.5h-24l3 16h29q34 0 57 19t23 55q0 33 -22.5 51.5t-57.5 18.5q-40 0 -65.5 -21.5t-35.5 -57.5h-17q9 42 40 68t78 26q40 0 69 -22.5t29 -62.5q0 -66 -68 -83q27 -8 43.5 -29
t16.5 -51q0 -48 -33.5 -75.5t-83.5 -27.5z" />
    <glyph glyph-name="oneeighth" unicode="&#x215b;" horiz-adv-x="689" 
d="M132 370l51 319l-106 -68l3 20l115 74h10l-55 -345h-18zM5 0l588 715h21l-588 -715h-21zM500 -3q-50 0 -85 25t-35 68q0 40 26.5 64.5t71.5 31.5q-26 8 -43 27.5t-17 45.5q0 40 32 64.5t77 24.5q43 0 73.5 -22.5t30.5 -61.5q0 -32 -22 -54t-57 -28q71 -21 71 -85
q0 -49 -33.5 -74.5t-89.5 -25.5zM398 90q1 -35 28.5 -56t73.5 -21t75.5 20t29.5 64q0 37 -28.5 58t-71.5 21q-44 0 -75.5 -21.5t-31.5 -64.5zM436 259q0 -30 26 -48.5t63 -18.5q35 0 61.5 19t26.5 53q0 32 -24.5 50t-61.5 18q-38 0 -64.5 -18.5t-26.5 -54.5z" />
    <glyph glyph-name="threeeighths" unicode="&#x215c;" horiz-adv-x="741" 
d="M187 367q-51 0 -85 26t-37 72h18q3 -38 31 -60t73 -22q43 0 71 22.5t28 64.5q0 30 -21 51.5t-59 21.5h-24l3 16h29q34 0 57 19t23 55q0 33 -22.5 51.5t-57.5 18.5q-40 0 -65.5 -21.5t-35.5 -57.5h-17q9 42 40 68t78 26q40 0 69 -22.5t29 -62.5q0 -66 -68 -83
q27 -8 43.5 -29t16.5 -51q0 -48 -33.5 -75.5t-83.5 -27.5zM76 0l588 715h21l-588 -715h-21zM552 -3q-50 0 -85 25t-35 68q0 40 26.5 64.5t71.5 31.5q-26 8 -43 27.5t-17 45.5q0 40 32 64.5t77 24.5q43 0 73.5 -22.5t30.5 -61.5q0 -32 -22 -54t-57 -28q71 -21 71 -85
q0 -49 -33.5 -74.5t-89.5 -25.5zM450 90q1 -35 28.5 -56t73.5 -21t75.5 20t29.5 64q0 37 -28.5 58t-71.5 21q-44 0 -75.5 -21.5t-31.5 -64.5zM488 259q0 -30 26 -48.5t63 -18.5q35 0 61.5 19t26.5 53q0 32 -24.5 50t-61.5 18q-38 0 -64.5 -18.5t-26.5 -54.5z" />
    <glyph glyph-name="fiveeighths" unicode="&#x215d;" horiz-adv-x="731" 
d="M169 367q-42 0 -73 23.5t-35 65.5h18q4 -35 28.5 -54t61.5 -19q48 0 76.5 29.5t28.5 80.5q0 37 -24 61t-62 24q-54 0 -90 -40h-8l28 177h187l-3 -16h-170l-21 -134q33 29 78 29q44 0 73.5 -28t29.5 -73q0 -56 -34 -91t-89 -35zM63 0l588 715h21l-588 -715h-21zM542 -3
q-50 0 -85 25t-35 68q0 40 26.5 64.5t71.5 31.5q-26 8 -43 27.5t-17 45.5q0 40 32 64.5t77 24.5q43 0 73.5 -22.5t30.5 -61.5q0 -32 -22 -54t-57 -28q71 -21 71 -85q0 -49 -33.5 -74.5t-89.5 -25.5zM440 90q1 -35 28.5 -56t73.5 -21t75.5 20t29.5 64q0 37 -28.5 58t-71.5 21
q-44 0 -75.5 -21.5t-31.5 -64.5zM478 259q0 -30 26 -48.5t63 -18.5q35 0 61.5 19t26.5 53q0 32 -24.5 50t-61.5 18q-38 0 -64.5 -18.5t-26.5 -54.5z" />
    <glyph glyph-name="seveneighths" unicode="&#x215e;" horiz-adv-x="686" 
d="M99 370l195 329h-207l3 16h233l-1 -4l-202 -341h-21zM2 0l588 715h21l-588 -715h-21zM497 -3q-50 0 -85 25t-35 68q0 40 26.5 64.5t71.5 31.5q-26 8 -43 27.5t-17 45.5q0 40 32 64.5t77 24.5q43 0 73.5 -22.5t30.5 -61.5q0 -32 -22 -54t-57 -28q71 -21 71 -85
q0 -49 -33.5 -74.5t-89.5 -25.5zM395 90q1 -35 28.5 -56t73.5 -21t75.5 20t29.5 64q0 37 -28.5 58t-71.5 21q-44 0 -75.5 -21.5t-31.5 -64.5zM433 259q0 -30 26 -48.5t63 -18.5q35 0 61.5 19t26.5 53q0 32 -24.5 50t-61.5 18q-38 0 -64.5 -18.5t-26.5 -54.5z" />
    <glyph glyph-name="minus" unicode="&#x2212;" horiz-adv-x="500" 
d="M47 334l3 16h426l-3 -16h-426z" />
    <glyph glyph-name="approxequal" unicode="&#x2248;" horiz-adv-x="491" 
d="M52 351q8 36 33 59.5t65 23.5q41 0 117 -32.5t113 -32.5q33 0 54 19.5t27 47.5h18q-8 -36 -33.5 -59.5t-65.5 -23.5t-116.5 32.5t-113.5 32.5q-33 0 -53.5 -19.5t-26.5 -47.5h-18zM27 196q8 36 33 59.5t65 23.5q41 0 117 -32.5t113 -32.5q33 0 54 19.5t27 47.5h18
q-8 -36 -33.5 -59.5t-65.5 -23.5t-116.5 32.5t-113.5 32.5q-33 0 -53.5 -19.5t-26.5 -47.5h-18z" />
    <glyph glyph-name="notequal" unicode="&#x2260;" horiz-adv-x="484" 
d="M58 385l3 16h228l80 133h20l-80 -133h156l-3 -16h-162l-81 -136h222l-3 -16h-229l-79 -133h-20l79 133h-155l3 16h162l81 136h-222z" />
    <glyph glyph-name="lessequal" unicode="&#x2264;" horiz-adv-x="487" 
d="M408 115l-352 211l1 6l416 192l-3 -19l-386 -178l327 -194zM6 0l3 16h383l-3 -16h-383z" />
    <glyph glyph-name="greaterequal" unicode="&#x2265;" horiz-adv-x="487" 
d="M14 0l3 16h383l-3 -16h-383zM96 524l352 -211l-1 -6l-416 -192l3 19l386 178l-327 194z" />
    <glyph glyph-name="uni24C5" unicode="&#x24c5;" horiz-adv-x="844" 
d="M331 146v425h107q142 0 142 -117v-2q0 -118 -142 -118h-89v-188h-18zM349 350h89q124 0 124 102v2q0 101 -124 101h-89v-205zM433 6q148 0 249.5 101.5t101.5 251.5q0 147 -100.5 248.5t-248.5 101.5q-147 0 -249 -102.5t-102 -249.5q0 -149 101.5 -250t247.5 -101z
M433 -9q-153 0 -259.5 105.5t-106.5 260.5q0 153 107 260t261 107q155 0 260.5 -106t105.5 -259q0 -156 -106.5 -262t-261.5 -106z" />
    <glyph glyph-name="f_i" unicode="&#xfb01;" horiz-adv-x="490" 
d="M61 507l3 16h85l16 98q25 155 156 155q28 0 51 -7l-2 -16q-21 7 -49 7q-54 0 -89.5 -30t-48.5 -110l-16 -97h166l-3 -16h-165l-80 -507h-18l80 507h-86zM348 0l82 523h18l-82 -523h-18zM459 639q-7 0 -12 5t-5 12t5 12t12 5t12 -5t5 -12t-5 -12t-12 -5z" />
    <glyph glyph-name="f_l" unicode="&#xfb02;" horiz-adv-x="490" 
d="M61 507l3 16h85l16 98q25 155 156 155q28 0 51 -7l-2 -16q-21 7 -49 7q-54 0 -89.5 -30t-48.5 -110l-16 -97h166l-3 -16h-165l-80 -507h-18l80 507h-86zM348 0l122 773h18l-122 -773h-18z" />
    <glyph glyph-name="space_uni0326" horiz-adv-x="400" 
d="M105 -186l-14 7l67 133l19 -5z" />
    <glyph glyph-name="caron.alt" horiz-adv-x="256" 
d="M153 626l39 147h19l-41 -147h-17z" />
    <glyph glyph-name="space_uni0326.alt" horiz-adv-x="400" 
d="M312 753l14 -7l-67 -133l-19 5z" />
    <glyph glyph-name="grave.uc" horiz-adv-x="400" 
d="M272 771l-64 117h21l61 -117h-18z" />
    <glyph glyph-name="dieresis.uc" horiz-adv-x="400" 
d="M208 787q-7 0 -12 5t-5 12t5 12t12 5t12 -5t5 -12t-5 -12t-12 -5zM362 787q-7 0 -12 5t-5 12t5 12t12 5t12 -5t5 -12t-5 -12t-12 -5z" />
    <glyph glyph-name="macron.uc" horiz-adv-x="400" 
d="M171 797l3 17h226l-3 -17h-226z" />
    <glyph glyph-name="acute.uc" horiz-adv-x="400" 
d="M269 771l81 117h22l-84 -117h-19z" />
    <glyph glyph-name="circumflex.uc" horiz-adv-x="400" 
d="M158 771l127 117h20l97 -117h-19l-89 102l-115 -102h-21z" />
    <glyph glyph-name="caron.uc" horiz-adv-x="400" 
d="M416 888l-127 -117h-20l-97 117h19l89 -102l115 102h21z" />
    <glyph glyph-name="breve.uc" horiz-adv-x="400" 
d="M289 775q-50 0 -79.5 31t-30.5 81h18q1 -42 26 -69t66 -27t72.5 27t39.5 69h18q-8 -49 -45.5 -80.5t-84.5 -31.5z" />
    <glyph glyph-name="dotaccent.uc" horiz-adv-x="400" 
d="M285 787q-7 0 -12 5t-5 12t5 12t12 5t12 -5t5 -12t-5 -12t-12 -5z" />
    <glyph glyph-name="ring.uc" horiz-adv-x="400" 
d="M289 764q32 0 52 20.5t20 52.5q0 30 -19 49t-50 19q-30 0 -51 -21t-21 -52q0 -28 19.5 -48t49.5 -20zM289 749q-36 0 -61 24.5t-25 58.5q0 36 26 62t63 26q38 0 62 -24t24 -59q0 -38 -25.5 -63t-63.5 -25z" />
    <glyph glyph-name="tilde.uc" horiz-adv-x="400" 
d="M361 774q-27 0 -71.5 32t-64.5 32t-36.5 -16t-22.5 -47h-17q8 39 28.5 59t48.5 20q25 0 70 -32t66 -32q19 0 35.5 16t22.5 47h17q-8 -39 -28.5 -59t-47.5 -20z" />
    <glyph glyph-name="hungarumlaut.uc" horiz-adv-x="400" 
d="M211 771l64 117h20l-67 -117h-17zM317 771l64 117h20l-67 -117h-17z" />
    <glyph glyph-name="idotaccent" horiz-adv-x="182" 
d="M151 639q-7 0 -12 5t-5 12t5 12t12 5t12 -5t5 -12t-5 -12t-12 -5zM40 0l82 523h18l-82 -523h-18z" />
    <glyph glyph-name="registered.alt" horiz-adv-x="844" 
d="M321 151v426h106q142 0 142 -111v-2q0 -100 -114 -110l139 -203h-20l-138 201h-97v-201h-18zM339 368h88q124 0 124 96v2q0 95 -124 95h-88v-193zM433 6q148 0 249.5 101.5t101.5 251.5q0 147 -100.5 248.5t-248.5 101.5q-147 0 -249 -102.5t-102 -249.5
q0 -149 101.5 -250t247.5 -101zM433 -9q-153 0 -259.5 105.5t-106.5 260.5q0 153 107 260t261 107q155 0 260.5 -106t105.5 -259q0 -156 -106.5 -262t-261.5 -106z" />
    <glyph glyph-name="dollar.old" horiz-adv-x="564" 
d="M267 -6q-14 0 -20 1l-20 -126h-18l20 127q-88 8 -142 54.5t-60 133.5h19q15 -156 185 -172l54 343q-96 27 -138.5 65.5t-42.5 98.5q0 86 61 133t156 47q12 0 18 -1l15 91h18l-15 -92q75 -8 121 -46t53 -106h-18q-18 122 -158 135l-49 -312q105 -28 149 -64t44 -108
q0 -96 -64.5 -149t-167.5 -53zM480 196q0 64 -40 96t-137 59l-54 -340h17q96 0 155 48t59 137zM123 519q0 -54 38.5 -87.5t126.5 -58.5l49 308q-3 0 -8 0.5t-7 0.5q-89 0 -144 -41t-55 -122z" />
    <glyph glyph-name="Euro.old" horiz-adv-x="636" 
d="M52 406l3 16h63q24 135 94.5 206t181.5 71q92 0 146 -47.5t58 -138.5h-18q-12 169 -186 169q-104 0 -169 -66.5t-88 -193.5h260l-5 -16h-258l-19 -116h236l-5 -16h-233q-15 -116 34.5 -189.5t169.5 -73.5q88 0 146.5 49t79.5 137h18q-21 -97 -86 -150t-158 -53
q-127 0 -183.5 78t-39.5 202h-62l3 16h61l19 116h-63z" />
    <glyph glyph-name="sterling.old" horiz-adv-x="581" 
d="M60 332l3 16h77q-11 86 -11 117q0 105 59 169.5t166 64.5q91 0 138 -46.5t49 -123.5h-18q-3 71 -45.5 112t-123.5 41q-98 0 -152 -58.5t-54 -158.5q0 -31 11 -117h239l-3 -16h-234q5 -38 5 -71q0 -100 -46 -169q40 0 122.5 -40.5t131.5 -40.5q47 0 80.5 32t40.5 90h19
q-8 -65 -48 -102t-92 -37q-51 0 -135 40.5t-121 40.5q-35 0 -60.5 -20t-33.5 -55h-20q8 34 33 59t60 31q50 67 50 171q0 33 -5 71h-82z" />
    <glyph glyph-name="yen.old" horiz-adv-x="508" 
d="M62 323l3 16h184l-159 355h20l155 -348l251 348h20l-256 -355h182l-3 -16h-188l-18 -116h188l-3 -16h-188l-29 -191h-19l30 191h-191l3 16h190l19 116h-191z" />
    <glyph glyph-name="zero.old" horiz-adv-x="605" 
d="M68 301q-5 -35 -5 -62q0 -100 55.5 -165t164.5 -65q104 0 172.5 69t87.5 196l7 45q5 32 5 56q2 103 -53.5 168.5t-163.5 65.5q-101 0 -172 -68t-91 -195zM283 -7q-117 0 -177.5 69t-60.5 177q0 27 5 62l7 45q21 135 97 207t184 72q116 0 176.5 -71t58.5 -179
q0 -24 -5 -56l-7 -45q-21 -134 -93 -207.5t-185 -73.5z" />
    <glyph glyph-name="one.old" horiz-adv-x="331" 
d="M146 0l93 591l-184 -112l2 19l196 120h8l-97 -618h-18z" />
    <glyph glyph-name="two.old" horiz-adv-x="510" 
d="M-18 0l1 5l291 220q88 66 118 99q66 70 66 147q1 67 -45 102.5t-116 35.5q-76 0 -132 -45t-74 -129h-18q17 90 79.5 140t144.5 50q78 0 129 -39t51 -115q0 -41 -14.5 -77t-46.5 -69.5t-53.5 -51.5t-64.5 -50l-12 -9l-262 -198h403l-2 -16h-443z" />
    <glyph glyph-name="three.old" horiz-adv-x="533" 
d="M234 -102q-100 0 -164.5 53.5t-65.5 143.5h18q2 -81 59.5 -131t152.5 -50q96 0 153 50.5t57 147.5q0 67 -43 113.5t-124 46.5h-50l2 16h53q85 0 133.5 45.5t48.5 126.5q0 64 -43.5 106.5t-121.5 42.5q-79 0 -131 -44.5t-69 -122.5h-17q14 82 73.5 132.5t143.5 50.5
q86 0 134.5 -47t48.5 -118q0 -74 -39 -121.5t-106 -59.5q56 -13 90.5 -58t34.5 -109q0 -103 -62.5 -158.5t-165.5 -55.5z" />
    <glyph glyph-name="four.old" horiz-adv-x="569" 
d="M350 -97l28 173h-381v5l453 537h32l-83 -525h99l-3 -17h-98l-28 -173h-19zM29 93h351l82 513z" />
    <glyph glyph-name="five.old" horiz-adv-x="527" 
d="M-2 74h17q6 -75 59 -117.5t137 -42.5q103 0 167 70.5t64 175.5q0 79 -47 129.5t-126 50.5q-109 1 -192 -88h-8l58 366h372l-3 -16h-354l-51 -318q70 72 178 72q86 0 138.5 -55t52.5 -141q0 -111 -69 -186.5t-180 -75.5q-88 0 -147.5 46.5t-65.5 129.5z" />
    <glyph glyph-name="six.old" horiz-adv-x="552" 
d="M264 -7q-102 0 -158.5 56.5t-56.5 154.5q0 34 6 70l19 119q52 328 281 328q77 0 122 -37t52 -108h-18q-14 129 -156 129q-101 0 -168.5 -72.5t-94.5 -239.5l-15 -92q30 64 91.5 96.5t127.5 32.5q94 0 150 -50.5t56 -139.5q0 -108 -66 -177.5t-172 -69.5zM68 197
q0 -87 52.5 -137.5t143.5 -50.5q100 0 160 64.5t60 166.5q0 82 -49.5 128t-138.5 46q-95 0 -161.5 -60t-66.5 -157z" />
    <glyph glyph-name="seven.old" horiz-adv-x="470" 
d="M85 -97l398 699h-406l3 16h429v-5l-404 -710h-20z" />
    <glyph glyph-name="eight.old" horiz-adv-x="546" 
d="M254 -6q-99 0 -161.5 50t-62.5 135q0 87 59.5 142t147.5 64q-52 15 -86.5 55t-34.5 96q0 84 60.5 134.5t147.5 50.5q78 0 132 -47t54 -119q0 -74 -45.5 -120.5t-118.5 -55.5q64 -15 105 -61t41 -110q0 -99 -67.5 -156.5t-170.5 -57.5zM48 179q0 -77 57 -123t149 -46
q96 0 158 52t62 146q0 72 -55.5 119t-144.5 47q-94 0 -160 -52.5t-66 -142.5zM134 536q0 -63 47.5 -105t124.5 -42q79 0 132.5 43.5t53.5 122.5q0 65 -47.5 107.5t-120.5 42.5q-80 0 -135 -46t-55 -123z" />
    <glyph glyph-name="nine.old" horiz-adv-x="552" 
d="M301 625q101 0 158 -56.5t57 -154.5q0 -34 -6 -70l-21 -134q-27 -171 -97.5 -242t-175.5 -71q-82 0 -130.5 40.5t-55.5 116.5h18q16 -141 168 -141q98 0 163.5 67t91.5 230l17 107q-30 -65 -91.5 -97t-129.5 -32q-92 0 -148 50.5t-56 139.5q0 108 66 177.5t172 69.5z
M497 421q0 87 -52.5 137.5t-143.5 50.5q-100 0 -160 -64.5t-60 -166.5q0 -81 49.5 -127.5t136.5 -46.5q97 0 163.5 59.5t66.5 157.5z" />
    <glyph glyph-name="dollar.tab" 
d="M287 -6q-15 0 -22 1l-20 -130h-17l20 131q-90 8 -145.5 56t-61.5 138h18q16 -162 192 -178l56 354q-99 28 -143.5 67.5t-44.5 101.5q0 89 63 137.5t161 48.5q13 0 20 -1l15 93h17l-15 -94q77 -8 124.5 -47.5t54.5 -109.5h-18q-19 126 -164 140l-51 -324
q109 -29 154.5 -65.5t45.5 -110.5q0 -98 -66.5 -153t-172.5 -55zM507 202q0 66 -41.5 99t-142.5 61l-55 -351h18q99 0 160 49.5t61 141.5zM138 535q0 -55 40 -90.5t131 -61.5l51 320q-2 0 -8 0.5t-8 0.5q-92 0 -149 -42.5t-57 -126.5z" />
    <glyph glyph-name="Euro.tab" 
d="M63 419l3 16h61q45 284 257 286q89 1 138.5 -46t52.5 -140h-18q-6 170 -172 169q-196 -2 -239 -269h239l-6 -16h-236l-19 -120h213l-6 -16h-209q-40 -272 187 -272q169 0 220 186h17q-50 -203 -237 -203q-69 0 -116 23.5t-67.5 63t-27 92t4.5 110.5h-61l3 16h60l19 120
h-61z" />
    <glyph glyph-name="sterling.tab" 
d="M69 342l3 16h80q-11 88 -11 121q0 110 58 176t168 66q93 0 141 -48t50 -128h-18q-3 73 -46.5 116t-126.5 43q-100 0 -153.5 -60.5t-53.5 -164.5q0 -33 11 -121h246l-3 -16h-241q5 -40 5 -73q0 -105 -48 -174q42 0 124 -42t132 -42q48 0 82.5 33.5t41.5 92.5h19
q-8 -68 -48.5 -105.5t-94.5 -37.5q-52 0 -136 42t-121 42q-36 0 -62.5 -21t-34.5 -57h-20q9 35 33.5 60.5t60.5 32.5q53 68 53 176q0 33 -5 73h-85z" />
    <glyph glyph-name="yen.tab" 
d="M111 333l3 16h190l-163 366h20l160 -359l259 359h21l-265 -366h187l-3 -16h-193l-19 -120h193l-3 -16h-192l-31 -197h-19l31 197h-198l3 16h197l19 120h-197z" />
    <glyph glyph-name="zero.tab" 
d="M82 291q-6 -39 -6 -75q2 -94 52 -149.5t149 -55.5q101 0 163.5 63.5t81.5 187.5l26 163q5 28 5 63q0 96 -50.5 156t-151.5 60q-97 0 -160.5 -65.5t-82.5 -184.5zM278 -6q-109 0 -163.5 60.5t-56.5 161.5q0 37 6 76l26 163q20 128 88.5 197t173.5 69q109 0 164.5 -65
t54.5 -168q0 -29 -5 -64l-26 -163q-21 -132 -87.5 -199.5t-174.5 -67.5z" />
    <glyph glyph-name="one.tab" 
d="M308 0l108 686l-276 -193l3 21l288 201h8l-113 -715h-18z" />
    <glyph glyph-name="two.tab" 
d="M18 0l1 5l342 286q81 68 121.5 126t40.5 132q0 72 -44 113.5t-122 41.5q-79 0 -135 -45t-78 -138h-18q20 98 83.5 149t147.5 51q85 0 134.5 -47t49.5 -125q0 -79 -41 -138t-122 -127l-319 -267h420l-3 -17h-458z" />
    <glyph glyph-name="three.tab" 
d="M276 -6q-96 0 -156.5 52t-61.5 145h19q1 -86 55 -133t144 -47q91 0 152 52t61 150q0 65 -41 109t-122 44h-43l3 17h48q79 0 129.5 44.5t50.5 129.5q0 67 -42.5 107t-116.5 40q-75 0 -129 -44.5t-71 -121.5h-18q15 83 76.5 133t141.5 50q78 0 127.5 -44t49.5 -120
q0 -73 -38.5 -121t-108.5 -62q56 -12 89 -55.5t33 -106.5q0 -103 -66.5 -160.5t-164.5 -57.5z" />
    <glyph glyph-name="four.tab" 
d="M376 0l27 173h-371l1 5l442 537h33l-83 -525h99l-3 -17h-99l-27 -173h-19zM66 190h340l81 513z" />
    <glyph glyph-name="five.tab" 
d="M265 -6q-90 0 -149 49t-65 130h18q7 -73 59.5 -117.5t136.5 -44.5q107 0 167.5 68.5t60.5 177.5q0 79 -49 131t-128 52q-113 0 -190 -88h-8l58 363h376l-3 -17h-358l-49 -311q27 29 73 49.5t101 20.5q87 0 141 -56t54 -144q0 -116 -65.5 -189.5t-180.5 -73.5z" />
    <glyph glyph-name="six.tab" 
d="M288 -6q-102 0 -160 57t-57 164q0 31 9 92l12 75q30 185 103 262t186 77q82 0 131 -38t55 -112h-18q-13 133 -168 133q-108 0 -175 -73t-96 -250l-12 -75q32 67 92.5 102.5t131.5 35.5q93 0 154 -49.5t61 -141.5q0 -113 -68.5 -186t-180.5 -73zM90 204q0 -89 53 -141
t145 -52q106 0 168.5 68.5t62.5 173.5q0 83 -54.5 128.5t-142.5 45.5q-97 0 -164.5 -62t-67.5 -161z" />
    <glyph glyph-name="seven.tab" 
d="M152 0l396 698h-414l3 17h440l-1 -5l-403 -710h-21z" />
    <glyph glyph-name="eight.tab" 
d="M286 -6q-93 0 -159.5 48.5t-66.5 138.5q0 91 58.5 144.5t152.5 63.5q-55 14 -91 54.5t-36 102.5q0 79 62 127t146 48q79 0 133.5 -46.5t54.5 -119.5q0 -77 -44 -120.5t-123 -53.5q68 -16 109.5 -62t41.5 -115q0 -103 -68.5 -156.5t-169.5 -53.5zM78 181q0 -82 60.5 -126
t148.5 -44q94 0 156.5 49.5t62.5 144.5q0 76 -56 123.5t-146 47.5q-94 0 -160 -50t-66 -145zM162 546q-1 -66 48 -109.5t129 -43.5q79 0 131 40.5t52 121.5q0 66 -48 107.5t-122 41.5q-76 0 -132.5 -42t-57.5 -116z" />
    <glyph glyph-name="nine.tab" 
d="M255 -6q-82 0 -134.5 40t-61.5 115h18q9 -67 55.5 -102.5t122.5 -35.5q110 0 173 70.5t92 252.5l12 75q-32 -67 -92.5 -103t-130.5 -36q-93 0 -154.5 51t-61.5 145q0 113 68.5 184t180.5 71q99 0 158.5 -57.5t58.5 -163.5q0 -31 -9 -92l-12 -75q-16 -99 -41.5 -166.5
t-62.5 -104.5t-79.5 -52.5t-99.5 -15.5zM111 466q0 -85 55 -132t143 -47q96 0 163.5 63.5t67.5 160.5q0 89 -53 141t-145 52q-106 0 -168.5 -66.5t-62.5 -171.5z" />
    <glyph glyph-name="cent.tab" 
d="M298 -7q-14 0 -21 1l-20 -129h-17l20 131q-87 11 -137.5 75t-50.5 160q0 126 75.5 212.5t193.5 86.5h4l16 99h17l-16 -100q73 -6 120.5 -51.5t51.5 -114.5h-18q-3 61 -46 102.5t-111 47.5l-79 -504h18q78 0 133.5 41.5t76.5 119.5h18q-20 -86 -81.5 -131.5t-146.5 -45.5z
M90 231q0 -91 47 -150t126 -70l79 503h-2q-112 0 -181 -82.5t-69 -200.5z" />
    <glyph glyph-name="percent.tab" horiz-adv-x="800" 
d="M120 552q1 -53 34 -87t85 -34q62 0 101.5 41.5t38.5 107.5q-1 52 -34 87.5t-86 35.5q-61 0 -100 -44t-39 -107zM239 415q-59 0 -98 38.5t-39 98.5q0 69 44.5 118t112.5 49q58 0 98 -39.5t40 -99.5q0 -74 -45.5 -119.5t-112.5 -45.5zM109 0l590 715h21l-590 -715h-21z
M449 132q1 -53 34 -87t85 -34q62 0 101.5 41.5t38.5 107.5q-1 52 -34 87.5t-86 35.5q-61 0 -100 -44t-39 -107zM568 -5q-59 0 -98 38.5t-39 98.5q0 69 44.5 118t112.5 49q58 0 98 -39.5t40 -99.5q0 -74 -45.5 -119.5t-112.5 -45.5z" />
    <glyph glyph-name="perthousand.tab" horiz-adv-x="1000" 
d="M114 563q1 -50 32.5 -81.5t81.5 -31.5q59 0 96 38.5t36 101.5q-1 50 -31.5 83t-81.5 33q-58 0 -95.5 -41.5t-37.5 -101.5zM228 434q-57 0 -94.5 36t-37.5 93q0 66 43 112.5t108 46.5q56 0 93.5 -37.5t37.5 -94.5q0 -70 -43 -113t-107 -43zM38 0l590 715h21l-590 -715h-21
zM328 124q1 -50 32.5 -81.5t81.5 -31.5q59 0 96 38.5t36 101.5q-1 50 -31.5 83t-81.5 33q-58 0 -95.5 -41.5t-37.5 -101.5zM442 -5q-57 0 -94.5 36t-37.5 93q0 66 43 112.5t108 46.5q56 0 93.5 -37.5t37.5 -94.5q0 -70 -43 -113t-107 -43zM667 124q1 -50 32.5 -81.5
t81.5 -31.5q59 0 96 38.5t36 101.5q-1 50 -31.5 83t-81.5 33q-58 0 -95.5 -41.5t-37.5 -101.5zM781 -5q-57 0 -94.5 36t-37.5 93q0 66 43 112.5t108 46.5q56 0 93.5 -37.5t37.5 -94.5q0 -70 -43 -113t-107 -43z" />
    <glyph glyph-name="plus.tab" 
d="M267 115l34 219h-204l3 16h204l35 219h18l-35 -219h204l-3 -16h-204l-34 -219h-18z" />
    <glyph glyph-name="minus.tab" 
d="M97 334l3 16h426l-3 -16h-426z" />
    <glyph glyph-name="multiply.tab" 
d="M110 156l-11 13l189 168l-146 168l13 12l146 -168l190 168l11 -13l-189 -168l147 -168l-13 -12l-147 168z" />
    <glyph glyph-name="divide.tab" 
d="M97 334l3 16h426l-3 -16h-426zM289 161q-7 0 -12 5t-5 12t5 12t12 5t12 -5t5 -12t-5 -12t-12 -5zM335 489q-7 0 -12 5t-5 12t5 12t12 5t12 -5t5 -12t-5 -12t-12 -5z" />
    <glyph glyph-name="equal.tab" 
d="M92 233l3 16h404l-3 -16h-404zM116 385l3 16h404l-3 -16h-404z" />
    <glyph glyph-name="less.tab" 
d="M465 115l-352 211l1 6l416 192l-3 -19l-386 -178l327 -194z" />
    <glyph glyph-name="greater.tab" 
d="M153 524l352 -211l-1 -6l-416 -192l3 19l386 178l-327 194z" />
    <glyph glyph-name="florin.tab" 
d="M128 375l2 16h124l31 158q18 92 66.5 133.5t110.5 41.5q57 0 95 -19l-2 -16q-38 19 -93 19t-98.5 -37.5t-60.5 -121.5l-31 -158h202l-2 -16h-203l-109 -557h-18l109 557h-123z" />
    <glyph glyph-name="plusminus.tab" 
d="M267 115l34 219h-204l3 16h204l35 219h18l-35 -219h204l-3 -16h-204l-34 -219h-18zM44 0l3 16h426l-3 -16h-426z" />
    <glyph glyph-name="notequal.tab" 
d="M116 385l3 16h228l80 133h20l-80 -133h156l-3 -16h-162l-81 -136h222l-3 -16h-229l-79 -133h-20l79 133h-155l3 16h162l81 136h-222z" />
    <glyph glyph-name="approxequal.tab" 
d="M108 351q8 36 33 59.5t65 23.5q41 0 117 -32.5t113 -32.5q33 0 54 19.5t27 47.5h18q-8 -36 -33.5 -59.5t-65.5 -23.5t-116.5 32.5t-113.5 32.5q-33 0 -53.5 -19.5t-26.5 -47.5h-18zM83 196q8 36 33 59.5t65 23.5q41 0 117 -32.5t113 -32.5q33 0 54 19.5t27 47.5h18
q-8 -36 -33.5 -59.5t-65.5 -23.5t-116.5 32.5t-113.5 32.5q-33 0 -53.5 -19.5t-26.5 -47.5h-18z" />
    <glyph glyph-name="lessequal.tab" 
d="M465 115l-352 211l1 6l416 192l-3 -19l-386 -178l327 -194zM63 0l3 16h383l-3 -16h-383z" />
    <glyph glyph-name="greaterequal.tab" 
d="M71 0l3 16h383l-3 -16h-383zM153 524l352 -211l-1 -6l-416 -192l3 19l386 178l-327 194z" />
    <glyph glyph-name="parenleft.tab" horiz-adv-x="300" 
d="M181 -148q-106 162 -106 361q0 163 66 308t179 252h20q-247 -244 -247 -560q0 -189 107 -361h-19z" />
    <glyph glyph-name="parenright.tab" horiz-adv-x="300" 
d="M136 773q106 -162 106 -361q0 -163 -66 -308t-179 -252h-20q247 244 247 560q0 189 -107 361h19z" />
    <glyph glyph-name="bracketleft.tab" horiz-adv-x="300" 
d="M17 -148l146 924h174l-3 -16h-155l-141 -892h156l-3 -16h-174z" />
    <glyph glyph-name="bracketright.tab" horiz-adv-x="300" 
d="M-23 -148l3 16h156l141 892h-156l3 16h173l-146 -924h-174z" />
    <glyph glyph-name="braceleft.tab" horiz-adv-x="300" 
d="M192 -144q-86 8 -116 56.5t1 136.5l45 126q23 61 0.5 101.5t-86.5 44.5l3 16q65 0 98 33t30 96l-6 132q-4 97 39.5 135t137.5 43l-3 -16q-83 -5 -122 -38.5t-35 -123.5l6 -131q3 -66 -25.5 -98t-82.5 -42q49 -13 66 -52.5t-4 -104.5l-45 -126q-56 -158 102 -172z" />
    <glyph glyph-name="braceright.tab" horiz-adv-x="300" 
d="M122 776q86 -8 116 -56.5t-1 -136.5l-45 -126q-23 -61 -0.5 -101.5t86.5 -44.5l-3 -16q-65 0 -98 -33t-30 -96l6 -132q4 -97 -39.5 -135t-137.5 -43l3 16q83 5 122 38.5t35 123.5l-6 131q-3 66 25.5 98t82.5 42q-49 13 -66 52.5t4 104.5l45 126q56 158 -102 172z" />
    <glyph glyph-name="period.tab" horiz-adv-x="300" 
d="M109 -5q-7 0 -12 5t-5 12t5 12t12 5t12 -5t5 -12t-5 -12t-12 -5z" />
    <glyph glyph-name="comma.tab" horiz-adv-x="300" 
d="M56 -109l-14 7l69 140l18 -8z" />
    <glyph glyph-name="colon.tab" horiz-adv-x="300" 
d="M109 -5q-7 0 -12 5t-5 12t5 12t12 5t12 -5t5 -12t-5 -12t-12 -5zM166 352q-7 0 -12 5t-5 12t5 12t12 5t12 -5t5 -12t-5 -12t-12 -5z" />
    <glyph glyph-name="semicolon.tab" horiz-adv-x="300" 
d="M50 -109l-14 7l69 140l18 -8zM166 352q-7 0 -12 5t-5 12t5 12t12 5t12 -5t5 -12t-5 -12t-12 -5z" />
    <glyph glyph-name="space.tab" horiz-adv-x="300" 
 />
    <glyph glyph-name="dollar.oldtab" 
d="M290 -6q-14 0 -20 1l-20 -126h-18l20 127q-88 8 -142 54.5t-60 133.5h19q15 -156 185 -172l54 343q-96 27 -138.5 65.5t-42.5 98.5q0 86 61 133t156 47q12 0 18 -1l15 91h18l-15 -92q75 -8 121 -46t53 -106h-18q-18 122 -158 135l-49 -312q105 -28 149 -64t44 -108
q0 -96 -64.5 -149t-167.5 -53zM503 196q0 64 -40 96t-137 59l-54 -340h17q96 0 155 48t59 137zM146 519q0 -54 38.5 -87.5t126.5 -58.5l49 308q-2 0 -7 0.5t-8 0.5q-89 0 -144 -41t-55 -122z" />
    <glyph glyph-name="Euro.oldtab" 
d="M52 406l3 16h62q21 135 88 205.5t168 71.5q87 1 137 -46t53 -136h-18q-8 167 -171 165q-197 -2 -239 -260h241l-5 -16h-239l-18 -116h216l-5 -16h-213q-10 -51 -4 -98.5t24.5 -84t61 -58.5t106.5 -22q168 0 218 182h17q-24 -99 -85 -149t-150 -50q-67 0 -113.5 23
t-67.5 61.5t-28.5 89t3.5 106.5h-62l3 16h61l18 116h-62z" />
    <glyph glyph-name="sterling.oldtab" 
d="M69 332l3 16h77q-11 86 -11 117q0 105 59 169.5t166 64.5q91 0 138 -46.5t49 -123.5h-18q-3 71 -45.5 112t-123.5 41q-98 0 -152 -58.5t-54 -158.5q0 -31 11 -117h239l-3 -16h-234q5 -38 5 -71q0 -100 -46 -169q40 0 122.5 -40.5t131.5 -40.5q47 0 80.5 32t40.5 90h19
q-8 -65 -48 -102t-92 -37q-51 0 -135 40.5t-121 40.5q-35 0 -60.5 -20t-33.5 -55h-20q8 34 33 59t60 31q50 67 50 171q0 33 -5 71h-82z" />
    <glyph glyph-name="yen.oldtab" 
d="M108 323l3 16h184l-159 355h20l155 -348l251 348h20l-256 -355h182l-3 -16h-188l-18 -116h188l-3 -16h-188l-29 -191h-19l30 191h-191l3 16h190l19 116h-191z" />
    <glyph glyph-name="zero.oldtab" 
d="M82 291q-6 -42 -5 -75q2 -94 52.5 -150.5t151.5 -56.5q201 0 240 249l11 69q5 35 5 65q0 97 -51.5 157t-149.5 60t-161 -64.5t-82 -184.5zM281 -7q-110 0 -165 61t-57 162q0 42 5 75l11 69q20 127 88 196t174 69t162 -64.5t56 -168.5q0 -29 -5 -66l-11 -69
q-42 -264 -258 -264z" />
    <glyph glyph-name="one.oldtab" 
d="M302 0l93 591l-265 -183l3 19l275 191h8l-97 -618h-17z" />
    <glyph glyph-name="two.oldtab" 
d="M30 0l1 5l291 220q88 66 118 99q66 70 66 147q1 67 -45 102.5t-116 35.5q-76 0 -132 -45t-74 -129h-18q17 90 79.5 140t144.5 50q78 0 129 -39t51 -115q0 -41 -14.5 -77t-46.5 -69.5t-53.5 -51.5t-64.5 -50l-12 -9l-262 -198h403l-2 -16h-443z" />
    <glyph glyph-name="three.oldtab" 
d="M267 -102q-100 0 -164.5 53.5t-65.5 143.5h18q2 -81 59.5 -131t152.5 -50q96 0 153 50.5t57 147.5q0 67 -43 113.5t-124 46.5h-50l2 16h53q85 0 133.5 45.5t48.5 126.5q0 64 -43.5 106.5t-121.5 42.5q-79 0 -131 -44.5t-69 -122.5h-17q14 82 73.5 132.5t143.5 50.5
q86 0 134.5 -47t48.5 -118q0 -74 -39 -121.5t-106 -59.5q56 -13 90.5 -58t34.5 -109q0 -103 -62.5 -158.5t-165.5 -55.5z" />
    <glyph glyph-name="four.oldtab" 
d="M368 -97l28 173h-381v5l453 537h32l-83 -525h99l-3 -17h-98l-28 -173h-19zM47 93h351l82 513z" />
    <glyph glyph-name="five.oldtab" 
d="M40 74h17q6 -75 59 -117.5t137 -42.5q103 0 167 70.5t64 175.5q0 79 -47 129.5t-126 50.5q-109 1 -192 -88h-8l58 366h372l-3 -16h-354l-51 -318q70 72 178 72q86 0 138.5 -55t52.5 -141q0 -111 -69 -186.5t-180 -75.5q-88 0 -147.5 46.5t-65.5 129.5z" />
    <glyph glyph-name="six.oldtab" 
d="M294 -7q-102 0 -158.5 56.5t-56.5 154.5q0 34 6 70l19 119q52 328 281 328q77 0 122 -37t52 -108h-18q-14 129 -156 129q-101 0 -168.5 -72.5t-94.5 -239.5l-15 -92q30 64 91.5 96.5t127.5 32.5q94 0 150 -50.5t56 -139.5q0 -108 -66 -177.5t-172 -69.5zM98 197
q0 -87 52.5 -137.5t143.5 -50.5q100 0 160 64.5t60 166.5q0 82 -49.5 128t-138.5 46q-95 0 -161.5 -60t-66.5 -157z" />
    <glyph glyph-name="seven.oldtab" 
d="M132 -97l398 699h-406l3 16h429v-5l-404 -710h-20z" />
    <glyph glyph-name="eight.oldtab" 
d="M283 -6q-99 0 -161.5 50t-62.5 135q0 87 59.5 142t147.5 64q-52 15 -86.5 55t-34.5 96q0 84 60.5 134.5t147.5 50.5q78 0 132 -47t54 -119q0 -74 -45.5 -120.5t-118.5 -55.5q64 -15 105 -61t41 -110q0 -99 -67.5 -156.5t-170.5 -57.5zM77 179q0 -77 57 -123t149 -46
q96 0 158 52t62 146q0 72 -55.5 119t-144.5 47q-94 0 -160 -52.5t-66 -142.5zM163 536q0 -63 47.5 -105t124.5 -42q79 0 132.5 43.5t53.5 122.5q0 65 -47.5 107.5t-120.5 42.5q-80 0 -135 -46t-55 -123z" />
    <glyph glyph-name="nine.oldtab" 
d="M326 625q101 0 158 -56.5t57 -154.5q0 -34 -6 -70l-21 -134q-27 -171 -97.5 -242t-175.5 -71q-82 0 -130.5 40.5t-55.5 116.5h18q16 -141 168 -141q98 0 163.5 67t91.5 230l17 107q-30 -65 -91.5 -97t-129.5 -32q-92 0 -148 50.5t-56 139.5q0 108 66 177.5t172 69.5z
M522 421q0 87 -52.5 137.5t-143.5 50.5q-100 0 -160 -64.5t-60 -166.5q0 -81 49.5 -127.5t136.5 -46.5q97 0 163.5 59.5t66.5 157.5z" />
    <glyph glyph-name="zero.num" horiz-adv-x="349" 
d="M95 498q0 -52 27 -83.5t79 -31.5q72 0 105.5 57t33.5 147q0 53 -26.5 84t-79.5 31q-72 0 -105.5 -57t-33.5 -147zM202 367q-59 0 -92 36t-33 95q0 96 39 158t118 62q59 0 91.5 -35.5t32.5 -95.5q0 -96 -39 -158t-117 -62z" />
    <glyph glyph-name="one.num" horiz-adv-x="205" 
d="M129 370l51 319l-106 -68l3 20l115 74h10l-55 -345h-18z" />
    <glyph glyph-name="two.num" horiz-adv-x="284" 
d="M36 370l1 7l151 122q31 25 47 39.5t30.5 39.5t14.5 52q0 32 -21 52.5t-56 20.5q-40 0 -68 -23.5t-38 -68.5h-17q9 51 43 79t80 28q44 0 69.5 -24.5t25.5 -63.5q0 -30 -16 -57.5t-31.5 -42t-51.5 -43.5l-125 -101h195l-3 -16h-230z" />
    <glyph glyph-name="three.num" horiz-adv-x="305" 
d="M184 367q-51 0 -85 26t-37 72h18q3 -38 31 -60t73 -22q43 0 71 22.5t28 64.5q0 30 -21 51.5t-59 21.5h-24l3 16h29q34 0 57 19t23 55q0 33 -22.5 51.5t-57.5 18.5q-40 0 -65.5 -21.5t-35.5 -57.5h-17q9 42 40 68t78 26q40 0 69 -22.5t29 -62.5q0 -66 -68 -83
q27 -8 43.5 -29t16.5 -51q0 -48 -33.5 -75.5t-83.5 -27.5z" />
    <glyph glyph-name="four.num" horiz-adv-x="301" 
d="M221 370l13 80h-187l1 6l217 259h29l-40 -249h49l-3 -16h-48l-13 -80h-18zM77 466h159l38 235z" />
    <glyph glyph-name="five.num" horiz-adv-x="287" 
d="M166 367q-42 0 -73 23.5t-35 65.5h18q4 -35 28.5 -54t61.5 -19q48 0 76.5 29.5t28.5 80.5q0 37 -24 61t-62 24q-54 0 -90 -40h-8l28 177h187l-3 -16h-170l-21 -134q33 29 78 29q44 0 73.5 -28t29.5 -73q0 -56 -34 -91t-89 -35z" />
    <glyph glyph-name="six.num" horiz-adv-x="314" 
d="M187 367q-50 0 -79.5 30.5t-29.5 76.5q0 32 4 56l5 31q26 157 144 157q37 0 63 -19t28 -57h-16q-6 58 -76 60q-50 1 -82 -33t-45 -117l-3 -19q15 26 44 40t60 14q46 0 76.5 -25t30.5 -72q0 -53 -34 -88t-90 -35zM96 472q0 -39 25 -64t66 -25q49 0 77.5 29.5t28.5 77.5
q0 38 -24.5 60t-64.5 22q-46 0 -77 -26.5t-31 -73.5z" />
    <glyph glyph-name="seven.num" horiz-adv-x="271" 
d="M96 370l195 329h-207l3 16h233l-1 -4l-202 -341h-21z" />
    <glyph glyph-name="eight.num" horiz-adv-x="315" 
d="M187 367q-50 0 -85 25t-35 68q0 40 26.5 64.5t71.5 31.5q-26 8 -43 27.5t-17 45.5q0 40 32 64.5t77 24.5q43 0 73.5 -22.5t30.5 -61.5q0 -32 -22 -54t-57 -28q71 -21 71 -85q0 -49 -33.5 -74.5t-89.5 -25.5zM85 460q1 -35 28.5 -56t73.5 -21t75.5 20t29.5 64
q0 37 -28.5 58t-71.5 21q-44 0 -75.5 -21.5t-31.5 -64.5zM123 629q0 -30 26 -48.5t63 -18.5q35 0 61.5 19t26.5 53q0 32 -24.5 50t-61.5 18q-38 0 -64.5 -18.5t-26.5 -54.5z" />
    <glyph glyph-name="nine.num" horiz-adv-x="313" 
d="M216 718q50 0 79.5 -30.5t29.5 -76.5q0 -32 -4 -56l-5 -31q-14 -83 -49 -120t-91 -37q-45 0 -71.5 22t-28.5 59h16q8 -65 84 -65q50 0 80.5 33.5t43.5 116.5l3 19q-15 -26 -44 -40t-60 -14q-46 0 -76.5 25t-30.5 72q0 53 34.5 88t89.5 35zM307 613q0 39 -25 64t-66 25
q-49 0 -77.5 -29.5t-28.5 -77.5q0 -38 24.5 -60t64.5 -22q46 0 77 26.5t31 73.5z" />
    <glyph glyph-name="zero.den" horiz-adv-x="349" 
d="M37 128q0 -52 27 -83.5t79 -31.5q72 0 105.5 57t33.5 147q0 53 -26.5 84t-79.5 31q-72 0 -105.5 -57t-33.5 -147zM144 -3q-59 0 -92 36t-33 95q0 96 39 158t118 62q59 0 91.5 -35.5t32.5 -95.5q0 -96 -39 -158t-117 -62z" />
    <glyph glyph-name="one.den" horiz-adv-x="205" 
d="M71 0l51 319l-106 -68l3 20l115 74h10l-55 -345h-18z" />
    <glyph glyph-name="two.den" horiz-adv-x="284" 
d="M-22 0l1 7l151 122q31 25 47 39.5t30.5 39.5t14.5 52q0 32 -21 52.5t-56 20.5q-40 0 -68 -23.5t-38 -68.5h-17q9 51 43 79t80 28q44 0 69.5 -24.5t25.5 -63.5q0 -30 -16 -57.5t-31.5 -42t-51.5 -43.5l-125 -101h195l-3 -16h-230z" />
    <glyph glyph-name="three.den" horiz-adv-x="305" 
d="M126 -3q-51 0 -85 26t-37 72h18q3 -38 31 -60t73 -22q43 0 71 22.5t28 64.5q0 30 -21 51.5t-59 21.5h-24l3 16h29q34 0 57 19t23 55q0 33 -22.5 51.5t-57.5 18.5q-40 0 -65.5 -21.5t-35.5 -57.5h-17q9 42 40 68t78 26q40 0 69 -22.5t29 -62.5q0 -66 -68 -83
q27 -8 43.5 -29t16.5 -51q0 -48 -33.5 -75.5t-83.5 -27.5z" />
    <glyph glyph-name="four.den" horiz-adv-x="301" 
d="M163 0l13 80h-187l1 6l217 259h29l-40 -249h49l-3 -16h-48l-13 -80h-18zM19 96h159l38 235z" />
    <glyph glyph-name="five.den" horiz-adv-x="287" 
d="M108 -3q-42 0 -73 23.5t-35 65.5h18q4 -35 28.5 -54t61.5 -19q48 0 76.5 29.5t28.5 80.5q0 37 -24 61t-62 24q-54 0 -90 -40h-8l28 177h187l-3 -16h-170l-21 -134q33 29 78 29q44 0 73.5 -28t29.5 -73q0 -56 -34 -91t-89 -35z" />
    <glyph glyph-name="six.den" horiz-adv-x="314" 
d="M129 -3q-50 0 -79.5 30.5t-29.5 76.5q0 32 4 56l5 31q26 157 144 157q37 0 63 -19t28 -57h-16q-6 58 -76 60q-50 1 -82 -33t-45 -117l-3 -19q15 26 44 40t60 14q46 0 76.5 -25t30.5 -72q0 -53 -34 -88t-90 -35zM38 102q0 -39 25 -64t66 -25q49 0 77.5 29.5t28.5 77.5
q0 38 -24.5 60t-64.5 22q-46 0 -77 -26.5t-31 -73.5z" />
    <glyph glyph-name="seven.den" horiz-adv-x="271" 
d="M38 0l195 329h-207l3 16h233l-1 -4l-202 -341h-21z" />
    <glyph glyph-name="eight.den" horiz-adv-x="315" 
d="M129 -3q-50 0 -85 25t-35 68q0 40 26.5 64.5t71.5 31.5q-26 8 -43 27.5t-17 45.5q0 40 32 64.5t77 24.5q43 0 73.5 -22.5t30.5 -61.5q0 -32 -22 -54t-57 -28q71 -21 71 -85q0 -49 -33.5 -74.5t-89.5 -25.5zM27 90q1 -35 28.5 -56t73.5 -21t75.5 20t29.5 64q0 37 -28.5 58
t-71.5 21q-44 0 -75.5 -21.5t-31.5 -64.5zM65 259q0 -30 26 -48.5t63 -18.5q35 0 61.5 19t26.5 53q0 32 -24.5 50t-61.5 18q-38 0 -64.5 -18.5t-26.5 -54.5z" />
    <glyph glyph-name="nine.den" horiz-adv-x="313" 
d="M158 348q50 0 79.5 -30.5t29.5 -76.5q0 -32 -4 -56l-5 -31q-14 -83 -49 -120t-91 -37q-45 0 -71.5 22t-28.5 59h16q8 -65 84 -65q50 0 80.5 33.5t43.5 116.5l3 19q-15 -26 -44 -40t-60 -14q-46 0 -76.5 25t-30.5 72q0 53 34.5 88t89.5 35zM249 243q0 39 -25 64t-66 25
q-49 0 -77.5 -29.5t-28.5 -77.5q0 -38 24.5 -60t64.5 -22q46 0 77 26.5t31 73.5z" />
    <glyph glyph-name="zero.sub" horiz-adv-x="349" 
d="M28 42q0 -52 27 -83.5t79 -31.5q72 0 105.5 57t33.5 147q0 53 -26.5 84t-79.5 31q-72 0 -105.5 -57t-33.5 -147zM135 -89q-59 0 -92 36t-33 95q0 96 39 158t118 62q59 0 91.5 -35.5t32.5 -95.5q0 -96 -39 -158t-117 -62z" />
    <glyph glyph-name="one.sub" horiz-adv-x="205" 
d="M62 -86l51 319l-106 -68l3 20l115 74h10l-55 -345h-18z" />
    <glyph glyph-name="two.sub" horiz-adv-x="284" 
d="M-31 -86l1 7l151 122q31 25 47 39.5t30.5 39.5t14.5 52q0 32 -21 52.5t-56 20.5q-40 0 -68 -23.5t-38 -68.5h-17q9 51 43 79t80 28q44 0 69.5 -24.5t25.5 -63.5q0 -30 -16 -57.5t-31.5 -42t-51.5 -43.5l-125 -101h195l-3 -16h-230z" />
    <glyph glyph-name="three.sub" horiz-adv-x="305" 
d="M117 -89q-51 0 -85 26t-37 72h18q3 -38 31 -60t73 -22q43 0 71 22.5t28 64.5q0 30 -21 51.5t-59 21.5h-24l3 16h29q34 0 57 19t23 55q0 33 -22.5 51.5t-57.5 18.5q-40 0 -65.5 -21.5t-35.5 -57.5h-17q9 42 40 68t78 26q40 0 69 -22.5t29 -62.5q0 -66 -68 -83
q27 -8 43.5 -29t16.5 -51q0 -48 -33.5 -75.5t-83.5 -27.5z" />
    <glyph glyph-name="four.sub" horiz-adv-x="301" 
d="M154 -86l13 80h-187l1 6l217 259h29l-40 -249h49l-3 -16h-48l-13 -80h-18zM10 10h159l38 235z" />
    <glyph glyph-name="five.sub" horiz-adv-x="287" 
d="M99 -89q-42 0 -73 23.5t-35 65.5h18q4 -35 28.5 -54t61.5 -19q48 0 76.5 29.5t28.5 80.5q0 37 -24 61t-62 24q-54 0 -90 -40h-8l28 177h187l-3 -16h-170l-21 -134q33 29 78 29q44 0 73.5 -28t29.5 -73q0 -56 -34 -91t-89 -35z" />
    <glyph glyph-name="six.sub" horiz-adv-x="314" 
d="M120 -89q-50 0 -79.5 30.5t-29.5 76.5q0 32 4 56l5 31q26 157 144 157q37 0 63 -19t28 -57h-16q-6 58 -76 60q-50 1 -82 -33t-45 -117l-3 -19q15 26 44 40t60 14q46 0 76.5 -25t30.5 -72q0 -53 -34 -88t-90 -35zM29 16q0 -39 25 -64t66 -25q49 0 77.5 29.5t28.5 77.5
q0 38 -24.5 60t-64.5 22q-46 0 -77 -26.5t-31 -73.5z" />
    <glyph glyph-name="seven.sub" horiz-adv-x="271" 
d="M29 -86l195 329h-207l3 16h233l-1 -4l-202 -341h-21z" />
    <glyph glyph-name="eight.sub" horiz-adv-x="315" 
d="M120 -89q-50 0 -85 25t-35 68q0 40 26.5 64.5t71.5 31.5q-26 8 -43 27.5t-17 45.5q0 40 32 64.5t77 24.5q43 0 73.5 -22.5t30.5 -61.5q0 -32 -22 -54t-57 -28q71 -21 71 -85q0 -49 -33.5 -74.5t-89.5 -25.5zM18 4q1 -35 28.5 -56t73.5 -21t75.5 20t29.5 64q0 37 -28.5 58
t-71.5 21q-44 0 -75.5 -21.5t-31.5 -64.5zM56 173q0 -30 26 -48.5t63 -18.5q35 0 61.5 19t26.5 53q0 32 -24.5 50t-61.5 18q-38 0 -64.5 -18.5t-26.5 -54.5z" />
    <glyph glyph-name="nine.sub" horiz-adv-x="313" 
d="M149 262q50 0 79.5 -30.5t29.5 -76.5q0 -32 -4 -56l-5 -31q-14 -83 -49 -120t-91 -37q-45 0 -71.5 22t-28.5 59h16q8 -65 84 -65q50 0 80.5 33.5t43.5 116.5l3 19q-15 -26 -44 -40t-60 -14q-46 0 -76.5 25t-30.5 72q0 53 34.5 88t89.5 35zM240 157q0 39 -25 64t-66 25
q-49 0 -77.5 -29.5t-28.5 -77.5q0 -38 24.5 -60t64.5 -22q46 0 77 26.5t31 73.5z" />
    <glyph glyph-name="plus.sub" horiz-adv-x="305" 
d="M99 -39l18 113h-109l3 16h109l18 114h18l-18 -114h110l-3 -16h-110l-18 -113h-18z" />
    <glyph glyph-name="minus.sub" horiz-adv-x="305" 
d="M8 74l3 16h237l-3 -16h-237z" />
    <glyph glyph-name="zero.sup" horiz-adv-x="349" 
d="M104 556q0 -52 27 -83.5t79 -31.5q72 0 105.5 57t33.5 147q0 53 -26.5 84t-79.5 31q-72 0 -105.5 -57t-33.5 -147zM211 425q-59 0 -92 36t-33 95q0 96 39 158t118 62q59 0 91.5 -35.5t32.5 -95.5q0 -96 -39 -158t-117 -62z" />
    <glyph glyph-name="one.sup" horiz-adv-x="205" 
d="M138 428l51 319l-106 -68l3 20l115 74h10l-55 -345h-18z" />
    <glyph glyph-name="two.sup" horiz-adv-x="284" 
d="M45 428l1 7l151 122q31 25 47 39.5t30.5 39.5t14.5 52q0 32 -21 52.5t-56 20.5q-40 0 -68 -23.5t-38 -68.5h-17q9 51 43 79t80 28q44 0 69.5 -24.5t25.5 -63.5q0 -30 -16 -57.5t-31.5 -42t-51.5 -43.5l-125 -101h195l-3 -16h-230z" />
    <glyph glyph-name="three.sup" horiz-adv-x="305" 
d="M193 425q-51 0 -85 26t-37 72h18q3 -38 31 -60t73 -22q43 0 71 22.5t28 64.5q0 30 -21 51.5t-59 21.5h-24l3 16h29q34 0 57 19t23 55q0 33 -22.5 51.5t-57.5 18.5q-40 0 -65.5 -21.5t-35.5 -57.5h-17q9 42 40 68t78 26q40 0 69 -22.5t29 -62.5q0 -66 -68 -83
q27 -8 43.5 -29t16.5 -51q0 -48 -33.5 -75.5t-83.5 -27.5z" />
    <glyph glyph-name="four.sup" horiz-adv-x="301" 
d="M230 428l13 80h-187l1 6l217 259h29l-40 -249h49l-3 -16h-48l-13 -80h-18zM86 524h159l38 235z" />
    <glyph glyph-name="five.sup" horiz-adv-x="287" 
d="M175 425q-42 0 -73 23.5t-35 65.5h18q4 -35 28.5 -54t61.5 -19q48 0 76.5 29.5t28.5 80.5q0 37 -24 61t-62 24q-54 0 -90 -40h-8l28 177h187l-3 -16h-170l-21 -134q33 29 78 29q44 0 73.5 -28t29.5 -73q0 -56 -34 -91t-89 -35z" />
    <glyph glyph-name="six.sup" horiz-adv-x="314" 
d="M196 425q-50 0 -79.5 30.5t-29.5 76.5q0 32 4 56l5 31q26 157 144 157q37 0 63 -19t28 -57h-16q-6 58 -76 60q-50 1 -82 -33t-45 -117l-3 -19q15 26 44 40t60 14q46 0 76.5 -25t30.5 -72q0 -53 -34 -88t-90 -35zM105 530q0 -39 25 -64t66 -25q49 0 77.5 29.5t28.5 77.5
q0 38 -24.5 60t-64.5 22q-46 0 -77 -26.5t-31 -73.5z" />
    <glyph glyph-name="seven.sup" horiz-adv-x="271" 
d="M105 428l195 329h-207l3 16h233l-1 -4l-202 -341h-21z" />
    <glyph glyph-name="eight.sup" horiz-adv-x="315" 
d="M196 425q-50 0 -85 25t-35 68q0 40 26.5 64.5t71.5 31.5q-26 8 -43 27.5t-17 45.5q0 40 32 64.5t77 24.5q43 0 73.5 -22.5t30.5 -61.5q0 -32 -22 -54t-57 -28q71 -21 71 -85q0 -49 -33.5 -74.5t-89.5 -25.5zM94 518q1 -35 28.5 -56t73.5 -21t75.5 20t29.5 64
q0 37 -28.5 58t-71.5 21q-44 0 -75.5 -21.5t-31.5 -64.5zM132 687q0 -30 26 -48.5t63 -18.5q35 0 61.5 19t26.5 53q0 32 -24.5 50t-61.5 18q-38 0 -64.5 -18.5t-26.5 -54.5z" />
    <glyph glyph-name="nine.sup" horiz-adv-x="313" 
d="M225 776q50 0 79.5 -30.5t29.5 -76.5q0 -32 -4 -56l-5 -31q-14 -83 -49 -120t-91 -37q-45 0 -71.5 22t-28.5 59h16q8 -65 84 -65q50 0 80.5 33.5t43.5 116.5l3 19q-15 -26 -44 -40t-60 -14q-46 0 -76.5 25t-30.5 72q0 53 34.5 88t89.5 35zM316 671q0 39 -25 64t-66 25
q-49 0 -77.5 -29.5t-28.5 -77.5q0 -38 24.5 -60t64.5 -22q46 0 77 26.5t31 73.5z" />
    <glyph glyph-name="plus.sup" horiz-adv-x="305" 
d="M176 479l18 113h-109l3 16h109l18 114h18l-18 -114h110l-3 -16h-110l-18 -113h-18z" />
    <glyph glyph-name="minus.sup" horiz-adv-x="305" 
d="M85 592l3 16h237l-3 -16h-237z" />
    <glyph glyph-name="a.alt" horiz-adv-x="580" 
d="M300 514q-109 0 -177 -84t-68 -205q0 -100 55.5 -158t136.5 -58q71 0 127 45t83.5 109t28.5 132q1 100 -50.5 159.5t-135.5 59.5zM247 -7q-92 0 -151 63t-59 169q0 127 73 216t190 89q89 0 139 -54.5t59 -121.5l27 169h18l-56 -350q-12 -75 -19 -173h-18q2 62 15 147
q-30 -68 -86 -111t-132 -43z" />
    <glyph glyph-name="t.alt" horiz-adv-x="296" 
d="M74 0l80 507h-95l3 16h94l19 119h18l-19 -119h140l-3 -16h-139l-80 -507h-18z" />
    <glyph glyph-name="germandbls.alt" horiz-adv-x="572" 
d="M348 -4q-70 0 -116.5 35.5t-50.5 101.5h18q5 -59 45.5 -90t103.5 -31q65 0 107.5 35t42.5 92q0 48 -27.5 79t-87.5 69q-74 46 -90 65q-20 22 -20 50q0 26 23.5 49.5t56.5 42.5t66 40t56.5 51t23.5 65q0 52 -40 81t-100 29q-87 0 -143.5 -51.5t-70.5 -143.5l-89 -565h-18
l89 565q16 99 77.5 155t154.5 56q66 0 112 -32.5t46 -93.5q0 -46 -35.5 -84.5t-77.5 -60t-77.5 -49t-35.5 -54.5q0 -18 12.5 -34t27.5 -26.5t49 -31.5q9 -5 13 -8q43 -28 65 -45.5t40.5 -48.5t18.5 -69q0 -63 -47.5 -103t-121.5 -40z" />
    <glyph glyph-name="aacute.alt" horiz-adv-x="580" 
d="M300 514q-109 0 -177 -84t-68 -205q0 -100 55.5 -158t136.5 -58q71 0 127 45t83.5 109t28.5 132q1 100 -50.5 159.5t-135.5 59.5zM247 -7q-92 0 -151 63t-59 169q0 127 73 216t190 89q89 0 139 -54.5t59 -121.5l27 169h18l-56 -350q-12 -75 -19 -173h-18q2 62 15 147
q-30 -68 -86 -111t-132 -43zM310 596l98 147h21l-101 -147h-18z" />
    <glyph glyph-name="abreve.alt" horiz-adv-x="580" 
d="M300 514q-109 0 -177 -84t-68 -205q0 -100 55.5 -158t136.5 -58q71 0 127 45t83.5 109t28.5 132q1 100 -50.5 159.5t-135.5 59.5zM247 -7q-92 0 -151 63t-59 169q0 127 73 216t190 89q89 0 139 -54.5t59 -121.5l27 169h18l-56 -350q-12 -75 -19 -173h-18q2 62 15 147
q-30 -68 -86 -111t-132 -43zM329 612q-48 0 -74.5 29.5t-27.5 78.5h18q0 -42 22.5 -67t61.5 -25t67.5 25t36.5 67h18q-9 -49 -43 -78.5t-79 -29.5z" />
    <glyph glyph-name="acircumflex.alt" horiz-adv-x="580" 
d="M300 514q-109 0 -177 -84t-68 -205q0 -100 55.5 -158t136.5 -58q71 0 127 45t83.5 109t28.5 132q1 100 -50.5 159.5t-135.5 59.5zM247 -7q-92 0 -151 63t-59 169q0 127 73 216t190 89q89 0 139 -54.5t59 -121.5l27 169h18l-56 -350q-12 -75 -19 -173h-18q2 62 15 147
q-30 -68 -86 -111t-132 -43zM204 596l127 124h19l96 -124h-19l-88 109l-114 -109h-21z" />
    <glyph glyph-name="adieresis.alt" horiz-adv-x="580" 
d="M300 514q-109 0 -177 -84t-68 -205q0 -100 55.5 -158t136.5 -58q71 0 127 45t83.5 109t28.5 132q1 100 -50.5 159.5t-135.5 59.5zM247 -7q-92 0 -151 63t-59 169q0 127 73 216t190 89q89 0 139 -54.5t59 -121.5l27 169h18l-56 -350q-12 -75 -19 -173h-18q2 62 15 147
q-30 -68 -86 -111t-132 -43zM266 639q-7 0 -12 5t-5 12t5 12t12 5t12 -5t5 -12t-5 -12t-12 -5zM408 639q-7 0 -12 5t-5 12t5 12t12 5t12 -5t5 -12t-5 -12t-12 -5z" />
    <glyph glyph-name="agrave.alt" horiz-adv-x="580" 
d="M300 514q-109 0 -177 -84t-68 -205q0 -100 55.5 -158t136.5 -58q71 0 127 45t83.5 109t28.5 132q1 100 -50.5 159.5t-135.5 59.5zM247 -7q-92 0 -151 63t-59 169q0 127 73 216t190 89q89 0 139 -54.5t59 -121.5l27 169h18l-56 -350q-12 -75 -19 -173h-18q2 62 15 147
q-30 -68 -86 -111t-132 -43zM317 596l-55 147h19l53 -147h-17z" />
    <glyph glyph-name="amacron.alt" horiz-adv-x="580" 
d="M300 514q-109 0 -177 -84t-68 -205q0 -100 55.5 -158t136.5 -58q71 0 127 45t83.5 109t28.5 132q1 100 -50.5 159.5t-135.5 59.5zM247 -7q-92 0 -151 63t-59 169q0 127 73 216t190 89q89 0 139 -54.5t59 -121.5l27 169h18l-56 -350q-12 -75 -19 -173h-18q2 62 15 147
q-30 -68 -86 -111t-132 -43zM226 646l3 17h219l-3 -17h-219z" />
    <glyph glyph-name="aogonek.alt" horiz-adv-x="580" 
d="M468 0q-103 -61 -103 -115q0 -51 59 -51q21 0 45 7l-3 -16q-21 -7 -43 -7q-38 0 -57 18.5t-19 48.5q0 58 103 120q2 57 15 142q-30 -68 -86 -111t-132 -43q-92 0 -151 63t-59 169q0 127 73 216t190 89q89 0 139 -54.5t59 -121.5l27 169h18l-56 -350q-12 -75 -19 -173z
M300 514q-109 0 -177 -84t-68 -205q0 -100 55.5 -158t136.5 -58q71 0 127 45t83.5 109t28.5 132q1 100 -50.5 159.5t-135.5 59.5z" />
    <glyph glyph-name="aring.alt" horiz-adv-x="580" 
d="M300 514q-109 0 -177 -84t-68 -205q0 -100 55.5 -158t136.5 -58q71 0 127 45t83.5 109t28.5 132q1 100 -50.5 159.5t-135.5 59.5zM247 -7q-92 0 -151 63t-59 169q0 127 73 216t190 89q89 0 139 -54.5t59 -121.5l27 169h18l-56 -350q-12 -75 -19 -173h-18q2 62 15 147
q-30 -68 -86 -111t-132 -43zM344 619q32 0 52 20.5t20 52.5q0 30 -19 49t-50 19q-30 0 -51 -21t-21 -52q0 -28 19.5 -48t49.5 -20zM344 604q-36 0 -61 24.5t-25 58.5q0 36 26 62t63 26t61.5 -24.5t24.5 -58.5q0 -38 -25.5 -63t-63.5 -25z" />
    <glyph glyph-name="aringacute.alt" horiz-adv-x="580" 
d="M300 514q-109 0 -177 -84t-68 -205q0 -100 55.5 -158t136.5 -58q71 0 127 45t83.5 109t28.5 132q1 100 -50.5 159.5t-135.5 59.5zM247 -7q-92 0 -151 63t-59 169q0 127 73 216t190 89q89 0 139 -54.5t59 -121.5l27 169h18l-56 -350q-12 -75 -19 -173h-18q2 62 15 147
q-30 -68 -86 -111t-132 -43zM333 619q32 0 52 20.5t20 52.5q0 30 -19 49t-50 19q-30 0 -51 -21t-21 -52q0 -28 19.5 -48t49.5 -20zM333 604q-36 0 -61 24.5t-25 58.5q0 36 26 62t63 26q38 0 62 -24.5t24 -58.5q0 -38 -25.5 -63t-63.5 -25zM352 831l81 117h22l-84 -117h-19z
" />
    <glyph glyph-name="atilde.alt" horiz-adv-x="580" 
d="M300 514q-109 0 -177 -84t-68 -205q0 -100 55.5 -158t136.5 -58q71 0 127 45t83.5 109t28.5 132q1 100 -50.5 159.5t-135.5 59.5zM247 -7q-92 0 -151 63t-59 169q0 127 73 216t190 89q89 0 139 -54.5t59 -121.5l27 169h18l-56 -350q-12 -75 -19 -173h-18q2 62 15 147
q-30 -68 -86 -111t-132 -43zM398 613q-27 0 -71.5 32t-64.5 32t-36.5 -16t-22.5 -47h-17q8 39 28.5 59t48.5 20q25 0 70 -32t66 -32q19 0 35.5 16t22.5 47h17q-8 -39 -28.5 -59t-47.5 -20z" />
    <glyph glyph-name="tbar.alt" horiz-adv-x="296" 
d="M30 327l3 16h95l26 164h-95l3 16h94l19 119h18l-19 -119h140l-3 -16h-139l-26 -164h139l-3 -16h-139l-51 -327h-18l51 327h-95z" />
    <glyph glyph-name="tcaron.alt" horiz-adv-x="296" 
d="M74 0l80 507h-95l3 16h94l19 119h18l-19 -119h140l-3 -16h-139l-80 -507h-18zM283 626l39 147h19l-41 -147h-17z" />
    <glyph glyph-name="tcommaaccent.alt" horiz-adv-x="296" 
d="M74 0l80 507h-95l3 16h94l19 119h18l-19 -119h140l-3 -16h-139l-80 -507h-18zM12 -186l-14 7l67 133l19 -5z" />
    <glyph glyph-name="f.short" horiz-adv-x="308" 
d="M61 507l3 16h85l16 98q25 155 156 155q28 0 51 -7l-2 -16q-21 7 -49 7q-54 0 -89.5 -30t-48.5 -110l-16 -97h166l-3 -16h-165l-80 -507h-18l80 507h-86z" />
    <glyph glyph-name="f_f.short" horiz-adv-x="575" 
d="M61 507l3 16h85l15 95q24 149 156 149q29 0 55 -8l-2 -16q-24 8 -53 8q-54 0 -90 -28.5t-48 -105.5l-15 -94h249l16 98q25 155 156 155q28 0 51 -7l-2 -16q-21 7 -49 7q-54 0 -89.5 -30t-48.5 -110l-16 -97h166l-3 -16h-165l-80 -507h-18l80 507h-250l-79 -507h-18
l79 507h-85z" />
    <glyph glyph-name="questiondown.uc" horiz-adv-x="462" 
d="M311 563l-11 -72q-8 -56 -35 -90t-89 -83q-6 -4 -25 -19t-24.5 -20t-20.5 -18.5t-20.5 -20.5t-15 -21t-13 -25.5t-7 -27.5t-3.5 -33q0 -61 43.5 -91.5t105.5 -30.5q77 0 128 44t67 128h18q-14 -89 -71.5 -139t-141.5 -50q-69 0 -118.5 34.5t-49.5 104.5q0 25 6.5 47.5
t13 37t24.5 33.5t26.5 26t34.5 27.5t33 26.5q60 48 84 78.5t32 83.5l11 70h18zM325 720q7 0 12 -5t5 -12t-5 -12t-12 -5t-12 5t-5 12t5 12t12 5z" />
    <glyph glyph-name="exclamdown.uc" horiz-adv-x="254" 
d="M181 563l-87 -563h-20l91 563h16zM197 720q7 0 12 -5t5 -12t-5 -12t-12 -5t-12 5t-5 12t5 12t12 5z" />
    <glyph glyph-name="hyphen.uc" horiz-adv-x="352" 
d="M74 331l3 17h224l-3 -17h-224z" />
    <glyph glyph-name="endash.uc" horiz-adv-x="476" 
d="M58 331l3 17h380l-3 -17h-380z" />
    <glyph glyph-name="emdash.uc" horiz-adv-x="850" 
d="M58 331l3 17h754l-3 -17h-754z" />
    <glyph glyph-name="guilsinglleft.uc" horiz-adv-x="253" 
d="M166 123l-112 178l168 178h22l-169 -179l110 -177h-19z" />
    <glyph glyph-name="guilsinglright.uc" horiz-adv-x="253" 
d="M97 479l112 -179l-168 -177h-22l169 179l-110 177h19z" />
    <glyph glyph-name="guillemotleft.uc" horiz-adv-x="387" 
d="M166 123l-112 178l168 178h22l-169 -179l110 -177h-19zM300 123l-112 178l168 178h22l-169 -179l110 -177h-19z" />
    <glyph glyph-name="guillemotright.uc" horiz-adv-x="387" 
d="M231 479l112 -179l-168 -177h-22l169 179l-110 177h19zM97 479l112 -179l-168 -177h-22l169 179l-110 177h19z" />
    <glyph glyph-name="parenleft.uc" horiz-adv-x="267" 
d="M158 -98q-97 152 -97 341q0 158 63 296t173 244h20q-238 -236 -238 -540q0 -182 98 -341h-19z" />
    <glyph glyph-name="parenright.uc" horiz-adv-x="267" 
d="M133 783q97 -152 97 -341q0 -158 -63 -296t-173 -244h-20q238 236 238 540q0 182 -98 341h19z" />
    <glyph glyph-name="bracketleft.uc" horiz-adv-x="322" 
d="M43 -84l137 862h184l-3 -16h-166l-131 -830h166l-3 -16h-184z" />
    <glyph glyph-name="bracketright.uc" horiz-adv-x="322" 
d="M-17 -84l3 16h166l131 830h-166l3 16h184l-137 -862h-184z" />
    <glyph glyph-name="braceleft.uc" horiz-adv-x="341" 
d="M246 -89q-94 6 -126.5 55.5t-1.5 137.5l35 99q49 138 -98 146l3 16q79 0 113.5 32t29.5 97l-8 107q-7 96 40 134.5t150 43.5l-3 -16q-92 -5 -134.5 -38.5t-35.5 -123.5l8 -106q9 -120 -112 -140q51 -12 68 -51.5t-5 -105.5l-35 -97q-58 -162 115 -174z" />
    <glyph glyph-name="braceright.uc" horiz-adv-x="343" 
d="M120 780q94 -6 126.5 -55.5t1.5 -137.5l-35 -99q-49 -138 98 -146l-3 -16q-79 0 -113.5 -32t-29.5 -97l8 -107q7 -96 -40 -134.5t-150 -43.5l3 16q92 5 134.5 38.5t35.5 123.5l-8 106q-9 120 112 140q-51 12 -68 51.5t5 105.5l35 97q58 162 -115 174z" />
    <glyph glyph-name="slash.uc" horiz-adv-x="376" 
d="M-15 -84l407 862h20l-407 -862h-20z" />
    <glyph glyph-name="backslash.uc" horiz-adv-x="376" 
d="M260 -84l-135 862h19l135 -862h-19z" />
    <glyph glyph-name="bar.uc" horiz-adv-x="226" 
d="M114 -84v862h18v-862h-18z" />
    <glyph glyph-name="at.uc" horiz-adv-x="877" 
d="M461 -59q-95 0 -172.5 32t-126.5 86.5t-75 125t-26 149.5q0 173 125 294.5t289 121.5q170 0 272 -100t102 -254q0 -119 -50.5 -179.5t-117.5 -60.5q-49 0 -76 28t-26 82q-17 -45 -59.5 -81.5t-99.5 -36.5q-64 0 -105 42.5t-41 114.5q0 91 55 163.5t138 72.5
q53 0 90 -33.5t43 -85.5l17 110h17l-34 -220q-26 -140 82 -140q64 0 105.5 56.5t41.5 166.5q0 149 -94.5 243.5t-259.5 94.5q-159 0 -277 -116t-118 -283q0 -102 41.5 -186t129.5 -137t210 -53q108 0 185.5 35t117.5 89h20q-38 -60 -123 -100.5t-200 -40.5zM420 165
q68 0 118.5 63t51.5 147q1 67 -32.5 108t-90.5 41q-75 0 -124.5 -66.5t-49.5 -152.5q0 -65 34 -102.5t93 -37.5z" />
    </font>
</defs>
</svg>
