<?xml version="1.0" standalone="no"?>
<!DOCTYPE svg PUBLIC "-//W3C//DTD SVG 1.1//EN" "http://www.w3.org/Graphics/SVG/1.1/DTD/svg11.dtd" >
<svg>
<metadata>
Created by FontForge 20120731 at Sun Aug 28 06:45:09 2016
 By ,,,
(c)2009 Commercial Type.
</metadata>
<defs>
<font id="Graphik-BlackItalic" horiz-adv-x="600" >
  <font-face 
    font-family="Graphik Black"
    font-weight="900"
    font-style="italic"
    font-stretch="normal"
    units-per-em="1000"
    panose-1="2 11 10 3 3 2 2 13 2 3"
    ascent="826"
    descent="-174"
    x-height="523"
    cap-height="715"
    bbox="-256 -233 1217 1142"
    underline-thickness="50"
    underline-position="-50"
    slope="-8"
    unicode-range="U+0020-FB02"
  />
<missing-glyph horiz-adv-x="523" 
 />
    <glyph glyph-name="f_f" unicode="ff" horiz-adv-x="730" 
d="M372 0l61 391h-144l-61 -391h-196l61 391h-63l20 132h64l8 49q14 91 74.5 135t150.5 44q53 0 95 -14l-22 -142q-23 7 -44 7q-52 0 -61 -51l-5 -28h144l10 60q14 91 75.5 135t152.5 44q57 0 97 -15l-22 -142q-28 8 -47 8q-55 0 -63 -51l-6 -39h101l-20 -132h-102l-62 -391
h-196z" />
    <glyph glyph-name=".notdef" horiz-adv-x="523" 
 />
    <glyph glyph-name=".null" horiz-adv-x="0" 
 />
    <glyph glyph-name="nonmarkingreturn" horiz-adv-x="333" 
 />
    <glyph glyph-name="space" unicode=" " horiz-adv-x="185" 
 />
    <glyph glyph-name="exclam" unicode="!" horiz-adv-x="342" 
d="M85 241l47 474h221l-105 -474h-163zM145 -12q-47 0 -78 30t-31 75q0 44 32 75t79 31t79 -30.5t32 -74.5t-33 -75t-80 -31z" />
    <glyph glyph-name="quotedbl" unicode="&#x22;" horiz-adv-x="478" 
d="M87 434l21 281h182l-64 -281h-139zM309 434l20 281h183l-65 -281h-138z" />
    <glyph glyph-name="numbersign" unicode="#" horiz-adv-x="581" 
d="M268 99l32 135h-57l-32 -135h-130l32 135h-76l25 154h88l15 65h-77l22 146h90l28 116h130l-28 -116h56l28 116h131l-28 -116h77l-22 -146h-90l-15 -65h79l-25 -154h-91l-32 -135h-130zM295 453l-15 -65h56l16 65h-57z" />
    <glyph glyph-name="dollar" unicode="$" horiz-adv-x="648" 
d="M222 -135l20 129q-101 14 -165.5 71t-67.5 162h200q1 -63 57 -82l21 131q-117 25 -169.5 74t-52.5 135q0 109 83.5 173.5t209.5 66.5l14 88h82l-15 -93q211 -27 219 -217h-196q-1 47 -47 66l-20 -127q112 -24 170 -72t58 -135q0 -118 -83 -182t-217 -65l-19 -123h-82z
M423 203q0 19 -13 32t-44 23l-19 -121q76 6 76 66zM260 516q0 -22 12.5 -34.5t43.5 -22.5l19 118q-75 -10 -75 -61z" />
    <glyph glyph-name="percent" unicode="%" horiz-adv-x="835" 
d="M198 526q0 -24 11.5 -39.5t36.5 -14.5q28 1 43 27.5t15 61.5q0 23 -12 38.5t-35 15.5q-28 0 -43.5 -25.5t-15.5 -63.5zM241 360q-79 0 -132 42.5t-53 118.5q0 86 57.5 144t148.5 58q77 0 130 -43t53 -118q0 -84 -57.5 -143t-146.5 -59zM95 0l582 715h103l-582 -715h-103z
M569 153q0 -24 11 -39.5t37 -14.5q28 1 42.5 27.5t14.5 61.5q0 23 -11.5 38.5t-34.5 15.5q-29 0 -44 -25.5t-15 -63.5zM612 -13q-79 0 -132.5 42.5t-53.5 118.5q0 84 58.5 143t148.5 59q77 0 130 -43t53 -118q0 -84 -57.5 -143t-146.5 -59z" />
    <glyph glyph-name="ampersand" unicode="&#x26;" horiz-adv-x="777" 
d="M709 0h-240l-32 48q-83 -60 -193 -60q-99 0 -165 48.5t-66 149.5q0 152 191 225q-33 53 -33 110q0 96 72 150t179 54q56 0 103 -16t80.5 -55.5t33.5 -98.5q0 -69 -44 -111t-121 -74l64 -98l65 101h175l-154 -239zM225 214q0 -32 19 -51.5t54 -19.5q36 0 62 22l-85 129
q-50 -30 -50 -80zM418 587q-24 0 -39.5 -16t-15.5 -43q0 -30 31 -70q23 12 36 20t25 24.5t12 36.5q0 21 -13 34.5t-36 13.5z" />
    <glyph glyph-name="quotesingle" unicode="'" horiz-adv-x="264" 
d="M87 434l21 281h190l-64 -281h-147z" />
    <glyph glyph-name="parenleft" unicode="(" horiz-adv-x="362" 
d="M138 -148q-106 162 -106 359q0 166 66.5 309.5t185.5 254.5h157q-112 -143 -168 -279t-56 -300q0 -193 70 -344h-149z" />
    <glyph glyph-name="parenright" unicode=")" horiz-adv-x="362" 
d="M237 776q106 -162 106 -359q0 -166 -66 -310t-186 -254h-157q112 143 168 279t56 300q0 193 -70 344h149z" />
    <glyph glyph-name="asterisk" unicode="*" horiz-adv-x="444" 
d="M185 367l-104 90l103 79l-114 18l58 130l99 -60l-7 119h154l-45 -125l116 45l16 -134l-118 -3l77 -91l-130 -75l-35 116z" />
    <glyph glyph-name="plus" unicode="+" horiz-adv-x="579" 
d="M181 79l30 190h-174l23 142h174l29 189h157l-30 -189h174l-23 -142h-173l-30 -190h-157z" />
    <glyph glyph-name="comma" unicode="," horiz-adv-x="311" 
d="M83 -124l-108 47l105 270l173 -63z" />
    <glyph glyph-name="hyphen" unicode="-" horiz-adv-x="390" 
d="M40 214l24 146h292l-24 -146h-292z" />
    <glyph glyph-name="period" unicode="." horiz-adv-x="302" 
d="M122 -12q-47 0 -78 31t-31 77q0 45 30.5 76t77.5 31q48 0 80.5 -31t32.5 -76q0 -46 -32 -77t-80 -31z" />
    <glyph glyph-name="slash" unicode="/" horiz-adv-x="440" 
d="M-89 -148l452 924h158l-452 -924h-158z" />
    <glyph glyph-name="zero" unicode="0" horiz-adv-x="741" 
d="M354 -13q-146 0 -230 77.5t-84 215.5q0 43 7 82l4 28q26 164 122.5 250t242.5 86q141 0 227 -78t86 -219q0 -38 -6 -77l-4 -29q-26 -165 -120.5 -250.5t-244.5 -85.5zM363 162q57 0 87 41.5t45 132.5l4 27q7 47 7 76q0 115 -96 115q-56 0 -88.5 -42.5t-46.5 -132.5
l-4 -28q-8 -54 -8 -77q0 -112 100 -112z" />
    <glyph glyph-name="one" unicode="1" horiz-adv-x="459" 
d="M121 0l78 493l-145 -82l30 193l182 111h195l-113 -715h-227z" />
    <glyph glyph-name="two" unicode="2" horiz-adv-x="626" 
d="M-38 0l5 31l286 259q75 65 112 110.5t37 94.5q0 28 -15.5 44.5t-44.5 16.5q-71 0 -95 -108h-205q16 137 102 207.5t218 70.5q120 0 193 -54.5t73 -158.5q0 -80 -43.5 -140t-128.5 -129l-91 -76h217l-25 -168h-595z" />
    <glyph glyph-name="three" unicode="3" horiz-adv-x="661" 
d="M321 -13q-142 0 -222 62.5t-81 190.5h205q-1 -42 20.5 -66.5t66.5 -24.5q39 0 62.5 21t23.5 59q0 65 -80 65h-50l22 137h64q81 0 81 73q1 30 -17.5 45.5t-48.5 15.5q-79 0 -95 -84h-201q15 112 97.5 178.5t213.5 66.5q113 0 189.5 -47t76.5 -145q0 -61 -36.5 -106
t-102.5 -61q53 -14 83.5 -53t30.5 -92q0 -113 -89 -174t-213 -61z" />
    <glyph glyph-name="four" unicode="4" horiz-adv-x="689" 
d="M318 0l21 134h-346l14 86l372 495h270l-68 -426h91l-25 -155h-90l-21 -134h-218zM229 289h140l39 249z" />
    <glyph glyph-name="five" unicode="5" horiz-adv-x="639" 
d="M297 -13q-59 0 -108.5 13.5t-90 41.5t-63 76t-22.5 112h211q2 -73 73 -73q40 0 61.5 26t22.5 71q0 39 -22 60t-63 21q-71 0 -110 -48h-135l81 428h496l-26 -164h-333l-26 -142q59 76 170 76q90 0 143 -54t52 -156q-1 -133 -84.5 -210.5t-226.5 -77.5z" />
    <glyph glyph-name="six" unicode="6" horiz-adv-x="685" 
d="M342 -13q-142 0 -221.5 72t-78.5 211q0 42 8 93l3 23q24 152 119.5 246t240.5 94q114 0 187.5 -53.5t77.5 -165.5h-209q-3 52 -61 52q-103 0 -133 -171q62 81 165 81q89 0 152 -53.5t63 -150.5q0 -128 -90 -203t-223 -75zM265 227q0 -35 20 -58t58 -23q40 0 65.5 30.5
t25.5 74.5q0 34 -19.5 56.5t-56.5 22.5q-40 0 -66.5 -29.5t-26.5 -73.5z" />
    <glyph glyph-name="seven" unicode="7" horiz-adv-x="586" 
d="M58 0l276 531h-270l29 184h557l-3 -23l-356 -692h-233z" />
    <glyph glyph-name="eight" unicode="8" horiz-adv-x="666" 
d="M314 -13q-126 0 -213 51.5t-87 149.5q0 147 159 195q-81 42 -81 128q0 103 83.5 159t204.5 56q68 0 126.5 -17.5t102 -63t43.5 -112.5q0 -58 -33 -100.5t-91 -64.5q51 -21 78 -60t27 -88q0 -114 -88 -173.5t-231 -59.5zM241 220q0 -35 22.5 -55t59.5 -20q39 0 65 24
t26 66q0 34 -22 53.5t-58 19.5q-40 0 -66.5 -23t-26.5 -65zM294 498q0 -29 19 -48t51 -19q33 0 57.5 20.5t24.5 56.5q0 30 -19.5 48.5t-51.5 18.5q-33 0 -57 -20.5t-24 -56.5z" />
    <glyph glyph-name="nine" unicode="9" horiz-adv-x="685" 
d="M299 -12q-116 0 -193 53.5t-82 165.5h209q6 -52 74 -52q53 0 83.5 42t46.5 125q-57 -80 -162 -80q-91 0 -154.5 50.5t-63.5 150.5q0 130 88.5 207t225.5 77q141 0 221 -74.5t80 -216.5q0 -45 -7 -88l-3 -19q-57 -341 -363 -341zM274 464q0 -36 19 -57.5t54 -21.5
q42 0 69.5 28t27.5 75q0 35 -19.5 57.5t-57.5 22.5q-40 0 -66.5 -29t-26.5 -75z" />
    <glyph glyph-name="colon" unicode=":" horiz-adv-x="308" 
d="M124 -12q-47 0 -78 31t-31 77q0 45 30.5 76t77.5 31q48 0 81 -31t33 -76q0 -46 -32 -77t-81 -31zM170 272q-47 0 -78 31t-31 76q0 46 30.5 77t77.5 31q48 0 81 -31.5t33 -76.5t-32.5 -76t-80.5 -31z" />
    <glyph glyph-name="semicolon" unicode=";" horiz-adv-x="326" 
d="M80 -124l-108 47l105 270l172 -63zM195 272q-47 0 -78 31t-31 76q0 46 30.5 77t77.5 31q48 0 81 -31.5t33 -76.5t-32.5 -76t-80.5 -31z" />
    <glyph glyph-name="less" unicode="&#x3c;" horiz-adv-x="514" 
d="M434 53l-388 256l6 38l467 245l-28 -181l-191 -90l161 -100z" />
    <glyph glyph-name="equal" unicode="=" horiz-adv-x="570" 
d="M22 162l20 131h493l-20 -131h-493zM53 361l20 131h493l-20 -131h-493z" />
    <glyph glyph-name="greater" unicode="&#x3e;" horiz-adv-x="514" 
d="M97 593l388 -256l-6 -38l-467 -245l28 181l192 90l-162 100z" />
    <glyph glyph-name="question" unicode="?" horiz-adv-x="568" 
d="M162 241l3 19q6 38 27.5 70.5t39 47.5t51.5 41q5 3 19 14t18.5 14.5t15 12.5t14.5 14.5t9.5 13.5t7.5 16.5t2 17.5q-2 44 -49 44q-58 0 -74 -80h-192q15 118 93 179t195 60q116 0 178 -49.5t62 -133.5q0 -62 -26.5 -102t-75.5 -77q-11 -8 -38.5 -26.5t-41.5 -29.5
t-30 -29t-22 -37h-186zM232 -12q-47 0 -78 30t-31 74q0 45 32 76.5t79 31.5t79 -31t32 -75t-33 -75t-80 -31z" />
    <glyph glyph-name="at" unicode="@" horiz-adv-x="918" 
d="M706 463l-44 -276q-11 -64 39 -64q46 0 80 52t34 155q0 131 -90.5 211t-241.5 80q-158 0 -264 -102.5t-106 -270.5q0 -150 91.5 -244t261.5 -94q83 0 152 25.5t109 64.5h93q-51 -73 -147 -116.5t-211 -43.5q-199 0 -317 116.5t-118 293.5q0 129 64.5 231.5t168 156
t224.5 53.5q179 0 296 -100t117 -264q0 -140 -66 -208.5t-163 -68.5q-124 0 -147 80q-43 -82 -140 -82q-69 0 -111 47.5t-43 128.5q0 109 59 178t147 69q82 0 105 -57l9 49h159zM442 175q31 0 53 33t22 80q0 27 -14 43t-40 16q-32 0 -53 -31t-20 -81q0 -60 52 -60z" />
    <glyph glyph-name="A" unicode="A" horiz-adv-x="755" 
d="M471 0l-14 119h-225l-51 -119h-217l339 715h292l111 -715h-235zM411 532l-112 -259h141z" />
    <glyph glyph-name="B" unicode="B" horiz-adv-x="690" 
d="M23 0l113 715h305q120 0 176 -48t56 -128q0 -68 -38.5 -112t-101.5 -58q56 -12 90 -49.5t34 -99.5q0 -99 -76 -159.5t-203 -60.5h-355zM267 149h76q44 0 69.5 23.5t25.5 61.5q0 67 -85 67h-62zM312 436h71q84 0 84 73q0 58 -71 58h-63z" />
    <glyph glyph-name="C" unicode="C" horiz-adv-x="768" 
d="M394 -13q-164 0 -259 81t-95 234q0 189 108 306.5t295 117.5q148 0 233 -71.5t90 -210.5h-228q-9 105 -101 105q-76 0 -117.5 -67.5t-42.5 -169.5q-1 -66 28 -106t91 -40q100 0 128 108h225q-20 -139 -118 -213t-237 -74z" />
    <glyph glyph-name="D" unicode="D" horiz-adv-x="757" 
d="M23 0l113 715h242q181 0 275 -79.5t94 -224.5q0 -197 -114 -304t-304 -107h-306zM277 172h53q88 0 135 59t47 170q0 142 -139 142h-37z" />
    <glyph glyph-name="E" unicode="E" horiz-adv-x="621" 
d="M23 0l113 715h507l-27 -174h-282l-16 -101h224l-24 -158h-224l-18 -108h298l-27 -174h-524z" />
    <glyph glyph-name="F" unicode="F" horiz-adv-x="587" 
d="M23 0l113 715h495l-28 -175h-268l-20 -133h215l-27 -167h-215l-38 -240h-227z" />
    <glyph glyph-name="G" unicode="G" horiz-adv-x="791" 
d="M401 -13q-167 0 -264 82.5t-97 236.5q0 182 115.5 301t295.5 118q90 0 159.5 -26t116 -88t50.5 -155h-225q-8 91 -110 91q-79 0 -123 -69.5t-44 -169.5q0 -149 135 -149q109 0 130 91h-120l24 149h341q-13 -211 -104.5 -311.5t-279.5 -100.5z" />
    <glyph glyph-name="H" unicode="H" horiz-adv-x="794" 
d="M23 0l113 715h227l-41 -264h209l42 264h227l-113 -715h-227l43 275h-210l-43 -275h-227z" />
    <glyph glyph-name="I" unicode="I" horiz-adv-x="366" 
d="M26 0l113 715h229l-113 -715h-229z" />
    <glyph glyph-name="J" unicode="J" horiz-adv-x="489" 
d="M151 -9q-96 0 -158 31l26 166q54 -18 91 -18q82 0 94 82l74 463h227l-75 -472q-39 -252 -279 -252z" />
    <glyph glyph-name="K" unicode="K" horiz-adv-x="745" 
d="M23 0l113 715h227l-43 -273l246 273h243l-317 -342l204 -373h-245l-154 300l-47 -300h-227z" />
    <glyph glyph-name="L" unicode="L" horiz-adv-x="582" 
d="M23 0l113 715h227l-85 -540h260l-28 -175h-487z" />
    <glyph glyph-name="M" unicode="M" horiz-adv-x="957" 
d="M23 0l113 715h285l67 -346l178 346h296l-113 -715h-225l67 424l-230 -424h-76l-93 424l-67 -424h-202z" />
    <glyph glyph-name="N" unicode="N" horiz-adv-x="787" 
d="M23 0l113 715h255l141 -372l59 372h201l-113 -715h-217l-171 423l-66 -423h-202z" />
    <glyph glyph-name="O" unicode="O" horiz-adv-x="820" 
d="M810 410q0 -189 -116 -306t-305 -117q-149 0 -249 83t-100 230q0 188 115 307t298 119q154 0 255.5 -82.5t101.5 -233.5zM574 402q0 65 -31.5 105.5t-96.5 41.5q-81 1 -126 -70t-45 -171q0 -65 33 -104t97 -39q82 0 125.5 69.5t43.5 167.5z" />
    <glyph glyph-name="P" unicode="P" horiz-adv-x="664" 
d="M23 0l113 715h268q131 0 201.5 -55.5t71.5 -152.5q0 -132 -81.5 -203t-223.5 -71h-85l-37 -233h-227zM310 385h52q48 0 74 24.5t26 71.5q0 67 -83 67h-44z" />
    <glyph glyph-name="Q" unicode="Q" horiz-adv-x="820" 
d="M389 -13q-149 0 -249 83t-100 229q0 189 115 307.5t298 118.5q155 0 256 -82t101 -233q0 -112 -43 -201.5t-121 -145.5l62 -63l-135 -126l-109 119q-36 -6 -75 -6zM339 175l112 90l59 -62q64 67 64 199q0 63 -31.5 104.5t-96.5 42.5q-81 1 -126 -70t-45 -171
q0 -97 64 -133z" />
    <glyph glyph-name="R" unicode="R" horiz-adv-x="710" 
d="M23 0l113 715h283q134 0 202.5 -54.5t68.5 -152.5q0 -85 -43 -141t-116 -76l128 -291h-229l-106 245h-37l-38 -245h-226zM310 391h62q97 0 97 87q0 67 -81 67h-53z" />
    <glyph glyph-name="S" unicode="S" horiz-adv-x="651" 
d="M315 -13q-147 0 -227.5 63t-79.5 179h212q4 -82 100 -82q81 -1 81 61q0 22 -20.5 35t-71.5 23q-133 27 -187.5 76t-54.5 139q0 107 79 175.5t217 68.5q134 0 206.5 -56.5t71.5 -171.5h-207q-4 69 -77 69q-71 0 -71 -54q0 -22 19 -34t72 -23q127 -25 186.5 -73.5
t59.5 -139.5q0 -115 -80 -184.5t-228 -70.5z" />
    <glyph glyph-name="T" unicode="T" horiz-adv-x="629" 
d="M158 0l85 541h-181l29 174h589l-28 -174h-181l-85 -541h-228z" />
    <glyph glyph-name="U" unicode="U" horiz-adv-x="776" 
d="M376 -13q-170 0 -252.5 83t-56.5 243l65 402h226l-65 -409q-11 -72 9 -106.5t78 -34.5q54 0 77.5 30t34.5 99l67 421h228l-70 -439q-23 -149 -106 -219t-235 -70z" />
    <glyph glyph-name="V" unicode="V" horiz-adv-x="734" 
d="M199 0l-123 715h237l57 -479l209 479h221l-345 -715h-256z" />
    <glyph glyph-name="W" unicode="W" horiz-adv-x="1000" 
d="M134 0l-57 715h229l14 -432l158 432h191l33 -437l156 437h208l-283 -715h-221l-35 416l-164 -416h-229z" />
    <glyph glyph-name="X" unicode="X" horiz-adv-x="744" 
d="M-29 0l275 376l-145 339h243l71 -202l129 202h234l-240 -347l159 -368h-244l-87 237l-158 -237h-237z" />
    <glyph glyph-name="Y" unicode="Y" horiz-adv-x="693" 
d="M194 0l47 306l-166 409h235l77 -221l143 221h226l-288 -421l-46 -294h-228z" />
    <glyph glyph-name="Z" unicode="Z" horiz-adv-x="626" 
d="M-32 0l4 24l367 521h-248l28 170h568l-4 -24l-366 -520h262l-27 -171h-584z" />
    <glyph glyph-name="bracketleft" unicode="[" horiz-adv-x="419" 
d="M-5 -148l146 924h321l-22 -142h-123l-100 -640h122l-23 -142h-321z" />
    <glyph glyph-name="backslash" unicode="\" horiz-adv-x="440" 
d="M262 -148l-197 924h149l197 -924h-149z" />
    <glyph glyph-name="bracketright" unicode="]" horiz-adv-x="546" 
d="M-28 -148l22 142h121l101 640h-121l23 142h319l-146 -924h-319z" />
    <glyph glyph-name="asciicircum" unicode="^" horiz-adv-x="535" 
d="M39 391l212 324h169l116 -324h-162l-59 165l-109 -165h-167z" />
    <glyph glyph-name="underscore" unicode="_" horiz-adv-x="441" 
d="M-68 -161l14 89h442l-14 -89h-442z" />
    <glyph glyph-name="grave" unicode="`" horiz-adv-x="400" 
d="M189 578l-93 169h192l38 -169h-137z" />
    <glyph glyph-name="a" unicode="a" horiz-adv-x="584" 
d="M168 -13q-72 0 -118.5 38.5t-46.5 106.5q0 99 70.5 141.5t208.5 42.5h72l2 12q6 35 -5 54t-48 19q-53 0 -67 -56h-184q39 193 260 193q272 0 235 -235l-22 -139q-16 -102 -8 -164h-191q-5 26 -3 65q-55 -78 -155 -78zM251 117q32 0 54.5 18.5t27.5 47.5l5 27h-51
q-48 0 -68 -11.5t-20 -38.5q0 -19 13.5 -31t38.5 -12z" />
    <glyph glyph-name="b" unicode="b" horiz-adv-x="646" 
d="M374 -13q-58 0 -100.5 26t-58.5 70l-13 -83h-198l120 749h196l-47 -300q57 89 172 89q80 0 130.5 -58.5t50.5 -167.5q0 -151 -70.5 -238t-181.5 -87zM316 135q48 0 78 45t30 118q0 95 -77 95q-49 0 -80 -46t-31 -117q0 -95 80 -95z" />
    <glyph glyph-name="c" unicode="c" horiz-adv-x="584" 
d="M291 -12q-120 0 -195 62.5t-75 177.5q0 139 82.5 224t215.5 85q111 0 179 -54.5t72 -165.5h-184q-6 69 -71 69q-50 0 -73.5 -46t-23.5 -114q0 -97 80 -97q71 0 86 80h176q-13 -107 -82.5 -164t-186.5 -57z" />
    <glyph glyph-name="d" unicode="d" horiz-adv-x="645" 
d="M206 -13q-85 0 -136.5 58.5t-51.5 168.5q0 151 73 237.5t187 86.5q115 0 152 -88l47 299h198l-93 -585q-16 -103 -11 -164h-194q-5 22 -3 81q-59 -94 -168 -94zM297 133q49 0 80 46.5t31 118.5q0 46 -20.5 70.5t-58.5 24.5q-48 0 -78.5 -45t-30.5 -118q0 -97 77 -97z" />
    <glyph glyph-name="e" unicode="e" horiz-adv-x="602" 
d="M213 217q0 -98 89 -98q67 0 84 58h185q-19 -91 -91 -140.5t-183 -49.5q-122 0 -199 60.5t-77 179.5q0 139 85.5 225t218.5 86t202.5 -79.5t48.5 -217.5l-3 -23h-360v-1zM324 412q-73 0 -99 -91h170q9 91 -71 91z" />
    <glyph glyph-name="f" unicode="f" horiz-adv-x="391" 
d="M30 391l20 132h64l10 60q16 92 77 135.5t152 43.5q57 0 97 -15l-23 -142q-26 8 -46 8q-54 0 -64 -51l-6 -39h102l-21 -132h-102l-62 -391h-196l61 391h-63z" />
    <glyph glyph-name="g" unicode="g" horiz-adv-x="643" 
d="M298 168q51 0 80 40t29 101q-1 38 -21.5 62t-55.5 24q-50 0 -77.5 -40t-27.5 -95q0 -42 18.5 -67t54.5 -25zM636 523l-78 -492q-18 -117 -86.5 -171t-206.5 -54t-207 55t-73 143h195q9 -62 82 -62q49 0 71 23t28 66l14 82q-52 -82 -159 -82q-86 0 -140 56t-54 160
q0 130 71.5 210.5t182.5 80.5q114 0 151 -88l12 73h197z" />
    <glyph glyph-name="h" unicode="h" horiz-adv-x="627" 
d="M5 0l119 749h196l-49 -313q63 102 175 102q79 0 121.5 -55.5t24.5 -167.5l-50 -315h-197l47 297q13 83 -54 83q-76 0 -91 -94l-45 -286h-197z" />
    <glyph glyph-name="i" unicode="i" horiz-adv-x="303" 
d="M211 563q-45 0 -74.5 28t-29.5 70q0 43 29.5 70.5t75.5 27.5q45 0 74.5 -27.5t29.5 -70.5q0 -42 -30.5 -70t-74.5 -28zM11 0l82 523h197l-83 -523h-196z" />
    <glyph glyph-name="j" unicode="j" horiz-adv-x="303" 
d="M-79 -181l22 139q62 3 69 55l81 510h196l-84 -529q-6 -41 -22.5 -72.5t-47.5 -57t-85.5 -37.5t-128.5 -8zM210 563q-45 0 -74 28t-29 70q0 43 29.5 70.5t74.5 27.5t74.5 -27.5t29.5 -70.5q0 -42 -30 -70t-75 -28z" />
    <glyph glyph-name="k" unicode="k" horiz-adv-x="587" 
d="M5 0l118 750h197l-68 -431l161 204h211l-207 -242l129 -281h-210l-98 231l-36 -231h-197z" />
    <glyph glyph-name="l" unicode="l" horiz-adv-x="300" 
d="M10 0l119 750h195l-118 -750h-196z" />
    <glyph glyph-name="m" unicode="m" horiz-adv-x="931" 
d="M5 0l55 349q17 110 20 174h192q0 -50 -5 -89q29 45 75 74.5t102 29.5q105 0 132 -98q72 98 178 98q79 0 120 -53t24 -154l-51 -331h-197l48 301q12 78 -48 78q-66 0 -80 -82l-47 -297h-194l47 302q13 77 -48 77q-66 0 -79 -82l-47 -297h-197z" />
    <glyph glyph-name="n" unicode="n" horiz-adv-x="627" 
d="M5 0l55 349q17 110 20 174h192q0 -53 -5 -92q66 107 179 107q79 0 121.5 -55.5t24.5 -167.5l-50 -315h-197l47 297q13 83 -54 83q-76 0 -91 -94l-45 -286h-197z" />
    <glyph glyph-name="o" unicode="o" horiz-adv-x="620" 
d="M294 -13q-115 0 -193.5 61.5t-78.5 178.5q-1 135 85 222.5t221 87.5q115 0 193.5 -62t78.5 -181q0 -136 -85 -221.5t-221 -85.5zM297 132q52 0 78.5 47t26.5 124q0 39 -19.5 64t-57.5 25q-52 0 -79.5 -46t-27.5 -120q0 -94 79 -94z" />
    <glyph glyph-name="p" unicode="p" horiz-adv-x="646" 
d="M444 538q81 0 131.5 -58.5t50.5 -167.5q0 -151 -70 -238t-181 -87q-59 0 -101.5 26t-58.5 70l-41 -257h-197l83 523q17 110 20 174h192q0 -43 -4 -83q59 98 176 98zM316 135q48 0 78 45t30 118q0 95 -77 95q-49 0 -80 -46t-31 -117q0 -95 80 -95z" />
    <glyph glyph-name="q" unicode="q" horiz-adv-x="646" 
d="M331 -174l41 250q-58 -89 -166 -89q-85 0 -136.5 58.5t-51.5 168.5q0 151 73 237.5t187 86.5q115 0 152 -88l12 73h196l-110 -697h-197zM297 133q49 0 80 46.5t31 118.5q0 46 -20.5 70.5t-58.5 24.5q-48 0 -78.5 -45t-30.5 -118q0 -97 77 -97z" />
    <glyph glyph-name="r" unicode="r" horiz-adv-x="439" 
d="M5 0l55 349q16 101 19 174h192q0 -56 -7 -115q31 64 77 93.5t112 28.5l-28 -184q-86 5 -131 -23t-56 -99l-36 -224h-197z" />
    <glyph glyph-name="s" unicode="s" horiz-adv-x="519" 
d="M233 -14q-112 0 -176 45t-65 137h182q5 -54 64 -54q53 0 53 37q0 17 -16.5 26t-69.5 19q-90 17 -131.5 53t-41.5 103q0 90 67 138.5t176 47.5q220 0 230 -173h-179q-2 22 -16 35.5t-40 13.5q-53 0 -53 -35q0 -17 16.5 -25.5t59.5 -17.5q106 -20 149 -55.5t43 -108.5
q0 -92 -69 -139t-183 -47z" />
    <glyph glyph-name="t" unicode="t" horiz-adv-x="393" 
d="M228 -12q-202 0 -169 204l32 199h-61l20 132h61l18 107h197l-18 -107h99l-20 -132h-99l-31 -192q-4 -31 6.5 -43.5t36.5 -12.5t49 8l-23 -148q-43 -15 -98 -15z" />
    <glyph glyph-name="u" unicode="u" horiz-adv-x="627" 
d="M617 523l-56 -359q-16 -100 -13 -164h-192q-3 37 0 84q-68 -97 -170 -97q-84 0 -127.5 54.5t-25.5 166.5l50 315h197l-49 -308q-12 -83 52 -83q76 0 91 94l47 297h196z" />
    <glyph glyph-name="v" unicode="v" horiz-adv-x="592" 
d="M145 0l-101 523h202l42 -321l147 321h194l-274 -523h-210z" />
    <glyph glyph-name="w" unicode="w" horiz-adv-x="842" 
d="M116 0l-71 523h199l23 -294l120 294h158l25 -294l119 294h190l-246 -523h-185l-27 275l-115 -275h-190z" />
    <glyph glyph-name="x" unicode="x" horiz-adv-x="602" 
d="M-38 0l213 269l-119 254h216l52 -128l90 128h207l-201 -247l135 -276h-217l-61 146l-108 -146h-207z" />
    <glyph glyph-name="y" unicode="y" horiz-adv-x="590" 
d="M46 -174l126 233l-128 464h204l54 -263l130 263h195l-385 -697h-196z" />
    <glyph glyph-name="z" unicode="z" horiz-adv-x="511" 
d="M-34 0l2 19l268 359h-189l22 145h471l-3 -20l-276 -359h206l-23 -144h-478z" />
    <glyph glyph-name="braceleft" unicode="{" horiz-adv-x="425" 
d="M322 -148q-153 2 -216 64.5t-24 179.5l25 78q26 75 -79 81l21 136q56 -1 80.5 17t22.5 55v81q-1 130 73 181.5t243 51.5l-23 -143q-56 -3 -76.5 -23t-22.5 -70l-4 -96q-3 -106 -123 -130q113 -29 80 -141l-25 -90q-14 -47 0.5 -66t69.5 -23z" />
    <glyph glyph-name="bar" unicode="|" horiz-adv-x="270" 
d="M81 -148v924h135v-924h-135z" />
    <glyph glyph-name="braceright" unicode="}" horiz-adv-x="425" 
d="M117 777q153 -2 215 -64.5t25 -179.5l-25 -77q-23 -75 80 -82l-21 -136q-56 1 -79.5 -15.5t-24.5 -55.5v-82q0 -130 -73.5 -181.5t-242.5 -51.5l22 143q57 3 77.5 23t22.5 70l4 99q4 106 124 128q-55 14 -75.5 50.5t-5.5 89.5l25 90q14 47 -0.5 66t-69.5 23z" />
    <glyph glyph-name="asciitilde" unicode="~" horiz-adv-x="532" 
d="M20 213q14 109 61 160t110 51q41 0 94.5 -22t66.5 -22q39 0 50 45h125q-12 -102 -60.5 -156.5t-110.5 -54.5q-42 0 -95.5 21.5t-66.5 21.5q-39 0 -49 -44h-125z" />
    <glyph glyph-name="uni00A0" unicode="&#xa0;" horiz-adv-x="253" 
 />
    <glyph glyph-name="exclamdown" unicode="&#xa1;" horiz-adv-x="343" 
d="M266 357l-47 -474h-222l105 474h164zM205 610q47 0 78.5 -30.5t31.5 -74.5t-32.5 -75t-79.5 -31t-79 30.5t-32 74.5t33 75t80 31z" />
    <glyph glyph-name="cent" unicode="&#xa2;" 
d="M214 -135l20 127q-96 15 -155.5 74.5t-60.5 154.5q-1 135 83 223t219 93l15 92h74l-15 -96q188 -28 195 -217h-177q-1 56 -41 73l-42 -267q64 10 80 87h170q-11 -100 -84 -159.5t-188 -62.5l-19 -122h-74zM208 223q0 -74 47 -95l42 264q-89 -24 -89 -169z" />
    <glyph glyph-name="sterling" unicode="&#xa3;" horiz-adv-x="668" 
d="M35 285l20 124h45q-4 38 -4 61q0 117 82 186t213 69q129 0 203 -58.5t73 -191.5h-210q0 42 -15 61.5t-49 19.5q-81 0 -81 -117v-30h179l-20 -124h-156q0 -53 -24 -102q64 -17 87 -17q54 0 63 54h203q-14 -104 -74.5 -166.5t-164.5 -62.5q-57 0 -128.5 25t-88.5 25
q-41 0 -48 -41h-165q10 66 41 115.5t82 71.5q20 43 20 91v7h-83z" />
    <glyph glyph-name="yen" unicode="&#xa5;" horiz-adv-x="659" 
d="M66 297l11 73h133l-131 345h240l56 -216l126 216h221l-233 -345h136l-11 -73h-161l-8 -47h160l-11 -74h-160l-28 -176h-227l27 176h-160l11 74h161l7 47h-159z" />
    <glyph glyph-name="brokenbar" unicode="&#xa6;" horiz-adv-x="270" 
d="M81 -148v450h135v-450h-135zM81 373v403h135v-403h-135z" />
    <glyph glyph-name="section" unicode="&#xa7;" horiz-adv-x="618" 
d="M266 -137q-101 0 -165.5 46t-64.5 141h179q3 -57 58 -57q50 0 50 37q0 18 -21.5 30.5t-78.5 30.5q-101 31 -152.5 73.5t-51.5 113.5q0 116 131 156q-30 38 -30 85q0 101 69 153.5t177 52.5q100 0 161 -44.5t64 -143.5h-182q-1 28 -12 41t-40 14q-50 0 -50 -38
q0 -18 20 -30t75 -30q102 -31 153 -74t51 -115q0 -61 -33 -97t-96 -57q33 -38 33 -85q0 -100 -70 -151.5t-174 -51.5zM373 227q39 8 39 37q0 17 -16.5 28.5t-64.5 31.5l-75 32q-41 -4 -41 -36q0 -17 17 -28.5t64 -31.5z" />
    <glyph glyph-name="dieresis" unicode="&#xa8;" horiz-adv-x="400" 
d="M153 570q-38 0 -64.5 26t-26.5 63t27 63t65 26t64.5 -26t26.5 -63t-27 -63t-65 -26zM370 570q-38 0 -64 25.5t-26 63.5q0 37 26.5 63t63.5 26q39 0 65.5 -26t26.5 -63t-26.5 -63t-65.5 -26z" />
    <glyph glyph-name="copyright" unicode="&#xa9;" horiz-adv-x="842" 
d="M442 150q-107 0 -161.5 54.5t-54.5 149.5v8q0 91 59.5 147t150.5 56q85 0 135.5 -39.5t57.5 -120.5h-138q-5 54 -55 54q-69 0 -69 -97v-7q0 -98 72 -98q56 0 62 56h133q-4 -78 -56.5 -120.5t-135.5 -42.5zM433 31q136 0 229.5 92t93.5 236q0 143 -92 234t-229 91
q-138 0 -230.5 -91.5t-92.5 -235.5t93 -235t228 -91zM433 -21q-161 0 -273.5 109t-112.5 269q0 159 112.5 269t275.5 110q164 0 275 -109t111 -268q0 -161 -112.5 -270.5t-275.5 -109.5z" />
    <glyph glyph-name="ordfeminine" unicode="&#xaa;" horiz-adv-x="495" 
d="M182 287q-55 0 -92.5 30t-37.5 83q0 79 59 112t175 33h42l2 12q3 25 -3.5 37t-31.5 12q-37 0 -47 -40h-161q14 77 72 117t149 40q114 0 158 -47t27 -154l-15 -95q-12 -72 -6 -129h-163q-4 21 -4 52q-43 -63 -123 -63zM256 400q48 0 56 42l3 19h-35q-59 0 -59 -34
q0 -27 35 -27z" />
    <glyph glyph-name="guillemotleft" unicode="&#xab;" horiz-adv-x="477" 
d="M122 67l-98 199l143 189h125l-142 -191l90 -197h-118zM300 67l-94 197l143 191h125l-142 -195l86 -193h-118z" />
    <glyph glyph-name="registered" unicode="&#xae;" horiz-adv-x="517" 
d="M208 396v219h92q92 0 92 -72v-1q0 -39 -34 -58l47 -88h-75l-39 73h-9v-73h-74zM282 516h13q26 0 26 22v1q0 20 -26 20h-13v-43zM295 320q80 0 133 51.5t53 131.5q0 81 -52.5 132t-133.5 51t-133.5 -51.5t-52.5 -132.5q0 -80 53.5 -131t132.5 -51zM295 280q-97 0 -164 64
t-67 158q0 93 67 158.5t164 65.5q98 0 164 -64.5t66 -158.5t-66.5 -158.5t-163.5 -64.5z" />
    <glyph glyph-name="macron" unicode="&#xaf;" horiz-adv-x="400" 
d="M95 605l17 107h316l-17 -107h-316z" />
    <glyph glyph-name="degree" unicode="&#xb0;" horiz-adv-x="457" 
d="M273 448q40 0 65.5 29t25.5 73t-25.5 73t-65.5 29t-66.5 -29.5t-26.5 -73.5q0 -43 26 -72t67 -29zM272 376q-74 0 -126.5 51t-52.5 121q0 73 52.5 124.5t128.5 51.5q73 0 125 -51t52 -123q0 -71 -52.5 -122.5t-126.5 -51.5z" />
    <glyph glyph-name="plusminus" unicode="&#xb1;" horiz-adv-x="579" 
d="M198 182l25 161h-173l22 142h173l26 162h157l-26 -162h174l-22 -142h-174l-26 -161h-156zM-4 0l19 126h507l-19 -126h-507z" />
    <glyph glyph-name="twosuperior" unicode="&#xb2;" horiz-adv-x="366" 
d="M15 333l3 18l149 133q69 62 82 86q5 10 5 18q0 28 -25 28q-32 0 -43 -51h-132q11 77 60 116.5t126 39.5q70 0 113.5 -28t43.5 -89q0 -38 -25 -71t-79 -77l-24 -20h103l-16 -103h-341z" />
    <glyph glyph-name="threesuperior" unicode="&#xb3;" horiz-adv-x="385" 
d="M220 326q-80 0 -125.5 33.5t-46.5 103.5h128q0 -38 38 -38q15 0 25.5 8t10.5 25q0 27 -41 27h-29l12 79h35q41 0 41 32q0 26 -30 26q-34 0 -41 -35h-126q9 63 56 98.5t124 35.5q40 0 72.5 -8.5t56.5 -33t24 -62.5q0 -69 -77 -91q65 -15 65 -78q0 -60 -49 -91t-123 -31z
" />
    <glyph glyph-name="acute" unicode="&#xb4;" horiz-adv-x="400" 
d="M171 578l73 169h194l-125 -169h-142z" />
    <glyph glyph-name="paragraph" unicode="&#xb6;" horiz-adv-x="544" 
d="M195 -100l66 426h-2q-87 0 -142 44.5t-55 126.5q0 106 68 162t178 56h241l-129 -815h-76l118 750h-73l-119 -750h-75z" />
    <glyph glyph-name="periodcentered" unicode="&#xb7;" horiz-adv-x="302" 
d="M159 219q-47 0 -78.5 31t-31.5 76t31 76.5t78 31.5q48 0 80.5 -31.5t32.5 -76.5t-32 -76t-80 -31z" />
    <glyph glyph-name="cedilla" unicode="&#xb8;" horiz-adv-x="400" 
d="M138 -228q-54 0 -90.5 23.5t-40.5 70.5h91q4 -26 33 -26q13 0 22.5 8t9.5 24q0 27 -31 27q-18 0 -30 -10l-35 39l57 72h76l-36 -44q43 3 72 -18.5t29 -61.5q0 -51 -36 -77.5t-91 -26.5z" />
    <glyph glyph-name="onesuperior" unicode="&#xb9;" horiz-adv-x="297" 
d="M112 333l38 241l-89 -45l19 118l114 68h124l-61 -382h-145z" />
    <glyph glyph-name="ordmasculine" unicode="&#xba;" horiz-adv-x="527" 
d="M276 287q-98 0 -155 50t-57 137q0 110 75 179.5t182 69.5q102 0 156.5 -51.5t54.5 -139.5q0 -110 -75.5 -177.5t-180.5 -67.5zM288 411q36 0 55 36t19 88q0 63 -53 63q-34 0 -54 -35t-20 -89q0 -63 53 -63z" />
    <glyph glyph-name="guillemotright" unicode="&#xbb;" horiz-adv-x="477" 
d="M354 455l97 -199l-142 -189h-125l141 191l-90 197h119zM176 455l93 -197l-142 -191h-125l141 195l-86 193h119z" />
    <glyph glyph-name="onequarter" unicode="&#xbc;" horiz-adv-x="823" 
d="M115 333l38 241l-89 -45l19 118l114 68h124l-61 -382h-145zM59 0l613 715h101l-614 -715h-100zM569 0l11 70h-189l9 53l197 259h173l-34 -218h48l-15 -94h-48l-11 -70h-141zM531 164h69l19 120z" />
    <glyph glyph-name="onehalf" unicode="&#xbd;" horiz-adv-x="835" 
d="M46 0l613 715h101l-614 -715h-100zM115 333l38 241l-89 -45l19 118l114 68h124l-61 -382h-145zM429 0l3 18l149 133q87 75 87 104q0 27 -25 27q-32 0 -43 -50h-132q11 77 60 116t126 39q70 0 113.5 -27.5t43.5 -88.5q0 -38 -25 -71t-79 -77l-24 -21h103l-16 -102h-341z
" />
    <glyph glyph-name="threequarters" unicode="&#xbe;" horiz-adv-x="866" 
d="M223 326q-80 0 -125.5 33.5t-46.5 103.5h128q0 -38 38 -38q15 0 25.5 8t10.5 25q0 27 -41 27h-29l12 79h35q41 0 41 32q0 26 -30 26q-34 0 -41 -35h-126q9 63 56 98.5t124 35.5q40 0 72.5 -8.5t56.5 -33t24 -62.5q0 -69 -77 -91q65 -15 65 -78q0 -60 -49 -91t-123 -31z
M116 0l613 715h101l-614 -715h-100zM612 0l11 70h-189l9 53l197 259h173l-34 -218h48l-15 -94h-48l-11 -70h-141zM574 164h69l19 120z" />
    <glyph glyph-name="questiondown" unicode="&#xbf;" horiz-adv-x="568" 
d="M416 358l-3 -19q-6 -38 -27.5 -70.5t-39 -47.5t-51.5 -41q-5 -3 -19 -14t-18.5 -14.5t-15 -12.5t-14.5 -14.5t-9.5 -13.5t-7.5 -16.5t-2 -17.5q2 -44 49 -44q58 0 74 80h192q-15 -118 -93 -179t-195 -60q-116 0 -178 49.5t-62 133.5q0 62 26.5 102t75.5 77
q11 8 38.5 26.5t41.5 29.5t30 29t22 37h186zM346 611q47 0 78 -30t31 -74q0 -45 -32 -76.5t-79 -31.5t-79 31t-32 75t33 75t80 31z" />
    <glyph glyph-name="Agrave" unicode="&#xc0;" horiz-adv-x="755" 
d="M471 0l-14 119h-225l-51 -119h-217l339 715h292l111 -715h-235zM389 757l-87 149h199l32 -149h-144zM411 532l-112 -259h141z" />
    <glyph glyph-name="Aacute" unicode="&#xc1;" horiz-adv-x="755" 
d="M471 0l-14 119h-225l-51 -119h-217l339 715h292l111 -715h-235zM369 757l64 149h201l-115 -149h-150zM411 532l-112 -259h141z" />
    <glyph glyph-name="Acircumflex" unicode="&#xc2;" horiz-adv-x="755" 
d="M471 0l-14 119h-225l-51 -119h-217l339 715h292l111 -715h-235zM249 757l132 149h164l93 -149h-137l-48 47l-60 -47h-144zM411 532l-112 -259h141z" />
    <glyph glyph-name="Atilde" unicode="&#xc3;" horiz-adv-x="755" 
d="M471 0l-14 119h-225l-51 -119h-217l339 715h292l111 -715h-235zM518 755q-33 0 -70.5 16t-49.5 16t-21.5 -8.5t-11.5 -21.5h-110q13 80 51 120t89 40q31 0 70 -16t53 -16q25 0 34 30h109q-14 -79 -53.5 -119.5t-89.5 -40.5zM411 532l-112 -259h141z" />
    <glyph glyph-name="Adieresis" unicode="&#xc4;" horiz-adv-x="755" 
d="M471 0l-14 119h-225l-51 -119h-217l339 715h292l111 -715h-235zM569 752q-38 0 -64.5 26t-26.5 63t26.5 63t64.5 26q39 0 65.5 -25.5t26.5 -63.5q0 -37 -27 -63t-65 -26zM342 752q-38 0 -64.5 26t-26.5 63t27 63t65 26t64.5 -26t26.5 -63t-27 -63t-65 -26zM411 532
l-112 -259h141z" />
    <glyph glyph-name="Aring" unicode="&#xc5;" horiz-adv-x="755" 
d="M471 0l-14 119h-225l-51 -119h-217l339 715h292l111 -715h-235zM454 742q-50 0 -86 34.5t-36 82.5q0 49 36 84t86 35t86 -34.5t36 -83.5t-36 -83.5t-86 -34.5zM411 532l-112 -259h141zM454 810q20 0 32.5 14t12.5 36t-12.5 35.5t-32.5 13.5t-32.5 -13.5t-12.5 -36.5
q0 -22 12 -35.5t33 -13.5z" />
    <glyph glyph-name="AE" unicode="&#xc6;" horiz-adv-x="1012" 
d="M-35 0l419 715h651l-27 -174h-275l-16 -101h217l-24 -158h-217l-18 -108h291l-27 -174h-516l21 135h-184l-75 -135h-220zM488 541l-144 -256h123l41 256h-20z" />
    <glyph glyph-name="Ccedilla" unicode="&#xc7;" horiz-adv-x="768" 
d="M317 -228q-54 0 -90.5 23.5t-40.5 70.5h91q4 -26 33 -26q13 0 22.5 8t9.5 24q0 27 -31 27q-18 0 -30 -10l-35 39l53 67q-122 21 -190.5 99t-68.5 208q0 189 108 306.5t295 117.5q148 0 233 -71.5t90 -210.5h-228q-9 105 -101 105q-76 0 -117.5 -67.5t-42.5 -169.5
q-1 -66 28 -106t91 -40q100 0 128 108h225q-20 -139 -118 -213t-237 -74h-26l-25 -31q43 3 72 -18.5t29 -61.5q0 -51 -36 -77.5t-91 -26.5z" />
    <glyph glyph-name="Egrave" unicode="&#xc8;" horiz-adv-x="621" 
d="M329 757l-87 149h199l32 -149h-144zM23 0l113 715h507l-27 -174h-282l-16 -101h224l-24 -158h-224l-18 -108h298l-27 -174h-524z" />
    <glyph glyph-name="Eacute" unicode="&#xc9;" horiz-adv-x="621" 
d="M303 757l64 149h201l-115 -149h-150zM23 0l113 715h507l-27 -174h-282l-16 -101h224l-24 -158h-224l-18 -108h298l-27 -174h-524z" />
    <glyph glyph-name="Ecircumflex" unicode="&#xca;" horiz-adv-x="621" 
d="M194 757l132 149h164l93 -149h-137l-48 47l-60 -47h-144zM23 0l113 715h507l-27 -174h-282l-16 -101h224l-24 -158h-224l-18 -108h298l-27 -174h-524z" />
    <glyph glyph-name="Edieresis" unicode="&#xcb;" horiz-adv-x="621" 
d="M23 0l113 715h507l-27 -174h-282l-16 -101h224l-24 -158h-224l-18 -108h298l-27 -174h-524zM289 752q-38 0 -64.5 26t-26.5 63t27 63t65 26t64.5 -26t26.5 -63t-27 -63t-65 -26zM516 752q-38 0 -64.5 26t-26.5 63t26.5 63t64.5 26q39 0 65.5 -25.5t26.5 -63.5
q0 -37 -27 -63t-65 -26z" />
    <glyph glyph-name="Igrave" unicode="&#xcc;" horiz-adv-x="366" 
d="M26 0l113 715h229l-113 -715h-229zM194 757l-87 149h199l32 -149h-144z" />
    <glyph glyph-name="Iacute" unicode="&#xcd;" horiz-adv-x="366" 
d="M26 0l113 715h229l-113 -715h-229zM171 757l64 149h201l-115 -149h-150z" />
    <glyph glyph-name="Icircumflex" unicode="&#xce;" horiz-adv-x="366" 
d="M26 0l113 715h229l-113 -715h-229zM63 757l132 149h164l93 -149h-137l-48 47l-60 -47h-144z" />
    <glyph glyph-name="Idieresis" unicode="&#xcf;" horiz-adv-x="366" 
d="M26 0l113 715h229l-113 -715h-229zM158 752q-38 0 -64.5 26t-26.5 63t27 63t65 26t64.5 -26t26.5 -63t-27 -63t-65 -26zM385 752q-38 0 -64.5 26t-26.5 63t26.5 63t64.5 26q39 0 65.5 -25.5t26.5 -63.5q0 -37 -27 -63t-65 -26z" />
    <glyph glyph-name="Eth" unicode="&#xd0;" horiz-adv-x="775" 
d="M31 284l24 151h55l44 280h242q181 0 275 -79.5t94 -224.5q0 -197 -113.5 -304t-304.5 -107h-306l45 284h-55zM291 172h58q88 0 135 59.5t47 169.5q0 142 -139 142h-42l-17 -108h103l-23 -151h-104z" />
    <glyph glyph-name="Ntilde" unicode="&#xd1;" horiz-adv-x="787" 
d="M551 755q-33 0 -70.5 16t-49.5 16t-21.5 -8.5t-11.5 -21.5h-110q13 80 51 120t89 40q31 0 70 -16t53 -16q25 0 34 30h109q-14 -79 -53.5 -119.5t-89.5 -40.5zM23 0l113 715h255l141 -372l59 372h201l-113 -715h-217l-171 423l-66 -423h-202z" />
    <glyph glyph-name="Ograve" unicode="&#xd2;" horiz-adv-x="820" 
d="M400 757l-87 149h199l32 -149h-144zM810 410q0 -189 -116 -306t-305 -117q-149 0 -249 83t-100 230q0 188 115 307t298 119q154 0 255.5 -82.5t101.5 -233.5zM574 402q0 65 -31.5 105.5t-96.5 41.5q-81 1 -126 -70t-45 -171q0 -65 33 -104t97 -39q82 0 125.5 69.5
t43.5 167.5z" />
    <glyph glyph-name="Oacute" unicode="&#xd3;" horiz-adv-x="820" 
d="M377 757l64 149h201l-115 -149h-150zM810 410q0 -189 -116 -306t-305 -117q-149 0 -249 83t-100 230q0 188 115 307t298 119q154 0 255.5 -82.5t101.5 -233.5zM574 402q0 65 -31.5 105.5t-96.5 41.5q-81 1 -126 -70t-45 -171q0 -65 33 -104t97 -39q82 0 125.5 69.5
t43.5 167.5z" />
    <glyph glyph-name="Ocircumflex" unicode="&#xd4;" horiz-adv-x="820" 
d="M267 757l132 149h164l93 -149h-137l-48 47l-60 -47h-144zM810 410q0 -189 -116 -306t-305 -117q-149 0 -249 83t-100 230q0 188 115 307t298 119q154 0 255.5 -82.5t101.5 -233.5zM574 402q0 65 -31.5 105.5t-96.5 41.5q-81 1 -126 -70t-45 -171q0 -65 33 -104t97 -39
q82 0 125.5 69.5t43.5 167.5z" />
    <glyph glyph-name="Otilde" unicode="&#xd5;" horiz-adv-x="820" 
d="M530 755q-33 0 -70.5 16t-49.5 16t-21.5 -8.5t-11.5 -21.5h-110q13 80 51 120t89 40q31 0 70 -16t53 -16q25 0 34 30h109q-14 -79 -53.5 -119.5t-89.5 -40.5zM810 410q0 -189 -116 -306t-305 -117q-149 0 -249 83t-100 230q0 188 115 307t298 119q154 0 255.5 -82.5
t101.5 -233.5zM574 402q0 65 -31.5 105.5t-96.5 41.5q-81 1 -126 -70t-45 -171q0 -65 33 -104t97 -39q82 0 125.5 69.5t43.5 167.5z" />
    <glyph glyph-name="Odieresis" unicode="&#xd6;" horiz-adv-x="820" 
d="M363 752q-38 0 -64.5 26t-26.5 63t27 63t65 26t64.5 -26t26.5 -63t-27 -63t-65 -26zM590 752q-38 0 -64.5 26t-26.5 63t26.5 63t64.5 26q39 0 65.5 -25.5t26.5 -63.5q0 -37 -27 -63t-65 -26zM810 410q0 -189 -116 -306t-305 -117q-149 0 -249 83t-100 230q0 188 115 307
t298 119q154 0 255.5 -82.5t101.5 -233.5zM574 402q0 65 -31.5 105.5t-96.5 41.5q-81 1 -126 -70t-45 -171q0 -65 33 -104t97 -39q82 0 125.5 69.5t43.5 167.5z" />
    <glyph glyph-name="multiply" unicode="&#xd7;" horiz-adv-x="589" 
d="M118 83l-90 103l174 152l-131 154l116 103l132 -155l174 151l90 -104l-175 -152l132 -153l-117 -103l-132 154z" />
    <glyph glyph-name="Oslash" unicode="&#xd8;" horiz-adv-x="820" 
d="M89 -33l-55 56l76 77q-70 81 -70 199q0 189 115 307.5t298 118.5q127 0 218 -56l72 72l55 -56l-65 -66q77 -83 77 -209q0 -189 -116 -306t-305 -117q-127 0 -220 61zM581 402q0 26 -7 56l-262 -265q35 -29 93 -29q84 0 130 69t46 169zM269 309q0 -27 4 -44l257 260
q-33 24 -84 25q-83 1 -130 -69t-47 -172z" />
    <glyph glyph-name="Ugrave" unicode="&#xd9;" horiz-adv-x="776" 
d="M390 757l-87 149h199l32 -149h-144zM376 -13q-170 0 -252.5 83t-56.5 243l65 402h226l-65 -409q-11 -72 9 -106.5t78 -34.5q54 0 77.5 30t34.5 99l67 421h228l-70 -439q-23 -149 -106 -219t-235 -70z" />
    <glyph glyph-name="Uacute" unicode="&#xda;" horiz-adv-x="776" 
d="M381 757l64 149h201l-115 -149h-150zM376 -13q-170 0 -252.5 83t-56.5 243l65 402h226l-65 -409q-11 -72 9 -106.5t78 -34.5q54 0 77.5 30t34.5 99l67 421h228l-70 -439q-23 -149 -106 -219t-235 -70z" />
    <glyph glyph-name="Ucircumflex" unicode="&#xdb;" horiz-adv-x="776" 
d="M260 757l132 149h164l93 -149h-137l-48 47l-60 -47h-144zM376 -13q-170 0 -252.5 83t-56.5 243l65 402h226l-65 -409q-11 -72 9 -106.5t78 -34.5q54 0 77.5 30t34.5 99l67 421h228l-70 -439q-23 -149 -106 -219t-235 -70z" />
    <glyph glyph-name="Udieresis" unicode="&#xdc;" horiz-adv-x="776" 
d="M376 -13q-170 0 -252.5 83t-56.5 243l65 402h226l-65 -409q-11 -72 9 -106.5t78 -34.5q54 0 77.5 30t34.5 99l67 421h228l-70 -439q-23 -149 -106 -219t-235 -70zM352 752q-38 0 -64.5 26t-26.5 63t27 63t65 26t64.5 -26t26.5 -63t-27 -63t-65 -26zM579 752
q-38 0 -64.5 26t-26.5 63t26.5 63t64.5 26q39 0 65.5 -25.5t26.5 -63.5q0 -37 -27 -63t-65 -26z" />
    <glyph glyph-name="Yacute" unicode="&#xdd;" horiz-adv-x="693" 
d="M194 0l47 306l-166 409h235l77 -221l143 221h226l-288 -421l-46 -294h-228zM348 757l64 149h201l-115 -149h-150z" />
    <glyph glyph-name="Thorn" unicode="&#xde;" horiz-adv-x="664" 
d="M362 715l-18 -115h45q133 0 202.5 -53t69.5 -153q0 -124 -82 -194t-222 -70h-87l-20 -130h-227l113 715h226zM363 442h-44l-25 -160h53q47 0 72.5 24.5t25.5 70.5q1 31 -20 48t-62 17z" />
    <glyph glyph-name="germandbls" unicode="&#xdf;" horiz-adv-x="641" 
d="M358 -10q-61 0 -109 17l24 143q24 -11 49 -11q100 0 100 129q0 103 -111 100l22 137q95 2 95 78q0 28 -16 44t-46 16q-63 0 -76 -84l-88 -559h-197l88 549q35 221 280 221q110 0 174.5 -45.5t64.5 -131.5q0 -58 -36.5 -98t-99.5 -57q65 -19 104 -68.5t39 -123.5
q0 -118 -68.5 -187t-192.5 -69z" />
    <glyph glyph-name="agrave" unicode="&#xe0;" horiz-adv-x="584" 
d="M168 -13q-72 0 -118.5 38.5t-46.5 106.5q0 99 70.5 141.5t208.5 42.5h72l2 12q6 35 -5 54t-48 19q-53 0 -67 -56h-184q39 193 260 193q272 0 235 -235l-22 -139q-16 -102 -8 -164h-191q-5 26 -3 65q-55 -78 -155 -78zM251 117q32 0 54.5 18.5t27.5 47.5l5 27h-51
q-48 0 -68 -11.5t-20 -38.5q0 -19 13.5 -31t38.5 -12zM255 578l-93 169h192l38 -169h-137z" />
    <glyph glyph-name="aacute" unicode="&#xe1;" horiz-adv-x="584" 
d="M168 -13q-72 0 -118.5 38.5t-46.5 106.5q0 99 70.5 141.5t208.5 42.5h72l2 12q6 35 -5 54t-48 19q-53 0 -67 -56h-184q39 193 260 193q272 0 235 -235l-22 -139q-16 -102 -8 -164h-191q-5 26 -3 65q-55 -78 -155 -78zM251 117q32 0 54.5 18.5t27.5 47.5l5 27h-51
q-48 0 -68 -11.5t-20 -38.5q0 -19 13.5 -31t38.5 -12zM258 578l73 169h194l-125 -169h-142z" />
    <glyph glyph-name="acircumflex" unicode="&#xe2;" horiz-adv-x="584" 
d="M168 -13q-72 0 -118.5 38.5t-46.5 106.5q0 99 70.5 141.5t208.5 42.5h72l2 12q6 35 -5 54t-48 19q-53 0 -67 -56h-184q39 193 260 193q272 0 235 -235l-22 -139q-16 -102 -8 -164h-191q-5 26 -3 65q-55 -78 -155 -78zM251 117q32 0 54.5 18.5t27.5 47.5l5 27h-51
q-48 0 -68 -11.5t-20 -38.5q0 -19 13.5 -31t38.5 -12zM133 580l147 166h137l99 -166h-132l-49 53l-63 -53h-139z" />
    <glyph glyph-name="atilde" unicode="&#xe3;" horiz-adv-x="584" 
d="M168 -13q-72 0 -118.5 38.5t-46.5 106.5q0 99 70.5 141.5t208.5 42.5h72l2 12q6 35 -5 54t-48 19q-53 0 -67 -56h-184q39 193 260 193q272 0 235 -235l-22 -139q-16 -102 -8 -164h-191q-5 26 -3 65q-55 -78 -155 -78zM251 117q32 0 54.5 18.5t27.5 47.5l5 27h-51
q-48 0 -68 -11.5t-20 -38.5q0 -19 13.5 -31t38.5 -12zM396 581q-33 0 -69.5 16t-48.5 16q-25 0 -33 -30h-103q12 81 47 121.5t85 40.5q31 0 69 -16t52 -16q24 0 32 31h104q-13 -81 -49.5 -122t-85.5 -41z" />
    <glyph glyph-name="adieresis" unicode="&#xe4;" horiz-adv-x="584" 
d="M168 -13q-72 0 -118.5 38.5t-46.5 106.5q0 99 70.5 141.5t208.5 42.5h72l2 12q6 35 -5 54t-48 19q-53 0 -67 -56h-184q39 193 260 193q272 0 235 -235l-22 -139q-16 -102 -8 -164h-191q-5 26 -3 65q-55 -78 -155 -78zM251 117q32 0 54.5 18.5t27.5 47.5l5 27h-51
q-48 0 -68 -11.5t-20 -38.5q0 -19 13.5 -31t38.5 -12zM224 570q-38 0 -64.5 26t-26.5 63t27 63t65 26t64.5 -26t26.5 -63t-27 -63t-65 -26zM441 570q-38 0 -64 25.5t-26 63.5q0 37 26.5 63t63.5 26q39 0 65.5 -26t26.5 -63t-26.5 -63t-65.5 -26z" />
    <glyph glyph-name="aring" unicode="&#xe5;" horiz-adv-x="584" 
d="M168 -13q-72 0 -118.5 38.5t-46.5 106.5q0 99 70.5 141.5t208.5 42.5h72l2 12q6 35 -5 54t-48 19q-53 0 -67 -56h-184q39 193 260 193q272 0 235 -235l-22 -139q-16 -102 -8 -164h-191q-5 26 -3 65q-55 -78 -155 -78zM251 117q32 0 54.5 18.5t27.5 47.5l5 27h-51
q-48 0 -68 -11.5t-20 -38.5q0 -19 13.5 -31t38.5 -12zM329 642q20 0 32.5 13.5t12.5 35.5q0 21 -12.5 34.5t-31.5 13.5q-20 0 -32.5 -13.5t-12.5 -35.5q0 -21 12.5 -34.5t31.5 -13.5zM329 574q-50 0 -85 34t-35 82t35.5 82.5t85.5 34.5t85 -34t35 -82q0 -49 -35.5 -83
t-85.5 -34z" />
    <glyph glyph-name="ae" unicode="&#xe6;" horiz-adv-x="912" 
d="M525 217q0 -98 88 -98q65 0 82 58h185q-19 -91 -90.5 -140.5t-181.5 -49.5q-155 0 -216 93q-60 -93 -195 -93q-87 0 -140.5 39.5t-53.5 109.5q0 98 72 140.5t209 42.5h71l2 11q10 71 -56 71q-56 0 -70 -56h-183q17 95 87.5 144t174.5 49q117 0 164 -56q75 55 166 55
q132 0 199 -78t46 -217l-3 -23h-357v-2zM635 412q-73 0 -98 -92h168q3 42 -14 67t-56 25zM251 117q33 0 55.5 18.5t27.5 51.5l5 29h-52q-47 0 -67.5 -13t-20.5 -42q0 -20 13.5 -32t38.5 -12z" />
    <glyph glyph-name="ccedilla" unicode="&#xe7;" horiz-adv-x="584" 
d="M229 -228q-54 0 -90.5 23.5t-40.5 70.5h91q4 -26 33 -26q13 0 22.5 8t9.5 24q0 27 -31 27q-18 0 -30 -10l-35 39l54 68q-88 19 -139.5 78t-51.5 154q0 139 82.5 224t215.5 85q111 0 179 -54.5t72 -165.5h-184q-6 69 -71 69q-50 0 -73.5 -46t-23.5 -114q0 -97 80 -97
q71 0 86 80h176q-13 -107 -82.5 -164t-186.5 -57h-10l-26 -32q43 3 72 -18.5t29 -61.5q0 -51 -36 -77.5t-91 -26.5z" />
    <glyph glyph-name="egrave" unicode="&#xe8;" horiz-adv-x="602" 
d="M213 217q0 -98 89 -98q67 0 84 58h185q-19 -91 -91 -140.5t-183 -49.5q-122 0 -199 60.5t-77 179.5q0 139 85.5 225t218.5 86t202.5 -79.5t48.5 -217.5l-3 -23h-360v-1zM272 578l-93 169h192l38 -169h-137zM324 412q-73 0 -99 -91h170q9 91 -71 91z" />
    <glyph glyph-name="eacute" unicode="&#xe9;" horiz-adv-x="602" 
d="M213 217q0 -98 89 -98q67 0 84 58h185q-19 -91 -91 -140.5t-183 -49.5q-122 0 -199 60.5t-77 179.5q0 139 85.5 225t218.5 86t202.5 -79.5t48.5 -217.5l-3 -23h-360v-1zM262 578l73 169h194l-125 -169h-142zM324 412q-73 0 -99 -91h170q9 91 -71 91z" />
    <glyph glyph-name="ecircumflex" unicode="&#xea;" horiz-adv-x="602" 
d="M213 217q0 -98 89 -98q67 0 84 58h185q-19 -91 -91 -140.5t-183 -49.5q-122 0 -199 60.5t-77 179.5q0 139 85.5 225t218.5 86t202.5 -79.5t48.5 -217.5l-3 -23h-360v-1zM142 580l147 166h137l99 -166h-132l-49 53l-63 -53h-139zM324 412q-73 0 -99 -91h170q9 91 -71 91z
" />
    <glyph glyph-name="edieresis" unicode="&#xeb;" horiz-adv-x="602" 
d="M213 217q0 -98 89 -98q67 0 84 58h185q-19 -91 -91 -140.5t-183 -49.5q-122 0 -199 60.5t-77 179.5q0 139 85.5 225t218.5 86t202.5 -79.5t48.5 -217.5l-3 -23h-360v-1zM236 570q-38 0 -64.5 26t-26.5 63t27 63t65 26t64.5 -26t26.5 -63t-27 -63t-65 -26zM453 570
q-38 0 -64 25.5t-26 63.5q0 37 26.5 63t63.5 26q39 0 65.5 -26t26.5 -63t-26.5 -63t-65.5 -26zM324 412q-73 0 -99 -91h170q9 91 -71 91z" />
    <glyph glyph-name="igrave" unicode="&#xec;" horiz-adv-x="303" 
d="M11 0l82 523h197l-83 -523h-196zM137 578l-93 169h192l38 -169h-137z" />
    <glyph glyph-name="iacute" unicode="&#xed;" horiz-adv-x="303" 
d="M122 578l73 169h194l-125 -169h-142zM11 0l82 523h197l-83 -523h-196z" />
    <glyph glyph-name="icircumflex" unicode="&#xee;" horiz-adv-x="303" 
d="M8 580l147 166h137l99 -166h-132l-49 53l-63 -53h-139zM11 0l82 523h197l-83 -523h-196z" />
    <glyph glyph-name="idieresis" unicode="&#xef;" horiz-adv-x="303" 
d="M107 570q-38 0 -64.5 26t-26.5 63t27 63t65 26t64.5 -26t26.5 -63t-27 -63t-65 -26zM322 570q-38 0 -64 25.5t-26 63.5q0 37 26 63t64 26q39 0 65.5 -26t26.5 -63t-26.5 -63t-65.5 -26zM11 0l82 523h197l-83 -523h-196z" />
    <glyph glyph-name="eth" unicode="&#xf0;" horiz-adv-x="625" 
d="M157 556l-19 62l119 39q-43 40 -111 92h230q21 -12 51 -37l114 37l18 -63l-79 -26q125 -140 125 -319q0 -156 -79.5 -255t-231.5 -99q-122 0 -197.5 63.5t-75.5 182.5q0 124 70.5 210t186.5 86q72 0 113 -47q-31 65 -83 123zM217 223q0 -41 20 -66t62 -25q53 0 79.5 51
t26.5 119q0 40 -20 65t-61 25q-53 0 -80 -47.5t-27 -121.5z" />
    <glyph glyph-name="ntilde" unicode="&#xf1;" horiz-adv-x="627" 
d="M5 0l55 349q17 110 20 174h192q0 -53 -5 -92q66 107 179 107q79 0 121.5 -55.5t24.5 -167.5l-50 -315h-197l47 297q13 83 -54 83q-76 0 -91 -94l-45 -286h-197zM421 581q-33 0 -69.5 16t-48.5 16q-25 0 -33 -30h-103q12 81 47 121.5t85 40.5q31 0 69 -16t52 -16
q24 0 32 31h104q-13 -81 -49.5 -122t-85.5 -41z" />
    <glyph glyph-name="ograve" unicode="&#xf2;" horiz-adv-x="620" 
d="M294 -13q-115 0 -193.5 61.5t-78.5 178.5q-1 135 85 222.5t221 87.5q115 0 193.5 -62t78.5 -181q0 -136 -85 -221.5t-221 -85.5zM297 132q52 0 78.5 47t26.5 124q0 39 -19.5 64t-57.5 25q-52 0 -79.5 -46t-27.5 -120q0 -94 79 -94zM274 578l-93 169h192l38 -169h-137z
" />
    <glyph glyph-name="oacute" unicode="&#xf3;" horiz-adv-x="620" 
d="M259 578l73 169h194l-125 -169h-142zM294 -13q-115 0 -193.5 61.5t-78.5 178.5q-1 135 85 222.5t221 87.5q115 0 193.5 -62t78.5 -181q0 -136 -85 -221.5t-221 -85.5zM297 132q52 0 78.5 47t26.5 124q0 39 -19.5 64t-57.5 25q-52 0 -79.5 -46t-27.5 -120q0 -94 79 -94z
" />
    <glyph glyph-name="ocircumflex" unicode="&#xf4;" horiz-adv-x="620" 
d="M146 580l147 166h137l99 -166h-132l-49 53l-63 -53h-139zM294 -13q-115 0 -193.5 61.5t-78.5 178.5q-1 135 85 222.5t221 87.5q115 0 193.5 -62t78.5 -181q0 -136 -85 -221.5t-221 -85.5zM297 132q52 0 78.5 47t26.5 124q0 39 -19.5 64t-57.5 25q-52 0 -79.5 -46
t-27.5 -120q0 -94 79 -94z" />
    <glyph glyph-name="otilde" unicode="&#xf5;" horiz-adv-x="620" 
d="M294 -13q-115 0 -193.5 61.5t-78.5 178.5q-1 135 85 222.5t221 87.5q115 0 193.5 -62t78.5 -181q0 -136 -85 -221.5t-221 -85.5zM297 132q52 0 78.5 47t26.5 124q0 39 -19.5 64t-57.5 25q-52 0 -79.5 -46t-27.5 -120q0 -94 79 -94zM410 581q-33 0 -69.5 16t-48.5 16
q-25 0 -33 -30h-103q12 81 47 121.5t85 40.5q31 0 69 -16t52 -16q24 0 32 31h104q-13 -81 -49.5 -122t-85.5 -41z" />
    <glyph glyph-name="odieresis" unicode="&#xf6;" horiz-adv-x="620" 
d="M242 570q-38 0 -64.5 26t-26.5 63t27 63t65 26t64.5 -26t26.5 -63t-27 -63t-65 -26zM459 570q-38 0 -64 25.5t-26 63.5q0 37 26.5 63t63.5 26q39 0 65.5 -26t26.5 -63t-26.5 -63t-65.5 -26zM294 -13q-115 0 -193.5 61.5t-78.5 178.5q-1 135 85 222.5t221 87.5
q115 0 193.5 -62t78.5 -181q0 -136 -85 -221.5t-221 -85.5zM297 132q52 0 78.5 47t26.5 124q0 39 -19.5 64t-57.5 25q-52 0 -79.5 -46t-27.5 -120q0 -94 79 -94z" />
    <glyph glyph-name="divide" unicode="&#xf7;" horiz-adv-x="582" 
d="M38 273l21 134h507l-21 -134h-507zM277 34q-43 0 -71 28t-28 70q0 41 28.5 69t70.5 28q43 0 72.5 -28t29.5 -69q0 -42 -29 -70t-73 -28zM325 450q-42 0 -70.5 28t-28.5 69t28.5 69.5t70.5 28.5q43 0 72.5 -28.5t29.5 -69.5t-29 -69t-73 -28z" />
    <glyph glyph-name="oslash" unicode="&#xf8;" horiz-adv-x="620" 
d="M60 -39l-48 46l64 66q-54 62 -54 156q-1 134 84.5 221.5t221.5 87.5q94 0 161 -41l66 67l48 -46l-62 -63q59 -66 59 -162q0 -137 -85 -221.5t-221 -84.5q-97 0 -167 43zM298 129q54 0 83 48t29 124q0 3 -0.5 9t-0.5 9l-169 -173q20 -17 58 -17zM210 228q0 -12 1 -17
l165 169q-20 14 -50 14q-55 0 -85.5 -45.5t-30.5 -120.5z" />
    <glyph glyph-name="ugrave" unicode="&#xf9;" horiz-adv-x="627" 
d="M617 523l-56 -359q-16 -100 -13 -164h-192q-3 37 0 84q-68 -97 -170 -97q-84 0 -127.5 54.5t-25.5 166.5l50 315h197l-49 -308q-12 -83 52 -83q76 0 91 94l47 297h196zM286 578l-93 169h192l38 -169h-137z" />
    <glyph glyph-name="uacute" unicode="&#xfa;" horiz-adv-x="627" 
d="M282 578l73 169h194l-125 -169h-142zM617 523l-56 -359q-16 -100 -13 -164h-192q-3 37 0 84q-68 -97 -170 -97q-84 0 -127.5 54.5t-25.5 166.5l50 315h197l-49 -308q-12 -83 52 -83q76 0 91 94l47 297h196z" />
    <glyph glyph-name="ucircumflex" unicode="&#xfb;" horiz-adv-x="627" 
d="M157 580l147 166h137l99 -166h-132l-49 53l-63 -53h-139zM617 523l-56 -359q-16 -100 -13 -164h-192q-3 37 0 84q-68 -97 -170 -97q-84 0 -127.5 54.5t-25.5 166.5l50 315h197l-49 -308q-12 -83 52 -83q76 0 91 94l47 297h196z" />
    <glyph glyph-name="udieresis" unicode="&#xfc;" horiz-adv-x="627" 
d="M251 570q-38 0 -64.5 26t-26.5 63t27 63t65 26t64.5 -26t26.5 -63t-27 -63t-65 -26zM468 570q-38 0 -64 25.5t-26 63.5q0 37 26.5 63t63.5 26q39 0 65.5 -26t26.5 -63t-26.5 -63t-65.5 -26zM617 523l-56 -359q-16 -100 -13 -164h-192q-3 37 0 84q-68 -97 -170 -97
q-84 0 -127.5 54.5t-25.5 166.5l50 315h197l-49 -308q-12 -83 52 -83q76 0 91 94l47 297h196z" />
    <glyph glyph-name="yacute" unicode="&#xfd;" horiz-adv-x="590" 
d="M46 -174l126 233l-128 464h204l54 -263l130 263h195l-385 -697h-196zM273 578l73 169h194l-125 -169h-142z" />
    <glyph glyph-name="thorn" unicode="&#xfe;" horiz-adv-x="647" 
d="M-23 -174l146 924h197l-48 -308q57 95 174 95q79 0 129.5 -58.5t50.5 -166.5q0 -151 -70 -238t-181 -87q-59 0 -102 27t-57 71l-42 -259h-197zM316 135q48 0 78 45t30 118q0 46 -19.5 70.5t-56.5 24.5q-49 0 -80.5 -46t-31.5 -117q0 -95 80 -95z" />
    <glyph glyph-name="ydieresis" unicode="&#xff;" horiz-adv-x="590" 
d="M46 -174l126 233l-128 464h204l54 -263l130 263h195l-385 -697h-196zM247 570q-38 0 -64.5 26t-26.5 63t27 63t65 26t64.5 -26t26.5 -63t-27 -63t-65 -26zM464 570q-38 0 -64 25.5t-26 63.5q0 37 26.5 63t63.5 26q39 0 65.5 -26t26.5 -63t-26.5 -63t-65.5 -26z" />
    <glyph glyph-name="Amacron" unicode="&#x100;" horiz-adv-x="755" 
d="M471 0l-14 119h-225l-51 -119h-217l339 715h292l111 -715h-235zM287 769l18 115h332l-18 -115h-332zM411 532l-112 -259h141z" />
    <glyph glyph-name="amacron" unicode="&#x101;" horiz-adv-x="584" 
d="M168 -13q-72 0 -118.5 38.5t-46.5 106.5q0 99 70.5 141.5t208.5 42.5h72l2 12q6 35 -5 54t-48 19q-53 0 -67 -56h-184q39 193 260 193q272 0 235 -235l-22 -139q-16 -102 -8 -164h-191q-5 26 -3 65q-55 -78 -155 -78zM251 117q32 0 54.5 18.5t27.5 47.5l5 27h-51
q-48 0 -68 -11.5t-20 -38.5q0 -19 13.5 -31t38.5 -12zM173 605l17 107h316l-17 -107h-316z" />
    <glyph glyph-name="Abreve" unicode="&#x102;" horiz-adv-x="755" 
d="M471 0l-14 119h-225l-51 -119h-217l339 715h292l111 -715h-235zM459 749q-80 0 -123 42t-44 115h124q3 -42 45 -42q41 0 49 42h125q-11 -75 -58 -116t-118 -41zM411 532l-112 -259h141z" />
    <glyph glyph-name="abreve" unicode="&#x103;" horiz-adv-x="584" 
d="M168 -13q-72 0 -118.5 38.5t-46.5 106.5q0 99 70.5 141.5t208.5 42.5h72l2 12q6 35 -5 54t-48 19q-53 0 -67 -56h-184q39 193 260 193q272 0 235 -235l-22 -139q-16 -102 -8 -164h-191q-5 26 -3 65q-55 -78 -155 -78zM251 117q32 0 54.5 18.5t27.5 47.5l5 27h-51
q-48 0 -68 -11.5t-20 -38.5q0 -19 13.5 -31t38.5 -12zM342 582q-79 0 -123 43t-41 120h118q3 -45 48 -45q46 0 52 45h120q-10 -79 -56 -121t-118 -42z" />
    <glyph glyph-name="Aogonek" unicode="&#x104;" horiz-adv-x="755" 
d="M471 0l-14 119h-225l-51 -119h-217l339 715h292l110 -704q-62 -41 -62 -74q0 -22 28 -22q15 0 25 3l-14 -85q-36 -15 -81 -15q-115 0 -115 79q0 37 29 63.5t69 39.5h-113zM411 532l-112 -259h141z" />
    <glyph glyph-name="aogonek" unicode="&#x105;" horiz-adv-x="584" 
d="M425 -182q-115 0 -115 79q0 37 29 63.5t68 39.5h-81q-5 26 -3 65q-55 -78 -155 -78q-72 0 -118.5 38.5t-46.5 106.5q0 99 70.5 141.5t208.5 42.5h72l2 12q6 35 -5 54t-48 19q-53 0 -67 -56h-184q39 193 260 193q272 0 235 -235l-22 -139q-16 -96 -9 -158q-48 -40 -48 -69
q0 -22 27 -22q16 0 25 4l-14 -86q-32 -15 -81 -15zM251 117q32 0 54.5 18.5t27.5 47.5l5 27h-51q-48 0 -68 -11.5t-20 -38.5q0 -19 13.5 -31t38.5 -12z" />
    <glyph glyph-name="Cacute" unicode="&#x106;" horiz-adv-x="768" 
d="M394 -13q-164 0 -259 81t-95 234q0 189 108 306.5t295 117.5q148 0 233 -71.5t90 -210.5h-228q-9 105 -101 105q-76 0 -117.5 -67.5t-42.5 -169.5q-1 -66 28 -106t91 -40q100 0 128 108h225q-20 -139 -118 -213t-237 -74zM363 757l64 149h201l-115 -149h-150z" />
    <glyph glyph-name="cacute" unicode="&#x107;" horiz-adv-x="584" 
d="M248 578l73 169h194l-125 -169h-142zM291 -12q-120 0 -195 62.5t-75 177.5q0 139 82.5 224t215.5 85q111 0 179 -54.5t72 -165.5h-184q-6 69 -71 69q-50 0 -73.5 -46t-23.5 -114q0 -97 80 -97q71 0 86 80h176q-13 -107 -82.5 -164t-186.5 -57z" />
    <glyph glyph-name="Ccircumflex" unicode="&#x108;" horiz-adv-x="768" 
d="M254 757l132 149h164l93 -149h-137l-48 47l-60 -47h-144zM394 -13q-164 0 -259 81t-95 234q0 189 108 306.5t295 117.5q148 0 233 -71.5t90 -210.5h-228q-9 105 -101 105q-76 0 -117.5 -67.5t-42.5 -169.5q-1 -66 28 -106t91 -40q100 0 128 108h225q-20 -139 -118 -213
t-237 -74z" />
    <glyph glyph-name="ccircumflex" unicode="&#x109;" horiz-adv-x="584" 
d="M132 580l147 166h137l99 -166h-132l-49 53l-63 -53h-139zM291 -12q-120 0 -195 62.5t-75 177.5q0 139 82.5 224t215.5 85q111 0 179 -54.5t72 -165.5h-184q-6 69 -71 69q-50 0 -73.5 -46t-23.5 -114q0 -97 80 -97q71 0 86 80h176q-13 -107 -82.5 -164t-186.5 -57z" />
    <glyph glyph-name="Cdotaccent" unicode="&#x10a;" horiz-adv-x="768" 
d="M394 -13q-164 0 -259 81t-95 234q0 189 108 306.5t295 117.5q148 0 233 -71.5t90 -210.5h-228q-9 105 -101 105q-76 0 -117.5 -67.5t-42.5 -169.5q-1 -66 28 -106t91 -40q100 0 128 108h225q-20 -139 -118 -213t-237 -74zM455 752q-44 0 -73.5 27t-29.5 67
q0 41 29.5 68.5t73.5 27.5t73.5 -27t29.5 -68t-29.5 -68t-73.5 -27z" />
    <glyph glyph-name="cdotaccent" unicode="&#x10b;" horiz-adv-x="584" 
d="M291 -12q-120 0 -195 62.5t-75 177.5q0 139 82.5 224t215.5 85q111 0 179 -54.5t72 -165.5h-184q-6 69 -71 69q-50 0 -73.5 -46t-23.5 -114q0 -97 80 -97q71 0 86 80h176q-13 -107 -82.5 -164t-186.5 -57zM334 569q-44 0 -73.5 26.5t-29.5 67.5t29.5 68.5t73.5 27.5
t73.5 -27t29.5 -68t-29.5 -68t-73.5 -27z" />
    <glyph glyph-name="Ccaron" unicode="&#x10c;" horiz-adv-x="768" 
d="M661 906l-133 -149h-164l-92 149h137l48 -47l59 47h145zM394 -13q-164 0 -259 81t-95 234q0 189 108 306.5t295 117.5q148 0 233 -71.5t90 -210.5h-228q-9 105 -101 105q-76 0 -117.5 -67.5t-42.5 -169.5q-1 -66 28 -106t91 -40q100 0 128 108h225q-20 -139 -118 -213
t-237 -74z" />
    <glyph glyph-name="ccaron" unicode="&#x10d;" horiz-adv-x="584" 
d="M535 746l-146 -166h-138l-98 166h131l49 -52l63 52h139zM291 -12q-120 0 -195 62.5t-75 177.5q0 139 82.5 224t215.5 85q111 0 179 -54.5t72 -165.5h-184q-6 69 -71 69q-50 0 -73.5 -46t-23.5 -114q0 -97 80 -97q71 0 86 80h176q-13 -107 -82.5 -164t-186.5 -57z" />
    <glyph glyph-name="Dcaron" unicode="&#x10e;" horiz-adv-x="757" 
d="M624 906l-133 -149h-164l-92 149h137l48 -47l59 47h145zM23 0l113 715h242q181 0 275 -79.5t94 -224.5q0 -197 -114 -304t-304 -107h-306zM277 172h53q88 0 135 59t47 170q0 142 -139 142h-37z" />
    <glyph glyph-name="dcaron" unicode="&#x10f;" horiz-adv-x="645" 
d="M681 575l35 175h139l-75 -175h-99zM206 -13q-85 0 -136.5 58.5t-51.5 168.5q0 151 73 237.5t187 86.5q115 0 152 -88l47 299h198l-93 -585q-16 -103 -11 -164h-194q-5 22 -3 81q-59 -94 -168 -94zM297 133q49 0 80 46.5t31 118.5q0 46 -20.5 70.5t-58.5 24.5
q-48 0 -78.5 -45t-30.5 -118q0 -97 77 -97z" />
    <glyph glyph-name="Dcroat" unicode="&#x110;" horiz-adv-x="775" 
d="M31 284l24 151h55l44 280h242q181 0 275 -79.5t94 -224.5q0 -197 -113.5 -304t-304.5 -107h-306l45 284h-55zM291 172h58q88 0 135 59.5t47 169.5q0 142 -139 142h-42l-17 -108h103l-23 -151h-104z" />
    <glyph glyph-name="dcroat" unicode="&#x111;" horiz-adv-x="645" 
d="M300 582l16 102h150l11 65h198l-11 -65h53l-16 -102h-53l-66 -418q-16 -103 -11 -164h-194q-5 22 -3 81q-59 -94 -168 -94q-85 0 -136.5 58.5t-51.5 168.5q0 151 73 237.5t187 86.5q115 0 152 -88l20 132h-150zM329 393q-48 0 -78.5 -45t-30.5 -118q0 -97 77 -97
q49 0 80 46.5t31 118.5q0 46 -20.5 70.5t-58.5 24.5z" />
    <glyph glyph-name="Emacron" unicode="&#x112;" horiz-adv-x="621" 
d="M23 0l113 715h507l-27 -174h-282l-16 -101h224l-24 -158h-224l-18 -108h298l-27 -174h-524zM227 769l18 115h332l-18 -115h-332z" />
    <glyph glyph-name="emacron" unicode="&#x113;" horiz-adv-x="602" 
d="M213 217q0 -98 89 -98q67 0 84 58h185q-19 -91 -91 -140.5t-183 -49.5q-122 0 -199 60.5t-77 179.5q0 139 85.5 225t218.5 86t202.5 -79.5t48.5 -217.5l-3 -23h-360v-1zM183 605l17 107h316l-17 -107h-316zM324 412q-73 0 -99 -91h170q9 91 -71 91z" />
    <glyph glyph-name="Ebreve" unicode="&#x114;" horiz-adv-x="621" 
d="M23 0l113 715h507l-27 -174h-282l-16 -101h224l-24 -158h-224l-18 -108h298l-27 -174h-524zM399 749q-80 0 -123 42t-44 115h124q3 -42 45 -42q41 0 49 42h125q-11 -75 -58 -116t-118 -41z" />
    <glyph glyph-name="ebreve" unicode="&#x115;" horiz-adv-x="602" 
d="M213 217q0 -98 89 -98q67 0 84 58h185q-19 -91 -91 -140.5t-183 -49.5q-122 0 -199 60.5t-77 179.5q0 139 85.5 225t218.5 86t202.5 -79.5t48.5 -217.5l-3 -23h-360v-1zM345 581q-79 0 -123 43t-41 120h118q3 -45 48 -45q46 0 52 45h120q-10 -79 -56 -121t-118 -42z
M324 412q-73 0 -99 -91h170q9 91 -71 91z" />
    <glyph glyph-name="Edotaccent" unicode="&#x116;" horiz-adv-x="621" 
d="M396 752q-44 0 -73.5 27t-29.5 67q0 41 29.5 68.5t73.5 27.5t73.5 -27t29.5 -68t-29.5 -68t-73.5 -27zM23 0l113 715h507l-27 -174h-282l-16 -101h224l-24 -158h-224l-18 -108h298l-27 -174h-524z" />
    <glyph glyph-name="edotaccent" unicode="&#x117;" horiz-adv-x="602" 
d="M213 217q0 -98 89 -98q67 0 84 58h185q-19 -91 -91 -140.5t-183 -49.5q-122 0 -199 60.5t-77 179.5q0 139 85.5 225t218.5 86t202.5 -79.5t48.5 -217.5l-3 -23h-360v-1zM341 569q-44 0 -73.5 26.5t-29.5 67.5t29.5 68.5t73.5 27.5t73.5 -27t29.5 -68t-29.5 -68t-73.5 -27
zM324 412q-73 0 -99 -91h170q9 91 -71 91z" />
    <glyph glyph-name="Eogonek" unicode="&#x118;" horiz-adv-x="621" 
d="M23 0l113 715h507l-27 -174h-282l-16 -101h224l-24 -158h-224l-18 -108h298l-27 -174h-38q-47 -35 -47 -63q0 -22 27 -22q15 0 25 3l-14 -85q-36 -15 -80 -15q-116 0 -116 78q0 37 28.5 63.5t68.5 40.5h-378z" />
    <glyph glyph-name="eogonek" unicode="&#x119;" horiz-adv-x="602" 
d="M297 -13q-122 0 -199 60.5t-77 179.5q0 139 86 225t218 86q133 0 202.5 -79.5t48.5 -217.5l-3 -23h-360v-1q0 -98 89 -98q67 0 84 58h185q-17 -83 -83 -136q-6 -5 -38 -26t-49 -39.5t-17 -38.5q0 -22 28 -22q16 0 25 4l-14 -86q-32 -15 -81 -15t-82 17.5t-33 57.5
q0 60 84 94h-14zM324 412q-73 0 -99 -91h170q9 91 -71 91z" />
    <glyph glyph-name="Ecaron" unicode="&#x11a;" horiz-adv-x="621" 
d="M601 906l-133 -149h-164l-92 149h137l48 -47l59 47h145zM23 0l113 715h507l-27 -174h-282l-16 -101h224l-24 -158h-224l-18 -108h298l-27 -174h-524z" />
    <glyph glyph-name="ecaron" unicode="&#x11b;" horiz-adv-x="602" 
d="M213 217q0 -98 89 -98q67 0 84 58h185q-19 -91 -91 -140.5t-183 -49.5q-122 0 -199 60.5t-77 179.5q0 139 85.5 225t218.5 86t202.5 -79.5t48.5 -217.5l-3 -23h-360v-1zM544 746l-146 -166h-138l-98 166h131l49 -52l63 52h139zM324 412q-73 0 -99 -91h170q9 91 -71 91z
" />
    <glyph glyph-name="Gcircumflex" unicode="&#x11c;" horiz-adv-x="791" 
d="M250 757l132 149h164l93 -149h-137l-48 47l-60 -47h-144zM401 -13q-167 0 -264 82.5t-97 236.5q0 182 115.5 301t295.5 118q90 0 159.5 -26t116 -88t50.5 -155h-225q-8 91 -110 91q-79 0 -123 -69.5t-44 -169.5q0 -149 135 -149q109 0 130 91h-120l24 149h341
q-13 -211 -104.5 -311.5t-279.5 -100.5z" />
    <glyph glyph-name="gcircumflex" unicode="&#x11d;" horiz-adv-x="643" 
d="M164 580l147 166h137l99 -166h-132l-49 53l-63 -53h-139zM298 168q51 0 80 40t29 101q-1 38 -21.5 62t-55.5 24q-50 0 -77.5 -40t-27.5 -95q0 -42 18.5 -67t54.5 -25zM636 523l-78 -492q-18 -117 -86.5 -171t-206.5 -54t-207 55t-73 143h195q9 -62 82 -62q49 0 71 23
t28 66l14 82q-52 -82 -159 -82q-86 0 -140 56t-54 160q0 130 71.5 210.5t182.5 80.5q114 0 151 -88l12 73h197z" />
    <glyph glyph-name="Gbreve" unicode="&#x11e;" horiz-adv-x="791" 
d="M454 749q-80 0 -123 42t-44 115h124q3 -42 45 -42t49 42h125q-11 -75 -58 -116t-118 -41zM401 -13q-167 0 -264 82.5t-97 236.5q0 182 115.5 301t295.5 118q90 0 159.5 -26t116 -88t50.5 -155h-225q-8 91 -110 91q-79 0 -123 -69.5t-44 -169.5q0 -149 135 -149
q109 0 130 91h-120l24 149h341q-13 -211 -104.5 -311.5t-279.5 -100.5z" />
    <glyph glyph-name="gbreve" unicode="&#x11f;" horiz-adv-x="643" 
d="M298 168q51 0 80 40t29 101q-1 38 -21.5 62t-55.5 24q-50 0 -77.5 -40t-27.5 -95q0 -42 18.5 -67t54.5 -25zM636 523l-78 -492q-18 -117 -86.5 -171t-206.5 -54t-207 55t-73 143h195q9 -62 82 -62q49 0 71 23t28 66l14 82q-52 -82 -159 -82q-86 0 -140 56t-54 160
q0 130 71.5 210.5t182.5 80.5q114 0 151 -88l12 73h197zM363 581q-79 0 -123 43t-41 120h118q3 -45 48 -45q46 0 52 45h120q-10 -79 -56 -121t-118 -42z" />
    <glyph glyph-name="Gdotaccent" unicode="&#x120;" horiz-adv-x="791" 
d="M451 752q-44 0 -73.5 27t-29.5 67q0 41 29.5 68.5t73.5 27.5t73.5 -27t29.5 -68t-29.5 -68t-73.5 -27zM401 -13q-167 0 -264 82.5t-97 236.5q0 182 115.5 301t295.5 118q90 0 159.5 -26t116 -88t50.5 -155h-225q-8 91 -110 91q-79 0 -123 -69.5t-44 -169.5
q0 -149 135 -149q109 0 130 91h-120l24 149h341q-13 -211 -104.5 -311.5t-279.5 -100.5z" />
    <glyph glyph-name="gdotaccent" unicode="&#x121;" horiz-adv-x="643" 
d="M298 168q51 0 80 40t29 101q-1 38 -21.5 62t-55.5 24q-50 0 -77.5 -40t-27.5 -95q0 -42 18.5 -67t54.5 -25zM636 523l-78 -492q-18 -117 -86.5 -171t-206.5 -54t-207 55t-73 143h195q9 -62 82 -62q49 0 71 23t28 66l14 82q-52 -82 -159 -82q-86 0 -140 56t-54 160
q0 130 71.5 210.5t182.5 80.5q114 0 151 -88l12 73h197zM356 569q-44 0 -73.5 26.5t-29.5 67.5t29.5 68.5t73.5 27.5t73.5 -27t29.5 -68t-29.5 -68t-73.5 -27z" />
    <glyph glyph-name="Gcommaaccent" unicode="&#x122;" horiz-adv-x="791" 
d="M336 -233l-108 27l47 175l171 -12zM401 -13q-167 0 -264 82.5t-97 236.5q0 182 115.5 301t295.5 118q90 0 159.5 -26t116 -88t50.5 -155h-225q-8 91 -110 91q-79 0 -123 -69.5t-44 -169.5q0 -149 135 -149q109 0 130 91h-120l24 149h341q-13 -211 -104.5 -311.5
t-279.5 -100.5z" />
    <glyph glyph-name="gcommaaccent" unicode="&#x123;" horiz-adv-x="643" 
d="M372 767l108 -27l-47 -175l-171 12zM298 168q51 0 80 40t29 101q-1 38 -21.5 62t-55.5 24q-50 0 -77.5 -40t-27.5 -95q0 -42 18.5 -67t54.5 -25zM636 523l-78 -492q-18 -117 -86.5 -171t-206.5 -54t-207 55t-73 143h195q9 -62 82 -62q49 0 71 23t28 66l14 82
q-52 -82 -159 -82q-86 0 -140 56t-54 160q0 130 71.5 210.5t182.5 80.5q114 0 151 -88l12 73h197z" />
    <glyph glyph-name="Hcircumflex" unicode="&#x124;" horiz-adv-x="794" 
d="M23 0l113 715h227l-41 -264h209l42 264h227l-113 -715h-227l43 275h-210l-43 -275h-227zM272 757l132 149h164l93 -149h-137l-48 47l-60 -47h-144z" />
    <glyph glyph-name="hcircumflex" unicode="&#x125;" horiz-adv-x="627" 
d="M5 0l119 749h196l-49 -313q63 102 175 102q79 0 121.5 -55.5t24.5 -167.5l-50 -315h-197l47 297q13 83 -54 83q-76 0 -91 -94l-45 -286h-197zM196 787l132 149h164l93 -149h-137l-48 47l-60 -47h-144z" />
    <glyph glyph-name="Hbar" unicode="&#x126;" horiz-adv-x="794" 
d="M47 526l17 101h58l14 88h227l-14 -88h210l14 88h227l-14 -88h58l-16 -101h-58l-83 -526h-227l43 275h-210l-43 -275h-227l83 526h-59zM322 451h209l12 75h-210z" />
    <glyph glyph-name="hbar" unicode="&#x127;" horiz-adv-x="627" 
d="M44 582l16 102h53l11 65h196l-10 -65h151l-16 -102h-151l-23 -146q63 102 175 102q79 0 121.5 -55.5t24.5 -167.5l-50 -315h-197l47 297q13 83 -54 83q-76 0 -91 -94l-45 -286h-197l92 582h-53z" />
    <glyph glyph-name="Itilde" unicode="&#x128;" horiz-adv-x="366" 
d="M26 0l113 715h229l-113 -715h-229zM334 755q-33 0 -70.5 16t-49.5 16t-21.5 -8.5t-11.5 -21.5h-110q13 80 51 120t89 40q31 0 70 -16t53 -16q25 0 34 30h109q-14 -79 -53.5 -119.5t-89.5 -40.5z" />
    <glyph glyph-name="itilde" unicode="&#x129;" horiz-adv-x="303" 
d="M11 0l82 523h197l-83 -523h-196zM274 581q-33 0 -69.5 16t-48.5 16q-25 0 -33 -30h-103q12 81 47 121.5t85 40.5q31 0 69 -16t52 -16q24 0 32 31h104q-13 -81 -49.5 -122t-85.5 -41z" />
    <glyph glyph-name="Imacron" unicode="&#x12a;" horiz-adv-x="366" 
d="M26 0l113 715h229l-113 -715h-229zM93 769l18 115h332l-18 -115h-332z" />
    <glyph glyph-name="imacron" unicode="&#x12b;" horiz-adv-x="303" 
d="M78 605l17 107h255l-17 -107h-255zM11 0l82 523h197l-83 -523h-196z" />
    <glyph glyph-name="Ibreve" unicode="&#x12c;" horiz-adv-x="366" 
d="M26 0l113 715h229l-113 -715h-229zM268 749q-80 0 -123 42t-44 115h124q3 -42 45 -42t49 42h125q-11 -75 -58 -116t-118 -41z" />
    <glyph glyph-name="ibreve" unicode="&#x12d;" horiz-adv-x="303" 
d="M11 0l82 523h197l-83 -523h-196zM208 581q-79 0 -123 43t-41 120h118q3 -45 48 -45q46 0 52 45h120q-10 -79 -56 -121t-118 -42z" />
    <glyph glyph-name="Iogonek" unicode="&#x12e;" horiz-adv-x="366" 
d="M151 -182q-115 0 -115 79q0 37 29 63.5t69 39.5h-108l113 715h229l-110 -700q-65 -47 -65 -78q0 -22 28 -22q15 0 25 3l-14 -85q-36 -15 -81 -15z" />
    <glyph glyph-name="iogonek" unicode="&#x12f;" horiz-adv-x="303" 
d="M11 0l82 523h197l-80 -508q-64 -45 -64 -78q0 -22 27 -22q15 0 25 3l-14 -85q-36 -15 -81 -15q-115 0 -115 79q0 37 29 63t68 40h-74zM211 563q-45 0 -74.5 28t-29.5 70q0 43 29.5 70.5t75.5 27.5q45 0 74.5 -27.5t29.5 -70.5q0 -42 -30.5 -70t-74.5 -28z" />
    <glyph glyph-name="Idotaccent" unicode="&#x130;" horiz-adv-x="366" 
d="M26 0l113 715h229l-113 -715h-229zM264 752q-44 0 -73.5 27t-29.5 67q0 41 29.5 68.5t73.5 27.5t73.5 -27t29.5 -68t-29.5 -68t-73.5 -27z" />
    <glyph glyph-name="dotlessi" unicode="&#x131;" horiz-adv-x="303" 
d="M11 0l82 523h197l-83 -523h-196z" />
    <glyph glyph-name="IJ" unicode="&#x132;" horiz-adv-x="830" 
d="M17 0l113 715h229l-113 -715h-229zM483 -9q-96 0 -158 31l26 166q54 -18 91 -18q82 0 94 82l74 463h227l-75 -472q-39 -252 -279 -252z" />
    <glyph glyph-name="ij" unicode="&#x133;" horiz-adv-x="605" 
d="M211 563q-45 0 -74.5 28t-29.5 70q0 43 29.5 70.5t75.5 27.5q45 0 74.5 -27.5t29.5 -70.5q0 -42 -30.5 -70t-74.5 -28zM11 0l82 523h197l-83 -523h-196zM223 -181l22 139q62 3 69 55l81 510h196l-84 -529q-6 -41 -22.5 -72.5t-47.5 -57t-85.5 -37.5t-128.5 -8zM512 563
q-45 0 -74 28t-29 70q0 43 29.5 70.5t74.5 27.5t74.5 -27.5t29.5 -70.5q0 -42 -30 -70t-75 -28z" />
    <glyph glyph-name="Jcircumflex" unicode="&#x134;" horiz-adv-x="489" 
d="M197 757l132 149h164l93 -149h-137l-48 47l-60 -47h-144zM151 -9q-96 0 -158 31l26 166q54 -18 91 -18q82 0 94 82l74 463h227l-75 -472q-39 -252 -279 -252z" />
    <glyph glyph-name="jcircumflex" unicode="&#x135;" horiz-adv-x="303" 
d="M-79 -181l22 139q62 3 69 55l81 510h196l-84 -529q-6 -41 -22.5 -72.5t-47.5 -57t-85.5 -37.5t-128.5 -8zM1 580l147 166h137l99 -166h-132l-49 53l-63 -53h-139z" />
    <glyph glyph-name="Kcommaaccent" unicode="&#x136;" horiz-adv-x="745" 
d="M23 0l113 715h227l-43 -273l246 273h243l-317 -342l204 -373h-245l-154 300l-47 -300h-227zM312 -233l-108 27l47 175l171 -12z" />
    <glyph glyph-name="kcommaaccent" unicode="&#x137;" horiz-adv-x="587" 
d="M5 0l118 750h197l-68 -431l161 204h211l-207 -242l129 -281h-210l-98 231l-36 -231h-197zM246 -233l-108 27l47 175l171 -12z" />
    <glyph glyph-name="Lacute" unicode="&#x139;" horiz-adv-x="582" 
d="M167 757l64 149h201l-115 -149h-150zM23 0l113 715h227l-85 -540h260l-28 -175h-487z" />
    <glyph glyph-name="lacute" unicode="&#x13a;" horiz-adv-x="300" 
d="M147 787l64 149h201l-115 -149h-150zM10 0l119 750h195l-118 -750h-196z" />
    <glyph glyph-name="Lcommaaccent" unicode="&#x13b;" horiz-adv-x="582" 
d="M237 -233l-108 27l47 175l171 -12zM23 0l113 715h227l-85 -540h260l-28 -175h-487z" />
    <glyph glyph-name="lcommaaccent" unicode="&#x13c;" horiz-adv-x="300" 
d="M79 -233l-108 27l47 175l171 -12zM10 0l119 750h195l-118 -750h-196z" />
    <glyph glyph-name="Lcaron" unicode="&#x13d;" horiz-adv-x="582" 
d="M407 535l43 180h159l-90 -180h-112zM23 0l113 715h227l-85 -540h260l-28 -175h-487z" />
    <glyph glyph-name="lcaron" unicode="&#x13e;" horiz-adv-x="300" 
d="M332 575l35 175h139l-75 -175h-99zM10 0l119 750h195l-118 -750h-196z" />
    <glyph glyph-name="Ldot" unicode="&#x13f;" horiz-adv-x="613" 
d="M23 0l113 715h227l-85 -540h260l-28 -175h-487zM516 297q-47 0 -78.5 31t-31.5 76t31 76.5t78 31.5q48 0 80.5 -31.5t32.5 -76.5t-32 -76t-80 -31z" />
    <glyph glyph-name="ldot" unicode="&#x140;" horiz-adv-x="478" 
d="M10 0l119 750h195l-118 -750h-196zM401 251q-47 0 -78.5 31t-31.5 76t31 76.5t78 31.5q48 0 80.5 -31.5t32.5 -76.5t-32 -76t-80 -31z" />
    <glyph glyph-name="Lslash" unicode="&#x141;" 
d="M15 223l18 120l65 21l56 351h228l-44 -274l186 60l-20 -120l-185 -60l-23 -146h260l-27 -175h-488l38 244z" />
    <glyph glyph-name="lslash" unicode="&#x142;" horiz-adv-x="344" 
d="M14 252l20 127l62 26l54 345h196l-40 -255l66 28l-20 -126l-66 -29l-58 -368h-196l44 278z" />
    <glyph glyph-name="Nacute" unicode="&#x143;" horiz-adv-x="787" 
d="M395 757l64 149h201l-115 -149h-150zM23 0l113 715h255l141 -372l59 372h201l-113 -715h-217l-171 423l-66 -423h-202z" />
    <glyph glyph-name="nacute" unicode="&#x144;" horiz-adv-x="627" 
d="M276 578l73 169h194l-125 -169h-142zM5 0l55 349q17 110 20 174h192q0 -53 -5 -92q66 107 179 107q79 0 121.5 -55.5t24.5 -167.5l-50 -315h-197l47 297q13 83 -54 83q-76 0 -91 -94l-45 -286h-197z" />
    <glyph glyph-name="Ncommaaccent" unicode="&#x145;" horiz-adv-x="787" 
d="M323 -233l-108 27l47 175l171 -12zM23 0l113 715h255l141 -372l59 372h201l-113 -715h-217l-171 423l-66 -423h-202z" />
    <glyph glyph-name="ncommaaccent" unicode="&#x146;" horiz-adv-x="626" 
d="M247 -233l-108 27l47 175l171 -12zM5 0l55 349q17 110 20 174h192q0 -53 -5 -92q66 107 179 107q79 0 121.5 -55.5t24.5 -167.5l-50 -315h-197l47 297q13 83 -54 83q-76 0 -91 -94l-45 -286h-197z" />
    <glyph glyph-name="Ncaron" unicode="&#x147;" horiz-adv-x="787" 
d="M693 906l-133 -149h-164l-92 149h137l48 -47l59 47h145zM23 0l113 715h255l141 -372l59 372h201l-113 -715h-217l-171 423l-66 -423h-202z" />
    <glyph glyph-name="ncaron" unicode="&#x148;" horiz-adv-x="627" 
d="M561 746l-146 -166h-138l-98 166h131l49 -52l63 52h139zM5 0l55 349q17 110 20 174h192q0 -53 -5 -92q66 107 179 107q79 0 121.5 -55.5t24.5 -167.5l-50 -315h-197l47 297q13 83 -54 83q-76 0 -91 -94l-45 -286h-197z" />
    <glyph glyph-name="napostrophe" unicode="&#x149;" horiz-adv-x="766" 
d="M109 417l-107 41l100 270l168 -56zM145 0l55 349q17 110 20 174h192q0 -53 -5 -92q66 107 179 107q79 0 121.5 -55.5t24.5 -167.5l-50 -315h-197l47 297q13 83 -54 83q-76 0 -91 -94l-45 -286h-197z" />
    <glyph glyph-name="Eng" unicode="&#x14a;" horiz-adv-x="787" 
d="M377 -23q60 0 80 42l-163 408l-68 -427h-203l113 715h255l140 -373l59 373h202l-110 -697q-34 -210 -266 -210q-89 0 -139 25l26 158q37 -14 74 -14z" />
    <glyph glyph-name="eng" unicode="&#x14b;" horiz-adv-x="628" 
d="M5 0l55 349q17 110 20 174h192q0 -53 -5 -92q66 107 179 107q79 0 121.5 -55.5t24.5 -167.5l-51 -321q-13 -87 -76.5 -135t-207.5 -41l21 140q62 3 70 55l44 284q13 83 -54 83q-76 0 -91 -94l-45 -286h-197z" />
    <glyph glyph-name="Omacron" unicode="&#x14c;" horiz-adv-x="820" 
d="M301 769l18 115h332l-18 -115h-332zM810 410q0 -189 -116 -306t-305 -117q-149 0 -249 83t-100 230q0 188 115 307t298 119q154 0 255.5 -82.5t101.5 -233.5zM574 402q0 65 -31.5 105.5t-96.5 41.5q-81 1 -126 -70t-45 -171q0 -65 33 -104t97 -39q82 0 125.5 69.5
t43.5 167.5z" />
    <glyph glyph-name="omacron" unicode="&#x14d;" horiz-adv-x="620" 
d="M185 605l17 107h316l-17 -107h-316zM294 -13q-115 0 -193.5 61.5t-78.5 178.5q-1 135 85 222.5t221 87.5q115 0 193.5 -62t78.5 -181q0 -136 -85 -221.5t-221 -85.5zM297 132q52 0 78.5 47t26.5 124q0 39 -19.5 64t-57.5 25q-52 0 -79.5 -46t-27.5 -120q0 -94 79 -94z
" />
    <glyph glyph-name="Obreve" unicode="&#x14e;" horiz-adv-x="820" 
d="M475 749q-80 0 -123 42t-44 115h124q3 -42 45 -42q41 0 49 42h125q-11 -75 -58 -116t-118 -41zM810 410q0 -189 -116 -306t-305 -117q-149 0 -249 83t-100 230q0 188 115 307t298 119q154 0 255.5 -82.5t101.5 -233.5zM574 402q0 65 -31.5 105.5t-96.5 41.5
q-81 1 -126 -70t-45 -171q0 -65 33 -104t97 -39q82 0 125.5 69.5t43.5 167.5z" />
    <glyph glyph-name="obreve" unicode="&#x14f;" horiz-adv-x="620" 
d="M294 -13q-115 0 -193.5 61.5t-78.5 178.5q-1 135 85 222.5t221 87.5q115 0 193.5 -62t78.5 -181q0 -136 -85 -221.5t-221 -85.5zM297 132q52 0 78.5 47t26.5 124q0 39 -19.5 64t-57.5 25q-52 0 -79.5 -46t-27.5 -120q0 -94 79 -94zM344 581q-79 0 -123 43t-41 120h118
q3 -45 48 -45q46 0 52 45h120q-10 -79 -56 -121t-118 -42z" />
    <glyph glyph-name="Ohungarumlaut" unicode="&#x150;" horiz-adv-x="820" 
d="M300 757l57 149h164l-91 -149h-130zM501 757l57 149h164l-90 -149h-131zM810 410q0 -189 -116 -306t-305 -117q-149 0 -249 83t-100 230q0 188 115 307t298 119q154 0 255.5 -82.5t101.5 -233.5zM574 402q0 65 -31.5 105.5t-96.5 41.5q-81 1 -126 -70t-45 -171
q0 -65 33 -104t97 -39q82 0 125.5 69.5t43.5 167.5z" />
    <glyph glyph-name="ohungarumlaut" unicode="&#x151;" horiz-adv-x="620" 
d="M188 578l64 169h148l-98 -169h-114zM369 578l65 169h148l-98 -169h-115zM294 -13q-115 0 -193.5 61.5t-78.5 178.5q-1 135 85 222.5t221 87.5q115 0 193.5 -62t78.5 -181q0 -136 -85 -221.5t-221 -85.5zM297 132q52 0 78.5 47t26.5 124q0 39 -19.5 64t-57.5 25
q-52 0 -79.5 -46t-27.5 -120q0 -94 79 -94z" />
    <glyph glyph-name="OE" unicode="&#x152;" horiz-adv-x="988" 
d="M915 0h-513q-178 0 -270 77.5t-92 221.5q0 197 114.5 306.5t304.5 109.5h553l-28 -174h-267l-16 -101h209l-24 -158h-209l-18 -108h284zM493 543h-36q-87 0 -134.5 -61.5t-47.5 -172.5q0 -137 140 -137h20z" />
    <glyph glyph-name="oe" unicode="&#x153;" horiz-adv-x="980" 
d="M590 217q0 -98 90 -98q65 0 84 58h184q-19 -91 -90.5 -140.5t-182.5 -49.5q-128 0 -193 71q-77 -71 -188 -71q-115 0 -193 62t-79 180q-1 134 84.5 221t221.5 87q119 0 187 -75q78 76 188 76q133 0 202.5 -79.5t48.5 -217.5l-4 -23h-360v-1zM297 132q52 0 78.5 47
t26.5 124q0 39 -19.5 64t-57.5 25q-52 0 -80 -46t-28 -121q0 -40 18.5 -66.5t61.5 -26.5zM701 412q-71 0 -99 -91h171q7 91 -72 91z" />
    <glyph glyph-name="Racute" unicode="&#x154;" horiz-adv-x="710" 
d="M310 757l64 149h201l-115 -149h-150zM23 0l113 715h283q134 0 202.5 -54.5t68.5 -152.5q0 -85 -43 -141t-116 -76l128 -291h-229l-106 245h-37l-38 -245h-226zM310 391h62q97 0 97 87q0 67 -81 67h-53z" />
    <glyph glyph-name="racute" unicode="&#x155;" horiz-adv-x="439" 
d="M216 578l73 169h194l-125 -169h-142zM5 0l55 349q16 101 19 174h192q0 -56 -7 -115q31 64 77 93.5t112 28.5l-28 -184q-86 5 -131 -23t-56 -99l-36 -224h-197z" />
    <glyph glyph-name="Rcommaaccent" unicode="&#x156;" horiz-adv-x="710" 
d="M299 -233l-108 27l47 175l171 -12zM23 0l113 715h283q134 0 202.5 -54.5t68.5 -152.5q0 -85 -43 -141t-116 -76l128 -291h-229l-106 245h-37l-38 -245h-226zM310 391h62q97 0 97 87q0 67 -81 67h-53z" />
    <glyph glyph-name="rcommaaccent" unicode="&#x157;" horiz-adv-x="440" 
d="M73 -233l-108 27l47 175l171 -12zM5 0l55 349q16 101 19 174h192q0 -56 -7 -115q31 64 77 93.5t112 28.5l-28 -184q-86 5 -131 -23t-56 -99l-36 -224h-197z" />
    <glyph glyph-name="Rcaron" unicode="&#x158;" horiz-adv-x="710" 
d="M607 906l-133 -149h-164l-92 149h137l48 -47l59 47h145zM23 0l113 715h283q134 0 202.5 -54.5t68.5 -152.5q0 -85 -43 -141t-116 -76l128 -291h-229l-106 245h-37l-38 -245h-226zM310 391h62q97 0 97 87q0 67 -81 67h-53z" />
    <glyph glyph-name="rcaron" unicode="&#x159;" horiz-adv-x="439" 
d="M499 746l-146 -166h-138l-98 166h131l49 -52l63 52h139zM5 0l55 349q16 101 19 174h192q0 -56 -7 -115q31 64 77 93.5t112 28.5l-28 -184q-86 5 -131 -23t-56 -99l-36 -224h-197z" />
    <glyph glyph-name="Sacute" unicode="&#x15a;" horiz-adv-x="651" 
d="M315 -13q-147 0 -227.5 63t-79.5 179h212q4 -82 100 -82q81 -1 81 61q0 22 -20.5 35t-71.5 23q-133 27 -187.5 76t-54.5 139q0 107 79 175.5t217 68.5q134 0 206.5 -56.5t71.5 -171.5h-207q-4 69 -77 69q-71 0 -71 -54q0 -22 19 -34t72 -23q127 -25 186.5 -73.5
t59.5 -139.5q0 -115 -80 -184.5t-228 -70.5zM299 757l64 149h201l-115 -149h-150z" />
    <glyph glyph-name="sacute" unicode="&#x15b;" horiz-adv-x="519" 
d="M211 578l73 169h194l-125 -169h-142zM233 -14q-112 0 -176 45t-65 137h182q5 -54 64 -54q53 0 53 37q0 17 -16.5 26t-69.5 19q-90 17 -131.5 53t-41.5 103q0 90 67 138.5t176 47.5q220 0 230 -173h-179q-2 22 -16 35.5t-40 13.5q-53 0 -53 -35q0 -17 16.5 -25.5
t59.5 -17.5q106 -20 149 -55.5t43 -108.5q0 -92 -69 -139t-183 -47z" />
    <glyph glyph-name="Scircumflex" unicode="&#x15c;" horiz-adv-x="651" 
d="M190 757l132 149h164l93 -149h-137l-48 47l-60 -47h-144zM315 -13q-147 0 -227.5 63t-79.5 179h212q4 -82 100 -82q81 -1 81 61q0 22 -20.5 35t-71.5 23q-133 27 -187.5 76t-54.5 139q0 107 79 175.5t217 68.5q134 0 206.5 -56.5t71.5 -171.5h-207q-4 69 -77 69
q-71 0 -71 -54q0 -22 19 -34t72 -23q127 -25 186.5 -73.5t59.5 -139.5q0 -115 -80 -184.5t-228 -70.5z" />
    <glyph glyph-name="scircumflex" unicode="&#x15d;" horiz-adv-x="519" 
d="M96 580l147 166h137l99 -166h-132l-49 53l-63 -53h-139zM233 -14q-112 0 -176 45t-65 137h182q5 -54 64 -54q53 0 53 37q0 17 -16.5 26t-69.5 19q-90 17 -131.5 53t-41.5 103q0 90 67 138.5t176 47.5q220 0 230 -173h-179q-2 22 -16 35.5t-40 13.5q-53 0 -53 -35
q0 -17 16.5 -25.5t59.5 -17.5q106 -20 149 -55.5t43 -108.5q0 -92 -69 -139t-183 -47z" />
    <glyph glyph-name="Scedilla" unicode="&#x15e;" horiz-adv-x="651" 
d="M258 -228q-54 0 -90.5 23.5t-40.5 70.5h91q4 -26 33 -26q13 0 22.5 8t9.5 24q0 27 -31 27q-18 0 -30 -10l-35 39l51 64q-112 15 -171.5 76t-58.5 161h212q4 -82 100 -82q81 -1 81 61q0 22 -20.5 35t-71.5 23q-133 27 -187.5 76t-54.5 139q0 107 79 175.5t217 68.5
q134 0 206.5 -56.5t71.5 -171.5h-207q-4 69 -77 69q-71 0 -71 -54q0 -22 19 -34t72 -23q127 -25 186.5 -73.5t59.5 -139.5q0 -115 -80 -184.5t-228 -70.5h-6l-25 -31q43 3 72 -18.5t29 -61.5q0 -51 -36 -77.5t-91 -26.5z" />
    <glyph glyph-name="scedilla" unicode="&#x15f;" horiz-adv-x="519" 
d="M198 -228q-54 0 -90.5 23.5t-40.5 70.5h91q4 -26 33 -26q13 0 22.5 8t9.5 24q0 27 -31 27q-18 0 -30 -10l-35 39l48 62q-86 10 -134 54.5t-49 123.5h182q5 -54 64 -54q53 0 53 37q0 17 -16.5 26t-69.5 19q-90 17 -131.5 53t-41.5 103q0 90 67 138.5t176 47.5
q220 0 230 -173h-179q-2 22 -16 35.5t-40 13.5q-53 0 -53 -35q0 -17 16.5 -25.5t59.5 -17.5q106 -20 149 -55.5t43 -108.5q0 -89 -64.5 -136t-172.5 -50l-24 -30q43 3 72 -18.5t29 -61.5q0 -51 -36 -77.5t-91 -26.5z" />
    <glyph glyph-name="Scaron" unicode="&#x160;" horiz-adv-x="651" 
d="M584 906l-133 -149h-164l-92 149h137l48 -47l59 47h145zM315 -13q-147 0 -227.5 63t-79.5 179h212q4 -82 100 -82q81 -1 81 61q0 22 -20.5 35t-71.5 23q-133 27 -187.5 76t-54.5 139q0 107 79 175.5t217 68.5q134 0 206.5 -56.5t71.5 -171.5h-207q-4 69 -77 69
q-71 0 -71 -54q0 -22 19 -34t72 -23q127 -25 186.5 -73.5t59.5 -139.5q0 -115 -80 -184.5t-228 -70.5z" />
    <glyph glyph-name="scaron" unicode="&#x161;" horiz-adv-x="519" 
d="M495 746l-146 -166h-138l-98 166h131l49 -52l63 52h139zM233 -14q-112 0 -176 45t-65 137h182q5 -54 64 -54q53 0 53 37q0 17 -16.5 26t-69.5 19q-90 17 -131.5 53t-41.5 103q0 90 67 138.5t176 47.5q220 0 230 -173h-179q-2 22 -16 35.5t-40 13.5q-53 0 -53 -35
q0 -17 16.5 -25.5t59.5 -17.5q106 -20 149 -55.5t43 -108.5q0 -92 -69 -139t-183 -47z" />
    <glyph glyph-name="Tcommaaccent" unicode="&#x162;" horiz-adv-x="629" 
d="M250 -233l-108 27l47 175l171 -12zM158 0l85 541h-181l29 174h589l-28 -174h-181l-85 -541h-228z" />
    <glyph glyph-name="tcommaaccent" unicode="&#x163;" horiz-adv-x="393" 
d="M155 -233l-108 27l47 175l171 -12zM228 -12q-202 0 -169 204l32 199h-61l20 132h61l18 107h197l-18 -107h99l-20 -132h-99l-31 -192q-4 -31 6.5 -43.5t36.5 -12.5t49 8l-23 -148q-43 -15 -98 -15z" />
    <glyph glyph-name="Tcaron" unicode="&#x164;" horiz-adv-x="629" 
d="M599 906l-133 -149h-164l-92 149h137l48 -47l59 47h145zM158 0l85 541h-181l29 174h589l-28 -174h-181l-85 -541h-228z" />
    <glyph glyph-name="tcaron" unicode="&#x165;" horiz-adv-x="393" 
d="M359 575l35 175h139l-75 -175h-99zM228 -12q-202 0 -169 204l32 199h-61l20 132h61l18 107h197l-18 -107h99l-20 -132h-99l-31 -192q-4 -31 6.5 -43.5t36.5 -12.5t49 8l-23 -148q-43 -15 -98 -15z" />
    <glyph glyph-name="Tbar" unicode="&#x166;" horiz-adv-x="629" 
d="M78 268l22 140h122l21 133h-181l29 174h589l-28 -174h-181l-21 -133h123l-22 -140h-123l-42 -268h-228l42 268h-122z" />
    <glyph glyph-name="tbar" unicode="&#x167;" horiz-adv-x="393" 
d="M5 235l15 96h61l10 60h-61l20 132h61l18 107h197l-18 -107h99l-20 -132h-99l-10 -60h99l-16 -96h-98l-6 -36q-4 -31 6.5 -43.5t36.5 -12.5t49 8l-23 -148q-43 -15 -98 -15q-202 0 -169 204l7 43h-61z" />
    <glyph glyph-name="Utilde" unicode="&#x168;" horiz-adv-x="776" 
d="M376 -13q-170 0 -252.5 83t-56.5 243l65 402h226l-65 -409q-11 -72 9 -106.5t78 -34.5q54 0 77.5 30t34.5 99l67 421h228l-70 -439q-23 -149 -106 -219t-235 -70zM524 755q-33 0 -70.5 16t-49.5 16t-21.5 -8.5t-11.5 -21.5h-110q13 80 51 120t89 40q31 0 70 -16t53 -16
q25 0 34 30h109q-14 -79 -53.5 -119.5t-89.5 -40.5z" />
    <glyph glyph-name="utilde" unicode="&#x169;" horiz-adv-x="627" 
d="M617 523l-56 -359q-16 -100 -13 -164h-192q-3 37 0 84q-68 -97 -170 -97q-84 0 -127.5 54.5t-25.5 166.5l50 315h197l-49 -308q-12 -83 52 -83q76 0 91 94l47 297h196zM420 581q-33 0 -69.5 16t-48.5 16q-25 0 -33 -30h-103q12 81 47 121.5t85 40.5q31 0 69 -16t52 -16
q24 0 32 31h104q-13 -81 -49.5 -122t-85.5 -41z" />
    <glyph glyph-name="Umacron" unicode="&#x16a;" horiz-adv-x="776" 
d="M376 -13q-170 0 -252.5 83t-56.5 243l65 402h226l-65 -409q-11 -72 9 -106.5t78 -34.5q54 0 77.5 30t34.5 99l67 421h228l-70 -439q-23 -149 -106 -219t-235 -70zM299 769l18 115h332l-18 -115h-332z" />
    <glyph glyph-name="umacron" unicode="&#x16b;" horiz-adv-x="627" 
d="M617 523l-56 -359q-16 -100 -13 -164h-192q-3 37 0 84q-68 -97 -170 -97q-84 0 -127.5 54.5t-25.5 166.5l50 315h197l-49 -308q-12 -83 52 -83q76 0 91 94l47 297h196zM194 605l17 107h316l-17 -107h-316z" />
    <glyph glyph-name="Ubreve" unicode="&#x16c;" horiz-adv-x="776" 
d="M376 -13q-170 0 -252.5 83t-56.5 243l65 402h226l-65 -409q-11 -72 9 -106.5t78 -34.5q54 0 77.5 30t34.5 99l67 421h228l-70 -439q-23 -149 -106 -219t-235 -70zM466 749q-80 0 -123 42t-44 115h124q3 -42 45 -42t49 42h125q-11 -75 -58 -116t-118 -41z" />
    <glyph glyph-name="ubreve" unicode="&#x16d;" horiz-adv-x="627" 
d="M617 523l-56 -359q-16 -100 -13 -164h-192q-3 37 0 84q-68 -97 -170 -97q-84 0 -127.5 54.5t-25.5 166.5l50 315h197l-49 -308q-12 -83 52 -83q76 0 91 94l47 297h196zM364 581q-79 0 -123 43t-41 120h118q3 -45 48 -45q46 0 52 45h120q-10 -79 -56 -121t-118 -42z" />
    <glyph glyph-name="Uring" unicode="&#x16e;" horiz-adv-x="776" 
d="M376 -13q-170 0 -252.5 83t-56.5 243l65 402h226l-65 -409q-11 -72 9 -106.5t78 -34.5q54 0 77.5 30t34.5 99l67 421h228l-70 -439q-23 -149 -106 -219t-235 -70zM466 790q20 0 32.5 14t12.5 36t-12.5 35.5t-32.5 13.5t-32.5 -13.5t-12.5 -36.5q0 -22 12 -35.5t33 -13.5z
M466 722q-50 0 -86 34.5t-36 82.5q0 49 36 84t86 35t86 -34.5t36 -83.5t-36 -83.5t-86 -34.5z" />
    <glyph glyph-name="uring" unicode="&#x16f;" horiz-adv-x="627" 
d="M355 642q20 0 32.5 13.5t12.5 35.5q0 21 -12.5 34.5t-31.5 13.5q-20 0 -32.5 -13.5t-12.5 -35.5q0 -21 12.5 -34.5t31.5 -13.5zM355 574q-50 0 -85 34t-35 82t35.5 82.5t85.5 34.5t85 -34t35 -82q0 -49 -35.5 -83t-85.5 -34zM617 523l-56 -359q-16 -100 -13 -164h-192
q-3 37 0 84q-68 -97 -170 -97q-84 0 -127.5 54.5t-25.5 166.5l50 315h197l-49 -308q-12 -83 52 -83q76 0 91 94l47 297h196z" />
    <glyph glyph-name="Uhungarumlaut" unicode="&#x170;" horiz-adv-x="776" 
d="M296 757l57 149h164l-91 -149h-130zM497 757l57 149h164l-90 -149h-131zM376 -13q-170 0 -252.5 83t-56.5 243l65 402h226l-65 -409q-11 -72 9 -106.5t78 -34.5q54 0 77.5 30t34.5 99l67 421h228l-70 -439q-23 -149 -106 -219t-235 -70z" />
    <glyph glyph-name="uhungarumlaut" unicode="&#x171;" horiz-adv-x="627" 
d="M617 523l-56 -359q-16 -100 -13 -164h-192q-3 37 0 84q-68 -97 -170 -97q-84 0 -127.5 54.5t-25.5 166.5l50 315h197l-49 -308q-12 -83 52 -83q76 0 91 94l47 297h196zM200 578l64 169h148l-98 -169h-114zM381 578l65 169h148l-98 -169h-115z" />
    <glyph glyph-name="Uogonek" unicode="&#x172;" horiz-adv-x="776" 
d="M374 -182q-115 0 -115 79q0 57 71 92q-148 11 -217.5 93t-45.5 231l65 402h226l-65 -409q-11 -72 9 -106.5t77 -34.5q54 0 78 30.5t35 98.5l67 421h228l-70 -439q-17 -108 -64 -172t-140 -98q-5 -2 -24.5 -9t-28 -11t-21 -11.5t-18 -17t-5.5 -20.5q0 -22 28 -22
q14 0 25 3l-14 -85q-36 -15 -81 -15z" />
    <glyph glyph-name="uogonek" unicode="&#x173;" horiz-adv-x="627" 
d="M618 523l-57 -359q-15 -96 -12 -156q-1 -1 -7.5 -7t-8.5 -8t-8 -7.5t-8 -8l-6 -7.5t-6 -8t-4 -7.5t-3 -9t-1 -8.5q0 -22 27 -22q14 0 25 3l-14 -85q-36 -15 -80 -15q-116 0 -116 79q0 37 29 63.5t69 39.5h-81q-3 36 1 96q-67 -109 -180 -109q-78 0 -119.5 55t-24.5 166
l50 315h197l-49 -308q-12 -83 52 -83q77 0 90 94l48 297h197z" />
    <glyph glyph-name="Wcircumflex" unicode="&#x174;" horiz-adv-x="1000" 
d="M376 757l132 149h164l93 -149h-137l-48 47l-60 -47h-144zM134 0l-57 715h229l14 -432l158 432h191l33 -437l156 437h208l-283 -715h-221l-35 416l-164 -416h-229z" />
    <glyph glyph-name="wcircumflex" unicode="&#x175;" horiz-adv-x="842" 
d="M268 580l147 166h137l99 -166h-132l-49 53l-63 -53h-139zM116 0l-71 523h199l23 -294l120 294h158l25 -294l119 294h190l-246 -523h-185l-27 275l-115 -275h-190z" />
    <glyph glyph-name="Ycircumflex" unicode="&#x176;" horiz-adv-x="693" 
d="M194 0l47 306l-166 409h235l77 -221l143 221h226l-288 -421l-46 -294h-228zM223 757l132 149h164l93 -149h-137l-48 47l-60 -47h-144z" />
    <glyph glyph-name="ycircumflex" unicode="&#x177;" horiz-adv-x="590" 
d="M46 -174l126 233l-128 464h204l54 -263l130 263h195l-385 -697h-196zM149 580l147 166h137l99 -166h-132l-49 53l-63 -53h-139z" />
    <glyph glyph-name="Ydieresis" unicode="&#x178;" horiz-adv-x="693" 
d="M194 0l47 306l-166 409h235l77 -221l143 221h226l-288 -421l-46 -294h-228zM318 752q-38 0 -64.5 26t-26.5 63t27 63t65 26t64.5 -26t26.5 -63t-27 -63t-65 -26zM545 752q-38 0 -64.5 26t-26.5 63t26.5 63t64.5 26q39 0 65.5 -25.5t26.5 -63.5q0 -37 -27 -63t-65 -26z
" />
    <glyph glyph-name="Zacute" unicode="&#x179;" horiz-adv-x="626" 
d="M308 757l64 149h201l-115 -149h-150zM-32 0l4 24l367 521h-248l28 170h568l-4 -24l-366 -520h262l-27 -171h-584z" />
    <glyph glyph-name="zacute" unicode="&#x17a;" horiz-adv-x="511" 
d="M230 578l73 169h194l-125 -169h-142zM-34 0l2 19l268 359h-189l22 145h471l-3 -20l-276 -359h206l-23 -144h-478z" />
    <glyph glyph-name="Zdotaccent" unicode="&#x17b;" horiz-adv-x="626" 
d="M-32 0l4 24l367 521h-248l28 170h568l-4 -24l-366 -520h262l-27 -171h-584zM401 752q-44 0 -73.5 27t-29.5 67q0 41 29.5 68.5t73.5 27.5t73.5 -27t29.5 -68t-29.5 -68t-73.5 -27z" />
    <glyph glyph-name="zdotaccent" unicode="&#x17c;" horiz-adv-x="511" 
d="M-34 0l2 19l268 359h-189l22 145h471l-3 -20l-276 -359h206l-23 -144h-478zM308 569q-44 0 -73.5 26.5t-29.5 67.5t29.5 68.5t73.5 27.5t73.5 -27t29.5 -68t-29.5 -68t-73.5 -27z" />
    <glyph glyph-name="Zcaron" unicode="&#x17d;" horiz-adv-x="626" 
d="M608 906l-133 -149h-164l-92 149h137l48 -47l59 47h145zM-32 0l4 24l367 521h-248l28 170h568l-4 -24l-366 -520h262l-27 -171h-584z" />
    <glyph glyph-name="zcaron" unicode="&#x17e;" horiz-adv-x="511" 
d="M515 746l-146 -166h-138l-98 166h131l49 -52l63 52h139zM-34 0l2 19l268 359h-189l22 145h471l-3 -20l-276 -359h206l-23 -144h-478z" />
    <glyph glyph-name="florin" unicode="&#x192;" horiz-adv-x="456" 
d="M31 283l20 132h85l23 119q18 99 84 145t160 46q55 0 91 -12l-23 -145q-20 7 -50 7q-60 0 -72 -61l-19 -99h113l-20 -132h-117l-87 -465h-194l87 465h-81z" />
    <glyph glyph-name="Aringacute" unicode="&#x1fa;" horiz-adv-x="755" 
d="M471 0l-14 119h-225l-51 -119h-217l339 715h292l111 -715h-235zM453 740q-50 0 -86 34.5t-36 82.5q0 49 36 84t86 35t86 -34.5t36 -83.5t-36 -83.5t-86 -34.5zM391 993l64 149h201l-115 -149h-150zM411 532l-112 -259h141zM453 808q20 0 32.5 14t12.5 36t-12.5 35.5
t-32.5 13.5t-32.5 -13.5t-12.5 -36.5q0 -22 12 -35.5t33 -13.5z" />
    <glyph glyph-name="aringacute" unicode="&#x1fb;" horiz-adv-x="584" 
d="M168 -13q-72 0 -118.5 38.5t-46.5 106.5q0 99 70.5 141.5t208.5 42.5h72l2 12q6 35 -5 54t-48 19q-53 0 -67 -56h-184q39 193 260 193q272 0 235 -235l-22 -139q-16 -102 -8 -164h-191q-5 26 -3 65q-55 -78 -155 -78zM251 117q32 0 54.5 18.5t27.5 47.5l5 27h-51
q-48 0 -68 -11.5t-20 -38.5q0 -19 13.5 -31t38.5 -12zM346 638q20 0 32.5 13.5t12.5 35.5q0 21 -12.5 34.5t-31.5 13.5q-20 0 -32.5 -13.5t-12.5 -35.5q0 -21 12.5 -34.5t31.5 -13.5zM346 570q-50 0 -85 34t-35 82t35.5 82.5t85.5 34.5t85 -34t35 -82q0 -49 -35.5 -83
t-85.5 -34zM287 829l64 149h201l-115 -149h-150z" />
    <glyph glyph-name="AEacute" unicode="&#x1fc;" horiz-adv-x="1012" 
d="M-35 0l419 715h651l-27 -174h-275l-16 -101h217l-24 -158h-217l-18 -108h291l-27 -174h-516l21 135h-184l-75 -135h-220zM611 757l64 149h201l-115 -149h-150zM488 541l-144 -256h123l41 256h-20z" />
    <glyph glyph-name="aeacute" unicode="&#x1fd;" horiz-adv-x="912" 
d="M525 217q0 -98 88 -98q65 0 82 58h185q-19 -91 -90.5 -140.5t-181.5 -49.5q-155 0 -216 93q-60 -93 -195 -93q-87 0 -140.5 39.5t-53.5 109.5q0 98 72 140.5t209 42.5h71l2 11q10 71 -56 71q-56 0 -70 -56h-183q17 95 87.5 144t174.5 49q117 0 164 -56q75 55 166 55
q132 0 199 -78t46 -217l-3 -23h-357v-2zM418 578l73 169h194l-125 -169h-142zM635 412q-73 0 -98 -92h168q3 42 -14 67t-56 25zM251 117q33 0 55.5 18.5t27.5 51.5l5 29h-52q-47 0 -67.5 -13t-20.5 -42q0 -20 13.5 -32t38.5 -12z" />
    <glyph glyph-name="Oslashacute" unicode="&#x1fe;" horiz-adv-x="820" 
d="M89 -33l-55 56l76 77q-70 81 -70 199q0 189 115 307.5t298 118.5q127 0 218 -56l72 72l55 -56l-65 -66q77 -83 77 -209q0 -189 -116 -306t-305 -117q-127 0 -220 61zM581 402q0 26 -7 56l-262 -265q35 -29 93 -29q84 0 130 69t46 169zM269 309q0 -27 4 -44l257 260
q-33 24 -84 25q-83 1 -130 -69t-47 -172zM379 757l64 149h201l-115 -149h-150z" />
    <glyph glyph-name="oslashacute" unicode="&#x1ff;" horiz-adv-x="620" 
d="M60 -39l-48 46l64 66q-54 62 -54 156q-1 134 84.5 221.5t221.5 87.5q94 0 161 -41l66 67l48 -46l-62 -63q59 -66 59 -162q0 -137 -85 -221.5t-221 -84.5q-97 0 -167 43zM259 578l73 169h194l-125 -169h-142zM298 129q54 0 83 48t29 124q0 3 -0.5 9t-0.5 9l-169 -173
q20 -17 58 -17zM210 228q0 -12 1 -17l165 169q-20 14 -50 14q-55 0 -85.5 -45.5t-30.5 -120.5z" />
    <glyph glyph-name="Scommaaccent" unicode="&#x218;" horiz-adv-x="650" 
d="M259 -233l-108 27l47 175l171 -12zM315 -13q-147 0 -227.5 63t-79.5 179h212q4 -82 100 -82q81 -1 81 61q0 22 -20.5 35t-71.5 23q-133 27 -187.5 76t-54.5 139q0 107 79 175.5t217 68.5q134 0 206.5 -56.5t71.5 -171.5h-207q-4 69 -77 69q-71 0 -71 -54q0 -22 19 -34
t72 -23q127 -25 186.5 -73.5t59.5 -139.5q0 -115 -80 -184.5t-228 -70.5z" />
    <glyph glyph-name="scommaaccent" unicode="&#x219;" horiz-adv-x="519" 
d="M194 -233l-108 27l47 175l171 -12zM233 -14q-112 0 -176 45t-65 137h182q5 -54 64 -54q53 0 53 37q0 17 -16.5 26t-69.5 19q-90 17 -131.5 53t-41.5 103q0 90 67 138.5t176 47.5q220 0 230 -173h-179q-2 22 -16 35.5t-40 13.5q-53 0 -53 -35q0 -17 16.5 -25.5t59.5 -17.5
q106 -20 149 -55.5t43 -108.5q0 -92 -69 -139t-183 -47z" />
    <glyph glyph-name="uni0237" unicode="&#x237;" horiz-adv-x="303" 
d="M-79 -181l22 139q62 3 69 55l81 510h196l-84 -529q-6 -41 -22.5 -72.5t-47.5 -57t-85.5 -37.5t-128.5 -8z" />
    <glyph glyph-name="circumflex" unicode="&#x2c6;" horiz-adv-x="400" 
d="M58 580l147 166h137l99 -166h-132l-49 53l-63 -53h-139z" />
    <glyph glyph-name="caron" unicode="&#x2c7;" horiz-adv-x="400" 
d="M466 746l-146 -166h-138l-98 166h131l49 -52l63 52h139z" />
    <glyph glyph-name="breve" unicode="&#x2d8;" horiz-adv-x="400" 
d="M265 581q-79 0 -123 43t-41 120h118q3 -45 48 -45q46 0 52 45h120q-10 -79 -56 -121t-118 -42z" />
    <glyph glyph-name="dotaccent" unicode="&#x2d9;" horiz-adv-x="400" 
d="M263 569q-44 0 -73.5 26.5t-29.5 67.5t29.5 68.5t73.5 27.5t73.5 -27t29.5 -68t-29.5 -68t-73.5 -27z" />
    <glyph glyph-name="ring" unicode="&#x2da;" horiz-adv-x="400" 
d="M266 642q20 0 32.5 13.5t12.5 35.5q0 21 -12.5 34.5t-31.5 13.5q-20 0 -32.5 -13.5t-12.5 -35.5q0 -21 12.5 -34.5t31.5 -13.5zM266 574q-50 0 -85 34t-35 82t35.5 82.5t85.5 34.5t85 -34t35 -82q0 -49 -35.5 -83t-85.5 -34z" />
    <glyph glyph-name="ogonek" unicode="&#x2db;" horiz-adv-x="400" 
d="M138 -182q-116 0 -116 79q0 37 29 63.5t69 39.5h107q-47 -35 -47 -63q0 -22 27 -22q15 0 25 3l-14 -85q-36 -15 -80 -15z" />
    <glyph glyph-name="tilde" unicode="&#x2dc;" horiz-adv-x="400" 
d="M322 581q-33 0 -69.5 16t-48.5 16q-25 0 -33 -30h-103q12 81 47 121.5t85 40.5q31 0 69 -16t52 -16q24 0 32 31h104q-13 -81 -49.5 -122t-85.5 -41z" />
    <glyph glyph-name="hungarumlaut" unicode="&#x2dd;" horiz-adv-x="400" 
d="M95 578l64 169h148l-98 -169h-114zM276 578l65 169h148l-98 -169h-115z" />
    <glyph glyph-name="Wgrave" unicode="&#x1e80;" horiz-adv-x="1000" 
d="M507 757l-87 149h199l32 -149h-144zM134 0l-57 715h229l14 -432l158 432h191l33 -437l156 437h208l-283 -715h-221l-35 416l-164 -416h-229z" />
    <glyph glyph-name="wgrave" unicode="&#x1e81;" horiz-adv-x="842" 
d="M116 0l-71 523h199l23 -294l120 294h158l25 -294l119 294h190l-246 -523h-185l-27 275l-115 -275h-190zM395 578l-93 169h192l38 -169h-137z" />
    <glyph glyph-name="Wacute" unicode="&#x1e82;" horiz-adv-x="1000" 
d="M496 757l64 149h201l-115 -149h-150zM134 0l-57 715h229l14 -432l158 432h191l33 -437l156 437h208l-283 -715h-221l-35 416l-164 -416h-229z" />
    <glyph glyph-name="wacute" unicode="&#x1e83;" horiz-adv-x="842" 
d="M403 578l73 169h194l-125 -169h-142zM116 0l-71 523h199l23 -294l120 294h158l25 -294l119 294h190l-246 -523h-185l-27 275l-115 -275h-190z" />
    <glyph glyph-name="Wdieresis" unicode="&#x1e84;" horiz-adv-x="1000" 
d="M466 752q-38 0 -64.5 26t-26.5 63t27 63t65 26t64.5 -26t26.5 -63t-27 -63t-65 -26zM693 752q-38 0 -64.5 26t-26.5 63t26.5 63t64.5 26q39 0 65.5 -25.5t26.5 -63.5q0 -37 -27 -63t-65 -26zM134 0l-57 715h229l14 -432l158 432h191l33 -437l156 437h208l-283 -715h-221
l-35 416l-164 -416h-229z" />
    <glyph glyph-name="wdieresis" unicode="&#x1e85;" horiz-adv-x="842" 
d="M365 570q-38 0 -64.5 26t-26.5 63t27 63t65 26t64.5 -26t26.5 -63t-27 -63t-65 -26zM582 570q-38 0 -64 25.5t-26 63.5q0 37 26.5 63t63.5 26q39 0 65.5 -26t26.5 -63t-26.5 -63t-65.5 -26zM116 0l-71 523h199l23 -294l120 294h158l25 -294l119 294h190l-246 -523h-185
l-27 275l-115 -275h-190z" />
    <glyph glyph-name="Ygrave" unicode="&#x1ef2;" horiz-adv-x="693" 
d="M194 0l47 306l-166 409h235l77 -221l143 221h226l-288 -421l-46 -294h-228zM352 757l-87 149h199l32 -149h-144z" />
    <glyph glyph-name="ygrave" unicode="&#x1ef3;" horiz-adv-x="590" 
d="M46 -174l126 233l-128 464h204l54 -263l130 263h195l-385 -697h-196zM278 578l-93 169h192l38 -169h-137z" />
    <glyph glyph-name="uni2009" unicode="&#x2009;" horiz-adv-x="81" 
 />
    <glyph glyph-name="endash" unicode="&#x2013;" horiz-adv-x="543" 
d="M41 239l18 112h452l-18 -112h-452z" />
    <glyph glyph-name="emdash" unicode="&#x2014;" horiz-adv-x="958" 
d="M41 239l18 112h866l-18 -112h-866z" />
    <glyph glyph-name="quoteleft" unicode="&#x2018;" horiz-adv-x="307" 
d="M227 417l-168 56l162 255l107 -40z" />
    <glyph glyph-name="quoteright" unicode="&#x2019;" horiz-adv-x="307" 
d="M180 417l-107 41l100 270l168 -56z" />
    <glyph glyph-name="quotesinglbase" unicode="&#x201a;" horiz-adv-x="307" 
d="M88 -105l-106 41l100 271l168 -57z" />
    <glyph glyph-name="quotedblleft" unicode="&#x201c;" horiz-adv-x="543" 
d="M227 417l-168 56l162 255l107 -40zM463 417l-168 56l162 255l106 -40z" />
    <glyph glyph-name="quotedblright" unicode="&#x201d;" horiz-adv-x="543" 
d="M180 417l-107 41l100 270l168 -56zM415 417l-107 41l101 270l168 -56z" />
    <glyph glyph-name="quotedblbase" unicode="&#x201e;" horiz-adv-x="543" 
d="M88 -105l-106 41l100 271l168 -57zM324 -105l-107 41l101 271l168 -57z" />
    <glyph glyph-name="dagger" unicode="&#x2020;" horiz-adv-x="411" 
d="M118 213l39 251h-105l22 136h105l19 115h157l-18 -115h104l-21 -136h-105l-40 -251h-157z" />
    <glyph glyph-name="daggerdbl" unicode="&#x2021;" horiz-adv-x="411" 
d="M153 431l10 66h-105l19 123h105l16 95h157l-15 -95h105l-20 -123h-105l-10 -66h105l-19 -123h-105l-16 -95h-157l15 95h-105l19 123h106z" />
    <glyph glyph-name="bullet" unicode="&#x2022;" horiz-adv-x="379" 
d="M189 150q-63 0 -104.5 42t-41.5 100q0 71 45 116.5t112 45.5q64 0 105.5 -42.5t41.5 -102.5q0 -69 -45.5 -114t-112.5 -45z" />
    <glyph glyph-name="ellipsis" unicode="&#x2026;" horiz-adv-x="909" 
d="M122 -12q-47 0 -78 31t-31 77q0 45 30.5 76t77.5 31q48 0 80.5 -31t32.5 -76q0 -46 -32 -77t-80 -31zM425 -12q-47 0 -78 31t-31 77q0 45 30.5 76t77.5 31q48 0 81 -31t33 -76q0 -46 -32 -77t-81 -31zM729 -12q-47 0 -78.5 31t-31.5 77q0 45 31 76t78 31q48 0 80.5 -31
t32.5 -76q0 -46 -32 -77t-80 -31z" />
    <glyph glyph-name="perthousand" unicode="&#x2030;" horiz-adv-x="1237" 
d="M198 528q0 -54 48 -54q28 1 42.5 27t14.5 61q0 23 -11.5 38t-34.5 15q-29 0 -44 -25t-15 -62zM241 363q-78 0 -131.5 42t-53.5 117q0 85 57.5 143t148.5 58q76 0 129 -43t53 -117q0 -83 -57.5 -141.5t-145.5 -58.5zM92 0l582 715h102l-582 -715h-102zM561 152
q0 -23 11.5 -38.5t36.5 -14.5q27 1 42 27t15 61q0 23 -11.5 37.5t-34.5 14.5q-29 0 -44 -25t-15 -62zM604 -13q-78 0 -131.5 42.5t-53.5 117.5q0 84 57.5 142.5t147.5 58.5q77 0 130 -43t53 -117q0 -83 -57.5 -142t-145.5 -59zM971 152q0 -23 11.5 -38.5t36.5 -14.5
q27 1 42 27t15 61q0 23 -11.5 37.5t-34.5 14.5q-29 0 -44 -25t-15 -62zM1014 -13q-79 0 -132 42t-53 118q0 84 57.5 142.5t147.5 58.5q77 0 130 -43t53 -117q0 -83 -57.5 -142t-145.5 -59z" />
    <glyph glyph-name="uni2032" unicode="&#x2032;" horiz-adv-x="256" 
d="M58 434l64 281h184l-109 -281h-139z" />
    <glyph glyph-name="uni2033" unicode="&#x2033;" horiz-adv-x="478" 
d="M58 434l64 281h184l-109 -281h-139zM280 434l64 281h184l-109 -281h-139z" />
    <glyph glyph-name="guilsinglleft" unicode="&#x2039;" horiz-adv-x="304" 
d="M119 67l-95 200l151 188h133l-148 -189l83 -199h-124z" />
    <glyph glyph-name="guilsinglright" unicode="&#x203a;" horiz-adv-x="304" 
d="M181 455l95 -200l-151 -188h-133l149 189l-84 199h124z" />
    <glyph glyph-name="fraction" unicode="&#x2044;" horiz-adv-x="178" 
d="M-256 0l613 715h101l-614 -715h-100z" />
    <glyph glyph-name="Euro" unicode="&#x20ac;" horiz-adv-x="727" 
d="M39 378l11 74h59q32 130 119 202t218 72q134 0 209 -67t74 -198h-210q0 45 -18 69.5t-62 24.5q-79 0 -110 -103h139l-23 -74h-131l-7 -46h123l-24 -74h-105q4 -97 89 -97q84 0 111 107h207q-52 -281 -329 -281q-138 0 -215 72.5t-80 198.5h-64l12 74h56l7 46h-56z" />
    <glyph glyph-name="trademark" unicode="&#x2122;" horiz-adv-x="768" 
d="M359 394l51 321h133l30 -146l78 146h144l-51 -321h-117l26 170l-93 -170h-36l-38 170l-27 -170h-100zM126 394l37 229h-81l15 92h277l-15 -92h-80l-37 -229h-116z" />
    <glyph glyph-name="onethird" unicode="&#x2153;" horiz-adv-x="839" 
d="M618 -7q-80 0 -125.5 33t-46.5 104h128q0 -38 38 -38q36 0 36 33q0 27 -41 27h-29l12 79h35q41 0 41 31q0 27 -30 27q-34 0 -41 -36h-126q9 64 56 99t124 35q64 0 108.5 -24t44.5 -80q0 -69 -77 -91q65 -14 65 -77q0 -60 -49 -91t-123 -31zM115 333l38 241l-89 -45
l19 118l114 68h124l-61 -382h-145zM42 0l613 715h101l-614 -715h-100z" />
    <glyph glyph-name="twothirds" unicode="&#x2154;" horiz-adv-x="899" 
d="M679 -7q-80 0 -125.5 33t-46.5 104h128q0 -38 38 -38q36 0 36 33q0 27 -41 27h-29l12 79h35q41 0 41 31q0 27 -30 27q-34 0 -41 -36h-126q9 64 56 99t124 35q64 0 108.5 -24t44.5 -80q0 -69 -77 -91q65 -14 65 -77q0 -60 -49 -91t-123 -31zM18 333l3 18l149 133
q69 62 82 86q5 10 5 18q0 28 -25 28q-32 0 -43 -51h-132q11 77 60 116.5t126 39.5q70 0 113.5 -28t43.5 -89q0 -38 -25 -71t-79 -77l-24 -20h103l-16 -103h-341zM124 0l613 715h101l-614 -715h-100z" />
    <glyph glyph-name="oneeighth" unicode="&#x215b;" horiz-adv-x="837" 
d="M616 -7q-47 0 -85.5 9t-66.5 34.5t-28 65.5q0 42 21.5 65.5t62.5 37.5q-45 24 -45 67q0 58 48 86.5t116 28.5t114.5 -26t46.5 -78q0 -70 -64 -90q57 -20 57 -77q0 -64 -51.5 -93.5t-125.5 -29.5zM580 120q0 -14 9 -23t26 -9q18 0 29.5 9.5t11.5 27.5q0 15 -9.5 24
t-26.5 9t-28.5 -10t-11.5 -28zM602 261q0 -30 32 -30q16 0 26 9t10 26q0 13 -9.5 21.5t-23.5 8.5t-24.5 -9.5t-10.5 -25.5zM115 333l38 241l-89 -45l19 118l114 68h124l-61 -382h-145zM44 0l613 715h101l-614 -715h-100z" />
    <glyph glyph-name="threeeighths" unicode="&#x215c;" horiz-adv-x="898" 
d="M677 -7q-47 0 -85.5 9t-66.5 34.5t-28 65.5q0 42 21.5 65.5t62.5 37.5q-45 24 -45 67q0 58 48 86.5t116 28.5t114.5 -26t46.5 -78q0 -70 -64 -90q57 -20 57 -77q0 -64 -51.5 -93.5t-125.5 -29.5zM641 120q0 -14 9 -23t26 -9q18 0 29.5 9.5t11.5 27.5q0 15 -9.5 24
t-26.5 9t-28.5 -10t-11.5 -28zM663 261q0 -30 32 -30q16 0 26 9t10 26q0 13 -9.5 21.5t-23.5 8.5t-24.5 -9.5t-10.5 -25.5zM109 0l613 715h101l-614 -715h-100zM223 326q-80 0 -125.5 33.5t-46.5 103.5h128q0 -38 38 -38q15 0 25.5 8t10.5 25q0 27 -41 27h-29l12 79h35
q41 0 41 32q0 26 -30 26q-34 0 -41 -35h-126q9 63 56 98.5t124 35.5q40 0 72.5 -8.5t56.5 -33t24 -62.5q0 -69 -77 -91q65 -15 65 -78q0 -60 -49 -91t-123 -31z" />
    <glyph glyph-name="fiveeighths" unicode="&#x215d;" horiz-adv-x="877" 
d="M656 -7q-47 0 -85.5 9t-66.5 34.5t-28 65.5q0 42 21.5 65.5t62.5 37.5q-45 24 -45 67q0 58 48 86.5t116 28.5t114.5 -26t46.5 -78q0 -70 -64 -90q57 -20 57 -77q0 -64 -51.5 -93.5t-125.5 -29.5zM620 120q0 -14 9 -23t26 -9q18 0 29.5 9.5t11.5 27.5q0 15 -9.5 24
t-26.5 9t-28.5 -10t-11.5 -28zM642 261q0 -30 32 -30q16 0 26 9t10 26q0 13 -9.5 21.5t-23.5 8.5t-24.5 -9.5t-10.5 -25.5zM218 326q-72 0 -120.5 31t-50.5 99h135q2 -26 32 -26q15 0 25.5 10.5t10.5 29.5q0 32 -33 32q-25 0 -38 -23h-113l50 236h291l-16 -100h-192l-16 -76
q35 49 103 49q48 0 77.5 -26.5t29.5 -77.5q-1 -78 -48 -118t-127 -40zM91 0l613 715h101l-614 -715h-100z" />
    <glyph glyph-name="seveneighths" unicode="&#x215e;" horiz-adv-x="831" 
d="M610 -7q-47 0 -85.5 9t-66.5 34.5t-28 65.5q0 42 21.5 65.5t62.5 37.5q-45 24 -45 67q0 58 48 86.5t116 28.5t114.5 -26t46.5 -78q0 -70 -64 -90q57 -20 57 -77q0 -64 -51.5 -93.5t-125.5 -29.5zM574 120q0 -14 9 -23t26 -9q18 0 29.5 9.5t11.5 27.5q0 15 -9.5 24
t-26.5 9t-28.5 -10t-11.5 -28zM596 261q0 -30 32 -30q16 0 26 9t10 26q0 13 -9.5 21.5t-23.5 8.5t-24.5 -9.5t-10.5 -25.5zM74 333l144 269h-144l18 113h329l-3 -16l-197 -366h-147zM36 0l613 715h101l-614 -715h-100z" />
    <glyph glyph-name="minus" unicode="&#x2212;" horiz-adv-x="582" 
d="M37 265l24 149h507l-24 -149h-507z" />
    <glyph glyph-name="approxequal" unicode="&#x2248;" horiz-adv-x="593" 
d="M55 341q13 98 56.5 143.5t104.5 45.5q44 0 120 -19.5t97 -19.5q38 0 49 43h111q-10 -91 -55 -139.5t-106 -48.5q-44 0 -120 19.5t-97 19.5q-39 0 -50 -44h-110zM18 113q13 98 56.5 143t105.5 45q44 0 120 -19.5t96 -19.5q40 0 49 44h111q-10 -92 -55 -140.5t-105 -48.5
q-45 0 -121.5 20t-96.5 20q-39 0 -49 -44h-111z" />
    <glyph glyph-name="notequal" unicode="&#x2260;" horiz-adv-x="570" 
d="M53 361l20 131h243l49 96h123l-49 -96h127l-20 -131h-173l-34 -68h196l-20 -131h-243l-48 -96h-122l48 96h-128l20 131h174l34 68h-197z" />
    <glyph glyph-name="lessequal" unicode="&#x2264;" horiz-adv-x="514" 
d="M449 147l-392 235l6 36l464 224l-28 -178l-160 -71l137 -75zM-2 0l19 126h429l-20 -126h-428z" />
    <glyph glyph-name="greaterequal" unicode="&#x2265;" horiz-adv-x="514" 
d="M4 0l20 126h428l-20 -126h-428zM105 642l392 -235l-6 -36l-464 -224l27 178l161 71l-138 74z" />
    <glyph glyph-name="uni24C5" unicode="&#x24c5;" horiz-adv-x="842" 
d="M287 157v405h165q168 0 168 -140v-2q0 -65 -40.5 -99.5t-120.5 -34.5h-38v-129h-134zM421 376h23q50 0 50 44v2q0 39 -49 39h-24v-85zM433 31q136 0 229.5 92t93.5 236q0 143 -92 234t-229 91q-138 0 -230.5 -91.5t-92.5 -235.5t93 -235t228 -91zM433 -21
q-161 0 -273.5 109t-112.5 269q0 159 112.5 269t275.5 110q164 0 275 -109t111 -268q0 -161 -112.5 -270.5t-275.5 -109.5z" />
    <glyph glyph-name="f_i" unicode="&#xfb01;" horiz-adv-x="688" 
d="M30 391l20 132h64l10 59q16 92 76.5 136t150.5 44q59 0 97 -15l-22 -142q-26 8 -47 8q-53 0 -62 -52l-6 -38h102l-21 -132h-102l-62 -391h-196l62 391h-64zM396 0l82 523h197l-83 -523h-196zM596 563q-45 0 -74.5 28t-29.5 70q0 43 29.5 70.5t75.5 27.5q45 0 74.5 -27.5
t29.5 -70.5q0 -42 -30.5 -70t-74.5 -28z" />
    <glyph glyph-name="f_l" unicode="&#xfb02;" horiz-adv-x="686" 
d="M30 391l20 132h64l10 59q16 92 76.5 136t150.5 44q59 0 97 -15l-22 -142q-26 8 -47 8q-53 0 -62 -52l-6 -38h102l-21 -132h-102l-62 -391h-196l62 391h-64zM395 0l119 750h195l-118 -750h-196z" />
    <glyph glyph-name="space_uni0326" horiz-adv-x="400" 
d="M142 -233l-108 27l47 175l171 -12z" />
    <glyph glyph-name="caron.alt" horiz-adv-x="400" 
d="M194 575l35 175h139l-75 -175h-99z" />
    <glyph glyph-name="space_uni0326.alt" horiz-adv-x="400" 
d="M274 767l108 -27l-47 -175l-171 12z" />
    <glyph glyph-name="grave.uc" horiz-adv-x="400" 
d="M219 757l-87 149h199l32 -149h-144z" />
    <glyph glyph-name="dieresis.uc" horiz-adv-x="400" 
d="M177 752q-38 0 -64.5 26t-26.5 63t27 63t65 26t64.5 -26t26.5 -63t-27 -63t-65 -26zM404 752q-38 0 -64.5 26t-26.5 63t26.5 63t64.5 26q39 0 65.5 -25.5t26.5 -63.5q0 -37 -27 -63t-65 -26z" />
    <glyph glyph-name="macron.uc" horiz-adv-x="400" 
d="M113 769l18 115h332l-18 -115h-332z" />
    <glyph glyph-name="acute.uc" horiz-adv-x="400" 
d="M193 757l64 149h201l-115 -149h-150z" />
    <glyph glyph-name="circumflex.uc" horiz-adv-x="400" 
d="M83 757l132 149h164l93 -149h-137l-48 47l-60 -47h-144z" />
    <glyph glyph-name="caron.uc" horiz-adv-x="400" 
d="M492 906l-133 -149h-164l-92 149h137l48 -47l59 47h145z" />
    <glyph glyph-name="breve.uc" horiz-adv-x="400" 
d="M292 749q-80 0 -123 42t-44 115h124q3 -42 45 -42t49 42h125q-11 -75 -58 -116t-118 -41z" />
    <glyph glyph-name="dotaccent.uc" horiz-adv-x="400" 
d="M292 752q-44 0 -73.5 27t-29.5 67q0 41 29.5 68.5t73.5 27.5t73.5 -27t29.5 -68t-29.5 -68t-73.5 -27z" />
    <glyph glyph-name="ring.uc" horiz-adv-x="400" 
d="M294 810q20 0 32.5 14t12.5 36t-12.5 35.5t-32.5 13.5t-32.5 -13.5t-12.5 -36.5q0 -22 12 -35.5t33 -13.5zM294 742q-50 0 -86 34.5t-36 82.5q0 49 36 84t86 35t86 -34.5t36 -83.5t-36 -83.5t-86 -34.5z" />
    <glyph glyph-name="tilde.uc" horiz-adv-x="400" 
d="M350 755q-33 0 -70.5 16t-49.5 16t-21.5 -8.5t-11.5 -21.5h-110q13 80 51 120t89 40q31 0 70 -16t53 -16q25 0 34 30h109q-14 -79 -53.5 -119.5t-89.5 -40.5z" />
    <glyph glyph-name="hungarumlaut.uc" horiz-adv-x="400" 
d="M107 757l57 149h164l-91 -149h-130zM308 757l57 149h164l-90 -149h-131z" />
    <glyph glyph-name="idotaccent" horiz-adv-x="303" 
d="M211 563q-45 0 -74.5 28t-29.5 70q0 43 29.5 70.5t75.5 27.5q45 0 74.5 -27.5t29.5 -70.5q0 -42 -30.5 -70t-74.5 -28zM11 0l82 523h197l-83 -523h-196z" />
    <glyph glyph-name="registered.alt" horiz-adv-x="842" 
d="M268 158v405h169q171 0 171 -133v-2q0 -74 -65 -106l89 -164h-138l-72 136h-20v-136h-134zM402 380h27q49 0 49 41v3q0 38 -48 38h-28v-82zM433 31q136 0 229.5 92t93.5 236q0 143 -92 234t-229 91q-138 0 -230.5 -91.5t-92.5 -235.5t93 -235t228 -91zM433 -21
q-161 0 -273.5 109t-112.5 269q0 159 112.5 269t275.5 110q164 0 275 -109t111 -268q0 -161 -112.5 -270.5t-275.5 -109.5z" />
    <glyph glyph-name="dollar.old" horiz-adv-x="632" 
d="M216 -131l19 125q-98 14 -160 69t-65 157h194q0 -61 55 -80l20 128q-113 24 -164 71.5t-51 130.5q0 107 81 169.5t203 64.5l14 85h79l-14 -90q205 -27 213 -211h-191q-1 47 -46 64l-19 -124q110 -24 166 -69.5t56 -130.5q0 -115 -80.5 -176.5t-210.5 -63.5l-19 -119h-80z
M411 197q0 19 -12.5 31t-42.5 22l-19 -118q74 6 74 65zM253 500q0 -20 12 -32.5t42 -21.5l18 113q-72 -8 -72 -59z" />
    <glyph glyph-name="Euro.old" horiz-adv-x="706" 
d="M37 367l12 71h56q31 126 115.5 196t211.5 70q130 0 203 -64.5t72 -192.5h-204q0 92 -77 92q-79 0 -108 -101h136l-23 -71h-127l-7 -45h120l-23 -72h-103q4 -94 87 -94q42 0 68 25t39 79h201q-51 -273 -319 -273q-134 0 -208.5 70.5t-77.5 192.5h-62l11 72h55l7 45h-55z
" />
    <glyph glyph-name="sterling.old" horiz-adv-x="648" 
d="M34 277l19 120h44q-4 25 -4 59q0 114 79.5 180.5t206.5 66.5q126 0 197 -56.5t70 -186.5h-203q1 41 -13.5 60t-48.5 19q-78 0 -78 -113v-29h174l-20 -120h-152q0 -52 -23 -99q70 -17 85 -17q52 0 61 53h196q-13 -101 -71.5 -162t-159.5 -61q-55 0 -124 24.5t-86 24.5
q-40 0 -47 -40h-160q9 64 40 112.5t80 69.5q18 41 18 88v7h-80z" />
    <glyph glyph-name="yen.old" horiz-adv-x="639" 
d="M63 288l12 71h129l-127 335h232l54 -210l122 210h215l-226 -335h132l-10 -71h-157l-7 -46h155l-11 -71h-155l-27 -171h-221l27 171h-155l10 71h156l7 46h-155z" />
    <glyph glyph-name="zero.old" horiz-adv-x="680" 
d="M245 308q-5 -28 -5 -60q2 -101 92 -101q48 0 75 34.5t38 107.5l4 23q5 37 5 61q0 100 -91 100q-92 0 -114 -142zM327 -13q-132 0 -215 70.5t-83 198.5q0 28 5 65l4 23q22 141 109.5 214.5t219.5 73.5q128 0 212 -70.5t85 -197.5q0 -38 -5 -65l-4 -24q-47 -288 -328 -288z
" />
    <glyph glyph-name="one.old" horiz-adv-x="444" 
d="M117 0l65 410l-139 -76l27 177l175 108h180l-98 -619h-210z" />
    <glyph glyph-name="two.old" horiz-adv-x="594" 
d="M-36 0l5 29l255 215q3 3 18 15.5t22 18t21.5 18.5t22.5 21t20 20.5t19 22.5t14 21t10 21.5t3 19.5q0 51 -59 51q-32 0 -55.5 -24.5t-33.5 -70.5h-190q18 121 97 187.5t201 66.5q119 0 185.5 -50t66.5 -139q-1 -67 -41 -118.5t-129 -121.5l-67 -52h200l-23 -151h-562z" />
    <glyph glyph-name="three.old" horiz-adv-x="625" 
d="M288 -104q-136 0 -214 62t-77 186h191q5 -93 93 -93q39 1 64 22.5t25 61.5q0 70 -85 70h-57l22 130h59q91 0 91 82q0 62 -69 62q-76 0 -95 -87h-193q20 111 97 175.5t205 64.5q114 0 184.5 -48t70.5 -143q0 -64 -36 -108t-99 -62q111 -36 111 -149q0 -105 -83 -165.5
t-205 -60.5z" />
    <glyph glyph-name="four.old" horiz-adv-x="679" 
d="M302 -92l21 130h-347l11 70l375 511h263l-70 -443h90l-21 -138h-91l-21 -130h-210zM200 176h151l43 278z" />
    <glyph glyph-name="five.old" horiz-adv-x="620" 
d="M-6 131h198q6 -78 83 -78q41 0 66.5 29t25.5 74q0 39 -23.5 60.5t-67.5 21.5q-67 0 -111 -50h-130l86 431h482l-26 -162h-328l-29 -150q65 73 167 73q88 0 140.5 -55t52.5 -144q0 -133 -83.5 -209t-225.5 -76q-120 0 -198.5 59t-78.5 176z" />
    <glyph glyph-name="six.old" horiz-adv-x="658" 
d="M324 -12q-135 0 -212.5 69t-78.5 196q0 46 9 104l6 35q27 160 119.5 247t231.5 87q113 0 184 -52.5t71 -163.5h-199q-5 57 -65 57q-95 0 -131 -192q58 81 171 81q87 0 143.5 -52.5t56.5 -145.5q0 -128 -86.5 -199t-219.5 -71zM246 223q-1 -37 20.5 -60t60.5 -23
q41 0 67.5 29.5t26.5 75.5q0 35 -20.5 56.5t-57.5 21.5q-41 0 -68.5 -28.5t-28.5 -71.5z" />
    <glyph glyph-name="seven.old" horiz-adv-x="580" 
d="M35 -92l288 537h-276l28 174h553l-4 -23l-363 -688h-226z" />
    <glyph glyph-name="eight.old" horiz-adv-x="664" 
d="M311 -13q-124 0 -207.5 51.5t-83.5 148.5q0 76 43.5 125t115.5 69q-80 42 -80 129q0 103 81.5 159.5t198.5 56.5q48 0 93 -10t84.5 -31.5t63.5 -60.5t24 -91q0 -57 -34.5 -100.5t-91.5 -65.5q103 -42 103 -147q0 -113 -85 -173t-225 -60zM237 215q0 -36 22 -56t61 -20
q38 0 64.5 24.5t26.5 68.5q0 34 -21.5 54t-59.5 20q-39 0 -66 -24t-27 -67zM293 498q0 -29 19.5 -48t53.5 -19q33 0 56.5 21.5t23.5 58.5q0 31 -19.5 50t-51.5 19q-34 0 -58 -22.5t-24 -59.5z" />
    <glyph glyph-name="nine.old" horiz-adv-x="658" 
d="M350 632q138 0 212 -71t76 -201q0 -45 -9 -99l-6 -35q-27 -164 -118.5 -248t-236.5 -84q-115 0 -188 54.5t-74 167.5h200q6 -63 71 -63q55 0 86 45.5t50 146.5q-60 -81 -172 -81q-87 0 -143.5 50.5t-56.5 143.5q0 124 87 199t222 75zM425 398q1 36 -20.5 59t-60.5 23
q-40 0 -67 -30t-27 -75q0 -35 20.5 -56.5t57.5 -21.5q42 0 69.5 28.5t27.5 72.5z" />
    <glyph glyph-name="dollar.tab" 
d="M201 -135l20 128q-102 15 -160.5 73t-52.5 161h183q-3 -65 54 -83l20 130q-107 25 -156 73.5t-49 134.5q0 110 78 176t199 67l14 88h74l-15 -93q200 -27 199 -217h-177q-3 50 -46 65l-20 -126q101 -23 155.5 -71t54.5 -134q0 -118 -76 -182.5t-206 -66.5l-19 -123h-74z
M390 202q0 21 -11.5 34t-41.5 22l-19 -121q72 7 72 65zM244 513q0 -37 51 -54l18 115q-69 -6 -69 -61z" />
    <glyph glyph-name="Euro.tab" 
d="M29 379l11 74h45q24 137 98 205t188 67q123 0 184 -62.5t51 -183.5h-184q2 40 -10 60.5t-46 20.5t-52.5 -24.5t-29.5 -82.5h128l-24 -74h-116l-7 -45h108l-24 -75h-95q-6 -50 5.5 -77.5t54.5 -27.5q32 0 50.5 20t26.5 69h182q-38 -256 -271 -256q-131 0 -194 72t-52 200
h-46l12 75h45l7 45h-45z" />
    <glyph glyph-name="sterling.tab" 
d="M24 286l20 122h44q-4 40 -4 65q0 117 73.5 184.5t196.5 67.5q264 0 244 -248h-186q2 41 -12 58.5t-46 17.5q-73 0 -73 -115v-30h154l-19 -122h-131q-3 -55 -24 -100q53 -15 73 -15q51 0 59 51h186q-15 -112 -72 -171.5t-150 -59.5q-52 0 -109.5 25t-72.5 25
q-37 0 -44 -41h-155q21 138 106 184q23 49 23 99v3h-81z" />
    <glyph glyph-name="yen.tab" 
d="M51 297l12 74h135l-113 344h220l43 -189l102 189h208l-221 -344h143l-12 -74h-150l-8 -46h150l-11 -74h-150l-28 -177h-223l28 177h-144l11 74h144l8 46h-144z" />
    <glyph glyph-name="zero.tab" 
d="M233 284q-6 -46 -6 -59q0 -71 61 -71q36 0 53.5 27.5t28.5 94.5l25 153q6 38 6 62q0 71 -59 71q-36 0 -54.5 -28.5t-29.5 -95.5zM274 -13q-115 0 -180.5 61t-65.5 175q0 36 6 75l25 154q21 134 98 204t195 70q114 0 181 -61.5t67 -174.5q0 -40 -5 -70l-25 -154
q-22 -138 -97.5 -208.5t-198.5 -70.5z" />
    <glyph glyph-name="one.tab" 
d="M198 0l77 487l-182 -105l31 192l218 141h200l-113 -715h-231z" />
    <glyph glyph-name="two.tab" 
d="M-20 0l5 31l251 264q90 95 118 141q26 43 26 74q0 51 -46 51q-29 0 -46.5 -24t-29.5 -88h-204q39 277 304 276q104 0 172.5 -47.5t69.5 -146.5q1 -78 -42.5 -142.5t-142.5 -155.5l-72 -63h204l-26 -170h-541z" />
    <glyph glyph-name="three.tab" 
d="M289 -13q-133 0 -207.5 59t-69.5 194h194q0 -45 16 -68t58 -23q79 0 79 84q0 61 -69 61h-52l22 137h60q36 0 57.5 19.5t21.5 59.5q0 54 -60 54q-69 0 -84 -84h-195q20 117 94.5 181t195.5 64q48 0 89.5 -9.5t78.5 -30t58.5 -58.5t21.5 -90q0 -66 -34.5 -110t-95.5 -62
q48 -14 75 -50.5t27 -89.5q0 -110 -76.5 -174t-204.5 -64z" />
    <glyph glyph-name="four.tab" 
d="M265 0l20 134h-292l12 80l323 501h251l-68 -432h69l-24 -149h-70l-20 -134h-201zM196 283h118l40 254z" />
    <glyph glyph-name="five.tab" 
d="M274 -13q-127 0 -193.5 61.5t-59.5 183.5h192q-2 -73 65 -73q39 0 59 28.5t20 74.5q0 73 -77 73q-62 0 -99 -49h-130l84 429h461l-25 -163h-308l-29 -149q60 78 158 78q84 0 131 -50.5t47 -144.5q0 -137 -78 -218t-218 -81z" />
    <glyph glyph-name="six.tab" 
d="M296 -13q-123 0 -195 63.5t-72 187.5q0 37 9 93l11 74q25 154 109 237t214 83q118 0 176.5 -53t56.5 -164h-185q0 30 -12.5 45.5t-44.5 15.5q-88 0 -118 -182q57 77 148 77q81 0 132 -51t51 -144q0 -126 -76.5 -204t-203.5 -78zM222 229q0 -33 19.5 -56t55.5 -23
q38 0 61.5 27t23.5 71q0 33 -18.5 54t-53.5 21q-38 0 -63 -25.5t-25 -68.5z" />
    <glyph glyph-name="seven.tab" 
d="M56 0l277 533h-262l29 182h546l-4 -23l-356 -692h-230z" />
    <glyph glyph-name="eight.tab" 
d="M286 -13q-51 0 -97.5 10t-87 32t-65 61.5t-24.5 92.5q0 145 146 199q-74 44 -74 123q0 102 76.5 161t185.5 59q63 0 116 -17.5t90 -61t37 -107.5q0 -118 -113 -171q93 -46 93 -143q0 -115 -80 -176.5t-203 -61.5zM215 218q0 -32 20.5 -51t54.5 -19q37 0 61.5 24t24.5 65
q0 33 -20 51t-54 18q-37 0 -62 -23.5t-25 -64.5zM264 496q0 -27 18 -46t49 -19t53 21t22 56q0 28 -18 46.5t-47 18.5q-32 0 -54.5 -21.5t-22.5 -55.5z" />
    <glyph glyph-name="nine.tab" 
d="M254 -12q-116 0 -178.5 55t-61.5 165h189q2 -32 16 -47.5t46 -15.5q93 0 118 181q-55 -76 -148 -76q-81 0 -131.5 51t-50.5 143q0 122 77.5 202t207.5 80q121 0 191 -62.5t70 -187.5q0 -37 -9 -93l-12 -77q-27 -167 -105 -242.5t-219 -75.5zM246 468q0 -33 18.5 -54
t51.5 -21q38 0 64.5 25.5t26.5 68.5q0 34 -19 56.5t-55 22.5q-38 0 -62.5 -27.5t-24.5 -70.5z" />
    <glyph glyph-name="cent.tab" 
d="M215 -135l20 127q-95 16 -153 75t-59 154q0 135 82.5 223t215.5 93l15 92h74l-15 -96q183 -27 190 -217h-174q-1 55 -39 72l-42 -266q62 10 78 87h167q-11 -100 -82 -159.5t-185 -62.5l-19 -122h-74zM212 223q0 -73 44 -94l42 263q-86 -24 -86 -169z" />
    <glyph glyph-name="percent.tab" horiz-adv-x="800" 
d="M200 540q0 -23 9.5 -37.5t33.5 -13.5q26 1 39.5 25t13.5 57q0 50 -42 50q-27 0 -40.5 -22.5t-13.5 -58.5zM239 383q-75 0 -124.5 39t-49.5 111q0 81 53.5 135.5t139.5 54.5q72 0 122 -40.5t50 -111.5q0 -79 -53.5 -133.5t-137.5 -54.5zM74 0l582 715h104l-583 -715h-103z
M533 144q0 -51 43 -51q26 1 39 24.5t13 57.5q0 50 -41 50q-27 0 -40.5 -22.5t-13.5 -58.5zM571 -13q-74 0 -123.5 39.5t-49.5 110.5q0 82 53.5 136.5t139.5 54.5q72 0 122 -40.5t50 -111.5q0 -79 -54 -134t-138 -55z" />
    <glyph glyph-name="perthousand.tab" horiz-adv-x="1000" 
d="M173 525q0 -42 32 -42q46 0 46 103q0 43 -30 43q-27 0 -37.5 -33.5t-10.5 -70.5zM197 386q-65 0 -105.5 37t-40.5 104q0 83 47 139.5t129 56.5q64 0 104.5 -37.5t40.5 -103.5q0 -85 -47 -140.5t-128 -55.5zM1 0l589 715h101l-590 -715h-100zM437 127q0 -43 31 -43
q47 0 47 104q0 43 -30 43q-26 0 -37 -34t-11 -70zM462 -13q-66 0 -106.5 37t-40.5 104q0 84 47.5 140.5t128.5 56.5q64 0 104.5 -38t40.5 -103q0 -85 -46.5 -141t-127.5 -56zM777 127q0 -43 32 -43q46 0 46 104q0 43 -31 43q-26 0 -36.5 -34t-10.5 -70zM802 -13
q-66 0 -106 37t-40 104q0 85 47 141t129 56q63 0 104 -38t41 -103q0 -85 -47 -141t-128 -56z" />
    <glyph glyph-name="plus.tab" 
d="M194 87l28 182h-166l22 142h167l29 181h156l-28 -181h165l-23 -142h-165l-28 -182h-157z" />
    <glyph glyph-name="minus.tab" 
d="M54 265l24 149h491l-23 -149h-492z" />
    <glyph glyph-name="multiply.tab" 
d="M124 83l-90 103l174 152l-131 154l116 103l132 -155l174 151l90 -104l-175 -152l132 -153l-117 -103l-132 154z" />
    <glyph glyph-name="divide.tab" 
d="M55 273l21 134h492l-22 -134h-491zM286 34q-42 0 -70.5 28t-28.5 70q0 41 28.5 69t70.5 28q43 0 72.5 -28t29.5 -69q0 -42 -29 -70t-73 -28zM334 450q-42 0 -70.5 28t-28.5 69t28.5 69.5t70.5 28.5q43 0 72.5 -28.5t29.5 -69.5t-29 -69t-73 -28z" />
    <glyph glyph-name="equal.tab" 
d="M45 162l20 131h478l-21 -131h-477zM76 361l20 131h478l-21 -131h-477z" />
    <glyph glyph-name="less.tab" 
d="M493 53l-412 257l7 38l490 244l-28 -181l-215 -89l185 -101z" />
    <glyph glyph-name="greater.tab" 
d="M125 593l411 -257l-6 -38l-490 -244l28 181l215 89l-185 101z" />
    <glyph glyph-name="florin.tab" 
d="M86 283l21 132h99l21 111q37 199 252 199q58 0 94 -12l-23 -145q-24 7 -53 7q-67 0 -80 -70l-17 -90h124l-20 -132h-129l-86 -465h-195l87 465h-95z" />
    <glyph glyph-name="plusminus.tab" 
d="M208 182l26 161h-174l22 142h174l26 162h156l-26 -162h174l-22 -142h-174l-25 -161h-157zM6 0l20 126h507l-20 -126h-507z" />
    <glyph glyph-name="notequal.tab" 
d="M68 361l21 131h242l49 96h123l-49 -96h127l-20 -131h-173l-34 -68h196l-20 -131h-243l-48 -96h-122l48 96h-128l20 131h174l34 68h-197z" />
    <glyph glyph-name="approxequal.tab" 
d="M59 341q13 98 57 143.5t105 45.5q44 0 120 -19.5t96 -19.5q40 0 49 43h111q-10 -91 -55 -139.5t-105 -48.5q-45 0 -121.5 19.5t-96.5 19.5q-40 0 -49 -44h-111zM22 113q13 98 57 143t105 45q44 0 120 -19.5t96 -19.5q39 0 50 44h110q-10 -92 -55 -140.5t-105 -48.5
q-45 0 -121.5 20t-96.5 20q-39 0 -49 -44h-111z" />
    <glyph glyph-name="lessequal.tab" 
d="M491 147l-392 235l6 36l465 224l-28 -178l-160 -71l137 -75zM40 0l20 126h428l-19 -126h-429z" />
    <glyph glyph-name="greaterequal.tab" 
d="M46 0l20 126h429l-20 -126h-429zM147 642l393 -235l-6 -36l-465 -224l28 178l160 71l-137 74z" />
    <glyph glyph-name="parenleft.tab" horiz-adv-x="300" 
d="M121 -148q-94 170 -94 345q0 318 230 578h139q-201 -287 -201 -594q0 -186 56 -329h-130z" />
    <glyph glyph-name="parenright.tab" horiz-adv-x="300" 
d="M193 775q94 -168 94 -345q0 -318 -230 -578h-139q201 287 201 595q0 185 -56 328h130z" />
    <glyph glyph-name="bracketleft.tab" horiz-adv-x="300" 
d="M-25 -148l146 924h246l-19 -127h-71l-106 -670h71l-21 -127h-246z" />
    <glyph glyph-name="bracketright.tab" horiz-adv-x="300" 
d="M-53 -148l20 127h71l106 670h-71l20 127h246l-146 -924h-246z" />
    <glyph glyph-name="braceleft.tab" horiz-adv-x="300" 
d="M221 -148q-285 10 -187 253l31 77q29 70 -53 80l19 120q44 1 61 19t15 53l-6 98q-8 125 56 175t211 49l-20 -126q-45 -2 -60.5 -18.5t-15.5 -61.5l2 -106q2 -60 -27 -95t-96 -52q120 -40 71 -169l-28 -76q-18 -46 -8 -67t56 -26z" />
    <glyph glyph-name="braceright.tab" horiz-adv-x="300" 
d="M93 776q286 -9 187 -252l-31 -78q-29 -69 54 -80l-19 -119q-45 -1 -62 -19t-15 -54l6 -98q8 -124 -56 -174t-211 -50l21 127q45 1 60.5 18t14.5 62l-2 105q-2 60 27.5 95.5t95.5 52.5q-118 40 -70 169l28 76q18 46 7.5 67t-55.5 25z" />
    <glyph glyph-name="period.tab" horiz-adv-x="300" 
d="M122 -12q-47 0 -78.5 31t-31.5 77q0 45 31 76t78 31q48 0 80.5 -31t32.5 -76q0 -46 -32 -77t-80 -31z" />
    <glyph glyph-name="comma.tab" horiz-adv-x="300" 
d="M67 -124l-108 47l105 270l173 -63z" />
    <glyph glyph-name="colon.tab" horiz-adv-x="300" 
d="M121 -12q-47 0 -78 31t-31 77q0 45 30.5 76t77.5 31q48 0 80.5 -31t32.5 -76q0 -46 -32 -77t-80 -31zM167 272q-48 0 -79 31t-31 76q0 46 31 77t78 31q48 0 80.5 -31.5t32.5 -76.5t-32 -76t-80 -31z" />
    <glyph glyph-name="semicolon.tab" horiz-adv-x="300" 
d="M54 -124l-108 47l105 270l172 -63zM169 272q-47 0 -78 31t-31 76q0 46 30.5 77t77.5 31q48 0 80.5 -31.5t32.5 -76.5t-32 -76t-80 -31z" />
    <glyph glyph-name="space.tab" horiz-adv-x="300" 
 />
    <glyph glyph-name="dollar.oldtab" 
d="M203 -131l19 124q-98 14 -154.5 71.5t-49.5 155.5h174q-2 -64 53 -83l20 131q-103 25 -150 72t-47 129q0 105 75 168.5t191 65.5l14 86h73l-14 -90q193 -25 193 -211h-169q-3 50 -48 64l-19 -125q99 -23 151.5 -68.5t52.5 -129.5q0 -113 -74 -176t-199 -65l-19 -119h-73z
M390 196q0 22 -11.5 34t-42.5 21l-19 -121q73 7 73 66zM244 498q0 -36 49 -54l18 114q-67 -6 -67 -60z" />
    <glyph glyph-name="Euro.oldtab" 
d="M37 368l11 72h44q24 133 95 198.5t182 65.5q118 -1 177.5 -61.5t50.5 -176.5h-177q2 40 -10 60t-46 20t-52.5 -24.5t-29.5 -81.5h127l-24 -72h-114l-7 -45h107l-24 -71h-94q-6 -49 6 -77t55 -28q32 0 50 19.5t27 68.5h173q-36 -248 -262 -248q-127 0 -188 70t-50 195h-46
l11 71h44l8 45h-44z" />
    <glyph glyph-name="sterling.oldtab" 
d="M35 277l19 119h43q-4 25 -4 63q0 113 71.5 178.5t190.5 65.5q252 0 235 -238h-178q2 39 -12 56.5t-47 17.5q-70 0 -70 -114v-29h150l-19 -119h-128q-3 -58 -23 -99q51 -15 71 -15q51 0 59 51h177q-14 -108 -69.5 -165.5t-145.5 -57.5q-50 0 -105.5 24.5t-70.5 24.5
q-36 0 -43 -40h-149q21 133 103 176q23 48 23 97v4h-78z" />
    <glyph glyph-name="yen.oldtab" 
d="M61 303l12 72h131l-115 319h217l46 -184l103 184h191l-212 -319h138l-11 -72h-147l-7 -45h147l-12 -72h-146l-29 -186h-213l29 186h-140l11 72h140l7 45h-140z" />
    <glyph glyph-name="zero.oldtab" 
d="M289 154q35 0 52 25.5t26 85.5l13 78q6 48 6 60q0 66 -58 66q-35 0 -54 -27t-28 -86l-12 -78q-6 -33 -6 -58q0 -66 61 -66zM282 -13q-118 0 -186 60t-68 173q0 34 6 70l12 78q19 127 95 195.5t192 68.5q117 0 184.5 -62t67.5 -173q0 -35 -5 -64l-12 -78
q-20 -130 -92.5 -199t-193.5 -69z" />
    <glyph glyph-name="one.oldtab" 
d="M210 0l64 409l-187 -108l28 178l222 140h181l-98 -619h-210z" />
    <glyph glyph-name="two.oldtab" 
d="M-18 0l5 29l246 212q41 35 65 58.5t49 59t25 62.5q0 52 -53 52q-62 0 -82 -95h-191q21 126 96 190t197 64q104 0 175 -46.5t70 -139.5q0 -39 -12 -72.5t-38 -64.5t-49 -52.5t-64 -53.5l-65 -52h190l-23 -151h-541z" />
    <glyph glyph-name="three.oldtab" 
d="M275 -105q-135 0 -210 63.5t-69 185.5h192q0 -47 18.5 -70.5t61.5 -23.5q37 0 58 22t21 63q1 32 -18 51t-55 19h-52l21 130h57q85 0 85 84q0 60 -63 60q-69 0 -86 -87h-191q17 115 91 177.5t194 62.5q48 0 90.5 -9.5t79.5 -30t59 -58.5t22 -89q0 -65 -34 -110t-98 -63
q103 -32 103 -147q0 -108 -79 -169t-198 -61z" />
    <glyph glyph-name="four.oldtab" 
d="M251 -92l21 130h-294l11 69l323 512h249l-71 -444h73l-21 -137h-72l-22 -130h-197zM172 175h125l44 272z" />
    <glyph glyph-name="five.oldtab" 
d="M7 131h187q0 -78 71 -78q83 0 83 108q0 35 -20 56.5t-60 21.5q-62 0 -99 -51h-127l84 431h454l-27 -160h-302l-30 -155q60 80 153 80q81 0 129.5 -51.5t48.5 -146.5q0 -132 -72 -211t-213 -79q-125 0 -196.5 61.5t-63.5 173.5z" />
    <glyph glyph-name="six.oldtab" 
d="M302 -13q-124 0 -196 66.5t-72 195.5q0 28 8 82l11 73q24 154 110.5 237.5t216.5 83.5q110 0 172.5 -51.5t56.5 -163.5h-185q2 61 -57 61q-91 0 -123 -193q54 77 155 77q82 0 129 -51t47 -138q0 -127 -74 -203t-199 -76zM225 224q0 -36 19.5 -58.5t57.5 -22.5
q39 0 63.5 28.5t25.5 72.5q0 35 -19 56t-56 21q-39 0 -65 -27.5t-26 -69.5z" />
    <glyph glyph-name="seven.oldtab" 
d="M39 -92l282 537h-261l28 174h539l-5 -23l-357 -688h-226z" />
    <glyph glyph-name="eight.oldtab" 
d="M286 -13q-114 0 -193.5 50t-79.5 147q0 146 149 197q-76 45 -76 128q0 101 76 158.5t185 57.5q100 0 169.5 -46t69.5 -141q0 -125 -117 -173q98 -45 98 -150q0 -110 -80.5 -169t-200.5 -59zM214 211q0 -33 20 -51.5t56 -18.5t59.5 24.5t23.5 66.5q0 33 -19 52t-54 19
q-37 0 -61.5 -25.5t-24.5 -66.5zM265 497q0 -28 18 -46t48 -18q32 0 53.5 21.5t21.5 58.5q0 28 -18 47t-48 19q-32 0 -53.5 -22.5t-21.5 -59.5z" />
    <glyph glyph-name="nine.oldtab" 
d="M318 632q122 0 190.5 -64t68.5 -190q0 -38 -7 -87l-11 -73q-26 -168 -103 -246t-213 -78q-72 0 -126 20.5t-88.5 71.5t-32.5 129h185q0 -67 62 -67q49 0 78 46t46 147q-53 -77 -153 -77q-81 0 -129.5 51.5t-48.5 139.5q0 125 78.5 201t203.5 76zM386 398q0 37 -19 59
t-57 22q-39 0 -63.5 -28.5t-25.5 -72.5q-1 -34 18.5 -55.5t56.5 -21.5q39 0 64.5 27.5t25.5 69.5z" />
    <glyph glyph-name="zero.num" horiz-adv-x="435" 
d="M204 493q0 -58 45 -58q18 0 31.5 12.5t20 32t9 38t2.5 37.5q0 58 -45 58q-24 0 -39.5 -23.5t-19.5 -48t-4 -48.5zM243 326q-83 0 -133 42t-50 120q0 102 58 167.5t156 65.5q82 0 132 -42t50 -120q0 -104 -57 -168.5t-156 -64.5z" />
    <glyph glyph-name="one.num" horiz-adv-x="297" 
d="M112 333l38 241l-89 -45l19 118l114 68h124l-61 -382h-145z" />
    <glyph glyph-name="two.num" horiz-adv-x="366" 
d="M15 333l3 18l149 133q69 62 82 86q5 10 5 18q0 28 -25 28q-32 0 -43 -51h-132q11 77 60 116.5t126 39.5q70 0 113.5 -28t43.5 -89q0 -38 -25 -71t-79 -77l-24 -20h103l-16 -103h-341z" />
    <glyph glyph-name="three.num" horiz-adv-x="385" 
d="M220 326q-80 0 -125.5 33.5t-46.5 103.5h128q0 -38 38 -38q15 0 25.5 8t10.5 25q0 27 -41 27h-29l12 79h35q41 0 41 32q0 26 -30 26q-34 0 -41 -35h-126q9 63 56 98.5t124 35.5q40 0 72.5 -8.5t56.5 -33t24 -62.5q0 -69 -77 -91q65 -15 65 -78q0 -60 -49 -91t-123 -31z
" />
    <glyph glyph-name="four.num" horiz-adv-x="408" 
d="M210 333l11 70h-189l9 54l197 258h173l-34 -218h48l-15 -94h-48l-11 -70h-141zM172 497h69l19 120z" />
    <glyph glyph-name="five.num" horiz-adv-x="378" 
d="M215 326q-72 0 -120.5 31t-50.5 99h135q2 -26 32 -26q15 0 25.5 10.5t10.5 29.5q0 32 -33 32q-25 0 -38 -23h-113l50 236h291l-16 -100h-192l-16 -76q35 49 103 49q48 0 77.5 -26.5t29.5 -77.5q-1 -78 -48 -118t-127 -40z" />
    <glyph glyph-name="six.num" horiz-adv-x="404" 
d="M241 326q-83 0 -132 39t-49 117q0 26 4 49l2 12q13 82 69 130t137 48q155 0 158 -123h-132q-3 22 -29 22q-43 0 -60 -79q32 39 91 39q51 0 83.5 -27t32.5 -77q0 -73 -49.5 -111.5t-125.5 -38.5zM204 456q0 -35 35 -35q17 0 28 12t11 32q0 35 -34 35q-17 0 -28.5 -12
t-11.5 -32z" />
    <glyph glyph-name="seven.num" horiz-adv-x="357" 
d="M71 333l144 269h-144l18 113h329l-3 -16l-197 -366h-147z" />
    <glyph glyph-name="eight.num" horiz-adv-x="393" 
d="M227 326q-47 0 -85.5 9t-66.5 34.5t-28 65.5q0 77 84 103q-45 24 -45 67q0 58 48.5 87t115.5 29q68 0 114.5 -26t46.5 -79q0 -70 -64 -89q57 -22 57 -77q0 -65 -51.5 -94.5t-125.5 -29.5zM191 453q0 -13 9.5 -22.5t25.5 -9.5q17 0 28.5 10t11.5 28q0 14 -9 23.5t-26 9.5
t-28.5 -10.5t-11.5 -28.5zM213 594q0 -30 32 -30q15 0 25.5 9.5t10.5 25.5q0 13 -9.5 21.5t-23.5 8.5t-24.5 -9.5t-10.5 -25.5z" />
    <glyph glyph-name="nine.num" horiz-adv-x="404" 
d="M246 721q82 0 129.5 -38.5t47.5 -116.5q0 -28 -4 -51l-2 -12q-26 -177 -205 -177q-153 0 -160 123h132q5 -22 31 -22q46 0 59 79q-30 -39 -90 -39q-52 0 -84.5 26.5t-32.5 78.5q0 71 51.5 110t127.5 39zM279 591q0 35 -34 35q-17 0 -28 -12t-11 -33q0 -34 33 -34
q17 0 28.5 11.5t11.5 32.5z" />
    <glyph glyph-name="zero.den" horiz-adv-x="435" 
d="M152 160q0 -58 45 -58q24 0 39 22t19.5 47t4.5 51q0 58 -45 58q-24 0 -39.5 -23.5t-19.5 -48t-4 -48.5zM191 -7q-83 0 -133 42t-50 120q0 101 58 166.5t156 65.5q82 0 132 -41.5t50 -120.5q0 -103 -57 -167.5t-156 -64.5z" />
    <glyph glyph-name="one.den" horiz-adv-x="297" 
d="M60 0l38 240l-89 -44l19 118l114 68h124l-61 -382h-145z" />
    <glyph glyph-name="two.den" horiz-adv-x="366" 
d="M-37 0l3 18l149 133q87 75 87 104q0 27 -25 27q-32 0 -43 -50h-132q11 77 60 116t126 39q70 0 113.5 -27.5t43.5 -88.5q0 -38 -25 -71t-79 -77l-24 -21h103l-16 -102h-341z" />
    <glyph glyph-name="three.den" horiz-adv-x="385" 
d="M168 -7q-80 0 -125.5 33t-46.5 104h128q0 -38 38 -38q36 0 36 33q0 27 -41 27h-29l12 79h35q41 0 41 31q0 27 -30 27q-34 0 -41 -36h-126q9 64 56 99t124 35q64 0 108.5 -24t44.5 -80q0 -69 -77 -91q65 -14 65 -77q0 -60 -49 -91t-123 -31z" />
    <glyph glyph-name="four.den" horiz-adv-x="408" 
d="M158 0l11 70h-189l9 53l197 259h173l-34 -218h48l-15 -94h-48l-11 -70h-141zM120 164h69l19 120z" />
    <glyph glyph-name="five.den" horiz-adv-x="378" 
d="M163 -7q-72 0 -120.5 31t-50.5 98h135q2 -25 32 -25q15 0 25.5 10.5t10.5 29.5q0 32 -33 32q-24 0 -38 -23h-113l50 236h291l-16 -101h-192l-16 -75q36 49 103 49q48 0 77.5 -27t29.5 -78q-1 -77 -48 -117t-127 -40z" />
    <glyph glyph-name="six.den" horiz-adv-x="404" 
d="M189 -7q-83 0 -132 39t-49 117q0 27 4 48l2 13q13 82 69 129.5t137 47.5q155 0 158 -123h-132q-3 22 -29 22q-43 0 -60 -78q33 38 91 38q51 0 83.5 -26.5t32.5 -76.5q0 -73 -49.5 -111.5t-125.5 -38.5zM152 123q0 -35 35 -35q17 0 28 12t11 32q0 35 -34 35
q-17 0 -28.5 -12t-11.5 -32z" />
    <glyph glyph-name="seven.den" horiz-adv-x="357" 
d="M19 0l144 269h-144l18 113h329l-3 -16l-197 -366h-147z" />
    <glyph glyph-name="eight.den" horiz-adv-x="393" 
d="M175 -7q-47 0 -85.5 9t-66.5 34.5t-28 65.5q0 42 21.5 65.5t62.5 37.5q-45 24 -45 67q0 58 48 86.5t116 28.5t114.5 -26t46.5 -78q0 -70 -64 -90q57 -20 57 -77q0 -64 -51.5 -93.5t-125.5 -29.5zM139 120q0 -14 9 -23t26 -9q18 0 29.5 9.5t11.5 27.5q0 15 -9.5 24
t-26.5 9t-28.5 -10t-11.5 -28zM161 261q0 -30 32 -30q16 0 26 9t10 26q0 13 -9.5 21.5t-23.5 8.5t-24.5 -9.5t-10.5 -25.5z" />
    <glyph glyph-name="nine.den" horiz-adv-x="404" 
d="M194 388q82 0 129.5 -38.5t47.5 -116.5q0 -30 -4 -51l-2 -13q-26 -176 -205 -176q-153 0 -160 123h132q5 -22 31 -22q47 0 59 78q-31 -38 -90 -38q-52 0 -84.5 26.5t-32.5 78.5q0 71 51.5 110t127.5 39zM227 258q0 35 -34 35q-17 0 -28 -12t-11 -33q0 -35 33 -35
q17 0 28.5 12t11.5 33z" />
    <glyph glyph-name="zero.sub" horiz-adv-x="435" 
d="M131 34q0 -58 46 -58q18 0 31.5 12.5t20 32t9 38t2.5 37.5q0 58 -45 58q-19 0 -32.5 -13t-19.5 -33t-9 -38.5t-3 -35.5zM170 -133q-83 0 -132.5 42t-49.5 120q0 102 57.5 167t156.5 65q82 0 131.5 -41.5t49.5 -120.5q0 -103 -56.5 -167.5t-156.5 -64.5z" />
    <glyph glyph-name="one.sub" horiz-adv-x="297" 
d="M40 -126l38 240l-89 -44l18 118l115 68h124l-61 -382h-145z" />
    <glyph glyph-name="two.sub" horiz-adv-x="366" 
d="M-58 -126l4 18l149 133q87 75 87 104q0 27 -25 27q-32 0 -43 -50h-132q11 77 60 116t126 39q70 0 113.5 -27.5t43.5 -88.5q0 -38 -25 -71t-79 -77l-24 -21h103l-17 -102h-341z" />
    <glyph glyph-name="three.sub" horiz-adv-x="385" 
d="M148 -133q-80 0 -125.5 33t-46.5 104h127q2 -38 39 -38q35 0 35 33q0 27 -41 27h-28l12 79h35q41 0 41 31q0 27 -30 27q-33 0 -42 -36h-125q9 64 55.5 99t124.5 35q64 0 108.5 -24t44.5 -80q0 -69 -78 -91q66 -14 66 -77q0 -60 -49 -91t-123 -31z" />
    <glyph glyph-name="four.sub" horiz-adv-x="408" 
d="M138 -126l11 70h-189l9 53l197 259h173l-34 -218h48l-15 -94h-48l-11 -70h-141zM100 38h69l19 120z" />
    <glyph glyph-name="five.sub" horiz-adv-x="378" 
d="M143 -133q-72 0 -120.5 31t-50.5 98h135q2 -25 32 -25q15 0 25 10.5t10 29.5q0 32 -33 32q-23 0 -37 -23h-113l50 236h291l-16 -101h-192l-16 -75q36 49 102 49q49 0 78.5 -27t28.5 -78q0 -77 -47 -117t-127 -40z" />
    <glyph glyph-name="six.sub" horiz-adv-x="404" 
d="M168 -133q-82 0 -131 39t-49 117q0 27 4 48l2 13q13 82 69 129.5t137 47.5q155 0 158 -123h-132q-3 22 -30 22q-44 0 -59 -78q33 38 90 38q52 0 84.5 -26.5t32.5 -76.5q0 -73 -49.5 -111.5t-126.5 -38.5zM132 -3q0 -35 34 -35q18 0 28.5 11.5t10.5 32.5q0 35 -33 35
q-17 0 -28.5 -12t-11.5 -32z" />
    <glyph glyph-name="seven.sub" horiz-adv-x="357" 
d="M-2 -126l145 269h-145l19 113h329l-3 -16l-197 -366h-148z" />
    <glyph glyph-name="eight.sub" horiz-adv-x="393" 
d="M155 -133q-47 0 -85.5 9t-66.5 34.5t-28 65.5q0 42 21.5 65.5t62.5 37.5q-45 23 -45 67q0 58 48 86.5t116 28.5t114.5 -26t46.5 -78q0 -70 -64 -90q57 -20 57 -77q0 -64 -51.5 -93.5t-125.5 -29.5zM119 -6q0 -14 9 -23t26 -9t28.5 9.5t11.5 27.5q0 33 -35 33
q-17 0 -28.5 -10t-11.5 -28zM140 135q0 -13 9 -21.5t23 -8.5q16 0 26.5 9t10.5 26q0 13 -9.5 21.5t-23.5 8.5q-15 0 -25.5 -9.5t-10.5 -25.5z" />
    <glyph glyph-name="nine.sub" horiz-adv-x="404" 
d="M174 262q82 0 129.5 -38.5t47.5 -116.5q0 -30 -4 -51l-2 -13q-28 -176 -205 -176q-153 0 -160 123h132q3 -22 31 -22q47 0 59 78q-33 -38 -90 -38q-52 0 -84.5 26.5t-32.5 78.5q0 71 51.5 110t127.5 39zM207 132q0 35 -34 35q-17 0 -28 -12t-11 -33q0 -35 33 -35
q17 0 28.5 12t11.5 33z" />
    <glyph glyph-name="plus.sub" horiz-adv-x="361" 
d="M75 -76l15 98h-95l16 99h95l16 99h102l-16 -99h95l-16 -99h-95l-15 -98h-102z" />
    <glyph glyph-name="minus.sub" horiz-adv-x="361" 
d="M-5 22l16 99h292l-16 -99h-292z" />
    <glyph glyph-name="zero.sup" horiz-adv-x="435" 
d="M209 551q0 -58 46 -58q18 0 31.5 12.5t20 32t9 38t2.5 37.5q0 58 -45 58q-19 0 -32.5 -13t-19.5 -33t-9 -38.5t-3 -35.5zM249 384q-83 0 -133 42t-50 120q0 102 57.5 167.5t156.5 65.5q82 0 132 -42t50 -120q0 -104 -57 -168.5t-156 -64.5z" />
    <glyph glyph-name="one.sup" horiz-adv-x="297" 
d="M118 391l38 241l-89 -45l18 118l115 68h124l-61 -382h-145z" />
    <glyph glyph-name="two.sup" horiz-adv-x="366" 
d="M21 391l3 18l149 133q69 62 82 86q5 10 5 18q0 28 -25 28q-32 0 -43 -51h-132q11 77 60 116.5t126 39.5q70 0 113.5 -28t43.5 -89q0 -38 -25 -71t-79 -77l-24 -20h103l-17 -103h-340z" />
    <glyph glyph-name="three.sup" horiz-adv-x="385" 
d="M226 384q-80 0 -125.5 33.5t-46.5 103.5h127q2 -38 39 -38q14 0 24.5 8t10.5 25q0 27 -41 27h-28l12 79h35q41 0 41 32q0 26 -30 26q-34 0 -41 -35h-126q9 63 56 98.5t124 35.5q40 0 72.5 -8.5t56.5 -33t24 -62.5q0 -69 -78 -91q66 -15 66 -78q0 -60 -49 -91t-123 -31z
" />
    <glyph glyph-name="four.sup" horiz-adv-x="408" 
d="M216 391l11 70h-189l9 54l197 258h173l-34 -218h48l-15 -94h-48l-11 -70h-141zM178 555h69l19 120z" />
    <glyph glyph-name="five.sup" horiz-adv-x="378" 
d="M221 384q-72 0 -120.5 31t-50.5 99h135q2 -26 32 -26q15 0 25 10.5t10 29.5q0 32 -33 32q-24 0 -37 -23h-113l50 236h291l-16 -100h-192l-16 -76q35 49 102 49q49 0 78.5 -26.5t29.5 -77.5q-1 -78 -48 -118t-127 -40z" />
    <glyph glyph-name="six.sup" horiz-adv-x="404" 
d="M246 384q-82 0 -131 39t-49 117q0 26 4 49l2 12q13 82 69 130t137 48q155 0 158 -123h-132q-3 22 -29 22q-43 0 -60 -79q32 39 90 39q52 0 84.5 -27t32.5 -77q0 -73 -49.5 -111.5t-126.5 -38.5zM210 514q0 -35 35 -35q17 0 27.5 11.5t10.5 32.5q0 35 -33 35
q-17 0 -28.5 -12t-11.5 -32z" />
    <glyph glyph-name="seven.sup" horiz-adv-x="357" 
d="M77 391l144 269h-144l18 113h329l-3 -16l-197 -366h-147z" />
    <glyph glyph-name="eight.sup" horiz-adv-x="393" 
d="M233 384q-47 0 -85.5 9t-66.5 34.5t-28 65.5q0 77 84 103q-45 24 -45 67q0 58 48.5 87t115.5 29q68 0 114.5 -26t46.5 -79q0 -70 -64 -89q57 -22 57 -77q0 -65 -51.5 -94.5t-125.5 -29.5zM197 511q0 -13 9.5 -22.5t25.5 -9.5q17 0 28.5 10t11.5 28q0 14 -9 23.5t-26 9.5
t-28.5 -10.5t-11.5 -28.5zM219 652q0 -14 8.5 -22t22.5 -8q16 0 26.5 9.5t10.5 25.5q0 13 -9.5 21.5t-23.5 8.5t-24.5 -9.5t-10.5 -25.5z" />
    <glyph glyph-name="nine.sup" horiz-adv-x="404" 
d="M252 779q82 0 129.5 -38.5t47.5 -116.5q0 -28 -4 -51l-2 -12q-28 -177 -205 -177q-153 0 -160 123h132q5 -22 31 -22q46 0 59 79q-30 -39 -90 -39q-52 0 -84.5 26.5t-32.5 78.5q0 71 51.5 110t127.5 39zM285 649q0 35 -34 35q-17 0 -28 -12t-11 -33q0 -34 33 -34
q17 0 28.5 11.5t11.5 32.5z" />
    <glyph glyph-name="plus.sup" horiz-adv-x="361" 
d="M147 442l15 97h-96l16 100h96l15 98h102l-15 -98h95l-16 -100h-95l-15 -97h-102z" />
    <glyph glyph-name="minus.sup" horiz-adv-x="361" 
d="M66 539l16 100h293l-16 -100h-293z" />
    <glyph glyph-name="a.alt" horiz-adv-x="638" 
d="M323 393q-46 0 -74.5 -45t-28.5 -118q0 -97 74 -97q45 0 74.5 47t29.5 118q0 45 -19.5 70t-55.5 25zM204 -13q-84 0 -135 59t-51 164q0 150 71.5 238.5t177.5 88.5q59 0 98 -25.5t55 -67.5l12 79h197l-56 -359q-16 -103 -11 -164h-195q-5 28 -3 86q-59 -99 -160 -99z" />
    <glyph glyph-name="t.alt" horiz-adv-x="389" 
d="M40 0l61 391h-70l20 132h71l17 107h197l-17 -107h92l-20 -132h-93l-61 -391h-197z" />
    <glyph glyph-name="germandbls.alt" horiz-adv-x="699" 
d="M460 -9q-96 0 -154 41.5t-57 131.5h162q0 -50 37 -50q35 0 35 38q0 8 -3 15t-11 13t-15 10.5t-21.5 13t-24.5 14.5q-99 58 -99 130q0 31 15 58.5t36 47.5t42 37.5t36 36t15 36.5q0 52 -69 52q-85 0 -100 -93l-82 -523h-197l83 527q19 120 99.5 177.5t207.5 57.5
q67 0 120.5 -15t91.5 -55t38 -100q0 -35 -15 -65.5t-37 -50t-44 -35.5t-37 -28.5t-15 -21.5q0 -10 9 -18.5t37 -26.5q13 -8 21 -13q53 -35 79 -71.5t26 -92.5q0 -85 -56.5 -131.5t-152.5 -46.5z" />
    <glyph glyph-name="aacute.alt" horiz-adv-x="638" 
d="M278 578l73 169h194l-125 -169h-142zM323 393q-46 0 -74.5 -45t-28.5 -118q0 -97 74 -97q45 0 74.5 47t29.5 118q0 45 -19.5 70t-55.5 25zM204 -13q-84 0 -135 59t-51 164q0 150 71.5 238.5t177.5 88.5q59 0 98 -25.5t55 -67.5l12 79h197l-56 -359q-16 -103 -11 -164
h-195q-5 28 -3 86q-59 -99 -160 -99z" />
    <glyph glyph-name="abreve.alt" horiz-adv-x="638" 
d="M323 393q-46 0 -74.5 -45t-28.5 -118q0 -97 74 -97q45 0 74.5 47t29.5 118q0 45 -19.5 70t-55.5 25zM204 -13q-84 0 -135 59t-51 164q0 150 71.5 238.5t177.5 88.5q59 0 98 -25.5t55 -67.5l12 79h197l-56 -359q-16 -103 -11 -164h-195q-5 28 -3 86q-59 -99 -160 -99z
M363 581q-79 0 -123 43t-41 120h118q3 -45 48 -45q46 0 52 45h120q-10 -79 -56 -121t-118 -42z" />
    <glyph glyph-name="acircumflex.alt" horiz-adv-x="638" 
d="M165 580l147 166h137l99 -166h-132l-49 53l-63 -53h-139zM323 393q-46 0 -74.5 -45t-28.5 -118q0 -97 74 -97q45 0 74.5 47t29.5 118q0 45 -19.5 70t-55.5 25zM204 -13q-84 0 -135 59t-51 164q0 150 71.5 238.5t177.5 88.5q59 0 98 -25.5t55 -67.5l12 79h197l-56 -359
q-16 -103 -11 -164h-195q-5 28 -3 86q-59 -99 -160 -99z" />
    <glyph glyph-name="adieresis.alt" horiz-adv-x="638" 
d="M258 570q-38 0 -64.5 26t-26.5 63t27 63t65 26t64.5 -26t26.5 -63t-27 -63t-65 -26zM475 570q-38 0 -64 25.5t-26 63.5q0 37 26.5 63t63.5 26q39 0 65.5 -26t26.5 -63t-26.5 -63t-65.5 -26zM323 393q-46 0 -74.5 -45t-28.5 -118q0 -97 74 -97q45 0 74.5 47t29.5 118
q0 45 -19.5 70t-55.5 25zM204 -13q-84 0 -135 59t-51 164q0 150 71.5 238.5t177.5 88.5q59 0 98 -25.5t55 -67.5l12 79h197l-56 -359q-16 -103 -11 -164h-195q-5 28 -3 86q-59 -99 -160 -99z" />
    <glyph glyph-name="agrave.alt" horiz-adv-x="638" 
d="M323 393q-46 0 -74.5 -45t-28.5 -118q0 -97 74 -97q45 0 74.5 47t29.5 118q0 45 -19.5 70t-55.5 25zM204 -13q-84 0 -135 59t-51 164q0 150 71.5 238.5t177.5 88.5q59 0 98 -25.5t55 -67.5l12 79h197l-56 -359q-16 -103 -11 -164h-195q-5 28 -3 86q-59 -99 -160 -99z
M293 578l-93 169h192l38 -169h-137z" />
    <glyph glyph-name="amacron.alt" horiz-adv-x="638" 
d="M323 393q-46 0 -74.5 -45t-28.5 -118q0 -97 74 -97q45 0 74.5 47t29.5 118q0 45 -19.5 70t-55.5 25zM204 -13q-84 0 -135 59t-51 164q0 150 71.5 238.5t177.5 88.5q59 0 98 -25.5t55 -67.5l12 79h197l-56 -359q-16 -103 -11 -164h-195q-5 28 -3 86q-59 -99 -160 -99z
M204 605l17 107h316l-17 -107h-316z" />
    <glyph glyph-name="aogonek.alt" horiz-adv-x="638" 
d="M466 -182q-115 0 -115 79q0 37 29 63t68 40h-81q-5 28 -3 86q-59 -99 -160 -99q-84 0 -135 59t-51 164q0 150 71.5 238.5t177.5 88.5q59 0 98 -25.5t55 -67.5l12 79h197l-56 -359q-16 -102 -12 -156q-15 -13 -19.5 -17.5t-15 -15.5t-14.5 -20t-4 -18q0 -22 28 -22
q14 0 25 3l-14 -85q-36 -15 -81 -15zM323 393q-46 0 -74.5 -45t-28.5 -118q0 -97 74 -97q45 0 74.5 47t29.5 118q0 45 -19.5 70t-55.5 25z" />
    <glyph glyph-name="aring.alt" horiz-adv-x="638" 
d="M365 642q20 0 32.5 13.5t12.5 35.5q0 21 -12.5 34.5t-31.5 13.5q-20 0 -32.5 -13.5t-12.5 -35.5q0 -21 12.5 -34.5t31.5 -13.5zM365 574q-50 0 -85 34t-35 82t35.5 82.5t85.5 34.5t85 -34t35 -82q0 -49 -35.5 -83t-85.5 -34zM323 393q-46 0 -74.5 -45t-28.5 -118
q0 -97 74 -97q45 0 74.5 47t29.5 118q0 45 -19.5 70t-55.5 25zM204 -13q-84 0 -135 59t-51 164q0 150 71.5 238.5t177.5 88.5q59 0 98 -25.5t55 -67.5l12 79h197l-56 -359q-16 -103 -11 -164h-195q-5 28 -3 86q-59 -99 -160 -99z" />
    <glyph glyph-name="aringacute.alt" horiz-adv-x="638" 
d="M365 638q20 0 32.5 13.5t12.5 35.5q0 21 -12.5 34.5t-31.5 13.5q-20 0 -32.5 -13.5t-12.5 -35.5q0 -21 12.5 -34.5t31.5 -13.5zM365 570q-50 0 -85 34t-35 82t35.5 82.5t85.5 34.5t85 -34t35 -82q0 -49 -35.5 -83t-85.5 -34zM323 393q-46 0 -74.5 -45t-28.5 -118
q0 -97 74 -97q45 0 74.5 47t29.5 118q0 45 -19.5 70t-55.5 25zM204 -13q-84 0 -135 59t-51 164q0 150 71.5 238.5t177.5 88.5q59 0 98 -25.5t55 -67.5l12 79h197l-56 -359q-16 -103 -11 -164h-195q-5 28 -3 86q-59 -99 -160 -99zM306 829l64 149h201l-115 -149h-150z" />
    <glyph glyph-name="atilde.alt" horiz-adv-x="638" 
d="M323 393q-46 0 -74.5 -45t-28.5 -118q0 -97 74 -97q45 0 74.5 47t29.5 118q0 45 -19.5 70t-55.5 25zM204 -13q-84 0 -135 59t-51 164q0 150 71.5 238.5t177.5 88.5q59 0 98 -25.5t55 -67.5l12 79h197l-56 -359q-16 -103 -11 -164h-195q-5 28 -3 86q-59 -99 -160 -99z
M430 581q-33 0 -69.5 16t-48.5 16q-25 0 -33 -30h-103q12 81 47 121.5t85 40.5q31 0 69 -16t52 -16q24 0 32 31h104q-13 -81 -49.5 -122t-85.5 -41z" />
    <glyph glyph-name="tbar.alt" horiz-adv-x="389" 
d="M5 225l17 106h69l10 60h-70l20 132h71l17 107h197l-17 -107h92l-20 -132h-93l-10 -60h93l-17 -106h-92l-35 -225h-197l35 225h-70z" />
    <glyph glyph-name="tcaron.alt" horiz-adv-x="389" 
d="M40 0l61 391h-70l20 132h71l17 107h197l-17 -107h92l-20 -132h-93l-61 -391h-197zM366 575l35 175h139l-75 -175h-99z" />
    <glyph glyph-name="tcommaaccent.alt" horiz-adv-x="389" 
d="M107 -233l-108 27l47 175l171 -12zM40 0l61 391h-70l20 132h71l17 107h197l-17 -107h92l-20 -132h-93l-61 -391h-197z" />
    <glyph glyph-name="f.short" horiz-adv-x="391" 
d="M30 391l20 132h64l10 59q16 92 76.5 136t150.5 44q59 0 97 -15l-22 -142q-26 8 -47 8q-53 0 -62 -52l-6 -38h102l-21 -132h-102l-62 -391h-196l62 391h-64z" />
    <glyph glyph-name="f_f.short" horiz-adv-x="731" 
d="M30 391l20 132h64l8 49q14 91 74.5 135t150.5 44q53 0 95 -14l-22 -142q-23 7 -44 7q-52 0 -61 -51l-5 -28h143l10 59q14 92 75.5 136t152.5 44q57 0 97 -15l-23 -142q-24 8 -46 8q-54 0 -63 -52l-6 -38h102l-20 -132h-103l-61 -391h-196l61 391h-144l-61 -391h-196
l61 391h-63z" />
    <glyph glyph-name="questiondown.uc" horiz-adv-x="568" 
d="M435 474l-3 -19q-6 -38 -27.5 -70.5t-39 -47.5t-51.5 -41q-5 -3 -19 -14t-18.5 -14.5t-15 -12.5t-14.5 -14.5t-9.5 -13.5t-7.5 -16.5t-2 -17.5q2 -44 49 -44q58 0 74 80h192q-15 -118 -93 -179t-195 -60q-116 0 -178 49.5t-62 133.5q0 62 26.5 102t75.5 77
q11 8 38.5 26.5t41.5 29.5t30 29t22 37h186zM365 727q47 0 78 -30t31 -74q0 -45 -32 -76.5t-79 -31.5t-79 31t-32 75t33 75t80 31z" />
    <glyph glyph-name="exclamdown.uc" horiz-adv-x="343" 
d="M287 474l-47 -474h-221l104 474h164zM227 727q47 0 78 -30t31 -75q0 -44 -32 -75t-79 -31q-48 0 -80 30.5t-32 74.5t33.5 75t80.5 31z" />
    <glyph glyph-name="hyphen.uc" horiz-adv-x="412" 
d="M46 249l24 154h315l-25 -154h-314z" />
    <glyph glyph-name="endash.uc" horiz-adv-x="543" 
d="M47 274l18 111h451l-18 -111h-451z" />
    <glyph glyph-name="emdash.uc" horiz-adv-x="958" 
d="M47 274l18 111h866l-18 -111h-866z" />
    <glyph glyph-name="guilsinglleft.uc" horiz-adv-x="304" 
d="M124 105l-96 202l152 190h132l-149 -191l84 -201h-123z" />
    <glyph glyph-name="guilsinglright.uc" horiz-adv-x="304" 
d="M189 497l95 -202l-151 -190h-133l149 191l-84 201h124z" />
    <glyph glyph-name="guillemotleft.uc" horiz-adv-x="477" 
d="M126 105l-98 201l143 191h125l-142 -193l90 -199h-118zM304 105l-94 199l143 193h125l-142 -197l86 -195h-118z" />
    <glyph glyph-name="guillemotright.uc" horiz-adv-x="477" 
d="M361 497l98 -201l-143 -191h-125l142 193l-90 199h118zM183 497l94 -199l-143 -193h-125l142 197l-86 195h118z" />
    <glyph glyph-name="parenleft.uc" horiz-adv-x="362" 
d="M143 -98q-108 158 -108 344q0 307 251 539h156q-112 -146 -166.5 -272.5t-54.5 -281.5q0 -175 71 -329h-149z" />
    <glyph glyph-name="parenright.uc" horiz-adv-x="362" 
d="M239 785q108 -158 108 -344q0 -307 -251 -539h-156q112 146 166.5 272.5t54.5 281.5q0 175 -71 329h149z" />
    <glyph glyph-name="bracketleft.uc" horiz-adv-x="419" 
d="M4 -95l139 879h321l-23 -142h-122l-94 -594h122l-22 -143h-321z" />
    <glyph glyph-name="bracketright.uc" horiz-adv-x="419" 
d="M-20 -95l23 143h121l94 594h-121l23 142h319l-140 -879h-319z" />
    <glyph glyph-name="braceleft.uc" horiz-adv-x="425" 
d="M330 -96q-153 2 -215 64.5t-23 179.5l18 55q28 76 -78 82l21 136q56 -1 79 16t22 56l-1 61q-1 129 73.5 180t242.5 50l-22 -142q-56 -3 -77 -23t-22 -69l-3 -72q-3 -109 -122 -133q56 -14 76 -51.5t3 -93.5l-20 -65q-15 -46 1 -65t70 -23z" />
    <glyph glyph-name="braceright.uc" horiz-adv-x="425" 
d="M119 784q153 -1 215 -63.5t23 -179.5l-18 -55q-28 -76 78 -82l-21 -136q-56 1 -79 -16t-22 -56v-61q1 -129 -73 -180t-243 -51l23 143q56 3 77 23t22 69l2 72q4 109 123 133q-56 14 -76 51.5t-3 92.5l20 65q15 46 -1 65.5t-70 23.5z" />
    <glyph glyph-name="slash.uc" horiz-adv-x="440" 
d="M-56 -84l417 860h159l-419 -860h-157z" />
    <glyph glyph-name="backslash.uc" horiz-adv-x="447" 
d="M252 -84l-182 860h149l182 -860h-149z" />
    <glyph glyph-name="bar.uc" horiz-adv-x="270" 
d="M81 -84l-1 860h136v-860h-135z" />
    <glyph glyph-name="at.uc" horiz-adv-x="927" 
d="M475 -85q-196 0 -313 115.5t-117 288.5q0 98 38 182.5t102 140.5t146.5 87.5t172.5 31.5q177 0 292 -98.5t115 -258.5q0 -142 -66.5 -211t-162.5 -69q-125 0 -145 80q-44 -81 -141 -81q-68 0 -109 46.5t-43 125.5q0 110 59 179t146 69q81 0 104 -57l9 49h159l-44 -274
q-11 -64 38 -64q46 0 80 52.5t34 157.5q0 127 -89.5 205.5t-237.5 78.5q-158 0 -264 -102.5t-106 -272.5q0 -146 89.5 -238t257.5 -92q83 0 152 25.5t108 63.5h94q-52 -73 -148 -116.5t-210 -43.5zM458 249q31 0 52.5 32t21.5 80q0 58 -54 58q-30 0 -51 -30.5t-20 -81.5
q0 -26 13 -42t38 -16z" />
    </font>
</defs>
</svg>
